<?xml version="1.0" standalone="no"?>
<!DOCTYPE svg PUBLIC "-//W3C//DTD SVG 1.1//EN" "http://www.w3.org/Graphics/SVG/1.1/DTD/svg11.dtd" >
<svg xmlns="http://www.w3.org/2000/svg" xmlns:xlink="http://www.w3.org/1999/xlink" version="1.1">
<metadata></metadata>
<defs>
<font id="indivisa_display_serifheavy" horiz-adv-x="615" >
<font-face units-per-em="1000" ascent="800" descent="-200" />
<missing-glyph horiz-adv-x="200" />
<glyph unicode="&#xfb00;" horiz-adv-x="708" d="M308 0h-296l-2 14l18 10q17 9 22 18t5 28v365h-63l-2 14l65 25h1q9 96 77.5 158.5t185.5 62.5q84 0 149 -46q65 47 155 47q69 0 115.5 -30t46.5 -72q0 -33 -29 -49.5t-74 -16.5q-18 0 -37 3q0 125 -41 125q-29 0 -29 -48q0 -15 4 -59t5 -78h119v-35h-118v-396l65 -25 l-2 -14h-316l-2 14l18 10q17 9 22 18t5 28v364h-110v-396l45 -25zM255 590q0 -15 4.5 -52t5.5 -68h98l13 5q1 22 8 47q-4 65 -20 99t-52 34q-25 0 -41 -17.5t-16 -47.5z" />
<glyph unicode="&#xfb03;" horiz-adv-x="955" d="M308 0h-296l-2 14l18 10q17 9 22 18t5 28v365h-63l-2 14l66 25q9 96 77.5 158.5t185.5 62.5q91 0 154 -49q72 49 175 49q94 0 150.5 -28t56.5 -67q0 -32 -31 -47.5t-82 -15.5q-31 0 -47 3q0 56 -13.5 85.5t-49.5 29.5q-25 0 -41 -17.5t-16 -47.5q0 -15 4.5 -52t5.5 -68 h110q38 15 100.5 27.5t101.5 12.5l8 -8v-463l45 -25l-2 -14h-296l-2 14l18 10q17 9 22 18t5 28v365h-110v-396l45 -25l-2 -14h-296l-2 14l18 10q17 9 22 18t5 28v365h-110v-396l45 -25zM255 590q0 -15 4.5 -52t5.5 -68h111q2 27 9 51q-4 65 -20.5 99.5t-52.5 34.5 q-25 0 -41 -17.5t-16 -47.5z" />
<glyph unicode="&#xfb04;" horiz-adv-x="955" d="M308 0h-296l-2 14l18 10q17 9 22 18t5 28v365h-63l-2 14l65 25h1q9 96 77.5 158.5t185.5 62.5q88 0 153 -48q67 48 167 48q63 0 116 -24q92 24 142 24l8 -8v-648l45 -25l-2 -14h-296l-2 14l18 10q17 9 22 18t5 28v365h-110v-396l45 -25l-2 -14h-296l-2 14l18 10 q17 9 22 18t5 28v365h-110v-396l45 -25zM255 590q0 -15 4.5 -52t5.5 -68h111q1 22 8 49q-4 67 -19.5 101.5t-52.5 34.5q-25 0 -41 -17.5t-16 -47.5zM575 590q0 -15 4.5 -52t5.5 -68h110v70q0 56 -13.5 85.5t-49.5 29.5q-25 0 -41 -17.5t-16 -47.5z" />
<glyph unicode="fi" horiz-adv-x="641" d="M314 0h-296l-2 14l18 10q17 9 22 18t5 28v365h-63l-2 14l66 25q9 95 80 158t192 63q94 0 150.5 -28t56.5 -67q0 -32 -31 -47.5t-82 -15.5q-31 0 -47 3q0 56 -13.5 85.5t-49.5 29.5q-25 0 -41 -17.5t-16 -47.5q0 -15 4.5 -52t5.5 -68h110q38 15 100.5 27.5t101.5 12.5 l8 -8v-463l45 -25l-2 -14h-296l-2 14l18 10q17 9 22 18t5 28v365h-110v-396l45 -25z" />
<glyph unicode="fl" horiz-adv-x="635" d="M308 0h-296l-2 14l18 10q17 9 22 18t5 28v365h-63l-2 14l65 25h1q9 96 77.5 158.5t185.5 62.5q63 0 116 -24q92 24 142 24l8 -8v-648l45 -25l-2 -14h-296l-2 14l18 10q17 9 22 18t5 28v365h-110v-396l45 -25zM255 590q0 -15 4.5 -52t5.5 -68h110v70q0 56 -13.5 85.5 t-49.5 29.5q-25 0 -41 -17.5t-16 -47.5z" />
<glyph unicode="&#x2f;symbol&#x33;&#x2f;" horiz-adv-x="957" d="M505 638l68 -270h270l-203 -135l136 -270l-271 135l-270 -270l135 405l-270 203l338 -68zM814 87q18 0 30.5 -12.5t12.5 -31.5q0 -18 -12.5 -30.5t-30.5 -12.5t-30.5 12.5t-12.5 30.5q0 19 12.5 31.5t30.5 12.5zM854 43q0 17 -11.5 29t-28.5 12t-28.5 -12t-11.5 -29 t12 -28.5t28 -11.5t28 11.5t12 28.5zM796 68h18q8 0 11 -2q6 -3 6 -10q0 -5 -4 -9q-3 -3 -6 -3q7 -3 8 -10q2 -14 3 -16h-7q-1 2 -2 7.5t-1 6.5q0 9 -10 9h-9v-23h-7v50zM803 47h10q5 0 7 1q3 3 3 6q0 9 -10 9h-10v-16z" />
<glyph unicode="&#x2f;symbol&#x32;&#x2f;" horiz-adv-x="932" d="M494 570l52 -90l-137 -240h-103l137 240l-52 90h103zM357 570l52 -90l-138 -240h-103l138 240l-52 90h103zM752 120h-103l-137 240l51 90l137 -240h103zM683 0h-103l-137 240l51 90l138 -240h103zM100 120l51 90h275l51 -90h-274l-52 -90zM168 0l52 90h274l52 -90h-275 l-51 -90zM789 88q18 0 30.5 -13t12.5 -31t-12.5 -31t-30.5 -13t-30.5 13t-12.5 31t12.5 31t30.5 13zM829 44q0 16 -11.5 28t-28.5 12t-28.5 -12t-11.5 -28t11.5 -28t28.5 -12t28.5 12t11.5 28zM771 69h18q7 0 11 -2q5 -4 5 -11q0 -5 -3 -8q-1 -2 -6 -4q7 -1 8 -9q0 -8 3 -16 h-8q-1 2 -1.5 6.5t-0.5 6.5q-1 10 -11 10h-8v-23h-7v50zM778 47h10q5 0 7 1q3 3 3 7q0 8 -10 8h-10v-16z" />
<glyph unicode="&#x2f;symbol&#x31;&#x2f;" horiz-adv-x="5534" d="M1865 412q-25 0 -40.5 14.5t-15.5 37.5q0 35 32.5 64t70.5 29q24 0 39 -13.5t15 -37.5q0 -36 -31 -65t-70 -29zM1284 412q-26 0 -41.5 14.5t-15.5 37.5q0 35 33 64t71 29q24 0 38.5 -13.5t14.5 -37.5q0 -36 -31 -65t-69 -29zM959 0q0 42 11 108q-16 -50 -51.5 -82.5 t-78.5 -32.5q-41 0 -63 29.5t-22 82.5q0 62 27 121t84 101t132 42q17 0 25 -1l16 73l6 102l136 7q0 -67 -46 -273t-46 -277h-130zM100 0l78 364q17 86 21 136l128 7l11 -15l-104 -492h-134zM3503 492l-57 -492h-131l20 175q5 50 33 215h-3q-31 -102 -81 -215l-76 -175h-149 l-2 175q-2 121 9 215h-2q-32 -130 -59 -215l-53 -175h-109l154 500l184 6l1 -137q2 -134 -15 -259h2q39 126 94 259l56 131l169 7zM5316 300q-37 -177 -37 -183q0 -34 36 -34q25 0 59 18l-9 -79q-52 -29 -114 -29q-105 0 -105 100q0 20 40 210l-47 1l9 44l54 14l53 95l81 6 l13 -15l-20 -86h99l6 -14l-17 -51zM3936 0q0 74 42 260l5 102l137 7q0 -31 -7 -89h2q53 89 134 89q34 0 53 -19.5t19 -51.5q0 -27 -26 -147q-18 -85 -18 -151h-131q0 55 19 150q15 71 15 87q0 24 -17 24q-34 0 -64 -82.5t-32 -178.5h-131zM3768 369q87 0 145 -32l-28 -128 q-31 -145 -31 -209h-130q0 45 12 112q-15 -52 -51 -85.5t-81 -33.5q-41 0 -63 29.5t-22 83.5q0 46 16 91.5t46 84t79 63t108 24.5zM4653 51q-67 -58 -159 -58q-65 0 -103.5 35t-38.5 102q0 94 68.5 166.5t167.5 72.5q54 0 86.5 -23.5t32.5 -64.5q0 -57 -60 -96.5t-161 -43.5 v-1q0 -64 63 -64q42 0 90 28zM2525 369q88 0 146 -32l-29 -128q-31 -145 -31 -209h-130q0 37 12 112q-15 -52 -51 -85.5t-81 -33.5q-41 0 -62.5 29.5t-21.5 83.5q0 62 26.5 120.5t85 100.5t136.5 42zM2245 256q-52 30 -97 30q-18 0 -30 -7t-12 -19q0 -14 20 -26.5t44 -22 t44 -33t20 -56.5q0 -57 -53 -93t-128 -36q-78 0 -118 28l27 93q57 -38 111 -38q19 0 29.5 7.5t10.5 18.5q0 13 -20 26t-44 23t-44 33t-20 55q0 56 54.5 93t128.5 37q58 0 104 -18zM4716 0q0 79 41 260l6 102l137 7q0 -12 -7 -89h2q52 89 134 89q34 0 53 -19.5t19 -51.5 q0 -27 -26 -147q-19 -90 -19 -151h-130q0 55 19 150q15 78 15 87q0 24 -17 24q-35 0 -65 -82t-32 -179h-130zM1752 0q0 69 26 193l15 67l6 102l137 7q0 -46 -27 -177t-27 -192h-130zM1399 362l140 7q13 -129 -5 -289h2q76 151 91 284q22 5 50 5q32 0 48.5 -8.5t16.5 -33.5 q0 -46 -51 -147.5t-116 -179.5h-149q-5 228 -27 362zM1170 0q0 72 27 193l14 67l6 102l137 7q0 -46 -27 -177t-27 -192h-130zM336 0q0 79 41 260l6 102l137 7q0 -31 -7 -89h2q52 89 134 89q34 0 53 -19.5t19 -51.5q0 -27 -26 -147q-18 -85 -18 -151h-131q0 55 19 150 q15 78 15 87q0 24 -17 24q-34 0 -64 -82.5t-32 -178.5h-131zM4490 177q47 10 73 34t26 59q0 31 -22 31q-28 0 -48.5 -38.5t-28.5 -85.5zM2435 101q23 0 47 43.5t37 100.5q3 14 9 44q-14 8 -27 8q-34 0 -62 -54.5t-28 -101.5q0 -40 24 -40zM913 101q22 0 44.5 39.5t37.5 94.5 q1 9 8 40l3 14q-14 8 -27 8q-33 0 -61.5 -54.5t-28.5 -101.5q0 -40 24 -40zM3677 101q23 0 47 43t38 101q1 8 4.5 24.5t4.5 19.5q-16 8 -27 8q-34 0 -62.5 -54.5t-28.5 -101.5q0 -40 24 -40z" />
<glyph unicode="&#x2f;symbol&#x35;&#x2f;" horiz-adv-x="705" d="M232 -6l-132 136l124 234l129 -136zM474 -6l-121 234l128 136l124 -234z" />
<glyph unicode="&#x2f;symbol&#x34;&#x2f;" horiz-adv-x="2607" d="M1684 406q0 65 -11 128l126 14l15 -15v-533h-130v406zM1889 406q0 62 -10 128l126 14l14 -15v-533h-130v406zM427 101v-101h-320v362q0 80 -7 135l126 7l14 -14v-396zM925 21l7 109q62 -36 144 -36q50 0 50 36q0 20 -31.5 41.5t-69 40.5t-69 57t-31.5 88q0 69 55 108 t138 39q80 0 127 -18l-14 -111q-56 29 -111 29q-27 0 -42.5 -11t-15.5 -29q0 -20 20.5 -38t50 -34t59.5 -35t50.5 -51t20.5 -72q0 -66 -53.5 -103.5t-139.5 -37.5q-41 0 -83.5 8t-61.5 20zM2405 213q0 -24 -1 -36l-11 -11h-191q14 -83 98 -83q44 0 84 21l7 -81 q-46 -30 -127 -30q-90 0 -144 47.5t-54 134.5q0 85 52 139t132 54q72 0 113.5 -43t41.5 -112zM795 0l-106 -7q-11 16 -21 49h-4q-34 -49 -104 -49q-43 0 -70 23t-27 66q0 113 191 118v20q0 54 -58 54q-55 0 -108 -29l-8 97q72 26 150 26q154 0 154 -135q0 -25 -2 -69t-2 -70 q0 -51 15 -94zM1626 0l-107 -7q-12 20 -21 49h-3q-34 -49 -105 -49q-43 0 -69.5 23t-26.5 66q0 113 191 118v20q0 54 -58 54q-54 0 -109 -29l-7 97q72 26 150 26q153 0 153 -135q0 -25 -1.5 -69.5t-1.5 -69.5q0 -51 15 -94zM2199 207l78 4q2 14 2 26q0 59 -34 59 q-44 0 -46 -89zM654 74v88q-29 -3 -47 -18t-18 -39q0 -18 10 -29t27 -11q16 0 28 9zM1485 74v88q-29 -3 -47 -18t-18 -39q0 -18 10 -29t27 -11q16 0 28 9zM2464 85q18 0 30.5 -13t12.5 -31t-12.5 -31t-30.5 -13t-31 13t-13 31t13 31t31 13zM2504 41q0 17 -12 28.5t-28 11.5 t-28 -11.5t-12 -28.5t12 -28.5t28 -11.5t28 11.5t12 28.5zM2446 66h18q7 0 11 -3q5 -3 5 -10q0 -5 -3 -9q-3 -3 -6 -3q7 -1 8 -10q0 -7 3 -15h-8q-1 2 -1.5 6.5t-0.5 6.5q-1 9 -11 9h-8v-22h-7v50zM2453 44h10q5 0 7 1q3 3 3 7q0 8 -10 8h-10v-16z" />
<glyph unicode=" "  horiz-adv-x="200" />
<glyph unicode="&#x09;" horiz-adv-x="200" />
<glyph unicode="&#xa0;" horiz-adv-x="200" />
<glyph unicode="!" horiz-adv-x="433" d="M80 668l4 10q112 17 213 17q30 0 43 -10.5t13 -36.5q0 -21 -18 -90l-86 -324h-70zM312 81q0 -41 -32 -66t-80 -25q-42 0 -68.5 21.5t-26.5 56.5q0 40 33 66t80 26q42 0 68 -21.5t26 -57.5z" />
<glyph unicode="&#x22;" horiz-adv-x="446" d="M40 682l4 6q67 7 147 7l13 -17l-73 -269h-34l-23 130zM242 682l4 6q67 7 147 7l13 -17l-73 -269h-34l-23 130z" />
<glyph unicode="#" horiz-adv-x="686" d="M580 164h-113l-43 -174l-91 16l-6 6l38 152h-112l-43 -174l-91 16l-6 6l38 152h-105l-6 6l13 84h120l35 142h-109l-6 6l13 84h124l43 174l91 -16l6 -6l-38 -152h112l43 174l91 -16l6 -6l-38 -152h94l6 -6l-13 -84h-109l-35 -142h98l6 -6zM275 254h112l35 142h-112z" />
<glyph unicode="$" horiz-adv-x="614" d="M337 -120l-42 -3l-8 6v107h-6q-146 0 -196 25q-27 13 -27 48q0 44 19 91.5t41 73.5l10 -2l103 -194q18 -2 26 -2q37 0 59.5 24.5t22.5 64.5q0 31 -21 58t-52 45t-67.5 42t-67.5 48t-52 63.5t-21 88.5q0 86 71 137.5t178 57.5v111l42 3l8 -6v-107q118 -3 173 -36 q22 -13 22 -39q0 -35 -24 -86.5t-46 -71.5l-10 2l-89 189q-18 2 -26 2q-35 0 -58.5 -22.5t-23.5 -60.5q0 -33 21.5 -62t54.5 -49.5t70.5 -46t70.5 -50t54.5 -62t21.5 -81.5q0 -90 -61.5 -137t-169.5 -57v-112z" />
<glyph unicode="%" horiz-adv-x="1040" d="M668 660h101l-397 -670h-103zM445 475q0 -90 -60 -140t-146 -50q-84 0 -141.5 49t-57.5 138q0 88 61 136.5t144 48.5q85 0 142.5 -46.5t57.5 -135.5zM243 313q20 0 26 37.5t6 124.5q0 86 -6 120t-26 34t-26 -34t-7 -123q-1 -84 6.5 -121.5t26.5 -37.5zM1000 183 q0 -90 -60 -140t-146 -50q-84 0 -141.5 49t-57.5 138q0 88 61 136.5t144 48.5q85 0 142.5 -46.5t57.5 -135.5zM798 21q20 0 26 37.5t6 124.5q0 86 -6 120t-26 34t-26 -34t-7 -123q-1 -84 6.5 -121.5t26.5 -37.5z" />
<glyph unicode="&#x26;" horiz-adv-x="860" d="M376 -10q-146 0 -231 49t-85 123q0 54 52 91t138 48l-38 38q-67 67 -67 138q0 78 77.5 132t195.5 54q95 0 151 -38.5t56 -91.5q0 -38 -26.5 -60.5t-72.5 -22.5q-38 0 -56 7q5 29 5 62q0 50 -15 75.5t-41 25.5q-28 0 -43.5 -20t-15.5 -54q0 -72 83 -157l173 -177 q3 20 3 40q0 89 -30 138q32 37 88 37q44 0 70.5 -29.5t26.5 -82.5q0 -100 -70 -187q54 -43 112 -44q0 -1 10 0h10l4 -14q-60 -81 -159 -81q-66 0 -127 32q-83 -31 -178 -31zM270 200q0 -72 39.5 -113.5t112.5 -41.5q42 0 76 14q-31 25 -79 72l-137 138q-12 -29 -12 -69z" />
<glyph unicode="'" horiz-adv-x="244" d="M40 682l4 6q67 7 147 7l13 -17l-73 -269h-34l-23 130z" />
<glyph unicode="(" horiz-adv-x="420" d="M400 -106l-12 -17q-308 125 -308 409t308 409l12 -17q-102 -135 -102 -392q0 -252 102 -392z" />
<glyph unicode=")" horiz-adv-x="420" d="M20 678l12 17q308 -125 308 -409t-308 -409l-12 17q102 135 102 392q0 252 -102 392z" />
<glyph unicode="*" horiz-adv-x="416" d="M240 441q0 -30 -32 -30t-32 30q0 12 7.5 42.5t9.5 43.5q-8 -7 -31.5 -29.5t-34.5 -28.5q-25 -14 -42 13q-15 27 10 43q11 6 41.5 15t41.5 13q-11 4 -41.5 13t-41.5 15q-25 16 -10 43q17 27 42 13q11 -6 34.5 -28.5t31.5 -29.5q-2 13 -9.5 43.5t-7.5 42.5q0 30 32 30 t32 -30q0 -12 -7.5 -42.5t-9.5 -43.5q8 7 31.5 29.5t34.5 28.5q25 14 42 -13q15 -27 -10 -43q-11 -6 -41.5 -15t-41.5 -13q11 -4 41.5 -13t41.5 -15q25 -16 10 -43q-17 -27 -42 -13q-11 6 -34.5 28.5t-31.5 29.5q2 -13 9.5 -43.5t7.5 -42.5z" />
<glyph unicode="+" horiz-adv-x="599" d="M510 256h-136v-144h-147l-1 144h-146v132q132 4 145 4l-1 147h150v-146q54 1 137 1l8 -8z" />
<glyph unicode="," horiz-adv-x="263" d="M223 72q0 -70 -53 -137.5t-117 -93.5l-13 12q54 64 69 139q-30 5 -48 25.5t-18 51.5q0 44 26 69.5t65 25.5q40 0 64.5 -26t24.5 -66z" />
<glyph unicode="-" horiz-adv-x="376" d="M24 250v45h328v-45h-328z" />
<glyph unicode="." horiz-adv-x="260" d="M128 -10q-39 0 -63.5 23t-24.5 59q0 39 28.5 65.5t68.5 26.5q36 0 59.5 -21.5t23.5 -56.5q0 -40 -26.5 -68t-65.5 -28z" />
<glyph unicode="/" horiz-adv-x="423" d="M146 -195l-83 20l-3 7l217 863l83 -20l3 -7z" />
<glyph unicode="0" horiz-adv-x="658" d="M626 330q0 -162 -86.5 -251t-214.5 -89q-127 0 -210 87.5t-83 247.5q0 159 89 247t212 88q127 0 210 -84.5t83 -245.5zM331 32q33 0 46 72t14 226q1 151 -12.5 220.5t-47.5 69.5q-35 0 -49 -70t-15 -225q-1 -293 64 -293z" />
<glyph unicode="1" horiz-adv-x="397" d="M376 0h-357l-2 16l48 15q17 5 22 13t5 28v488l-73 5l-2 14l285 81l8 -8v-611l68 -25z" />
<glyph unicode="2" horiz-adv-x="540" d="M51 0l-13 115q112 72 169 140.5t57 145.5q0 45 -28 74.5t-75 29.5q-39 0 -72 -22t-51 -62l-14 4q20 113 92 174t172 61q96 0 153.5 -51.5t57.5 -133.5q0 -49 -25.5 -94t-73.5 -84t-100.5 -69t-122.5 -63h226q38 0 58 17t33 53l14 -1q-2 -134 -28 -234h-429z" />
<glyph unicode="3" horiz-adv-x="532" d="M500 165q0 -81 -81.5 -128t-196.5 -47q-61 0 -111 9.5t-84.5 33.5t-34.5 59q0 38 41.5 62t103.5 26l5 -3q0 -147 67 -147q56 0 56 110q0 63 -34.5 99.5t-87.5 36.5q-17 0 -33 -3l-8 29q73 10 113 40.5t40 77.5q0 36 -23.5 58t-62.5 22q-37 0 -71 -21t-54 -60l-13 6 q20 108 91 171.5t167 63.5q89 0 145 -45t56 -115q0 -41 -20 -73.5t-55 -52.5t-71.5 -31.5t-79.5 -17.5q104 -5 170 -47t66 -113z" />
<glyph unicode="4" horiz-adv-x="565" d="M0 230l336 430l126 -10v-420h87l-8 -90h-79v-140h-218v140h-234zM64 230h180v243z" />
<glyph unicode="5" horiz-adv-x="542" d="M518 166q0 -85 -79 -130.5t-202 -45.5q-97 0 -159 27.5t-62 74.5q0 38 42 63t103 25l5 -3q0 -147 64 -147q26 0 40 27t14 70q0 89 -58.5 134t-157.5 47l-12 13l9 329h423q1 -113 -25 -234h-14q-8 42 -21.5 55.5t-50.5 13.5h-235l-5 -136q28 4 72 4q141 0 225 -51t84 -136 z" />
<glyph unicode="6" horiz-adv-x="622" d="M598 208q0 -98 -74.5 -158t-201.5 -60q-136 0 -213 71t-77 201q0 176 134 287t369 111l3 -14q-198 -73 -251 -257q39 13 86 13q101 0 163 -50.5t62 -143.5zM267 230q0 -200 50 -200q46 0 46 135q0 185 -83 185h-2q-11 -51 -11 -120z" />
<glyph unicode="7" horiz-adv-x="476" d="M332 0h-215q0 147 81.5 269.5t215.5 215.5h-324q-24 0 -36.5 -14.5t-23.5 -52.5h-14q2 134 28 232h419l13 -160q-72 -68 -110 -196.5t-34 -293.5z" />
<glyph unicode="8" horiz-adv-x="605" d="M581 178q0 -79 -78 -133.5t-210 -54.5q-117 0 -193 40t-76 111q0 57 48.5 95.5t126.5 49.5q-47 30 -73.5 51t-50 59t-23.5 82q0 78 74 130t195 52q100 0 166 -41.5t66 -103.5q0 -52 -36.5 -81.5t-98.5 -49.5q39 -25 60.5 -40.5t49.5 -41.5t40.5 -56.5t12.5 -67.5z M270 557q0 -43 25.5 -75.5t72.5 -64.5q13 52 15 108q1 45 -14 70t-43 25q-26 0 -41 -18t-15 -45zM229 145q0 -55 19 -85t50 -30q26 0 42 22t16 57q0 45 -27.5 78t-79.5 68q-20 -52 -20 -110z" />
<glyph unicode="9" horiz-adv-x="622" d="M24 442q0 98 74.5 158t201.5 60q136 0 213 -71t77 -201q0 -176 -134 -287t-369 -111l-3 14q198 73 251 257q-39 -13 -86 -13q-101 0 -163 50.5t-62 143.5zM259 485q0 -185 83 -185h2q11 51 11 120q0 200 -50 200q-46 0 -46 -135z" />
<glyph unicode=":" horiz-adv-x="260" d="M128 336q-39 0 -63.5 23t-24.5 59q0 39 28.5 65.5t68.5 26.5q36 0 59.5 -21.5t23.5 -56.5q0 -40 -26.5 -68t-65.5 -28zM128 -10q-39 0 -63.5 23t-24.5 59q0 39 28.5 65.5t68.5 26.5q36 0 59.5 -21.5t23.5 -56.5q0 -40 -26.5 -68t-65.5 -28z" />
<glyph unicode=";" horiz-adv-x="263" d="M128 336q-39 0 -63.5 23t-24.5 59q0 39 28.5 65.5t68.5 26.5q36 0 59.5 -21.5t23.5 -56.5q0 -40 -26.5 -68t-65.5 -28zM223 72q0 -70 -53 -137.5t-117 -93.5l-13 12q54 64 69 139q-30 5 -48 25.5t-18 51.5q0 44 26 69.5t65 25.5q40 0 64.5 -26t24.5 -66z" />
<glyph unicode="&#x3c;" horiz-adv-x="600" d="M510 566v-160l-243 -81l242 -77v-160q-70 24 -213 82.5t-217 92.5l-4 11v115z" />
<glyph unicode="=" horiz-adv-x="599" d="M510 363h-430v132q145 6 431 6l8 -8zM510 149h-430v132q145 6 431 6l8 -8z" />
<glyph unicode="&#x3e;" horiz-adv-x="600" d="M90 85v160l243 81l-242 77v160q70 -24 213 -82.5t217 -92.5l4 -11v-115z" />
<glyph unicode="?" horiz-adv-x="568" d="M329 233l-8 -8q-11 -1 -20 -1q-38 0 -65 16.5t-27 47.5q0 25 13 51q11 22 42.5 58t52.5 74.5t21 85.5q0 43 -15 70.5t-46 27.5q-33 0 -50 -33t-17 -85q0 -32 8 -91q-30 -16 -74 -16q-61 0 -102.5 27.5t-41.5 73.5q0 69 87 116.5t207 47.5t197 -49t77 -129q0 -44 -34 -84 t-72 -62t-80.5 -41.5t-44.5 -21.5q-8 -6 -8 -21v-54zM387 81q0 -41 -32 -66t-80 -25q-42 0 -68.5 21.5t-26.5 56.5q0 40 33 66t80 26q42 0 68 -21.5t26 -57.5z" />
<glyph unicode="@" horiz-adv-x="1038" d="M807 69q45 0 93 81t48 202q0 130 -101.5 214t-260.5 84q-86 0 -174 -34.5t-160 -94.5t-117 -150.5t-45 -192.5q0 -141 99.5 -234.5t252.5 -93.5q91 0 155 21t130 60l16 -26q-126 -100 -310 -100q-170 0 -281.5 104.5t-111.5 261.5q0 114 49 214t127.5 166.5t177 105 t198.5 38.5q179 0 292.5 -98t113.5 -245q0 -153 -85 -257.5t-220 -104.5q-79 0 -118 49.5t-29 129.5q0 3 1 8.5t2 8.5h-6q-34 -90 -89 -143t-120 -53q-54 0 -89.5 44t-35.5 116q0 69 24 132.5t69.5 115t118 82t161.5 30.5q143 0 244 -48l-27 -80l-38 -182q-14 -66 -3 -98.5 t49 -32.5zM429 182q0 -56 21 -56q22 0 60.5 80.5t63.5 160.5l26 84q-18 9 -36 9q-33 0 -65.5 -48t-51 -112.5t-18.5 -117.5z" />
<glyph unicode="A" horiz-adv-x="698" d="M291 650h115l218 -572q12 -34 45 -49l29 -13l-2 -16h-353l-2 16l63 25l-42 122l-210 -2l-44 -119l69 -26l-2 -16h-173l-2 16l31 11q13 5 22 14t12 15.5t11 27.5zM168 203h180l-86 253z" />
<glyph unicode="B" horiz-adv-x="696" d="M376 0h-346l-2 16l29 10q17 6 22 15.5t5 30.5v537l-55 25l2 16h320q136 0 212.5 -43t76.5 -127q0 -50 -38.5 -88t-95.5 -54q75 -17 120.5 -57t45.5 -101q0 -88 -76.5 -134t-219.5 -46zM326 610h-24v-256h24q50 0 78 33.5t28 94.5q0 62 -28 95t-78 33zM331 314h-29v-274 h25q55 0 90 36.5t35 98.5q0 70 -33.5 104.5t-87.5 34.5z" />
<glyph unicode="C" horiz-adv-x="645" d="M605 16q-101 -26 -196 -26q-175 0 -279.5 87.5t-104.5 244.5q0 155 110.5 246.5t277.5 91.5q107 0 182 -26q4 -25 4 -62q0 -86 -32 -158h-10l-122 206h-5q-67 0 -118.5 -82.5t-51.5 -212.5q0 -132 50.5 -213.5t115.5 -81.5q13 0 20 1l121 205h10q32 -62 32 -166 q0 -31 -4 -54z" />
<glyph unicode="D" horiz-adv-x="732" d="M349 0h-319l-2 16l29 10q17 6 22 15.5t5 30.5v537l-55 25l2 16h320q155 0 253 -84t98 -236q0 -154 -99.5 -242t-253.5 -88zM327 610h-25v-570h26q73 0 113 75.5t41 214.5q1 138 -39 209t-116 71z" />
<glyph unicode="E" horiz-adv-x="595" d="M558 0h-528l-2 16l29 10q17 6 22 15.5t5 30.5v537l-55 25l2 16h518q7 -35 7 -75q0 -83 -25 -139h-10l-125 174h-94v-265l157 15l-3 -70l-154 15v-265h102l126 181h10q25 -58 25 -143q0 -42 -7 -78z" />
<glyph unicode="F" horiz-adv-x="563" d="M384 0h-354l-2 16l29 10q17 6 22 15.5t5 30.5v537l-55 25l2 16h513q7 -35 7 -75q0 -83 -25 -139h-10l-125 174h-89v-295l162 15l-3 -70l-159 15v-234l84 -25z" />
<glyph unicode="G" horiz-adv-x="664" d="M616 16q-91 -26 -211 -26q-173 0 -274 84.5t-101 242.5q0 159 112.5 251t273.5 92q113 0 189 -26q4 -25 4 -62q0 -92 -32 -158h-10l-121 205q-5 1 -13 1q-65 0 -124 -81.5t-59 -215.5q0 -131 57.5 -212t114.5 -81h6v248l-53 25l2 16h291l2 -16l-27 -10q-17 -6 -22 -15.5 t-5 -30.5v-231z" />
<glyph unicode="H" horiz-adv-x="784" d="M356 0h-324l-2 16l27 10q17 6 22 15.5t5 30.5v537l-56 25l2 16h324l2 -16l-27 -10q-17 -6 -22 -15.5t-5 -30.5v-224h180v255l-56 25l2 16h324l2 -16l-27 -10q-17 -6 -22 -15.5t-5 -30.5v-537l56 -25l-2 -16h-324l-2 16l27 10q17 6 22 15.5t5 30.5v237h-180v-268l56 -25z " />
<glyph unicode="I" horiz-adv-x="386" d="M356 0h-324l-2 16l27 10q17 6 22 15.5t5 30.5v537l-56 25l2 16h324l2 -16l-27 -10q-17 -6 -22 -15.5t-5 -30.5v-537l56 -25z" />
<glyph unicode="J" horiz-adv-x="375" d="M303 150q0 -122 -76.5 -202.5t-210.5 -87.5l-6 11q75 104 75 339v399l-56 25l2 16h324l2 -16l-27 -10q-17 -6 -22 -15.5t-5 -30.5v-428z" />
<glyph unicode="K" horiz-adv-x="773" d="M356 0h-324l-2 16l27 10q17 6 22 15.5t5 30.5v537l-56 25l2 16h324l2 -16l-27 -10q-17 -6 -22 -15.5t-5 -30.5v-253h46l176 286l-54 23l2 16h262l2 -16l-40 -19q-111 -52 -202 -152l201 -372q21 -40 57 -62l21 -13l-2 -16l-198 -3q-47 -1 -72 19t-50 68l-106 201h-43 v-244l56 -25z" />
<glyph unicode="L" horiz-adv-x="579" d="M548 0h-518l-2 16l29 10q17 6 22 15.5t5 30.5v537l-56 25l2 16h324l2 -16l-27 -10q-17 -6 -22 -15.5t-5 -30.5v-538h100l118 244h10q25 -66 25 -173q0 -62 -7 -111z" />
<glyph unicode="M" horiz-adv-x="895" d="M52 650h284l118 -379l117 379h277l2 -16l-72 -25l44 -519q2 -28 11 -39.5t33 -21.5l31 -13l-2 -16h-358l-2 16l71 22l-37 454l-131 -417l-25 -75h-105l-23 75l-129 413l-42 -447l84 -25l-2 -16h-199l-2 16q19 6 42 16q18 8 25.5 19t9.5 33l50 523l-72 27z" />
<glyph unicode="N" horiz-adv-x="656" d="M211 0h-199l-2 16l47 15q17 6 22 14t5 27v537l-74 25l2 16h220l307 -412v371l-84 25l2 16h199l2 -16l-47 -15q-17 -6 -22 -14t-5 -27v-578h-148l-307 421v-380l84 -25z" />
<glyph unicode="O" horiz-adv-x="710" d="M672 330q0 -159 -91.5 -249.5t-234.5 -90.5q-145 0 -234.5 89.5t-89.5 245.5q0 155 94 245t232 90q144 0 234 -86.5t90 -243.5zM257 325q-1 -158 20.5 -226.5t71.5 -68.5q49 0 68 69.5t20 230.5q1 158 -18.5 224t-70.5 66t-70.5 -67t-20.5 -228z" />
<glyph unicode="P" horiz-adv-x="651" d="M384 0h-354l-2 16l29 10q17 6 22 15.5t5 30.5v537l-55 25l2 16h306q142 0 222 -53.5t80 -151.5q0 -103 -81 -159t-221 -56h-35v-189l84 -25zM322 610h-20v-340h20q46 0 71.5 45.5t25.5 130.5q0 75 -26 119.5t-71 44.5z" />
<glyph unicode="Q" horiz-adv-x="710" d="M672 330q0 -143 -76 -232t-199 -105q111 -33 250 -33q69 0 126 11l6 -1q2 -7 2 -22q0 -66 -38 -104.5t-107 -38.5q-78 0 -151.5 50t-154.5 135q-139 5 -223.5 94t-84.5 241q0 155 94 245t232 90q144 0 234 -86.5t90 -243.5zM257 325q-1 -158 20.5 -226.5t71.5 -68.5 q49 0 68 69.5t20 230.5q1 158 -18.5 224t-70.5 66t-70.5 -67t-20.5 -228z" />
<glyph unicode="R" horiz-adv-x="751" d="M356 0h-324l-2 16l27 10q17 6 22 15.5t5 30.5v537l-55 25l2 16h322q141 0 223.5 -49t82.5 -142q0 -91 -104 -149l120 -219q20 -38 53 -60l23 -15l-2 -16l-191 -3q-52 -1 -80 19.5t-47 67.5l-73 176h-56v-219l56 -25zM328 610h-26v-310h33q47 0 75.5 41.5t28.5 111.5 q0 71 -31 114t-80 43z" />
<glyph unicode="S" horiz-adv-x="578" d="M554 186q0 -101 -83 -148.5t-224 -47.5q-146 0 -196 25q-27 13 -27 48q0 44 19 91.5t41 73.5l10 -2l103 -194q18 -2 26 -2q46 0 74 24.5t28 64.5q0 36 -31 66.5t-75.5 54.5t-88.5 51t-75 71.5t-31 101.5q0 92 84.5 144t208.5 52q137 0 199 -36q22 -13 22 -39 q0 -35 -24 -86.5t-46 -71.5l-10 2l-89 189q-18 2 -26 2q-44 0 -73 -22.5t-29 -60.5q0 -39 32 -72t78 -59t92.5 -54.5t78.5 -71t32 -94.5z" />
<glyph unicode="T" horiz-adv-x="634" d="M47 396h-10q-25 66 -25 164q0 48 7 90h596q7 -42 7 -90q0 -98 -25 -164h-10l-115 214h-46v-569l56 -25l-2 -16h-324l-2 16l27 10q17 6 22 15.5t5 30.5v538h-46z" />
<glyph unicode="U" horiz-adv-x="681" d="M607 226q0 -236 -254 -236q-121 0 -195 62t-74 177v380l-56 25l2 16h324l2 -16l-27 -10q-17 -6 -22 -15.5t-5 -30.5v-340q0 -185 129 -185q61 0 96 44.5t35 128.5v384l-74 24l2 16h189l2 -16l-74 -24v-384z" />
<glyph unicode="V" horiz-adv-x="688" d="M402 0h-115l-213 572q-12 34 -45 49l-29 13l2 16h353l2 -16l-63 -25l135 -413l123 412l-71 26l2 16h203l2 -16q-33 -15 -49 -33q-28 -29 -62 -121z" />
<glyph unicode="W" horiz-adv-x="1047" d="M392 0h-115l-203 572q-12 34 -45 49l-29 13l2 16h353l2 -16l-63 -25l125 -406l80 288l-26 81q-11 33 -45 49l-29 13l2 16h353l2 -16l-65 -25l108 -409l112 407l-71 27l2 16h203l2 -16q-29 -12 -47 -30q-33 -31 -64 -124l-165 -480h-115l-131 408z" />
<glyph unicode="X" horiz-adv-x="702" d="M146 140l111 131l-178 299q-26 43 -53 55l-20 9l2 16h356l2 -16l-58 -23l113 -192l107 191l-56 24l2 16h220l2 -16l-16 -8q-44 -22 -124 -116l-110 -131l174 -294q28 -48 58 -61l18 -8l-2 -16h-355l-2 16l58 23l-114 192l-107 -191l56 -24l-2 -16h-220l-2 16l16 8 q44 22 124 116z" />
<glyph unicode="Y" horiz-adv-x="688" d="M507 0h-324l-2 16l27 10q17 6 22 15.5t5 30.5v192l-161 308q-19 37 -45 49l-29 13l2 16h353l2 -16l-61 -24l129 -314l128 312l-59 26l2 16h190l2 -16q-12 -8 -24 -18q-42 -36 -85 -116l-126 -236v-223l56 -25z" />
<glyph unicode="Z" horiz-adv-x="617" d="M581 101q0 -56 -7 -101h-522l-16 90l315 520h-145l-131 -214h-10q-25 64 -25 159q0 50 7 95h515l16 -90l-309 -520h147l130 214h10q25 -58 25 -153z" />
<glyph unicode="[" horiz-adv-x="460" d="M420 -118h-300v813h300v-40h-90v-733h90v-40z" />
<glyph unicode="\" horiz-adv-x="423" d="M277 -195l-217 863l3 7l83 20l217 -863l-3 -7z" />
<glyph unicode="]" horiz-adv-x="460" d="M40 695h300v-813h-300v40h90v733h-90v40z" />
<glyph unicode="^" horiz-adv-x="526" d="M195 200h-160l159 350h138l159 -350h-160l-70 180z" />
<glyph unicode="_" horiz-adv-x="600" d="M40 -185v45h520v-45h-520z" />
<glyph unicode="`" horiz-adv-x="387" d="M325 562l-9 -11q-120 14 -184 46.5t-64 78.5q0 36 29 53.5t77 17.5q20 0 40 -2q43 -84 111 -183z" />
<glyph unicode="a" horiz-adv-x="565" d="M579 77q-54 -87 -149 -87q-47 0 -80 23.5t-42 59.5q-46 -83 -149 -83q-55 0 -94.5 34t-39.5 88q0 75 74 115t206 44v137q0 62 -33 62q-37 0 -37 -76q0 -36 7 -72q-53 -20 -98 -20q-43 0 -68.5 17t-25.5 50q0 56 72.5 98.5t173.5 42.5q224 0 224 -200q0 -30 -2.5 -88 t-2.5 -74q0 -36 8 -50t28 -14q13 0 22 3zM245 155q0 -30 11.5 -45t28.5 -15q13 0 20 6v140q-28 -4 -44 -27t-16 -59z" />
<glyph unicode="b" horiz-adv-x="585" d="M565 260q0 -140 -67 -205t-172 -65q-66 0 -149 22l-124 -22l-8 8v623l-45 17l-1 14q49 17 122 30t126 13l8 -8v-268q59 91 148 91q77 0 119.5 -64.5t42.5 -185.5zM283 385q-18 0 -28 -6v-323q15 -6 33 -6q33 0 45 47.5t12 137.5q0 82 -13.5 116t-48.5 34z" />
<glyph unicode="c" horiz-adv-x="515" d="M20 245q0 115 76.5 190t191.5 75q103 0 160 -46.5t57 -108.5q0 -38 -26.5 -59t-68.5 -21q-44 0 -80 20q0 95 -8.5 135t-34.5 40q-47 0 -47 -149q0 -93 40.5 -137t112.5 -44q51 0 109 28l8 -8q-20 -74 -77.5 -122t-155.5 -48q-111 0 -184 69.5t-73 185.5z" />
<glyph unicode="d" horiz-adv-x="590" d="M20 236q0 141 72.5 207.5t185.5 66.5q26 0 52 -3v114l-45 17l-1 14q49 17 122 30t126 13l8 -8v-539q0 -36 7.5 -50t25.5 -14q11 0 22 3l6 -10q-26 -42 -61 -64.5t-88 -22.5q-46 0 -78 23.5t-41 59.5q-46 -83 -141 -83q-79 0 -125.5 65t-46.5 181zM240 272q0 -177 67 -177 q13 0 23 6v347q-10 2 -16 2q-74 0 -74 -178z" />
<glyph unicode="e" horiz-adv-x="535" d="M510 160q-21 -75 -82 -122.5t-158 -47.5q-106 0 -178 69t-72 181q0 122 76.5 196t193.5 74q104 0 167 -59t63 -153q0 -16 -4 -40l-8 -8h-260q28 -110 144 -110q56 0 110 28zM240 324q0 -15 2 -39l67 6q1 17 1 48q0 71 -5.5 101t-25.5 30q-39 0 -39 -146z" />
<glyph unicode="f" horiz-adv-x="388" d="M328 0h-316l-2 14l18 10q17 9 22 18t5 28v365h-63l-2 14l66 25q8 96 73 158.5t174 62.5q69 0 115.5 -30t46.5 -72q0 -33 -29 -49.5t-74 -16.5q-18 0 -37 3q0 125 -41 125q-29 0 -29 -48q0 -15 4 -59t5 -78h119v-35h-118v-396l65 -25z" />
<glyph unicode="g" horiz-adv-x="551" d="M540 -5q0 -90 -73 -140t-214 -50q-50 0 -93 4.5t-80 14.5t-58.5 29t-21.5 45q0 29 34 46t85 17l1 4q-57 28 -57 93q0 42 34 76t83 42q-76 13 -118 53.5t-42 103.5q0 79 72.5 125.5t177.5 46.5q185 0 261 20q19 -25 19 -54q0 -50 -55 -50q-23 0 -89 22l-2 -3 q41 -17 68.5 -48t27.5 -73q0 -71 -66.5 -110t-177.5 -39q-15 0 -43 2q0 -2 -0.5 -5.5t-0.5 -5.5q0 -25 48 -26l107 -2q80 -2 126.5 -36.5t46.5 -101.5zM220 329q0 -66 7.5 -92.5t32.5 -26.5q24 0 32 27.5t8 94.5q0 64 -6.5 91t-31.5 27q-26 0 -34 -29.5t-8 -91.5zM170 -82 q0 -73 107 -73q45 0 74 15t29 41q0 34 -58 34h-79q-47 0 -70 4q-3 -10 -3 -21z" />
<glyph unicode="h" horiz-adv-x="610" d="M303 0h-296l-2 14l18 10q17 9 22 18t5 28v551l-45 17l-1 14q49 17 122 30t126 13l8 -8v-290q67 113 169 113q64 0 97.5 -39t33.5 -107v-325l45 -25l-2 -14h-239l-14 14v299q0 62 -51 62q-21 0 -39 -10v-326l45 -25z" />
<glyph unicode="i" horiz-adv-x="315" d="M274 657q0 -46 -35.5 -73.5t-89.5 -27.5q-47 0 -76 23.5t-29 62.5q0 45 36.5 73.5t88.5 28.5q47 0 76 -23.5t29 -63.5zM308 0h-296l-2 14l18 10q17 9 22 18t5 28v366l-45 17l-1 14q49 17 122 30t126 13l8 -8v-463l45 -25z" />
<glyph unicode="j" horiz-adv-x="305" d="M269 657q0 -46 -35.5 -73.5t-89.5 -27.5q-47 0 -76 23.5t-29 62.5q0 45 36.5 73.5t88.5 28.5q47 0 76 -23.5t29 -63.5zM-3 -181q53 112 53 296v321l-45 17l-1 14q49 17 122 30t126 13l8 -8v-407q0 -127 -58 -201.5t-197 -88.5z" />
<glyph unicode="k" horiz-adv-x="626" d="M303 0h-296l-2 14l18 10q17 9 22 18t5 28v551l-45 17l-1 14q49 17 122 30t126 13l8 -8v-409h37l97 190l-46 18l2 14h259l2 -14l-46 -23q-55 -28 -117 -83l125 -290q21 -47 53 -74l-2 -16h-185q-32 0 -47 15.5t-31 54.5l-66 170h-35v-201l45 -25z" />
<glyph unicode="l" horiz-adv-x="310" d="M303 0h-296l-2 14l18 10q17 9 22 18t5 28v551l-45 17l-1 14q49 17 122 30t126 13l8 -8v-648l45 -25z" />
<glyph unicode="m" horiz-adv-x="903" d="M308 0h-296l-2 14l18 10q17 9 22 18t5 28v366l-45 17l-1 14q49 17 122 30t126 13l8 -8v-95q64 103 163 103q56 0 88.5 -29.5t40.5 -83.5q25 49 68.5 81t102.5 32q60 0 92.5 -39t32.5 -106v-326l45 -25l-2 -14h-239l-14 14v299q0 32 -11 47t-38 15q-18 0 -35 -9v-327 l45 -25l-2 -14h-239l-14 14v299q0 62 -51 62q-16 0 -33 -7v-329l45 -25z" />
<glyph unicode="n" d="M308 0h-296l-2 14l18 10q17 9 22 18t5 28v366l-45 17l-1 14q49 17 122 30t126 13l8 -8v-105q67 113 169 113q64 0 97.5 -39t33.5 -107v-325l45 -25l-2 -14h-239l-14 14v299q0 62 -51 62q-21 0 -39 -10v-326l45 -25z" />
<glyph unicode="o" horiz-adv-x="570" d="M550 263q0 -125 -76 -199t-195 -74q-114 0 -186.5 67t-72.5 180q0 125 76 199t195 74q114 0 186.5 -67t72.5 -180zM240 262q0 -135 8.5 -183.5t36.5 -48.5t36.5 43t8.5 165q0 137 -8.5 184.5t-36.5 47.5q-27 0 -36 -43.5t-9 -164.5z" />
<glyph unicode="p" horiz-adv-x="590" d="M323 -185h-316l-2 14l18 10q17 9 22 18t5 28v559l-45 17l-1 14q49 17 122 30t126 13l8 -8v-91q59 91 148 91q77 0 119.5 -64.5t42.5 -185.5q0 -140 -67 -205t-172 -65q-37 0 -71 6v-142l65 -25zM288 385q-18 0 -28 -6v-323q15 -6 33 -6q33 0 45 47.5t12 137.5 q0 82 -13.5 116t-48.5 34z" />
<glyph unicode="q" horiz-adv-x="585" d="M583 -185h-296l-2 14l18 10q17 9 22 18t5 28v183q-46 -78 -138 -78q-79 0 -125.5 65t-46.5 181q0 141 72.5 207.5t185.5 66.5q75 0 132 -22l122 22l8 -8v-648l45 -25zM240 272q0 -177 67 -177q13 0 23 6v347q-10 2 -16 2q-74 0 -74 -178z" />
<glyph unicode="r" horiz-adv-x="455" d="M328 0h-316l-2 14l18 10q17 9 22 18t5 28v366l-45 17l-1 14q49 17 122 30t126 13l8 -8v-165q47 173 127 173q63 0 63 -92q0 -69 -30 -120l-10 -3q-29 6 -72 9q-41 3 -78 3v-268l65 -25z" />
<glyph unicode="s" horiz-adv-x="490" d="M213 -10q-118 0 -166 25q-27 15 -27 53q0 40 21.5 74.5t48.5 45.5l12 -6q22 -70 46 -107q29 -45 67 -45q21 0 33.5 13t12.5 34q0 27 -23.5 50.5t-56.5 43t-66.5 42t-57 58t-23.5 81.5q0 74 69 116t176 42q120 0 168 -41q22 -18 22 -39q0 -35 -25 -68t-55 -45l-12 6 q-22 80 -45 114q-23 33 -56 33q-20 0 -32.5 -12.5t-12.5 -30.5q0 -28 24.5 -53t59.5 -46t70.5 -44t60 -57t24.5 -75q0 -82 -70 -122t-187 -40z" />
<glyph unicode="t" horiz-adv-x="394" d="M364 470v-35h-110v-218q0 -77 64 -77q34 0 68 28l8 -8q-20 -72 -68.5 -121t-128.5 -49q-153 0 -153 180v265h-58l-2 14l52 34l210 137l8 -2v-148h110z" />
<glyph unicode="u" d="M626 73q-55 -83 -151 -83q-55 0 -90 31.5t-35 75.5v6q-51 -113 -158 -113q-66 0 -104 40.5t-38 109.5v296l-45 17l-1 14q49 17 122 30t126 13l8 -8v-315q0 -32 12 -47t40 -15q21 0 38 10v301l-45 17l-1 14q49 17 122 30t126 13l8 -8v-354q0 -36 8 -50t28 -14q13 0 22 3z " />
<glyph unicode="v" horiz-adv-x="538" d="M344 0h-154l-137 402q-19 58 -49 81l-4 3l2 14h312l2 -14l-47 -27l82 -325l92 329l-47 23l2 14h138l2 -14q-20 -14 -29 -26q-16 -18 -29 -58z" />
<glyph unicode="w" horiz-adv-x="824" d="M434 500h120l83 -366l92 329l-47 23l2 14h138l2 -14q-20 -15 -33 -30q-12 -16 -25 -54l-136 -402h-154l-66 194l-66 -194h-154l-137 402q-19 58 -49 81l-4 3l2 14h312l2 -14l-47 -27l82 -325z" />
<glyph unicode="x" horiz-adv-x="570" d="M54 423q-29 44 -54 63l2 14h308l2 -14l-45 -18l87 -136l46 137l-42 17l2 14h208l2 -14q-12 -12 -23 -24q-27 -27 -46 -47q-45 -49 -120 -126l134 -211q28 -44 55 -64l-2 -14h-308l-2 14l45 18l-87 136l-46 -137l42 -17l-2 -14h-208l-2 14q12 12 23 24q27 27 46 47 q42 43 120 126z" />
<glyph unicode="y" horiz-adv-x="538" d="M150 -195q-53 0 -84.5 29t-31.5 75q0 32 13 56q54 -15 107 -15q103 0 150 50h-114l-137 402q-19 58 -49 81l-4 3l2 14h312l2 -14l-47 -27l82 -325l92 329l-47 23l2 14h138l2 -14l-8 -5q-18 -11 -28 -28t-22 -51l-118 -350q-17 -50 -35 -89.5t-44 -77.5t-60 -59t-73 -21z " />
<glyph unicode="z" horiz-adv-x="500" d="M478 81q0 -45 -7 -81h-437l-14 80l251 390h-91l-123 -184h-10q-25 56 -25 139q0 40 7 75h437l14 -80l-246 -390h87l122 184h10q25 -50 25 -133z" />
<glyph unicode="{" horiz-adv-x="468" d="M80 293q31 4 50.5 12.5t28 21.5t11 24t2.5 27q0 24 -23 89t-23 100q0 65 66.5 96.5t234.5 31.5l1 -33q-84 0 -84 -89q0 -28 20 -82.5t20 -81.5q0 -108 -193 -129q193 -21 193 -129q0 -24 -20 -80t-20 -84q0 -89 84 -89l-1 -33q-168 0 -234.5 31.5t-66.5 96.5 q0 36 23 103.5t23 85.5q0 16 -2.5 27t-11 24t-28 21.5t-50.5 12.5v26z" />
<glyph unicode="|" horiz-adv-x="330" d="M210 -190l-82 -5l-8 8v877l82 5l8 -8v-877z" />
<glyph unicode="}" horiz-adv-x="428" d="M388 267q-31 -4 -50.5 -12.5t-28 -21.5t-11 -24t-2.5 -27q0 -24 23 -89t23 -100q0 -65 -66.5 -96.5t-234.5 -31.5l-1 33q84 0 84 89q0 28 -20 82.5t-20 81.5q0 108 193 129q-193 21 -193 129q0 24 20 80t20 84q0 89 -84 89l1 33q168 0 234.5 -31.5t66.5 -96.5 q0 -36 -23 -103.5t-23 -85.5q0 -16 2.5 -27t11 -24t28 -21.5t50.5 -12.5v-26z" />
<glyph unicode="~" horiz-adv-x="554" d="M155 217q-11 0 -53 -49l-72 34q14 31 26 52.5t29.5 48t37 40.5t38.5 14q31 0 123.5 -22t104.5 -22q10 0 54 49l71 -34q-14 -31 -26 -52.5t-29.5 -48t-37 -40.5t-38.5 -14q-31 0 -123 22t-105 22z" />
<glyph unicode="&#xa1;" horiz-adv-x="433" d="M121 419q0 41 32.5 66t80.5 25q42 0 68 -21.5t26 -56.5q0 -40 -33 -66t-79 -26q-43 0 -69 21.5t-26 57.5zM353 -168l-4 -10q-112 -17 -213 -17q-30 0 -43 10.5t-13 36.5q0 21 18 90l86 324h70z" />
<glyph unicode="&#xa2;" horiz-adv-x="566" d="M42 245q0 108 68 181.5t174 82.5v111l42 3l8 -6v-108q92 -6 142.5 -51t50.5 -103q0 -38 -26.5 -59t-68.5 -21q-44 0 -80 20q0 95 -8.5 135t-34.5 40q-47 0 -47 -149q0 -93 40.5 -137t112.5 -44q51 0 109 28l8 -8q-18 -67 -67 -113.5t-131 -54.5v-112l-42 -3l-8 6v107 q-106 5 -174 74t-68 181z" />
<glyph unicode="&#xa3;" horiz-adv-x="589" d="M487 275h-147q-36 -122 -118 -205q131 -50 284 -50q27 0 60 5q2 -18 2 -27q0 -55 -29.5 -95t-87.5 -40q-41 0 -79.5 20.5t-64.5 46.5t-62 57t-66 45q-59 -42 -108 -42q-29 0 -45 14.5t-16 36.5q0 26 22.5 46.5t61.5 20.5q31 0 81 -20q5 29 5 70q0 19 -7 117h-107l6 45h98 q-2 58 5 114q13 100 79 163t177 63q80 0 128 -29t48 -73q0 -38 -31 -63t-74 -30q-17 84 -30.5 118.5t-34.5 34.5t-31.5 -29.5t-25.5 -114.5l-24 -133q0 -4 -1.5 -11t-2.5 -10h141z" />
<glyph unicode="&#xa4;" horiz-adv-x="510" d="M418 114l-61 64q-47 -36 -110 -36q-57 0 -101 28l-56 -56l-40 40l56 56q-34 47 -34 114q0 62 40 111l-58 59l36 36q16 -15 60 -59q46 31 101 31q62 0 108 -33l61 61l40 -40l-63 -63q29 -43 29 -98q0 -61 -32 -110q13 -13 33.5 -33t28.5 -28v-11zM250 417q-43 0 -65.5 -27 t-22.5 -66q0 -38 23.5 -67.5t64.5 -29.5q44 0 65 28.5t21 70.5q0 38 -22 64.5t-64 26.5z" />
<glyph unicode="&#xa5;" horiz-adv-x="632" d="M479 0h-324l-2 16l27 10q17 6 22 15.5t5 30.5v57h-123v45h123v45h-123v45h123l-161 308q-19 37 -45 49l-29 13l2 16h353l2 -16l-61 -24l129 -314l128 312l-59 26l2 16h190l2 -16q-12 -8 -24 -18q-42 -36 -85 -116l-126 -236h123v-45h-123v-45h123v-45h-123v-88l56 -25z " />
<glyph unicode="&#xa6;" horiz-adv-x="330" d="M210 325l-82 -5l-8 8v362l82 5l8 -8v-362zM210 -190l-82 -5l-8 8v362l82 5l8 -8v-362z" />
<glyph unicode="&#xa7;" horiz-adv-x="644" d="M584 92q0 -110 -82.5 -181t-218.5 -71q-95 0 -154 31.5t-59 85.5q0 61 71 99l10 -1q55 -99 145 -165q28 11 28 58q0 35 -19.5 72t-49 68.5t-63.5 69.5t-63.5 74t-49 83t-19.5 95q0 108 90.5 179t230.5 71q86 0 139.5 -30.5t53.5 -83.5q0 -64 -71 -102l-10 1 q-65 100 -150 166q-23 -30 -23 -77q0 -41 27.5 -84.5t66 -82.5t77.5 -80t66 -92t27 -103zM400 -86l5 -3q74 44 74 145q0 51 -26.5 98.5t-64.5 85.5t-76 76.5t-65 86.5t-27 101q0 38 24 74l-5 3q-74 -43 -74 -133q0 -53 26.5 -101.5t64.5 -87l76 -77t64.5 -86.5t26.5 -99 q0 -48 -23 -83z" />
<glyph unicode="&#xa8;" horiz-adv-x="576" d="M258 657q0 -42 -30.5 -67.5t-77.5 -25.5q-39 0 -63.5 21.5t-24.5 56.5q0 41 31.5 67.5t76.5 26.5q40 0 64 -21.5t24 -57.5zM514 657q0 -42 -30.5 -67.5t-77.5 -25.5q-39 0 -63.5 21.5t-24.5 56.5q0 41 31.5 67.5t76.5 26.5q40 0 64 -21.5t24 -57.5z" />
<glyph unicode="&#xa9;" horiz-adv-x="697" d="M348 -10q-113 0 -190.5 74.5t-77.5 184.5q0 108 79 184.5t189 76.5q114 0 191.5 -76t77.5 -185q0 -107 -79 -183t-190 -76zM348 29q94 0 161 65t67 155q0 92 -66.5 157t-161.5 65q-94 0 -160.5 -65t-66.5 -157q0 -94 65 -157t162 -63zM482 181q-46 -77 -128 -77 q-56 0 -97.5 40.5t-41.5 104.5q0 63 41 105t105 42q48 0 79.5 -22t31.5 -53q0 -18 -13.5 -29.5t-30.5 -11.5q-27 0 -46 10v2q0 60 -26 60q-17 0 -26.5 -21t-9.5 -58q0 -91 78 -91q30 0 66 16z" />
<glyph unicode="&#xaa;" horiz-adv-x="437" d="M451 349q-44 -61 -115 -61q-37 0 -62.5 16.5t-32.5 42.5q-34 -59 -113 -59q-43 0 -73 24t-30 63q0 107 214 114v97q0 46 -24 46q-28 0 -28 -55q0 -21 5 -51q-39 -14 -75 -14q-73 0 -73 47q0 40 56 70.5t133 30.5q173 0 173 -142q0 -21 -2 -64t-2 -54q0 -26 6 -36t21 -10 q7 0 17 2zM195 405q0 -43 30 -43q6 0 14 4v101q-44 -6 -44 -62z" />
<glyph unicode="&#xab;" horiz-adv-x="565" d="M502 52l-11 -8q-94 91 -211 179l-3 6v50q176 146 217 185l11 -8q-39 -115 -82 -206q39 -73 79 -198zM285 52l-11 -8q-94 91 -211 179l-3 6v50q176 146 217 185l11 -8q-39 -115 -82 -206q39 -73 79 -198z" />
<glyph unicode="&#xac;" horiz-adv-x="599" d="M509 425v-263h-145v133h-294v132q146 6 431 6z" />
<glyph unicode="&#xae;" horiz-adv-x="697" d="M348 -10q-113 0 -190.5 74.5t-77.5 184.5q0 108 79 184.5t190 76.5q113 0 190.5 -76t77.5 -185q0 -107 -79 -183t-190 -76zM348 29q94 0 161 65t67 155q0 92 -66.5 157t-161.5 65q-94 0 -160.5 -65t-66.5 -157q0 -94 65 -157t162 -63zM333 142l26 -11l-1 -17h-145l-2 17 l15 4q3 1 4.5 2.5t2 5t0.5 6v9v10.5v165q0 21 -8 25l-14 7l2 22h159q60 0 93 -22.5t33 -59.5q0 -49 -49 -73q6 -10 21.5 -36t25.5 -41t19 -21l4 -3v-17l-74 -4q-25 -1 -39 20l-51 83h-22v-71zM356 347h-23v-94h23q47 0 47 47t-47 47z" />
<glyph unicode="&#xaf;" horiz-adv-x="466" d="M62 591v106h342v-106h-342z" />
<glyph unicode="&#xb0;" horiz-adv-x="320" d="M157 420q-50 0 -83.5 31.5t-33.5 84.5q0 54 35.5 89t87.5 35q51 0 84 -31.5t33 -82.5q0 -55 -33 -90.5t-90 -35.5zM161 605q-29 0 -45 -19t-16 -47t17 -46t43 -18q28 0 44 19t16 46q0 29 -15.5 47t-43.5 18z" />
<glyph unicode="&#xb1;" horiz-adv-x="599" d="M510 352h-136v-144h-147l-1 144h-146v132q132 4 145 4l-1 147h150v-146q54 1 137 1l8 -8zM510 15h-430v132q145 6 431 6l8 -8z" />
<glyph unicode="&#xb2;" horiz-adv-x="377" d="M51 372l-9 76q60 25 94 63.5t34 78.5q0 26 -15.5 41.5t-42.5 15.5q-47 0 -71 -45l-9 2q13 61 62 97t113 36q61 0 97 -30t36 -77q0 -28 -16.5 -52t-51.5 -44.5t-65 -34t-81 -32.5h149q45 0 60 38l10 -1q-2 -79 -19 -132h-275z" />
<glyph unicode="&#xb3;" horiz-adv-x="394" d="M362 463q0 -45 -53.5 -71.5t-127.5 -26.5q-60 0 -104.5 14.5t-44.5 42.5q0 21 28.5 34.5t69.5 14.5h5q0 -78 32 -78q25 0 25 55q0 36 -18.5 56t-47.5 20q-6 0 -18 -2l-6 17q80 11 80 62q0 19 -13.5 31t-35.5 12q-44 0 -70 -43l-8 3q12 61 59.5 97t111.5 36q56 0 91 -25 t35 -65q0 -78 -139 -95q65 -3 107 -26t42 -63z" />
<glyph unicode="&#xb4;" horiz-adv-x="387" d="M319 676q0 -46 -64 -78.5t-184 -46.5l-9 11q68 99 111 183q20 2 40 2q48 0 77 -17.5t29 -53.5z" />
<glyph unicode="&#xb6;" horiz-adv-x="614" d="M350 190q-148 0 -229 59.5t-81 170.5q0 110 81.5 170t228.5 60h222l2 -16l-27 -10q-17 -6 -22 -15.5t-5 -30.5v-534q0 -100 -56 -152t-155 -52q-91 0 -143 28.5t-52 78.5q0 37 35.5 64t82.5 36l7 -5q13 -74 36 -115.5t69 -41.5q39 0 62.5 35.5t23.5 98.5v586h-80v-415z " />
<glyph unicode="&#xb7;" horiz-adv-x="340" d="M168 238q-39 0 -63.5 23t-24.5 59q0 39 28.5 65.5t68.5 26.5q36 0 59.5 -21.5t23.5 -56.5q0 -40 -26.5 -68t-65.5 -28z" />
<glyph unicode="&#xb8;" horiz-adv-x="366" d="M100 -106l-3 6l17 100h47l-6 -33q67 -5 105 -27.5t38 -59.5q0 -48 -57 -75t-168 -27l-5 15q77 33 77 67q0 29 -45 34z" />
<glyph unicode="&#xb9;" horiz-adv-x="301" d="M268 372h-234l-2 10l24 8q12 4 15 8t3 16v265l-40 3l-1 10l194 45l5 -5v-336l37 -14z" />
<glyph unicode="&#xba;" horiz-adv-x="447" d="M427 483q0 -89 -58 -142t-150 -53q-87 0 -143 48t-56 129q0 89 58 142t150 53q88 0 143.5 -48t55.5 -129zM190 482q0 -96 6.5 -131t27.5 -35q20 0 26.5 31t6.5 119q0 98 -6.5 132t-26.5 34q-21 0 -27.5 -31.5t-6.5 -118.5z" />
<glyph unicode="&#xbb;" horiz-adv-x="565" d="M288 229q-176 -146 -217 -185l-11 8q39 115 82 206q-39 73 -79 198l11 8q94 -91 211 -179l3 -6v-50zM505 229q-176 -146 -217 -185l-11 8q39 115 82 206q-39 73 -79 198l11 8q94 -91 211 -179l3 -6v-50z" />
<glyph unicode="&#xbc;" horiz-adv-x="994" d="M621 660h101l-397 -670h-103zM326 292h-234l-2 10l24 8q12 4 15 8t3 16v265l-40 3l-1 10l194 45l5 -5v-336l37 -14zM541 128l210 237l91 -7v-230h52l-5 -50h-47v-78h-158v78h-137zM584 128h100v121z" />
<glyph unicode="&#xbd;" horiz-adv-x="998" d="M621 660h101l-397 -670h-103zM326 292h-234l-2 10l24 8q12 4 15 8t3 16v265l-40 3l-1 10l194 45l5 -5v-336l37 -14zM604 3l-9 76q60 25 94 63.5t34 78.5q0 26 -15.5 41.5t-42.5 15.5q-47 0 -71 -45l-9 2q13 61 62 97t113 36q61 0 97 -30t36 -77q0 -28 -16.5 -52 t-51.5 -44.5t-65 -34t-81 -32.5h149q45 0 60 38l10 -1q-2 -79 -19 -132h-275z" />
<glyph unicode="&#xbe;" horiz-adv-x="999" d="M656 660h101l-397 -670h-103zM400 383q0 -45 -53.5 -71.5t-127.5 -26.5q-60 0 -104.5 14.5t-44.5 42.5q0 21 28.5 34.5t69.5 14.5h5q0 -78 32 -78q25 0 25 55q0 36 -18.5 56t-47.5 20q-6 0 -18 -2l-6 17q80 11 80 62q0 19 -13.5 31t-35.5 12q-44 0 -70 -43l-8 3 q12 61 59.5 97t111.5 36q56 0 91 -25t35 -65q0 -78 -139 -95q65 -3 107 -26t42 -63zM546 128l210 237l91 -7v-230h52l-5 -50h-47v-78h-158v78h-137zM589 128h100v121z" />
<glyph unicode="&#xbf;" horiz-adv-x="568" d="M181 420q0 41 32.5 66t80.5 25q42 0 68 -21.5t26 -56.5q0 -40 -33 -66t-79 -26q-43 0 -69 21.5t-26 57.5zM239 268l8 8q11 1 20 1q38 0 65 -16.5t27 -47.5q0 -25 -13 -51q-11 -22 -42.5 -58t-52.5 -74.5t-21 -85.5q0 -43 15 -70.5t46 -27.5q33 0 50 33t17 85q0 32 -8 91 q30 16 74 16q61 0 102.5 -27.5t41.5 -73.5q0 -69 -87 -116.5t-207 -47.5t-197 49t-77 129q0 44 34 84t72 62t80.5 41.5t44.5 21.5q8 6 8 21v54z" />
<glyph unicode="&#xc0;" horiz-adv-x="698" d="M480 713l-9 -11q-120 14 -184 46.5t-64 78.5q0 36 29 53.5t77 17.5q20 0 40 -2q43 -84 111 -183zM291 650h115l218 -572q12 -34 45 -49l29 -13l-2 -16h-353l-2 16l63 25l-42 122l-210 -2l-44 -119l69 -26l-2 -16h-173l-2 16l31 11q13 5 22 14t12 15.5t11 27.5zM168 203 h180l-86 253z" />
<glyph unicode="&#xc1;" horiz-adv-x="698" d="M487 832q0 -46 -64 -78.5t-184 -46.5l-9 11q68 99 111 183q20 2 40 2q48 0 77 -17.5t29 -53.5zM291 650h115l218 -572q12 -34 45 -49l29 -13l-2 -16h-353l-2 16l63 25l-42 122l-210 -2l-44 -119l69 -26l-2 -16h-173l-2 16l31 11q13 5 22 14t12 15.5t11 27.5zM168 203h180 l-86 253z" />
<glyph unicode="&#xc2;" horiz-adv-x="698" d="M513 719l-9 -7q-83 37 -153 60q-26 -9 -159 -60l-7 10q55 95 88 159l11 8h145q41 -71 84 -170zM291 650h115l218 -572q12 -34 45 -49l29 -13l-2 -16h-353l-2 16l63 25l-42 122l-210 -2l-44 -119l69 -26l-2 -16h-173l-2 16l31 11q13 5 22 14t12 15.5t11 27.5zM168 203h180 l-86 253z" />
<glyph unicode="&#xc3;" horiz-adv-x="698" d="M465 831q8 9 24.5 26.5t24.5 26.5l10 -3q4 -23 4 -49q0 -54 -24 -85.5t-74 -31.5q-12 0 -24 1t-25 3.5t-22.5 4.5t-24 6.5t-21 6.5t-22 8t-19 7.5t-20 8.5t-17.5 7q-8 -9 -24.5 -26.5t-24.5 -26.5l-10 3q-6 27 -6 51q0 52 25.5 83.5t74.5 31.5q31 0 64 -8.5t75 -24.5 t56 -20zM291 650h115l218 -572q12 -34 45 -49l29 -13l-2 -16h-353l-2 16l63 25l-42 122l-210 -2l-44 -119l69 -26l-2 -16h-173l-2 16l31 11q13 5 22 14t12 15.5t11 27.5zM168 203h180l-86 253z" />
<glyph unicode="&#xc4;" horiz-adv-x="698" d="M319 807q0 -42 -30.5 -67.5t-77.5 -25.5q-39 0 -63.5 21.5t-24.5 56.5q0 41 31.5 67.5t76.5 26.5q40 0 64 -21.5t24 -57.5zM575 807q0 -42 -30.5 -67.5t-77.5 -25.5q-39 0 -63.5 21.5t-24.5 56.5q0 41 31.5 67.5t76.5 26.5q40 0 64 -21.5t24 -57.5zM291 650h115l218 -572 q12 -34 45 -49l29 -13l-2 -16h-353l-2 16l63 25l-42 122l-210 -2l-44 -119l69 -26l-2 -16h-173l-2 16l31 11q13 5 22 14t12 15.5t11 27.5zM168 203h180l-86 253z" />
<glyph unicode="&#xc5;" horiz-adv-x="698" d="M345 704q-47 0 -76.5 24.5t-29.5 66.5q0 45 32 72.5t82 27.5q46 0 75.5 -24.5t29.5 -65.5q0 -45 -32 -73t-81 -28zM349 848q-17 0 -27.5 -14t-10.5 -37q0 -21 10 -33t27 -12t27.5 14t10.5 37q0 20 -10 32.5t-27 12.5zM291 650h115l218 -572q12 -34 45 -49l29 -13l-2 -16 h-353l-2 16l63 25l-42 122l-210 -2l-44 -119l69 -26l-2 -16h-173l-2 16l31 11q13 5 22 14t12 15.5t11 27.5zM168 203h180l-86 253z" />
<glyph unicode="&#xc6;" horiz-adv-x="927" d="M27 0l-2 16q27 9 42 17q12 7 19 17.5t19 42.5l196 517l-74 24l2 16h645q7 -35 7 -75q0 -83 -25 -139h-10l-125 174h-94v-265l157 15l-3 -70l-154 15v-265h102l126 181h10q25 -58 25 -143q0 -42 -7 -78h-528l-2 16l29 10q17 6 22 15.5t5 30.5v232l-179 -2l-96 -260l78 -26 l-2 -16h-183zM409 610h-65l-97 -263l162 -2v265z" />
<glyph unicode="&#xc7;" horiz-adv-x="645" d="M340 -106l-3 6l16 93q-151 14 -239.5 99.5t-88.5 229.5q0 155 110.5 246.5t277.5 91.5q107 0 182 -26q4 -25 4 -62q0 -86 -32 -158h-10l-122 206h-5q-67 0 -118.5 -82.5t-51.5 -212.5q0 -132 50.5 -213.5t115.5 -81.5q13 0 20 1l121 205h10q32 -62 32 -166q0 -31 -4 -54 q-101 -26 -196 -26h-10l-4 -23q67 -5 105 -27.5t38 -59.5q0 -48 -57 -75t-168 -27l-5 15q77 33 77 67q0 29 -45 34z" />
<glyph unicode="&#xc8;" horiz-adv-x="595" d="M442 713l-9 -11q-120 14 -184 46.5t-64 78.5q0 36 29 53.5t77 17.5q20 0 40 -2q43 -84 111 -183zM558 0h-528l-2 16l29 10q17 6 22 15.5t5 30.5v537l-55 25l2 16h518q7 -35 7 -75q0 -83 -25 -139h-10l-125 174h-94v-265l157 15l-3 -70l-154 15v-265h102l126 181h10 q25 -58 25 -143q0 -42 -7 -78z" />
<glyph unicode="&#xc9;" horiz-adv-x="595" d="M449 833q0 -46 -64 -78.5t-184 -46.5l-9 11q68 99 111 183q20 2 40 2q48 0 77 -17.5t29 -53.5zM558 0h-528l-2 16l29 10q17 6 22 15.5t5 30.5v538l-55 25l2 16h518q7 -35 7 -75q0 -84 -25 -140h-10l-125 175h-94v-266l157 15l-3 -70l-154 15v-265h102l126 181h10 q25 -58 25 -143q0 -42 -7 -78z" />
<glyph unicode="&#xca;" horiz-adv-x="595" d="M475 719l-9 -7q-83 37 -153 60q-26 -9 -159 -60l-7 10q55 95 88 159l11 8h145q41 -71 84 -170zM558 0h-528l-2 16l29 10q17 6 22 15.5t5 30.5v537l-55 25l2 16h518q7 -35 7 -75q0 -83 -25 -139h-10l-125 174h-94v-265l157 15l-3 -70l-154 15v-265h102l126 181h10 q25 -58 25 -143q0 -42 -7 -78z" />
<glyph unicode="&#xcb;" horiz-adv-x="595" d="M281 807q0 -42 -30.5 -67.5t-77.5 -25.5q-39 0 -63.5 21.5t-24.5 56.5q0 41 31.5 67.5t76.5 26.5q40 0 64 -21.5t24 -57.5zM537 807q0 -42 -30.5 -67.5t-77.5 -25.5q-39 0 -63.5 21.5t-24.5 56.5q0 41 31.5 67.5t76.5 26.5q40 0 64 -21.5t24 -57.5zM558 0h-528l-2 16 l29 10q17 6 22 15.5t5 30.5v537l-55 25l2 16h518q7 -35 7 -75q0 -83 -25 -139h-10l-125 174h-94v-265l157 15l-3 -70l-154 15v-265h102l126 181h10q25 -58 25 -143q0 -42 -7 -78z" />
<glyph unicode="&#xcc;" horiz-adv-x="386" d="M324 713l-9 -11q-120 14 -184 46.5t-64 78.5q0 36 29 53.5t77 17.5q20 0 40 -2q43 -84 111 -183zM356 0h-324l-2 16l27 10q17 6 22 15.5t5 30.5v537l-56 25l2 16h324l2 -16l-27 -10q-17 -6 -22 -15.5t-5 -30.5v-537l56 -25z" />
<glyph unicode="&#xcd;" horiz-adv-x="386" d="M331 832q0 -46 -64 -78.5t-184 -46.5l-9 11q68 99 111 183q20 2 40 2q48 0 77 -17.5t29 -53.5zM356 0h-324l-2 16l27 10q17 6 22 15.5t5 30.5v537l-56 25l2 16h324l2 -16l-27 -10q-17 -6 -22 -15.5t-5 -30.5v-537l56 -25z" />
<glyph unicode="&#xce;" horiz-adv-x="386" d="M357 719l-9 -7q-83 37 -153 60q-26 -9 -159 -60l-7 10q55 95 88 159l11 8h145q41 -71 84 -170zM356 0h-324l-2 16l27 10q17 6 22 15.5t5 30.5v537l-56 25l2 16h324l2 -16l-27 -10q-17 -6 -22 -15.5t-5 -30.5v-537l56 -25z" />
<glyph unicode="&#xcf;" horiz-adv-x="386" d="M163 807q0 -42 -30.5 -67.5t-77.5 -25.5q-39 0 -63.5 21.5t-24.5 56.5q0 41 31.5 67.5t76.5 26.5q40 0 64 -21.5t24 -57.5zM419 807q0 -42 -30.5 -67.5t-77.5 -25.5q-39 0 -63.5 21.5t-24.5 56.5q0 41 31.5 67.5t76.5 26.5q40 0 64 -21.5t24 -57.5zM356 0h-324l-2 16 l27 10q17 6 22 15.5t5 30.5v537l-56 25l2 16h324l2 -16l-27 -10q-17 -6 -22 -15.5t-5 -30.5v-537l56 -25z" />
<glyph unicode="&#xd0;" horiz-adv-x="732" d="M349 0h-319l-2 16l29 10q17 6 22 15.5t5 30.5v240h-56v35h56v262l-55 25l2 16h320q155 0 253 -84t98 -236q0 -154 -99.5 -242t-253.5 -88zM397 312h-95v-272h26q73 0 113 75.5t41 214.5q1 138 -39 209t-116 71h-25v-263h95v-35z" />
<glyph unicode="&#xd1;" horiz-adv-x="656" d="M460 831q8 9 24.5 26.5t24.5 26.5l10 -3q4 -23 4 -49q0 -54 -24 -85.5t-74 -31.5q-12 0 -24 1t-25 3.5t-22.5 4.5t-24 6.5t-21 6.5t-22 8t-19 7.5t-20 8.5t-17.5 7q-8 -9 -24.5 -26.5t-24.5 -26.5l-10 3q-6 27 -6 51q0 52 25.5 83.5t74.5 31.5q31 0 64 -8.5t75 -24.5 t56 -20zM211 0h-199l-2 16l47 15q17 6 22 14t5 27v537l-74 25l2 16h220l307 -412v371l-84 25l2 16h199l2 -16l-47 -15q-17 -6 -22 -14t-5 -27v-578h-148l-307 421v-380l84 -25z" />
<glyph unicode="&#xd2;" horiz-adv-x="710" d="M478 713l-9 -11q-120 14 -184 46.5t-64 78.5q0 36 29 53.5t77 17.5q20 0 40 -2q43 -84 111 -183zM672 330q0 -159 -91.5 -249.5t-234.5 -90.5q-145 0 -234.5 89.5t-89.5 245.5q0 155 94 245t232 90q144 0 234 -86.5t90 -243.5zM257 325q-1 -158 20.5 -226.5t71.5 -68.5 q49 0 68 69.5t20 230.5q1 158 -18.5 224t-70.5 66t-70.5 -67t-20.5 -228z" />
<glyph unicode="&#xd3;" horiz-adv-x="710" d="M485 832q0 -46 -64 -78.5t-184 -46.5l-9 11q68 99 111 183q20 2 40 2q48 0 77 -17.5t29 -53.5zM672 330q0 -159 -91.5 -249.5t-234.5 -90.5q-145 0 -234.5 89.5t-89.5 245.5q0 155 94 245t232 90q144 0 234 -86.5t90 -243.5zM257 325q-1 -158 20.5 -226.5t71.5 -68.5 q49 0 68 69.5t20 230.5q1 158 -18.5 224t-70.5 66t-70.5 -67t-20.5 -228z" />
<glyph unicode="&#xd4;" horiz-adv-x="710" d="M511 719l-9 -7q-83 37 -153 60q-26 -9 -159 -60l-7 10q55 95 88 159l11 8h145q41 -71 84 -170zM672 330q0 -159 -91.5 -249.5t-234.5 -90.5q-145 0 -234.5 89.5t-89.5 245.5q0 155 94 245t232 90q144 0 234 -86.5t90 -243.5zM257 325q-1 -158 20.5 -226.5t71.5 -68.5 q49 0 68 69.5t20 230.5q1 158 -18.5 224t-70.5 66t-70.5 -67t-20.5 -228z" />
<glyph unicode="&#xd5;" horiz-adv-x="710" d="M463 831q8 9 24.5 26.5t24.5 26.5l10 -3q4 -23 4 -49q0 -54 -24 -85.5t-74 -31.5q-12 0 -24 1t-25 3.5t-22.5 4.5t-24 6.5t-21 6.5t-22 8t-19 7.5t-20 8.5t-17.5 7q-8 -9 -24.5 -26.5t-24.5 -26.5l-10 3q-6 27 -6 51q0 52 25.5 83.5t74.5 31.5q31 0 64 -8.5t75 -24.5 t56 -20zM672 330q0 -159 -91.5 -249.5t-234.5 -90.5q-145 0 -234.5 89.5t-89.5 245.5q0 155 94 245t232 90q144 0 234 -86.5t90 -243.5zM257 325q-1 -158 20.5 -226.5t71.5 -68.5q49 0 68 69.5t20 230.5q1 158 -18.5 224t-70.5 66t-70.5 -67t-20.5 -228z" />
<glyph unicode="&#xd6;" horiz-adv-x="710" d="M317 807q0 -42 -30.5 -67.5t-77.5 -25.5q-39 0 -63.5 21.5t-24.5 56.5q0 41 31.5 67.5t76.5 26.5q40 0 64 -21.5t24 -57.5zM573 807q0 -42 -30.5 -67.5t-77.5 -25.5q-39 0 -63.5 21.5t-24.5 56.5q0 41 31.5 67.5t76.5 26.5q40 0 64 -21.5t24 -57.5zM672 330 q0 -159 -91.5 -249.5t-234.5 -90.5q-145 0 -234.5 89.5t-89.5 245.5q0 155 94 245t232 90q144 0 234 -86.5t90 -243.5zM257 325q-1 -158 20.5 -226.5t71.5 -68.5q49 0 68 69.5t20 230.5q1 158 -18.5 224t-70.5 66t-70.5 -67t-20.5 -228z" />
<glyph unicode="&#xd7;" horiz-adv-x="617" d="M421 114l-112 113l-115 -114l-98 98l114 115l-115 116l96 96q30 -27 117 -112l111 112l101 -100l-111 -111l113 -113v-12z" />
<glyph unicode="&#xd8;" horiz-adv-x="710" d="M672 330q0 -159 -91.5 -249.5t-234.5 -90.5q-114 0 -194 56l-45 -56l-38 32l45 55q-92 92 -92 248q0 155 94 245t232 90q114 0 194 -54l44 54l39 -31l-44 -54q91 -89 91 -245zM257 325q0 -49 1 -70l175 216q-8 79 -28 114t-57 35q-51 0 -70.5 -67t-20.5 -228zM437 330 q0 46 -1 66l-174 -214q8 -80 29 -116t58 -36q49 0 68 69.5t20 230.5z" />
<glyph unicode="&#xd9;" horiz-adv-x="681" d="M535 712l-9 -11q-120 14 -184 46.5t-64 78.5q0 36 29 53.5t77 17.5q20 0 40 -2q43 -84 111 -183zM607 226q0 -236 -254 -236q-121 0 -195 62t-74 177v380l-56 25l2 16h324l2 -16l-27 -10q-17 -6 -22 -15.5t-5 -30.5v-340q0 -185 129 -185q61 0 96 44.5t35 128.5v384 l-74 24l2 16h189l2 -16l-74 -24v-384z" />
<glyph unicode="&#xda;" horiz-adv-x="681" d="M542 831q0 -46 -64 -78.5t-184 -46.5l-9 11q68 99 111 183q20 2 40 2q48 0 77 -17.5t29 -53.5zM607 226q0 -236 -254 -236q-121 0 -195 62t-74 177v380l-56 25l2 16h324l2 -16l-27 -10q-17 -6 -22 -15.5t-5 -30.5v-340q0 -185 129 -185q61 0 96 44.5t35 128.5v384l-74 24 l2 16h189l2 -16l-74 -24v-384z" />
<glyph unicode="&#xdb;" horiz-adv-x="681" d="M568 718l-9 -7q-83 37 -153 60q-26 -9 -159 -60l-7 10q55 95 88 159l11 8h145q41 -71 84 -170zM607 226q0 -236 -254 -236q-121 0 -195 62t-74 177v380l-56 25l2 16h324l2 -16l-27 -10q-17 -6 -22 -15.5t-5 -30.5v-340q0 -185 129 -185q61 0 96 44.5t35 128.5v384l-74 24 l2 16h189l2 -16l-74 -24v-384z" />
<glyph unicode="&#xdc;" horiz-adv-x="681" d="M374 806q0 -42 -30.5 -67.5t-77.5 -25.5q-39 0 -63.5 21.5t-24.5 56.5q0 41 31.5 67.5t76.5 26.5q40 0 64 -21.5t24 -57.5zM630 806q0 -42 -30.5 -67.5t-77.5 -25.5q-39 0 -63.5 21.5t-24.5 56.5q0 41 31.5 67.5t76.5 26.5q40 0 64 -21.5t24 -57.5zM607 226 q0 -236 -254 -236q-121 0 -195 62t-74 177v380l-56 25l2 16h324l2 -16l-27 -10q-17 -6 -22 -15.5t-5 -30.5v-340q0 -185 129 -185q61 0 96 44.5t35 128.5v384l-74 24l2 16h189l2 -16l-74 -24v-384z" />
<glyph unicode="&#xdd;" horiz-adv-x="688" d="M504 832q0 -46 -64 -78.5t-184 -46.5l-9 11q68 99 111 183q20 2 40 2q48 0 77 -17.5t29 -53.5zM507 0h-324l-2 16l27 10q17 6 22 15.5t5 30.5v192l-161 308q-19 37 -45 49l-29 13l2 16h353l2 -16l-61 -24l129 -314l128 312l-59 26l2 16h190l2 -16q-12 -8 -24 -18 q-42 -36 -85 -116l-126 -236v-223l56 -25z" />
<glyph unicode="&#xde;" horiz-adv-x="668" d="M337 125h-35v-84l84 -25l-2 -16h-354l-2 16l29 10q17 6 22 15.5t5 30.5v537l-56 25l2 16h324l2 -16l-27 -10q-17 -6 -22 -15.5t-5 -30.5v-33h35q142 0 222 -53.5t80 -151.5q0 -103 -81 -159t-221 -56zM322 505h-20v-340h20q46 0 71.5 45.5t25.5 130.5q0 75 -26 119.5 t-71 44.5z" />
<glyph unicode="&#xdf;" horiz-adv-x="639" d="M251 0h-239l-2 14l18 10q17 9 22 18t5 28v365h-63l-2 14l65 25l1 -1q10 96 80.5 159t184.5 63q103 0 166 -47.5t63 -121.5q0 -59 -46.5 -98.5t-128.5 -55.5q119 -7 189.5 -60.5t70.5 -138.5q0 -86 -62 -134.5t-170 -48.5q-45 0 -73 13.5t-28 40.5q0 28 32 37 q13 -17 32 -17q45 0 45 88q0 78 -28 135t-80 70v16q31 5 51 56t20 118q0 50 -13 79t-37 29q-59 0 -59 -130v-511z" />
<glyph unicode="&#xe0;" horiz-adv-x="565" d="M427 562l-9 -11q-120 14 -184 46.5t-64 78.5q0 36 29 53.5t77 17.5q20 0 40 -2q43 -84 111 -183zM579 77q-54 -87 -149 -87q-47 0 -80 23.5t-42 59.5q-46 -83 -149 -83q-55 0 -94.5 34t-39.5 88q0 75 74 115t206 44v137q0 62 -33 62q-37 0 -37 -76q0 -36 7 -72 q-53 -20 -98 -20q-43 0 -68.5 17t-25.5 50q0 56 72.5 98.5t173.5 42.5q224 0 224 -200q0 -30 -2.5 -88t-2.5 -74q0 -36 8 -50t28 -14q13 0 22 3zM245 155q0 -30 11.5 -45t28.5 -15q13 0 20 6v140q-28 -4 -44 -27t-16 -59z" />
<glyph unicode="&#xe1;" horiz-adv-x="565" d="M444 676q0 -46 -64 -78.5t-184 -46.5l-9 11q68 99 111 183q20 2 40 2q48 0 77 -17.5t29 -53.5zM579 77q-54 -87 -149 -87q-47 0 -80 23.5t-42 59.5q-46 -83 -149 -83q-55 0 -94.5 34t-39.5 88q0 75 74 115t206 44v137q0 62 -33 62q-37 0 -37 -76q0 -36 7 -72 q-53 -20 -98 -20q-43 0 -68.5 17t-25.5 50q0 56 72.5 98.5t173.5 42.5q224 0 224 -200q0 -30 -2.5 -88t-2.5 -74q0 -36 8 -50t28 -14q13 0 22 3zM245 155q0 -30 11.5 -45t28.5 -15q13 0 20 6v140q-28 -4 -44 -27t-16 -59z" />
<glyph unicode="&#xe2;" horiz-adv-x="565" d="M463 568l-9 -7q-83 37 -153 60q-26 -9 -159 -60l-7 10q55 95 88 159l11 8h145q41 -71 84 -170zM579 77q-54 -87 -149 -87q-47 0 -80 23.5t-42 59.5q-46 -83 -149 -83q-55 0 -94.5 34t-39.5 88q0 75 74 115t206 44v137q0 62 -33 62q-37 0 -37 -76q0 -36 7 -72 q-53 -20 -98 -20q-43 0 -68.5 17t-25.5 50q0 56 72.5 98.5t173.5 42.5q224 0 224 -200q0 -30 -2.5 -88t-2.5 -74q0 -36 8 -50t28 -14q13 0 22 3zM245 155q0 -30 11.5 -45t28.5 -15q13 0 20 6v140q-28 -4 -44 -27t-16 -59z" />
<glyph unicode="&#xe3;" horiz-adv-x="565" d="M412 681q8 9 24.5 26.5t24.5 26.5l10 -3q4 -23 4 -49q0 -54 -24 -85.5t-74 -31.5q-12 0 -24 1t-25 3.5t-22.5 4.5t-24 6.5t-21 6.5t-22 8t-19 7.5t-20 8.5t-17.5 7q-8 -9 -24.5 -26.5t-24.5 -26.5l-10 3q-6 27 -6 51q0 52 25.5 83.5t74.5 31.5q31 0 64 -8.5t75 -24.5 t56 -20zM579 77q-54 -87 -149 -87q-47 0 -80 23.5t-42 59.5q-46 -83 -149 -83q-55 0 -94.5 34t-39.5 88q0 75 74 115t206 44v137q0 62 -33 62q-37 0 -37 -76q0 -36 7 -72q-53 -20 -98 -20q-43 0 -68.5 17t-25.5 50q0 56 72.5 98.5t173.5 42.5q224 0 224 -200q0 -30 -2.5 -88 t-2.5 -74q0 -36 8 -50t28 -14q13 0 22 3zM245 155q0 -30 11.5 -45t28.5 -15q13 0 20 6v140q-28 -4 -44 -27t-16 -59z" />
<glyph unicode="&#xe4;" horiz-adv-x="565" d="M265 657q0 -42 -30.5 -67.5t-77.5 -25.5q-39 0 -63.5 21.5t-24.5 56.5q0 41 31.5 67.5t76.5 26.5q40 0 64 -21.5t24 -57.5zM521 657q0 -42 -30.5 -67.5t-77.5 -25.5q-39 0 -63.5 21.5t-24.5 56.5q0 41 31.5 67.5t76.5 26.5q40 0 64 -21.5t24 -57.5zM579 77 q-54 -87 -149 -87q-47 0 -80 23.5t-42 59.5q-46 -83 -149 -83q-55 0 -94.5 34t-39.5 88q0 75 74 115t206 44v137q0 62 -33 62q-37 0 -37 -76q0 -36 7 -72q-53 -20 -98 -20q-43 0 -68.5 17t-25.5 50q0 56 72.5 98.5t173.5 42.5q224 0 224 -200q0 -30 -2.5 -88t-2.5 -74 q0 -36 8 -50t28 -14q13 0 22 3zM245 155q0 -30 11.5 -45t28.5 -15q13 0 20 6v140q-28 -4 -44 -27t-16 -59z" />
<glyph unicode="&#xe5;" horiz-adv-x="565" d="M292 554q-47 0 -76.5 24.5t-29.5 66.5q0 45 32 72.5t82 27.5q46 0 75.5 -24.5t29.5 -65.5q0 -45 -32 -73t-81 -28zM296 698q-17 0 -27.5 -14t-10.5 -37q0 -21 10 -33t27 -12t27.5 14t10.5 37q0 20 -10 32.5t-27 12.5zM579 77q-54 -87 -149 -87q-47 0 -80 23.5t-42 59.5 q-46 -83 -149 -83q-55 0 -94.5 34t-39.5 88q0 75 74 115t206 44v137q0 62 -33 62q-37 0 -37 -76q0 -36 7 -72q-53 -20 -98 -20q-43 0 -68.5 17t-25.5 50q0 56 72.5 98.5t173.5 42.5q224 0 224 -200q0 -30 -2.5 -88t-2.5 -74q0 -36 8 -50t28 -14q13 0 22 3zM245 155 q0 -30 11.5 -45t28.5 -15q13 0 20 6v140q-28 -4 -44 -27t-16 -59z" />
<glyph unicode="&#xe6;" horiz-adv-x="820" d="M795 161q-21 -75 -82 -122.5t-158 -47.5q-150 0 -212 98q-19 -40 -63 -69.5t-107 -29.5q-64 0 -106 33.5t-42 88.5q0 75 74 115t206 44v137q0 62 -33 62q-37 0 -37 -76q0 -36 7 -72q-53 -20 -98 -20q-43 0 -68.5 17t-25.5 50q0 56 72.5 98.5t173.5 42.5q88 0 142 -32 q60 33 137 33q104 0 167 -59t63 -153q0 -16 -4 -40l-8 -8h-260q28 -110 144 -110q56 0 110 28zM525 325q0 -15 2 -39l67 6q1 17 1 48q0 71 -5.5 101t-25.5 30q-39 0 -39 -146zM245 173q0 -33 14 -53.5t36 -20.5q21 0 34 15q-24 52 -24 127q-60 -8 -60 -68z" />
<glyph unicode="&#xe7;" horiz-adv-x="515" d="M20 245q0 115 76.5 190t191.5 75q103 0 160 -46.5t57 -108.5q0 -38 -26.5 -59t-68.5 -21q-44 0 -80 20q0 95 -8.5 135t-34.5 40q-47 0 -47 -149q0 -93 40.5 -137t112.5 -44q51 0 109 28l8 -8q-19 -70 -71.5 -117t-140.5 -52l-4 -24q67 -5 105 -27.5t38 -59.5 q0 -48 -57 -75t-168 -27l-5 15q77 33 77 67q0 29 -45 34l-3 6l15 91q-102 8 -166.5 76.5t-64.5 177.5z" />
<glyph unicode="&#xe8;" horiz-adv-x="535" d="M406 562l-9 -11q-120 14 -184 46.5t-64 78.5q0 36 29 53.5t77 17.5q20 0 40 -2q43 -84 111 -183zM510 160q-21 -75 -82 -122.5t-158 -47.5q-106 0 -178 69t-72 181q0 122 76.5 196t193.5 74q104 0 167 -59t63 -153q0 -16 -4 -40l-8 -8h-260q28 -110 144 -110q56 0 110 28 zM240 324q0 -15 2 -39l67 6q1 17 1 48q0 71 -5.5 101t-25.5 30q-39 0 -39 -146z" />
<glyph unicode="&#xe9;" horiz-adv-x="535" d="M423 676q0 -46 -64 -78.5t-184 -46.5l-9 11q68 99 111 183q20 2 40 2q48 0 77 -17.5t29 -53.5zM510 160q-21 -75 -82 -122.5t-158 -47.5q-106 0 -178 69t-72 181q0 122 76.5 196t193.5 74q104 0 167 -59t63 -153q0 -16 -4 -40l-8 -8h-260q28 -110 144 -110q56 0 110 28z M240 324q0 -15 2 -39l67 6q1 17 1 48q0 71 -5.5 101t-25.5 30q-39 0 -39 -146z" />
<glyph unicode="&#xea;" horiz-adv-x="535" d="M442 568l-9 -7q-83 37 -153 60q-26 -9 -159 -60l-7 10q55 95 88 159l11 8h145q41 -71 84 -170zM510 160q-21 -75 -82 -122.5t-158 -47.5q-106 0 -178 69t-72 181q0 122 76.5 196t193.5 74q104 0 167 -59t63 -153q0 -16 -4 -40l-8 -8h-260q28 -110 144 -110q56 0 110 28z M240 324q0 -15 2 -39l67 6q1 17 1 48q0 71 -5.5 101t-25.5 30q-39 0 -39 -146z" />
<glyph unicode="&#xeb;" horiz-adv-x="535" d="M244 657q0 -42 -30.5 -67.5t-77.5 -25.5q-39 0 -63.5 21.5t-24.5 56.5q0 41 31.5 67.5t76.5 26.5q40 0 64 -21.5t24 -57.5zM500 657q0 -42 -30.5 -67.5t-77.5 -25.5q-39 0 -63.5 21.5t-24.5 56.5q0 41 31.5 67.5t76.5 26.5q40 0 64 -21.5t24 -57.5zM510 160 q-21 -75 -82 -122.5t-158 -47.5q-106 0 -178 69t-72 181q0 122 76.5 196t193.5 74q104 0 167 -59t63 -153q0 -16 -4 -40l-8 -8h-260q28 -110 144 -110q56 0 110 28zM240 324q0 -15 2 -39l67 6q1 17 1 48q0 71 -5.5 101t-25.5 30q-39 0 -39 -146z" />
<glyph unicode="&#xec;" horiz-adv-x="315" d="M291 562l-9 -11q-120 14 -184 46.5t-64 78.5q0 36 29 53.5t77 17.5q20 0 40 -2q43 -84 111 -183zM308 0h-296l-2 14l18 10q17 9 22 18t5 28v366l-45 17l-1 14q49 17 122 30t126 13l8 -8v-463l45 -25z" />
<glyph unicode="&#xed;" horiz-adv-x="315" d="M308 676q0 -46 -64 -78.5t-184 -46.5l-9 11q68 99 111 183q20 2 40 2q48 0 77 -17.5t29 -53.5zM308 0h-296l-2 14l18 10q17 9 22 18t5 28v366l-45 17l-1 14q49 17 122 30t126 13l8 -8v-463l45 -25z" />
<glyph unicode="&#xee;" horiz-adv-x="315" d="M301 568l-9 -7q-72 36 -129 58q-19 -8 -41.5 -17.5t-50.5 -21.5t-44 -19l-7 10q46 106 66 159l11 8h143q37 -90 61 -170zM308 0h-296l-2 14l18 10q17 9 22 18t5 28v366l-45 17l-1 14q49 17 122 30t126 13l8 -8v-463l45 -25z" />
<glyph unicode="&#xef;" horiz-adv-x="315" d="M133 657q0 -42 -25 -67.5t-63 -25.5q-30 0 -49 21.5t-19 56.5q0 41 25.5 67.5t62.5 26.5q31 0 49.5 -21.5t18.5 -57.5zM343 657q0 -42 -25 -67.5t-63 -25.5q-30 0 -49 21.5t-19 56.5q0 41 25.5 67.5t62.5 26.5q31 0 49.5 -21.5t18.5 -57.5zM308 0h-296l-2 14l18 10 q17 9 22 18t5 28v366l-45 17l-1 14q49 17 122 30t126 13l8 -8v-463l45 -25z" />
<glyph unicode="&#xf0;" horiz-adv-x="570" d="M550 300q0 -142 -73 -226t-201 -84q-116 0 -186 70.5t-70 187.5q0 116 67 189t175 73q20 0 42 -5q-23 54 -56 99l-173 -88l-18 36l165 84q-58 69 -137 112l4 12q133 -15 235 -72l119 61l19 -36l-98 -50q90 -63 138 -156t48 -207zM240 250q0 -128 9.5 -174t35.5 -46 q24 0 34.5 48.5t10.5 176.5q0 112 -7.5 163.5t-33.5 51.5q-27 0 -38 -50.5t-11 -169.5z" />
<glyph unicode="&#xf1;" d="M423 681q8 9 24.5 26.5t24.5 26.5l10 -3q4 -23 4 -49q0 -54 -24 -85.5t-74 -31.5q-12 0 -24 1t-25 3.5t-22.5 4.5t-24 6.5t-21 6.5t-22 8t-19 7.5t-20 8.5t-17.5 7q-8 -9 -24.5 -26.5t-24.5 -26.5l-10 3q-6 27 -6 51q0 52 25.5 83.5t74.5 31.5q31 0 64 -8.5t75 -24.5 t56 -20zM308 0h-296l-2 14l18 10q17 9 22 18t5 28v366l-45 17l-1 14q49 17 122 30t126 13l8 -8v-105q67 113 169 113q64 0 97.5 -39t33.5 -107v-325l45 -25l-2 -14h-239l-14 14v299q0 62 -51 62q-21 0 -39 -10v-326l45 -25z" />
<glyph unicode="&#xf2;" horiz-adv-x="570" d="M417 562l-9 -11q-120 14 -184 46.5t-64 78.5q0 36 29 53.5t77 17.5q20 0 40 -2q43 -84 111 -183zM550 263q0 -125 -76 -199t-195 -74q-114 0 -186.5 67t-72.5 180q0 125 76 199t195 74q114 0 186.5 -67t72.5 -180zM240 262q0 -135 8.5 -183.5t36.5 -48.5t36.5 43t8.5 165 q0 137 -8.5 184.5t-36.5 47.5q-27 0 -36 -43.5t-9 -164.5z" />
<glyph unicode="&#xf3;" horiz-adv-x="570" d="M434 676q0 -46 -64 -78.5t-184 -46.5l-9 11q68 99 111 183q20 2 40 2q48 0 77 -17.5t29 -53.5zM550 263q0 -125 -76 -199t-195 -74q-114 0 -186.5 67t-72.5 180q0 125 76 199t195 74q114 0 186.5 -67t72.5 -180zM240 262q0 -135 8.5 -183.5t36.5 -48.5t36.5 43t8.5 165 q0 137 -8.5 184.5t-36.5 47.5q-27 0 -36 -43.5t-9 -164.5z" />
<glyph unicode="&#xf4;" horiz-adv-x="570" d="M453 568l-9 -7q-83 37 -153 60q-26 -9 -159 -60l-7 10q55 95 88 159l11 8h145q41 -71 84 -170zM550 263q0 -125 -76 -199t-195 -74q-114 0 -186.5 67t-72.5 180q0 125 76 199t195 74q114 0 186.5 -67t72.5 -180zM240 262q0 -135 8.5 -183.5t36.5 -48.5t36.5 43t8.5 165 q0 137 -8.5 184.5t-36.5 47.5q-27 0 -36 -43.5t-9 -164.5z" />
<glyph unicode="&#xf5;" horiz-adv-x="570" d="M402 681q8 9 24.5 26.5t24.5 26.5l10 -3q4 -23 4 -49q0 -54 -24 -85.5t-74 -31.5q-12 0 -24 1t-25 3.5t-22.5 4.5t-24 6.5t-21 6.5t-22 8t-19 7.5t-20 8.5t-17.5 7q-8 -9 -24.5 -26.5t-24.5 -26.5l-10 3q-6 27 -6 51q0 52 25.5 83.5t74.5 31.5q31 0 64 -8.5t75 -24.5 t56 -20zM550 263q0 -125 -76 -199t-195 -74q-114 0 -186.5 67t-72.5 180q0 125 76 199t195 74q114 0 186.5 -67t72.5 -180zM240 262q0 -135 8.5 -183.5t36.5 -48.5t36.5 43t8.5 165q0 137 -8.5 184.5t-36.5 47.5q-27 0 -36 -43.5t-9 -164.5z" />
<glyph unicode="&#xf6;" horiz-adv-x="570" d="M255 657q0 -42 -30.5 -67.5t-77.5 -25.5q-39 0 -63.5 21.5t-24.5 56.5q0 41 31.5 67.5t76.5 26.5q40 0 64 -21.5t24 -57.5zM511 657q0 -42 -30.5 -67.5t-77.5 -25.5q-39 0 -63.5 21.5t-24.5 56.5q0 41 31.5 67.5t76.5 26.5q40 0 64 -21.5t24 -57.5zM550 263 q0 -125 -76 -199t-195 -74q-114 0 -186.5 67t-72.5 180q0 125 76 199t195 74q114 0 186.5 -67t72.5 -180zM240 262q0 -135 8.5 -183.5t36.5 -48.5t36.5 43t8.5 165q0 137 -8.5 184.5t-36.5 47.5q-27 0 -36 -43.5t-9 -164.5z" />
<glyph unicode="&#xf7;" horiz-adv-x="599" d="M386 534q0 -41 -27.5 -68.5t-68.5 -27.5q-33 0 -55 22t-22 54q0 40 28.5 67.5t69.5 27.5q32 0 53.5 -21t21.5 -54zM510 256h-430v132q145 6 431 6l8 -8zM386 137q0 -41 -27.5 -68t-68.5 -27q-33 0 -55 22t-22 53q0 40 28.5 68t69.5 28q32 0 53.5 -21.5t21.5 -54.5z" />
<glyph unicode="&#xf8;" horiz-adv-x="570" d="M550 263q0 -125 -76 -199t-195 -74q-109 0 -179 61l-39 -36l-27 30l37 35q-51 65 -51 157q0 125 76 199t195 74q107 0 178 -59l39 36l29 -29l-39 -37q52 -63 52 -158zM240 262v-25l89 83q-1 85 -11 117.5t-33 32.5q-27 0 -36 -43.5t-9 -164.5zM330 238v27l-89 -83 q2 -84 11.5 -118t32.5 -34q28 0 36.5 43t8.5 165z" />
<glyph unicode="&#xf9;" d="M429 562l-9 -11q-120 14 -184 46.5t-64 78.5q0 36 29 53.5t77 17.5q20 0 40 -2q43 -84 111 -183zM626 73q-55 -83 -151 -83q-55 0 -90 31.5t-35 75.5v6q-51 -113 -158 -113q-66 0 -104 40.5t-38 109.5v296l-45 17l-1 14q49 17 122 30t126 13l8 -8v-315q0 -32 12 -47 t40 -15q21 0 38 10v301l-45 17l-1 14q49 17 122 30t126 13l8 -8v-354q0 -36 8 -50t28 -14q13 0 22 3z" />
<glyph unicode="&#xfa;" d="M446 676q0 -46 -64 -78.5t-184 -46.5l-9 11q68 99 111 183q20 2 40 2q48 0 77 -17.5t29 -53.5zM626 73q-55 -83 -151 -83q-55 0 -90 31.5t-35 75.5v6q-51 -113 -158 -113q-66 0 -104 40.5t-38 109.5v296l-45 17l-1 14q49 17 122 30t126 13l8 -8v-315q0 -32 12 -47t40 -15 q21 0 38 10v301l-45 17l-1 14q49 17 122 30t126 13l8 -8v-354q0 -36 8 -50t28 -14q13 0 22 3z" />
<glyph unicode="&#xfb;" d="M465 568l-9 -7q-83 37 -153 60q-26 -9 -159 -60l-7 10q55 95 88 159l11 8h145q41 -71 84 -170zM626 73q-55 -83 -151 -83q-55 0 -90 31.5t-35 75.5v6q-51 -113 -158 -113q-66 0 -104 40.5t-38 109.5v296l-45 17l-1 14q49 17 122 30t126 13l8 -8v-315q0 -32 12 -47t40 -15 q21 0 38 10v301l-45 17l-1 14q49 17 122 30t126 13l8 -8v-354q0 -36 8 -50t28 -14q13 0 22 3z" />
<glyph unicode="&#xfc;" d="M267 657q0 -42 -30.5 -67.5t-77.5 -25.5q-39 0 -63.5 21.5t-24.5 56.5q0 41 31.5 67.5t76.5 26.5q40 0 64 -21.5t24 -57.5zM523 657q0 -42 -30.5 -67.5t-77.5 -25.5q-39 0 -63.5 21.5t-24.5 56.5q0 41 31.5 67.5t76.5 26.5q40 0 64 -21.5t24 -57.5zM626 73 q-55 -83 -151 -83q-55 0 -90 31.5t-35 75.5v6q-51 -113 -158 -113q-66 0 -104 40.5t-38 109.5v296l-45 17l-1 14q49 17 122 30t126 13l8 -8v-315q0 -32 12 -47t40 -15q21 0 38 10v301l-45 17l-1 14q49 17 122 30t126 13l8 -8v-354q0 -36 8 -50t28 -14q13 0 22 3z" />
<glyph unicode="&#xfd;" horiz-adv-x="538" d="M422 676q0 -46 -64 -78.5t-184 -46.5l-9 11q68 99 111 183q20 2 40 2q48 0 77 -17.5t29 -53.5zM150 -195q-53 0 -84.5 29t-31.5 75q0 32 13 56q54 -15 107 -15q103 0 150 50h-114l-137 402q-19 58 -49 81l-4 3l2 14h312l2 -14l-47 -27l82 -325l92 329l-47 23l2 14h138 l2 -14l-8 -5q-18 -11 -28 -28t-22 -51l-118 -350q-17 -50 -35 -89.5t-44 -77.5t-60 -59t-73 -21z" />
<glyph unicode="&#xfe;" horiz-adv-x="590" d="M323 -185h-316l-2 14l18 10q17 9 22 18t5 28v726l-45 17l-1 14q49 17 122 30t126 13l8 -8v-258q59 91 148 91q77 0 119.5 -64.5t42.5 -185.5q0 -140 -67 -205t-172 -65q-37 0 -71 6v-142l65 -25zM288 385q-18 0 -28 -6v-323q15 -6 33 -6q33 0 45 47.5t12 137.5 q0 82 -13.5 116t-48.5 34z" />
<glyph unicode="&#xff;" horiz-adv-x="538" d="M243 657q0 -42 -30.5 -67.5t-77.5 -25.5q-39 0 -63.5 21.5t-24.5 56.5q0 41 31.5 67.5t76.5 26.5q40 0 64 -21.5t24 -57.5zM499 657q0 -42 -30.5 -67.5t-77.5 -25.5q-39 0 -63.5 21.5t-24.5 56.5q0 41 31.5 67.5t76.5 26.5q40 0 64 -21.5t24 -57.5zM150 -195 q-53 0 -84.5 29t-31.5 75q0 32 13 56q54 -15 107 -15q103 0 150 50h-114l-137 402q-19 58 -49 81l-4 3l2 14h312l2 -14l-47 -27l82 -325l92 329l-47 23l2 14h138l2 -14l-8 -5q-18 -11 -28 -28t-22 -51l-118 -350q-17 -50 -35 -89.5t-44 -77.5t-60 -59t-73 -21z" />
<glyph unicode="&#x100;" horiz-adv-x="698" d="M178 747v106h342v-106h-342zM291 650h115l218 -572q12 -34 45 -49l29 -13l-2 -16h-353l-2 16l63 25l-42 122l-210 -2l-44 -119l69 -26l-2 -16h-173l-2 16l31 11q13 5 22 14t12 15.5t11 27.5zM168 203h180l-86 253z" />
<glyph unicode="&#x101;" horiz-adv-x="565" d="M126 597v106h342v-106h-342zM579 77q-54 -87 -149 -87q-47 0 -80 23.5t-42 59.5q-46 -83 -149 -83q-55 0 -94.5 34t-39.5 88q0 75 74 115t206 44v137q0 62 -33 62q-37 0 -37 -76q0 -36 7 -72q-53 -20 -98 -20q-43 0 -68.5 17t-25.5 50q0 56 72.5 98.5t173.5 42.5 q224 0 224 -200q0 -30 -2.5 -88t-2.5 -74q0 -36 8 -50t28 -14q13 0 22 3zM245 155q0 -30 11.5 -45t28.5 -15q13 0 20 6v140q-28 -4 -44 -27t-16 -59z" />
<glyph unicode="&#x102;" horiz-adv-x="698" d="M483 893l4 1l10 -4q-8 -185 -153 -185q-68 0 -105 47.5t-38 138.5l14 4q38 -59 135 -59q87 0 133 57zM291 650h115l218 -572q12 -34 45 -49l29 -13l-2 -16h-353l-2 16l63 25l-42 122l-210 -2l-44 -119l69 -26l-2 -16h-173l-2 16l31 11q13 5 22 14t12 15.5t11 27.5z M168 203h180l-86 253z" />
<glyph unicode="&#x103;" horiz-adv-x="565" d="M428 744l4 1l10 -4q-8 -185 -153 -185q-68 0 -105 47.5t-38 138.5l14 4q38 -59 135 -59q87 0 133 57zM579 77q-54 -87 -149 -87q-47 0 -80 23.5t-42 59.5q-46 -83 -149 -83q-55 0 -94.5 34t-39.5 88q0 75 74 115t206 44v137q0 62 -33 62q-37 0 -37 -76q0 -36 7 -72 q-53 -20 -98 -20q-43 0 -68.5 17t-25.5 50q0 56 72.5 98.5t173.5 42.5q224 0 224 -200q0 -30 -2.5 -88t-2.5 -74q0 -36 8 -50t28 -14q13 0 22 3zM245 155q0 -30 11.5 -45t28.5 -15q13 0 20 6v140q-28 -4 -44 -27t-16 -59z" />
<glyph unicode="&#x104;" horiz-adv-x="698" d="M291 650h115l218 -572q12 -34 45 -49l29 -13l-2 -16q-27 -13 -46 -40.5t-19 -55.5q0 -38 42 -38q19 0 36 7l5 -10q-19 -39 -56 -62t-80 -23q-41 0 -66.5 21.5t-25.5 57.5q0 43 41.5 83.5t123.5 59.5h-308l-2 16l63 25l-42 122l-210 -2l-44 -119l69 -26l-2 -16h-173l-2 16 l31 11q13 5 22 14t12 15.5t11 27.5zM168 203h180l-86 253z" />
<glyph unicode="&#x105;" horiz-adv-x="565" d="M550 -137q-43 -85 -125 -85q-38 0 -65.5 19.5t-27.5 54.5q0 39 32.5 69t109.5 74q-22 -5 -44 -5q-47 0 -80 23.5t-42 59.5q-46 -83 -149 -83q-55 0 -94.5 34t-39.5 88q0 75 74 115t206 44v137q0 62 -33 62q-37 0 -37 -76q0 -36 7 -72q-53 -20 -98 -20q-43 0 -68.5 17 t-25.5 50q0 56 72.5 98.5t173.5 42.5q224 0 224 -200q0 -30 -2.5 -88t-2.5 -74q0 -36 8 -50t28 -14q13 0 22 3l6 -10q-18 -31 -46 -68t-42 -61t-14 -45q0 -17 9.5 -27t25.5 -10t33 7zM245 155q0 -30 11.5 -45t28.5 -15q13 0 20 6v140q-28 -4 -44 -27t-16 -59z" />
<glyph unicode="&#x106;" horiz-adv-x="645" d="M523 832q0 -46 -64 -78.5t-184 -46.5l-9 11q68 99 111 183q20 2 40 2q48 0 77 -17.5t29 -53.5zM605 16q-101 -26 -196 -26q-175 0 -279.5 87.5t-104.5 244.5q0 155 110.5 246.5t277.5 91.5q107 0 182 -26q4 -25 4 -62q0 -86 -32 -158h-10l-122 206h-5q-67 0 -118.5 -82.5 t-51.5 -212.5q0 -132 50.5 -213.5t115.5 -81.5q13 0 20 1l121 205h10q32 -62 32 -166q0 -31 -4 -54z" />
<glyph unicode="&#x107;" horiz-adv-x="515" d="M426 676q0 -46 -64 -78.5t-184 -46.5l-9 11q68 99 111 183q20 2 40 2q48 0 77 -17.5t29 -53.5zM20 245q0 115 76.5 190t191.5 75q103 0 160 -46.5t57 -108.5q0 -38 -26.5 -59t-68.5 -21q-44 0 -80 20q0 95 -8.5 135t-34.5 40q-47 0 -47 -149q0 -93 40.5 -137t112.5 -44 q51 0 109 28l8 -8q-20 -74 -77.5 -122t-155.5 -48q-111 0 -184 69.5t-73 185.5z" />
<glyph unicode="&#x108;" horiz-adv-x="645" d="M549 719l-9 -7q-83 37 -153 60q-26 -9 -159 -60l-7 10q55 95 88 159l11 8h145q41 -71 84 -170zM605 16q-101 -26 -196 -26q-175 0 -279.5 87.5t-104.5 244.5q0 155 110.5 246.5t277.5 91.5q107 0 182 -26q4 -25 4 -62q0 -86 -32 -158h-10l-122 206h-5q-67 0 -118.5 -82.5 t-51.5 -212.5q0 -132 50.5 -213.5t115.5 -81.5q13 0 20 1l121 205h10q32 -62 32 -166q0 -31 -4 -54z" />
<glyph unicode="&#x109;" horiz-adv-x="515" d="M445 568l-9 -7q-83 37 -153 60q-26 -9 -159 -60l-7 10q55 95 88 159l11 8h145q41 -71 84 -170zM20 245q0 115 76.5 190t191.5 75q103 0 160 -46.5t57 -108.5q0 -38 -26.5 -59t-68.5 -21q-44 0 -80 20q0 95 -8.5 135t-34.5 40q-47 0 -47 -149q0 -93 40.5 -137t112.5 -44 q51 0 109 28l8 -8q-20 -74 -77.5 -122t-155.5 -48q-111 0 -184 69.5t-73 185.5z" />
<glyph unicode="&#x10a;" horiz-adv-x="645" d="M500 807q0 -46 -35.5 -73.5t-89.5 -27.5q-47 0 -76 23.5t-29 62.5q0 45 36.5 73.5t88.5 28.5q47 0 76 -23.5t29 -63.5zM605 16q-101 -26 -196 -26q-175 0 -279.5 87.5t-104.5 244.5q0 155 110.5 246.5t277.5 91.5q107 0 182 -26q4 -25 4 -62q0 -86 -32 -158h-10l-122 206 h-5q-67 0 -118.5 -82.5t-51.5 -212.5q0 -132 50.5 -213.5t115.5 -81.5q13 0 20 1l121 205h10q32 -62 32 -166q0 -31 -4 -54z" />
<glyph unicode="&#x10b;" horiz-adv-x="515" d="M393 657q0 -46 -35.5 -73.5t-89.5 -27.5q-47 0 -76 23.5t-29 62.5q0 45 36.5 73.5t88.5 28.5q47 0 76 -23.5t29 -63.5zM20 245q0 115 76.5 190t191.5 75q103 0 160 -46.5t57 -108.5q0 -38 -26.5 -59t-68.5 -21q-44 0 -80 20q0 95 -8.5 135t-34.5 40q-47 0 -47 -149 q0 -93 40.5 -137t112.5 -44q51 0 109 28l8 -8q-20 -74 -77.5 -122t-155.5 -48q-111 0 -184 69.5t-73 185.5z" />
<glyph unicode="&#x10c;" horiz-adv-x="645" d="M464 720l-11 -8h-145q-41 71 -84 170l9 7q83 -37 153 -60q26 9 159 60l7 -10q-55 -95 -88 -159zM605 16q-101 -26 -196 -26q-175 0 -279.5 87.5t-104.5 244.5q0 155 110.5 246.5t277.5 91.5q107 0 182 -26q4 -25 4 -62q0 -86 -32 -158h-10l-122 206h-5 q-67 0 -118.5 -82.5t-51.5 -212.5q0 -132 50.5 -213.5t115.5 -81.5q13 0 20 1l121 205h10q32 -62 32 -166q0 -31 -4 -54z" />
<glyph unicode="&#x10d;" horiz-adv-x="515" d="M356 570l-11 -8h-145q-41 71 -84 170l9 7q83 -37 153 -60q26 9 159 60l7 -10q-55 -95 -88 -159zM20 245q0 115 76.5 190t191.5 75q103 0 160 -46.5t57 -108.5q0 -38 -26.5 -59t-68.5 -21q-44 0 -80 20q0 95 -8.5 135t-34.5 40q-47 0 -47 -149q0 -93 40.5 -137t112.5 -44 q51 0 109 28l8 -8q-20 -74 -77.5 -122t-155.5 -48q-111 0 -184 69.5t-73 185.5z" />
<glyph unicode="&#x10e;" horiz-adv-x="732" d="M452 720l-11 -8h-145q-41 71 -84 170l9 7q83 -37 153 -60q26 9 159 60l7 -10q-55 -95 -88 -159zM349 0h-319l-2 16l29 10q17 6 22 15.5t5 30.5v537l-55 25l2 16h320q155 0 253 -84t98 -236q0 -154 -99.5 -242t-253.5 -88zM327 610h-25v-570h26q73 0 113 75.5t41 214.5 q1 138 -39 209t-116 71z" />
<glyph unicode="&#x10f;" horiz-adv-x="825" d="M805 603q0 -65 -53.5 -127.5t-116.5 -85.5l-13 12q48 56 61 117q-32 5 -52 26.5t-20 53.5q0 44 28 70.5t70 26.5q43 0 69.5 -26t26.5 -67zM20 236q0 141 72.5 207.5t185.5 66.5q26 0 52 -3v114l-45 17l-1 14q49 17 122 30t126 13l8 -8v-539q0 -36 7.5 -50t25.5 -14 q11 0 22 3l6 -10q-26 -42 -61 -64.5t-88 -22.5q-46 0 -78 23.5t-41 59.5q-46 -83 -141 -83q-79 0 -125.5 65t-46.5 181zM240 272q0 -177 67 -177q13 0 23 6v347q-10 2 -16 2q-74 0 -74 -178z" />
<glyph unicode="&#x110;" horiz-adv-x="732" d="M349 0h-319l-2 16l29 10q17 6 22 15.5t5 30.5v240h-56v35h56v262l-55 25l2 16h320q155 0 253 -84t98 -236q0 -154 -99.5 -242t-253.5 -88zM397 312h-95v-272h26q73 0 113 75.5t41 214.5q1 138 -39 209t-116 71h-25v-263h95v-35z" />
<glyph unicode="&#x111;" horiz-adv-x="590" d="M20 236q0 141 72.5 207.5t185.5 66.5q26 0 52 -3v43h-121v35h121v36l-45 17l-1 14q49 17 122 30t126 13l8 -8v-102h61v-35h-61v-402q0 -36 7.5 -50t25.5 -14q11 0 22 3l6 -10q-26 -42 -61 -64.5t-88 -22.5q-46 0 -78 23.5t-41 59.5q-46 -83 -141 -83q-79 0 -125.5 65 t-46.5 181zM240 272q0 -177 67 -177q13 0 23 6v347q-10 2 -16 2q-74 0 -74 -178z" />
<glyph unicode="&#x112;" horiz-adv-x="595" d="M140 747v106h342v-106h-342zM558 0h-528l-2 16l29 10q17 6 22 15.5t5 30.5v537l-55 25l2 16h518q7 -35 7 -75q0 -83 -25 -139h-10l-125 174h-94v-265l157 15l-3 -70l-154 15v-265h102l126 181h10q25 -58 25 -143q0 -42 -7 -78z" />
<glyph unicode="&#x113;" horiz-adv-x="535" d="M105 597v106h342v-106h-342zM510 160q-21 -75 -82 -122.5t-158 -47.5q-106 0 -178 69t-72 181q0 122 76.5 196t193.5 74q104 0 167 -59t63 -153q0 -16 -4 -40l-8 -8h-260q28 -110 144 -110q56 0 110 28zM240 324q0 -15 2 -39l67 6q1 17 1 48q0 71 -5.5 101t-25.5 30 q-39 0 -39 -146z" />
<glyph unicode="&#x114;" horiz-adv-x="595" d="M445 893l4 1l10 -4q-8 -185 -153 -185q-68 0 -105 47.5t-38 138.5l14 4q38 -59 135 -59q87 0 133 57zM558 0h-528l-2 16l29 10q17 6 22 15.5t5 30.5v537l-55 25l2 16h518q7 -35 7 -75q0 -83 -25 -139h-10l-125 174h-94v-265l157 15l-3 -70l-154 15v-265h102l126 181h10 q25 -58 25 -143q0 -42 -7 -78z" />
<glyph unicode="&#x115;" horiz-adv-x="535" d="M407 744l4 1l10 -4q-8 -185 -153 -185q-68 0 -105 47.5t-38 138.5l14 4q38 -59 135 -59q87 0 133 57zM510 160q-21 -75 -82 -122.5t-158 -47.5q-106 0 -178 69t-72 181q0 122 76.5 196t193.5 74q104 0 167 -59t63 -153q0 -16 -4 -40l-8 -8h-260q28 -110 144 -110 q56 0 110 28zM240 324q0 -15 2 -39l67 6q1 17 1 48q0 71 -5.5 101t-25.5 30q-39 0 -39 -146z" />
<glyph unicode="&#x116;" horiz-adv-x="595" d="M426 807q0 -46 -35.5 -73.5t-89.5 -27.5q-47 0 -76 23.5t-29 62.5q0 45 36.5 73.5t88.5 28.5q47 0 76 -23.5t29 -63.5zM558 0h-528l-2 16l29 10q17 6 22 15.5t5 30.5v537l-55 25l2 16h518q7 -35 7 -75q0 -83 -25 -139h-10l-125 174h-94v-265l157 15l-3 -70l-154 15v-265 h102l126 181h10q25 -58 25 -143q0 -42 -7 -78z" />
<glyph unicode="&#x117;" horiz-adv-x="535" d="M390 657q0 -46 -35.5 -73.5t-89.5 -27.5q-47 0 -76 23.5t-29 62.5q0 45 36.5 73.5t88.5 28.5q47 0 76 -23.5t29 -63.5zM510 160q-21 -75 -82 -122.5t-158 -47.5q-106 0 -178 69t-72 181q0 122 76.5 196t193.5 74q104 0 167 -59t63 -153q0 -16 -4 -40l-8 -8h-260 q28 -110 144 -110q56 0 110 28zM240 324q0 -15 2 -39l67 6q1 17 1 48q0 71 -5.5 101t-25.5 30q-39 0 -39 -146z" />
<glyph unicode="&#x118;" horiz-adv-x="595" d="M459 360l-3 -70l-154 15v-265h102l126 181h10q25 -58 25 -143q0 -42 -7 -78q-27 -13 -46 -40.5t-19 -55.5q0 -38 42 -38q19 0 36 7l5 -10q-19 -39 -56 -62t-80 -23q-41 0 -66.5 21.5t-25.5 57.5q0 43 41.5 83.5t123.5 59.5h-483l-2 16l29 10q17 6 22 15.5t5 30.5v537 l-55 25l2 16h518q7 -35 7 -75q0 -83 -25 -139h-10l-125 174h-94v-265z" />
<glyph unicode="&#x119;" horiz-adv-x="535" d="M405 -137q-19 -39 -56 -62t-80 -23q-41 0 -66 20t-25 54q0 39 36.5 70t116.5 74q-29 -6 -61 -6q-106 0 -178 69t-72 181q0 122 76.5 196t193.5 74q104 0 167 -59t63 -153q0 -16 -4 -40l-8 -8h-260q28 -110 144 -110q56 0 110 28l8 -8q-23 -82 -87 -127q-55 -46 -78 -75 t-23 -54q0 -38 42 -38q18 0 36 7zM240 324q0 -15 2 -39l67 6q1 17 1 48q0 71 -5.5 101t-25.5 30q-39 0 -39 -146z" />
<glyph unicode="&#x11a;" horiz-adv-x="595" d="M390 720l-11 -8h-145q-41 71 -84 170l9 7q83 -37 153 -60q26 9 159 60l7 -10q-55 -95 -88 -159zM558 0h-528l-2 16l29 10q17 6 22 15.5t5 30.5v537l-55 25l2 16h518q7 -35 7 -75q0 -83 -25 -139h-10l-125 174h-94v-265l157 15l-3 -70l-154 15v-265h102l126 181h10 q25 -58 25 -143q0 -42 -7 -78z" />
<glyph unicode="&#x11b;" horiz-adv-x="535" d="M353 570l-11 -8h-145q-41 71 -84 170l9 7q83 -37 153 -60q26 9 159 60l7 -10q-55 -95 -88 -159zM510 160q-21 -75 -82 -122.5t-158 -47.5q-106 0 -178 69t-72 181q0 122 76.5 196t193.5 74q104 0 167 -59t63 -153q0 -16 -4 -40l-8 -8h-260q28 -110 144 -110q56 0 110 28z M240 324q0 -15 2 -39l67 6q1 17 1 48q0 71 -5.5 101t-25.5 30q-39 0 -39 -146z" />
<glyph unicode="&#x11c;" horiz-adv-x="664" d="M532 719l-9 -7q-83 37 -153 60q-26 -9 -159 -60l-7 10q55 95 88 159l11 8h145q41 -71 84 -170zM616 16q-91 -26 -211 -26q-173 0 -274 84.5t-101 242.5q0 159 112.5 251t273.5 92q113 0 189 -26q4 -25 4 -62q0 -92 -32 -158h-10l-121 205q-5 1 -13 1q-65 0 -124 -81.5 t-59 -215.5q0 -131 57.5 -212t114.5 -81h6v248l-53 25l2 16h291l2 -16l-27 -10q-17 -6 -22 -15.5t-5 -30.5v-231z" />
<glyph unicode="&#x11d;" horiz-adv-x="551" d="M434 568l-9 -7q-83 37 -153 60q-26 -9 -159 -60l-7 10q55 95 88 159l11 8h145q41 -71 84 -170zM540 -5q0 -90 -73 -140t-214 -50q-50 0 -93 4.5t-80 14.5t-58.5 29t-21.5 45q0 29 34 46t85 17l1 4q-57 28 -57 93q0 42 34 76t83 42q-76 13 -118 53.5t-42 103.5 q0 79 72.5 125.5t177.5 46.5q185 0 261 20q19 -25 19 -54q0 -50 -55 -50q-23 0 -89 22l-2 -3q41 -17 68.5 -48t27.5 -73q0 -71 -66.5 -110t-177.5 -39q-15 0 -43 2q0 -2 -0.5 -5.5t-0.5 -5.5q0 -25 48 -26l107 -2q80 -2 126.5 -36.5t46.5 -101.5zM220 329q0 -66 7.5 -92.5 t32.5 -26.5q24 0 32 27.5t8 94.5q0 64 -6.5 91t-31.5 27q-26 0 -34 -29.5t-8 -91.5zM170 -82q0 -73 107 -73q45 0 74 15t29 41q0 34 -58 34h-79q-47 0 -70 4q-3 -10 -3 -21z" />
<glyph unicode="&#x11e;" horiz-adv-x="664" d="M502 893l4 1l10 -4q-8 -185 -153 -185q-68 0 -105 47.5t-38 138.5l14 4q38 -59 135 -59q87 0 133 57zM616 16q-91 -26 -211 -26q-173 0 -274 84.5t-101 242.5q0 159 112.5 251t273.5 92q113 0 189 -26q4 -25 4 -62q0 -92 -32 -158h-10l-121 205q-5 1 -13 1 q-65 0 -124 -81.5t-59 -215.5q0 -131 57.5 -212t114.5 -81h6v248l-53 25l2 16h291l2 -16l-27 -10q-17 -6 -22 -15.5t-5 -30.5v-231z" />
<glyph unicode="&#x11f;" horiz-adv-x="551" d="M400 744l4 1l10 -4q-8 -185 -153 -185q-68 0 -105 47.5t-38 138.5l14 4q38 -59 135 -59q87 0 133 57zM540 -5q0 -90 -73 -140t-214 -50q-50 0 -93 4.5t-80 14.5t-58.5 29t-21.5 45q0 29 34 46t85 17l1 4q-57 28 -57 93q0 42 34 76t83 42q-76 13 -118 53.5t-42 103.5 q0 79 72.5 125.5t177.5 46.5q185 0 261 20q19 -25 19 -54q0 -50 -55 -50q-23 0 -89 22l-2 -3q41 -17 68.5 -48t27.5 -73q0 -71 -66.5 -110t-177.5 -39q-15 0 -43 2q0 -2 -0.5 -5.5t-0.5 -5.5q0 -25 48 -26l107 -2q80 -2 126.5 -36.5t46.5 -101.5zM220 329q0 -66 7.5 -92.5 t32.5 -26.5q24 0 32 27.5t8 94.5q0 64 -6.5 91t-31.5 27q-26 0 -34 -29.5t-8 -91.5zM170 -82q0 -73 107 -73q45 0 74 15t29 41q0 34 -58 34h-79q-47 0 -70 4q-3 -10 -3 -21z" />
<glyph unicode="&#x120;" horiz-adv-x="664" d="M483 807q0 -46 -35.5 -73.5t-89.5 -27.5q-47 0 -76 23.5t-29 62.5q0 45 36.5 73.5t88.5 28.5q47 0 76 -23.5t29 -63.5zM616 16q-91 -26 -211 -26q-173 0 -274 84.5t-101 242.5q0 159 112.5 251t273.5 92q113 0 189 -26q4 -25 4 -62q0 -92 -32 -158h-10l-121 205 q-5 1 -13 1q-65 0 -124 -81.5t-59 -215.5q0 -131 57.5 -212t114.5 -81h6v248l-53 25l2 16h291l2 -16l-27 -10q-17 -6 -22 -15.5t-5 -30.5v-231z" />
<glyph unicode="&#x121;" horiz-adv-x="551" d="M383 657q0 -46 -35.5 -73.5t-89.5 -27.5q-47 0 -76 23.5t-29 62.5q0 45 36.5 73.5t88.5 28.5q47 0 76 -23.5t29 -63.5zM540 -5q0 -90 -73 -140t-214 -50q-50 0 -93 4.5t-80 14.5t-58.5 29t-21.5 45q0 29 34 46t85 17l1 4q-57 28 -57 93q0 42 34 76t83 42 q-76 13 -118 53.5t-42 103.5q0 79 72.5 125.5t177.5 46.5q185 0 261 20q19 -25 19 -54q0 -50 -55 -50q-23 0 -89 22l-2 -3q41 -17 68.5 -48t27.5 -73q0 -71 -66.5 -110t-177.5 -39q-15 0 -43 2q0 -2 -0.5 -5.5t-0.5 -5.5q0 -25 48 -26l107 -2q80 -2 126.5 -36.5t46.5 -101.5 zM220 329q0 -66 7.5 -92.5t32.5 -26.5q24 0 32 27.5t8 94.5q0 64 -6.5 91t-31.5 27q-26 0 -34 -29.5t-8 -91.5zM170 -82q0 -73 107 -73q45 0 74 15t29 41q0 34 -58 34h-79q-47 0 -70 4q-3 -10 -3 -21z" />
<glyph unicode="&#x122;" horiz-adv-x="664" d="M616 16q-91 -26 -211 -26q-173 0 -274 84.5t-101 242.5q0 159 112.5 251t273.5 92q113 0 189 -26q4 -25 4 -62q0 -92 -32 -158h-10l-121 205q-5 1 -13 1q-65 0 -124 -81.5t-59 -215.5q0 -131 57.5 -212t114.5 -81h6v248l-53 25l2 16h291l2 -16l-27 -10q-17 -6 -22 -15.5 t-5 -30.5v-231zM482 -149q0 -65 -53.5 -127.5t-116.5 -85.5l-13 12q48 56 61 117q-32 5 -52 26.5t-20 53.5q0 44 28 70.5t70 26.5q43 0 69.5 -26t26.5 -67z" />
<glyph unicode="&#x123;" horiz-adv-x="551" d="M170 649q0 65 53.5 127.5t116.5 85.5l13 -12q-48 -56 -61 -117q32 -5 52 -26.5t20 -53.5q0 -44 -28 -70.5t-70 -26.5q-43 0 -69.5 26t-26.5 67zM540 -5q0 -90 -73 -140t-214 -50q-50 0 -93 4.5t-80 14.5t-58.5 29t-21.5 45q0 29 34 46t85 17l1 4q-57 28 -57 93 q0 42 34 76t83 42q-76 13 -118 53.5t-42 103.5q0 79 72.5 125.5t177.5 46.5q185 0 261 20q19 -25 19 -54q0 -50 -55 -50q-23 0 -89 22l-2 -3q41 -17 68.5 -48t27.5 -73q0 -71 -66.5 -110t-177.5 -39q-15 0 -43 2q0 -2 -0.5 -5.5t-0.5 -5.5q0 -25 48 -26l107 -2 q80 -2 126.5 -36.5t46.5 -101.5zM220 329q0 -66 7.5 -92.5t32.5 -26.5q24 0 32 27.5t8 94.5q0 64 -6.5 91t-31.5 27q-26 0 -34 -29.5t-8 -91.5zM170 -82q0 -73 107 -73q45 0 74 15t29 41q0 34 -58 34h-79q-47 0 -70 4q-3 -10 -3 -21z" />
<glyph unicode="&#x124;" horiz-adv-x="784" d="M555 719l-9 -7q-83 37 -153 60q-26 -9 -159 -60l-7 10q55 95 88 159l11 8h145q41 -71 84 -170zM356 0h-324l-2 16l27 10q17 6 22 15.5t5 30.5v537l-56 25l2 16h324l2 -16l-27 -10q-17 -6 -22 -15.5t-5 -30.5v-224h180v255l-56 25l2 16h324l2 -16l-27 -10 q-17 -6 -22 -15.5t-5 -30.5v-537l56 -25l-2 -16h-324l-2 16l27 10q17 6 22 15.5t5 30.5v237h-180v-268l56 -25z" />
<glyph unicode="&#x125;" horiz-adv-x="610" d="M314 754l-9 -7q-83 37 -153 60q-26 -9 -159 -60l-7 10q55 95 88 159l11 8h145q41 -71 84 -170zM303 0h-296l-2 14l18 10q17 9 22 18t5 28v551l-45 17l-1 14q49 17 122 30t126 13l8 -8v-290q67 113 169 113q64 0 97.5 -39t33.5 -107v-325l45 -25l-2 -14h-239l-14 14v299 q0 62 -51 62q-21 0 -39 -10v-326l45 -25z" />
<glyph unicode="&#x126;" horiz-adv-x="784" d="M356 0h-324l-2 16l27 10q17 6 22 15.5t5 30.5v384h-68v45h68v108l-56 25l2 16h324l2 -16l-27 -10q-17 -6 -22 -15.5t-5 -30.5v-77h180v108l-56 25l2 16h324l2 -16l-27 -10q-17 -6 -22 -15.5t-5 -30.5v-77h66v-45h-66v-415l56 -25l-2 -16h-324l-2 16l27 10q17 6 22 15.5 t5 30.5v237h-180v-268l56 -25zM302 354h180v102h-180v-102z" />
<glyph unicode="&#x127;" horiz-adv-x="610" d="M303 0h-296l-2 14l18 10q17 9 22 18t5 28v480h-61v35h61v36l-45 17l-1 14q49 17 122 30t126 13l8 -8v-102h121v-35h-121v-153q67 113 169 113q64 0 97.5 -39t33.5 -107v-325l45 -25l-2 -14h-239l-14 14v299q0 62 -51 62q-21 0 -39 -10v-326l45 -25z" />
<glyph unicode="&#x128;" horiz-adv-x="386" d="M309 831q8 9 24.5 26.5t24.5 26.5l10 -3q4 -23 4 -49q0 -54 -24 -85.5t-74 -31.5q-12 0 -24 1t-25 3.5t-22.5 4.5t-24 6.5t-21 6.5t-22 8t-19 7.5t-20 8.5t-17.5 7q-8 -9 -24.5 -26.5t-24.5 -26.5l-10 3q-6 27 -6 51q0 52 25.5 83.5t74.5 31.5q31 0 64 -8.5t75 -24.5 t56 -20zM356 0h-324l-2 16l27 10q17 6 22 15.5t5 30.5v537l-56 25l2 16h324l2 -16l-27 -10q-17 -6 -22 -15.5t-5 -30.5v-537l56 -25z" />
<glyph unicode="&#x129;" horiz-adv-x="315" d="M259 681q8 9 24.5 26.5t24.5 26.5l10 -3q4 -23 4 -49q0 -54 -24 -85.5t-74 -31.5q-11 0 -22.5 1.5t-20.5 3.5t-21.5 6.5t-19 7t-20 9t-17.5 8.5l-18 9l-16 8q-8 -9 -24.5 -26.5t-24.5 -26.5l-10 3q-6 27 -6 51q0 52 25.5 83.5t74.5 31.5q25 0 51 -8.5t59.5 -24.5 t44.5 -20zM308 0h-296l-2 14l18 10q17 9 22 18t5 28v366l-45 17l-1 14q49 17 122 30t126 13l8 -8v-463l45 -25z" />
<glyph unicode="&#x12a;" horiz-adv-x="386" d="M22 747v106h342v-106h-342zM356 0h-324l-2 16l27 10q17 6 22 15.5t5 30.5v537l-56 25l2 16h324l2 -16l-27 -10q-17 -6 -22 -15.5t-5 -30.5v-537l56 -25z" />
<glyph unicode="&#x12b;" horiz-adv-x="315" d="M30 591v106h262v-106h-262zM308 0h-296l-2 14l18 10q17 9 22 18t5 28v366l-45 17l-1 14q49 17 122 30t126 13l8 -8v-463l45 -25z" />
<glyph unicode="&#x12c;" horiz-adv-x="386" d="M327 893l4 1l10 -4q-8 -185 -153 -185q-68 0 -105 47.5t-38 138.5l14 4q38 -59 135 -59q87 0 133 57zM356 0h-324l-2 16l27 10q17 6 22 15.5t5 30.5v537l-56 25l2 16h324l2 -16l-27 -10q-17 -6 -22 -15.5t-5 -30.5v-537l56 -25z" />
<glyph unicode="&#x12d;" horiz-adv-x="315" d="M272 744l4 1l10 -4q-6 -185 -133 -185q-59 0 -90.5 47.5t-32.5 138.5l14 4q32 -59 115 -59q74 0 113 57zM308 0h-296l-2 14l18 10q17 9 22 18t5 28v366l-45 17l-1 14q49 17 122 30t126 13l8 -8v-463l45 -25z" />
<glyph unicode="&#x12e;" horiz-adv-x="386" d="M374 -137q-19 -39 -56 -62t-80 -23q-41 0 -66.5 21.5t-25.5 57.5q0 43 41.5 83.5t123.5 59.5h-279l-2 16l27 10q17 6 22 15.5t5 30.5v537l-56 25l2 16h324l2 -16l-27 -10q-17 -6 -22 -15.5t-5 -30.5v-537l56 -25l-2 -16q-27 -13 -46 -40.5t-19 -55.5q0 -38 42 -38 q18 0 36 7z" />
<glyph unicode="&#x12f;" horiz-adv-x="315" d="M274 657q0 -46 -35.5 -73.5t-89.5 -27.5q-47 0 -76 23.5t-29 62.5q0 45 36.5 73.5t88.5 28.5q47 0 76 -23.5t29 -63.5zM326 -137q-19 -39 -56 -62t-80 -23q-41 0 -66.5 21.5t-25.5 57.5q0 43 41.5 83.5t123.5 59.5h-251l-2 14l18 10q17 9 22 18t5 28v366l-45 17l-1 14 q49 17 122 30t126 13l8 -8v-463l45 -25l-2 -14q-27 -13 -46 -40.5t-19 -55.5q0 -38 42 -38q19 0 36 7z" />
<glyph unicode="&#x130;" horiz-adv-x="386" d="M308 807q0 -46 -35.5 -73.5t-89.5 -27.5q-47 0 -76 23.5t-29 62.5q0 45 36.5 73.5t88.5 28.5q47 0 76 -23.5t29 -63.5zM356 0h-324l-2 16l27 10q17 6 22 15.5t5 30.5v537l-56 25l2 16h324l2 -16l-27 -10q-17 -6 -22 -15.5t-5 -30.5v-537l56 -25z" />
<glyph unicode="&#x131;" horiz-adv-x="315" d="M308 0h-296l-2 14l18 10q17 9 22 18t5 28v366l-45 17l-1 14q49 17 122 30t126 13l8 -8v-463l45 -25z" />
<glyph unicode="&#x132;" horiz-adv-x="761" d="M356 0h-324l-2 16l27 10q17 6 22 15.5t5 30.5v537l-56 25l2 16h324l2 -16l-27 -10q-17 -6 -22 -15.5t-5 -30.5v-537l56 -25zM689 150q0 -122 -76.5 -202.5t-210.5 -87.5l-6 11q75 104 75 339v399l-56 25l2 16h324l2 -16l-27 -10q-17 -6 -22 -15.5t-5 -30.5v-428z" />
<glyph unicode="&#x133;" horiz-adv-x="620" d="M274 657q0 -46 -35.5 -73.5t-89.5 -27.5q-47 0 -76 23.5t-29 62.5q0 45 36.5 73.5t88.5 28.5q47 0 76 -23.5t29 -63.5zM584 657q0 -46 -35.5 -73.5t-89.5 -27.5q-47 0 -76 23.5t-29 62.5q0 45 36.5 73.5t88.5 28.5q47 0 76 -23.5t29 -63.5zM308 0h-296l-2 14l18 10 q17 9 22 18t5 28v366l-45 17l-1 14q49 17 122 30t126 13l8 -8v-463l45 -25zM312 -181q53 112 53 296v321l-45 17l-1 14q49 17 122 30t126 13l8 -8v-407q0 -127 -58 -201.5t-197 -88.5z" />
<glyph unicode="&#x134;" horiz-adv-x="375" d="M358 720l-9 -7q-83 37 -153 60q-26 -9 -159 -60l-7 10q55 95 88 159l11 8h145q41 -71 84 -170zM303 150q0 -122 -76.5 -202.5t-210.5 -87.5l-6 11q75 104 75 339v399l-56 25l2 16h324l2 -16l-27 -10q-17 -6 -22 -15.5t-5 -30.5v-428z" />
<glyph unicode="&#x135;" horiz-adv-x="305" d="M281 568l-9 -7q-72 36 -129 58q-19 -8 -41.5 -17.5t-50.5 -21.5t-44 -19l-7 10q46 106 66 159l11 8h143q37 -90 61 -170zM-3 -181q53 112 53 296v321l-45 17l-1 14q49 17 122 30t126 13l8 -8v-407q0 -127 -58 -201.5t-197 -88.5z" />
<glyph unicode="&#x136;" horiz-adv-x="773" d="M356 0h-324l-2 16l27 10q17 6 22 15.5t5 30.5v537l-56 25l2 16h324l2 -16l-27 -10q-17 -6 -22 -15.5t-5 -30.5v-253h46l176 286l-54 23l2 16h262l2 -16l-40 -19q-111 -52 -202 -152l201 -372q21 -40 57 -62l21 -13l-2 -16l-198 -3q-47 -1 -72 19t-50 68l-106 201h-43 v-244l56 -25zM488 -149q0 -65 -53.5 -127.5t-116.5 -85.5l-13 12q48 56 61 117q-32 5 -52 26.5t-20 53.5q0 44 28 70.5t70 26.5q43 0 69.5 -26t26.5 -67z" />
<glyph unicode="&#x137;" horiz-adv-x="626" d="M303 0h-296l-2 14l18 10q17 9 22 18t5 28v551l-45 17l-1 14q49 17 122 30t126 13l8 -8v-409h37l97 190l-46 18l2 14h259l2 -14l-46 -23q-55 -28 -117 -83l125 -290q21 -47 53 -74l-2 -16h-185q-32 0 -47 15.5t-31 54.5l-66 170h-35v-201l45 -25zM423 -149 q0 -65 -53.5 -127.5t-116.5 -85.5l-13 12q48 56 61 117q-32 5 -52 26.5t-20 53.5q0 44 28 70.5t70 26.5q43 0 69.5 -26t26.5 -67z" />
<glyph unicode="&#x138;" horiz-adv-x="626" d="M303 0h-296l-2 14l18 10q17 9 22 18t5 28v366l-45 17l-1 14q49 17 122 30t126 13l8 -8v-224h37l97 190l-46 18l2 14h259l2 -14l-46 -23q-55 -28 -117 -83l125 -290q21 -47 53 -74l-2 -16h-185q-32 0 -47 15.5t-31 54.5l-66 170h-35v-201l45 -25z" />
<glyph unicode="&#x139;" horiz-adv-x="579" d="M332 832q0 -46 -64 -78.5t-184 -46.5l-9 11q68 99 111 183q20 2 40 2q48 0 77 -17.5t29 -53.5zM548 0h-518l-2 16l29 10q17 6 22 15.5t5 30.5v537l-56 25l2 16h324l2 -16l-27 -10q-17 -6 -22 -15.5t-5 -30.5v-538h100l118 244h10q25 -66 25 -173q0 -62 -7 -111z" />
<glyph unicode="&#x13a;" horiz-adv-x="310" d="M293 867q0 -46 -64 -78.5t-184 -46.5l-9 11q68 99 111 183q20 2 40 2q48 0 77 -17.5t29 -53.5zM303 0h-296l-2 14l18 10q17 9 22 18t5 28v551l-45 17l-1 14q49 17 122 30t126 13l8 -8v-648l45 -25z" />
<glyph unicode="&#x13b;" horiz-adv-x="579" d="M548 0h-518l-2 16l29 10q17 6 22 15.5t5 30.5v537l-56 25l2 16h324l2 -16l-27 -10q-17 -6 -22 -15.5t-5 -30.5v-538h100l118 244h10q25 -66 25 -173q0 -62 -7 -111zM423 -149q0 -65 -53.5 -127.5t-116.5 -85.5l-13 12q48 56 61 117q-32 5 -52 26.5t-20 53.5q0 44 28 70.5 t70 26.5q43 0 69.5 -26t26.5 -67z" />
<glyph unicode="&#x13c;" horiz-adv-x="310" d="M303 0h-296l-2 14l18 10q17 9 22 18t5 28v551l-45 17l-1 14q49 17 122 30t126 13l8 -8v-648l45 -25zM252 -149q0 -65 -53.5 -127.5t-116.5 -85.5l-13 12q48 56 61 117q-32 5 -52 26.5t-20 53.5q0 44 28 70.5t70 26.5q43 0 69.5 -26t26.5 -67z" />
<glyph unicode="&#x13d;" horiz-adv-x="579" d="M593 568q0 -65 -53.5 -127.5t-116.5 -85.5l-13 12q48 56 61 117q-32 5 -52 26.5t-20 53.5q0 44 28 70.5t70 26.5q43 0 69.5 -26t26.5 -67zM548 0h-518l-2 16l29 10q17 6 22 15.5t5 30.5v537l-56 25l2 16h324l2 -16l-27 -10q-17 -6 -22 -15.5t-5 -30.5v-538h100l118 244 h10q25 -66 25 -173q0 -62 -7 -111z" />
<glyph unicode="&#x13e;" horiz-adv-x="538" d="M523 753q0 -65 -53.5 -127.5t-116.5 -85.5l-13 12q48 56 61 117q-32 5 -52 26.5t-20 53.5q0 44 28 70.5t70 26.5q43 0 69.5 -26t26.5 -67zM303 0h-296l-2 14l18 10q17 9 22 18t5 28v551l-45 17l-1 14q49 17 122 30t126 13l8 -8v-648l45 -25z" />
<glyph unicode="&#x13f;" horiz-adv-x="579" d="M548 0h-518l-2 16l29 10q17 6 22 15.5t5 30.5v537l-56 25l2 16h324l2 -16l-27 -10q-17 -6 -22 -15.5t-5 -30.5v-538h100l118 244h10q25 -66 25 -173q0 -62 -7 -111zM480 336q-39 0 -63.5 23t-24.5 59q0 39 28.5 65.5t68.5 26.5q36 0 59.5 -21.5t23.5 -56.5 q0 -40 -26.5 -68t-65.5 -28z" />
<glyph unicode="&#x140;" horiz-adv-x="519" d="M303 0h-296l-2 14l18 10q17 9 22 18t5 28v551l-45 17l-1 14q49 17 122 30t126 13l8 -8v-648l45 -25zM514 360q0 -46 -32 -73.5t-80 -27.5q-42 0 -68.5 23.5t-26.5 62.5q0 45 33 73.5t80 28.5q42 0 68 -23.5t26 -63.5z" />
<glyph unicode="&#x141;" horiz-adv-x="579" d="M548 0h-518l-2 16l29 10q17 6 22 15.5t5 30.5v184l-66 -40l-20 35l86 52v306l-56 25l2 16h324l2 -16l-27 -10q-17 -6 -22 -15.5t-5 -30.5v-144l67 40l21 -35l-88 -53v-346h100l118 244h10q25 -66 25 -173q0 -62 -7 -111z" />
<glyph unicode="&#x142;" horiz-adv-x="310" d="M303 0h-296l-2 14l18 10q17 9 22 18t5 28v195l-71 -43l-20 35l91 55v309l-45 17l-1 14q49 17 122 30t126 13l8 -8v-249l70 42l21 -35l-91 -55v-351l45 -25z" />
<glyph unicode="&#x143;" horiz-adv-x="656" d="M482 832q0 -46 -64 -78.5t-184 -46.5l-9 11q68 99 111 183q20 2 40 2q48 0 77 -17.5t29 -53.5zM211 0h-199l-2 16l47 15q17 6 22 14t5 27v537l-74 25l2 16h220l307 -412v371l-84 25l2 16h199l2 -16l-47 -15q-17 -6 -22 -14t-5 -27v-578h-148l-307 421v-380l84 -25z" />
<glyph unicode="&#x144;" d="M455 676q0 -46 -64 -78.5t-184 -46.5l-9 11q68 99 111 183q20 2 40 2q48 0 77 -17.5t29 -53.5zM308 0h-296l-2 14l18 10q17 9 22 18t5 28v366l-45 17l-1 14q49 17 122 30t126 13l8 -8v-105q67 113 169 113q64 0 97.5 -39t33.5 -107v-325l45 -25l-2 -14h-239l-14 14v299 q0 62 -51 62q-21 0 -39 -10v-326l45 -25z" />
<glyph unicode="&#x145;" horiz-adv-x="656" d="M211 0h-199l-2 16l47 15q17 6 22 14t5 27v537l-74 25l2 16h220l307 -412v371l-84 25l2 16h199l2 -16l-47 -15q-17 -6 -22 -14t-5 -27v-578h-148l-307 421v-380l84 -25zM417 -149q0 -65 -53.5 -127.5t-116.5 -85.5l-13 12q48 56 61 117q-32 5 -52 26.5t-20 53.5 q0 44 28 70.5t70 26.5q43 0 69.5 -26t26.5 -67z" />
<glyph unicode="&#x146;" d="M308 0h-296l-2 14l18 10q17 9 22 18t5 28v366l-45 17l-1 14q49 17 122 30t126 13l8 -8v-105q67 113 169 113q64 0 97.5 -39t33.5 -107v-325l45 -25l-2 -14h-239l-14 14v299q0 62 -51 62q-21 0 -39 -10v-326l45 -25zM403 -149q0 -65 -53.5 -127.5t-116.5 -85.5l-13 12 q48 56 61 117q-32 5 -52 26.5t-20 53.5q0 44 28 70.5t70 26.5q43 0 69.5 -26t26.5 -67z" />
<glyph unicode="&#x147;" horiz-adv-x="656" d="M423 720l-11 -8h-145q-41 71 -84 170l9 7q83 -37 153 -60q26 9 159 60l7 -10q-55 -95 -88 -159zM211 0h-199l-2 16l47 15q17 6 22 14t5 27v537l-74 25l2 16h220l307 -412v371l-84 25l2 16h199l2 -16l-47 -15q-17 -6 -22 -14t-5 -27v-578h-148l-307 421v-380l84 -25z" />
<glyph unicode="&#x148;" d="M385 570l-11 -8h-145q-41 71 -84 170l9 7q83 -37 153 -60q26 9 159 60l7 -10q-55 -95 -88 -159zM308 0h-296l-2 14l18 10q17 9 22 18t5 28v366l-45 17l-1 14q49 17 122 30t126 13l8 -8v-105q67 113 169 113q64 0 97.5 -39t33.5 -107v-325l45 -25l-2 -14h-239l-14 14v299 q0 62 -51 62q-21 0 -39 -10v-326l45 -25z" />
<glyph unicode="&#x14a;" horiz-adv-x="656" d="M211 0h-199l-2 16l47 15q17 6 22 14t5 27v537l-74 25l2 16h220l307 -412v371l-84 25l2 16h199l2 -16l-47 -15q-17 -6 -22 -14t-5 -27v-503q0 -91 -30 -141.5t-106 -103.5l-11 13q43 46 63.5 78t30.5 79h-95l-307 421v-380l84 -25z" />
<glyph unicode="&#x14b;" horiz-adv-x="610" d="M308 0h-296l-2 14l18 10q17 9 22 18t5 28v366l-45 17l-1 14q49 17 122 30t126 13l8 -8v-105q67 113 169 113q64 0 97.5 -39t33.5 -107v-269q0 -127 -58 -201.5t-197 -88.5l-8 14q53 112 53 296v198q0 62 -51 62q-21 0 -39 -10v-326l45 -25z" />
<glyph unicode="&#x14c;" horiz-adv-x="710" d="M176 747v106h342v-106h-342zM672 330q0 -159 -91.5 -249.5t-234.5 -90.5q-145 0 -234.5 89.5t-89.5 245.5q0 155 94 245t232 90q144 0 234 -86.5t90 -243.5zM257 325q-1 -158 20.5 -226.5t71.5 -68.5q49 0 68 69.5t20 230.5q1 158 -18.5 224t-70.5 66t-70.5 -67 t-20.5 -228z" />
<glyph unicode="&#x14d;" horiz-adv-x="570" d="M116 597v106h342v-106h-342zM550 263q0 -125 -76 -199t-195 -74q-114 0 -186.5 67t-72.5 180q0 125 76 199t195 74q114 0 186.5 -67t72.5 -180zM240 262q0 -135 8.5 -183.5t36.5 -48.5t36.5 43t8.5 165q0 137 -8.5 184.5t-36.5 47.5q-27 0 -36 -43.5t-9 -164.5z" />
<glyph unicode="&#x14e;" horiz-adv-x="710" d="M481 893l4 1l10 -4q-8 -185 -153 -185q-68 0 -105 47.5t-38 138.5l14 4q38 -59 135 -59q87 0 133 57zM672 330q0 -159 -91.5 -249.5t-234.5 -90.5q-145 0 -234.5 89.5t-89.5 245.5q0 155 94 245t232 90q144 0 234 -86.5t90 -243.5zM257 325q-1 -158 20.5 -226.5 t71.5 -68.5q49 0 68 69.5t20 230.5q1 158 -18.5 224t-70.5 66t-70.5 -67t-20.5 -228z" />
<glyph unicode="&#x14f;" horiz-adv-x="570" d="M418 744l4 1l10 -4q-8 -185 -153 -185q-68 0 -105 47.5t-38 138.5l14 4q38 -59 135 -59q87 0 133 57zM550 263q0 -125 -76 -199t-195 -74q-114 0 -186.5 67t-72.5 180q0 125 76 199t195 74q114 0 186.5 -67t72.5 -180zM240 262q0 -135 8.5 -183.5t36.5 -48.5t36.5 43 t8.5 165q0 137 -8.5 184.5t-36.5 47.5q-27 0 -36 -43.5t-9 -164.5z" />
<glyph unicode="&#x150;" horiz-adv-x="710" d="M351 827q0 -46 -58 -78.5t-166 -46.5l-9 11q68 99 111 183q16 2 32 2q41 0 65.5 -17.5t24.5 -53.5zM576 827q0 -46 -58 -78.5t-166 -46.5l-9 11q68 99 111 183q16 2 32 2q40 0 65 -17.5t25 -53.5zM672 330q0 -159 -91.5 -249.5t-234.5 -90.5q-145 0 -234.5 89.5 t-89.5 245.5q0 155 94 245t232 90q144 0 234 -86.5t90 -243.5zM257 325q-1 -158 20.5 -226.5t71.5 -68.5q49 0 68 69.5t20 230.5q1 158 -18.5 224t-70.5 66t-70.5 -67t-20.5 -228z" />
<glyph unicode="&#x151;" horiz-adv-x="570" d="M289 676q0 -46 -58 -78.5t-166 -46.5l-9 11q68 99 111 183q16 2 32 2q41 0 65.5 -17.5t24.5 -53.5zM514 676q0 -46 -58 -78.5t-166 -46.5l-9 11q68 99 111 183q16 2 32 2q40 0 65 -17.5t25 -53.5zM550 263q0 -125 -76 -199t-195 -74q-114 0 -186.5 67t-72.5 180 q0 125 76 199t195 74q114 0 186.5 -67t72.5 -180zM240 262q0 -135 8.5 -183.5t36.5 -48.5t36.5 43t8.5 165q0 137 -8.5 184.5t-36.5 47.5q-27 0 -36 -43.5t-9 -164.5z" />
<glyph unicode="&#x152;" horiz-adv-x="935" d="M799 360l-3 -70l-154 15v-265h102l126 181h10q25 -58 25 -143q0 -42 -7 -78h-470q-30 -10 -65 -10q-153 0 -247 89.5t-94 245.5q0 155 99 245t244 90q38 0 71 -10h453q7 -35 7 -75q0 -83 -25 -139h-10l-125 174h-94v-265zM257 325q-1 -158 27 -226.5t91 -68.5q28 0 49 15 v562q-20 13 -50 13q-63 0 -89.5 -67.5t-27.5 -227.5z" />
<glyph unicode="&#x153;" horiz-adv-x="845" d="M820 160q-21 -76 -81 -123t-155 -47q-86 0 -149 57q-68 -57 -160 -57q-112 0 -183.5 67t-71.5 180q0 125 74.5 199t192.5 74q93 0 159 -57q68 57 158 57q102 0 164 -59t62 -153q0 -16 -4 -40l-8 -8h-260q28 -110 144 -110q56 0 110 28zM240 262q0 -135 8.5 -183.5 t36.5 -48.5t36.5 43t8.5 165q0 137 -8.5 184.5t-36.5 47.5q-27 0 -36 -43.5t-9 -164.5zM550 324q0 -15 2 -39l67 6q1 17 1 48q0 71 -5.5 101t-25.5 30q-39 0 -39 -146z" />
<glyph unicode="&#x154;" horiz-adv-x="751" d="M500 832q0 -46 -64 -78.5t-184 -46.5l-9 11q68 99 111 183q20 2 40 2q48 0 77 -17.5t29 -53.5zM356 0h-324l-2 16l27 10q17 6 22 15.5t5 30.5v537l-55 25l2 16h322q141 0 223.5 -49t82.5 -142q0 -91 -104 -149l120 -219q20 -38 53 -60l23 -15l-2 -16l-191 -3 q-52 -1 -80 19.5t-47 67.5l-73 176h-56v-219l56 -25zM328 610h-26v-310h33q47 0 75.5 41.5t28.5 111.5q0 71 -31 114t-80 43z" />
<glyph unicode="&#x155;" horiz-adv-x="455" d="M390 676q0 -46 -64 -78.5t-184 -46.5l-9 11q68 99 111 183q20 2 40 2q48 0 77 -17.5t29 -53.5zM328 0h-316l-2 14l18 10q17 9 22 18t5 28v366l-45 17l-1 14q49 17 122 30t126 13l8 -8v-165q47 173 127 173q63 0 63 -92q0 -69 -30 -120l-10 -3q-29 6 -72 9q-41 3 -78 3 v-268l65 -25z" />
<glyph unicode="&#x156;" horiz-adv-x="751" d="M356 0h-324l-2 16l27 10q17 6 22 15.5t5 30.5v537l-55 25l2 16h322q141 0 223.5 -49t82.5 -142q0 -91 -104 -149l120 -219q20 -38 53 -60l23 -15l-2 -16l-191 -3q-52 -1 -80 19.5t-47 67.5l-73 176h-56v-219l56 -25zM328 610h-26v-310h33q47 0 75.5 41.5t28.5 111.5 q0 71 -31 114t-80 43zM476 -149q0 -65 -53.5 -127.5t-116.5 -85.5l-13 12q48 56 61 117q-32 5 -52 26.5t-20 53.5q0 44 28 70.5t70 26.5q43 0 69.5 -26t26.5 -67z" />
<glyph unicode="&#x157;" horiz-adv-x="455" d="M328 0h-316l-2 14l18 10q17 9 22 18t5 28v366l-45 17l-1 14q49 17 122 30t126 13l8 -8v-165q47 173 127 173q63 0 63 -92q0 -69 -30 -120l-10 -3q-29 6 -72 9q-41 3 -78 3v-268l65 -25zM258 -149q0 -65 -53.5 -127.5t-116.5 -85.5l-13 12q48 56 61 117q-32 5 -52 26.5 t-20 53.5q0 44 28 70.5t70 26.5q43 0 69.5 -26t26.5 -67z" />
<glyph unicode="&#x158;" horiz-adv-x="751" d="M441 720l-11 -8h-145q-41 71 -84 170l9 7q83 -37 153 -60q26 9 159 60l7 -10q-55 -95 -88 -159zM356 0h-324l-2 16l27 10q17 6 22 15.5t5 30.5v537l-55 25l2 16h322q141 0 223.5 -49t82.5 -142q0 -91 -104 -149l120 -219q20 -38 53 -60l23 -15l-2 -16l-191 -3 q-52 -1 -80 19.5t-47 67.5l-73 176h-56v-219l56 -25zM328 610h-26v-310h33q47 0 75.5 41.5t28.5 111.5q0 71 -31 114t-80 43z" />
<glyph unicode="&#x159;" horiz-adv-x="455" d="M320 570l-11 -8h-145q-41 71 -84 170l9 7q83 -37 153 -60q26 9 159 60l7 -10q-55 -95 -88 -159zM328 0h-316l-2 14l18 10q17 9 22 18t5 28v366l-45 17l-1 14q49 17 122 30t126 13l8 -8v-165q47 173 127 173q63 0 63 -92q0 -69 -30 -120l-10 -3q-29 6 -72 9q-41 3 -78 3 v-268l65 -25z" />
<glyph unicode="&#x15a;" horiz-adv-x="578" d="M433 832q0 -46 -64 -78.5t-184 -46.5l-9 11q68 99 111 183q20 2 40 2q48 0 77 -17.5t29 -53.5zM554 186q0 -101 -83 -148.5t-224 -47.5q-146 0 -196 25q-27 13 -27 48q0 44 19 91.5t41 73.5l10 -2l103 -194q18 -2 26 -2q46 0 74 24.5t28 64.5q0 36 -31 66.5t-75.5 54.5 t-88.5 51t-75 71.5t-31 101.5q0 92 84.5 144t208.5 52q137 0 199 -36q22 -13 22 -39q0 -35 -24 -86.5t-46 -71.5l-10 2l-89 189q-18 2 -26 2q-44 0 -73 -22.5t-29 -60.5q0 -39 32 -72t78 -59t92.5 -54.5t78.5 -71t32 -94.5z" />
<glyph unicode="&#x15b;" horiz-adv-x="490" d="M399 676q0 -46 -64 -78.5t-184 -46.5l-9 11q68 99 111 183q20 2 40 2q48 0 77 -17.5t29 -53.5zM213 -10q-118 0 -166 25q-27 15 -27 53q0 40 21.5 74.5t48.5 45.5l12 -6q22 -70 46 -107q29 -45 67 -45q21 0 33.5 13t12.5 34q0 27 -23.5 50.5t-56.5 43t-66.5 42t-57 58 t-23.5 81.5q0 74 69 116t176 42q120 0 168 -41q22 -18 22 -39q0 -35 -25 -68t-55 -45l-12 6q-22 80 -45 114q-23 33 -56 33q-20 0 -32.5 -12.5t-12.5 -30.5q0 -28 24.5 -53t59.5 -46t70.5 -44t60 -57t24.5 -75q0 -82 -70 -122t-187 -40z" />
<glyph unicode="&#x15c;" horiz-adv-x="578" d="M459 719l-9 -7q-83 37 -153 60q-26 -9 -159 -60l-7 10q55 95 88 159l11 8h145q41 -71 84 -170zM554 186q0 -101 -83 -148.5t-224 -47.5q-146 0 -196 25q-27 13 -27 48q0 44 19 91.5t41 73.5l10 -2l103 -194q18 -2 26 -2q46 0 74 24.5t28 64.5q0 36 -31 66.5t-75.5 54.5 t-88.5 51t-75 71.5t-31 101.5q0 92 84.5 144t208.5 52q137 0 199 -36q22 -13 22 -39q0 -35 -24 -86.5t-46 -71.5l-10 2l-89 189q-18 2 -26 2q-44 0 -73 -22.5t-29 -60.5q0 -39 32 -72t78 -59t92.5 -54.5t78.5 -71t32 -94.5z" />
<glyph unicode="&#x15d;" horiz-adv-x="490" d="M418 568l-9 -7q-83 37 -153 60q-26 -9 -159 -60l-7 10q55 95 88 159l11 8h145q41 -71 84 -170zM213 -10q-118 0 -166 25q-27 15 -27 53q0 40 21.5 74.5t48.5 45.5l12 -6q22 -70 46 -107q29 -45 67 -45q21 0 33.5 13t12.5 34q0 27 -23.5 50.5t-56.5 43t-66.5 42t-57 58 t-23.5 81.5q0 74 69 116t176 42q120 0 168 -41q22 -18 22 -39q0 -35 -25 -68t-55 -45l-12 6q-22 80 -45 114q-23 33 -56 33q-20 0 -32.5 -12.5t-12.5 -30.5q0 -28 24.5 -53t59.5 -46t70.5 -44t60 -57t24.5 -75q0 -82 -70 -122t-187 -40z" />
<glyph unicode="&#x15e;" horiz-adv-x="578" d="M229 -106l-3 6l15 90q-142 0 -190 25q-27 13 -27 48q0 44 19 91.5t41 73.5l10 -2l103 -194q18 -2 26 -2q46 0 74 24.5t28 64.5q0 36 -31 66.5t-75.5 54.5t-88.5 51t-75 71.5t-31 101.5q0 92 84.5 144t208.5 52q137 0 199 -36q22 -13 22 -39q0 -35 -24 -86.5t-46 -71.5 l-10 2l-89 189q-18 2 -26 2q-44 0 -73 -22.5t-29 -60.5q0 -39 32 -72t78 -59t92.5 -54.5t78.5 -71t32 -94.5q0 -94 -71 -141.5t-195 -53.5l-4 -24q67 -5 105 -27.5t38 -59.5q0 -48 -57 -75t-168 -27l-5 15q77 33 77 67q0 29 -45 34z" />
<glyph unicode="&#x15f;" horiz-adv-x="490" d="M185 -106l-3 6l15 90q-105 1 -150 25q-27 15 -27 53q0 40 21.5 74.5t48.5 45.5l12 -6q22 -70 46 -107q29 -45 67 -45q21 0 33.5 13t12.5 34q0 27 -23.5 50.5t-56.5 43t-66.5 42t-57 58t-23.5 81.5q0 74 69 116t176 42q120 0 168 -41q22 -18 22 -39q0 -35 -25 -68t-55 -45 l-12 6q-22 80 -45 114q-23 33 -56 33q-20 0 -32.5 -12.5t-12.5 -30.5q0 -28 24.5 -53t59.5 -46t70.5 -44t60 -57t24.5 -75q0 -77 -61 -116.5t-165 -44.5l-4 -24q67 -5 105 -27.5t38 -59.5q0 -48 -57 -75t-168 -27l-5 15q77 33 77 67q0 29 -45 34z" />
<glyph unicode="&#x160;" horiz-adv-x="578" d="M374 720l-11 -8h-145q-41 71 -84 170l9 7q83 -37 153 -60q26 9 159 60l7 -10q-55 -95 -88 -159zM554 186q0 -101 -83 -148.5t-224 -47.5q-146 0 -196 25q-27 13 -27 48q0 44 19 91.5t41 73.5l10 -2l103 -194q18 -2 26 -2q46 0 74 24.5t28 64.5q0 36 -31 66.5t-75.5 54.5 t-88.5 51t-75 71.5t-31 101.5q0 92 84.5 144t208.5 52q137 0 199 -36q22 -13 22 -39q0 -35 -24 -86.5t-46 -71.5l-10 2l-89 189q-18 2 -26 2q-44 0 -73 -22.5t-29 -60.5q0 -39 32 -72t78 -59t92.5 -54.5t78.5 -71t32 -94.5z" />
<glyph unicode="&#x161;" horiz-adv-x="490" d="M329 570l-11 -8h-145q-41 71 -84 170l9 7q83 -37 153 -60q26 9 159 60l7 -10q-55 -95 -88 -159zM213 -10q-118 0 -166 25q-27 15 -27 53q0 40 21.5 74.5t48.5 45.5l12 -6q22 -70 46 -107q29 -45 67 -45q21 0 33.5 13t12.5 34q0 27 -23.5 50.5t-56.5 43t-66.5 42t-57 58 t-23.5 81.5q0 74 69 116t176 42q120 0 168 -41q22 -18 22 -39q0 -35 -25 -68t-55 -45l-12 6q-22 80 -45 114q-23 33 -56 33q-20 0 -32.5 -12.5t-12.5 -30.5q0 -28 24.5 -53t59.5 -46t70.5 -44t60 -57t24.5 -75q0 -82 -70 -122t-187 -40z" />
<glyph unicode="&#x162;" horiz-adv-x="634" d="M276 -106l-3 6l17 100h-134l-2 16l27 10q17 6 22 15.5t5 30.5v538h-46l-115 -214h-10q-25 66 -25 164q0 48 7 90h596q7 -42 7 -90q0 -98 -25 -164h-10l-115 214h-46v-569l56 -25l-2 -16h-143l-6 -33q67 -5 105 -27.5t38 -59.5q0 -48 -57 -75t-168 -27l-5 15q77 33 77 67 q0 29 -45 34z" />
<glyph unicode="&#x163;" horiz-adv-x="394" d="M158 -106l-3 6l16 92q-127 15 -127 178v265h-58l-2 14l52 34l210 137l8 -2v-148h110v-35h-110v-218q0 -77 64 -77q34 0 68 28l8 -8q-19 -67 -62.5 -114.5t-114.5 -54.5l-4 -24q67 -5 105 -27.5t38 -59.5q0 -48 -57 -75t-168 -27l-5 15q77 33 77 67q0 29 -45 34z" />
<glyph unicode="&#x164;" horiz-adv-x="634" d="M396 720l-11 -8h-145q-41 71 -84 170l9 7q83 -37 153 -60q26 9 159 60l7 -10q-55 -95 -88 -159zM47 396h-10q-25 66 -25 164q0 48 7 90h596q7 -42 7 -90q0 -98 -25 -164h-10l-115 214h-46v-569l56 -25l-2 -16h-324l-2 16l27 10q17 6 22 15.5t5 30.5v538h-46z" />
<glyph unicode="&#x165;" horiz-adv-x="394" d="M483 733q0 -65 -53.5 -127.5t-116.5 -85.5l-13 12q48 56 61 117q-32 5 -52 26.5t-20 53.5q0 44 28 70.5t70 26.5q43 0 69.5 -26t26.5 -67zM364 470v-35h-110v-218q0 -77 64 -77q34 0 68 28l8 -8q-20 -72 -68.5 -121t-128.5 -49q-153 0 -153 180v265h-58l-2 14l52 34 l210 137l8 -2v-148h110z" />
<glyph unicode="&#x166;" horiz-adv-x="634" d="M47 396h-10q-25 66 -25 164q0 48 7 90h596q7 -42 7 -90q0 -98 -25 -164h-10l-115 214h-46v-282h116v-45h-116v-242l56 -25l-2 -16h-324l-2 16l27 10q17 6 22 15.5t5 30.5v211h-116v45h116v282h-46z" />
<glyph unicode="&#x167;" horiz-adv-x="394" d="M364 305h-110v-88q0 -77 64 -77q34 0 68 28l8 -8q-20 -72 -68.5 -121t-128.5 -49q-153 0 -153 180v135h-60v35h60v95h-58l-2 14l52 34l210 137l8 -2v-148h110v-35h-110v-95h110v-35z" />
<glyph unicode="&#x168;" horiz-adv-x="681" d="M520 830q8 9 24.5 26.5t24.5 26.5l10 -3q4 -23 4 -49q0 -54 -24 -85.5t-74 -31.5q-12 0 -24 1t-25 3.5t-22.5 4.5t-24 6.5t-21 6.5t-22 8t-19 7.5t-20 8.5t-17.5 7q-8 -9 -24.5 -26.5t-24.5 -26.5l-10 3q-6 27 -6 51q0 52 25.5 83.5t74.5 31.5q31 0 64 -8.5t75 -24.5 t56 -20zM607 226q0 -236 -254 -236q-121 0 -195 62t-74 177v380l-56 25l2 16h324l2 -16l-27 -10q-17 -6 -22 -15.5t-5 -30.5v-340q0 -185 129 -185q61 0 96 44.5t35 128.5v384l-74 24l2 16h189l2 -16l-74 -24v-384z" />
<glyph unicode="&#x169;" d="M414 681q8 9 24.5 26.5t24.5 26.5l10 -3q4 -23 4 -49q0 -54 -24 -85.5t-74 -31.5q-12 0 -24 1t-25 3.5t-22.5 4.5t-24 6.5t-21 6.5t-22 8t-19 7.5t-20 8.5t-17.5 7q-8 -9 -24.5 -26.5t-24.5 -26.5l-10 3q-6 27 -6 51q0 52 25.5 83.5t74.5 31.5q31 0 64 -8.5t75 -24.5 t56 -20zM626 73q-55 -83 -151 -83q-55 0 -90 31.5t-35 75.5v6q-51 -113 -158 -113q-66 0 -104 40.5t-38 109.5v296l-45 17l-1 14q49 17 122 30t126 13l8 -8v-315q0 -32 12 -47t40 -15q21 0 38 10v301l-45 17l-1 14q49 17 122 30t126 13l8 -8v-354q0 -36 8 -50t28 -14 q13 0 22 3z" />
<glyph unicode="&#x16a;" horiz-adv-x="681" d="M233 746v106h342v-106h-342zM607 226q0 -236 -254 -236q-121 0 -195 62t-74 177v380l-56 25l2 16h324l2 -16l-27 -10q-17 -6 -22 -15.5t-5 -30.5v-340q0 -185 129 -185q61 0 96 44.5t35 128.5v384l-74 24l2 16h189l2 -16l-74 -24v-384z" />
<glyph unicode="&#x16b;" d="M128 597v106h342v-106h-342zM626 73q-55 -83 -151 -83q-55 0 -90 31.5t-35 75.5v6q-51 -113 -158 -113q-66 0 -104 40.5t-38 109.5v296l-45 17l-1 14q49 17 122 30t126 13l8 -8v-315q0 -32 12 -47t40 -15q21 0 38 10v301l-45 17l-1 14q49 17 122 30t126 13l8 -8v-354 q0 -36 8 -50t28 -14q13 0 22 3z" />
<glyph unicode="&#x16c;" horiz-adv-x="681" d="M538 892l4 1l10 -4q-8 -185 -153 -185q-68 0 -105 47.5t-38 138.5l14 4q38 -59 135 -59q87 0 133 57zM607 226q0 -236 -254 -236q-121 0 -195 62t-74 177v380l-56 25l2 16h324l2 -16l-27 -10q-17 -6 -22 -15.5t-5 -30.5v-340q0 -185 129 -185q61 0 96 44.5t35 128.5v384 l-74 24l2 16h189l2 -16l-74 -24v-384z" />
<glyph unicode="&#x16d;" d="M430 744l4 1l10 -4q-8 -185 -153 -185q-68 0 -105 47.5t-38 138.5l14 4q38 -59 135 -59q87 0 133 57zM626 73q-55 -83 -151 -83q-55 0 -90 31.5t-35 75.5v6q-51 -113 -158 -113q-66 0 -104 40.5t-38 109.5v296l-45 17l-1 14q49 17 122 30t126 13l8 -8v-315q0 -32 12 -47 t40 -15q21 0 38 10v301l-45 17l-1 14q49 17 122 30t126 13l8 -8v-354q0 -36 8 -50t28 -14q13 0 22 3z" />
<glyph unicode="&#x16e;" horiz-adv-x="681" d="M400 703q-47 0 -76.5 24.5t-29.5 66.5q0 45 32 72.5t82 27.5q46 0 75.5 -24.5t29.5 -65.5q0 -45 -32 -73t-81 -28zM404 847q-17 0 -27.5 -14t-10.5 -37q0 -21 10 -33t27 -12t27.5 14t10.5 37q0 20 -10 32.5t-27 12.5zM607 226q0 -236 -254 -236q-121 0 -195 62t-74 177 v380l-56 25l2 16h324l2 -16l-27 -10q-17 -6 -22 -15.5t-5 -30.5v-340q0 -185 129 -185q61 0 96 44.5t35 128.5v384l-74 24l2 16h189l2 -16l-74 -24v-384z" />
<glyph unicode="&#x16f;" d="M294 554q-47 0 -76.5 24.5t-29.5 66.5q0 45 32 72.5t82 27.5q46 0 75.5 -24.5t29.5 -65.5q0 -45 -32 -73t-81 -28zM298 698q-17 0 -27.5 -14t-10.5 -37q0 -21 10 -33t27 -12t27.5 14t10.5 37q0 20 -10 32.5t-27 12.5zM626 73q-55 -83 -151 -83q-55 0 -90 31.5t-35 75.5v6 q-51 -113 -158 -113q-66 0 -104 40.5t-38 109.5v296l-45 17l-1 14q49 17 122 30t126 13l8 -8v-315q0 -32 12 -47t40 -15q21 0 38 10v301l-45 17l-1 14q49 17 122 30t126 13l8 -8v-354q0 -36 8 -50t28 -14q13 0 22 3z" />
<glyph unicode="&#x170;" horiz-adv-x="681" d="M408 826q0 -46 -58 -78.5t-166 -46.5l-9 11q68 99 111 183q16 2 32 2q41 0 65.5 -17.5t24.5 -53.5zM633 826q0 -46 -58 -78.5t-166 -46.5l-9 11q68 99 111 183q16 2 32 2q40 0 65 -17.5t25 -53.5zM607 226q0 -236 -254 -236q-121 0 -195 62t-74 177v380l-56 25l2 16h324 l2 -16l-27 -10q-17 -6 -22 -15.5t-5 -30.5v-340q0 -185 129 -185q61 0 96 44.5t35 128.5v384l-74 24l2 16h189l2 -16l-74 -24v-384z" />
<glyph unicode="&#x171;" d="M301 676q0 -46 -58 -78.5t-166 -46.5l-9 11q68 99 111 183q16 2 32 2q41 0 65.5 -17.5t24.5 -53.5zM526 676q0 -46 -58 -78.5t-166 -46.5l-9 11q68 99 111 183q16 2 32 2q40 0 65 -17.5t25 -53.5zM626 73q-55 -83 -151 -83q-55 0 -90 31.5t-35 75.5v6q-51 -113 -158 -113 q-66 0 -104 40.5t-38 109.5v296l-45 17l-1 14q49 17 122 30t126 13l8 -8v-315q0 -32 12 -47t40 -15q21 0 38 10v301l-45 17l-1 14q49 17 122 30t126 13l8 -8v-354q0 -36 8 -50t28 -14q13 0 22 3z" />
<glyph unicode="&#x172;" horiz-adv-x="681" d="M511 -137q-19 -39 -56 -62t-80 -23q-41 0 -66.5 21.5t-25.5 57.5q0 41 37.5 75t120.5 67q-39 -9 -88 -9q-121 0 -195 62t-74 177v380l-56 25l2 16h324l2 -16l-27 -10q-17 -6 -22 -15.5t-5 -30.5v-340q0 -185 129 -185q61 0 96 44.5t35 128.5v384l-74 24l2 16h189l2 -16 l-74 -24v-384q0 -119 -66 -179q-12 -13 -37 -37t-38.5 -38t-25.5 -33.5t-12 -34.5q0 -38 42 -38q18 0 36 7z" />
<glyph unicode="&#x173;" d="M599 -137q-43 -85 -125 -85q-38 0 -65.5 19.5t-27.5 54.5q0 39 33 69.5t114 76.5q-26 -8 -53 -8q-55 0 -90 31.5t-35 75.5v6q-51 -113 -158 -113q-66 0 -104 40.5t-38 109.5v296l-45 17l-1 14q49 17 122 30t126 13l8 -8v-315q0 -32 12 -47t40 -15q21 0 38 10v301l-45 17 l-1 14q49 17 122 30t126 13l8 -8v-354q0 -36 8 -50t28 -14q13 0 22 3l8 -14q-12 -20 -40.5 -57t-44 -63.5t-15.5 -49.5q0 -17 10 -27t25 -10t33 7z" />
<glyph unicode="&#x174;" horiz-adv-x="1047" d="M717 719l-9 -7q-83 37 -153 60q-26 -9 -159 -60l-7 10q55 95 88 159l11 8h145q41 -71 84 -170zM392 0h-115l-203 572q-12 34 -45 49l-29 13l2 16h353l2 -16l-63 -25l125 -406l80 288l-26 81q-11 33 -45 49l-29 13l2 16h353l2 -16l-65 -25l108 -409l112 407l-71 27l2 16 h203l2 -16q-29 -12 -47 -30q-33 -31 -64 -124l-165 -480h-115l-131 408z" />
<glyph unicode="&#x175;" horiz-adv-x="824" d="M607 568l-9 -7q-83 37 -153 60q-26 -9 -159 -60l-7 10q55 95 88 159l11 8h145q41 -71 84 -170zM434 500h120l83 -366l92 329l-47 23l2 14h138l2 -14q-20 -15 -33 -30q-12 -16 -25 -54l-136 -402h-154l-66 194l-66 -194h-154l-137 402q-19 58 -49 81l-4 3l2 14h312l2 -14 l-47 -27l82 -325z" />
<glyph unicode="&#x176;" horiz-adv-x="688" d="M530 719l-9 -7q-83 37 -153 60q-26 -9 -159 -60l-7 10q55 95 88 159l11 8h145q41 -71 84 -170zM507 0h-324l-2 16l27 10q17 6 22 15.5t5 30.5v192l-161 308q-19 37 -45 49l-29 13l2 16h353l2 -16l-61 -24l129 -314l128 312l-59 26l2 16h190l2 -16q-12 -8 -24 -18 q-42 -36 -85 -116l-126 -236v-223l56 -25z" />
<glyph unicode="&#x177;" horiz-adv-x="538" d="M441 568l-9 -7q-83 37 -153 60q-26 -9 -159 -60l-7 10q55 95 88 159l11 8h145q41 -71 84 -170zM150 -195q-53 0 -84.5 29t-31.5 75q0 32 13 56q54 -15 107 -15q103 0 150 50h-114l-137 402q-19 58 -49 81l-4 3l2 14h312l2 -14l-47 -27l82 -325l92 329l-47 23l2 14h138 l2 -14l-8 -5q-18 -11 -28 -28t-22 -51l-118 -350q-17 -50 -35 -89.5t-44 -77.5t-60 -59t-73 -21z" />
<glyph unicode="&#x178;" horiz-adv-x="688" d="M336 807q0 -42 -30.5 -67.5t-77.5 -25.5q-39 0 -63.5 21.5t-24.5 56.5q0 41 31.5 67.5t76.5 26.5q40 0 64 -21.5t24 -57.5zM592 807q0 -42 -30.5 -67.5t-77.5 -25.5q-39 0 -63.5 21.5t-24.5 56.5q0 41 31.5 67.5t76.5 26.5q40 0 64 -21.5t24 -57.5zM507 0h-324l-2 16 l27 10q17 6 22 15.5t5 30.5v192l-161 308q-19 37 -45 49l-29 13l2 16h353l2 -16l-61 -24l129 -314l128 312l-59 26l2 16h190l2 -16q-12 -8 -24 -18q-42 -36 -85 -116l-126 -236v-223l56 -25z" />
<glyph unicode="&#x179;" horiz-adv-x="617" d="M449 832q0 -46 -64 -78.5t-184 -46.5l-9 11q68 99 111 183q20 2 40 2q48 0 77 -17.5t29 -53.5zM581 101q0 -56 -7 -101h-522l-16 90l315 520h-145l-131 -214h-10q-25 64 -25 159q0 50 7 95h515l16 -90l-309 -520h147l130 214h10q25 -58 25 -153z" />
<glyph unicode="&#x17a;" horiz-adv-x="500" d="M399 676q0 -46 -64 -78.5t-184 -46.5l-9 11q68 99 111 183q20 2 40 2q48 0 77 -17.5t29 -53.5zM478 81q0 -45 -7 -81h-437l-14 80l251 390h-91l-123 -184h-10q-25 56 -25 139q0 40 7 75h437l14 -80l-246 -390h87l122 184h10q25 -50 25 -133z" />
<glyph unicode="&#x17b;" horiz-adv-x="617" d="M426 807q0 -46 -35.5 -73.5t-89.5 -27.5q-47 0 -76 23.5t-29 62.5q0 45 36.5 73.5t88.5 28.5q47 0 76 -23.5t29 -63.5zM581 101q0 -56 -7 -101h-522l-16 90l315 520h-145l-131 -214h-10q-25 64 -25 159q0 50 7 95h515l16 -90l-309 -520h147l130 214h10q25 -58 25 -153z " />
<glyph unicode="&#x17c;" horiz-adv-x="500" d="M366 657q0 -46 -35.5 -73.5t-89.5 -27.5q-47 0 -76 23.5t-29 62.5q0 45 36.5 73.5t88.5 28.5q47 0 76 -23.5t29 -63.5zM478 81q0 -45 -7 -81h-437l-14 80l251 390h-91l-123 -184h-10q-25 56 -25 139q0 40 7 75h437l14 -80l-246 -390h87l122 184h10q25 -50 25 -133z" />
<glyph unicode="&#x17d;" horiz-adv-x="617" d="M390 720l-11 -8h-145q-41 71 -84 170l9 7q83 -37 153 -60q26 9 159 60l7 -10q-55 -95 -88 -159zM581 101q0 -56 -7 -101h-522l-16 90l315 520h-145l-131 -214h-10q-25 64 -25 159q0 50 7 95h515l16 -90l-309 -520h147l130 214h10q25 -58 25 -153z" />
<glyph unicode="&#x17e;" horiz-adv-x="500" d="M329 570l-11 -8h-145q-41 71 -84 170l9 7q83 -37 153 -60q26 9 159 60l7 -10q-55 -95 -88 -159zM478 81q0 -45 -7 -81h-437l-14 80l251 390h-91l-123 -184h-10q-25 56 -25 139q0 40 7 75h437l14 -80l-246 -390h87l122 184h10q25 -50 25 -133z" />
<glyph unicode="&#x18f;" horiz-adv-x="695" d="M336 -10q-135 0 -216.5 80t-81.5 216q0 27 1 35l18 18h380q-2 153 -23.5 217t-71.5 64q-39 0 -63 -36.5t-24 -98.5q0 -28 5 -53q-46 -24 -106 -24q-41 0 -67 18t-26 51q0 69 89 126t194 57q143 0 228 -84t85 -229q0 -168 -87 -262.5t-234 -94.5zM255 276q0 -246 91 -246 q48 0 68.5 67t22.5 202l-181 -8q-1 -4 -1 -15z" />
<glyph unicode="&#x192;" horiz-adv-x="586" d="M326 124q-18 -117 -105 -189t-192 -72q-47 0 -76 19.5t-29 50.5q0 64 100 94q8 -99 46 -99q30 0 49 48t19 147v152h-103l6 45h97v48q0 76 26.5 134.5t71.5 92t96.5 49.5t108.5 16q80 0 126.5 -28.5t46.5 -71.5t-29.5 -71t-70.5 -34q-33 116 -46 140q-13 23 -27 23 q-27 0 -39.5 -42.5t-29.5 -151.5q-1 -9 -2 -14l-14 -90h149l-6 -45h-150z" />
<glyph unicode="&#x19d;" horiz-adv-x="656" d="M12 650h220l307 -412v371l-84 25l2 16h199l2 -16l-47 -15q-17 -6 -22 -14t-5 -27v-578h-148l-307 421v-346q0 -91 -30 -141.5t-106 -103.5l-11 13q57 61 79.5 109t22.5 142v515l-74 25z" />
<glyph unicode="&#x1cd;" horiz-adv-x="698" d="M428 720l-11 -8h-145q-41 71 -84 170l9 7q83 -37 153 -60q26 9 159 60l7 -10q-55 -95 -88 -159zM291 650h115l218 -572q12 -34 45 -49l29 -13l-2 -16h-353l-2 16l63 25l-42 122l-210 -2l-44 -119l69 -26l-2 -16h-173l-2 16l31 11q13 5 22 14t12 15.5t11 27.5zM168 203 h180l-86 253z" />
<glyph unicode="&#x1ce;" horiz-adv-x="565" d="M374 570l-11 -8h-145q-41 71 -84 170l9 7q83 -37 153 -60q26 9 159 60l7 -10q-55 -95 -88 -159zM579 77q-54 -87 -149 -87q-47 0 -80 23.5t-42 59.5q-46 -83 -149 -83q-55 0 -94.5 34t-39.5 88q0 75 74 115t206 44v137q0 62 -33 62q-37 0 -37 -76q0 -36 7 -72 q-53 -20 -98 -20q-43 0 -68.5 17t-25.5 50q0 56 72.5 98.5t173.5 42.5q224 0 224 -200q0 -30 -2.5 -88t-2.5 -74q0 -36 8 -50t28 -14q13 0 22 3zM245 155q0 -30 11.5 -45t28.5 -15q13 0 20 6v140q-28 -4 -44 -27t-16 -59z" />
<glyph unicode="&#x1cf;" horiz-adv-x="386" d="M272 720l-11 -8h-145q-41 71 -84 170l9 7q83 -37 153 -60q26 9 159 60l7 -10q-55 -95 -88 -159zM356 0h-324l-2 16l27 10q17 6 22 15.5t5 30.5v537l-56 25l2 16h324l2 -16l-27 -10q-17 -6 -22 -15.5t-5 -30.5v-537l56 -25z" />
<glyph unicode="&#x1d0;" horiz-adv-x="315" d="M234 569l-11 -8h-143q-37 90 -61 170l9 7q72 -36 129 -58q19 8 41.5 17.5t50.5 21.5t44 19l7 -10q-46 -106 -66 -159zM308 0h-296l-2 14l18 10q17 9 22 18t5 28v366l-45 17l-1 14q49 17 122 30t126 13l8 -8v-463l45 -25z" />
<glyph unicode="&#x1d1;" horiz-adv-x="710" d="M426 720l-11 -8h-145q-41 71 -84 170l9 7q83 -37 153 -60q26 9 159 60l7 -10q-55 -95 -88 -159zM672 330q0 -159 -91.5 -249.5t-234.5 -90.5q-145 0 -234.5 89.5t-89.5 245.5q0 155 94 245t232 90q144 0 234 -86.5t90 -243.5zM257 325q-1 -158 20.5 -226.5t71.5 -68.5 q49 0 68 69.5t20 230.5q1 158 -18.5 224t-70.5 66t-70.5 -67t-20.5 -228z" />
<glyph unicode="&#x1d2;" horiz-adv-x="570" d="M364 570l-11 -8h-145q-41 71 -84 170l9 7q83 -37 153 -60q26 9 159 60l7 -10q-55 -95 -88 -159zM550 263q0 -125 -76 -199t-195 -74q-114 0 -186.5 67t-72.5 180q0 125 76 199t195 74q114 0 186.5 -67t72.5 -180zM240 262q0 -135 8.5 -183.5t36.5 -48.5t36.5 43t8.5 165 q0 137 -8.5 184.5t-36.5 47.5q-27 0 -36 -43.5t-9 -164.5z" />
<glyph unicode="&#x1d3;" horiz-adv-x="681" d="M483 719l-11 -8h-145q-41 71 -84 170l9 7q83 -37 153 -60q26 9 159 60l7 -10q-55 -95 -88 -159zM607 226q0 -236 -254 -236q-121 0 -195 62t-74 177v380l-56 25l2 16h324l2 -16l-27 -10q-17 -6 -22 -15.5t-5 -30.5v-340q0 -185 129 -185q61 0 96 44.5t35 128.5v384 l-74 24l2 16h189l2 -16l-74 -24v-384z" />
<glyph unicode="&#x1d4;" d="M376 570l-11 -8h-145q-41 71 -84 170l9 7q83 -37 153 -60q26 9 159 60l7 -10q-55 -95 -88 -159zM626 73q-55 -83 -151 -83q-55 0 -90 31.5t-35 75.5v6q-51 -113 -158 -113q-66 0 -104 40.5t-38 109.5v296l-45 17l-1 14q49 17 122 30t126 13l8 -8v-315q0 -32 12 -47 t40 -15q21 0 38 10v301l-45 17l-1 14q49 17 122 30t126 13l8 -8v-354q0 -36 8 -50t28 -14q13 0 22 3z" />
<glyph unicode="&#x1d5;" horiz-adv-x="681" d="M233 987v106h342v-106h-342zM374 806q0 -42 -30.5 -67.5t-77.5 -25.5q-39 0 -63.5 21.5t-24.5 56.5q0 41 31.5 67.5t76.5 26.5q40 0 64 -21.5t24 -57.5zM630 806q0 -42 -30.5 -67.5t-77.5 -25.5q-39 0 -63.5 21.5t-24.5 56.5q0 41 31.5 67.5t76.5 26.5q40 0 64 -21.5 t24 -57.5zM607 226q0 -236 -254 -236q-121 0 -195 62t-74 177v380l-56 25l2 16h324l2 -16l-27 -10q-17 -6 -22 -15.5t-5 -30.5v-340q0 -185 129 -185q61 0 96 44.5t35 128.5v384l-74 24l2 16h189l2 -16l-74 -24v-384z" />
<glyph unicode="&#x1d6;" d="M128 828v106h342v-106h-342zM267 657q0 -42 -30.5 -67.5t-77.5 -25.5q-39 0 -63.5 21.5t-24.5 56.5q0 41 31.5 67.5t76.5 26.5q40 0 64 -21.5t24 -57.5zM523 657q0 -42 -30.5 -67.5t-77.5 -25.5q-39 0 -63.5 21.5t-24.5 56.5q0 41 31.5 67.5t76.5 26.5q40 0 64 -21.5 t24 -57.5zM626 73q-55 -83 -151 -83q-55 0 -90 31.5t-35 75.5v6q-51 -113 -158 -113q-66 0 -104 40.5t-38 109.5v296l-45 17l-1 14q49 17 122 30t126 13l8 -8v-315q0 -32 12 -47t40 -15q21 0 38 10v301l-45 17l-1 14q49 17 122 30t126 13l8 -8v-354q0 -36 8 -50t28 -14 q13 0 22 3z" />
<glyph unicode="&#x1d7;" horiz-adv-x="681" d="M547 1067q0 -46 -64 -78.5t-184 -46.5l-9 11q68 99 111 183q20 2 40 2q48 0 77 -17.5t29 -53.5zM374 806q0 -42 -30.5 -67.5t-77.5 -25.5q-39 0 -63.5 21.5t-24.5 56.5q0 41 31.5 67.5t76.5 26.5q40 0 64 -21.5t24 -57.5zM630 806q0 -42 -30.5 -67.5t-77.5 -25.5 q-39 0 -63.5 21.5t-24.5 56.5q0 41 31.5 67.5t76.5 26.5q40 0 64 -21.5t24 -57.5zM607 226q0 -236 -254 -236q-121 0 -195 62t-74 177v380l-56 25l2 16h324l2 -16l-27 -10q-17 -6 -22 -15.5t-5 -30.5v-340q0 -185 129 -185q61 0 96 44.5t35 128.5v384l-74 24l2 16h189l2 -16 l-74 -24v-384z" />
<glyph unicode="&#x1d8;" d="M446 907q0 -46 -64 -78.5t-184 -46.5l-9 11q68 99 111 183q20 2 40 2q48 0 77 -17.5t29 -53.5zM267 657q0 -42 -30.5 -67.5t-77.5 -25.5q-39 0 -63.5 21.5t-24.5 56.5q0 41 31.5 67.5t76.5 26.5q40 0 64 -21.5t24 -57.5zM523 657q0 -42 -30.5 -67.5t-77.5 -25.5 q-39 0 -63.5 21.5t-24.5 56.5q0 41 31.5 67.5t76.5 26.5q40 0 64 -21.5t24 -57.5zM626 73q-55 -83 -151 -83q-55 0 -90 31.5t-35 75.5v6q-51 -113 -158 -113q-66 0 -104 40.5t-38 109.5v296l-45 17l-1 14q49 17 122 30t126 13l8 -8v-315q0 -32 12 -47t40 -15q21 0 38 10v301 l-45 17l-1 14q49 17 122 30t126 13l8 -8v-354q0 -36 8 -50t28 -14q13 0 22 3z" />
<glyph unicode="&#x1d9;" horiz-adv-x="681" d="M483 960l-11 -8h-145q-41 71 -84 170l9 7q83 -37 153 -60q26 9 159 60l7 -10q-55 -95 -88 -159zM374 806q0 -42 -30.5 -67.5t-77.5 -25.5q-39 0 -63.5 21.5t-24.5 56.5q0 41 31.5 67.5t76.5 26.5q40 0 64 -21.5t24 -57.5zM630 806q0 -42 -30.5 -67.5t-77.5 -25.5 q-39 0 -63.5 21.5t-24.5 56.5q0 41 31.5 67.5t76.5 26.5q40 0 64 -21.5t24 -57.5zM607 226q0 -236 -254 -236q-121 0 -195 62t-74 177v380l-56 25l2 16h324l2 -16l-27 -10q-17 -6 -22 -15.5t-5 -30.5v-340q0 -185 129 -185q61 0 96 44.5t35 128.5v384l-74 24l2 16h189l2 -16 l-74 -24v-384z" />
<glyph unicode="&#x1da;" d="M376 801l-11 -8h-145q-41 71 -84 170l9 7q83 -37 153 -60q26 9 159 60l7 -10q-55 -95 -88 -159zM267 657q0 -42 -30.5 -67.5t-77.5 -25.5q-39 0 -63.5 21.5t-24.5 56.5q0 41 31.5 67.5t76.5 26.5q40 0 64 -21.5t24 -57.5zM523 657q0 -42 -30.5 -67.5t-77.5 -25.5 q-39 0 -63.5 21.5t-24.5 56.5q0 41 31.5 67.5t76.5 26.5q40 0 64 -21.5t24 -57.5zM626 73q-55 -83 -151 -83q-55 0 -90 31.5t-35 75.5v6q-51 -113 -158 -113q-66 0 -104 40.5t-38 109.5v296l-45 17l-1 14q49 17 122 30t126 13l8 -8v-315q0 -32 12 -47t40 -15q21 0 38 10v301 l-45 17l-1 14q49 17 122 30t126 13l8 -8v-354q0 -36 8 -50t28 -14q13 0 22 3z" />
<glyph unicode="&#x1db;" horiz-adv-x="681" d="M526 953l-9 -11q-120 14 -184 46.5t-64 78.5q0 36 29 53.5t77 17.5q20 0 40 -2q43 -84 111 -183zM374 806q0 -42 -30.5 -67.5t-77.5 -25.5q-39 0 -63.5 21.5t-24.5 56.5q0 41 31.5 67.5t76.5 26.5q40 0 64 -21.5t24 -57.5zM630 806q0 -42 -30.5 -67.5t-77.5 -25.5 q-39 0 -63.5 21.5t-24.5 56.5q0 41 31.5 67.5t76.5 26.5q40 0 64 -21.5t24 -57.5zM607 226q0 -236 -254 -236q-121 0 -195 62t-74 177v380l-56 25l2 16h324l2 -16l-27 -10q-17 -6 -22 -15.5t-5 -30.5v-340q0 -185 129 -185q61 0 96 44.5t35 128.5v384l-74 24l2 16h189l2 -16 l-74 -24v-384z" />
<glyph unicode="&#x1dc;" d="M429 793l-9 -11q-120 14 -184 46.5t-64 78.5q0 36 29 53.5t77 17.5q20 0 40 -2q43 -84 111 -183zM267 657q0 -42 -30.5 -67.5t-77.5 -25.5q-39 0 -63.5 21.5t-24.5 56.5q0 41 31.5 67.5t76.5 26.5q40 0 64 -21.5t24 -57.5zM523 657q0 -42 -30.5 -67.5t-77.5 -25.5 q-39 0 -63.5 21.5t-24.5 56.5q0 41 31.5 67.5t76.5 26.5q40 0 64 -21.5t24 -57.5zM626 73q-55 -83 -151 -83q-55 0 -90 31.5t-35 75.5v6q-51 -113 -158 -113q-66 0 -104 40.5t-38 109.5v296l-45 17l-1 14q49 17 122 30t126 13l8 -8v-315q0 -32 12 -47t40 -15q21 0 38 10v301 l-45 17l-1 14q49 17 122 30t126 13l8 -8v-354q0 -36 8 -50t28 -14q13 0 22 3z" />
<glyph unicode="&#x1e6;" horiz-adv-x="664" d="M447 720l-11 -8h-145q-41 71 -84 170l9 7q83 -37 153 -60q26 9 159 60l7 -10q-55 -95 -88 -159zM616 16q-91 -26 -211 -26q-173 0 -274 84.5t-101 242.5q0 159 112.5 251t273.5 92q113 0 189 -26q4 -25 4 -62q0 -92 -32 -158h-10l-121 205q-5 1 -13 1q-65 0 -124 -81.5 t-59 -215.5q0 -131 57.5 -212t114.5 -81h6v248l-53 25l2 16h291l2 -16l-27 -10q-17 -6 -22 -15.5t-5 -30.5v-231z" />
<glyph unicode="&#x1e7;" horiz-adv-x="551" d="M346 570l-11 -8h-145q-41 71 -84 170l9 7q83 -37 153 -60q26 9 159 60l7 -10q-55 -95 -88 -159zM540 -5q0 -90 -73 -140t-214 -50q-50 0 -93 4.5t-80 14.5t-58.5 29t-21.5 45q0 29 34 46t85 17l1 4q-57 28 -57 93q0 42 34 76t83 42q-76 13 -118 53.5t-42 103.5 q0 79 72.5 125.5t177.5 46.5q185 0 261 20q19 -25 19 -54q0 -50 -55 -50q-23 0 -89 22l-2 -3q41 -17 68.5 -48t27.5 -73q0 -71 -66.5 -110t-177.5 -39q-15 0 -43 2q0 -2 -0.5 -5.5t-0.5 -5.5q0 -25 48 -26l107 -2q80 -2 126.5 -36.5t46.5 -101.5zM220 329q0 -66 7.5 -92.5 t32.5 -26.5q24 0 32 27.5t8 94.5q0 64 -6.5 91t-31.5 27q-26 0 -34 -29.5t-8 -91.5zM170 -82q0 -73 107 -73q45 0 74 15t29 41q0 34 -58 34h-79q-47 0 -70 4q-3 -10 -3 -21z" />
<glyph unicode="&#x1ea;" horiz-adv-x="710" d="M485 -137q-19 -39 -56 -62t-80 -23q-41 0 -66.5 21.5t-25.5 57.5q0 41 37.5 74.5t122.5 65.5q-31 -7 -71 -7q-145 0 -234.5 89.5t-89.5 245.5q0 155 94 245t232 90q144 0 234 -86.5t90 -243.5q0 -100 -38.5 -174.5t-106.5 -117.5l2 1q-71 -42 -99 -73.5t-28 -61.5 q0 -38 42 -38q18 0 36 7zM257 325q-1 -158 20.5 -226.5t71.5 -68.5q49 0 68 69.5t20 230.5q1 158 -18.5 224t-70.5 66t-70.5 -67t-20.5 -228z" />
<glyph unicode="&#x1eb;" horiz-adv-x="570" d="M421 -137q-19 -39 -56 -62t-80 -23q-41 0 -66 20t-25 54q0 39 37 70.5t120 75.5q-35 -8 -72 -8q-114 0 -186.5 67t-72.5 180q0 125 76 199t195 74q114 0 186.5 -67t72.5 -180q0 -135 -90 -211h1q-68 -55 -95.5 -88t-27.5 -60q0 -38 42 -38q18 0 36 7zM240 262 q0 -135 8.5 -183.5t36.5 -48.5t36.5 43t8.5 165q0 137 -8.5 184.5t-36.5 47.5q-27 0 -36 -43.5t-9 -164.5z" />
<glyph unicode="&#x1f4;" horiz-adv-x="664" d="M506 832q0 -46 -64 -78.5t-184 -46.5l-9 11q68 99 111 183q20 2 40 2q48 0 77 -17.5t29 -53.5zM616 16q-91 -26 -211 -26q-173 0 -274 84.5t-101 242.5q0 159 112.5 251t273.5 92q113 0 189 -26q4 -25 4 -62q0 -92 -32 -158h-10l-121 205q-5 1 -13 1q-65 0 -124 -81.5 t-59 -215.5q0 -131 57.5 -212t114.5 -81h6v248l-53 25l2 16h291l2 -16l-27 -10q-17 -6 -22 -15.5t-5 -30.5v-231z" />
<glyph unicode="&#x1f5;" horiz-adv-x="551" d="M416 676q0 -46 -64 -78.5t-184 -46.5l-9 11q68 99 111 183q20 2 40 2q48 0 77 -17.5t29 -53.5zM540 -5q0 -90 -73 -140t-214 -50q-50 0 -93 4.5t-80 14.5t-58.5 29t-21.5 45q0 29 34 46t85 17l1 4q-57 28 -57 93q0 42 34 76t83 42q-76 13 -118 53.5t-42 103.5 q0 79 72.5 125.5t177.5 46.5q185 0 261 20q19 -25 19 -54q0 -50 -55 -50q-23 0 -89 22l-2 -3q41 -17 68.5 -48t27.5 -73q0 -71 -66.5 -110t-177.5 -39q-15 0 -43 2q0 -2 -0.5 -5.5t-0.5 -5.5q0 -25 48 -26l107 -2q80 -2 126.5 -36.5t46.5 -101.5zM220 329q0 -66 7.5 -92.5 t32.5 -26.5q24 0 32 27.5t8 94.5q0 64 -6.5 91t-31.5 27q-26 0 -34 -29.5t-8 -91.5zM170 -82q0 -73 107 -73q45 0 74 15t29 41q0 34 -58 34h-79q-47 0 -70 4q-3 -10 -3 -21z" />
<glyph unicode="&#x1fa;" horiz-adv-x="698" d="M487 1067q0 -46 -64 -78.5t-184 -46.5l-9 11q68 99 111 183q20 2 40 2q48 0 77 -17.5t29 -53.5zM345 704q-47 0 -76.5 24.5t-29.5 66.5q0 45 32 72.5t82 27.5q46 0 75.5 -24.5t29.5 -65.5q0 -45 -32 -73t-81 -28zM349 848q-17 0 -27.5 -14t-10.5 -37q0 -21 10 -33t27 -12 t27.5 14t10.5 37q0 20 -10 32.5t-27 12.5zM291 650h115l218 -572q12 -34 45 -49l29 -13l-2 -16h-353l-2 16l63 25l-42 122l-210 -2l-44 -119l69 -26l-2 -16h-173l-2 16l31 11q13 5 22 14t12 15.5t11 27.5zM168 203h180l-86 253z" />
<glyph unicode="&#x1fb;" horiz-adv-x="565" d="M434 913q0 -46 -64 -78.5t-184 -46.5l-9 11q68 99 111 183q20 2 40 2q48 0 77 -17.5t29 -53.5zM292 554q-47 0 -76.5 24.5t-29.5 66.5q0 45 32 72.5t82 27.5q46 0 75.5 -24.5t29.5 -65.5q0 -45 -32 -73t-81 -28zM296 698q-17 0 -27.5 -14t-10.5 -37q0 -21 10 -33t27 -12 t27.5 14t10.5 37q0 20 -10 32.5t-27 12.5zM579 77q-54 -87 -149 -87q-47 0 -80 23.5t-42 59.5q-46 -83 -149 -83q-55 0 -94.5 34t-39.5 88q0 75 74 115t206 44v137q0 62 -33 62q-37 0 -37 -76q0 -36 7 -72q-53 -20 -98 -20q-43 0 -68.5 17t-25.5 50q0 56 72.5 98.5 t173.5 42.5q224 0 224 -200q0 -30 -2.5 -88t-2.5 -74q0 -36 8 -50t28 -14q13 0 22 3zM245 155q0 -30 11.5 -45t28.5 -15q13 0 20 6v140q-28 -4 -44 -27t-16 -59z" />
<glyph unicode="&#x1fc;" horiz-adv-x="927" d="M688 832q0 -46 -64 -78.5t-184 -46.5l-9 11q68 99 111 183q20 2 40 2q48 0 77 -17.5t29 -53.5zM27 0l-2 16q27 9 42 17q12 7 19 17.5t19 42.5l196 517l-74 24l2 16h645q7 -35 7 -75q0 -83 -25 -139h-10l-125 174h-94v-265l157 15l-3 -70l-154 15v-265h102l126 181h10 q25 -58 25 -143q0 -42 -7 -78h-528l-2 16l29 10q17 6 22 15.5t5 30.5v232l-179 -2l-96 -260l78 -26l-2 -16h-183zM409 610h-65l-97 -263l162 -2v265z" />
<glyph unicode="&#x1fd;" horiz-adv-x="820" d="M582 676q0 -46 -64 -78.5t-184 -46.5l-9 11q68 99 111 183q20 2 40 2q48 0 77 -17.5t29 -53.5zM795 161q-21 -75 -82 -122.5t-158 -47.5q-150 0 -212 98q-19 -40 -63 -69.5t-107 -29.5q-64 0 -106 33.5t-42 88.5q0 75 74 115t206 44v137q0 62 -33 62q-37 0 -37 -76 q0 -36 7 -72q-53 -20 -98 -20q-43 0 -68.5 17t-25.5 50q0 56 72.5 98.5t173.5 42.5q88 0 142 -32q60 33 137 33q104 0 167 -59t63 -153q0 -16 -4 -40l-8 -8h-260q28 -110 144 -110q56 0 110 28zM525 325q0 -15 2 -39l67 6q1 17 1 48q0 71 -5.5 101t-25.5 30q-39 0 -39 -146z M245 173q0 -33 14 -53.5t36 -20.5q21 0 34 15q-24 52 -24 127q-60 -8 -60 -68z" />
<glyph unicode="&#x1fe;" horiz-adv-x="710" d="M485 832q0 -46 -64 -78.5t-184 -46.5l-9 11q68 99 111 183q20 2 40 2q48 0 77 -17.5t29 -53.5zM672 330q0 -159 -91.5 -249.5t-234.5 -90.5q-114 0 -194 56l-45 -56l-38 32l45 55q-92 92 -92 248q0 155 94 245t232 90q114 0 194 -54l44 54l39 -31l-44 -54q91 -89 91 -245 zM257 325q0 -49 1 -70l175 216q-8 79 -28 114t-57 35q-51 0 -70.5 -67t-20.5 -228zM437 330q0 46 -1 66l-174 -214q8 -80 29 -116t58 -36q49 0 68 69.5t20 230.5z" />
<glyph unicode="&#x1ff;" horiz-adv-x="570" d="M434 676q0 -46 -64 -78.5t-184 -46.5l-9 11q68 99 111 183q20 2 40 2q48 0 77 -17.5t29 -53.5zM550 263q0 -125 -76 -199t-195 -74q-109 0 -179 61l-39 -36l-27 30l37 35q-51 65 -51 157q0 125 76 199t195 74q107 0 178 -59l39 36l29 -29l-39 -37q52 -63 52 -158z M240 262v-25l89 83q-1 85 -11 117.5t-33 32.5q-27 0 -36 -43.5t-9 -164.5zM330 238v27l-89 -83q2 -84 11.5 -118t32.5 -34q28 0 36.5 43t8.5 165z" />
<glyph unicode="&#x218;" horiz-adv-x="578" d="M554 186q0 -101 -83 -148.5t-224 -47.5q-146 0 -196 25q-27 13 -27 48q0 44 19 91.5t41 73.5l10 -2l103 -194q18 -2 26 -2q46 0 74 24.5t28 64.5q0 36 -31 66.5t-75.5 54.5t-88.5 51t-75 71.5t-31 101.5q0 92 84.5 144t208.5 52q137 0 199 -36q22 -13 22 -39 q0 -35 -24 -86.5t-46 -71.5l-10 2l-89 189q-18 2 -26 2q-44 0 -73 -22.5t-29 -60.5q0 -39 32 -72t78 -59t92.5 -54.5t78.5 -71t32 -94.5zM366 -149q0 -65 -53.5 -127.5t-116.5 -85.5l-13 12q48 56 61 117q-32 5 -52 26.5t-20 53.5q0 44 28 70.5t70 26.5q43 0 69.5 -26 t26.5 -67z" />
<glyph unicode="&#x219;" horiz-adv-x="490" d="M213 -10q-118 0 -166 25q-27 15 -27 53q0 40 21.5 74.5t48.5 45.5l12 -6q22 -70 46 -107q29 -45 67 -45q21 0 33.5 13t12.5 34q0 27 -23.5 50.5t-56.5 43t-66.5 42t-57 58t-23.5 81.5q0 74 69 116t176 42q120 0 168 -41q22 -18 22 -39q0 -35 -25 -68t-55 -45l-12 6 q-22 80 -45 114q-23 33 -56 33q-20 0 -32.5 -12.5t-12.5 -30.5q0 -28 24.5 -53t59.5 -46t70.5 -44t60 -57t24.5 -75q0 -82 -70 -122t-187 -40zM322 -149q0 -65 -53.5 -127.5t-116.5 -85.5l-13 12q48 56 61 117q-32 5 -52 26.5t-20 53.5q0 44 28 70.5t70 26.5q43 0 69.5 -26 t26.5 -67z" />
<glyph unicode="&#x21a;" horiz-adv-x="634" d="M47 396h-10q-25 66 -25 164q0 48 7 90h596q7 -42 7 -90q0 -98 -25 -164h-10l-115 214h-46v-569l56 -25l-2 -16h-324l-2 16l27 10q17 6 22 15.5t5 30.5v538h-46zM413 -149q0 -65 -53.5 -127.5t-116.5 -85.5l-13 12q48 56 61 117q-32 5 -52 26.5t-20 53.5q0 44 28 70.5 t70 26.5q43 0 69.5 -26t26.5 -67z" />
<glyph unicode="&#x21b;" horiz-adv-x="394" d="M364 470v-35h-110v-218q0 -77 64 -77q34 0 68 28l8 -8q-20 -72 -68.5 -121t-128.5 -49q-153 0 -153 180v265h-58l-2 14l52 34l210 137l8 -2v-148h110zM295 -149q0 -65 -53.5 -127.5t-116.5 -85.5l-13 12q48 56 61 117q-32 5 -52 26.5t-20 53.5q0 44 28 70.5t70 26.5 q43 0 69.5 -26t26.5 -67z" />
<glyph unicode="&#x232;" horiz-adv-x="688" d="M195 747v106h342v-106h-342zM507 0h-324l-2 16l27 10q17 6 22 15.5t5 30.5v192l-161 308q-19 37 -45 49l-29 13l2 16h353l2 -16l-61 -24l129 -314l128 312l-59 26l2 16h190l2 -16q-12 -8 -24 -18q-42 -36 -85 -116l-126 -236v-223l56 -25z" />
<glyph unicode="&#x233;" horiz-adv-x="538" d="M104 597v106h342v-106h-342zM150 -195q-53 0 -84.5 29t-31.5 75q0 32 13 56q54 -15 107 -15q103 0 150 50h-114l-137 402q-19 58 -49 81l-4 3l2 14h312l2 -14l-47 -27l82 -325l92 329l-47 23l2 14h138l2 -14l-8 -5q-18 -11 -28 -28t-22 -51l-118 -350q-17 -50 -35 -89.5 t-44 -77.5t-60 -59t-73 -21z" />
<glyph unicode="&#x237;" horiz-adv-x="305" d="M-3 -181q53 112 53 296v321l-45 17l-1 14q49 17 122 30t126 13l8 -8v-407q0 -127 -58 -201.5t-197 -88.5z" />
<glyph unicode="&#x259;" horiz-adv-x="535" d="M27 245h268v17q0 89 -4 133.5t-12 59.5t-23 15q-36 0 -36 -81q0 -33 7 -67q-56 -20 -103 -20q-45 0 -72 17t-27 50q0 58 66.5 99.5t166.5 41.5q117 0 187 -68t70 -182q0 -122 -76.5 -196t-193.5 -74q-104 0 -167 58.5t-63 150.5q0 22 4 38zM225 158q0 -69 5.5 -98.5 t25.5 -29.5t29 38.5t10 141.5l-69 -6q-1 -16 -1 -46z" />
<glyph unicode="&#x272;" horiz-adv-x="610" d="M603 0h-296l-2 14l18 10q17 9 22 18t5 28v243q0 62 -51 62q-21 0 -39 -10v-270q0 -127 -58 -201.5t-197 -88.5l-8 14q53 112 53 296v321l-45 17l-1 14q49 17 122 30t126 13l8 -8v-105q67 113 169 113q64 0 97.5 -39t33.5 -107v-325l45 -25z" />
<glyph unicode="&#x2c6;" horiz-adv-x="438" d="M383 568l-9 -7q-83 37 -153 60q-26 -9 -159 -60l-7 10q55 95 88 159l11 8h145q41 -71 84 -170z" />
<glyph unicode="&#x2c7;" horiz-adv-x="458" d="M305 570l-11 -8h-145q-41 71 -84 170l9 7q83 -37 153 -60q26 9 159 60l7 -10q-55 -95 -88 -159z" />
<glyph unicode="&#x2d8;" horiz-adv-x="400" d="M334 744l4 1l10 -4q-8 -185 -153 -185q-68 0 -105 47.5t-38 138.5l14 4q38 -59 135 -59q87 0 133 57z" />
<glyph unicode="&#x2d9;" horiz-adv-x="350" d="M290 657q0 -46 -35.5 -73.5t-89.5 -27.5q-47 0 -76 23.5t-29 62.5q0 45 36.5 73.5t88.5 28.5q47 0 76 -23.5t29 -63.5z" />
<glyph unicode="&#x2da;" horiz-adv-x="359" d="M176 554q-47 0 -76.5 24.5t-29.5 66.5q0 45 32 72.5t82 27.5q46 0 75.5 -24.5t29.5 -65.5q0 -45 -32 -73t-81 -28zM180 698q-17 0 -27.5 -14t-10.5 -37q0 -21 10 -33t27 -12t27.5 14t10.5 37q0 20 -10 32.5t-27 12.5z" />
<glyph unicode="&#x2db;" horiz-adv-x="358" d="M293 -137q-19 -39 -56 -62t-80 -23q-41 0 -66.5 21.5t-25.5 57.5q0 47 49.5 90.5t147.5 58.5l13 -6q-27 -13 -46 -40.5t-19 -55.5q0 -38 42 -38q18 0 36 7z" />
<glyph unicode="&#x2dc;" horiz-adv-x="512" d="M372 681q8 9 24.5 26.5t24.5 26.5l10 -3q4 -23 4 -49q0 -54 -24 -85.5t-74 -31.5q-12 0 -24 1t-25 3.5t-22.5 4.5t-24 6.5t-21 6.5t-22 8t-19 7.5t-20 8.5t-17.5 7q-8 -9 -24.5 -26.5t-24.5 -26.5l-10 3q-6 27 -6 51q0 52 25.5 83.5t74.5 31.5q31 0 64 -8.5t75 -24.5 t56 -20z" />
<glyph unicode="&#x2dd;" horiz-adv-x="582" d="M295 676q0 -46 -58 -78.5t-166 -46.5l-9 11q68 99 111 183q16 2 32 2q41 0 65.5 -17.5t24.5 -53.5zM520 676q0 -46 -58 -78.5t-166 -46.5l-9 11q68 99 111 183q16 2 32 2q40 0 65 -17.5t25 -53.5z" />
<glyph unicode="&#x1e0c;" horiz-adv-x="732" d="M349 0h-319l-2 16l29 10q17 6 22 15.5t5 30.5v537l-55 25l2 16h320q155 0 253 -84t98 -236q0 -154 -99.5 -242t-253.5 -88zM327 610h-25v-570h26q73 0 113 75.5t41 214.5q1 138 -39 209t-116 71zM473 -143q0 -46 -35.5 -73.5t-89.5 -27.5q-47 0 -76 23.5t-29 62.5 q0 45 36.5 73.5t88.5 28.5q47 0 76 -23.5t29 -63.5z" />
<glyph unicode="&#x1e0d;" horiz-adv-x="590" d="M20 236q0 141 72.5 207.5t185.5 66.5q26 0 52 -3v114l-45 17l-1 14q49 17 122 30t126 13l8 -8v-539q0 -36 7.5 -50t25.5 -14q11 0 22 3l6 -10q-26 -42 -61 -64.5t-88 -22.5q-46 0 -78 23.5t-41 59.5q-46 -83 -141 -83q-79 0 -125.5 65t-46.5 181zM240 272q0 -177 67 -177 q13 0 23 6v347q-10 2 -16 2q-74 0 -74 -178zM408 -143q0 -46 -35.5 -73.5t-89.5 -27.5q-47 0 -76 23.5t-29 62.5q0 45 36.5 73.5t88.5 28.5q47 0 76 -23.5t29 -63.5z" />
<glyph unicode="&#x1e24;" horiz-adv-x="784" d="M356 0h-324l-2 16l27 10q17 6 22 15.5t5 30.5v537l-56 25l2 16h324l2 -16l-27 -10q-17 -6 -22 -15.5t-5 -30.5v-224h180v255l-56 25l2 16h324l2 -16l-27 -10q-17 -6 -22 -15.5t-5 -30.5v-537l56 -25l-2 -16h-324l-2 16l27 10q17 6 22 15.5t5 30.5v237h-180v-268l56 -25z M506 -143q0 -46 -35.5 -73.5t-89.5 -27.5q-47 0 -76 23.5t-29 62.5q0 45 36.5 73.5t88.5 28.5q47 0 76 -23.5t29 -63.5z" />
<glyph unicode="&#x1e25;" horiz-adv-x="610" d="M303 0h-296l-2 14l18 10q17 9 22 18t5 28v551l-45 17l-1 14q49 17 122 30t126 13l8 -8v-290q67 113 169 113q64 0 97.5 -39t33.5 -107v-325l45 -25l-2 -14h-239l-14 14v299q0 62 -51 62q-21 0 -39 -10v-326l45 -25zM422 -143q0 -46 -35.5 -73.5t-89.5 -27.5 q-47 0 -76 23.5t-29 62.5q0 45 36.5 73.5t88.5 28.5q47 0 76 -23.5t29 -63.5z" />
<glyph unicode="&#x1e44;" horiz-adv-x="656" d="M459 807q0 -46 -35.5 -73.5t-89.5 -27.5q-47 0 -76 23.5t-29 62.5q0 45 36.5 73.5t88.5 28.5q47 0 76 -23.5t29 -63.5zM211 0h-199l-2 16l47 15q17 6 22 14t5 27v537l-74 25l2 16h220l307 -412v371l-84 25l2 16h199l2 -16l-47 -15q-17 -6 -22 -14t-5 -27v-578h-148 l-307 421v-380l84 -25z" />
<glyph unicode="&#x1e45;" d="M422 657q0 -46 -35.5 -73.5t-89.5 -27.5q-47 0 -76 23.5t-29 62.5q0 45 36.5 73.5t88.5 28.5q47 0 76 -23.5t29 -63.5zM308 0h-296l-2 14l18 10q17 9 22 18t5 28v366l-45 17l-1 14q49 17 122 30t126 13l8 -8v-105q67 113 169 113q64 0 97.5 -39t33.5 -107v-325l45 -25 l-2 -14h-239l-14 14v299q0 62 -51 62q-21 0 -39 -10v-326l45 -25z" />
<glyph unicode="&#x1e5a;" horiz-adv-x="751" d="M356 0h-324l-2 16l27 10q17 6 22 15.5t5 30.5v537l-55 25l2 16h322q141 0 223.5 -49t82.5 -142q0 -91 -104 -149l120 -219q20 -38 53 -60l23 -15l-2 -16l-191 -3q-52 -1 -80 19.5t-47 67.5l-73 176h-56v-219l56 -25zM328 610h-26v-310h33q47 0 75.5 41.5t28.5 111.5 q0 71 -31 114t-80 43zM495 -143q0 -46 -35.5 -73.5t-89.5 -27.5q-47 0 -76 23.5t-29 62.5q0 45 36.5 73.5t88.5 28.5q47 0 76 -23.5t29 -63.5z" />
<glyph unicode="&#x1e5b;" horiz-adv-x="455" d="M328 0h-316l-2 14l18 10q17 9 22 18t5 28v366l-45 17l-1 14q49 17 122 30t126 13l8 -8v-165q47 173 127 173q63 0 63 -92q0 -69 -30 -120l-10 -3q-29 6 -72 9q-41 3 -78 3v-268l65 -25zM277 -143q0 -46 -35.5 -73.5t-89.5 -27.5q-47 0 -76 23.5t-29 62.5q0 45 36.5 73.5 t88.5 28.5q47 0 76 -23.5t29 -63.5z" />
<glyph unicode="&#x1e62;" horiz-adv-x="578" d="M554 186q0 -101 -83 -148.5t-224 -47.5q-146 0 -196 25q-27 13 -27 48q0 44 19 91.5t41 73.5l10 -2l103 -194q18 -2 26 -2q46 0 74 24.5t28 64.5q0 36 -31 66.5t-75.5 54.5t-88.5 51t-75 71.5t-31 101.5q0 92 84.5 144t208.5 52q137 0 199 -36q22 -13 22 -39 q0 -35 -24 -86.5t-46 -71.5l-10 2l-89 189q-18 2 -26 2q-44 0 -73 -22.5t-29 -60.5q0 -39 32 -72t78 -59t92.5 -54.5t78.5 -71t32 -94.5zM385 -143q0 -46 -35.5 -73.5t-89.5 -27.5q-47 0 -76 23.5t-29 62.5q0 45 36.5 73.5t88.5 28.5q47 0 76 -23.5t29 -63.5z" />
<glyph unicode="&#x1e63;" horiz-adv-x="490" d="M213 -10q-118 0 -166 25q-27 15 -27 53q0 40 21.5 74.5t48.5 45.5l12 -6q22 -70 46 -107q29 -45 67 -45q21 0 33.5 13t12.5 34q0 27 -23.5 50.5t-56.5 43t-66.5 42t-57 58t-23.5 81.5q0 74 69 116t176 42q120 0 168 -41q22 -18 22 -39q0 -35 -25 -68t-55 -45l-12 6 q-22 80 -45 114q-23 33 -56 33q-20 0 -32.5 -12.5t-12.5 -30.5q0 -28 24.5 -53t59.5 -46t70.5 -44t60 -57t24.5 -75q0 -82 -70 -122t-187 -40zM341 -143q0 -46 -35.5 -73.5t-89.5 -27.5q-47 0 -76 23.5t-29 62.5q0 45 36.5 73.5t88.5 28.5q47 0 76 -23.5t29 -63.5z" />
<glyph unicode="&#x1e6c;" horiz-adv-x="634" d="M47 396h-10q-25 66 -25 164q0 48 7 90h596q7 -42 7 -90q0 -98 -25 -164h-10l-115 214h-46v-569l56 -25l-2 -16h-324l-2 16l27 10q17 6 22 15.5t5 30.5v538h-46zM432 -143q0 -46 -35.5 -73.5t-89.5 -27.5q-47 0 -76 23.5t-29 62.5q0 45 36.5 73.5t88.5 28.5q47 0 76 -23.5 t29 -63.5z" />
<glyph unicode="&#x1e6d;" horiz-adv-x="394" d="M364 470v-35h-110v-218q0 -77 64 -77q34 0 68 28l8 -8q-20 -72 -68.5 -121t-128.5 -49q-153 0 -153 180v265h-58l-2 14l52 34l210 137l8 -2v-148h110zM314 -143q0 -46 -35.5 -73.5t-89.5 -27.5q-47 0 -76 23.5t-29 62.5q0 45 36.5 73.5t88.5 28.5q47 0 76 -23.5t29 -63.5 z" />
<glyph unicode="&#x1e80;" horiz-adv-x="1047" d="M684 713l-9 -11q-120 14 -184 46.5t-64 78.5q0 36 29 53.5t77 17.5q20 0 40 -2q43 -84 111 -183zM392 0h-115l-203 572q-12 34 -45 49l-29 13l2 16h353l2 -16l-63 -25l125 -406l80 288l-26 81q-11 33 -45 49l-29 13l2 16h353l2 -16l-65 -25l108 -409l112 407l-71 27l2 16 h203l2 -16q-29 -12 -47 -30q-33 -31 -64 -124l-165 -480h-115l-131 408z" />
<glyph unicode="&#x1e81;" horiz-adv-x="824" d="M571 562l-9 -11q-120 14 -184 46.5t-64 78.5q0 36 29 53.5t77 17.5q20 0 40 -2q43 -84 111 -183zM434 500h120l83 -366l92 329l-47 23l2 14h138l2 -14q-20 -15 -33 -30q-12 -16 -25 -54l-136 -402h-154l-66 194l-66 -194h-154l-137 402q-19 58 -49 81l-4 3l2 14h312 l2 -14l-47 -27l82 -325z" />
<glyph unicode="&#x1e82;" horiz-adv-x="1047" d="M691 832q0 -46 -64 -78.5t-184 -46.5l-9 11q68 99 111 183q20 2 40 2q48 0 77 -17.5t29 -53.5zM392 0h-115l-203 572q-12 34 -45 49l-29 13l2 16h353l2 -16l-63 -25l125 -406l80 288l-26 81q-11 33 -45 49l-29 13l2 16h353l2 -16l-65 -25l108 -409l112 407l-71 27l2 16 h203l2 -16q-29 -12 -47 -30q-33 -31 -64 -124l-165 -480h-115l-131 408z" />
<glyph unicode="&#x1e83;" horiz-adv-x="824" d="M588 676q0 -46 -64 -78.5t-184 -46.5l-9 11q68 99 111 183q20 2 40 2q48 0 77 -17.5t29 -53.5zM434 500h120l83 -366l92 329l-47 23l2 14h138l2 -14q-20 -15 -33 -30q-12 -16 -25 -54l-136 -402h-154l-66 194l-66 -194h-154l-137 402q-19 58 -49 81l-4 3l2 14h312l2 -14 l-47 -27l82 -325z" />
<glyph unicode="&#x1e84;" horiz-adv-x="1047" d="M523 807q0 -42 -30.5 -67.5t-77.5 -25.5q-39 0 -63.5 21.5t-24.5 56.5q0 41 31.5 67.5t76.5 26.5q40 0 64 -21.5t24 -57.5zM779 807q0 -42 -30.5 -67.5t-77.5 -25.5q-39 0 -63.5 21.5t-24.5 56.5q0 41 31.5 67.5t76.5 26.5q40 0 64 -21.5t24 -57.5zM392 0h-115l-203 572 q-12 34 -45 49l-29 13l2 16h353l2 -16l-63 -25l125 -406l80 288l-26 81q-11 33 -45 49l-29 13l2 16h353l2 -16l-65 -25l108 -409l112 407l-71 27l2 16h203l2 -16q-29 -12 -47 -30q-33 -31 -64 -124l-165 -480h-115l-131 408z" />
<glyph unicode="&#x1e85;" horiz-adv-x="824" d="M409 657q0 -42 -30.5 -67.5t-77.5 -25.5q-39 0 -63.5 21.5t-24.5 56.5q0 41 31.5 67.5t76.5 26.5q40 0 64 -21.5t24 -57.5zM665 657q0 -42 -30.5 -67.5t-77.5 -25.5q-39 0 -63.5 21.5t-24.5 56.5q0 41 31.5 67.5t76.5 26.5q40 0 64 -21.5t24 -57.5zM434 500h120l83 -366 l92 329l-47 23l2 14h138l2 -14q-20 -15 -33 -30q-12 -16 -25 -54l-136 -402h-154l-66 194l-66 -194h-154l-137 402q-19 58 -49 81l-4 3l2 14h312l2 -14l-47 -27l82 -325z" />
<glyph unicode="&#x1e92;" horiz-adv-x="617" d="M581 101q0 -56 -7 -101h-522l-16 90l315 520h-145l-131 -214h-10q-25 64 -25 159q0 50 7 95h515l16 -90l-309 -520h147l130 214h10q25 -58 25 -153zM422 -143q0 -46 -35.5 -73.5t-89.5 -27.5q-47 0 -76 23.5t-29 62.5q0 45 36.5 73.5t88.5 28.5q47 0 76 -23.5t29 -63.5z " />
<glyph unicode="&#x1e93;" horiz-adv-x="500" d="M478 81q0 -45 -7 -81h-437l-14 80l251 390h-91l-123 -184h-10q-25 56 -25 139q0 40 7 75h437l14 -80l-246 -390h87l122 184h10q25 -50 25 -133zM366 -143q0 -46 -35.5 -73.5t-89.5 -27.5q-47 0 -76 23.5t-29 62.5q0 45 36.5 73.5t88.5 28.5q47 0 76 -23.5t29 -63.5z" />
<glyph unicode="&#x1e9e;" horiz-adv-x="799" d="M416 660q75 0 142.5 -21.5t103.5 -52.5l1 -16l-137 -124q265 -95 265 -262q0 -92 -71.5 -143t-187.5 -51q-150 0 -170 29q-19 29 -19 70q0 73 40 116l15 -2q15 -77 47 -125q34 -48 70 -48q46 0 46 65q0 75 -48 134t-139 91l-3 16l159 172q-32 112 -118 112 q-55 0 -84.5 -47t-29.5 -123v-434l-16 -16h-256l-2 16l29 10q17 6 22 15.5t5 30.5v328q0 111 96.5 185.5t239.5 74.5z" />
<glyph unicode="&#x1ea0;" horiz-adv-x="698" d="M291 650h115l218 -572q12 -34 45 -49l29 -13l-2 -16h-353l-2 16l63 25l-42 122l-210 -2l-44 -119l69 -26l-2 -16h-173l-2 16l31 11q13 5 22 14t12 15.5t11 27.5zM168 203h180l-86 253zM380 -143q0 -46 -35.5 -73.5t-89.5 -27.5q-47 0 -76 23.5t-29 62.5q0 45 36.5 73.5 t88.5 28.5q47 0 76 -23.5t29 -63.5z" />
<glyph unicode="&#x1ea1;" horiz-adv-x="565" d="M579 77q-54 -87 -149 -87q-47 0 -80 23.5t-42 59.5q-46 -83 -149 -83q-55 0 -94.5 34t-39.5 88q0 75 74 115t206 44v137q0 62 -33 62q-37 0 -37 -76q0 -36 7 -72q-53 -20 -98 -20q-43 0 -68.5 17t-25.5 50q0 56 72.5 98.5t173.5 42.5q224 0 224 -200q0 -30 -2.5 -88 t-2.5 -74q0 -36 8 -50t28 -14q13 0 22 3zM245 155q0 -30 11.5 -45t28.5 -15q13 0 20 6v140q-28 -4 -44 -27t-16 -59zM408 -143q0 -46 -35.5 -73.5t-89.5 -27.5q-47 0 -76 23.5t-29 62.5q0 45 36.5 73.5t88.5 28.5q47 0 76 -23.5t29 -63.5z" />
<glyph unicode="&#x1eb8;" horiz-adv-x="595" d="M558 0h-528l-2 16l29 10q17 6 22 15.5t5 30.5v537l-55 25l2 16h518q7 -35 7 -75q0 -83 -25 -139h-10l-125 174h-94v-265l157 15l-3 -70l-154 15v-265h102l126 181h10q25 -58 25 -143q0 -42 -7 -78zM422 -143q0 -46 -35.5 -73.5t-89.5 -27.5q-47 0 -76 23.5t-29 62.5 q0 45 36.5 73.5t88.5 28.5q47 0 76 -23.5t29 -63.5z" />
<glyph unicode="&#x1eb9;" horiz-adv-x="535" d="M510 160q-21 -75 -82 -122.5t-158 -47.5q-106 0 -178 69t-72 181q0 122 76.5 196t193.5 74q104 0 167 -59t63 -153q0 -16 -4 -40l-8 -8h-260q28 -110 144 -110q56 0 110 28zM240 324q0 -15 2 -39l67 6q1 17 1 48q0 71 -5.5 101t-25.5 30q-39 0 -39 -146zM382 -143 q0 -46 -35.5 -73.5t-89.5 -27.5q-47 0 -76 23.5t-29 62.5q0 45 36.5 73.5t88.5 28.5q47 0 76 -23.5t29 -63.5z" />
<glyph unicode="&#x1ebc;" horiz-adv-x="595" d="M427 831q8 9 24.5 26.5t24.5 26.5l10 -3q4 -23 4 -49q0 -54 -24 -85.5t-74 -31.5q-12 0 -24 1t-25 3.5t-22.5 4.5t-24 6.5t-21 6.5t-22 8t-19 7.5t-20 8.5t-17.5 7q-8 -9 -24.5 -26.5t-24.5 -26.5l-10 3q-6 27 -6 51q0 52 25.5 83.5t74.5 31.5q31 0 64 -8.5t75 -24.5 t56 -20zM558 0h-528l-2 16l29 10q17 6 22 15.5t5 30.5v537l-55 25l2 16h518q7 -35 7 -75q0 -83 -25 -139h-10l-125 174h-94v-265l157 15l-3 -70l-154 15v-265h102l126 181h10q25 -58 25 -143q0 -42 -7 -78z" />
<glyph unicode="&#x1ebd;" horiz-adv-x="535" d="M391 681q8 9 24.5 26.5t24.5 26.5l10 -3q4 -23 4 -49q0 -54 -24 -85.5t-74 -31.5q-12 0 -24 1t-25 3.5t-22.5 4.5t-24 6.5t-21 6.5t-22 8t-19 7.5t-20 8.5t-17.5 7q-8 -9 -24.5 -26.5t-24.5 -26.5l-10 3q-6 27 -6 51q0 52 25.5 83.5t74.5 31.5q31 0 64 -8.5t75 -24.5 t56 -20zM510 160q-21 -75 -82 -122.5t-158 -47.5q-106 0 -178 69t-72 181q0 122 76.5 196t193.5 74q104 0 167 -59t63 -153q0 -16 -4 -40l-8 -8h-260q28 -110 144 -110q56 0 110 28zM240 324q0 -15 2 -39l67 6q1 17 1 48q0 71 -5.5 101t-25.5 30q-39 0 -39 -146z" />
<glyph unicode="&#x1eca;" horiz-adv-x="386" d="M356 0h-324l-2 16l27 10q17 6 22 15.5t5 30.5v537l-56 25l2 16h324l2 -16l-27 -10q-17 -6 -22 -15.5t-5 -30.5v-537l56 -25zM309 -143q0 -46 -35.5 -73.5t-89.5 -27.5q-47 0 -76 23.5t-29 62.5q0 45 36.5 73.5t88.5 28.5q47 0 76 -23.5t29 -63.5z" />
<glyph unicode="&#x1ecb;" horiz-adv-x="315" d="M274 657q0 -46 -35.5 -73.5t-89.5 -27.5q-47 0 -76 23.5t-29 62.5q0 45 36.5 73.5t88.5 28.5q47 0 76 -23.5t29 -63.5zM308 0h-296l-2 14l18 10q17 9 22 18t5 28v366l-45 17l-1 14q49 17 122 30t126 13l8 -8v-463l45 -25zM275 -143q0 -46 -35.5 -73.5t-89.5 -27.5 q-47 0 -76 23.5t-29 62.5q0 45 36.5 73.5t88.5 28.5q47 0 76 -23.5t29 -63.5z" />
<glyph unicode="&#x1ecc;" horiz-adv-x="710" d="M672 330q0 -159 -91.5 -249.5t-234.5 -90.5q-145 0 -234.5 89.5t-89.5 245.5q0 155 94 245t232 90q144 0 234 -86.5t90 -243.5zM257 325q-1 -158 20.5 -226.5t71.5 -68.5q49 0 68 69.5t20 230.5q1 158 -18.5 224t-70.5 66t-70.5 -67t-20.5 -228zM462 -143 q0 -46 -35.5 -73.5t-89.5 -27.5q-47 0 -76 23.5t-29 62.5q0 45 36.5 73.5t88.5 28.5q47 0 76 -23.5t29 -63.5z" />
<glyph unicode="&#x1ecd;" horiz-adv-x="570" d="M550 263q0 -125 -76 -199t-195 -74q-114 0 -186.5 67t-72.5 180q0 125 76 199t195 74q114 0 186.5 -67t72.5 -180zM240 262q0 -135 8.5 -183.5t36.5 -48.5t36.5 43t8.5 165q0 137 -8.5 184.5t-36.5 47.5q-27 0 -36 -43.5t-9 -164.5zM400 -143q0 -46 -35.5 -73.5 t-89.5 -27.5q-47 0 -76 23.5t-29 62.5q0 45 36.5 73.5t88.5 28.5q47 0 76 -23.5t29 -63.5z" />
<glyph unicode="&#x1ee4;" horiz-adv-x="681" d="M607 226q0 -236 -254 -236q-121 0 -195 62t-74 177v380l-56 25l2 16h324l2 -16l-27 -10q-17 -6 -22 -15.5t-5 -30.5v-340q0 -185 129 -185q61 0 96 44.5t35 128.5v384l-74 24l2 16h189l2 -16l-74 -24v-384zM462 -143q0 -46 -35.5 -73.5t-89.5 -27.5q-47 0 -76 23.5 t-29 62.5q0 45 36.5 73.5t88.5 28.5q47 0 76 -23.5t29 -63.5z" />
<glyph unicode="&#x1ee5;" d="M626 73q-55 -83 -151 -83q-55 0 -90 31.5t-35 75.5v6q-51 -113 -158 -113q-66 0 -104 40.5t-38 109.5v296l-45 17l-1 14q49 17 122 30t126 13l8 -8v-315q0 -32 12 -47t40 -15q21 0 38 10v301l-45 17l-1 14q49 17 122 30t126 13l8 -8v-354q0 -36 8 -50t28 -14q13 0 22 3z M436 -143q0 -46 -35.5 -73.5t-89.5 -27.5q-47 0 -76 23.5t-29 62.5q0 45 36.5 73.5t88.5 28.5q47 0 76 -23.5t29 -63.5z" />
<glyph unicode="&#x1ef2;" horiz-adv-x="688" d="M497 713l-9 -11q-120 14 -184 46.5t-64 78.5q0 36 29 53.5t77 17.5q20 0 40 -2q43 -84 111 -183zM507 0h-324l-2 16l27 10q17 6 22 15.5t5 30.5v192l-161 308q-19 37 -45 49l-29 13l2 16h353l2 -16l-61 -24l129 -314l128 312l-59 26l2 16h190l2 -16q-12 -8 -24 -18 q-42 -36 -85 -116l-126 -236v-223l56 -25z" />
<glyph unicode="&#x1ef3;" horiz-adv-x="538" d="M405 562l-9 -11q-120 14 -184 46.5t-64 78.5q0 36 29 53.5t77 17.5q20 0 40 -2q43 -84 111 -183zM150 -195q-53 0 -84.5 29t-31.5 75q0 32 13 56q54 -15 107 -15q103 0 150 50h-114l-137 402q-19 58 -49 81l-4 3l2 14h312l2 -14l-47 -27l82 -325l92 329l-47 23l2 14h138 l2 -14l-8 -5q-18 -11 -28 -28t-22 -51l-118 -350q-17 -50 -35 -89.5t-44 -77.5t-60 -59t-73 -21z" />
<glyph unicode="&#x1ef8;" horiz-adv-x="688" d="M482 831q8 9 24.5 26.5t24.5 26.5l10 -3q4 -23 4 -49q0 -54 -24 -85.5t-74 -31.5q-12 0 -24 1t-25 3.5t-22.5 4.5t-24 6.5t-21 6.5t-22 8t-19 7.5t-20 8.5t-17.5 7q-8 -9 -24.5 -26.5t-24.5 -26.5l-10 3q-6 27 -6 51q0 52 25.5 83.5t74.5 31.5q31 0 64 -8.5t75 -24.5 t56 -20zM507 0h-324l-2 16l27 10q17 6 22 15.5t5 30.5v192l-161 308q-19 37 -45 49l-29 13l2 16h353l2 -16l-61 -24l129 -314l128 312l-59 26l2 16h190l2 -16q-12 -8 -24 -18q-42 -36 -85 -116l-126 -236v-223l56 -25z" />
<glyph unicode="&#x1ef9;" horiz-adv-x="538" d="M390 681q8 9 24.5 26.5t24.5 26.5l10 -3q4 -23 4 -49q0 -54 -24 -85.5t-74 -31.5q-12 0 -24 1t-25 3.5t-22.5 4.5t-24 6.5t-21 6.5t-22 8t-19 7.5t-20 8.5t-17.5 7q-8 -9 -24.5 -26.5t-24.5 -26.5l-10 3q-6 27 -6 51q0 52 25.5 83.5t74.5 31.5q31 0 64 -8.5t75 -24.5 t56 -20zM150 -195q-53 0 -84.5 29t-31.5 75q0 32 13 56q54 -15 107 -15q103 0 150 50h-114l-137 402q-19 58 -49 81l-4 3l2 14h312l2 -14l-47 -27l82 -325l92 329l-47 23l2 14h138l2 -14l-8 -5q-18 -11 -28 -28t-22 -51l-118 -350q-17 -50 -35 -89.5t-44 -77.5t-60 -59 t-73 -21z" />
<glyph unicode="&#x2013;" horiz-adv-x="544" d="M24 250v45h496v-45h-496z" />
<glyph unicode="&#x2014;" horiz-adv-x="848" d="M24 250v45h800v-45h-800z" />
<glyph unicode="&#x2018;" horiz-adv-x="263" d="M40 464q0 70 53 137.5t117 93.5l13 -12q-54 -64 -69 -139q30 -5 48 -25.5t18 -51.5q0 -44 -26 -69.5t-65 -25.5q-40 0 -64.5 26t-24.5 66z" />
<glyph unicode="&#x2019;" horiz-adv-x="263" d="M223 603q0 -70 -53 -137.5t-117 -93.5l-13 12q54 64 69 139q-30 5 -48 25.5t-18 51.5q0 44 26 69.5t65 25.5q40 0 64.5 -26t24.5 -66z" />
<glyph unicode="&#x201a;" horiz-adv-x="263" d="M223 72q0 -70 -53 -137.5t-117 -93.5l-13 12q54 64 69 139q-30 5 -48 25.5t-18 51.5q0 44 26 69.5t65 25.5q40 0 64.5 -26t24.5 -66z" />
<glyph unicode="&#x201c;" horiz-adv-x="481" d="M40 464q0 70 53 137.5t117 93.5l13 -12q-54 -64 -69 -139q30 -5 48 -25.5t18 -51.5q0 -44 -26 -69.5t-65 -25.5q-40 0 -64.5 26t-24.5 66zM258 464q0 70 53 137.5t117 93.5l13 -12q-54 -64 -69 -139q30 -5 48 -25.5t18 -51.5q0 -44 -26 -69.5t-65 -25.5q-40 0 -64.5 26 t-24.5 66z" />
<glyph unicode="&#x201d;" horiz-adv-x="481" d="M441 603q0 -70 -53 -137.5t-117 -93.5l-13 12q54 64 69 139q-30 5 -48 25.5t-18 51.5q0 44 26 69.5t65 25.5q40 0 64.5 -26t24.5 -66zM223 603q0 -70 -53 -137.5t-117 -93.5l-13 12q54 64 69 139q-30 5 -48 25.5t-18 51.5q0 44 26 69.5t65 25.5q40 0 64.5 -26t24.5 -66z " />
<glyph unicode="&#x201e;" horiz-adv-x="481" d="M441 72q0 -70 -53 -137.5t-117 -93.5l-13 12q54 64 69 139q-30 5 -48 25.5t-18 51.5q0 44 26 69.5t65 25.5q40 0 64.5 -26t24.5 -66zM223 72q0 -70 -53 -137.5t-117 -93.5l-13 12q54 64 69 139q-30 5 -48 25.5t-18 51.5q0 44 26 69.5t65 25.5q40 0 64.5 -26t24.5 -66z " />
<glyph unicode="&#x2020;" horiz-adv-x="506" d="M264 -10h-22l-124 124l121 293l-185 -94l-4 3q-10 83 -10 209l11 6l187 -94l-110 203l3 4q99 10 239 10l8 -8l-110 -209l184 94l4 -3q10 -83 10 -209l-11 -6l-188 94l121 -293z" />
<glyph unicode="&#x2021;" horiz-adv-x="546" d="M60 295l11 6l193 -104q-76 100 -76 128q0 27 70 120l-184 -96l-4 3q-10 83 -10 219l11 6l194 -104l-127 167l3 4q99 10 259 10l8 -8l-127 -174l191 105l4 -3q10 -83 10 -219l-11 -6l-188 97l13.5 -18t14.5 -19.5t12.5 -18t12.5 -19.5t9 -16.5t7 -16.5t2 -13 q0 -20 -76 -128l190 104l4 -3q10 -83 10 -219l-11 -6l-188 97l121 -160l-3 -4q-99 -10 -259 -10l-8 8l121 166l-185 -97l-4 3q-10 83 -10 219z" />
<glyph unicode="&#x2022;" horiz-adv-x="460" d="M224 181q-61 0 -101.5 37.5t-42.5 91.5q-2 65 47 112.5t116 47.5q57 0 96 -35.5t41 -93.5q2 -67 -43 -113.5t-113 -46.5z" />
<glyph unicode="&#x2026;" horiz-adv-x="700" d="M568 -10q-39 0 -63.5 23t-24.5 59q0 39 28.5 65.5t68.5 26.5q36 0 59.5 -21.5t23.5 -56.5q0 -40 -26.5 -68t-65.5 -28zM348 -10q-39 0 -63.5 23t-24.5 59q0 39 28.5 65.5t68.5 26.5q36 0 59.5 -21.5t23.5 -56.5q0 -40 -26.5 -68t-65.5 -28zM128 -10q-39 0 -63.5 23 t-24.5 59q0 39 28.5 65.5t68.5 26.5q36 0 59.5 -21.5t23.5 -56.5q0 -40 -26.5 -68t-65.5 -28z" />
<glyph unicode="&#x2030;" horiz-adv-x="1485" d="M668 660h101l-397 -670h-103zM445 475q0 -90 -60 -140t-146 -50q-84 0 -141.5 49t-57.5 138q0 88 61 136.5t144 48.5q85 0 142.5 -46.5t57.5 -135.5zM243 313q20 0 26 37.5t6 124.5q0 86 -6 120t-26 34t-26 -34t-7 -123q-1 -84 6.5 -121.5t26.5 -37.5zM1000 183 q0 -90 -60 -140t-146 -50q-84 0 -141.5 49t-57.5 138q0 88 61 136.5t144 48.5q85 0 142.5 -46.5t57.5 -135.5zM1445 183q0 -90 -60 -140t-146 -50q-84 0 -141.5 49t-57.5 138q0 88 61 136.5t144 48.5q85 0 142.5 -46.5t57.5 -135.5zM798 21q20 0 26 37.5t6 124.5 q0 86 -6 120t-26 34t-26 -34t-7 -123q-1 -84 6.5 -121.5t26.5 -37.5zM1243 21q20 0 26 37.5t6 124.5q0 86 -6 120t-26 34t-26 -34t-7 -123q-1 -84 6.5 -121.5t26.5 -37.5z" />
<glyph unicode="&#x2039;" horiz-adv-x="348" d="M285 52l-11 -8q-94 91 -211 179l-3 6v50q176 146 217 185l11 -8q-39 -115 -82 -206q39 -73 79 -198z" />
<glyph unicode="&#x203a;" horiz-adv-x="348" d="M288 229q-176 -146 -217 -185l-11 8q39 115 82 206q-39 73 -79 198l11 8q94 -91 211 -179l3 -6v-50z" />
<glyph unicode="&#x2044;" horiz-adv-x="260" d="M279 660h101l-397 -670h-103z" />
<glyph unicode="&#x2070;" horiz-adv-x="469" d="M437 555q0 -90 -60 -140t-146 -50q-84 0 -141.5 49t-57.5 138q0 88 61 136.5t144 48.5q85 0 142.5 -46.5t57.5 -135.5zM235 393q20 0 26 37.5t6 124.5q0 86 -6 120t-26 34t-26 -34t-7 -123q-1 -84 6.5 -121.5t26.5 -37.5z" />
<glyph unicode="&#x2071;" horiz-adv-x="245" d="M116 760q-38 0 -61.5 17.5t-23.5 45.5q0 32 30 53.5t71 21.5q38 0 61.5 -17.5t23.5 -46.5q0 -33 -28.5 -53.5t-72.5 -20.5zM239 372h-228l-1 10l13 7q13 7 17 13t4 20v263l-35 12v10q96 30 191 30l6 -6v-331l34 -18z" />
<glyph unicode="&#x2074;" horiz-adv-x="417" d="M32 500l210 237l91 -7v-230h52l-5 -50h-47v-78h-158v78h-137zM75 500h100v121z" />
<glyph unicode="&#x2075;" horiz-adv-x="390" d="M358 463q0 -47 -51.5 -72.5t-131.5 -25.5q-62 0 -102.5 15.5t-40.5 41.5q0 21 29 35.5t69 13.5h4q0 -78 29 -78q26 0 26 48q0 49 -34 74t-89 27l-8 7l6 181h275q1 -63 -17 -132h-10q-5 22 -14.5 29.5t-33.5 7.5h-146l-3 -70q28 2 49 2q89 0 141.5 -28.5t52.5 -75.5z" />
<glyph unicode="&#x2076;" horiz-adv-x="454" d="M422 490q0 -57 -52 -91t-143 -34q-88 0 -141.5 41t-53.5 115q0 96 88 156t246 60l2 -8q-128 -42 -157 -151q38 18 82 18q59 0 94 -27t35 -79zM202 499q0 -106 32 -106q28 0 28 69q0 92 -41 92q-11 0 -15 -2q-4 -21 -4 -53z" />
<glyph unicode="&#x2077;" horiz-adv-x="358" d="M249 372h-158q0 152 194 263h-205q-25 0 -38 -36h-10q5 79 23 131h262l9 -92q-42 -36 -62 -105.5t-15 -160.5z" />
<glyph unicode="&#x2078;" horiz-adv-x="430" d="M398 471q0 -46 -50.5 -76t-138.5 -30q-73 0 -125 23.5t-52 63.5q0 59 103 78q-27 16 -43 28t-29.5 32.5t-13.5 44.5q0 44 49 73t129 29q69 0 111 -22.5t42 -58.5q0 -51 -85 -70q26 -14 38.5 -22t30.5 -22.5t26 -32t8 -38.5zM207 678q0 -37 46 -69q9 24 9 58q0 42 -29 42 q-12 0 -19 -9t-7 -22zM181 444q0 -51 29 -51q11 0 18 9t7 23q0 40 -47 73q-7 -28 -7 -54z" />
<glyph unicode="&#x2079;" horiz-adv-x="454" d="M32 612q0 57 52 91t143 34q88 0 141.5 -41t53.5 -115q0 -96 -88 -156t-246 -60l-2 8q128 42 157 151q-38 -18 -82 -18q-59 0 -94 27t-35 79zM192 640q0 -92 41 -92q11 0 15 2q4 21 4 53q0 106 -32 106q-28 0 -28 -69z" />
<glyph unicode="&#x207f;" horiz-adv-x="475" d="M239 372h-228l-2 10l14 7q13 7 17 13t4 20v263l-35 12v10q96 30 191 30l6 -6v-74q50 80 129 80q49 0 75 -28t26 -77v-232l34 -18l-1 -10h-185l-10 10v215q0 45 -39 45q-15 0 -29 -8v-234l34 -18z" />
<glyph unicode="&#x2080;" horiz-adv-x="469" d="M437 83q0 -90 -60 -140t-146 -50q-84 0 -141.5 49t-57.5 138q0 88 61 136.5t144 48.5q85 0 142.5 -46.5t57.5 -135.5zM235 -79q20 0 26 37.5t6 124.5q0 86 -6 120t-26 34t-26 -34t-7 -123q-1 -84 6.5 -121.5t26.5 -37.5z" />
<glyph unicode="&#x2081;" horiz-adv-x="301" d="M268 -100h-234l-2 10l24 8q12 4 15 8t3 16v265l-40 3l-1 10l194 45l5 -5v-336l37 -14z" />
<glyph unicode="&#x2082;" horiz-adv-x="377" d="M51 -100l-9 76q60 25 94 63.5t34 78.5q0 26 -15.5 41.5t-42.5 15.5q-47 0 -71 -45l-9 2q13 61 62 97t113 36q61 0 97 -30t36 -77q0 -28 -16.5 -52t-51.5 -44.5t-65 -34t-81 -32.5h149q45 0 60 38l10 -1q-2 -79 -19 -132h-275z" />
<glyph unicode="&#x2083;" horiz-adv-x="394" d="M362 -9q0 -45 -53.5 -71.5t-127.5 -26.5q-60 0 -104.5 14.5t-44.5 42.5q0 21 28.5 34.5t69.5 14.5h5q0 -78 32 -78q25 0 25 55q0 36 -18.5 56t-47.5 20q-6 0 -18 -2l-6 17q80 11 80 62q0 19 -13.5 31t-35.5 12q-44 0 -70 -43l-8 3q12 61 59.5 97t111.5 36q56 0 91 -25 t35 -65q0 -78 -139 -95q65 -3 107 -26t42 -63z" />
<glyph unicode="&#x2084;" horiz-adv-x="417" d="M32 28l210 237l91 -7v-230h52l-5 -50h-47v-78h-158v78h-137zM75 28h100v121z" />
<glyph unicode="&#x2085;" horiz-adv-x="390" d="M358 -9q0 -47 -51.5 -72.5t-131.5 -25.5q-62 0 -102.5 15.5t-40.5 41.5q0 21 29 35.5t69 13.5h4q0 -78 29 -78q26 0 26 48q0 49 -34 74t-89 27l-8 7l6 181h275q1 -63 -17 -132h-10q-5 22 -14.5 29.5t-33.5 7.5h-146l-3 -70q28 2 49 2q89 0 141.5 -28.5t52.5 -75.5z" />
<glyph unicode="&#x2086;" horiz-adv-x="454" d="M422 18q0 -57 -52 -91t-143 -34q-88 0 -141.5 41t-53.5 115q0 96 88 156t246 60l2 -8q-128 -42 -157 -151q38 18 82 18q59 0 94 -27t35 -79zM202 27q0 -106 32 -106q28 0 28 69q0 92 -41 92q-11 0 -15 -2q-4 -21 -4 -53z" />
<glyph unicode="&#x2087;" horiz-adv-x="358" d="M249 -100h-158q0 152 194 263h-205q-25 0 -38 -36h-10q5 79 23 131h262l9 -92q-42 -36 -62 -105.5t-15 -160.5z" />
<glyph unicode="&#x2088;" horiz-adv-x="430" d="M398 -1q0 -46 -50.5 -76t-138.5 -30q-73 0 -125 23.5t-52 63.5q0 59 103 78q-27 16 -43 28t-29.5 32.5t-13.5 44.5q0 44 49 73t129 29q69 0 111 -22.5t42 -58.5q0 -51 -85 -70q26 -14 38.5 -22t30.5 -22.5t26 -32t8 -38.5zM207 206q0 -37 46 -69q9 24 9 58q0 42 -29 42 q-12 0 -19 -9t-7 -22zM181 -28q0 -51 29 -51q11 0 18 9t7 23q0 40 -47 73q-7 -28 -7 -54z" />
<glyph unicode="&#x2089;" horiz-adv-x="454" d="M32 140q0 57 52 91t143 34q88 0 141.5 -41t53.5 -115q0 -96 -88 -156t-246 -60l-2 8q128 42 157 151q-38 -18 -82 -18q-59 0 -94 27t-35 79zM192 168q0 -92 41 -92q11 0 15 2q4 21 4 53q0 106 -32 106q-28 0 -28 -69z" />
<glyph unicode="&#x2090;" horiz-adv-x="437" d="M451 -46q-44 -61 -115 -61q-37 0 -62.5 16.5t-32.5 42.5q-34 -59 -113 -59q-43 0 -73 24t-30 63q0 107 214 114v97q0 46 -24 46q-28 0 -28 -55q0 -21 5 -51q-39 -14 -75 -14q-73 0 -73 47q0 40 56 70.5t133 30.5q173 0 173 -142q0 -21 -2 -64t-2 -54q0 -26 6 -36t21 -10 q7 0 17 2zM195 10q0 -43 30 -43q6 0 14 4v101q-44 -6 -44 -62z" />
<glyph unicode="&#x2091;" horiz-adv-x="419" d="M397 13q-16 -53 -63 -86.5t-122 -33.5q-81 0 -136.5 49.5t-55.5 129.5q0 87 59 140t149 53q79 0 127.5 -42t48.5 -109q0 -17 -3 -29l-6 -6h-199q21 -81 110 -81q41 0 85 21zM190 131q0 -19 1 -27l50 4q1 12 1 34q0 52 -4 73.5t-19 21.5q-29 0 -29 -106z" />
<glyph unicode="&#x2092;" horiz-adv-x="447" d="M427 88q0 -89 -58 -142t-150 -53q-87 0 -143 48t-56 129q0 89 58 142t150 53q88 0 143.5 -48t55.5 -129zM190 87q0 -96 6.5 -131t27.5 -35q20 0 26.5 31t6.5 119q0 98 -6.5 132t-26.5 34q-21 0 -27.5 -31.5t-6.5 -118.5z" />
<glyph unicode="&#x2093;" horiz-adv-x="437" d="M41 203q-21 31 -41 45l2 10h236l2 -10l-34 -13l66 -97l35 98l-32 12l1 10h160l1 -10q-1 -1 -3.5 -4t-6 -6t-7.5 -7q-18 -16 -36 -34q-52 -52 -91 -90l102 -152q24 -32 42 -45l-1 -10h-237l-2 10l34 13l-65 96l-35 -97l32 -12l-2 -10h-159l-2 10q1 1 4 3.5t6 6t7 7.5 q18 16 36 34q22 21 91 90z" />
<glyph unicode="&#x2095;" horiz-adv-x="470" d="M235 -90l-1 -10h-228l-1 10l13 7q13 7 17 13t4 20v395l-34 12l-1 10q96 30 191 30l6 -5v-207q52 80 130 80q47 0 73.5 -28t26.5 -77v-232l34 -18l-1 -10h-185l-10 10v215q0 45 -39 45q-15 0 -29 -8v-234z" />
<glyph unicode="&#x2096;" horiz-adv-x="482" d="M234 -100h-228l-1 10l13 7q13 7 17 13t4 20v395l-34 12l-1 10q96 30 191 30l6 -5v-293h28l74 137l-35 12l2 10h199l1 -10l-35 -16q-42 -20 -91 -59l97 -209q16 -32 41 -53l-2 -11h-143q-24 0 -36 11t-24 39l-50 122h-26v-144l34 -18z" />
<glyph unicode="&#x2097;" horiz-adv-x="240" d="M234 -100h-228l-1 10l13 7q13 7 17 13t4 20v395l-34 12l-1 10q96 30 191 30l6 -5v-464l34 -18z" />
<glyph unicode="&#x2098;" horiz-adv-x="695" d="M239 -100h-228l-2 10l14 7q13 7 17 13t4 20v263l-35 12v10q96 30 191 30l6 -6v-68q49 74 125 74q43 0 68 -21.5t30 -59.5q44 81 132 81q46 0 70.5 -28t24.5 -76v-233l34 -18l-1 -10h-185l-10 10v215q0 45 -37 45q-13 0 -26 -8v-234l34 -18l-1 -10h-185l-10 10v215 q0 45 -39 45q-14 0 -24 -6v-236l34 -18z" />
<glyph unicode="&#x2099;" horiz-adv-x="475" d="M239 -100h-228l-2 10l14 7q13 7 17 13t4 20v263l-35 12v10q96 30 191 30l6 -6v-74q50 80 129 80q49 0 75 -28t26 -77v-232l34 -18l-1 -10h-185l-10 10v215q0 45 -39 45q-15 0 -29 -8v-234l34 -18z" />
<glyph unicode="&#x209a;" horiz-adv-x="459" d="M249 -232h-243l-1 10l13 7q13 6 17 12.5t4 19.5v401l-34 12l-1 10q37 12 93.5 21.5t97.5 9.5l6 -6v-65q45 65 113 65q59 0 92 -46t33 -133q0 -100 -51.5 -146.5t-132.5 -46.5q-30 0 -54 4v-102l50 -17zM222 177q-13 0 -21 -6v-232q16 -4 25 -4q43 0 43 133q0 59 -10.5 84 t-36.5 25z" />
<glyph unicode="&#x209b;" horiz-adv-x="386" d="M168 -107q-89 0 -127 18q-21 10 -21 38t16.5 52.5t37.5 32.5l9 -4q16 -49 36 -77q22 -32 51 -32q16 0 25.5 9.5t9.5 25.5q0 20 -18 36.5t-43.5 30t-51 29.5t-43.5 41.5t-18 58.5q0 53 53 83t135 30q93 0 129 -29q17 -12 17 -28q0 -25 -19 -48.5t-42 -32.5l-10 5 q-19 60 -35 81q-18 24 -42 24q-15 0 -24.5 -9t-9.5 -23q0 -20 19 -38t45.5 -33t53.5 -31.5t46 -41t19 -53.5q0 -59 -53.5 -87t-144.5 -28z" />
<glyph unicode="&#x209c;" horiz-adv-x="298" d="M275 237v-25h-83v-158q0 -56 48 -56q27 0 52 21l6 -6q-15 -50 -52 -85t-99 -35q-118 0 -118 128v191h-44l-1 10l39 24l162 98l7 -1v-106h83z" />
<glyph unicode="&#x20ac;" horiz-adv-x="694" d="M506 255h-146q36 -124 163 -124q66 0 120 37l9 -7q-20 -79 -82.5 -125t-159.5 -46q-124 0 -201.5 68t-93.5 197h-73l5 45h64v20q0 17 1 25h-61l5 45h62q23 121 115.5 195.5t213.5 74.5q89 0 145.5 -37.5t56.5 -90.5q0 -33 -24.5 -52.5t-64.5 -19.5q-19 0 -55 4 q-8 146 -68 146q-39 0 -64 -60t-27 -160h174l-5 -45h-168q0 -17 4 -45h160z" />
<glyph unicode="&#x2122;" horiz-adv-x="814" d="M345 650h171l44 -124l47 124h167v-16l-33 -5v-223l31 -8v-17h-178v17l37 8v201h-5l-82 -221h-38l-85 221h-5v-201l40 -8v-17h-114v17l39 8v223l-36 5v16zM228 406l40 -8v-17h-178v17l38 8v214h-43l-26 -79h-19v109h276v-109h-19l-20 79h-49v-214z" />
<glyph unicode="&#x2212;" horiz-adv-x="599" d="M510 256h-430v132q145 6 431 6l8 -8z" />
<glyph unicode="&#x221e;" horiz-adv-x="843" d="M783 326q0 -85 -51.5 -140.5t-133.5 -55.5q-99 0 -178 95q-66 -95 -182 -95q-79 0 -128.5 54.5t-49.5 139.5t51.5 140.5t133.5 55.5q96 0 178 -95q66 95 182 95q79 0 128.5 -54.5t49.5 -139.5zM572 401q-23 0 -47.5 -16.5t-40.5 -40.5q22 -31 35 -47.5t32.5 -30.5 t37.5 -14q22 0 38.5 20t16.5 53q0 35 -19.5 55.5t-52.5 20.5zM199 325q0 -35 19.5 -55.5t52.5 -20.5q24 0 48 16.5t40 40.5q-32 46 -55 69t-50 23q-22 0 -38.5 -20t-16.5 -53z" />
<glyph unicode="&#x2248;" horiz-adv-x="614" d="M190 388q-11 0 -53 -49l-72 34q14 31 26 52.5t29.5 48t37 40.5t38.5 14q31 0 123.5 -22t104.5 -22q10 0 54 49l71 -34q-14 -31 -26 -52.5t-29.5 -48t-37 -40.5t-38.5 -14q-30 0 -123 22t-105 22zM190 164q-11 0 -53 -49l-72 34q14 31 26 52.5t29.5 48t37 40.5t38.5 14 q31 0 123.5 -22t104.5 -22q10 0 54 49l71 -34q-14 -31 -26 -52.5t-29.5 -48t-37 -40.5t-38.5 -14q-30 0 -123 22t-105 22z" />
<glyph unicode="&#x2260;" horiz-adv-x="599" d="M179 23l-69 39l46 87h-76v132q138 4 148 4l42 78h-190v132q95 3 263 5l66 125l11 3l69 -39l-47 -88h69l8 -8l-9 -130h-141l-41 -77q71 1 183 1l8 -8l-9 -130h-255l-65 -123z" />
<glyph unicode="&#x2264;" horiz-adv-x="594" d="M510 615v-147l-228 -53l227 -50v-152q-74 19 -215.5 64.5t-214.5 72.5l-4 11v115zM505 36h-430v132q146 6 431 6l8 -8z" />
<glyph unicode="&#x2265;" horiz-adv-x="594" d="M80 213v147l227 53l-226 50v152q74 -19 217 -64.5t213 -72.5l4 -11v-115zM510 36h-430v132q145 6 431 6l8 -8z" />
<glyph unicode="&#x25fc;" horiz-adv-x="500" d="M0 500h500v-500h-500v500z" />
<glyph unicode="&#x2c7c;" horiz-adv-x="224" d="M110 288q-38 0 -61.5 17.5t-23.5 45.5q0 32 29.5 53.5t70.5 21.5q38 0 61.5 -17.5t23.5 -46.5q0 -33 -28.5 -53.5t-71.5 -20.5zM-3 -230q40 80 40 211v232l-35 12v10q96 30 191 30l6 -6v-292q0 -90 -44.5 -143t-151.5 -64z" />
<glyph unicode="&#xfb01;" horiz-adv-x="641" d="M314 0h-296l-2 14l18 10q17 9 22 18t5 28v365h-63l-2 14l66 25q9 95 80 158t192 63q94 0 150.5 -28t56.5 -67q0 -32 -31 -47.5t-82 -15.5q-31 0 -47 3q0 56 -13.5 85.5t-49.5 29.5q-25 0 -41 -17.5t-16 -47.5q0 -15 4.5 -52t5.5 -68h110q38 15 100.5 27.5t101.5 12.5 l8 -8v-463l45 -25l-2 -14h-296l-2 14l18 10q17 9 22 18t5 28v365h-110v-396l45 -25z" />
<glyph unicode="&#xfb02;" horiz-adv-x="635" d="M308 0h-296l-2 14l18 10q17 9 22 18t5 28v365h-63l-2 14l65 25h1q9 96 77.5 158.5t185.5 62.5q63 0 116 -24q92 24 142 24l8 -8v-648l45 -25l-2 -14h-296l-2 14l18 10q17 9 22 18t5 28v365h-110v-396l45 -25zM255 590q0 -15 4.5 -52t5.5 -68h110v70q0 56 -13.5 85.5 t-49.5 29.5q-25 0 -41 -17.5t-16 -47.5z" />
<glyph unicode="&#xfb06;" horiz-adv-x="903" d="M312 444q0 15 1 23q-12 3 -26 3q-27 0 -41.5 -12t-14.5 -31q0 -28 24.5 -53t59.5 -46t70.5 -44t60 -57t24.5 -75q0 -82 -70 -122t-187 -40q-123 0 -166 25q-27 15 -27 53q0 40 21.5 74.5t48.5 45.5l12 -6q22 -70 46 -107q29 -45 67 -45q21 0 33.5 13t12.5 34 q0 27 -23.5 50.5t-56.5 43t-66.5 42t-57 58t-23.5 81.5q0 74 69 116t178 42q14 0 38 -2q21 84 90.5 135.5t174.5 51.5q86 0 134.5 -39t48.5 -106q0 -41 -17 -70h123v-45h-110v-218q0 -77 64 -77q34 0 68 28l8 -8q-20 -72 -68.5 -121t-128.5 -49q-153 0 -153 180v265h-58 l-2 14q78 39 78 106q0 35 -18 55t-49 20q-49 0 -89.5 -36t-58.5 -92q52 -12 82.5 -39.5t30.5 -64.5q0 -27 -18.5 -42.5t-49.5 -15.5q-38 0 -63.5 30t-25.5 74z" />
<glyph horiz-adv-x="1125" d="M818 0h-296l-2 14l18 10q17 9 22 18t5 28v560q-147 -36 -198 -127q62 -14 100 -50.5t38 -84.5q0 -43 -25 -68t-67 -25q-49 0 -77 36.5t-28 100.5q0 29 6 56q-8 2 -13 2q-61 0 -61 -139q0 -98 40.5 -144.5t112.5 -46.5q51 0 109 28l8 -8q-20 -74 -77.5 -122t-155.5 -48 q-111 0 -184 69.5t-73 185.5q0 115 80.5 190t201.5 75q17 0 26 -1q40 88 150 137t269 49h20l8 -8v-290q67 113 169 113q64 0 97.5 -39t33.5 -107v-325l45 -25l-2 -14h-239l-14 14v299q0 62 -51 62q-21 0 -39 -10v-326l45 -25z" />
<glyph horiz-adv-x="919" d="M510 630q-49 0 -90 -34t-62 -91q66 -12 106.5 -49.5t40.5 -87.5q0 -43 -24.5 -68t-67.5 -25q-49 0 -77 36.5t-28 100.5q0 26 5 56q-8 2 -12 2q-61 0 -61 -139q0 -98 40.5 -144.5t112.5 -46.5q51 0 109 28l8 -8q-20 -74 -77.5 -122t-155.5 -48q-111 0 -184 69.5t-73 185.5 q0 115 80.5 190t201.5 75q14 0 21 -1q26 85 96 135.5t171 50.5q91 0 142 -39t51 -106q0 -41 -17 -70h123v-45h-110v-218q0 -77 64 -77q34 0 68 28l8 -8q-20 -72 -68.5 -121t-128.5 -49q-153 0 -153 180v265h-58l-2 14q78 39 78 106q0 35 -20.5 55t-56.5 20z" />
<glyph horiz-adv-x="1093" d="M401 340q-38 0 -63.5 27t-25.5 68q0 10 2 28q-11 7 -29 7q-27 0 -40.5 -12t-13.5 -31q0 -28 24.5 -53t59.5 -46t70.5 -44t60 -57t24.5 -75q0 -82 -70 -122t-187 -40q-123 0 -166 25q-27 15 -27 53q0 40 21.5 74.5t48.5 45.5l12 -6q22 -70 46 -107q29 -45 67 -45 q21 0 33.5 13t12.5 34q0 27 -23.5 50.5t-56.5 43t-66.5 42t-57 58t-23.5 81.5q0 74 69 116t178 42q24 0 45 -3q35 84 141 136t248 52h20l8 -8v-290q67 113 169 113q64 0 97.5 -39t33.5 -107v-325l45 -25l-2 -14h-239l-14 14v299q0 62 -51 62q-21 0 -39 -10v-326l45 -25 l-2 -14h-296l-2 14l18 10q17 9 22 18t5 28v556q-126 -38 -170 -126q49 -13 77.5 -39.5t28.5 -62.5q0 -27 -18.5 -42.5t-49.5 -15.5z" />
<glyph horiz-adv-x="437" d="M451 426q-44 -61 -115 -61q-37 0 -62.5 16.5t-32.5 42.5q-34 -59 -113 -59q-43 0 -73 24t-30 63q0 107 214 114v97q0 46 -24 46q-28 0 -28 -55q0 -21 5 -51q-39 -14 -75 -14q-73 0 -73 47q0 40 56 70.5t133 30.5q173 0 173 -142q0 -21 -2 -64t-2 -54q0 -26 6 -36t21 -10 q7 0 17 2zM195 482q0 -43 30 -43q6 0 14 4v101q-44 -6 -44 -62z" />
<glyph horiz-adv-x="454" d="M434 558q0 -100 -51.5 -146.5t-132.5 -46.5q-53 0 -113 16l-97 -16l-6 5v447l-34 12l-1 10q98 30 191 30l6 -5v-192q45 65 114 65q58 0 91 -46.5t33 -132.5zM217 649q-13 0 -21 -6v-231q13 -5 25 -5q43 0 43 133q0 59 -10.5 84t-36.5 25z" />
<glyph horiz-adv-x="402" d="M20 547q0 83 58.5 136.5t147.5 53.5q79 0 123 -33t44 -78q0 -27 -21 -41.5t-53 -14.5q-33 0 -61 14q0 67 -6.5 96t-26.5 29q-35 0 -35 -108q0 -67 31 -99t86 -32q39 0 84 21l6 -6q-16 -53 -60.5 -86.5t-119.5 -33.5q-85 0 -141 49.5t-56 132.5z" />
<glyph horiz-adv-x="455" d="M20 541q0 101 55.5 148.5t142.5 47.5q13 0 39 -2v82l-34 12l-1 10q98 30 192 30l6 -5v-387q0 -46 25 -46q5 0 17 2l4 -7q-41 -61 -115 -61q-36 0 -60.5 16.5t-31.5 42.5q-35 -59 -107 -59q-61 0 -96.5 46.5t-35.5 129.5zM190 566q0 -127 51 -127q16 0 16 4v251 q-4 1 -11 1q-56 0 -56 -129z" />
<glyph horiz-adv-x="419" d="M397 485q-16 -53 -63 -86.5t-122 -33.5q-81 0 -136.5 49.5t-55.5 129.5q0 87 59 140t149 53q79 0 127.5 -42t48.5 -109q0 -17 -3 -29l-6 -6h-199q21 -81 110 -81q41 0 85 21zM190 603q0 -19 1 -27l50 4q1 12 1 34q0 52 -4 73.5t-19 21.5q-29 0 -29 -106z" />
<glyph horiz-adv-x="278" d="M250 372h-243l-2 10l14 7q13 7 17 13t4 20v261h-49l-1 10l50 18h1q6 68 55.5 113t133.5 45q53 0 89 -21.5t36 -51.5q0 -46 -80 -46q-8 0 -28 2q0 89 -31 89q-22 0 -22 -30q0 -14 3 -47t4 -56h91v-25h-90v-283l49 -18z" />
<glyph horiz-adv-x="423" d="M415 368q0 -64 -56.5 -100t-164.5 -36q-82 0 -138 16t-56 51q0 21 26 33.5t65 12.5l1 3q-44 20 -44 66q0 29 26 53t64 30q-59 10 -91 39t-32 74q0 56 55.5 89.5t136.5 33.5q141 0 201 15q14 -18 14 -39q0 -35 -42 -35q-18 0 -68 16l-1 -2q73 -30 73 -87q0 -51 -51 -79.5 t-136 -28.5q-23 0 -33 1q0 -2 -0.5 -4t-0.5 -4q0 -18 37 -18l82 -2q62 -2 97.5 -26t35.5 -72zM170 607q0 -48 5.5 -66.5t24.5 -18.5q18 0 24 20t6 68q0 46 -5 65.5t-24 19.5t-25 -21t-6 -67zM131 313q0 -52 82 -52q34 0 56 11t22 30q0 25 -44 25h-60q-28 0 -54 2 q-2 -8 -2 -16z" />
<glyph horiz-adv-x="470" d="M235 382l-1 -10h-228l-1 10l13 7q13 7 17 13t4 20v395l-34 12l-1 10q96 30 191 30l6 -5v-207q52 80 130 80q47 0 73.5 -28t26.5 -77v-232l34 -18l-1 -10h-185l-10 10v215q0 45 -39 45q-15 0 -29 -8v-234z" />
<glyph horiz-adv-x="224" d="M110 760q-38 0 -61.5 17.5t-23.5 45.5q0 32 29.5 53.5t70.5 21.5q38 0 61.5 -17.5t23.5 -46.5q0 -33 -28.5 -53.5t-71.5 -20.5zM-3 242q40 80 40 211v232l-35 12v10q96 30 191 30l6 -6v-292q0 -90 -44.5 -143t-151.5 -64z" />
<glyph horiz-adv-x="482" d="M234 372h-228l-1 10l13 7q13 7 17 13t4 20v395l-34 12l-1 10q96 30 191 30l6 -5v-293h28l74 137l-35 12l2 10h199l1 -10l-35 -16q-42 -20 -91 -59l97 -209q16 -32 41 -53l-2 -11h-143q-24 0 -36 11t-24 39l-50 122h-26v-144l34 -18z" />
<glyph horiz-adv-x="240" d="M234 372h-228l-1 10l13 7q13 7 17 13t4 20v395l-34 12l-1 10q96 30 191 30l6 -5v-464l34 -18z" />
<glyph horiz-adv-x="695" d="M239 372h-228l-2 10l14 7q13 7 17 13t4 20v263l-35 12v10q96 30 191 30l6 -6v-68q49 74 125 74q43 0 68 -21.5t30 -59.5q44 81 132 81q46 0 70.5 -28t24.5 -76v-233l34 -18l-1 -10h-185l-10 10v215q0 45 -37 45q-13 0 -26 -8v-234l34 -18l-1 -10h-185l-10 10v215 q0 45 -39 45q-14 0 -24 -6v-236l34 -18z" />
<glyph horiz-adv-x="447" d="M427 560q0 -89 -58 -142t-150 -53q-87 0 -143 48t-56 129q0 89 58 142t150 53q88 0 143.5 -48t55.5 -129zM190 559q0 -96 6.5 -131t27.5 -35q20 0 26.5 31t6.5 119q0 98 -6.5 132t-26.5 34q-21 0 -27.5 -31.5t-6.5 -118.5z" />
<glyph horiz-adv-x="459" d="M249 240h-243l-1 10l13 7q13 6 17 12.5t4 19.5v401l-34 12l-1 10q37 12 93.5 21.5t97.5 9.5l6 -6v-65q45 65 113 65q59 0 92 -46t33 -133q0 -100 -51.5 -146.5t-132.5 -46.5q-30 0 -54 4v-102l50 -17zM222 649q-13 0 -21 -6v-232q16 -4 25 -4q43 0 43 133q0 59 -10.5 84 t-36.5 25z" />
<glyph horiz-adv-x="454" d="M452 240h-227l-2 10l14 7q13 6 16.5 12t3.5 20v131q-37 -55 -105 -55q-61 0 -96.5 46.5t-35.5 129.5q0 101 55.5 148.5t142.5 47.5q59 0 101 -16l95 16l6 -6v-464l34 -17zM190 566q0 -127 51 -127q16 0 16 4v251q-4 1 -11 1q-56 0 -56 -129z" />
<glyph horiz-adv-x="351" d="M254 372h-243l-2 10l14 7q13 7 17 13t4 20v263l-35 12v10q96 30 191 30l6 -6v-117q36 123 97 123q48 0 48 -66q0 -48 -23 -84l-7 -2q-31 6 -56 7q-20 1 -59 1v-193l49 -18z" />
<glyph horiz-adv-x="386" d="M168 365q-89 0 -127 18q-21 10 -21 38t16.5 52.5t37.5 32.5l9 -4q16 -49 36 -77q22 -32 51 -32q16 0 25.5 9.5t9.5 25.5q0 20 -18 36.5t-43.5 30t-51 29.5t-43.5 41.5t-18 58.5q0 53 53 83t135 30q93 0 129 -29q17 -12 17 -28q0 -25 -19 -48.5t-42 -32.5l-10 5 q-19 60 -35 81q-18 24 -42 24q-15 0 -24.5 -9t-9.5 -23q0 -20 19 -38t45.5 -33t53.5 -31.5t46 -41t19 -53.5q0 -59 -53.5 -87t-144.5 -28z" />
<glyph horiz-adv-x="298" d="M275 709v-25h-83v-158q0 -56 48 -56q27 0 52 21l6 -6q-15 -50 -52 -85t-99 -35q-118 0 -118 128v191h-44l-1 10l39 24l162 98l7 -1v-106h83z" />
<glyph horiz-adv-x="470" d="M481 423q-43 -58 -116 -58q-43 0 -69.5 22t-26.5 54v6q-37 -82 -121 -82q-51 0 -80 29t-29 78v213l-34 12l-1 10q96 30 191 30l6 -6v-226q0 -45 40 -45q16 0 28 8v217l-34 12l-1 10q96 30 191 30l6 -6v-254q0 -25 6.5 -35.5t21.5 -10.5q8 0 16 2z" />
<glyph horiz-adv-x="412" d="M264 372h-119l-105 288q-13 40 -37 58l-3 2l2 10h239l2 -10l-36 -19l63 -235l70 237l-36 17l2 10h105l1 -10q-12 -8 -22 -18q-11 -12 -22 -42z" />
<glyph horiz-adv-x="632" d="M333 730h93l63 -262l71 235l-37 17l2 10h105l2 -10q-15 -10 -25 -21q-11 -15 -19 -39l-105 -288h-119l-50 141l-50 -141h-119l-105 288q-13 40 -37 58l-3 2l2 10h239l2 -10l-36 -19l62 -235z" />
<glyph horiz-adv-x="437" d="M41 675q-21 31 -41 45l2 10h236l2 -10l-34 -13l66 -97l35 98l-32 12l1 10h160l1 -10q-1 -1 -3.5 -4t-6 -6t-7.5 -7q-18 -16 -36 -34q-52 -52 -91 -90l102 -152q24 -32 42 -45l-1 -10h-237l-2 10l34 13l-65 96l-35 -97l32 -12l-2 -10h-159l-2 10q1 1 4 3.5t6 6t7 7.5 q18 16 36 34q22 21 91 90z" />
<glyph horiz-adv-x="412" d="M115 232q-40 0 -64.5 20.5t-24.5 53.5q0 22 10 39q38 -10 82 -10q81 0 116 37h-89l-105 288q-13 40 -37 58l-3 2l2 10h239l2 -10l-36 -19l63 -234l70 236l-36 17l2 10h105l1 -10l-5 -4q-22 -12 -39 -56l-90 -252q-65 -176 -163 -176z" />
<glyph horiz-adv-x="394" d="M372 430q0 -26 -5 -58h-336l-11 56l192 280h-68l-95 -131h-8q-19 41 -19 99q0 31 5 54h336l11 -56l-189 -281h66l94 131h8q19 -35 19 -94z" />
<glyph horiz-adv-x="454" d="M434 86q0 -100 -51.5 -146.5t-132.5 -46.5q-53 0 -113 16l-97 -16l-6 5v447l-34 12l-1 10q98 30 191 30l6 -5v-192q45 65 114 65q58 0 91 -46.5t33 -132.5zM217 177q-13 0 -21 -6v-231q13 -5 25 -5q43 0 43 133q0 59 -10.5 84t-36.5 25z" />
<glyph horiz-adv-x="402" d="M20 75q0 83 58.5 136.5t147.5 53.5q79 0 123 -33t44 -78q0 -27 -21 -41.5t-53 -14.5q-33 0 -61 14q0 67 -6.5 96t-26.5 29q-35 0 -35 -108q0 -67 31 -99t86 -32q39 0 84 21l6 -6q-16 -53 -60.5 -86.5t-119.5 -33.5q-85 0 -141 49.5t-56 132.5z" />
<glyph horiz-adv-x="455" d="M20 69q0 101 55.5 148.5t142.5 47.5q13 0 39 -2v82l-34 12l-1 10q98 30 192 30l6 -5v-387q0 -46 25 -46q5 0 17 2l4 -7q-41 -61 -115 -61q-36 0 -60.5 16.5t-31.5 42.5q-35 -59 -107 -59q-61 0 -96.5 46.5t-35.5 129.5zM190 94q0 -127 51 -127q16 0 16 4v251q-4 1 -11 1 q-56 0 -56 -129z" />
<glyph horiz-adv-x="278" d="M250 -100h-243l-2 10l14 7q13 7 17 13t4 20v261h-49l-1 10l50 18h1q6 68 55.5 113t133.5 45q53 0 89 -21.5t36 -51.5q0 -46 -80 -46q-8 0 -28 2q0 89 -31 89q-22 0 -22 -30q0 -14 3 -47t4 -56h91v-25h-90v-283l49 -18z" />
<glyph horiz-adv-x="423" d="M384 129q0 -51 -51 -79.5t-136 -28.5q-23 0 -33 1q0 -2 -0.5 -4t-0.5 -4q0 -18 37 -18l82 -2q62 -2 97.5 -26t35.5 -72q0 -64 -56.5 -100t-164.5 -36q-82 0 -138 16t-56 51q0 21 26 33.5t65 12.5l1 3q-44 20 -44 66q0 29 26 53t64 30q-59 10 -91 39t-32 74 q0 56 55.5 89.5t136.5 33.5q141 0 201 15q14 -18 14 -39q0 -35 -42 -35q-18 0 -68 16l-1 -2q73 -30 73 -87zM170 135q0 -48 5.5 -66.5t24.5 -18.5q18 0 24 20t6 68q0 46 -5 65.5t-24 19.5t-25 -21t-6 -67zM131 -159q0 -52 82 -52q34 0 56 11t22 30q0 25 -44 25h-60 q-28 0 -54 2q-2 -8 -2 -16z" />
<glyph horiz-adv-x="245" d="M116 288q-38 0 -61.5 17.5t-23.5 45.5q0 32 30 53.5t71 21.5q38 0 61.5 -17.5t23.5 -46.5q0 -33 -28.5 -53.5t-72.5 -20.5zM239 -100h-228l-1 10l13 7q13 7 17 13t4 20v263l-35 12v10q96 30 191 30l6 -6v-331l34 -18z" />
<glyph horiz-adv-x="454" d="M20 69q0 101 55.5 148.5t142.5 47.5q59 0 101 -16l95 16l6 -6v-464l34 -17l-2 -10h-227l-2 10l14 7q13 6 16.5 12t3.5 20v131q-37 -55 -105 -55q-61 0 -96.5 46.5t-35.5 129.5zM190 94q0 -127 51 -127q16 0 16 4v251q-4 1 -11 1q-56 0 -56 -129z" />
<glyph horiz-adv-x="351" d="M254 -100h-243l-2 10l14 7q13 7 17 13t4 20v263l-35 12v10q96 30 191 30l6 -6v-117q36 123 97 123q48 0 48 -66q0 -48 -23 -84l-7 -2q-31 6 -56 7q-20 1 -59 1v-193l49 -18z" />
<glyph horiz-adv-x="470" d="M481 -49q-43 -58 -116 -58q-43 0 -69.5 22t-26.5 54v6q-37 -82 -121 -82q-51 0 -80 29t-29 78v213l-34 12l-1 10q96 30 191 30l6 -6v-226q0 -45 40 -45q16 0 28 8v217l-34 12l-1 10q96 30 191 30l6 -6v-254q0 -25 6.5 -35.5t21.5 -10.5q8 0 16 2z" />
<glyph horiz-adv-x="412" d="M264 -100h-119l-105 288q-13 40 -37 58l-3 2l2 10h239l2 -10l-36 -19l63 -235l70 237l-36 17l2 10h105l1 -10q-12 -8 -22 -18q-11 -12 -22 -42z" />
<glyph horiz-adv-x="632" d="M333 258h93l63 -262l71 235l-37 17l2 10h105l2 -10q-15 -10 -25 -21q-11 -15 -19 -39l-105 -288h-119l-50 141l-50 -141h-119l-105 288q-13 40 -37 58l-3 2l2 10h239l2 -10l-36 -19l62 -235z" />
<glyph horiz-adv-x="412" d="M115 -240q-40 0 -64.5 20.5t-24.5 53.5q0 22 10 39q38 -10 82 -10q81 0 116 37h-89l-105 288q-13 40 -37 58l-3 2l2 10h239l2 -10l-36 -19l63 -234l70 236l-36 17l2 10h105l1 -10l-5 -4q-22 -12 -39 -56l-90 -252q-65 -176 -163 -176z" />
<glyph horiz-adv-x="394" d="M372 -42q0 -26 -5 -58h-336l-11 56l192 280h-68l-95 -131h-8q-19 41 -19 99q0 32 5 54h336l11 -56l-189 -281h66l94 131h8q19 -35 19 -94z" />
<glyph horiz-adv-x="658" d="M626 330q0 -162 -86.5 -251t-214.5 -89q-127 0 -210 87.5t-83 247.5q0 159 89 247t212 88q127 0 210 -84.5t83 -245.5zM331 32q33 0 46 72t14 226q1 151 -12.5 220.5t-47.5 69.5q-35 0 -49 -70t-15 -225q-1 -293 64 -293z" />
<glyph horiz-adv-x="397" d="M376 0h-357l-2 16l48 15q17 5 22 13t5 28v488l-73 5l-2 14l285 81l8 -8v-611l68 -25z" />
<glyph horiz-adv-x="540" d="M51 0l-13 115q112 72 169 140.5t57 145.5q0 45 -28 74.5t-75 29.5q-39 0 -72 -22t-51 -62l-14 4q20 113 92 174t172 61q96 0 153.5 -51.5t57.5 -133.5q0 -49 -25.5 -94t-73.5 -84t-100.5 -69t-122.5 -63h226q38 0 58 17t33 53l14 -1q-2 -134 -28 -234h-429z" />
<glyph horiz-adv-x="532" d="M500 165q0 -81 -81.5 -128t-196.5 -47q-61 0 -111 9.5t-84.5 33.5t-34.5 59q0 38 41.5 62t103.5 26l5 -3q0 -147 67 -147q56 0 56 110q0 63 -34.5 99.5t-87.5 36.5q-17 0 -33 -3l-8 29q73 10 113 40.5t40 77.5q0 36 -23.5 58t-62.5 22q-37 0 -71 -21t-54 -60l-13 6 q20 108 91 171.5t167 63.5q89 0 145 -45t56 -115q0 -41 -20 -73.5t-55 -52.5t-71.5 -31.5t-79.5 -17.5q104 -5 170 -47t66 -113z" />
<glyph horiz-adv-x="565" d="M0 230l336 430l126 -10v-420h87l-8 -90h-79v-140h-218v140h-234zM64 230h180v243z" />
<glyph horiz-adv-x="542" d="M518 166q0 -85 -79 -130.5t-202 -45.5q-97 0 -159 27.5t-62 74.5q0 38 42 63t103 25l5 -3q0 -147 64 -147q26 0 40 27t14 70q0 89 -58.5 134t-157.5 47l-12 13l9 329h423q1 -113 -25 -234h-14q-8 42 -21.5 55.5t-50.5 13.5h-235l-5 -136q28 4 72 4q141 0 225 -51t84 -136 z" />
<glyph horiz-adv-x="622" d="M598 208q0 -98 -74.5 -158t-201.5 -60q-136 0 -213 71t-77 201q0 176 134 287t369 111l3 -14q-198 -73 -251 -257q39 13 86 13q101 0 163 -50.5t62 -143.5zM267 230q0 -200 50 -200q46 0 46 135q0 185 -83 185h-2q-11 -51 -11 -120z" />
<glyph horiz-adv-x="476" d="M332 0h-215q0 147 81.5 269.5t215.5 215.5h-324q-24 0 -36.5 -14.5t-23.5 -52.5h-14q2 134 28 232h419l13 -160q-72 -68 -110 -196.5t-34 -293.5z" />
<glyph horiz-adv-x="605" d="M581 178q0 -79 -78 -133.5t-210 -54.5q-117 0 -193 40t-76 111q0 57 48.5 95.5t126.5 49.5q-47 30 -73.5 51t-50 59t-23.5 82q0 78 74 130t195 52q100 0 166 -41.5t66 -103.5q0 -52 -36.5 -81.5t-98.5 -49.5q39 -25 60.5 -40.5t49.5 -41.5t40.5 -56.5t12.5 -67.5z M270 557q0 -43 25.5 -75.5t72.5 -64.5q13 52 15 108q1 45 -14 70t-43 25q-26 0 -41 -18t-15 -45zM229 145q0 -55 19 -85t50 -30q26 0 42 22t16 57q0 45 -27.5 78t-79.5 68q-20 -52 -20 -110z" />
<glyph horiz-adv-x="622" d="M24 442q0 98 74.5 158t201.5 60q136 0 213 -71t77 -201q0 -176 -134 -287t-369 -111l-3 14q198 73 251 257q-39 -13 -86 -13q-101 0 -163 50.5t-62 143.5zM259 485q0 -185 83 -185h2q11 51 11 120q0 200 -50 200q-46 0 -46 -135z" />
<glyph horiz-adv-x="604" d="M572 259q0 -123 -77.5 -196t-198.5 -73q-116 0 -190 68.5t-74 182.5q0 123 77.5 196t198.5 73q116 0 190 -68.5t74 -182.5zM257 258q0 -132 8 -180t37 -48q30 0 37.5 44t7.5 168q0 135 -7.5 181.5t-37.5 46.5t-37.5 -44t-7.5 -168z" />
<glyph horiz-adv-x="389" d="M370 16l-2 -16h-349l-2 16l48 15q17 5 22 13t5 28v336l-73 5l-2 16l277 81l8 -8v-461z" />
<glyph horiz-adv-x="506" d="M40 0l-13 105q39 17 61 27t54 28t48.5 34t29.5 38.5t13 47.5q0 30 -21 50t-56 20q-36 0 -67.5 -21t-50.5 -59l-14 4q18 116 88 176t164 60q84 0 138 -44t54 -113q0 -148 -288 -208h189q73 0 95 70l10 -2q-2 -115 -28 -213h-406z" />
<glyph horiz-adv-x="520" d="M500 15q0 -81 -81.5 -128t-196.5 -47q-61 0 -111 9.5t-84.5 33.5t-34.5 59q0 38 41.5 62t103.5 26l5 -3q0 -147 67 -147q56 0 56 110q0 63 -34.5 99.5t-87.5 36.5q-17 0 -33 -3l-8 29q73 10 113 40.5t40 77.5q0 36 -23.5 58t-62.5 22q-37 0 -71 -21t-54 -60l-13 6 q20 108 91 171.5t167 63.5q89 0 145 -45t56 -115q0 -41 -20 -73.5t-55 -52.5t-71.5 -31.5t-79.5 -17.5q104 -5 170 -47t66 -113z" />
<glyph horiz-adv-x="549" d="M0 80l336 430l126 -10v-420h87l-8 -90h-79v-140h-218v140h-234zM64 80h180v243z" />
<glyph horiz-adv-x="526" d="M518 16q0 -85 -79 -130.5t-202 -45.5q-97 0 -159 27.5t-62 74.5q0 38 42 63t103 25l5 -3q0 -147 64 -147q26 0 40 27t14 70q0 89 -58.5 134t-157.5 47l-12 13l9 329h423q1 -113 -25 -234h-14q-8 42 -21.5 55.5t-50.5 13.5h-235l-5 -136q28 4 72 4q141 0 225 -51t84 -136z " />
<glyph horiz-adv-x="622" d="M598 208q0 -98 -74.5 -158t-201.5 -60q-136 0 -213 71t-77 201q0 176 134 287t369 111l3 -14q-198 -73 -251 -257q39 13 86 13q101 0 163 -50.5t62 -143.5zM267 230q0 -200 50 -200q46 0 46 135q0 185 -83 185h-2q-11 -51 -11 -120z" />
<glyph horiz-adv-x="476" d="M332 -150h-215q0 147 81.5 269.5t215.5 215.5h-324q-24 0 -36.5 -14.5t-23.5 -52.5h-14q2 134 28 232h419l13 -160q-72 -68 -110 -196.5t-34 -293.5z" />
<glyph horiz-adv-x="605" d="M581 178q0 -79 -78 -133.5t-210 -54.5q-117 0 -193 40t-76 111q0 57 48.5 95.5t126.5 49.5q-47 30 -73.5 51t-50 59t-23.5 82q0 78 74 130t195 52q100 0 166 -41.5t66 -103.5q0 -52 -36.5 -81.5t-98.5 -49.5q39 -25 60.5 -40.5t49.5 -41.5t40.5 -56.5t12.5 -67.5z M270 557q0 -43 25.5 -75.5t72.5 -64.5q13 52 15 108q1 45 -14 70t-43 25q-26 0 -41 -18t-15 -45zM229 145q0 -55 19 -85t50 -30q26 0 42 22t16 57q0 45 -27.5 78t-79.5 68q-20 -52 -20 -110z" />
<glyph horiz-adv-x="622" d="M24 292q0 98 74.5 158t201.5 60q136 0 213 -71t77 -201q0 -176 -134 -287t-369 -111l-3 14q198 73 251 257q-39 -13 -86 -13q-101 0 -163 50.5t-62 143.5zM259 335q0 -185 83 -185h2q11 51 11 120q0 200 -50 200q-46 0 -46 -135z" />
<glyph horiz-adv-x="469" d="M437 475q0 -90 -60 -140t-146 -50q-84 0 -141.5 49t-57.5 138q0 88 61 136.5t144 48.5q85 0 142.5 -46.5t57.5 -135.5zM235 313q20 0 26 37.5t6 124.5q0 86 -6 120t-26 34t-26 -34t-7 -123q-1 -84 6.5 -121.5t26.5 -37.5z" />
<glyph horiz-adv-x="301" d="M268 292h-234l-2 10l24 8q12 4 15 8t3 16v265l-40 3l-1 10l194 45l5 -5v-336l37 -14z" />
<glyph horiz-adv-x="377" d="M51 292l-9 76q60 25 94 63.5t34 78.5q0 26 -15.5 41.5t-42.5 15.5q-47 0 -71 -45l-9 2q13 61 62 97t113 36q61 0 97 -30t36 -77q0 -28 -16.5 -52t-51.5 -44.5t-65 -34t-81 -32.5h149q45 0 60 38l10 -1q-2 -79 -19 -132h-275z" />
<glyph horiz-adv-x="394" d="M362 383q0 -45 -53.5 -71.5t-127.5 -26.5q-60 0 -104.5 14.5t-44.5 42.5q0 21 28.5 34.5t69.5 14.5h5q0 -78 32 -78q25 0 25 55q0 36 -18.5 56t-47.5 20q-6 0 -18 -2l-6 17q80 11 80 62q0 19 -13.5 31t-35.5 12q-44 0 -70 -43l-8 3q12 61 59.5 97t111.5 36q56 0 91 -25 t35 -65q0 -78 -139 -95q65 -3 107 -26t42 -63z" />
<glyph horiz-adv-x="417" d="M32 420l210 237l91 -7v-230h52l-5 -50h-47v-78h-158v78h-137zM75 420h100v121z" />
<glyph horiz-adv-x="390" d="M358 383q0 -47 -51.5 -72.5t-131.5 -25.5q-62 0 -102.5 15.5t-40.5 41.5q0 21 29 35.5t69 13.5h4q0 -78 29 -78q26 0 26 48q0 49 -34 74t-89 27l-8 7l6 181h275q1 -63 -17 -132h-10q-5 22 -14.5 29.5t-33.5 7.5h-146l-3 -70q28 2 49 2q89 0 141.5 -28.5t52.5 -75.5z" />
<glyph horiz-adv-x="454" d="M422 410q0 -57 -52 -91t-143 -34q-88 0 -141.5 41t-53.5 115q0 96 88 156t246 60l2 -8q-128 -42 -157 -151q38 18 82 18q59 0 94 -27t35 -79zM202 419q0 -106 32 -106q28 0 28 69q0 92 -41 92q-11 0 -15 -2q-4 -21 -4 -53z" />
<glyph horiz-adv-x="358" d="M249 292h-158q0 152 194 263h-205q-25 0 -38 -36h-10q5 79 23 131h262l9 -92q-42 -36 -62 -105.5t-15 -160.5z" />
<glyph horiz-adv-x="430" d="M398 391q0 -46 -50.5 -76t-138.5 -30q-73 0 -125 23.5t-52 63.5q0 59 103 78q-27 16 -43 28t-29.5 32.5t-13.5 44.5q0 44 49 73t129 29q69 0 111 -22.5t42 -58.5q0 -51 -85 -70q26 -14 38.5 -22t30.5 -22.5t26 -32t8 -38.5zM207 598q0 -37 46 -69q9 24 9 58q0 42 -29 42 q-12 0 -19 -9t-7 -22zM181 364q0 -51 29 -51q11 0 18 9t7 23q0 40 -47 73q-7 -28 -7 -54z" />
<glyph horiz-adv-x="454" d="M32 532q0 57 52 91t143 34q88 0 141.5 -41t53.5 -115q0 -96 -88 -156t-246 -60l-2 8q128 42 157 151q-38 -18 -82 -18q-59 0 -94 27t-35 79zM192 560q0 -92 41 -92q11 0 15 2q4 21 4 53q0 106 -32 106q-28 0 -28 -69z" />
<glyph horiz-adv-x="469" d="M437 183q0 -90 -60 -140t-146 -50q-84 0 -141.5 49t-57.5 138q0 88 61 136.5t144 48.5q85 0 142.5 -46.5t57.5 -135.5zM235 21q20 0 26 37.5t6 124.5q0 86 -6 120t-26 34t-26 -34t-7 -123q-1 -84 6.5 -121.5t26.5 -37.5z" />
<glyph horiz-adv-x="301" d="M268 0h-234l-2 10l24 8q12 4 15 8t3 16v265l-40 3l-1 10l194 45l5 -5v-336l37 -14z" />
<glyph horiz-adv-x="377" d="M51 0l-9 76q60 25 94 63.5t34 78.5q0 26 -15.5 41.5t-42.5 15.5q-47 0 -71 -45l-9 2q13 61 62 97t113 36q61 0 97 -30t36 -77q0 -28 -16.5 -52t-51.5 -44.5t-65 -34t-81 -32.5h149q45 0 60 38l10 -1q-2 -79 -19 -132h-275z" />
<glyph horiz-adv-x="394" d="M362 91q0 -45 -53.5 -71.5t-127.5 -26.5q-60 0 -104.5 14.5t-44.5 42.5q0 21 28.5 34.5t69.5 14.5h5q0 -78 32 -78q25 0 25 55q0 36 -18.5 56t-47.5 20q-6 0 -18 -2l-6 17q80 11 80 62q0 19 -13.5 31t-35.5 12q-44 0 -70 -43l-8 3q12 61 59.5 97t111.5 36q56 0 91 -25 t35 -65q0 -78 -139 -95q65 -3 107 -26t42 -63z" />
<glyph horiz-adv-x="417" d="M32 128l210 237l91 -7v-230h52l-5 -50h-47v-78h-158v78h-137zM75 128h100v121z" />
<glyph horiz-adv-x="390" d="M358 91q0 -47 -51.5 -72.5t-131.5 -25.5q-62 0 -102.5 15.5t-40.5 41.5q0 21 29 35.5t69 13.5h4q0 -78 29 -78q26 0 26 48q0 49 -34 74t-89 27l-8 7l6 181h275q1 -63 -17 -132h-10q-5 22 -14.5 29.5t-33.5 7.5h-146l-3 -70q28 2 49 2q89 0 141.5 -28.5t52.5 -75.5z" />
<glyph horiz-adv-x="454" d="M422 118q0 -57 -52 -91t-143 -34q-88 0 -141.5 41t-53.5 115q0 96 88 156t246 60l2 -8q-128 -42 -157 -151q38 18 82 18q59 0 94 -27t35 -79zM202 127q0 -106 32 -106q28 0 28 69q0 92 -41 92q-11 0 -15 -2q-4 -21 -4 -53z" />
<glyph horiz-adv-x="358" d="M249 0h-158q0 152 194 263h-205q-25 0 -38 -36h-10q5 79 23 131h262l9 -92q-42 -36 -62 -105.5t-15 -160.5z" />
<glyph horiz-adv-x="430" d="M398 99q0 -46 -50.5 -76t-138.5 -30q-73 0 -125 23.5t-52 63.5q0 59 103 78q-27 16 -43 28t-29.5 32.5t-13.5 44.5q0 44 49 73t129 29q69 0 111 -22.5t42 -58.5q0 -51 -85 -70q26 -14 38.5 -22t30.5 -22.5t26 -32t8 -38.5zM207 306q0 -37 46 -69q9 24 9 58q0 42 -29 42 q-12 0 -19 -9t-7 -22zM181 72q0 -51 29 -51q11 0 18 9t7 23q0 40 -47 73q-7 -28 -7 -54z" />
<glyph horiz-adv-x="454" d="M32 240q0 57 52 91t143 34q88 0 141.5 -41t53.5 -115q0 -96 -88 -156t-246 -60l-2 8q128 42 157 151q-38 -18 -82 -18q-59 0 -94 27t-35 79zM192 268q0 -92 41 -92q11 0 15 2q4 21 4 53q0 106 -32 106q-28 0 -28 -69z" />
<glyph horiz-adv-x="566" d="M42 245q0 108 68 181.5t174 82.5v111l42 3l8 -6v-108q92 -6 142.5 -51t50.5 -103q0 -38 -26.5 -59t-68.5 -21q-44 0 -80 20q0 95 -8.5 135t-34.5 40q-47 0 -47 -149q0 -93 40.5 -137t112.5 -44q51 0 109 28l8 -8q-18 -67 -67 -113.5t-131 -54.5v-112l-42 -3l-8 6v107 q-106 5 -174 74t-68 181z" />
<glyph horiz-adv-x="510" d="M418 114l-61 64q-47 -36 -110 -36q-57 0 -101 28l-56 -56l-40 40l56 56q-34 47 -34 114q0 62 40 111l-58 59l36 36q16 -15 60 -59q46 31 101 31q62 0 108 -33l61 61l40 -40l-63 -63q29 -43 29 -98q0 -61 -32 -110q13 -13 33.5 -33t28.5 -28v-11zM250 417q-43 0 -65.5 -27 t-22.5 -66q0 -38 23.5 -67.5t64.5 -29.5q44 0 65 28.5t21 70.5q0 38 -22 64.5t-64 26.5z" />
<glyph horiz-adv-x="614" d="M337 -120l-42 -3l-8 6v107h-6q-146 0 -196 25q-27 13 -27 48q0 44 19 91.5t41 73.5l10 -2l103 -194q18 -2 26 -2q37 0 59.5 24.5t22.5 64.5q0 31 -21 58t-52 45t-67.5 42t-67.5 48t-52 63.5t-21 88.5q0 86 71 137.5t178 57.5v111l42 3l8 -6v-107q118 -3 173 -36 q22 -13 22 -39q0 -35 -24 -86.5t-46 -71.5l-10 2l-89 189q-18 2 -26 2q-35 0 -58.5 -22.5t-23.5 -60.5q0 -33 21.5 -62t54.5 -49.5t70.5 -46t70.5 -50t54.5 -62t21.5 -81.5q0 -90 -61.5 -137t-169.5 -57v-112z" />
<glyph horiz-adv-x="694" d="M506 255h-146q36 -124 163 -124q66 0 120 37l9 -7q-20 -79 -82.5 -125t-159.5 -46q-124 0 -201.5 68t-93.5 197h-73l5 45h64v20q0 17 1 25h-61l5 45h62q23 121 115.5 195.5t213.5 74.5q89 0 145.5 -37.5t56.5 -90.5q0 -33 -24.5 -52.5t-64.5 -19.5q-19 0 -55 4 q-8 146 -68 146q-39 0 -64 -60t-27 -160h174l-5 -45h-168q0 -17 4 -45h160z" />
<glyph horiz-adv-x="586" d="M326 124q-18 -117 -105 -189t-192 -72q-47 0 -76 19.5t-29 50.5q0 64 100 94q8 -99 46 -99q30 0 49 48t19 147v152h-103l6 45h97v48q0 76 26.5 134.5t71.5 92t96.5 49.5t108.5 16q80 0 126.5 -28.5t46.5 -71.5t-29.5 -71t-70.5 -34q-33 116 -46 140q-13 23 -27 23 q-27 0 -39.5 -42.5t-29.5 -151.5q-1 -9 -2 -14l-14 -90h149l-6 -45h-150z" />
<glyph horiz-adv-x="589" d="M487 275h-147q-36 -122 -118 -205q131 -50 284 -50q27 0 60 5q2 -18 2 -27q0 -55 -29.5 -95t-87.5 -40q-41 0 -79.5 20.5t-64.5 46.5t-62 57t-66 45q-59 -42 -108 -42q-29 0 -45 14.5t-16 36.5q0 26 22.5 46.5t61.5 20.5q31 0 81 -20q5 29 5 70q0 19 -7 117h-107l6 45h98 q-2 58 5 114q13 100 79 163t177 63q80 0 128 -29t48 -73q0 -38 -31 -63t-74 -30q-17 84 -30.5 118.5t-34.5 34.5t-31.5 -29.5t-25.5 -114.5l-24 -133q0 -4 -1.5 -11t-2.5 -10h141z" />
<glyph horiz-adv-x="632" d="M479 0h-324l-2 16l27 10q17 6 22 15.5t5 30.5v57h-123v45h123v45h-123v45h123l-161 308q-19 37 -45 49l-29 13l2 16h353l2 -16l-61 -24l129 -314l128 312l-59 26l2 16h190l2 -16q-12 -8 -24 -18q-42 -36 -85 -116l-126 -236h123v-45h-123v-45h123v-45h-123v-88l56 -25z " />
<glyph horiz-adv-x="566" d="M42 245q0 108 68 181.5t174 82.5v111l42 3l8 -6v-108q92 -6 142.5 -51t50.5 -103q0 -38 -26.5 -59t-68.5 -21q-44 0 -80 20q0 95 -8.5 135t-34.5 40q-47 0 -47 -149q0 -93 40.5 -137t112.5 -44q51 0 109 28l8 -8q-18 -67 -67 -113.5t-131 -54.5v-112l-42 -3l-8 6v107 q-106 5 -174 74t-68 181z" />
<glyph horiz-adv-x="510" d="M418 35l-61 64q-47 -36 -110 -36q-57 0 -101 28l-56 -56l-40 40l56 56q-34 47 -34 114q0 62 40 111l-58 59l36 36q16 -15 60 -59q46 31 101 31q62 0 108 -33l61 61l40 -40l-63 -63q29 -43 29 -98q0 -61 -32 -110q13 -13 33.5 -33t28.5 -28v-11zM250 338q-43 0 -65.5 -27 t-22.5 -66q0 -38 23.5 -67.5t64.5 -29.5q44 0 65 28.5t21 70.5q0 38 -22 64.5t-64 26.5z" />
<glyph horiz-adv-x="554" d="M251 -10q-118 0 -166 25q-27 15 -27 53q0 40 21.5 74.5t48.5 45.5l12 -6q22 -70 46 -107q29 -45 67 -45q21 0 33.5 13t12.5 34q0 27 -23.5 50.5t-56.5 43t-66.5 42t-57 58t-23.5 81.5q0 65 54.5 106t143.5 50v112l42 3l8 -6v-107q117 0 165 -41q22 -18 22 -39 q0 -35 -25 -68t-55 -45l-12 6q-22 80 -45 114q-23 33 -56 33q-20 0 -32.5 -12.5t-12.5 -30.5q0 -28 24.5 -53t59.5 -46t70.5 -44t60 -57t24.5 -75q0 -71 -53 -110.5t-145 -48.5v-113l-42 -3l-8 6v107h-9z" />
<glyph horiz-adv-x="646" d="M450 208h-98q40 -72 135 -72q55 0 109 32l8 -8q-46 -170 -230 -170q-102 0 -174 58.5t-87 159.5h-71l5 45h63v2q0 20 3 38h-60l5 45h65q27 79 101.5 125.5t180.5 46.5q82 0 135.5 -28.5t53.5 -65.5q0 -30 -23.5 -50.5t-69.5 -24.5q-36 119 -96 119q-39 0 -59 -33.5 t-20 -88.5h140l-5 -45h-133q1 -17 7 -40h120z" />
<glyph horiz-adv-x="599" d="M335 124q-25 -121 -106.5 -191t-199.5 -70q-47 0 -76 19.5t-29 50.5q0 64 100 94q3 -41 15 -69.5t32 -28.5q26 0 39.5 45t17.5 149l3 72h-103l6 45h99q7 71 35 124.5t71 84.5t92 46t103 15q80 0 126.5 -28.5t46.5 -71.5t-29.5 -71t-70.5 -34q-33 116 -46 140 q-14 22 -27 23q-9 0 -15.5 -4t-12 -14.5t-9 -21.5t-8 -31.5t-7.5 -38t-8.5 -46.5t-10.5 -52l-4 -20h139l-6 -45h-142z" />
<glyph horiz-adv-x="562" d="M479 220h-146q-28 -81 -105 -153q127 -47 278 -47q27 0 60 5q2 -18 2 -27q0 -56 -34.5 -95.5t-101.5 -39.5q-43 0 -87 26.5t-96 70t-83 61.5q-53 -31 -95 -31q-29 0 -45 14.5t-16 36.5q0 26 19.5 46.5t53.5 20.5q33 0 70 -13v125h-105l6 45h99q2 114 67.5 179.5 t186.5 65.5q80 0 126.5 -26.5t46.5 -66.5q0 -41 -29.5 -67.5t-70.5 -32.5q-21 85 -34.5 119t-33.5 34q-16 0 -28 -34.5t-26 -109.5l-13 -61h140z" />
<glyph horiz-adv-x="566" d="M58 70v45h120v45h-120v45h119l-138 214q-28 43 -47 59l-10 8l2 14h312l2 -14l-49 -28l114 -225l116 226l-51 27l2 14h152l2 -14l-16 -10q-26 -15 -51 -56l-129 -214v-1h120v-45h-120v-45h120v-45h-120v-31l45 -25l-2 -14h-296l-2 14l18 10q17 9 22 18t5 28h-120z" />
<glyph horiz-adv-x="686" d="M580 164h-113l-43 -174l-91 16l-6 6l38 152h-112l-43 -174l-91 16l-6 6l38 152h-105l-6 6l13 84h120l35 142h-109l-6 6l13 84h124l43 174l91 -16l6 -6l-38 -152h112l43 174l91 -16l6 -6l-38 -152h94l6 -6l-13 -84h-109l-35 -142h98l6 -6zM275 254h112l35 142h-112z" />
<glyph horiz-adv-x="320" d="M157 420q-50 0 -83.5 31.5t-33.5 84.5q0 54 35.5 89t87.5 35q51 0 84 -31.5t33 -82.5q0 -55 -33 -90.5t-90 -35.5zM161 605q-29 0 -45 -19t-16 -47t17 -46t43 -18q28 0 44 19t16 46q0 29 -15.5 47t-43.5 18z" />
<glyph horiz-adv-x="1040" d="M668 660h101l-397 -670h-103zM445 475q0 -90 -60 -140t-146 -50q-84 0 -141.5 49t-57.5 138q0 88 61 136.5t144 48.5q85 0 142.5 -46.5t57.5 -135.5zM243 313q20 0 26 37.5t6 124.5q0 86 -6 120t-26 34t-26 -34t-7 -123q-1 -84 6.5 -121.5t26.5 -37.5zM1000 183 q0 -90 -60 -140t-146 -50q-84 0 -141.5 49t-57.5 138q0 88 61 136.5t144 48.5q85 0 142.5 -46.5t57.5 -135.5zM798 21q20 0 26 37.5t6 124.5q0 86 -6 120t-26 34t-26 -34t-7 -123q-1 -84 6.5 -121.5t26.5 -37.5z" />
<glyph horiz-adv-x="1485" d="M668 660h101l-397 -670h-103zM445 475q0 -90 -60 -140t-146 -50q-84 0 -141.5 49t-57.5 138q0 88 61 136.5t144 48.5q85 0 142.5 -46.5t57.5 -135.5zM243 313q20 0 26 37.5t6 124.5q0 86 -6 120t-26 34t-26 -34t-7 -123q-1 -84 6.5 -121.5t26.5 -37.5zM1000 183 q0 -90 -60 -140t-146 -50q-84 0 -141.5 49t-57.5 138q0 88 61 136.5t144 48.5q85 0 142.5 -46.5t57.5 -135.5zM1445 183q0 -90 -60 -140t-146 -50q-84 0 -141.5 49t-57.5 138q0 88 61 136.5t144 48.5q85 0 142.5 -46.5t57.5 -135.5zM798 21q20 0 26 37.5t6 124.5 q0 86 -6 120t-26 34t-26 -34t-7 -123q-1 -84 6.5 -121.5t26.5 -37.5zM1243 21q20 0 26 37.5t6 124.5q0 86 -6 120t-26 34t-26 -34t-7 -123q-1 -84 6.5 -121.5t26.5 -37.5z" />
<glyph horiz-adv-x="599" d="M510 256h-136v-144h-147l-1 144h-146v132q132 4 145 4l-1 147h150v-146q54 1 137 1l8 -8z" />
<glyph horiz-adv-x="599" d="M510 256h-430v132q145 6 431 6l8 -8z" />
<glyph horiz-adv-x="617" d="M421 114l-112 113l-115 -114l-98 98l114 115l-115 116l96 96q30 -27 117 -112l111 112l101 -100l-111 -111l113 -113v-12z" />
<glyph horiz-adv-x="599" d="M386 534q0 -41 -27.5 -68.5t-68.5 -27.5q-33 0 -55 22t-22 54q0 40 28.5 67.5t69.5 27.5q32 0 53.5 -21t21.5 -54zM510 256h-430v132q145 6 431 6l8 -8zM386 137q0 -41 -27.5 -68t-68.5 -27q-33 0 -55 22t-22 53q0 40 28.5 68t69.5 28q32 0 53.5 -21.5t21.5 -54.5z" />
<glyph horiz-adv-x="599" d="M510 363h-430v132q145 6 431 6l8 -8zM510 149h-430v132q145 6 431 6l8 -8z" />
<glyph horiz-adv-x="599" d="M179 23l-69 39l46 87h-76v132q138 4 148 4l42 78h-190v132q95 3 263 5l66 125l11 3l69 -39l-47 -88h69l8 -8l-9 -130h-141l-41 -77q71 1 183 1l8 -8l-9 -130h-255l-65 -123z" />
<glyph horiz-adv-x="600" d="M90 85v160l243 81l-242 77v160q70 -24 213 -82.5t217 -92.5l4 -11v-115z" />
<glyph horiz-adv-x="600" d="M510 566v-160l-243 -81l242 -77v-160q-70 24 -213 82.5t-217 92.5l-4 11v115z" />
<glyph horiz-adv-x="594" d="M80 213v147l227 53l-226 50v152q74 -19 217 -64.5t213 -72.5l4 -11v-115zM510 36h-430v132q145 6 431 6l8 -8z" />
<glyph horiz-adv-x="594" d="M510 615v-147l-228 -53l227 -50v-152q-74 19 -215.5 64.5t-214.5 72.5l-4 11v115zM505 36h-430v132q146 6 431 6l8 -8z" />
<glyph horiz-adv-x="599" d="M510 352h-136v-144h-147l-1 144h-146v132q132 4 145 4l-1 147h150v-146q54 1 137 1l8 -8zM510 15h-430v132q145 6 431 6l8 -8z" />
<glyph horiz-adv-x="614" d="M190 388q-11 0 -53 -49l-72 34q14 31 26 52.5t29.5 48t37 40.5t38.5 14q31 0 123.5 -22t104.5 -22q10 0 54 49l71 -34q-14 -31 -26 -52.5t-29.5 -48t-37 -40.5t-38.5 -14q-30 0 -123 22t-105 22zM190 164q-11 0 -53 -49l-72 34q14 31 26 52.5t29.5 48t37 40.5t38.5 14 q31 0 123.5 -22t104.5 -22q10 0 54 49l71 -34q-14 -31 -26 -52.5t-29.5 -48t-37 -40.5t-38.5 -14q-30 0 -123 22t-105 22z" />
<glyph horiz-adv-x="579" d="M509 425v-263h-145v133h-294v132q146 6 431 6z" />
<glyph horiz-adv-x="843" d="M783 326q0 -85 -51.5 -140.5t-133.5 -55.5q-99 0 -178 95q-66 -95 -182 -95q-79 0 -128.5 54.5t-49.5 139.5t51.5 140.5t133.5 55.5q96 0 178 -95q66 95 182 95q79 0 128.5 -54.5t49.5 -139.5zM572 401q-23 0 -47.5 -16.5t-40.5 -40.5q22 -31 35 -47.5t32.5 -30.5 t37.5 -14q22 0 38.5 20t16.5 53q0 35 -19.5 55.5t-52.5 20.5zM199 325q0 -35 19.5 -55.5t52.5 -20.5q24 0 48 16.5t40 40.5q-32 46 -55 69t-50 23q-22 0 -38.5 -20t-16.5 -53z" />
<glyph horiz-adv-x="680" d="M580 104h-119l-28 -114l-91 16l-6 6l23 92h-112l-28 -114l-91 16l-6 6l23 92h-99l-6 6l13 84h114l28 112h-102l-6 6l13 84h117l28 114l91 -16l6 -6l-23 -92h112l28 114l91 -16l6 -6l-23 -92h101l6 -6l-13 -84h-116l-28 -112h104l6 -6zM269 194h112l28 112h-112z" />
<glyph horiz-adv-x="320" d="M157 270q-50 0 -83.5 31.5t-33.5 84.5q0 54 35.5 89t87.5 35q51 0 84 -31.5t33 -82.5q0 -55 -33 -90.5t-90 -35.5zM161 455q-29 0 -45 -19t-16 -47t17 -46t43 -18q28 0 44 19t16 46q0 29 -15.5 47t-43.5 18z" />
<glyph horiz-adv-x="1032" d="M643 510h101l-358 -520h-103zM445 378q0 -67 -60 -103.5t-146 -36.5q-84 0 -141.5 36t-57.5 101q0 64 61 99.5t144 35.5q85 0 142.5 -34t57.5 -98zM243 266q20 0 26 26t6 86q0 58 -6 81t-26 23t-26 -23t-7 -84q-1 -58 6.5 -83.5t26.5 -25.5zM992 133q1 -67 -59 -103.5 t-147 -36.5q-84 0 -141 36t-58 101q1 64 61.5 99.5t143.5 35.5q85 0 143 -34t57 -98zM790 21q20 0 26.5 26t5.5 86q1 58 -5 81t-27 23q-20 0 -25.5 -23t-7.5 -84q0 -58 7.5 -83.5t25.5 -25.5z" />
<glyph horiz-adv-x="1477" d="M643 510h101l-358 -520h-103zM445 378q0 -67 -60 -103.5t-146 -36.5q-84 0 -141.5 36t-57.5 101q0 64 61 99.5t144 35.5q85 0 142.5 -34t57.5 -98zM243 266q20 0 26 26t6 86q0 58 -6 81t-26 23t-26 -23t-7 -84q-1 -58 6.5 -83.5t26.5 -25.5zM992 133q1 -67 -59 -103.5 t-147 -36.5q-84 0 -141 36t-58 101q1 64 61.5 99.5t143.5 35.5q85 0 143 -34t57 -98zM1437 133q1 -67 -59 -103.5t-147 -36.5q-84 0 -141 36t-58 101q1 64 61.5 99.5t143.5 35.5q85 0 143 -34t57 -98zM790 21q20 0 26.5 26t5.5 86q1 58 -5 81t-27 23q-20 0 -25.5 -23 t-7.5 -84q0 -58 7.5 -83.5t25.5 -25.5zM1235 21q20 0 26.5 26t5.5 86q1 58 -5 81t-27 23q-20 0 -25.5 -23t-7.5 -84q0 -58 7.5 -83.5t25.5 -25.5z" />
<glyph horiz-adv-x="599" d="M510 181h-136v-144h-147l-1 144h-146v132q132 4 145 4l-1 147h150v-146q54 1 137 1l8 -8z" />
<glyph horiz-adv-x="599" d="M510 181h-430v132q145 6 431 6l8 -8z" />
<glyph horiz-adv-x="617" d="M421 39l-112 113l-115 -114l-98 98l114 115l-115 116l96 96q30 -27 117 -112l111 112l101 -100l-111 -111l113 -113v-12z" />
<glyph horiz-adv-x="599" d="M386 459q0 -41 -27.5 -68.5t-68.5 -27.5q-33 0 -55 22t-22 54q0 40 28.5 67.5t69.5 27.5q32 0 53.5 -21t21.5 -54zM510 181h-430v132q145 6 431 6l8 -8zM386 62q0 -41 -27.5 -68t-68.5 -27q-33 0 -55 22t-22 53q0 40 28.5 68t69.5 28q32 0 53.5 -21.5t21.5 -54.5z" />
<glyph horiz-adv-x="599" d="M510 288h-430v132q145 6 431 6l8 -8zM510 74h-430v132q145 6 431 6l8 -8z" />
<glyph horiz-adv-x="599" d="M179 -52l-69 39l46 87h-76v132q138 4 148 4l42 78h-190v132q95 3 263 5l66 125l11 3l69 -39l-47 -88h69l8 -8l-9 -130h-141l-41 -77q71 1 183 1l8 -8l-9 -130h-255l-65 -123z" />
<glyph horiz-adv-x="600" d="M90 9v160l243 81l-242 77v160q70 -24 213 -82.5t217 -92.5l4 -11v-115z" />
<glyph horiz-adv-x="600" d="M510 9l-435 177v115l4 11q74 34 217 92.5t213 82.5v-160l-242 -77l243 -81v-160z" />
<glyph horiz-adv-x="594" d="M80 157v132l237 44l-236 44v133q229 -57 430 -117l4 -11v-106zM510 0h-430v122q146 6 431 6l8 -8z" />
<glyph horiz-adv-x="594" d="M510 157l-435 119v106l4 11q201 60 430 117v-133l-236 -44l237 -44v-132zM505 0h-430v122q146 6 431 6l8 -8z" />
<glyph horiz-adv-x="605" d="M516 271h-135v-110h-147l-1 110h-147v122q131 4 146 4l-1 113h150v-112q53 1 136 1l8 -8zM510 0h-430v122q146 6 431 6l8 -8z" />
<glyph horiz-adv-x="614" d="M190 314q-11 0 -53 -49l-72 34q14 31 26 52.5t29.5 48t37 40.5t38.5 14q31 0 123.5 -22t104.5 -22q10 0 54 49l71 -34q-14 -31 -26 -52.5t-29.5 -48t-37 -40.5t-38.5 -14q-30 0 -123 22t-105 22zM190 90q-11 0 -53 -49l-72 34q14 31 26 52.5t29.5 48t37 40.5t38.5 14 q31 0 123.5 -22t104.5 -22q10 0 54 49l71 -34q-14 -31 -26 -52.5t-29.5 -48t-37 -40.5t-38.5 -14q-30 0 -123 22t-105 22z" />
<glyph horiz-adv-x="579" d="M509 360v-263h-145v133h-294v132q146 6 431 6z" />
<glyph horiz-adv-x="843" d="M783 251q0 -85 -51.5 -140.5t-133.5 -55.5q-99 0 -178 95q-66 -95 -182 -95q-79 0 -128.5 54.5t-49.5 139.5t51.5 140.5t133.5 55.5q96 0 178 -95q66 95 182 95q79 0 128.5 -54.5t49.5 -139.5zM572 326q-23 0 -47.5 -16.5t-40.5 -40.5q22 -31 35 -47.5t32.5 -30.5 t37.5 -14q22 0 38.5 20t16.5 53q0 35 -19.5 55.5t-52.5 20.5zM199 250q0 -35 19.5 -55.5t52.5 -20.5q24 0 48 16.5t40 40.5q-32 46 -55 69t-50 23q-22 0 -38.5 -20t-16.5 -53z" />
<glyph horiz-adv-x="376" d="M24 303v45h328v-45h-328z" />
<glyph horiz-adv-x="544" d="M24 303v45h496v-45h-496z" />
<glyph horiz-adv-x="848" d="M24 303v45h800v-45h-800z" />
<glyph horiz-adv-x="368" d="M146 -10l-83 20l-3 7l162 643l83 -20l3 -7z" />
<glyph horiz-adv-x="368" d="M222 -10l-162 643l3 7l83 20l162 -643l-3 -7z" />
<glyph horiz-adv-x="416" d="M240 406q0 -30 -32 -30t-32 30q0 12 7.5 42.5t9.5 43.5q-8 -7 -31.5 -29.5t-34.5 -28.5q-25 -14 -42 13q-15 27 10 43q11 6 41.5 15t41.5 13q-11 4 -41.5 13t-41.5 15q-25 16 -10 43q17 27 42 13q11 -6 34.5 -28.5t31.5 -29.5q-2 13 -9.5 43.5t-7.5 42.5q0 30 32 30 t32 -30q0 -12 -7.5 -42.5t-9.5 -43.5q8 7 31.5 29.5t34.5 28.5q25 14 42 -13q15 -27 -10 -43q-11 -6 -41.5 -15t-41.5 -13q11 -4 41.5 -13t41.5 -15q25 -16 10 -43q-17 -27 -42 -13q-11 6 -34.5 28.5t-31.5 29.5q2 -13 9.5 -43.5t7.5 -42.5z" />
<glyph horiz-adv-x="340" d="M168 238q-39 0 -63.5 23t-24.5 59q0 39 28.5 65.5t68.5 26.5q36 0 59.5 -21.5t23.5 -56.5q0 -40 -26.5 -68t-65.5 -28z" />
<glyph horiz-adv-x="460" d="M224 181q-61 0 -101.5 37.5t-42.5 91.5q-2 65 47 112.5t116 47.5q57 0 96 -35.5t41 -93.5q2 -67 -43 -113.5t-113 -46.5z" />
<glyph horiz-adv-x="433" d="M121 569q0 41 32 66t80 25q42 0 68.5 -21.5t26.5 -56.5q0 -40 -33 -66t-80 -26q-42 0 -68 21.5t-26 57.5zM353 17l-4 -10q-112 -17 -213 -17q-30 0 -43 10.5t-13 36.5q0 27 18 90l86 289h70z" />
<glyph horiz-adv-x="433" d="M80 633l4 10q112 17 213 17q30 0 43 -10.5t13 -36.5q0 -27 -18 -90l-86 -289h-70zM312 81q0 -41 -32 -66t-80 -25q-42 0 -68.5 21.5t-26.5 56.5q0 40 33 66t80 26q42 0 68 -21.5t26 -57.5z" />
<glyph horiz-adv-x="568" d="M181 569q0 41 32 66t80 25q42 0 68.5 -21.5t26.5 -56.5q0 -40 -33 -66t-80 -26q-42 0 -68 21.5t-26 57.5zM239 417l8 8q11 1 20 1q38 0 65 -17.5t27 -49.5q0 -26 -13 -54q-11 -22 -42 -55.5t-52.5 -69t-21.5 -77.5q0 -32 15 -52.5t46 -20.5q33 0 50 28.5t17 72.5 q0 29 -8 83q29 16 79 16q58 0 98.5 -24.5t40.5 -65.5q0 -63 -87 -106.5t-207 -43.5q-122 0 -198 41t-76 112q0 44 34 82.5t72 58.5t80 38t45 20q8 6 8 21v54z" />
<glyph horiz-adv-x="568" d="M329 233l-8 -8q-11 -1 -20 -1q-38 0 -65 17.5t-27 49.5q0 26 13 54q11 22 42 55.5t52.5 69t21.5 77.5q0 32 -15 52.5t-46 20.5q-33 0 -50 -28.5t-17 -72.5q0 -29 8 -83q-29 -16 -79 -16q-58 0 -98.5 24.5t-40.5 65.5q0 63 87 106.5t207 43.5q122 0 198 -41t76 -112 q0 -44 -34 -82.5t-72 -58.5t-80 -38t-45 -20q-8 -6 -8 -21v-54zM387 81q0 -41 -32 -66t-80 -25q-42 0 -68.5 21.5t-26.5 56.5q0 40 33 66t80 26q42 0 68 -21.5t26 -57.5z" />
<glyph horiz-adv-x="446" d="M35 647l4 6q67 7 147 7l13 -17l-73 -269h-34l-23 130zM237 647l4 6q67 7 147 7l13 -17l-73 -269h-34l-23 130z" />
<glyph horiz-adv-x="244" d="M40 647l4 6q67 7 147 7l13 -17l-73 -269h-34l-23 130z" />
<glyph horiz-adv-x="348" d="M285 123l-11 -8q-94 91 -211 179l-3 6v50q176 146 217 185l11 -8q-39 -115 -82 -206q39 -73 79 -198z" />
<glyph horiz-adv-x="348" d="M285 294q-117 -88 -211 -179l-11 8q40 125 79 198q-43 91 -82 206l11 8q41 -39 217 -185v-50z" />
<glyph horiz-adv-x="565" d="M502 126l-11 -8q-94 91 -211 179l-3 6v50q176 146 217 185l11 -8q-39 -115 -82 -206q39 -73 79 -198zM285 126l-11 -8q-94 91 -211 179l-3 6v50q176 146 217 185l11 -8q-39 -115 -82 -206q39 -73 79 -198z" />
<glyph horiz-adv-x="565" d="M285 297q-117 -88 -211 -179l-11 8q40 125 79 198q-43 91 -82 206l11 8q41 -39 217 -185v-50zM502 297q-117 -88 -211 -179l-11 8q40 125 79 198q-43 91 -82 206l11 8q41 -39 217 -185v-50z" />
<glyph horiz-adv-x="263" d="M40 429q0 70 53 137.5t117 93.5l13 -12q-54 -64 -69 -139q30 -5 48 -25.5t18 -51.5q0 -44 -26 -69.5t-65 -25.5q-40 0 -64.5 26t-24.5 66z" />
<glyph horiz-adv-x="263" d="M223 568q0 -70 -53 -137.5t-117 -93.5l-13 12q54 64 69 139q-30 5 -48 25.5t-18 51.5q0 44 26 69.5t65 25.5q40 0 64.5 -26t24.5 -66z" />
<glyph horiz-adv-x="481" d="M40 429q0 70 53 137.5t117 93.5l13 -12q-54 -64 -69 -139q30 -5 48 -25.5t18 -51.5q0 -44 -26 -69.5t-65 -25.5q-40 0 -64.5 26t-24.5 66zM258 429q0 70 53 137.5t117 93.5l13 -12q-54 -64 -69 -139q30 -5 48 -25.5t18 -51.5q0 -44 -26 -69.5t-65 -25.5q-40 0 -64.5 26 t-24.5 66z" />
</font>
</defs>
</svg>
