<?xml version="1.0" standalone="no"?>
<!DOCTYPE svg PUBLIC "-//W3C//DTD SVG 1.1//EN" "http://www.w3.org/Graphics/SVG/1.1/DTD/svg11.dtd" >
<svg xmlns="http://www.w3.org/2000/svg" xmlns:xlink="http://www.w3.org/1999/xlink" version="1.1">
<metadata></metadata>
<defs>
<font id="indivisa_display_serifregular" horiz-adv-x="589" >
<font-face units-per-em="1000" ascent="800" descent="-200" />
<missing-glyph horiz-adv-x="200" />
<glyph unicode="&#xfb00;" horiz-adv-x="662" d="M282 0h-257l-2 12l44 11q13 5 17 11.5t4 20.5v394h-70l-2 12l72 19v-1q5 95 63 155.5t155 60.5q87 0 138 -59q55 60 144 60q57 0 96 -29.5t39 -68.5q0 -22 -17 -33.5t-43 -11.5q-13 0 -25 3q-2 51 -18.5 79.5t-44.5 28.5q-75 0 -76 -120q0 -2 2 -25t3 -41h146v-28h-145 v-417l85 -20l-2 -12h-267l-1 12l43 11q13 5 17.5 11t4.5 20v394h-177v-416l75 -21zM203 535q0 -8 2 -25.5t3 -31.5h167l10 2q2 33 7 55q-2 59 -26.5 93.5t-65.5 34.5q-45 0 -71 -32.5t-26 -95.5z" />
<glyph unicode="&#xfb03;" horiz-adv-x="891" d="M282 0h-257l-2 12l44 11q13 5 17 11.5t4 20.5v394h-70l-2 12l72 18q5 95 63 155.5t155 60.5q42 0 80 -17t61 -45q59 62 160 62q73 0 118.5 -28.5t45.5 -66.5q0 -21 -18 -32t-47 -11q-15 0 -30 3q-5 103 -81 103q-63 0 -82 -62q-9 -36 -9 -123h177q50 26 113 32l7 -7v-470 l75 -21l-1 -12h-257l-2 12l44 11q13 5 17 11.5t4 20.5v394h-176v-416l75 -21l-2 -12h-257l-1 12l43 11q13 5 17.5 11.5t4.5 20.5v394h-177v-416l75 -21zM203 535q0 -8 2 -25.5t3 -31.5h177q2 34 8 56q-2 59 -26.5 94t-66.5 35q-45 0 -71 -32.5t-26 -95.5z" />
<glyph unicode="&#xfb04;" horiz-adv-x="881" d="M272 0h-247l-2 12l44 11q13 5 17 11.5t4 20.5v394h-70l-2 12l72 19v-1q5 95 63 155.5t155 60.5q42 0 80 -17t60 -45q60 62 158 62q64 0 113 -32q50 15 77 16l7 -7v-639l65 -21l-1 -12h-247l-2 12l44 11q13 5 17 11.5t4 20.5v394h-176v-416l65 -21l-2 -12h-247l-1 12 l43 11q13 5 17.5 11.5t4.5 20.5v394h-177v-416l65 -21zM203 535q0 -8 2 -25.5t3 -31.5h177q2 31 7 55q-2 60 -26 95t-66 35q-45 0 -71 -32.5t-26 -95.5zM500 535q0 -8 1.5 -25.5t2.5 -31.5h177v94q-3 42 -25 66.5t-59 24.5q-46 0 -71.5 -32.5t-25.5 -95.5z" />
<glyph unicode="fi" horiz-adv-x="588" d="M285 0h-257l-2 12l44 11q13 5 17 11.5t4 20.5v394h-70l-2 12l72 18q5 95 64 155.5t158 60.5q73 0 118.5 -28.5t45.5 -66.5q0 -43 -65 -43q-15 0 -30 3q-2 48 -22 75.5t-58 27.5q-65 0 -82 -62q-9 -32 -9 -123h176q51 23 113 27l8 -7v-465l65 -21l-2 -12h-247l-1 12l43 11 q13 5 17.5 11.5t4.5 20.5v394h-177v-416l75 -21z" />
<glyph unicode="fl" horiz-adv-x="585" d="M282 0h-257l-2 12l44 11q13 5 17 11.5t4 20.5v394h-70l-2 12l72 19v-1q5 95 63 155.5t157 60.5q63 0 112 -32q50 15 77 16l8 -7v-639l65 -21l-2 -12h-247l-1 12l43 11q13 5 17.5 11.5t4.5 20.5v394h-177v-416l75 -21zM203 535q0 -8 2 -25.5t3 -31.5h177v82q0 47 -22 75 t-62 28q-46 0 -72 -32.5t-26 -95.5z" />
<glyph unicode="&#x2f;symbol&#x33;&#x2f;" horiz-adv-x="957" d="M505 638l68 -270h270l-203 -135l136 -270l-271 135l-270 -270l135 405l-270 203l338 -68zM814 87q18 0 30.5 -12.5t12.5 -31.5q0 -18 -12.5 -30.5t-30.5 -12.5t-30.5 12.5t-12.5 30.5q0 19 12.5 31.5t30.5 12.5zM854 43q0 17 -11.5 29t-28.5 12t-28.5 -12t-11.5 -29 t12 -28.5t28 -11.5t28 11.5t12 28.5zM796 68h18q8 0 11 -2q6 -3 6 -10q0 -5 -4 -9q-3 -3 -6 -3q7 -3 8 -10q2 -14 3 -16h-7q-1 2 -2 7.5t-1 6.5q0 9 -10 9h-9v-23h-7v50zM803 47h10q5 0 7 1q3 3 3 6q0 9 -10 9h-10v-16z" />
<glyph unicode="&#x2f;symbol&#x32;&#x2f;" horiz-adv-x="932" d="M494 570l52 -90l-137 -240h-103l137 240l-52 90h103zM357 570l52 -90l-138 -240h-103l138 240l-52 90h103zM752 120h-103l-137 240l51 90l137 -240h103zM683 0h-103l-137 240l51 90l138 -240h103zM100 120l51 90h275l51 -90h-274l-52 -90zM168 0l52 90h274l52 -90h-275 l-51 -90zM789 88q18 0 30.5 -13t12.5 -31t-12.5 -31t-30.5 -13t-30.5 13t-12.5 31t12.5 31t30.5 13zM829 44q0 16 -11.5 28t-28.5 12t-28.5 -12t-11.5 -28t11.5 -28t28.5 -12t28.5 12t11.5 28zM771 69h18q7 0 11 -2q5 -4 5 -11q0 -5 -3 -8q-1 -2 -6 -4q7 -1 8 -9q0 -8 3 -16 h-8q-1 2 -1.5 6.5t-0.5 6.5q-1 10 -11 10h-8v-23h-7v50zM778 47h10q5 0 7 1q3 3 3 7q0 8 -10 8h-10v-16z" />
<glyph unicode="&#x2f;symbol&#x31;&#x2f;" horiz-adv-x="5534" d="M1865 412q-25 0 -40.5 14.5t-15.5 37.5q0 35 32.5 64t70.5 29q24 0 39 -13.5t15 -37.5q0 -36 -31 -65t-70 -29zM1284 412q-26 0 -41.5 14.5t-15.5 37.5q0 35 33 64t71 29q24 0 38.5 -13.5t14.5 -37.5q0 -36 -31 -65t-69 -29zM959 0q0 42 11 108q-16 -50 -51.5 -82.5 t-78.5 -32.5q-41 0 -63 29.5t-22 82.5q0 62 27 121t84 101t132 42q17 0 25 -1l16 73l6 102l136 7q0 -67 -46 -273t-46 -277h-130zM100 0l78 364q17 86 21 136l128 7l11 -15l-104 -492h-134zM3503 492l-57 -492h-131l20 175q5 50 33 215h-3q-31 -102 -81 -215l-76 -175h-149 l-2 175q-2 121 9 215h-2q-32 -130 -59 -215l-53 -175h-109l154 500l184 6l1 -137q2 -134 -15 -259h2q39 126 94 259l56 131l169 7zM5316 300q-37 -177 -37 -183q0 -34 36 -34q25 0 59 18l-9 -79q-52 -29 -114 -29q-105 0 -105 100q0 20 40 210l-47 1l9 44l54 14l53 95l81 6 l13 -15l-20 -86h99l6 -14l-17 -51zM3936 0q0 74 42 260l5 102l137 7q0 -31 -7 -89h2q53 89 134 89q34 0 53 -19.5t19 -51.5q0 -27 -26 -147q-18 -85 -18 -151h-131q0 55 19 150q15 71 15 87q0 24 -17 24q-34 0 -64 -82.5t-32 -178.5h-131zM3768 369q87 0 145 -32l-28 -128 q-31 -145 -31 -209h-130q0 45 12 112q-15 -52 -51 -85.5t-81 -33.5q-41 0 -63 29.5t-22 83.5q0 46 16 91.5t46 84t79 63t108 24.5zM4653 51q-67 -58 -159 -58q-65 0 -103.5 35t-38.5 102q0 94 68.5 166.5t167.5 72.5q54 0 86.5 -23.5t32.5 -64.5q0 -57 -60 -96.5t-161 -43.5 v-1q0 -64 63 -64q42 0 90 28zM2525 369q88 0 146 -32l-29 -128q-31 -145 -31 -209h-130q0 37 12 112q-15 -52 -51 -85.5t-81 -33.5q-41 0 -62.5 29.5t-21.5 83.5q0 62 26.5 120.5t85 100.5t136.5 42zM2245 256q-52 30 -97 30q-18 0 -30 -7t-12 -19q0 -14 20 -26.5t44 -22 t44 -33t20 -56.5q0 -57 -53 -93t-128 -36q-78 0 -118 28l27 93q57 -38 111 -38q19 0 29.5 7.5t10.5 18.5q0 13 -20 26t-44 23t-44 33t-20 55q0 56 54.5 93t128.5 37q58 0 104 -18zM4716 0q0 79 41 260l6 102l137 7q0 -12 -7 -89h2q52 89 134 89q34 0 53 -19.5t19 -51.5 q0 -27 -26 -147q-19 -90 -19 -151h-130q0 55 19 150q15 78 15 87q0 24 -17 24q-35 0 -65 -82t-32 -179h-130zM1752 0q0 69 26 193l15 67l6 102l137 7q0 -46 -27 -177t-27 -192h-130zM1399 362l140 7q13 -129 -5 -289h2q76 151 91 284q22 5 50 5q32 0 48.5 -8.5t16.5 -33.5 q0 -46 -51 -147.5t-116 -179.5h-149q-5 228 -27 362zM1170 0q0 72 27 193l14 67l6 102l137 7q0 -46 -27 -177t-27 -192h-130zM336 0q0 79 41 260l6 102l137 7q0 -31 -7 -89h2q52 89 134 89q34 0 53 -19.5t19 -51.5q0 -27 -26 -147q-18 -85 -18 -151h-131q0 55 19 150 q15 78 15 87q0 24 -17 24q-34 0 -64 -82.5t-32 -178.5h-131zM4490 177q47 10 73 34t26 59q0 31 -22 31q-28 0 -48.5 -38.5t-28.5 -85.5zM2435 101q23 0 47 43.5t37 100.5q3 14 9 44q-14 8 -27 8q-34 0 -62 -54.5t-28 -101.5q0 -40 24 -40zM913 101q22 0 44.5 39.5t37.5 94.5 q1 9 8 40l3 14q-14 8 -27 8q-33 0 -61.5 -54.5t-28.5 -101.5q0 -40 24 -40zM3677 101q23 0 47 43t38 101q1 8 4.5 24.5t4.5 19.5q-16 8 -27 8q-34 0 -62.5 -54.5t-28.5 -101.5q0 -40 24 -40z" />
<glyph unicode="&#x2f;symbol&#x35;&#x2f;" horiz-adv-x="705" d="M232 -6l-132 136l124 234l129 -136zM474 -6l-121 234l128 136l124 -234z" />
<glyph unicode="&#x2f;symbol&#x34;&#x2f;" horiz-adv-x="2607" d="M1684 406q0 65 -11 128l126 14l15 -15v-533h-130v406zM1889 406q0 62 -10 128l126 14l14 -15v-533h-130v406zM427 101v-101h-320v362q0 80 -7 135l126 7l14 -14v-396zM925 21l7 109q62 -36 144 -36q50 0 50 36q0 20 -31.5 41.5t-69 40.5t-69 57t-31.5 88q0 69 55 108 t138 39q80 0 127 -18l-14 -111q-56 29 -111 29q-27 0 -42.5 -11t-15.5 -29q0 -20 20.5 -38t50 -34t59.5 -35t50.5 -51t20.5 -72q0 -66 -53.5 -103.5t-139.5 -37.5q-41 0 -83.5 8t-61.5 20zM2405 213q0 -24 -1 -36l-11 -11h-191q14 -83 98 -83q44 0 84 21l7 -81 q-46 -30 -127 -30q-90 0 -144 47.5t-54 134.5q0 85 52 139t132 54q72 0 113.5 -43t41.5 -112zM795 0l-106 -7q-11 16 -21 49h-4q-34 -49 -104 -49q-43 0 -70 23t-27 66q0 113 191 118v20q0 54 -58 54q-55 0 -108 -29l-8 97q72 26 150 26q154 0 154 -135q0 -25 -2 -69t-2 -70 q0 -51 15 -94zM1626 0l-107 -7q-12 20 -21 49h-3q-34 -49 -105 -49q-43 0 -69.5 23t-26.5 66q0 113 191 118v20q0 54 -58 54q-54 0 -109 -29l-7 97q72 26 150 26q153 0 153 -135q0 -25 -1.5 -69.5t-1.5 -69.5q0 -51 15 -94zM2199 207l78 4q2 14 2 26q0 59 -34 59 q-44 0 -46 -89zM654 74v88q-29 -3 -47 -18t-18 -39q0 -18 10 -29t27 -11q16 0 28 9zM1485 74v88q-29 -3 -47 -18t-18 -39q0 -18 10 -29t27 -11q16 0 28 9zM2464 85q18 0 30.5 -13t12.5 -31t-12.5 -31t-30.5 -13t-31 13t-13 31t13 31t31 13zM2504 41q0 17 -12 28.5t-28 11.5 t-28 -11.5t-12 -28.5t12 -28.5t28 -11.5t28 11.5t12 28.5zM2446 66h18q7 0 11 -3q5 -3 5 -10q0 -5 -3 -9q-3 -3 -6 -3q7 -1 8 -10q0 -7 3 -15h-8q-1 2 -1.5 6.5t-0.5 6.5q-1 9 -11 9h-8v-22h-7v50zM2453 44h10q5 0 7 1q3 3 3 7q0 8 -10 8h-10v-16z" />
<glyph unicode=" "  horiz-adv-x="200" />
<glyph unicode="&#x09;" horiz-adv-x="200" />
<glyph unicode="&#xa0;" horiz-adv-x="200" />
<glyph unicode="!" horiz-adv-x="351" d="M98 679l4 7q66 9 118 9q33 0 33 -28q0 -25 -10 -92l-47 -381h-44zM240 48q0 -29 -21 -48t-53 -19q-29 0 -46.5 16t-17.5 41q0 29 22 48t53 19q28 0 45.5 -15.5t17.5 -41.5z" />
<glyph unicode="&#x22;" horiz-adv-x="386" d="M52 686l4 5q37 4 87 4l9 -11l-42 -244h-24l-14 116zM234 686l4 5q37 4 87 4l9 -11l-42 -244h-24l-14 116z" />
<glyph unicode="#" horiz-adv-x="709" d="M601 179h-139l-46 -189l-57 8l-6 7l43 174h-146l-46 -189l-57 8l-6 7l43 174h-126l-6 5l8 52h138l44 179h-135l-6 5l7 52h148l47 188l56 -8l6 -6l-43 -174h146l47 188l56 -8l6 -6l-43 -174h117l6 -5l-8 -52h-129l-44 -179h126l6 -5zM264 236h146l44 179h-146z" />
<glyph unicode="$" horiz-adv-x="565" d="M304 -120l-33 -3l-7 6v107q-135 0 -178 38q-17 15 -17 56q0 61 33 125l9 -1l61 -170q34 -17 80 -17q54 0 86.5 30t32.5 81q0 37 -22 67.5t-55 50t-72 43t-72 46.5t-55 61.5t-22 86.5q0 75 58.5 121t148.5 51v111l34 3l6 -6v-107q112 -4 150 -36q15 -12 15 -52 q0 -26 -12.5 -63t-25.5 -59l-9 1l-54 165q-28 13 -70 13q-52 0 -84 -28t-32 -76q0 -45 31.5 -80t76 -60.5t89 -52.5t76 -69t31.5 -96q0 -79 -54 -123t-144 -52v-112z" />
<glyph unicode="%" horiz-adv-x="975" d="M652 660h69l-399 -670h-69zM402 475q0 -89 -49.5 -139.5t-123.5 -50.5q-75 0 -122.5 49t-47.5 137q0 87 50.5 136.5t123.5 49.5t121 -47t48 -135zM232 308q70 0 70 167q0 159 -70 159q-71 0 -73 -163q0 -163 73 -163zM916 183q0 -89 -49.5 -139.5t-123.5 -50.5 q-75 0 -122.5 49t-47.5 137q0 87 50.5 136.5t123.5 49.5t121 -47t48 -135zM746 16q70 0 70 167q0 159 -70 159q-71 0 -73 -163q0 -163 73 -163z" />
<glyph unicode="&#x26;" horiz-adv-x="771" d="M334 -10q-122 0 -192 47t-70 121q0 56 43.5 97.5t116.5 61.5l-14 15q-75 86 -75 159q0 72 63 121.5t155 49.5q79 0 126.5 -39.5t47.5 -96.5q0 -30 -16 -45.5t-44 -15.5q-23 0 -35 6q4 23 4 46q0 51 -23 81t-61 30q-40 0 -66.5 -28.5t-26.5 -72.5q0 -42 21 -81t66 -89 l193 -215q23 51 23 112q0 76 -31 118q18 21 53 21q33 0 52.5 -28.5t19.5 -75.5q0 -109 -72 -192q53 -47 101 -48q14 0 41 9l5 -11q-50 -58 -118 -58q-58 0 -115 41q-75 -40 -172 -40zM193 179q0 -70 43.5 -109.5t121.5 -39.5q65 0 113 28q-30 28 -51 53l-166 181 q-61 -50 -61 -113z" />
<glyph unicode="'" horiz-adv-x="204" d="M52 686l4 5q37 4 87 4l9 -11l-42 -244h-24l-14 116z" />
<glyph unicode="(" horiz-adv-x="377" d="M345 -95l-13 -15q-112 63 -176 164.5t-64 238.5t64 238t176 164l13 -15q-56 -66 -91.5 -166.5t-36.5 -220.5q1 -120 36 -220.5t92 -167.5z" />
<glyph unicode=")" horiz-adv-x="377" d="M32 680l13 15q112 -63 176 -164t64 -238t-64 -238.5t-176 -164.5l-13 15q56 66 91.5 167t36.5 221q-1 120 -36 220t-92 167z" />
<glyph unicode="*" horiz-adv-x="421" d="M235 457q0 -27 -24 -27t-24 27q0 12 6 42t8 46q-14 -10 -30.5 -24.5t-27.5 -23t-20 -10.5q-19 -7 -28 13q-8 20 12 31q11 6 40 16t44 16q-16 7 -44.5 16.5t-39.5 15.5q-21 11 -12 30q9 20 28 14q8 -3 19 -11.5t28.5 -23t30.5 -24.5q-2 17 -8 47t-6 41q0 27 24 27t24 -27 q0 -11 -6 -41t-8 -47q12 9 29.5 24.5t29 24t19.5 10.5q18 7 28 -13q7 -18 -13 -31q-10 -5 -38 -15t-45 -17q17 -7 45 -17t38 -15q24 -13 12 -34q-10 -18 -28 -10q-8 2 -19.5 10.5t-28 23.5t-29.5 24q2 -16 8 -46t6 -42z" />
<glyph unicode="+" horiz-adv-x="569" d="M485 284h-156v-163h-88l-1 163h-162l-1 78q78 2 163 2v166h89v-165q61 1 157 1l6 -6z" />
<glyph unicode="," horiz-adv-x="235" d="M183 44q0 -52 -36 -110.5t-85 -92.5l-10 8q49 69 59 142q-22 4 -35 18.5t-13 36.5q0 30 17 47.5t44 17.5t43 -18.5t16 -48.5z" />
<glyph unicode="-" horiz-adv-x="372" d="M36 250v34h300v-34h-300z" />
<glyph unicode="." horiz-adv-x="224" d="M111 -10q-26 0 -42.5 16t-16.5 41q0 27 19 45.5t46 18.5q24 0 39.5 -15t15.5 -39q0 -28 -17 -47.5t-44 -19.5z" />
<glyph unicode="/" horiz-adv-x="397" d="M130 -103l-55 14l-3 5l196 779l55 -13l2 -5z" />
<glyph unicode="0" horiz-adv-x="605" d="M561 329q0 -159 -73.5 -249t-186.5 -90q-115 0 -186 87.5t-71 246.5q0 157 75 246.5t188 89.5q112 0 183 -86t71 -245zM305 24q59 0 90.5 79t31.5 226q1 146 -31 222.5t-91 76.5q-61 0 -93.5 -78t-33.5 -226q0 -146 33.5 -223t93.5 -77z" />
<glyph unicode="1" horiz-adv-x="370" d="M338 0h-307l-1 13l73 14q13 3 17 9t4 20v537l-93 5l-2 12l212 50l7 -7v-619l91 -21z" />
<glyph unicode="2" horiz-adv-x="513" d="M55 0l-10 69q54 49 78.5 72t64.5 62.5t58 63.5t39 56.5t28.5 61.5t7.5 60q0 56 -32 90.5t-86 34.5q-52 0 -92.5 -31.5t-62.5 -85.5l-12 4q19 94 81.5 148.5t149.5 54.5t137.5 -49.5t50.5 -127.5q0 -30 -10 -61t-23.5 -55.5t-42.5 -56t-50 -52t-64.5 -55t-67.5 -52 t-77 -56.5h264q31 0 45.5 19t28.5 76l11 -1q-4 -109 -23 -189h-391z" />
<glyph unicode="3" horiz-adv-x="495" d="M451 165q0 -77 -71 -126t-173 -49q-87 0 -145 28.5t-58 79.5q0 29 25.5 50t65.5 29l5 -4q-5 -8 -5 -23q0 -60 28 -93.5t79 -33.5t83 35t32 95q0 67 -47 104.5t-115 37.5q-21 0 -42 -3l-5 22q95 14 145.5 53.5t50.5 100.5q0 44 -29.5 72t-77.5 28q-49 0 -91.5 -30 t-64.5 -82l-11 5q19 90 81.5 144.5t147.5 54.5q79 0 129 -42.5t50 -108.5q0 -72 -56 -117t-145 -64q95 -6 154.5 -49t59.5 -114z" />
<glyph unicode="4" horiz-adv-x="540" d="M12 201l333 459l74 -7v-450h93l-6 -58h-87v-145h-125v145h-271zM61 203h233v336z" />
<glyph unicode="5" horiz-adv-x="505" d="M469 168q0 -82 -69 -130t-173 -48q-87 0 -143 30t-56 80q0 30 25.5 52.5t65.5 29.5l5 -4q-5 -15 -5 -27q0 -59 27.5 -94t77.5 -35q51 0 81.5 34.5t30.5 91.5q0 91 -68.5 135.5t-193.5 44.5l-10 10l6 312h372q1 -90 -18 -189h-11q-6 61 -15.5 77t-41.5 16h-233l-4 -196 q24 3 52 3q135 0 216.5 -51t81.5 -142z" />
<glyph unicode="6" horiz-adv-x="567" d="M531 199q0 -93 -66.5 -151t-171.5 -58q-116 0 -182.5 69.5t-66.5 186.5q0 177 118.5 289t314.5 125l3 -15q-240 -75 -289 -295q55 35 132 35q93 0 150.5 -49.5t57.5 -136.5zM178 229q0 -98 29 -152.5t84 -54.5q47 0 76.5 43.5t29.5 111.5q0 81 -32.5 125.5t-91.5 44.5 q-51 0 -87 -23q-8 -48 -8 -95z" />
<glyph unicode="7" horiz-adv-x="472" d="M275 0h-123q4 153 78.5 300t185.5 254h-314q-29 0 -39.5 -18t-17.5 -79h-11q-6 97 8 193h409l9 -93q-80 -91 -131 -242t-54 -315z" />
<glyph unicode="8" horiz-adv-x="549" d="M513 162q0 -74 -69.5 -123t-177.5 -49q-101 0 -165.5 41.5t-64.5 110.5q0 59 49 103t128 61q-69 40 -107 81t-38 105q0 71 62 119.5t159 48.5q88 0 143 -41t55 -105q0 -99 -142 -157q42 -24 63 -37.5t50 -38.5t42 -54t13 -65zM193 532q0 -51 31.5 -86.5t91.5 -71.5 q71 75 71 145q1 49 -24.5 79t-70.5 30t-72 -27.5t-27 -68.5zM154 146q0 -57 31.5 -90t84.5 -33q48 0 81 28.5t33 74.5q0 29 -11 52.5t-35.5 45t-43.5 34t-55 33.5q-85 -67 -85 -145z" />
<glyph unicode="9" horiz-adv-x="567" d="M36 451q0 93 66.5 151t171.5 58q116 0 182.5 -69.5t66.5 -186.5q0 -177 -118 -288.5t-315 -125.5l-4 16q239 73 290 294q-55 -35 -132 -35q-93 0 -150.5 49.5t-57.5 136.5zM170 473q0 -81 32.5 -125.5t91.5 -44.5q51 0 87 23q8 48 8 95q0 98 -29 152.5t-84 54.5 q-47 0 -76.5 -43.5t-29.5 -111.5z" />
<glyph unicode=":" horiz-adv-x="224" d="M111 338q-26 0 -42.5 16t-16.5 41q0 27 19 45.5t46 18.5q24 0 39.5 -15t15.5 -39q0 -28 -17 -47.5t-44 -19.5zM111 -10q-26 0 -42.5 16t-16.5 41q0 27 19 45.5t46 18.5q24 0 39.5 -15t15.5 -39q0 -28 -17 -47.5t-44 -19.5z" />
<glyph unicode=";" horiz-adv-x="235" d="M120 338q-25 0 -41.5 16t-16.5 41q0 27 18.5 45.5t45.5 18.5q25 0 40.5 -15t15.5 -39q0 -28 -17.5 -47.5t-44.5 -19.5zM183 44q0 -52 -36 -110.5t-85 -92.5l-10 8q49 69 59 142q-22 4 -35 18.5t-13 36.5q0 30 17 47.5t44 17.5t43 -18.5t16 -48.5z" />
<glyph unicode="&#x3c;" horiz-adv-x="566" d="M476 542v-95l-297 -123l296 -118v-95q-191 76 -402 178l-2 6l-1 65z" />
<glyph unicode="=" horiz-adv-x="569" d="M485 388h-407v78q123 4 408 4l6 -6zM485 180h-407v78q123 4 408 4l6 -6z" />
<glyph unicode="&#x3e;" horiz-adv-x="566" d="M90 109v95l297 123l-296 119v95q190 -75 403 -179l2 -5v-66z" />
<glyph unicode="?" horiz-adv-x="487" d="M264 212l-10 -5h-10q-54 39 -54 83q0 22 19 44q10 12 36.5 36.5t46 44.5t36 54t16.5 72q0 54 -27 88t-77 34q-47 0 -77 -37t-30 -90q0 -32 9 -71q-18 -10 -43 -10q-37 0 -62 21t-25 54q0 69 70 117t168 48q99 0 162 -47.5t63 -126.5q0 -43 -27.5 -83t-56 -60t-72 -45.5 t-47.5 -28.5t-4 -11zM306 55q0 -29 -21 -48t-53 -19q-29 0 -46.5 16t-17.5 41q0 29 22 48t53 19q28 0 45.5 -15.5t17.5 -41.5z" />
<glyph unicode="@" horiz-adv-x="1022" d="M757 42q61 0 116.5 84t55.5 210q0 134 -97 220.5t-251 86.5q-117 0 -227.5 -57.5t-185 -168t-74.5 -246.5q0 -144 97 -237.5t251 -93.5q145 0 278 82l13 -20q-125 -97 -297 -97q-168 0 -276 102.5t-108 256.5q0 112 47 210.5t122.5 163.5t171 102.5t193.5 37.5 q170 0 277 -97.5t107 -245.5q0 -146 -79.5 -245.5t-193.5 -99.5q-76 0 -109.5 51.5t-21.5 134.5q0 2 4 28t5 28h-3q-36 -94 -95.5 -168t-118.5 -74q-44 0 -71.5 38.5t-27.5 104.5q0 97 40 182.5t117 140t174 54.5q94 0 165 -34l-19 -59l-42 -187q-42 -188 63 -188zM386 150 q0 -79 33 -79q35 0 93 108t91 215l21 69q-23 10 -49 10q-47 0 -91.5 -49.5t-71 -124.5t-26.5 -149z" />
<glyph unicode="A" horiz-adv-x="667" d="M301 652h64l218 -581q8 -22 17.5 -31.5t28.5 -15.5l38 -11l-2 -13h-284l-2 13l82 22l-59 166h-232l-61 -167l82 -21l-2 -13h-187l-2 13l41 10q19 6 27.5 16t17.5 35zM182 233h209l-103 291z" />
<glyph unicode="B" horiz-adv-x="629" d="M337 0h-289l-2 13l52 11q13 4 17 11t4 21v561l-73 20l1 13h269q110 0 175.5 -42.5t65.5 -121.5q0 -55 -37 -94.5t-92 -54.5q75 -15 121 -57t46 -105q0 -85 -68.5 -130t-189.5 -45zM300 619h-56v-270h62q62 0 96.5 37.5t34.5 100.5q0 62 -37.5 97t-99.5 35zM307 318h-63 v-286h69q69 0 112.5 37.5t43.5 102.5q0 70 -45 108t-117 38z" />
<glyph unicode="C" horiz-adv-x="604" d="M550 19q-75 -29 -171 -29q-154 0 -246.5 88t-92.5 243q0 154 95.5 246.5t245.5 92.5q95 0 161 -29q3 -30 3 -61q0 -76 -19 -135h-9l-72 183q-26 10 -57 10q-91 0 -152.5 -84.5t-61.5 -220.5q0 -137 61.5 -219t150.5 -82q40 0 67 10l72 187h9q19 -54 19 -140q0 -30 -3 -60 z" />
<glyph unicode="D" horiz-adv-x="688" d="M311 0h-263l-2 13l52 11q13 4 17 11t4 21v561l-73 20l1 13h268q150 0 240 -85t90 -236t-92.5 -240t-241.5 -89zM301 619h-57v-588h58q101 0 158.5 79.5t58.5 218.5q0 138 -57.5 214t-160.5 76z" />
<glyph unicode="E" horiz-adv-x="568" d="M520 0h-472l-2 13l52 11q13 4 17 11t4 21v561l-73 20l1 13h465q5 -29 5 -72q0 -72 -15 -122h-9l-73 162q-28 1 -85 1h-91v-277l186 10l-2 -50l-184 9v-279h184l73 166h9q16 -53 16 -124q0 -38 -6 -74z" />
<glyph unicode="F" horiz-adv-x="531" d="M340 0h-292l-2 13l52 11q13 4 17 11t4 21v561l-73 20l1 13h461q6 -36 6 -74q0 -71 -16 -124h-9l-73 166q-28 1 -85 1h-87v-297l191 10l-2 -50l-189 9v-257l97 -21z" />
<glyph unicode="G" horiz-adv-x="630" d="M562 19q-72 -29 -180 -29q-155 0 -247 87.5t-92 243.5q0 155 98 247t247 92q98 0 164 -29q4 -27 4 -61q0 -78 -19 -135h-9l-72 183q-30 10 -61 10q-93 0 -159.5 -83.5t-66.5 -220.5t66.5 -219.5t153.5 -82.5q33 0 63 8v245l-75 20l2 12h246l2 -12l-43 -11 q-14 -4 -18 -10.5t-4 -20.5v-234z" />
<glyph unicode="H" horiz-adv-x="756" d="M317 0h-268l-2 13l51 11q13 4 17 11t4 21v561l-74 20l2 13h268l1 -13l-50 -11q-14 -4 -18 -10.5t-4 -20.5v-246h268v268l-74 20l2 13h268l1 -13l-50 -11q-14 -4 -18 -10.5t-4 -20.5v-561l74 -21l-1 -13h-268l-2 13l51 11q13 4 17 11t4 21v259h-268v-281l74 -21z" />
<glyph unicode="I" horiz-adv-x="363" d="M317 0h-268l-2 13l51 11q13 4 17 11t4 21v561l-74 20l2 13h268l1 -13l-50 -11q-14 -4 -18 -10.5t-4 -20.5v-561l74 -21z" />
<glyph unicode="J" horiz-adv-x="347" d="M245 130q0 -202 -203 -258l-6 10q44 52 64 118t20 165v452l-74 20l1 13h268l2 -13l-51 -11q-13 -4 -17 -10.5t-4 -20.5v-465z" />
<glyph unicode="K" horiz-adv-x="703" d="M317 0h-268l-2 13l51 11q13 4 17 11t4 21v561l-74 20l2 13h268l1 -13l-50 -11q-14 -4 -18 -10.5t-4 -20.5v-260h100l172 282l-75 20l1 13h233l2 -13q-5 -1 -24.5 -7.5t-23.5 -7.5q-88 -37 -153 -131l-51 -81l189 -334q20 -37 56 -51l33 -12l-1 -13l-119 -2 q-41 0 -63 15.5t-42 51.5l-135 238h-99v-269l74 -21z" />
<glyph unicode="L" horiz-adv-x="551" d="M512 0h-464l-2 13l52 11q13 4 17 11t4 21v561l-74 20l2 13h268l1 -13l-50 -11q-14 -4 -18 -10.5t-4 -20.5v-563h179l69 198h9q16 -58 16 -143q0 -39 -5 -87z" />
<glyph unicode="M" horiz-adv-x="890" d="M73 650h208l165 -485l169 485h200l1 -13l-77 -20l48 -540q2 -27 10 -36.5t35 -17.5l39 -10l-1 -13h-288l-2 13l84 20l-45 519l-175 -500l-18 -54h-59l-16 54l-169 497l-46 -517l84 -19l-2 -13h-199l-1 13q4 2 24 6.5t22 5.5q23 7 30.5 16t9.5 33l50 542l-82 21z" />
<glyph unicode="N" horiz-adv-x="679" d="M241 0h-202l-2 13l61 14q13 4 17 10t4 19v561l-83 20l2 13h173l331 -511v478l-88 20l1 13h203l1 -13l-60 -13q-14 -4 -18 -10t-4 -19v-595h-92l-330 513v-479l88 -21z" />
<glyph unicode="O" horiz-adv-x="660" d="M614 329q0 -151 -80.5 -245t-208.5 -94q-129 0 -207.5 91t-78.5 243q0 151 82 243.5t208 92.5t205.5 -90.5t79.5 -240.5zM173 324q-1 -144 40 -222.5t114 -78.5t112.5 81t40.5 225q0 143 -39 221t-113 78q-75 0 -115 -79t-40 -225z" />
<glyph unicode="P" horiz-adv-x="592" d="M340 0h-292l-2 13l52 11q13 4 17 11t4 21v561l-73 20l1 13h273q118 0 186.5 -52t68.5 -146q0 -97 -70.5 -150.5t-186.5 -53.5h-74v-214l97 -21zM308 619h-64v-340h61q68 0 106 44.5t38 129.5q0 77 -37.5 121.5t-103.5 44.5z" />
<glyph unicode="Q" horiz-adv-x="660" d="M613 329q1 -140 -69.5 -232t-184.5 -105q130 -71 281 -71q39 0 79 6l3 -1q2 -4 2 -15q0 -39 -24.5 -61.5t-69.5 -22.5q-73 0 -156 45t-161 118q-124 5 -199 95t-75 239q0 151 82 243.5t208 92.5q127 0 206 -90.5t78 -240.5zM173 324q-1 -144 40 -222.5t114 -78.5 t112.5 81t40.5 225q0 143 -39 221t-113 78q-75 0 -115 -79t-40 -225z" />
<glyph unicode="R" horiz-adv-x="675" d="M317 0h-268l-2 13l51 11q13 4 17 11t4 21v561l-73 20l1 13h276q117 0 187 -48t70 -138q0 -111 -123 -163l131 -226q19 -36 52 -50l35 -12l-1 -13l-123 -2q-40 0 -62 15.5t-38 50.5l-109 211q-9 -2 -17 -2h-81v-239l74 -21zM306 619h-62v-315h63q65 0 106 42t41 115 t-40 115.5t-108 42.5z" />
<glyph unicode="S" horiz-adv-x="511" d="M477 167q0 -87 -68.5 -132t-179.5 -45q-135 0 -178 38q-17 15 -17 56q0 61 33 125l9 -1l61 -170q34 -17 80 -17q58 0 93.5 30t35.5 81q0 37 -23 67.5t-57 50t-74 43t-74 46.5t-57 62t-23 87q0 79 68.5 125.5t170.5 46.5q125 0 168 -36q15 -12 15 -52q0 -26 -12.5 -63 t-25.5 -59l-9 1l-54 165q-28 13 -70 13q-56 0 -91 -28t-35 -76q0 -45 32.5 -80t78.5 -60.5t92 -52.5t78.5 -69t32.5 -96z" />
<glyph unicode="T" horiz-adv-x="579" d="M425 0h-268l-2 13l51 11q13 4 17 11t4 21v563h-54q-43 0 -64 -1l-67 -183h-9q-16 56 -16 131q0 44 6 84h534q5 -34 5 -84q0 -73 -15 -131h-9l-68 183q-21 1 -63 1h-55v-585l74 -21z" />
<glyph unicode="U" horiz-adv-x="692" d="M588 223q0 -113 -62 -173t-172 -60q-105 0 -172.5 61t-67.5 174v392l-74 20l2 13h268l1 -13l-50 -11q-14 -4 -18 -10.5t-4 -20.5v-363q0 -95 42 -146.5t114 -51.5q70 0 114 50t44 143v390l-84 20l2 13h198l1 -13l-82 -20v-394z" />
<glyph unicode="V" horiz-adv-x="662" d="M364 -2h-64l-216 581q-13 38 -43 47l-41 11l2 13h277l2 -13l-77 -22l172 -487l162 487l-81 22l1 13h203l1 -13q-2 -1 -15.5 -5.5t-23.5 -8.5t-13 -7q-18 -10 -28.5 -28t-23.5 -55z" />
<glyph unicode="W" horiz-adv-x="1008" d="M356 -2h-64l-208 581q-13 38 -43 47l-41 11l2 13h277l2 -13l-77 -22l165 -485l117 368l-26 81q-12 37 -43 47l-46 11l2 13h282l2 -13l-78 -22l151 -485l154 485l-81 22l1 13h203l1 -13l-15 -5t-22.5 -8t-13.5 -7q-18 -10 -29 -28t-24 -56l-187 -535h-64l-147 441z" />
<glyph unicode="X" horiz-adv-x="665" d="M135 99l143 197l-178 284q-25 40 -52 48l-34 9l2 13h279l1 -13l-75 -19l148 -236l138 234l-73 21l2 13h211l1 -13q-6 -1 -20 -4.5t-17 -4.5q-19 -7 -36.5 -23.5t-47.5 -53.5l-142 -195l181 -287q24 -38 51 -47l34 -9l-2 -13h-278l-2 13l75 19l-149 238l-140 -236l73 -21 l-1 -13h-211l-2 13q6 1 19.5 5t18.5 5q32 11 83 76z" />
<glyph unicode="Y" horiz-adv-x="643" d="M457 0h-268l-2 13l51 11q13 4 17 11t4 21v187l-176 341q-11 19 -19 28t-23 14l-41 11l2 13h277l2 -13l-76 -22l159 -344l158 345l-74 21l2 13h192l1 -13q-21 -6 -36 -14q-34 -20 -65 -77l-158 -303v-209l74 -21z" />
<glyph unicode="Z" horiz-adv-x="581" d="M529 89q0 -45 -6 -89h-462l-10 54l344 565h-242l-75 -188h-9q-16 58 -16 135q0 42 6 84h460l10 -53l-342 -566h240l77 189h9q16 -53 16 -131z" />
<glyph unicode="[" horiz-adv-x="413" d="M361 -107h-229v802h229v-31h-109v-740h109v-31z" />
<glyph unicode="\" horiz-adv-x="397" d="M268 -103l-196 780l3 5l55 13l195 -779l-2 -5z" />
<glyph unicode="]" horiz-adv-x="413" d="M52 695h229v-802h-229v31h109v740h-109v31z" />
<glyph unicode="^" horiz-adv-x="526" d="M165 205h-97l150 343h87l153 -343h-97l-101 242z" />
<glyph unicode="_" horiz-adv-x="556" d="M44 -185v34h468v-34h-468z" />
<glyph unicode="`" horiz-adv-x="325" d="M264 573l-8 -9q-84 23 -138 58t-54 69q0 44 63 44q16 0 22 -1q40 -71 115 -161z" />
<glyph unicode="a" horiz-adv-x="519" d="M512 46q-35 -56 -99 -56q-41 0 -66 24t-28 64q-21 -38 -60 -63t-92 -25q-55 0 -91 32t-36 84q0 76 75.5 117t203.5 46v115q0 49 -16 71.5t-50 22.5q-36 0 -60.5 -27t-24.5 -66q0 -27 5 -49q-29 -13 -56 -13q-26 0 -42 12.5t-16 36.5q0 53 62 95.5t145 42.5 q176 0 176 -171q0 -39 -1.5 -116t-1.5 -108q0 -67 41 -67q15 0 28 5zM166 128q0 -35 18.5 -54t46.5 -19t52.5 16t35.5 42v130q-70 -6 -111.5 -34.5t-41.5 -80.5z" />
<glyph unicode="b" horiz-adv-x="549" d="M511 252q0 -129 -62 -195.5t-161 -66.5q-61 0 -129 21l-81 -21l-6 5v649l-64 10l-1 12q94 27 178 29l7 -7v-272q56 94 150 94q80 0 124.5 -68.5t44.5 -189.5zM282 436q-29 0 -53.5 -17t-36.5 -44v-324q40 -19 78 -19q57 0 86.5 56t28.5 151q0 197 -103 197z" />
<glyph unicode="c" horiz-adv-x="468" d="M38 244q0 120 66.5 193t165.5 73q81 0 129 -42.5t48 -103.5q0 -27 -16.5 -41t-42.5 -14q-27 0 -46 12q1 3 1 11q0 146 -74 146q-48 0 -76.5 -52t-28.5 -143q0 -100 42.5 -153t115.5 -53q64 0 125 46l7 -8q-22 -55 -69.5 -90t-122.5 -35q-100 0 -162 68.5t-62 185.5z" />
<glyph unicode="d" horiz-adv-x="558" d="M38 233q0 135 67.5 206t174.5 71q42 0 78 -9v143l-64 10l-1 12q94 27 178 29l7 -7v-573q0 -67 39 -67q14 0 29 5l4 -7q-37 -56 -100 -56q-40 0 -64.5 24t-27.5 64q-21 -38 -59 -63t-86 -25q-79 0 -127 64.5t-48 178.5zM164 252q0 -94 28.5 -145.5t79.5 -51.5q26 0 51 17 t35 42v336q-25 18 -62 18q-63 0 -97.5 -58.5t-34.5 -157.5z" />
<glyph unicode="e" horiz-adv-x="483" d="M454 115q-53 -125 -196 -125q-98 0 -159 68t-61 183q0 124 66.5 196.5t165.5 72.5q87 0 137 -54.5t50 -143.5q0 -28 -4 -51l-7 -6h-281q6 -87 48 -132.5t109 -45.5q66 0 125 46zM164 285v-4l170 7q2 16 2 44q0 72 -16.5 109t-56.5 37q-45 0 -72 -51t-27 -142z" />
<glyph unicode="f" horiz-adv-x="366" d="M292 0h-267l-2 12l44 11q13 5 17 11.5t4 20.5v394h-70l-2 12l72 18q5 95 59 155.5t144 60.5q57 0 96 -29.5t39 -68.5q0 -22 -17 -33.5t-43 -11.5q-12 0 -25 3q-2 51 -18.5 79.5t-44.5 28.5q-75 0 -75 -119q0 -9 2 -31.5t3 -34.5h145v-29h-145v-416l85 -21z" />
<glyph unicode="g" horiz-adv-x="487" d="M479 -32q0 -73 -66 -118t-189 -45q-92 0 -155 27t-63 77q0 38 37.5 62.5t90.5 29.5q-2 2 -2 3q-53 22 -53 75q0 31 23.5 56.5t58.5 35.5q-58 15 -91 56t-33 103q0 80 59 129t148 49q146 0 231 13q11 -15 11 -35q0 -34 -40 -34q-22 0 -104 16l-2 -3q39 -17 63.5 -53 t24.5 -81q0 -79 -55 -123.5t-143 -44.5q-24 0 -45 3q-16 -16 -16 -33q0 -32 54 -37l91 -5q165 -11 165 -123zM153 330q0 -135 79 -135q81 0 81 140q0 133 -76 133q-41 0 -62.5 -38t-21.5 -100zM107 -80q0 -39 35 -61t98 -22q62 0 102.5 23.5t40.5 60.5q0 50 -93 58l-79 4 q-32 2 -44 4q-60 -24 -60 -67z" />
<glyph unicode="h" horiz-adv-x="581" d="M264 0h-247l-2 12l44 11q13 5 17 11.5t4 20.5v589l-64 10l-1 12q94 27 178 29l7 -7v-285q65 107 168 107q65 0 99 -39.5t34 -110.5v-327l65 -21l-2 -12h-247l-1 12l43 11q13 5 17.5 11.5t4.5 20.5v280q0 96 -81 96q-28 0 -56 -17t-44 -44v-337l65 -21z" />
<glyph unicode="i" horiz-adv-x="288" d="M218 655q0 -31 -22 -50.5t-56 -19.5q-30 0 -48.5 16.5t-18.5 43.5q0 30 23.5 50t55.5 20q30 0 48 -16.5t18 -43.5zM272 0h-247l-2 12l44 11q13 5 17 11.5t4 20.5v404l-64 10l-1 12q94 27 178 29l7 -7v-470l65 -21z" />
<glyph unicode="j" horiz-adv-x="272" d="M209 656q0 -31 -22.5 -51t-56.5 -20q-29 0 -47.5 16.5t-18.5 43.5q0 30 23 50t56 20q29 0 47.5 -16t18.5 -43zM7 -184q38 53 55.5 111t17.5 150v382l-64 10l-1 12q94 27 178 29l7 -7v-440q0 -106 -41.5 -167t-143.5 -91z" />
<glyph unicode="k" horiz-adv-x="566" d="M264 0h-247l-2 12l44 11q13 5 17 11.5t4 20.5v589l-64 10l-1 12q94 27 178 29l7 -7v-410h80l112 195l-65 15l1 12h223l1 -12l-50 -17q-43 -18 -84 -62l-56 -71l126 -255q25 -48 59 -65q3 -1 9.5 -2.5t9.5 -2.5l-2 -13h-113q-31 0 -48 14.5t-34 50.5l-91 183h-78v-215 l65 -21z" />
<glyph unicode="l" horiz-adv-x="280" d="M264 0h-247l-2 12l44 11q13 5 17 11.5t4 20.5v589l-64 10l-1 12q94 27 178 29l7 -7v-655l65 -21z" />
<glyph unicode="m" horiz-adv-x="872" d="M272 0h-247l-2 12l44 11q13 5 17 11.5t4 20.5v404l-64 10l-1 12q94 27 178 29l7 -7v-96q62 103 162 103q108 0 127 -109q26 49 69.5 79t98.5 30q62 0 94.5 -39t32.5 -110v-328l65 -21l-1 -12h-247l-2 12l44 11q13 5 17 11.5t4 20.5v280q0 96 -76 96q-27 0 -53 -15 t-43 -42v-341l65 -21l-1 -12h-247l-2 12l44 11q13 5 17 11.5t4 20.5v280q0 96 -77 96q-26 0 -52 -15.5t-43 -40.5v-342l65 -21z" />
<glyph unicode="n" d="M272 0h-247l-2 12l44 11q13 5 17 11.5t4 20.5v404l-64 10l-1 12q94 27 178 29l7 -7v-102q63 109 168 109q65 0 99 -39t34 -111v-327l65 -21l-2 -12h-247l-1 12l43 11q13 5 17.5 11.5t4.5 20.5v280q0 96 -80 96q-28 0 -56.5 -17t-44.5 -44v-337l65 -21z" />
<glyph unicode="o" horiz-adv-x="527" d="M490 260q0 -121 -62.5 -195.5t-166.5 -74.5q-101 0 -162 66.5t-61 182.5q0 125 64 198t167 73q100 0 160.5 -68t60.5 -182zM164 255q0 -121 24 -177t76 -56q100 0 100 226q0 119 -24 174.5t-74 55.5q-102 0 -102 -223z" />
<glyph unicode="p" horiz-adv-x="558" d="M284 -185h-267l-2 12l44 11q13 5 17 11t4 20v594l-64 10l-1 12q94 27 178 29l7 -7v-92q24 43 63.5 69t87.5 26q80 0 124.5 -66t44.5 -186q0 -130 -62.5 -199t-160.5 -69q-44 0 -97 12v-155l85 -20zM291 436q-29 0 -53.5 -17t-37.5 -45v-323q40 -19 79 -19q57 0 86.5 58 t28.5 154q0 192 -103 192z" />
<glyph unicode="q" horiz-adv-x="550" d="M542 -185h-247l-2 12l44 11q13 5 17 11t4 20v208q-22 -38 -60 -62.5t-85 -24.5q-79 0 -127 64.5t-48 178.5q0 135 67.5 206t174.5 71q58 0 113 -20l80 20l5 -5v-658l65 -20zM164 252q0 -94 28.5 -145.5t79.5 -51.5q26 0 51 17t35 42v336q-25 18 -62 18q-63 0 -97.5 -58.5 t-34.5 -157.5z" />
<glyph unicode="r" horiz-adv-x="421" d="M292 0h-267l-2 12l44 11q13 5 17 11.5t4 20.5v404l-64 10l-1 12q94 27 178 29l7 -7v-128q50 135 130 135q33 0 52.5 -21t19.5 -54q0 -36 -20 -60l-5 -2q-37 21 -77 21q-59 0 -100 -49v-312l85 -21z" />
<glyph unicode="s" horiz-adv-x="443" d="M198 -10q-105 0 -142 25q-18 14 -18 56q0 27 11.5 54t26.5 42l10 -3q15 -81 33 -108q21 -34 82 -34q39 0 61.5 19.5t22.5 52.5t-24.5 58.5t-59 44.5t-69 40t-59 54t-24.5 77q0 66 55.5 104t142.5 38q101 0 136 -33q15 -13 15 -48q0 -50 -43 -93l-11 3q-13 78 -29 106 q-18 33 -70 33q-37 0 -59.5 -19t-22.5 -53q0 -32 25 -58t60.5 -45.5t71 -41t60.5 -54t25 -74.5q0 -70 -57 -106.5t-150 -36.5z" />
<glyph unicode="t" horiz-adv-x="373" d="M337 476v-28h-145v-267q0 -104 75 -104q46 0 93 42l8 -7q-23 -52 -64.5 -87t-99.5 -35q-64 0 -98 40.5t-34 119.5v298h-71l-2 12l69 23l115 147l9 -2v-152h145z" />
<glyph unicode="u" d="M575 44q-37 -54 -101 -54q-43 0 -68 27.5t-25 71.5v6q-59 -105 -161 -105q-67 0 -103.5 40t-36.5 112v317l-64 10l-1 12q94 27 178 29l7 -7v-337q0 -95 81 -97q59 0 100 60v330l-65 10l-1 12q96 27 178 29l8 -7v-388q0 -67 40 -67q14 0 29 5z" />
<glyph unicode="v" horiz-adv-x="529" d="M307 0h-87l-147 425q-15 44 -43 57l-30 6l2 12h255l1 -12l-65 -21l114 -373l116 374l-65 20l1 12h168l2 -12q-2 -2 -23 -8.5t-23 -9.5q-22 -12 -34 -48z" />
<glyph unicode="w" horiz-adv-x="798" d="M408 500h65l111 -404l109 372l-66 20l2 12h168l1 -12q-3 -2 -24 -9.5t-24 -10.5q-21 -12 -31 -46l-135 -422h-87l-101 310l-97 -310h-86l-140 425q-15 44 -43 57l-30 6l2 12h255l1 -12l-66 -21l107 -371z" />
<glyph unicode="x" horiz-adv-x="543" d="M82 432q-15 22 -26.5 33t-30.5 19l-25 4l2 12h258l1 -12l-67 -17l118 -178l90 179l-65 16l2 12h203l1 -12q-1 0 -18.5 -7t-21.5 -10q-19 -8 -48 -42q-7 -7 -28.5 -34t-51 -64t-48.5 -60l136 -205q23 -36 48 -48l32 -6l-1 -12h-258l-2 12l67 17l-118 178l-90 -179l65 -16 l-1 -12h-203l-2 12l20 8q19 8 23 11q21 11 45 41q7 7 28 33t52 64.5t48 59.5z" />
<glyph unicode="y" horiz-adv-x="529" d="M119 -195q-36 0 -58 18.5t-22 47.5q0 21 10 36q40 -14 74 -14q46 1 87.5 27.5t64.5 74.5h-53l-149 430q-15 44 -43 57l-30 6l2 12h255l1 -12l-66 -21l115 -373l117 375l-66 19l1 12h168l2 -12l-36 -8q-17 -7 -26 -20t-18 -38l-133 -396q-74 -221 -197 -221z" />
<glyph unicode="z" horiz-adv-x="461" d="M428 76q0 -45 -5 -76h-383l-8 45l271 429h-175l-70 -158h-9q-16 48 -16 113q0 37 6 71h382l8 -45l-269 -429h172l71 159h10q15 -42 15 -109z" />
<glyph unicode="{" horiz-adv-x="424" d="M92 301q50 4 69.5 26.5t19.5 62.5q0 27 -20 88.5t-20 95.5q0 60 54 90.5t176 30.5l1 -26q-106 -3 -106 -91q-1 -30 18 -87t19 -86q0 -94 -134 -116q63 -10 98.5 -39.5t35.5 -75.5q0 -27 -18.5 -85.5t-17.5 -89.5q0 -87 105 -90l-1 -26q-122 0 -175.5 30t-53.5 91 q0 34 19.5 97t19.5 87q0 84 -89 90v23z" />
<glyph unicode="|" horiz-adv-x="325" d="M193 -191l-55 -4l-6 6v880l55 4l6 -6v-880z" />
<glyph unicode="}" horiz-adv-x="404" d="M332 278q-50 -3 -69.5 -26.5t-19.5 -62.5q0 -27 20 -89t20 -96q0 -60 -54 -90.5t-176 -30.5l-1 26q106 3 106 91q1 31 -18.5 88t-19.5 86q0 47 36 76t98 39q-62 10 -97.5 39.5t-35.5 76.5q0 27 18.5 85t17.5 89q0 87 -105 90l1 26q122 0 175.5 -30t53.5 -90 q0 -34 -19.5 -97t-19.5 -87q0 -40 19.5 -63.5t69.5 -26.5v-23z" />
<glyph unicode="~" horiz-adv-x="535" d="M143 248q-14 0 -60 -57l-43 21q60 121 106 121q26 0 125 -26.5t117 -26.5q13 0 60 58l43 -21q-17 -34 -29.5 -55.5t-34.5 -43.5t-43 -22q-26 0 -125.5 26t-115.5 26z" />
<glyph unicode="&#xa1;" horiz-adv-x="351" d="M110 450q0 30 21 48.5t54 18.5q28 0 45.5 -15.5t17.5 -41.5q0 -29 -22 -47.5t-53 -18.5q-28 0 -45.5 15t-17.5 41zM253 -181l-4 -6q-63 -10 -118 -10q-33 0 -33 29q0 24 10 92l47 381h44z" />
<glyph unicode="&#xa2;" horiz-adv-x="513" d="M61 244q0 113 59 185t151 80v111l34 3l6 -6v-108q73 -4 116 -45.5t43 -99.5q0 -27 -16 -41t-42 -14q-28 0 -47 12q2 6 2 11q0 146 -75 146q-47 0 -76 -52.5t-29 -142.5q0 -100 42.5 -153t115.5 -53q65 0 125 46l8 -8q-47 -112 -167 -124v-111l-33 -3l-7 6v107 q-95 5 -152.5 73t-57.5 181z" />
<glyph unicode="&#xa3;" horiz-adv-x="564" d="M446 295h-157l-5 -34q-24 -139 -96 -215q11 -4 45 -18.5t54.5 -21.5t53.5 -17t66 -14.5t68 -4.5q28 0 47 4q3 -9 3 -19q0 -34 -21 -58t-61 -24q-46 0 -95.5 29t-101 66.5t-89.5 49.5q-39 -28 -79 -28q-21 0 -33 10t-12 25q0 18 17 31t46 12q27 0 62 -11q15 38 22 114 q0 14 6 124h-114l5 34h111q6 98 10 124q14 104 70.5 163t144.5 59q64 0 104 -29t40 -69q0 -24 -19 -39.5t-45 -18.5q-26 123 -79 123q-38 0 -61 -40t-37 -127l-22 -146h157z" />
<glyph unicode="&#xa4;" horiz-adv-x="525" d="M437 116l-71 72q-45 -40 -112 -40q-60 0 -102 31l-64 -64l-30 31l63 63q-36 47 -36 112t41 115l-67 68l29 29q10 -11 33 -34l35 -35q45 34 103 34q62 0 107 -37l71 72l30 -31l-72 -72q33 -46 33 -102q0 -60 -34 -109q15 -15 72 -69v-9zM258 440q-53 0 -83 -34t-30 -83 t30 -83.5t82 -34.5q54 0 82.5 35.5t28.5 84.5q0 47 -29.5 81t-80.5 34z" />
<glyph unicode="&#xa5;" horiz-adv-x="639" d="M455 0h-268l-2 13l51 11q13 4 17 11t4 21v77h-146v34h146v61h-146v34h145l-175 322q-11 19 -19 28t-23 14l-41 11l1 13h278l2 -13l-76 -22l159 -326l158 327l-74 21l2 13h192l1 -13q-21 -6 -36 -14q-34 -20 -65 -77l-157 -284h146v-34h-147v-61h147v-34h-147v-99l74 -21z " />
<glyph unicode="&#xa6;" horiz-adv-x="325" d="M193 325l-55 -4l-6 7v363l55 4l6 -6v-364zM193 -191l-55 -4l-6 6v365l55 4l6 -6v-365z" />
<glyph unicode="&#xa7;" horiz-adv-x="583" d="M521 71q0 -101 -77 -166t-189 -65q-81 0 -134.5 27t-53.5 69q0 39 45 65h9q53 -88 151 -127q22 9 35 34.5t13 58.5q0 43 -26.5 88.5t-64.5 86.5t-76 84t-64.5 96.5t-26.5 107.5q0 101 81 165.5t195 64.5q77 0 127.5 -28t50.5 -71q0 -41 -45 -67h-9q-65 98 -158 134 q-41 -31 -41 -104q0 -43 26.5 -88t64.5 -85t76 -82t64.5 -93.5t26.5 -104.5zM355 -101l5 -4q93 51 93 156q0 51 -26.5 100t-63.5 88.5t-74.5 79.5t-64 88.5t-26.5 99.5q0 54 29 90l-5 4q-92 -50 -92 -149q0 -51 26.5 -100.5t64 -90t74.5 -81t63.5 -89.5t26.5 -98 q0 -57 -30 -94z" />
<glyph unicode="&#xa8;" horiz-adv-x="468" d="M190 656q0 -29 -20 -48t-50 -19q-26 0 -42 15.5t-16 40.5q0 29 20.5 47.5t49.5 18.5q26 0 42 -15t16 -40zM407 656q0 -29 -20 -48t-50 -19q-26 0 -42 15.5t-16 40.5q0 29 20.5 47.5t49.5 18.5q26 0 42 -15t16 -40z" />
<glyph unicode="&#xa9;" horiz-adv-x="674" d="M337 -11q-112 0 -188.5 75t-76.5 186q0 107 78 183.5t187 76.5q112 0 188.5 -76t76.5 -184q0 -107 -78 -184t-187 -77zM337 23q95 0 162 67t67 160q0 94 -67 160.5t-162 66.5t-162 -66.5t-67 -160.5q0 -97 65.5 -162t163.5 -65zM459 169q-39 -70 -115 -70q-56 0 -94 40 t-38 108t38.5 111t97.5 43q45 0 74.5 -25t29.5 -62q0 -16 -9 -24.5t-23 -8.5q-16 0 -29 7q1 3 1 9q0 73 -47 73q-28 0 -46.5 -29.5t-18.5 -78.5q0 -52 23.5 -82t64.5 -30q40 0 80 30z" />
<glyph unicode="&#xaa;" horiz-adv-x="412" d="M405 368q-29 -41 -78 -42q-31 0 -51 17t-22 45q-38 -61 -116 -61q-43 0 -70.5 22.5t-27.5 60.5q0 54 58 83.5t156 32.5v83q0 67 -49 67q-28 0 -46 -19t-18 -47q0 -12 4 -36q-21 -10 -44 -10q-46 0 -46 36q0 38 48 68.5t112 30.5q137 0 137 -124q0 -11 -1 -82t-1 -76 q0 -48 30 -48q8 0 22 4zM140 426q0 -25 14 -38.5t35 -13.5q45 0 65 39v94q-52 -4 -83 -24.5t-31 -56.5z" />
<glyph unicode="&#xab;" horiz-adv-x="526" d="M453 61l-12 -8q-97 111 -180 177l-3 5v33q104 92 185 184l11 -8q-36 -78 -104 -195q51 -74 103 -188zM267 61l-12 -8q-97 111 -180 177l-3 5v33q104 92 185 184l11 -8q-36 -78 -104 -195q51 -74 103 -188z" />
<glyph unicode="&#xac;" horiz-adv-x="569" d="M481 375v-228h-87v152h-326v79q152 5 405 5z" />
<glyph unicode="&#xae;" horiz-adv-x="674" d="M337 -11q-112 0 -188.5 75t-76.5 186q0 107 78 183.5t187 76.5q112 0 188.5 -76t76.5 -184q0 -107 -78 -184t-187 -77zM337 23q95 0 162 67t67 160q0 94 -67 160.5t-162 66.5t-162 -66.5t-67 -160.5q0 -97 65.5 -162t163.5 -65zM309 133l38 -12l-1 -12h-135l-1 12l23 6 q12 3 12 25v196q0 17 -12 21l-23 8l1 15h137q54 0 85.5 -23t31.5 -61q0 -55 -58 -77l16 -23q6 -9 15 -23l13.5 -21t11 -16t12 -14t11.5 -8l11 -5l-1 -12l-47 -2q-21 -1 -31.5 6.5t-21.5 25.5l-51 82q-5 -1 -11 -1h-25v-87zM336 363h-27v-114h32q61 0 61 57t-66 57z" />
<glyph unicode="&#xaf;" horiz-adv-x="411" d="M62 615v65h288v-65h-288z" />
<glyph unicode="&#xb0;" horiz-adv-x="349" d="M172 428q-48 0 -80.5 31t-32.5 82t34.5 85t83.5 34t81 -31t32 -81q0 -51 -33.5 -85.5t-84.5 -34.5zM175 620q-33 0 -52.5 -22t-19.5 -55t20 -54t51 -21q33 0 52.5 22t19.5 55t-19 54t-52 21z" />
<glyph unicode="&#xb1;" horiz-adv-x="564" d="M483 363h-156v-163h-88l-1 163h-162l-1 78q78 2 163 2v166h89v-165q61 1 157 1l6 -6zM482 65h-407v78q124 4 408 4l6 -6z" />
<glyph unicode="&#xb2;" horiz-adv-x="365" d="M57 372l-7 47q84 62 123.5 105.5t39.5 89.5q0 30 -18.5 48.5t-51.5 18.5q-62 0 -91 -62l-8 2q12 52 53 84t97 32q55 0 87 -28t32 -73q0 -27 -12 -50.5t-48 -52t-54 -40.5t-76 -47l-24 -15h164q21 0 31 10.5t19 40.5l8 -1q-2 -65 -15 -109h-249z" />
<glyph unicode="&#xb3;" horiz-adv-x="376" d="M332 463q0 -43 -46 -70.5t-111 -27.5q-55 0 -93 16t-38 44q0 17 18 29t45 16l4 -2q-3 -6 -3 -11q0 -32 15.5 -50.5t44.5 -18.5t46.5 18t17.5 49q0 37 -27 57.5t-67 20.5q-8 0 -24 -2l-4 13q110 17 110 82q0 24 -18 39t-46 15t-53 -16t-38 -43l-7 2q11 52 52.5 83t96.5 31 q50 0 81.5 -23.5t30.5 -61.5q1 -41 -33.5 -65.5t-89.5 -34.5q60 -3 98 -26.5t38 -62.5z" />
<glyph unicode="&#xb4;" horiz-adv-x="321" d="M256 691q0 -31 -53 -66.5t-133 -58.5l-8 9q72 88 111 158q3 0 10 0.5t12 0.5q61 0 61 -43z" />
<glyph unicode="&#xb6;" horiz-adv-x="598" d="M335 190q-129 0 -206 60t-77 170t76 170t205 60h211l2 -12l-41 -11q-13 -4 -17 -10.5t-4 -20.5v-542q0 -104 -52 -159t-142 -55q-81 0 -129 32.5t-48 87.5q0 34 25.5 60.5t62.5 39.5l7 -5q-16 -22 -16 -45q6 -62 35 -99t82 -37q54 0 84 45t30 125v572h-80v-426h-8z" />
<glyph unicode="&#xb7;" horiz-adv-x="304" d="M151 227q-26 0 -42.5 16t-16.5 41q0 27 19 45.5t46 18.5q24 0 39.5 -15t15.5 -39q0 -28 -17 -47.5t-44 -19.5z" />
<glyph unicode="&#xb8;" horiz-adv-x="302" d="M91 -89l-3 6l14 83h36l-8 -44q50 -5 78.5 -23.5t28.5 -46.5q0 -39 -45.5 -61t-123.5 -23l-3 15q80 19 80 57q0 30 -54 37z" />
<glyph unicode="&#xb9;" horiz-adv-x="289" d="M245 372h-200l-1 9l42 7q14 4 14 17v292l-55 3v8l143 29l5 -4v-341l52 -11v-9z" />
<glyph unicode="&#xba;" horiz-adv-x="424" d="M387 520q0 -87 -48 -140t-129 -53q-78 0 -125 47.5t-47 130.5q0 90 49 142t130 52q76 0 123 -49t47 -130zM138 516q0 -87 18 -126.5t57 -39.5q74 0 74 161q0 165 -73 165q-76 0 -76 -160z" />
<glyph unicode="&#xbb;" horiz-adv-x="526" d="M268 240q-97 -86 -184 -183l-12 7q36 78 104 195q-53 77 -102 188l11 8q101 -115 181 -176l2 -5v-34zM454 240q-97 -86 -184 -183l-12 7q36 78 104 195q-53 77 -102 188l11 8q101 -115 181 -176l2 -5v-34z" />
<glyph unicode="&#xbc;" horiz-adv-x="935" d="M605 660h68l-399 -670h-69zM286 292h-200l-1 9l42 7q14 4 14 17v292l-55 3v8l143 29l5 -4v-341l52 -11v-9zM541 113l208 252l54 -5v-246h57l-4 -34h-53v-80h-93v80h-162zM574 114h136v173z" />
<glyph unicode="&#xbd;" horiz-adv-x="937" d="M601 660h68l-399 -670h-69zM282 292h-200l-1 9l42 7q14 4 14 17v292l-55 3v8l143 29l5 -4v-341l52 -11v-9zM587 2l-7 47q83 62 122.5 105.5t39.5 88.5q0 30 -18.5 49t-50.5 19q-62 0 -92 -62l-7 2q12 52 53 84t97 32q54 0 86 -28.5t32 -72.5q0 -50 -45.5 -91t-142.5 -100 q-17 -10 -25 -15h163q21 0 31.5 10.5t18.5 40.5l9 -1q-2 -58 -15 -108h-249z" />
<glyph unicode="&#xbe;" horiz-adv-x="938" d="M642 660h69l-399 -670h-69zM358 383q0 -43 -46 -70.5t-111 -27.5q-55 0 -93 16t-38 44q0 17 18 29t45 16l4 -2q-3 -6 -3 -11q0 -32 15.5 -50.5t44.5 -18.5t46.5 18t17.5 49q0 37 -27 57.5t-67 20.5q-8 0 -24 -2l-4 13q110 17 110 82q0 24 -18 39t-46 15t-53 -16t-38 -43 l-7 2q11 52 52.5 83t96.5 31q50 0 81.5 -23.5t30.5 -61.5q1 -41 -33.5 -65.5t-89.5 -34.5q60 -3 98 -26.5t38 -62.5zM544 113l207 252l55 -5v-246h57l-5 -34h-52v-80h-93v80h-162zM576 114h137v173z" />
<glyph unicode="&#xbf;" horiz-adv-x="487" d="M181 445q0 30 21 48.5t54 18.5q28 0 45.5 -15.5t17.5 -41.5q0 -29 -22 -47.5t-53 -18.5q-28 0 -45.5 15t-17.5 41zM223 289l11 5h10q53 -38 53 -83q0 -24 -19 -44q-10 -12 -36.5 -36.5t-46 -44.5t-36 -54.5t-16.5 -72.5q0 -54 27.5 -87.5t77.5 -33.5q47 0 76.5 36.5 t29.5 89.5q0 33 -9 72q18 10 44 10q37 0 61.5 -21t24.5 -55q0 -69 -69.5 -117t-168.5 -48q-98 0 -161.5 48t-63.5 126q0 35 16 67t44 56t52.5 40.5t54.5 33t37 21.5q4 4 4 11z" />
<glyph unicode="&#xc0;" horiz-adv-x="667" d="M435 724l-8 -9q-83 23 -137.5 58t-54.5 68q0 45 63 45q5 0 12 -0.5t10 -0.5q37 -68 115 -161zM301 652h64l218 -581q8 -22 17.5 -31.5t28.5 -15.5l38 -11l-2 -13h-284l-2 13l82 22l-59 166h-232l-61 -167l82 -21l-2 -13h-187l-2 13l41 10q19 6 27.5 16t17.5 35zM182 233 h209l-103 291z" />
<glyph unicode="&#xc1;" horiz-adv-x="667" d="M436 844q0 -31 -53.5 -66.5t-133.5 -58.5l-8 9q75 92 112 158q2 0 9 0.5t12 0.5q62 0 62 -43zM301 652h64l218 -581q8 -22 17.5 -31.5t28.5 -15.5l38 -11l-2 -13h-284l-2 13l82 22l-59 166h-232l-61 -167l82 -21l-2 -13h-187l-2 13l41 10q19 6 27.5 16t17.5 35zM182 233 h209l-103 291z" />
<glyph unicode="&#xc2;" horiz-adv-x="667" d="M471 728l-8 -7q-56 37 -131 79q-88 -55 -130 -78l-7 8q72 105 94 144l7 6h82q41 -63 93 -152zM301 652h64l218 -581q8 -22 17.5 -31.5t28.5 -15.5l38 -11l-2 -13h-284l-2 13l82 22l-59 166h-232l-61 -167l82 -21l-2 -13h-187l-2 13l41 10q19 6 27.5 16t17.5 35zM182 233 h209l-103 291z" />
<glyph unicode="&#xc3;" horiz-adv-x="667" d="M434 809q25 29 44 56l10 -3q2 -9 2 -25q-3 -41 -22.5 -69.5t-53.5 -28.5q-25 0 -60 10t-72 24t-48 17q-25 -29 -44 -56l-10 4q-3 14 -3 25q3 40 23.5 68.5t53.5 28.5t103.5 -25t76.5 -26zM301 652h64l218 -581q8 -22 17.5 -31.5t28.5 -15.5l38 -11l-2 -13h-284l-2 13 l82 22l-59 166h-232l-61 -167l82 -21l-2 -13h-187l-2 13l41 10q19 6 27.5 16t17.5 35zM182 233h209l-103 291z" />
<glyph unicode="&#xc4;" horiz-adv-x="667" d="M289 806q0 -29 -19.5 -48t-50.5 -19q-26 0 -42 15.5t-16 40.5q0 29 21 47.5t50 18.5q26 0 41.5 -15t15.5 -40zM506 806q0 -29 -19.5 -48t-50.5 -19q-26 0 -42 15.5t-16 40.5q0 29 21 47.5t50 18.5q26 0 41.5 -15t15.5 -40zM301 652h64l218 -581q8 -22 17.5 -31.5 t28.5 -15.5l38 -11l-2 -13h-284l-2 13l82 22l-59 166h-232l-61 -167l82 -21l-2 -13h-187l-2 13l41 10q19 6 27.5 16t17.5 35zM182 233h209l-103 291z" />
<glyph unicode="&#xc5;" horiz-adv-x="667" d="M330 718q-38 0 -62 21.5t-24 56.5q0 36 26.5 59.5t66.5 23.5q37 0 61.5 -21.5t24.5 -55.5q0 -37 -26.5 -60.5t-66.5 -23.5zM334 846q-18 0 -29 -14t-11 -35q0 -20 11 -32.5t28 -12.5t28 14t11 35q0 20 -11 32.5t-27 12.5zM301 652h64l218 -581q8 -22 17.5 -31.5 t28.5 -15.5l38 -11l-2 -13h-284l-2 13l82 22l-59 166h-232l-61 -167l82 -21l-2 -13h-187l-2 13l41 10q19 6 27.5 16t17.5 35zM182 233h209l-103 291z" />
<glyph unicode="&#xc6;" horiz-adv-x="872" d="M14 0l-1 13q31 9 48 15q14 5 21.5 14.5t17.5 33.5l202 543l-81 18l1 13h590q6 -35 6 -72q0 -69 -16 -122h-9l-73 162q-28 1 -85 1h-90v-277l186 10l-2 -50l-184 9v-279h184l73 166h9q15 -50 15 -124q0 -44 -5 -74h-473l-1 13l51 11q14 4 18 10.5t4 21.5v255l-198 -3 l-99 -274l82 -21l-1 -13h-190zM420 619h-84l-101 -277h185v277z" />
<glyph unicode="&#xc7;" horiz-adv-x="604" d="M334 -89l-3 6l13 74q-140 11 -222 97.5t-82 232.5q0 154 95.5 246.5t245.5 92.5q95 0 161 -29q3 -30 3 -61q0 -76 -19 -135h-9l-72 183q-26 10 -57 10q-91 0 -152.5 -84.5t-61.5 -220.5q0 -137 61.5 -219t150.5 -82q40 0 67 10l72 187h9q19 -54 19 -140q0 -30 -3 -60 q-75 -29 -171 -29l-6 -34q50 -5 78.5 -23.5t28.5 -46.5q0 -39 -45.5 -61t-123.5 -23l-3 15q80 19 80 57q0 30 -54 37z" />
<glyph unicode="&#xc8;" horiz-adv-x="568" d="M413 724l-8 -9q-83 23 -137 58t-54 68q0 45 63 45q5 0 12 -0.5t9 -0.5q37 -68 115 -161zM520 0h-472l-2 13l52 11q13 4 17 11t4 21v561l-73 20l1 13h465q5 -29 5 -72q0 -72 -15 -122h-9l-73 162q-28 1 -85 1h-91v-277l186 10l-2 -50l-184 9v-279h184l73 166h9 q16 -53 16 -124q0 -38 -6 -74z" />
<glyph unicode="&#xc9;" horiz-adv-x="568" d="M419 844q0 -31 -52.5 -66t-133.5 -58l-8 9q70 86 111 157q6 1 22 1q61 0 61 -43zM520 0h-472l-2 13l52 11q13 4 17 11t4 21v561l-73 21l1 13h465q5 -30 5 -72q0 -73 -15 -123h-9l-73 162q-28 1 -85 1h-91v-277l186 10l-2 -50l-184 9v-279h184l73 166h9q16 -53 16 -124 q0 -38 -6 -74z" />
<glyph unicode="&#xca;" horiz-adv-x="568" d="M450 728l-9 -7q-52 35 -130 79q-99 -61 -131 -78l-7 8q70 99 94 144l8 6h81q29 -45 94 -152zM520 0h-472l-2 13l52 11q13 4 17 11t4 21v561l-73 20l1 13h465q5 -29 5 -72q0 -72 -15 -122h-9l-73 162q-28 1 -85 1h-91v-277l186 10l-2 -50l-184 9v-279h184l73 166h9 q16 -53 16 -124q0 -38 -6 -74z" />
<glyph unicode="&#xcb;" horiz-adv-x="568" d="M268 806q0 -29 -20 -48t-50 -19q-26 0 -42 15.5t-16 40.5q0 29 20.5 47.5t49.5 18.5q26 0 42 -15t16 -40zM485 806q0 -29 -20 -48t-50 -19q-26 0 -42 15.5t-16 40.5q0 29 20.5 47.5t49.5 18.5q26 0 42 -15t16 -40zM520 0h-472l-2 13l52 11q13 4 17 11t4 21v561l-73 20 l1 13h465q5 -29 5 -72q0 -72 -15 -122h-9l-73 162q-28 1 -85 1h-91v-277l186 10l-2 -50l-184 9v-279h184l73 166h9q16 -53 16 -124q0 -38 -6 -74z" />
<glyph unicode="&#xcc;" horiz-adv-x="363" d="M283 724l-8 -9q-83 23 -137.5 58t-54.5 68q0 45 63 45q5 0 12 -0.5t10 -0.5q37 -68 115 -161zM317 0h-268l-2 13l51 11q13 4 17 11t4 21v561l-74 20l2 13h268l1 -13l-50 -11q-14 -4 -18 -10.5t-4 -20.5v-561l74 -21z" />
<glyph unicode="&#xcd;" horiz-adv-x="363" d="M289 844q0 -31 -53.5 -66.5t-133.5 -58.5l-8 9q75 92 112 158q2 0 9 0.5t12 0.5q62 0 62 -43zM317 0h-268l-2 13l51 11q13 4 17 11t4 21v561l-74 20l2 13h268l1 -13l-50 -11q-14 -4 -18 -10.5t-4 -20.5v-561l74 -21z" />
<glyph unicode="&#xce;" horiz-adv-x="363" d="M319 728l-8 -7q-56 37 -131 79q-88 -55 -130 -78l-7 8q72 105 94 144l7 6h82q41 -63 93 -152zM317 0h-268l-2 13l51 11q13 4 17 11t4 21v561l-74 20l2 13h268l1 -13l-50 -11q-14 -4 -18 -10.5t-4 -20.5v-561l74 -21z" />
<glyph unicode="&#xcf;" horiz-adv-x="363" d="M137 806q0 -29 -19.5 -48t-50.5 -19q-26 0 -42 15.5t-16 40.5q0 29 21 47.5t50 18.5q26 0 41.5 -15t15.5 -40zM354 806q0 -29 -19.5 -48t-50.5 -19q-26 0 -42 15.5t-16 40.5q0 29 21 47.5t50 18.5q26 0 41.5 -15t15.5 -40zM317 0h-268l-2 13l51 11q13 4 17 11t4 21v561 l-74 20l2 13h268l1 -13l-50 -11q-14 -4 -18 -10.5t-4 -20.5v-561l74 -21z" />
<glyph unicode="&#xd0;" horiz-adv-x="688" d="M311 0h-263l-2 13l52 11q13 4 17 11t4 21v256h-74v29h74v276l-73 20l1 13h268q150 0 240 -85t90 -236t-92.5 -240t-241.5 -89zM379 312h-135v-281h58q101 0 158.5 79.5t58.5 218.5q0 138 -57.5 214t-160.5 76h-57v-278h135v-29z" />
<glyph unicode="&#xd1;" horiz-adv-x="679" d="M456 809q25 29 44 56l10 -3q2 -18 2 -25q-3 -41 -23 -69.5t-54 -28.5q-25 0 -59.5 10t-72 24t-48.5 17q-25 -29 -44 -56l-10 4q-3 14 -3 25q3 41 23.5 69t54.5 28q33 0 102.5 -24.5t77.5 -26.5zM241 0h-202l-2 13l61 14q13 4 17 10t4 19v561l-83 20l2 13h173l331 -511 v478l-88 20l1 13h203l1 -13l-60 -13q-14 -4 -18 -10t-4 -19v-595h-92l-330 513v-479l88 -21z" />
<glyph unicode="&#xd2;" horiz-adv-x="660" d="M427 724l-8 -9q-83 23 -137 58t-54 68q0 45 63 45q5 0 12 -0.5t9 -0.5q37 -68 115 -161zM614 329q0 -151 -80.5 -245t-208.5 -94q-129 0 -207.5 91t-78.5 243q0 151 82 243.5t208 92.5t205.5 -90.5t79.5 -240.5zM173 324q-1 -144 40 -222.5t114 -78.5t112.5 81t40.5 225 q0 143 -39 221t-113 78q-75 0 -115 -79t-40 -225z" />
<glyph unicode="&#xd3;" horiz-adv-x="660" d="M433 844q0 -31 -53 -66.5t-133 -58.5l-8 9q72 88 111 158q3 0 10 0.5t12 0.5q61 0 61 -43zM614 329q0 -151 -80.5 -245t-208.5 -94q-129 0 -207.5 91t-78.5 243q0 151 82 243.5t208 92.5t205.5 -90.5t79.5 -240.5zM173 324q-1 -144 40 -222.5t114 -78.5t112.5 81 t40.5 225q0 143 -39 221t-113 78q-75 0 -115 -79t-40 -225z" />
<glyph unicode="&#xd4;" horiz-adv-x="660" d="M464 728l-9 -7q-52 35 -130 79q-99 -61 -131 -78l-7 8q70 99 94 144l8 6h81q29 -45 94 -152zM614 329q0 -151 -80.5 -245t-208.5 -94q-129 0 -207.5 91t-78.5 243q0 151 82 243.5t208 92.5t205.5 -90.5t79.5 -240.5zM173 324q-1 -144 40 -222.5t114 -78.5t112.5 81 t40.5 225q0 143 -39 221t-113 78q-75 0 -115 -79t-40 -225z" />
<glyph unicode="&#xd5;" horiz-adv-x="660" d="M427 809q25 29 44 56l10 -3q2 -18 2 -25q-3 -41 -23 -69.5t-54 -28.5q-25 0 -59.5 10t-72 24t-48.5 17q-25 -29 -44 -56l-10 4q-3 14 -3 25q3 41 23.5 69t54.5 28q33 0 102.5 -24.5t77.5 -26.5zM614 329q0 -151 -80.5 -245t-208.5 -94q-129 0 -207.5 91t-78.5 243 q0 151 82 243.5t208 92.5t205.5 -90.5t79.5 -240.5zM173 324q-1 -144 40 -222.5t114 -78.5t112.5 81t40.5 225q0 143 -39 221t-113 78q-75 0 -115 -79t-40 -225z" />
<glyph unicode="&#xd6;" horiz-adv-x="660" d="M282 806q0 -29 -20 -48t-50 -19q-26 0 -42 15.5t-16 40.5q0 29 20.5 47.5t49.5 18.5q26 0 42 -15t16 -40zM499 806q0 -29 -20 -48t-50 -19q-26 0 -42 15.5t-16 40.5q0 29 20.5 47.5t49.5 18.5q26 0 42 -15t16 -40zM614 329q0 -151 -80.5 -245t-208.5 -94 q-129 0 -207.5 91t-78.5 243q0 151 82 243.5t208 92.5t205.5 -90.5t79.5 -240.5zM173 324q-1 -144 40 -222.5t114 -78.5t112.5 81t40.5 225q0 143 -39 221t-113 78q-75 0 -115 -79t-40 -225z" />
<glyph unicode="&#xd7;" horiz-adv-x="580" d="M428 127l-138 140l-136 -136l-59 58l137 137l-140 142l56 56q51 -48 142 -139l135 136l60 -60l-136 -135l139 -139v-9z" />
<glyph unicode="&#xd8;" horiz-adv-x="660" d="M614 329q0 -151 -80.5 -245t-209.5 -94q-109 0 -184 67l-50 -64l-29 24l53 67q-75 91 -75 240q0 151 82 243.5t208 92.5q107 0 183 -68l50 65l29 -23l-54 -68q77 -93 77 -237zM173 324q-1 -81 13 -147l268 342q-39 109 -126 109q-75 0 -115 -79t-40 -225zM479 329 q1 80 -13 146l-267 -342q40 -110 128 -110q73 0 112.5 81t39.5 225z" />
<glyph unicode="&#xd9;" horiz-adv-x="692" d="M483 723l-8 -9q-84 23 -138 58t-54 69q0 44 63 44q16 0 22 -1q40 -71 115 -161zM588 223q0 -113 -62 -173t-172 -60q-105 0 -172.5 61t-67.5 174v392l-74 20l2 13h268l1 -13l-50 -11q-14 -4 -18 -10.5t-4 -20.5v-363q0 -95 42 -146.5t114 -51.5q70 0 114 50t44 143v390 l-84 20l2 13h198l1 -13l-82 -20v-394z" />
<glyph unicode="&#xda;" horiz-adv-x="692" d="M489 843q0 -31 -53 -66t-134 -58l-8 9q74 91 112 157q5 1 21 1q62 0 62 -43zM588 223q0 -113 -62 -173t-172 -60q-105 0 -172.5 61t-67.5 174v392l-74 20l2 13h268l1 -13l-50 -11q-14 -4 -18 -10.5t-4 -20.5v-363q0 -95 42 -146.5t114 -51.5q70 0 114 50t44 143v390 l-84 20l2 13h198l1 -13l-82 -20v-394z" />
<glyph unicode="&#xdb;" horiz-adv-x="692" d="M519 727l-8 -6q-73 47 -131 79q-88 -55 -130 -79l-7 9q66 94 94 144l7 5h82q35 -52 93 -152zM588 223q0 -113 -62 -173t-172 -60q-105 0 -172.5 61t-67.5 174v392l-74 20l2 13h268l1 -13l-50 -11q-14 -4 -18 -10.5t-4 -20.5v-363q0 -95 42 -146.5t114 -51.5q70 0 114 50 t44 143v390l-84 20l2 13h198l1 -13l-82 -20v-394z" />
<glyph unicode="&#xdc;" horiz-adv-x="692" d="M337 805q0 -29 -19.5 -47.5t-50.5 -18.5q-26 0 -42 15.5t-16 40.5q0 28 21 47t50 19q26 0 41.5 -15.5t15.5 -40.5zM554 805q0 -29 -19.5 -47.5t-50.5 -18.5q-26 0 -42 15.5t-16 40.5q0 28 21 47t50 19q26 0 41.5 -15.5t15.5 -40.5zM588 223q0 -113 -62 -173t-172 -60 q-105 0 -172.5 61t-67.5 174v392l-74 20l2 13h268l1 -13l-50 -11q-14 -4 -18 -10.5t-4 -20.5v-363q0 -95 42 -146.5t114 -51.5q70 0 114 50t44 143v390l-84 20l2 13h198l1 -13l-82 -20v-394z" />
<glyph unicode="&#xdd;" horiz-adv-x="643" d="M442 844q0 -31 -53.5 -66.5t-133.5 -58.5l-8 9q75 92 112 158q2 0 9 0.5t12 0.5q62 0 62 -43zM457 0h-268l-2 13l51 11q13 4 17 11t4 21v187l-176 341q-11 19 -19 28t-23 14l-41 11l2 13h277l2 -13l-76 -22l159 -344l158 345l-74 21l2 13h192l1 -13q-21 -6 -36 -14 q-34 -20 -65 -77l-158 -303v-209l74 -21z" />
<glyph unicode="&#xde;" horiz-adv-x="601" d="M340 0h-292l-2 13l52 11q13 4 17 11t4 21v561l-74 20l2 13h268l1 -13l-50 -11q-14 -4 -18 -10.5t-4 -20.5v-58h76q117 0 186 -52t69 -146q0 -98 -70.5 -151.5t-186.5 -53.5h-74v-100l97 -21zM308 505h-64v-339h61q69 0 106.5 44t37.5 129q0 77 -37.5 121.5t-103.5 44.5z " />
<glyph unicode="&#xdf;" horiz-adv-x="588" d="M198 0h-173l-2 12l38 10q18 6 22.5 13t4.5 27v375h-70l-2 12l72 18q5 102 63.5 165t155.5 63q81 0 133 -43.5t52 -113.5q0 -58 -41.5 -98t-112.5 -58q97 -15 159 -72t62 -142q0 -80 -52.5 -129t-138.5 -49q-46 0 -77 20t-31 50q0 27 26 31h3q12 -52 62 -52q36 0 58 32 t22 86q0 81 -39.5 138t-108.5 75v15q52 12 79 57.5t27 105.5q0 52 -23 83.5t-59 31.5q-47 0 -73 -42t-26 -123v-487z" />
<glyph unicode="&#xe0;" horiz-adv-x="519" d="M358 573l-8 -9q-84 23 -138 58t-54 69q0 44 63 44q16 0 22 -1q40 -71 115 -161zM512 46q-35 -56 -99 -56q-41 0 -66 24t-28 64q-21 -38 -60 -63t-92 -25q-55 0 -91 32t-36 84q0 76 75.5 117t203.5 46v115q0 49 -16 71.5t-50 22.5q-36 0 -60.5 -27t-24.5 -66q0 -27 5 -49 q-29 -13 -56 -13q-26 0 -42 12.5t-16 36.5q0 53 62 95.5t145 42.5q176 0 176 -171q0 -39 -1.5 -116t-1.5 -108q0 -67 41 -67q15 0 28 5zM166 128q0 -35 18.5 -54t46.5 -19t52.5 16t35.5 42v130q-70 -6 -111.5 -34.5t-41.5 -80.5z" />
<glyph unicode="&#xe1;" horiz-adv-x="519" d="M364 691q0 -31 -53 -66.5t-133 -58.5l-8 9q72 88 111 158q3 0 10 0.5t12 0.5q61 0 61 -43zM512 46q-35 -56 -99 -56q-41 0 -66 24t-28 64q-21 -38 -60 -63t-92 -25q-55 0 -91 32t-36 84q0 76 75.5 117t203.5 46v115q0 49 -16 71.5t-50 22.5q-36 0 -60.5 -27t-24.5 -66 q0 -27 5 -49q-29 -13 -56 -13q-26 0 -42 12.5t-16 36.5q0 53 62 95.5t145 42.5q176 0 176 -171q0 -39 -1.5 -116t-1.5 -108q0 -67 41 -67q15 0 28 5zM166 128q0 -35 18.5 -54t46.5 -19t52.5 16t35.5 42v130q-70 -6 -111.5 -34.5t-41.5 -80.5z" />
<glyph unicode="&#xe2;" horiz-adv-x="519" d="M397 577l-8 -6q-73 47 -131 79q-88 -55 -130 -79l-7 9q66 94 94 144l7 5h82q35 -52 93 -152zM512 46q-35 -56 -99 -56q-41 0 -66 24t-28 64q-21 -38 -60 -63t-92 -25q-55 0 -91 32t-36 84q0 76 75.5 117t203.5 46v115q0 49 -16 71.5t-50 22.5q-36 0 -60.5 -27t-24.5 -66 q0 -27 5 -49q-29 -13 -56 -13q-26 0 -42 12.5t-16 36.5q0 53 62 95.5t145 42.5q176 0 176 -171q0 -39 -1.5 -116t-1.5 -108q0 -67 41 -67q15 0 28 5zM166 128q0 -35 18.5 -54t46.5 -19t52.5 16t35.5 42v130q-70 -6 -111.5 -34.5t-41.5 -80.5z" />
<glyph unicode="&#xe3;" horiz-adv-x="519" d="M356 659q25 29 44 56l10 -3q2 -9 2 -25q-3 -41 -22.5 -69.5t-53.5 -28.5q-25 0 -60 10t-72 24t-48 17q-25 -29 -44 -56l-10 4q-3 14 -3 25q3 40 23.5 68.5t53.5 28.5t103.5 -25t76.5 -26zM512 46q-35 -56 -99 -56q-41 0 -66 24t-28 64q-21 -38 -60 -63t-92 -25 q-55 0 -91 32t-36 84q0 76 75.5 117t203.5 46v115q0 49 -16 71.5t-50 22.5q-36 0 -60.5 -27t-24.5 -66q0 -27 5 -49q-29 -13 -56 -13q-26 0 -42 12.5t-16 36.5q0 53 62 95.5t145 42.5q176 0 176 -171q0 -39 -1.5 -116t-1.5 -108q0 -67 41 -67q15 0 28 5zM166 128 q0 -35 18.5 -54t46.5 -19t52.5 16t35.5 42v130q-70 -6 -111.5 -34.5t-41.5 -80.5z" />
<glyph unicode="&#xe4;" horiz-adv-x="519" d="M213 656q0 -29 -20 -48t-50 -19q-26 0 -42 15.5t-16 40.5q0 29 20.5 47.5t49.5 18.5q26 0 42 -15t16 -40zM430 656q0 -29 -20 -48t-50 -19q-26 0 -42 15.5t-16 40.5q0 29 20.5 47.5t49.5 18.5q26 0 42 -15t16 -40zM512 46q-35 -56 -99 -56q-41 0 -66 24t-28 64 q-21 -38 -60 -63t-92 -25q-55 0 -91 32t-36 84q0 76 75.5 117t203.5 46v115q0 49 -16 71.5t-50 22.5q-36 0 -60.5 -27t-24.5 -66q0 -27 5 -49q-29 -13 -56 -13q-26 0 -42 12.5t-16 36.5q0 53 62 95.5t145 42.5q176 0 176 -171q0 -39 -1.5 -116t-1.5 -108q0 -67 41 -67 q15 0 28 5zM166 128q0 -35 18.5 -54t46.5 -19t52.5 16t35.5 42v130q-70 -6 -111.5 -34.5t-41.5 -80.5z" />
<glyph unicode="&#xe5;" horiz-adv-x="519" d="M253 570q-38 0 -62 21.5t-24 55.5q0 37 26.5 60.5t67.5 23.5q37 0 61 -21.5t24 -55.5q0 -37 -26.5 -60.5t-66.5 -23.5zM257 697q-17 0 -28 -14t-11 -35q0 -19 10.5 -31.5t27.5 -12.5q18 0 29 13.5t11 35.5q0 19 -11 31.5t-28 12.5zM512 46q-35 -56 -99 -56q-41 0 -66 24 t-28 64q-21 -38 -60 -63t-92 -25q-55 0 -91 32t-36 84q0 76 75.5 117t203.5 46v115q0 49 -16 71.5t-50 22.5q-36 0 -60.5 -27t-24.5 -66q0 -27 5 -49q-29 -13 -56 -13q-26 0 -42 12.5t-16 36.5q0 53 62 95.5t145 42.5q176 0 176 -171q0 -39 -1.5 -116t-1.5 -108 q0 -67 41 -67q15 0 28 5zM166 128q0 -35 18.5 -54t46.5 -19t52.5 16t35.5 42v130q-70 -6 -111.5 -34.5t-41.5 -80.5z" />
<glyph unicode="&#xe6;" horiz-adv-x="765" d="M736 116q-54 -126 -197 -126q-141 2 -193 114q-20 -46 -64.5 -80t-107.5 -34q-60 0 -97 31.5t-37 83.5q0 79 76 121.5t203 47.5v110q0 49 -16 71.5t-50 22.5q-36 0 -60.5 -27t-24.5 -66q0 -27 5 -49q-29 -13 -56 -13q-26 0 -42 12.5t-16 36.5q0 53 62 95.5t145 42.5 q97 0 140 -52q62 53 145 53q87 0 137.5 -55t50.5 -144q0 -18 -4 -50l-8 -7h-281q7 -87 48.5 -132t109.5 -45q67 0 124 46zM445 285v-4l171 8q2 30 2 44q0 72 -16.5 109t-56.5 37q-46 0 -73 -51.5t-27 -142.5zM166 136q0 -36 19.5 -57.5t50.5 -21.5q30 0 56.5 20t42.5 53 q-16 51 -16 111v7q-70 -6 -111.5 -33.5t-41.5 -78.5z" />
<glyph unicode="&#xe7;" horiz-adv-x="468" d="M38 244q0 120 66.5 193t165.5 73q81 0 129 -42.5t48 -103.5q0 -27 -16.5 -41t-42.5 -14q-27 0 -46 12q1 3 1 11q0 146 -74 146q-48 0 -76.5 -52t-28.5 -143q0 -100 42.5 -153t115.5 -53q64 0 125 46l7 -8q-47 -117 -175 -124l-6 -35q50 -5 78.5 -23.5t28.5 -46.5 q0 -39 -45.5 -61t-123.5 -23l-3 15q80 19 80 57q0 30 -54 37l-3 6l12 74q-93 6 -149 73.5t-56 179.5z" />
<glyph unicode="&#xe8;" horiz-adv-x="483" d="M358 573l-8 -9q-84 23 -138 58t-54 69q0 44 63 44q16 0 22 -1q40 -71 115 -161zM454 115q-53 -125 -196 -125q-98 0 -159 68t-61 183q0 124 66.5 196.5t165.5 72.5q87 0 137 -54.5t50 -143.5q0 -28 -4 -51l-7 -6h-281q6 -87 48 -132.5t109 -45.5q66 0 125 46zM164 285v-4 l170 7q2 16 2 44q0 72 -16.5 109t-56.5 37q-45 0 -72 -51t-27 -142z" />
<glyph unicode="&#xe9;" horiz-adv-x="483" d="M364 691q0 -31 -53 -66.5t-133 -58.5l-8 9q72 88 111 158q3 0 10 0.5t12 0.5q61 0 61 -43zM454 115q-53 -125 -196 -125q-98 0 -159 68t-61 183q0 124 66.5 196.5t165.5 72.5q87 0 137 -54.5t50 -143.5q0 -28 -4 -51l-7 -6h-281q6 -87 48 -132.5t109 -45.5q66 0 125 46z M164 285v-4l170 7q2 16 2 44q0 72 -16.5 109t-56.5 37q-45 0 -72 -51t-27 -142z" />
<glyph unicode="&#xea;" horiz-adv-x="483" d="M397 577l-8 -6q-73 47 -131 79q-88 -55 -130 -79l-7 9q66 94 94 144l7 5h82q35 -52 93 -152zM454 115q-53 -125 -196 -125q-98 0 -159 68t-61 183q0 124 66.5 196.5t165.5 72.5q87 0 137 -54.5t50 -143.5q0 -28 -4 -51l-7 -6h-281q6 -87 48 -132.5t109 -45.5q66 0 125 46 zM164 285v-4l170 7q2 16 2 44q0 72 -16.5 109t-56.5 37q-45 0 -72 -51t-27 -142z" />
<glyph unicode="&#xeb;" horiz-adv-x="483" d="M213 656q0 -29 -20 -48t-50 -19q-26 0 -42 15.5t-16 40.5q0 29 20.5 47.5t49.5 18.5q26 0 42 -15t16 -40zM430 656q0 -29 -20 -48t-50 -19q-26 0 -42 15.5t-16 40.5q0 29 20.5 47.5t49.5 18.5q26 0 42 -15t16 -40zM454 115q-53 -125 -196 -125q-98 0 -159 68t-61 183 q0 124 66.5 196.5t165.5 72.5q87 0 137 -54.5t50 -143.5q0 -28 -4 -51l-7 -6h-281q6 -87 48 -132.5t109 -45.5q66 0 125 46zM164 285v-4l170 7q2 16 2 44q0 72 -16.5 109t-56.5 37q-45 0 -72 -51t-27 -142z" />
<glyph unicode="&#xec;" horiz-adv-x="288" d="M239 573l-8 -9q-84 23 -138 58t-54 69q0 44 63 44q16 0 22 -1q40 -71 115 -161zM272 0h-247l-2 12l44 11q13 5 17 11.5t4 20.5v404l-64 10l-1 12q94 27 178 29l7 -7v-470l65 -21z" />
<glyph unicode="&#xed;" horiz-adv-x="288" d="M248 691q0 -31 -53.5 -66.5t-133.5 -58.5l-8 9q75 92 112 158q2 0 9 0.5t12 0.5q62 0 62 -43zM272 0h-247l-2 12l44 11q13 5 17 11.5t4 20.5v404l-64 10l-1 12q94 27 178 29l7 -7v-470l65 -21z" />
<glyph unicode="&#xee;" horiz-adv-x="288" d="M257 577l-9 -6q-59 44 -108 76q-57 -43 -109 -76l-7 9q54 97 73 144l8 5h80q23 -44 72 -152zM272 0h-247l-2 12l44 11q13 5 17 11.5t4 20.5v404l-64 10l-1 12q94 27 178 29l7 -7v-470l65 -21z" />
<glyph unicode="&#xef;" horiz-adv-x="288" d="M106 656q0 -29 -17 -48t-43 -19q-21 0 -35 15.5t-14 40.5q0 29 18 47.5t43 18.5q21 0 34.5 -15t13.5 -40zM283 656q0 -29 -17 -48t-43 -19q-21 0 -34.5 15.5t-13.5 40.5q0 29 17.5 47.5t42.5 18.5q21 0 34.5 -15t13.5 -40zM272 0h-247l-2 12l44 11q13 5 17 11.5t4 20.5 v404l-64 10l-1 12q94 27 178 29l7 -7v-470l65 -21z" />
<glyph unicode="&#xf0;" horiz-adv-x="527" d="M490 279q0 -130 -61 -209.5t-170 -79.5q-102 0 -161.5 68t-59.5 187q0 121 59.5 193t157.5 72q35 0 66 -13q-35 69 -91 124l-158 -94l-15 27l149 89q-47 42 -113 73l4 11q89 -15 160 -53l117 71l17 -28l-103 -61q97 -61 149.5 -158t52.5 -219zM164 249q0 -119 24 -173 t76 -54q100 0 100 234q0 222 -96 222q-104 0 -104 -229z" />
<glyph unicode="&#xf1;" d="M397 659q25 29 44 56l10 -3q2 -9 2 -25q-3 -41 -22.5 -69.5t-53.5 -28.5q-25 0 -60 10t-72 24t-48 17q-25 -29 -44 -56l-10 4q-3 13 -3 25q3 40 23.5 68.5t53.5 28.5t103.5 -25t76.5 -26zM272 0h-247l-2 12l44 11q13 5 17 11.5t4 20.5v404l-64 10l-1 12q94 27 178 29 l7 -7v-102q63 109 168 109q65 0 99 -39t34 -111v-327l65 -21l-2 -12h-247l-1 12l43 11q13 5 17.5 11.5t4.5 20.5v280q0 96 -80 96q-28 0 -56.5 -17t-44.5 -44v-337l65 -21z" />
<glyph unicode="&#xf2;" horiz-adv-x="527" d="M365 573l-8 -9q-83 23 -137 58t-54 69q0 44 63 44q16 0 21 -1q40 -71 115 -161zM490 260q0 -121 -62.5 -195.5t-166.5 -74.5q-101 0 -162 66.5t-61 182.5q0 125 64 198t167 73q100 0 160.5 -68t60.5 -182zM164 255q0 -121 24 -177t76 -56q100 0 100 226q0 119 -24 174.5 t-74 55.5q-102 0 -102 -223z" />
<glyph unicode="&#xf3;" horiz-adv-x="527" d="M372 691q0 -31 -53.5 -66.5t-133.5 -58.5l-8 9q75 92 112 158q2 0 9 0.5t12 0.5q62 0 62 -43zM490 260q0 -121 -62.5 -195.5t-166.5 -74.5q-101 0 -162 66.5t-61 182.5q0 125 64 198t167 73q100 0 160.5 -68t60.5 -182zM164 255q0 -121 24 -177t76 -56q100 0 100 226 q0 119 -24 174.5t-74 55.5q-102 0 -102 -223z" />
<glyph unicode="&#xf4;" horiz-adv-x="527" d="M405 577l-9 -6q-71 45 -130 79q-103 -63 -131 -79l-7 9q66 92 94 144l8 5h81q23 -35 94 -152zM490 260q0 -121 -62.5 -195.5t-166.5 -74.5q-101 0 -162 66.5t-61 182.5q0 125 64 198t167 73q100 0 160.5 -68t60.5 -182zM164 255q0 -121 24 -177t76 -56q100 0 100 226 q0 119 -24 174.5t-74 55.5q-102 0 -102 -223z" />
<glyph unicode="&#xf5;" horiz-adv-x="527" d="M364 659q25 29 44 56l10 -3q2 -18 2 -25q-3 -41 -23 -69.5t-54 -28.5q-25 0 -59.5 10t-72 24t-48.5 17q-25 -29 -44 -56l-10 4q-3 14 -3 25q3 41 23.5 69t54.5 28q33 0 102.5 -24.5t77.5 -26.5zM490 260q0 -121 -62.5 -195.5t-166.5 -74.5q-101 0 -162 66.5t-61 182.5 q0 125 64 198t167 73q100 0 160.5 -68t60.5 -182zM164 255q0 -121 24 -177t76 -56q100 0 100 226q0 119 -24 174.5t-74 55.5q-102 0 -102 -223z" />
<glyph unicode="&#xf6;" horiz-adv-x="527" d="M220 656q0 -29 -19.5 -48t-50.5 -19q-26 0 -42 15.5t-16 40.5q0 29 21 47.5t50 18.5q26 0 41.5 -15t15.5 -40zM437 656q0 -29 -19.5 -48t-50.5 -19q-26 0 -42 15.5t-16 40.5q0 29 21 47.5t50 18.5q26 0 41.5 -15t15.5 -40zM490 260q0 -121 -62.5 -195.5t-166.5 -74.5 q-101 0 -162 66.5t-61 182.5q0 125 64 198t167 73q100 0 160.5 -68t60.5 -182zM164 255q0 -121 24 -177t76 -56q100 0 100 226q0 119 -24 174.5t-74 55.5q-102 0 -102 -223z" />
<glyph unicode="&#xf7;" horiz-adv-x="569" d="M344 513q0 -29 -18 -49.5t-47 -20.5q-24 0 -39 17t-15 41q0 28 19.5 48.5t46.5 20.5q23 0 38 -16t15 -41zM485 284h-407v78q123 4 408 4l6 -6zM344 151q0 -29 -18 -49t-47 -20q-24 0 -39 16.5t-15 40.5q0 28 19.5 48.5t46.5 20.5q23 0 38 -16t15 -41z" />
<glyph unicode="&#xf8;" horiz-adv-x="527" d="M490 260q0 -121 -62.5 -195.5t-166.5 -74.5q-106 0 -166 71l-45 -44l-21 23l47 47q-38 61 -38 152q0 125 64 198t167 73q100 0 161 -70l45 45l24 -23l-49 -48q40 -66 40 -154zM164 255q0 -55 2 -78l189 189q-19 112 -89 112q-102 0 -102 -223zM364 248q0 46 -4 77 l-189 -188q20 -115 93 -115q100 0 100 226z" />
<glyph unicode="&#xf9;" d="M384 573l-8 -9q-84 23 -138 58t-54 69q0 44 63 44q16 0 22 -1q40 -71 115 -161zM575 44q-37 -54 -101 -54q-43 0 -68 27.5t-25 71.5v6q-59 -105 -161 -105q-67 0 -103.5 40t-36.5 112v317l-64 10l-1 12q94 27 178 29l7 -7v-337q0 -95 81 -97q59 0 100 60v330l-65 10 l-1 12q96 27 178 29l8 -7v-388q0 -67 40 -67q14 0 29 5z" />
<glyph unicode="&#xfa;" d="M393 691q0 -31 -53.5 -66.5t-133.5 -58.5l-8 9q75 92 112 158q2 0 9 0.5t12 0.5q62 0 62 -43zM575 44q-37 -54 -101 -54q-43 0 -68 27.5t-25 71.5v6q-59 -105 -161 -105q-67 0 -103.5 40t-36.5 112v317l-64 10l-1 12q94 27 178 29l7 -7v-337q0 -95 81 -97q59 0 100 60 v330l-65 10l-1 12q96 27 178 29l8 -7v-388q0 -67 40 -67q14 0 29 5z" />
<glyph unicode="&#xfb;" d="M426 577l-9 -6q-71 45 -130 79q-103 -63 -131 -79l-7 9q66 92 94 144l8 5h81q23 -35 94 -152zM575 44q-37 -54 -101 -54q-43 0 -68 27.5t-25 71.5v6q-59 -105 -161 -105q-67 0 -103.5 40t-36.5 112v317l-64 10l-1 12q94 27 178 29l7 -7v-337q0 -95 81 -97q59 0 100 60 v330l-65 10l-1 12q96 27 178 29l8 -7v-388q0 -67 40 -67q14 0 29 5z" />
<glyph unicode="&#xfc;" d="M241 656q0 -29 -19.5 -48t-50.5 -19q-26 0 -42 15.5t-16 40.5q0 29 21 47.5t50 18.5q26 0 41.5 -15t15.5 -40zM458 656q0 -29 -19.5 -48t-50.5 -19q-26 0 -42 15.5t-16 40.5q0 29 21 47.5t50 18.5q26 0 41.5 -15t15.5 -40zM575 44q-37 -54 -101 -54q-43 0 -68 27.5 t-25 71.5v6q-59 -105 -161 -105q-67 0 -103.5 40t-36.5 112v317l-64 10l-1 12q94 27 178 29l7 -7v-337q0 -95 81 -97q59 0 100 60v330l-65 10l-1 12q96 27 178 29l8 -7v-388q0 -67 40 -67q14 0 29 5z" />
<glyph unicode="&#xfd;" horiz-adv-x="529" d="M374 691q0 -31 -53 -66.5t-133 -58.5l-8 9q72 88 111 158q3 0 10 0.5t12 0.5q61 0 61 -43zM119 -195q-36 0 -58 18.5t-22 47.5q0 21 10 36q40 -14 74 -14q46 1 87.5 27.5t64.5 74.5h-53l-149 430q-15 44 -43 57l-30 6l2 12h255l1 -12l-66 -21l115 -373l117 375l-66 19 l1 12h168l2 -12l-36 -8q-17 -7 -26 -20t-18 -38l-133 -396q-74 -221 -197 -221z" />
<glyph unicode="&#xfe;" horiz-adv-x="558" d="M284 -185h-267l-2 12l44 11q13 5 17 11t4 20v770l-64 10l-1 12q94 27 178 29l7 -7v-268q24 43 63.5 69t87.5 26q80 0 124.5 -66t44.5 -186q0 -130 -62.5 -199t-160.5 -69q-44 0 -97 12v-155l85 -20zM291 436q-29 0 -53.5 -17t-37.5 -45v-323q40 -19 79 -19q57 0 86.5 58 t28.5 154q0 192 -103 192z" />
<glyph unicode="&#xff;" horiz-adv-x="529" d="M223 656q0 -29 -20 -48t-50 -19q-26 0 -42 15.5t-16 40.5q0 29 20.5 47.5t49.5 18.5q26 0 42 -15t16 -40zM440 656q0 -29 -20 -48t-50 -19q-26 0 -42 15.5t-16 40.5q0 29 20.5 47.5t49.5 18.5q26 0 42 -15t16 -40zM119 -195q-36 0 -58 18.5t-22 47.5q0 21 10 36 q40 -14 74 -14q46 1 87.5 27.5t64.5 74.5h-53l-149 430q-15 44 -43 57l-30 6l2 12h255l1 -12l-66 -21l115 -373l117 375l-66 19l1 12h168l2 -12l-36 -8q-17 -7 -26 -20t-18 -38l-133 -396q-74 -221 -197 -221z" />
<glyph unicode="&#x100;" horiz-adv-x="667" d="M190 768v65h288v-65h-288zM301 652h64l218 -581q8 -22 17.5 -31.5t28.5 -15.5l38 -11l-2 -13h-284l-2 13l82 22l-59 166h-232l-61 -167l82 -21l-2 -13h-187l-2 13l41 10q19 6 27.5 16t17.5 35zM182 233h209l-103 291z" />
<glyph unicode="&#x101;" horiz-adv-x="519" d="M109 618v65h288v-65h-288zM512 46q-35 -56 -99 -56q-41 0 -66 24t-28 64q-21 -38 -60 -63t-92 -25q-55 0 -91 32t-36 84q0 76 75.5 117t203.5 46v115q0 49 -16 71.5t-50 22.5q-36 0 -60.5 -27t-24.5 -66q0 -27 5 -49q-29 -13 -56 -13q-26 0 -42 12.5t-16 36.5 q0 53 62 95.5t145 42.5q176 0 176 -171q0 -39 -1.5 -116t-1.5 -108q0 -67 41 -67q15 0 28 5zM166 128q0 -35 18.5 -54t46.5 -19t52.5 16t35.5 42v130q-70 -6 -111.5 -34.5t-41.5 -80.5z" />
<glyph unicode="&#x102;" horiz-adv-x="667" d="M443 872l4 1l10 -3q-7 -70 -39.5 -106.5t-87.5 -36.5q-53 0 -84.5 37t-35.5 106l14 4q29 -69 111 -69q75 0 108 67zM301 652h64l218 -581q8 -22 17.5 -31.5t28.5 -15.5l38 -11l-2 -13h-284l-2 13l82 22l-59 166h-232l-61 -167l82 -21l-2 -13h-187l-2 13l41 10 q19 6 27.5 16t17.5 35zM182 233h209l-103 291z" />
<glyph unicode="&#x103;" horiz-adv-x="519" d="M365 722l4 2l11 -4q-7 -69 -39.5 -106t-87.5 -37q-54 0 -85 37.5t-35 106.5l14 3q29 -69 110 -69q74 0 108 67zM512 46q-35 -56 -99 -56q-41 0 -66 24t-28 64q-21 -38 -60 -63t-92 -25q-55 0 -91 32t-36 84q0 76 75.5 117t203.5 46v115q0 49 -16 71.5t-50 22.5 q-36 0 -60.5 -27t-24.5 -66q0 -27 5 -49q-29 -13 -56 -13q-26 0 -42 12.5t-16 36.5q0 53 62 95.5t145 42.5q176 0 176 -171q0 -39 -1.5 -116t-1.5 -108q0 -67 41 -67q15 0 28 5zM166 128q0 -35 18.5 -54t46.5 -19t52.5 16t35.5 42v130q-70 -6 -111.5 -34.5t-41.5 -80.5z" />
<glyph unicode="&#x104;" horiz-adv-x="667" d="M672 -142q-15 -26 -43 -41t-59 -15q-36 0 -57.5 18t-21.5 50q-1 37 34 73.5t98 56.5h-242l-2 13l82 22l-59 166h-232l-61 -167l82 -21l-2 -13h-187l-2 13l41 10q19 6 27.5 16t17.5 35l215 578h64l218 -581q8 -22 17.5 -31.5t28.5 -15.5l38 -11l-2 -13q-36 -15 -61 -45 t-25 -59q0 -40 45 -40q20 0 45 9zM182 233h209l-103 291z" />
<glyph unicode="&#x105;" horiz-adv-x="519" d="M497 -142q-34 -56 -94 -56q-31 0 -52.5 16.5t-21.5 47.5q0 34 27 62.5t81 63.5q-16 -2 -24 -2q-41 0 -66 24t-28 64q-21 -38 -60 -63t-92 -25q-55 0 -91 32t-36 84q0 76 75.5 117t203.5 46v115q0 49 -16 71.5t-50 22.5q-36 0 -60.5 -27t-24.5 -66q0 -27 5 -49 q-29 -13 -56 -13q-26 0 -42 12.5t-16 36.5q0 53 62 95.5t145 42.5q176 0 176 -171q0 -39 -1.5 -116t-1.5 -108q0 -67 41 -67q15 0 28 5l4 -7q-13 -21 -39.5 -52.5t-40.5 -54.5t-14 -45q0 -38 35 -38q18 0 41 9zM166 128q0 -35 18.5 -54t46.5 -19t52.5 16t35.5 42v130 q-70 -6 -111.5 -34.5t-41.5 -80.5z" />
<glyph unicode="&#x106;" horiz-adv-x="604" d="M459 844q0 -31 -53 -66.5t-133 -58.5l-8 9q72 88 111 158q3 0 10 0.5t12 0.5q61 0 61 -43zM550 19q-75 -29 -171 -29q-154 0 -246.5 88t-92.5 243q0 154 95.5 246.5t245.5 92.5q95 0 161 -29q3 -30 3 -61q0 -76 -19 -135h-9l-72 183q-26 10 -57 10q-91 0 -152.5 -84.5 t-61.5 -220.5q0 -137 61.5 -219t150.5 -82q40 0 67 10l72 187h9q19 -54 19 -140q0 -30 -3 -60z" />
<glyph unicode="&#x107;" horiz-adv-x="468" d="M366 691q0 -31 -53 -66.5t-133 -58.5l-8 9q72 88 111 158q3 0 10 0.5t12 0.5q61 0 61 -43zM38 244q0 120 66.5 193t165.5 73q81 0 129 -42.5t48 -103.5q0 -27 -16.5 -41t-42.5 -14q-27 0 -46 12q1 3 1 11q0 146 -74 146q-48 0 -76.5 -52t-28.5 -143q0 -100 42.5 -153 t115.5 -53q64 0 125 46l7 -8q-22 -55 -69.5 -90t-122.5 -35q-100 0 -162 68.5t-62 185.5z" />
<glyph unicode="&#x108;" horiz-adv-x="604" d="M490 728l-9 -7q-52 35 -130 79q-99 -61 -131 -78l-7 8q70 99 94 144l8 6h81q29 -45 94 -152zM550 19q-75 -29 -171 -29q-154 0 -246.5 88t-92.5 243q0 154 95.5 246.5t245.5 92.5q95 0 161 -29q3 -30 3 -61q0 -76 -19 -135h-9l-72 183q-26 10 -57 10q-91 0 -152.5 -84.5 t-61.5 -220.5q0 -137 61.5 -219t150.5 -82q40 0 67 10l72 187h9q19 -54 19 -140q0 -30 -3 -60z" />
<glyph unicode="&#x109;" horiz-adv-x="468" d="M399 577l-8 -6q-73 47 -131 79q-88 -55 -130 -79l-7 9q66 94 94 144l7 5h82q35 -52 93 -152zM38 244q0 120 66.5 193t165.5 73q81 0 129 -42.5t48 -103.5q0 -27 -16.5 -41t-42.5 -14q-27 0 -46 12q1 3 1 11q0 146 -74 146q-48 0 -76.5 -52t-28.5 -143q0 -100 42.5 -153 t115.5 -53q64 0 125 46l7 -8q-22 -55 -69.5 -90t-122.5 -35q-100 0 -162 68.5t-62 185.5z" />
<glyph unicode="&#x10a;" horiz-adv-x="604" d="M425 806q0 -31 -22.5 -51t-56.5 -20q-29 0 -47.5 16.5t-18.5 43.5q0 30 23 50t56 20q29 0 47.5 -16t18.5 -43zM550 19q-75 -29 -171 -29q-154 0 -246.5 88t-92.5 243q0 154 95.5 246.5t245.5 92.5q95 0 161 -29q3 -30 3 -61q0 -76 -19 -135h-9l-72 183q-26 10 -57 10 q-91 0 -152.5 -84.5t-61.5 -220.5q0 -137 61.5 -219t150.5 -82q40 0 67 10l72 187h9q19 -54 19 -140q0 -30 -3 -60z" />
<glyph unicode="&#x10b;" horiz-adv-x="468" d="M334 656q0 -31 -22.5 -51t-56.5 -20q-29 0 -47.5 16.5t-18.5 43.5q0 30 23 50t56 20q29 0 47.5 -16t18.5 -43zM38 244q0 120 66.5 193t165.5 73q81 0 129 -42.5t48 -103.5q0 -27 -16.5 -41t-42.5 -14q-27 0 -46 12q1 3 1 11q0 146 -74 146q-48 0 -76.5 -52t-28.5 -143 q0 -100 42.5 -153t115.5 -53q64 0 125 46l7 -8q-22 -55 -69.5 -90t-122.5 -35q-100 0 -162 68.5t-62 185.5z" />
<glyph unicode="&#x10c;" horiz-adv-x="604" d="M398 727l-7 -6h-82q-41 63 -93 152l8 7q62 -42 130 -80q103 63 131 79l7 -8q-72 -105 -94 -144zM550 19q-75 -29 -171 -29q-154 0 -246.5 88t-92.5 243q0 154 95.5 246.5t245.5 92.5q95 0 161 -29q3 -30 3 -61q0 -76 -19 -135h-9l-72 183q-26 10 -57 10 q-91 0 -152.5 -84.5t-61.5 -220.5q0 -137 61.5 -219t150.5 -82q40 0 67 10l72 187h9q19 -54 19 -140q0 -30 -3 -60z" />
<glyph unicode="&#x10d;" horiz-adv-x="468" d="M304 577l-7 -6h-82q-41 63 -93 152l8 7q62 -42 130 -80q103 63 131 79l7 -8q-72 -105 -94 -144zM38 244q0 120 66.5 193t165.5 73q81 0 129 -42.5t48 -103.5q0 -27 -16.5 -41t-42.5 -14q-27 0 -46 12q1 3 1 11q0 146 -74 146q-48 0 -76.5 -52t-28.5 -143 q0 -100 42.5 -153t115.5 -53q64 0 125 46l7 -8q-22 -55 -69.5 -90t-122.5 -35q-100 0 -162 68.5t-62 185.5z" />
<glyph unicode="&#x10e;" horiz-adv-x="688" d="M399 727l-7 -6h-82q-41 63 -93 152l8 7q62 -42 130 -80q103 63 131 79l7 -8q-72 -105 -94 -144zM311 0h-263l-2 13l52 11q13 4 17 11t4 21v561l-73 20l1 13h268q150 0 240 -85t90 -236t-92.5 -240t-241.5 -89zM301 619h-57v-588h58q101 0 158.5 79.5t58.5 218.5 q0 138 -57.5 214t-160.5 76z" />
<glyph unicode="&#x10f;" horiz-adv-x="704" d="M682 629q0 -45 -33.5 -95.5t-77.5 -78.5l-9 9q35 57 43 111q-51 9 -51 56q0 29 18.5 47t46.5 18t45.5 -18.5t17.5 -48.5zM38 233q0 135 67.5 206t174.5 71q42 0 78 -9v143l-64 10l-1 12q94 27 178 29l7 -7v-573q0 -67 39 -67q14 0 29 5l4 -7q-37 -56 -100 -56 q-40 0 -64.5 24t-27.5 64q-21 -38 -59 -63t-86 -25q-79 0 -127 64.5t-48 178.5zM164 252q0 -94 28.5 -145.5t79.5 -51.5q26 0 51 17t35 42v336q-25 18 -62 18q-63 0 -97.5 -58.5t-34.5 -157.5z" />
<glyph unicode="&#x110;" horiz-adv-x="688" d="M311 0h-263l-2 13l52 11q13 4 17 11t4 21v256h-74v29h74v276l-73 20l1 13h268q150 0 240 -85t90 -236t-92.5 -240t-241.5 -89zM379 312h-135v-281h58q101 0 158.5 79.5t58.5 218.5q0 138 -57.5 214t-160.5 76h-57v-278h135v-29z" />
<glyph unicode="&#x111;" horiz-adv-x="558" d="M38 233q0 135 67.5 206t174.5 71q42 0 78 -9v61h-157v29h157v53l-64 10l-1 12q94 27 178 29l7 -7v-97h72v-29h-72v-447q0 -67 39 -67q14 0 29 5l4 -7q-37 -56 -100 -56q-40 0 -64.5 24t-27.5 64q-21 -38 -59 -63t-86 -25q-79 0 -127 64.5t-48 178.5zM164 252 q0 -94 28.5 -145.5t79.5 -51.5q26 0 51 17t35 42v336q-25 18 -62 18q-63 0 -97.5 -58.5t-34.5 -157.5z" />
<glyph unicode="&#x112;" horiz-adv-x="568" d="M168 768v65h288v-65h-288zM520 0h-472l-2 13l52 11q13 4 17 11t4 21v561l-73 20l1 13h465q5 -29 5 -72q0 -72 -15 -122h-9l-73 162q-28 1 -85 1h-91v-277l186 10l-2 -50l-184 9v-279h184l73 166h9q16 -53 16 -124q0 -38 -6 -74z" />
<glyph unicode="&#x113;" horiz-adv-x="483" d="M109 618v65h288v-65h-288zM454 115q-53 -125 -196 -125q-98 0 -159 68t-61 183q0 124 66.5 196.5t165.5 72.5q87 0 137 -54.5t50 -143.5q0 -28 -4 -51l-7 -6h-281q6 -87 48 -132.5t109 -45.5q66 0 125 46zM164 285v-4l170 7q2 16 2 44q0 72 -16.5 109t-56.5 37 q-45 0 -72 -51t-27 -142z" />
<glyph unicode="&#x114;" horiz-adv-x="568" d="M421 872l4 1l11 -3q-7 -70 -39.5 -106.5t-87.5 -36.5q-53 0 -84.5 37t-35.5 106l14 4q29 -69 110 -69q75 0 108 67zM520 0h-472l-2 13l52 11q13 4 17 11t4 21v561l-73 20l1 13h465q5 -29 5 -72q0 -72 -15 -122h-9l-73 162q-28 1 -85 1h-91v-277l186 10l-2 -50l-184 9 v-279h184l73 166h9q16 -53 16 -124q0 -38 -6 -74z" />
<glyph unicode="&#x115;" horiz-adv-x="483" d="M365 722l4 2l11 -4q-7 -69 -39.5 -106t-87.5 -37q-54 0 -85 37.5t-35 106.5l14 3q29 -69 110 -69q74 0 108 67zM454 115q-53 -125 -196 -125q-98 0 -159 68t-61 183q0 124 66.5 196.5t165.5 72.5q87 0 137 -54.5t50 -143.5q0 -28 -4 -51l-7 -6h-281q6 -87 48 -132.5 t109 -45.5q66 0 125 46zM164 285v-4l170 7q2 16 2 44q0 72 -16.5 109t-56.5 37q-45 0 -72 -51t-27 -142z" />
<glyph unicode="&#x116;" horiz-adv-x="568" d="M385 806q0 -31 -22.5 -51t-56.5 -20q-29 0 -47.5 16.5t-18.5 43.5q0 30 23 50t56 20q29 0 47.5 -16t18.5 -43zM520 0h-472l-2 13l52 11q13 4 17 11t4 21v561l-73 20l1 13h465q5 -29 5 -72q0 -72 -15 -122h-9l-73 162q-28 1 -85 1h-91v-277l186 10l-2 -50l-184 9v-279h184 l73 166h9q16 -53 16 -124q0 -38 -6 -74z" />
<glyph unicode="&#x117;" horiz-adv-x="483" d="M332 656q0 -31 -22.5 -51t-56.5 -20q-29 0 -47.5 16.5t-18.5 43.5q0 30 23 50t56 20q29 0 47.5 -16t18.5 -43zM454 115q-53 -125 -196 -125q-98 0 -159 68t-61 183q0 124 66.5 196.5t165.5 72.5q87 0 137 -54.5t50 -143.5q0 -28 -4 -51l-7 -6h-281q6 -87 48 -132.5 t109 -45.5q66 0 125 46zM164 285v-4l170 7q2 16 2 44q0 72 -16.5 109t-56.5 37q-45 0 -72 -51t-27 -142z" />
<glyph unicode="&#x118;" horiz-adv-x="568" d="M527 -142q-15 -26 -43 -41t-59 -15q-36 0 -57.5 18t-21.5 50q0 37 35 73.5t97 56.5h-430l-2 13l52 11q13 4 17 11t4 21v561l-73 20l1 13h465q5 -29 5 -72q0 -72 -15 -122h-9l-73 162q-28 1 -85 1h-91v-277l186 10l-2 -50l-184 9v-279h184l73 166h9q16 -53 16 -124 q0 -38 -6 -74q-36 -15 -61 -45t-25 -59q0 -40 45 -40q20 0 45 9z" />
<glyph unicode="&#x119;" horiz-adv-x="483" d="M373 -142q-36 -56 -102 -56q-36 0 -56.5 17.5t-20.5 48.5q0 35 31 63.5t95 65.5q-33 -7 -62 -7q-98 0 -159 68t-61 183q0 124 66.5 196.5t165.5 72.5q87 0 137 -54.5t50 -143.5q0 -28 -4 -51l-7 -6h-281q6 -87 48 -132.5t109 -45.5q66 0 125 46l7 -8q-20 -46 -54 -77 q-15 -15 -42.5 -39.5t-40.5 -37t-24 -30.5t-11 -35q0 -40 43 -40q21 0 44 9zM164 285v-4l170 7q2 16 2 44q0 72 -16.5 109t-56.5 37q-45 0 -72 -51t-27 -142z" />
<glyph unicode="&#x11a;" horiz-adv-x="568" d="M358 727l-7 -6h-82q-41 63 -93 152l8 7q62 -42 130 -80q103 63 131 79l7 -8q-72 -105 -94 -144zM520 0h-472l-2 13l52 11q13 4 17 11t4 21v561l-73 20l1 13h465q5 -29 5 -72q0 -72 -15 -122h-9l-73 162q-28 1 -85 1h-91v-277l186 10l-2 -50l-184 9v-279h184l73 166h9 q16 -53 16 -124q0 -38 -6 -74z" />
<glyph unicode="&#x11b;" horiz-adv-x="483" d="M302 577l-7 -6h-82q-41 63 -93 152l8 7q62 -42 130 -80q103 63 131 79l7 -8q-72 -105 -94 -144zM454 115q-53 -125 -196 -125q-98 0 -159 68t-61 183q0 124 66.5 196.5t165.5 72.5q87 0 137 -54.5t50 -143.5q0 -28 -4 -51l-7 -6h-281q6 -87 48 -132.5t109 -45.5 q66 0 125 46zM164 285v-4l170 7q2 16 2 44q0 72 -16.5 109t-56.5 37q-45 0 -72 -51t-27 -142z" />
<glyph unicode="&#x11c;" horiz-adv-x="630" d="M488 728l-9 -7q-52 35 -130 79q-99 -61 -131 -78l-7 8q70 99 94 144l8 6h81q29 -45 94 -152zM562 19q-72 -29 -180 -29q-155 0 -247 87.5t-92 243.5q0 155 98 247t247 92q98 0 164 -29q4 -27 4 -61q0 -78 -19 -135h-9l-72 183q-30 10 -61 10q-93 0 -159.5 -83.5 t-66.5 -220.5t66.5 -219.5t153.5 -82.5q33 0 63 8v245l-75 20l2 12h246l2 -12l-43 -11q-14 -4 -18 -10.5t-4 -20.5v-234z" />
<glyph unicode="&#x11d;" horiz-adv-x="487" d="M380 577l-8 -6q-73 47 -131 79q-88 -55 -130 -79l-7 9q66 94 94 144l7 5h82q35 -52 93 -152zM479 -32q0 -73 -66 -118t-189 -45q-92 0 -155 27t-63 77q0 38 37.5 62.5t90.5 29.5q-2 2 -2 3q-53 22 -53 75q0 31 23.5 56.5t58.5 35.5q-58 15 -91 56t-33 103q0 80 59 129 t148 49q146 0 231 13q11 -15 11 -35q0 -34 -40 -34q-22 0 -104 16l-2 -3q39 -17 63.5 -53t24.5 -81q0 -79 -55 -123.5t-143 -44.5q-24 0 -45 3q-16 -16 -16 -33q0 -32 54 -37l91 -5q165 -11 165 -123zM153 330q0 -135 79 -135q81 0 81 140q0 133 -76 133q-41 0 -62.5 -38 t-21.5 -100zM107 -80q0 -39 35 -61t98 -22q62 0 102.5 23.5t40.5 60.5q0 50 -93 58l-79 4q-32 2 -44 4q-60 -24 -60 -67z" />
<glyph unicode="&#x11e;" horiz-adv-x="630" d="M459 872l4 1l11 -3q-7 -70 -39.5 -106.5t-87.5 -36.5q-53 0 -84.5 37t-35.5 106l14 4q29 -69 110 -69q75 0 108 67zM562 19q-72 -29 -180 -29q-155 0 -247 87.5t-92 243.5q0 155 98 247t247 92q98 0 164 -29q4 -27 4 -61q0 -78 -19 -135h-9l-72 183q-30 10 -61 10 q-93 0 -159.5 -83.5t-66.5 -220.5t66.5 -219.5t153.5 -82.5q33 0 63 8v245l-75 20l2 12h246l2 -12l-43 -11q-14 -4 -18 -10.5t-4 -20.5v-234z" />
<glyph unicode="&#x11f;" horiz-adv-x="487" d="M349 722l4 2l11 -4q-7 -69 -39.5 -106t-87.5 -37q-54 0 -85 37.5t-35 106.5l14 3q29 -69 110 -69q74 0 108 67zM479 -32q0 -73 -66 -118t-189 -45q-92 0 -155 27t-63 77q0 38 37.5 62.5t90.5 29.5q-2 2 -2 3q-53 22 -53 75q0 31 23.5 56.5t58.5 35.5q-58 15 -91 56 t-33 103q0 80 59 129t148 49q146 0 231 13q11 -15 11 -35q0 -34 -40 -34q-22 0 -104 16l-2 -3q39 -17 63.5 -53t24.5 -81q0 -79 -55 -123.5t-143 -44.5q-24 0 -45 3q-16 -16 -16 -33q0 -32 54 -37l91 -5q165 -11 165 -123zM153 330q0 -135 79 -135q81 0 81 140 q0 133 -76 133q-41 0 -62.5 -38t-21.5 -100zM107 -80q0 -39 35 -61t98 -22q62 0 102.5 23.5t40.5 60.5q0 50 -93 58l-79 4q-32 2 -44 4q-60 -24 -60 -67z" />
<glyph unicode="&#x120;" horiz-adv-x="630" d="M423 806q0 -31 -22.5 -51t-56.5 -20q-29 0 -47.5 16.5t-18.5 43.5q0 30 23 50t56 20q29 0 47.5 -16t18.5 -43zM562 19q-72 -29 -180 -29q-155 0 -247 87.5t-92 243.5q0 155 98 247t247 92q98 0 164 -29q4 -27 4 -61q0 -78 -19 -135h-9l-72 183q-30 10 -61 10 q-93 0 -159.5 -83.5t-66.5 -220.5t66.5 -219.5t153.5 -82.5q33 0 63 8v245l-75 20l2 12h246l2 -12l-43 -11q-14 -4 -18 -10.5t-4 -20.5v-234z" />
<glyph unicode="&#x121;" horiz-adv-x="487" d="M316 656q0 -31 -22.5 -51t-56.5 -20q-29 0 -47.5 16.5t-18.5 43.5q0 30 23 50t56 20q29 0 47.5 -16t18.5 -43zM479 -32q0 -73 -66 -118t-189 -45q-92 0 -155 27t-63 77q0 38 37.5 62.5t90.5 29.5q-2 2 -2 3q-53 22 -53 75q0 31 23.5 56.5t58.5 35.5q-58 15 -91 56 t-33 103q0 80 59 129t148 49q146 0 231 13q11 -15 11 -35q0 -34 -40 -34q-22 0 -104 16l-2 -3q39 -17 63.5 -53t24.5 -81q0 -79 -55 -123.5t-143 -44.5q-24 0 -45 3q-16 -16 -16 -33q0 -32 54 -37l91 -5q165 -11 165 -123zM153 330q0 -135 79 -135q81 0 81 140 q0 133 -76 133q-41 0 -62.5 -38t-21.5 -100zM107 -80q0 -39 35 -61t98 -22q62 0 102.5 23.5t40.5 60.5q0 50 -93 58l-79 4q-32 2 -44 4q-60 -24 -60 -67z" />
<glyph unicode="&#x122;" horiz-adv-x="630" d="M562 19q-72 -29 -180 -29q-155 0 -247 87.5t-92 243.5q0 155 98 247t247 92q98 0 164 -29q4 -27 4 -61q0 -78 -19 -135h-9l-72 183q-30 10 -61 10q-93 0 -159.5 -83.5t-66.5 -220.5t66.5 -219.5t153.5 -82.5q33 0 63 8v245l-75 20l2 12h246l2 -12l-43 -11 q-14 -4 -18 -10.5t-4 -20.5v-234zM420 -146q0 -45 -33.5 -95.5t-77.5 -78.5l-10 9q36 57 44 112q-51 9 -51 55q0 29 18.5 47t46.5 18t45.5 -18.5t17.5 -48.5z" />
<glyph unicode="&#x123;" horiz-adv-x="487" d="M175 652q0 45 33.5 95.5t77.5 78.5l9 -9q-34 -55 -43 -111q23 -4 37 -18.5t14 -37.5q0 -29 -18.5 -47t-46.5 -18t-45.5 18.5t-17.5 48.5zM479 -32q0 -73 -66 -118t-189 -45q-92 0 -155 27t-63 77q0 38 37.5 62.5t90.5 29.5q-2 2 -2 3q-53 22 -53 75q0 31 23.5 56.5 t58.5 35.5q-58 15 -91 56t-33 103q0 80 59 129t148 49q146 0 231 13q11 -15 11 -35q0 -34 -40 -34q-22 0 -104 16l-2 -3q39 -17 63.5 -53t24.5 -81q0 -79 -55 -123.5t-143 -44.5q-24 0 -45 3q-16 -16 -16 -33q0 -32 54 -37l91 -5q165 -11 165 -123zM153 330q0 -135 79 -135 q81 0 81 140q0 133 -76 133q-41 0 -62.5 -38t-21.5 -100zM107 -80q0 -39 35 -61t98 -22q62 0 102.5 23.5t40.5 60.5q0 50 -93 58l-79 4q-32 2 -44 4q-60 -24 -60 -67z" />
<glyph unicode="&#x124;" horiz-adv-x="756" d="M515 728l-8 -7q-56 37 -131 79q-88 -55 -130 -78l-7 8q72 105 94 144l7 6h82q41 -63 93 -152zM317 0h-268l-2 13l51 11q13 4 17 11t4 21v561l-74 20l2 13h268l1 -13l-50 -11q-14 -4 -18 -10.5t-4 -20.5v-246h268v268l-74 20l2 13h268l1 -13l-50 -11q-14 -4 -18 -10.5 t-4 -20.5v-561l74 -21l-1 -13h-268l-2 13l51 11q13 4 17 11t4 21v259h-268v-281l74 -21z" />
<glyph unicode="&#x125;" horiz-adv-x="581" d="M264 745l-9 -6q-71 45 -130 79q-103 -63 -131 -79l-7 9q66 92 94 144l8 5h81q23 -35 94 -152zM264 0h-247l-2 12l44 11q13 5 17 11.5t4 20.5v589l-64 10l-1 12q94 27 178 29l7 -7v-285q65 107 168 107q65 0 99 -39.5t34 -110.5v-327l65 -21l-2 -12h-247l-1 12l43 11 q13 5 17.5 11.5t4.5 20.5v280q0 96 -81 96q-28 0 -56 -17t-44 -44v-337l65 -21z" />
<glyph unicode="&#x126;" horiz-adv-x="756" d="M317 0h-268l-2 13l51 11q13 4 17 11t4 21v400h-79v34h79v127l-74 20l2 13h268l1 -13l-50 -11q-14 -4 -18 -10.5t-4 -20.5v-105h268v127l-74 20l2 13h268l1 -13l-50 -11q-14 -4 -18 -10.5t-4 -20.5v-105h78v-34h-78v-422l74 -21l-1 -13h-268l-2 13l51 11q13 4 17 11t4 21 v259h-268v-281l74 -21zM244 349h268v107h-268v-107z" />
<glyph unicode="&#x127;" horiz-adv-x="581" d="M264 0h-247l-2 12l44 11q13 5 17 11.5t4 20.5v507h-74v29h74v53l-64 10l-1 12q94 27 178 29l7 -7v-97h155v-29h-155v-159q65 107 168 107q65 0 99 -39.5t34 -110.5v-327l65 -21l-2 -12h-247l-1 12l43 11q13 5 17.5 11.5t4.5 20.5v280q0 96 -81 96q-28 0 -56 -17t-44 -44 v-337l65 -21z" />
<glyph unicode="&#x128;" horiz-adv-x="363" d="M282 809q25 29 44 56l10 -3q2 -9 2 -25q-3 -41 -22.5 -69.5t-53.5 -28.5q-25 0 -60 10t-72 24t-48 17q-25 -29 -44 -56l-10 4q-3 14 -3 25q3 40 23.5 68.5t53.5 28.5t103.5 -25t76.5 -26zM317 0h-268l-2 13l51 11q13 4 17 11t4 21v561l-74 20l2 13h268l1 -13l-50 -11 q-14 -4 -18 -10.5t-4 -20.5v-561l74 -21z" />
<glyph unicode="&#x129;" horiz-adv-x="288" d="M218 659q23 25 42 51l10 -3q2 -18 2 -25q-3 -39 -22 -66t-52 -27q-19 0 -44.5 8.5t-54.5 22t-36 15.5q-23 -25 -42 -51l-10 4q-3 14 -3 25q3 39 22.5 65.5t52.5 26.5q26 0 79.5 -23t55.5 -23zM272 0h-247l-2 12l44 11q13 5 17 11.5t4 20.5v404l-64 10l-1 12q94 27 178 29 l7 -7v-470l65 -21z" />
<glyph unicode="&#x12a;" horiz-adv-x="363" d="M38 768v65h288v-65h-288zM317 0h-268l-2 13l51 11q13 4 17 11t4 21v561l-74 20l2 13h268l1 -13l-50 -11q-14 -4 -18 -10.5t-4 -20.5v-561l74 -21z" />
<glyph unicode="&#x12b;" horiz-adv-x="288" d="M30 615v65h218v-65h-218zM272 0h-247l-2 12l44 11q13 5 17 11.5t4 20.5v404l-64 10l-1 12q94 27 178 29l7 -7v-470l65 -21z" />
<glyph unicode="&#x12c;" horiz-adv-x="363" d="M291 872l4 1l10 -3q-7 -70 -39.5 -106.5t-87.5 -36.5q-53 0 -84.5 37t-35.5 106l14 4q29 -69 111 -69q75 0 108 67zM317 0h-268l-2 13l51 11q13 4 17 11t4 21v561l-74 20l2 13h268l1 -13l-50 -11q-14 -4 -18 -10.5t-4 -20.5v-561l74 -21z" />
<glyph unicode="&#x12d;" horiz-adv-x="288" d="M223 722l4 2l11 -4q-11 -143 -107 -143q-45 0 -71.5 37.5t-28.5 106.5l14 3q22 -69 90 -69q62 0 88 67zM272 0h-247l-2 12l44 11q13 5 17 11.5t4 20.5v404l-64 10l-1 12q94 27 178 29l7 -7v-470l65 -21z" />
<glyph unicode="&#x12e;" horiz-adv-x="363" d="M324 -142q-15 -26 -43 -41t-59 -15q-36 0 -58 18t-22 50q0 37 35 73.5t98 56.5h-226l-2 13l51 11q13 4 17 11t4 21v561l-74 20l2 13h268l1 -13l-50 -11q-14 -4 -18 -10.5t-4 -20.5v-561l74 -21l-1 -13q-36 -15 -61 -45t-25 -59q0 -40 45 -40q21 0 44 9z" />
<glyph unicode="&#x12f;" horiz-adv-x="288" d="M218 655q0 -31 -22 -50.5t-56 -19.5q-30 0 -48.5 16.5t-18.5 43.5q0 30 23.5 50t55.5 20q30 0 48 -16.5t18 -43.5zM279 -142q-15 -26 -43 -41t-59 -15q-36 0 -58 18t-22 50q0 37 35 73.5t98 56.5h-205l-2 12l44 11q13 5 17 11.5t4 20.5v404l-64 10l-1 12q94 27 178 29 l7 -7v-470l65 -21l-1 -12q-36 -15 -61 -45t-25 -59q0 -40 45 -40q21 0 44 9z" />
<glyph unicode="&#x130;" horiz-adv-x="363" d="M254 806q0 -31 -22 -51t-56 -20q-29 0 -48 16.5t-19 43.5q0 30 23.5 50t55.5 20q29 0 47.5 -16t18.5 -43zM317 0h-268l-2 13l51 11q13 4 17 11t4 21v561l-74 20l2 13h268l1 -13l-50 -11q-14 -4 -18 -10.5t-4 -20.5v-561l74 -21z" />
<glyph unicode="&#x131;" horiz-adv-x="288" d="M272 0h-247l-2 12l44 11q13 5 17 11.5t4 20.5v404l-64 10l-1 12q94 27 178 29l7 -7v-470l65 -21z" />
<glyph unicode="&#x132;" horiz-adv-x="710" d="M317 0h-268l-2 13l51 11q13 4 17 11t4 21v561l-74 20l2 13h268l1 -13l-50 -11q-14 -4 -18 -10.5t-4 -20.5v-561l74 -21zM608 130q0 -202 -203 -258l-6 10q44 52 64 118t20 165v452l-74 20l1 13h268l2 -13l-51 -11q-13 -4 -17 -10.5t-4 -20.5v-465z" />
<glyph unicode="&#x133;" horiz-adv-x="560" d="M497 656q0 -31 -22.5 -51t-56.5 -20q-29 0 -47.5 16.5t-18.5 43.5q0 30 23 50t56 20q29 0 47.5 -16t18.5 -43zM218 655q0 -31 -22 -50.5t-56 -19.5q-30 0 -48.5 16.5t-18.5 43.5q0 30 23.5 50t55.5 20q30 0 48 -16.5t18 -43.5zM272 0h-247l-2 12l44 11q13 5 17 11.5 t4 20.5v404l-64 10l-1 12q94 27 178 29l7 -7v-470l65 -21zM295 -184q38 53 55.5 111t17.5 150v382l-64 10l-1 12q94 27 178 29l7 -7v-440q0 -106 -41.5 -167t-143.5 -91z" />
<glyph unicode="&#x134;" horiz-adv-x="347" d="M319 728l-8 -6q-73 47 -131 79q-88 -55 -130 -79l-7 9q66 94 94 144l7 5h82q35 -52 93 -152zM245 130q0 -202 -203 -258l-6 10q44 52 64 118t20 165v452l-74 20l1 13h268l2 -13l-51 -11q-13 -4 -17 -10.5t-4 -20.5v-465z" />
<glyph unicode="&#x135;" horiz-adv-x="272" d="M244 577l-9 -6q-59 44 -108 76q-72 -52 -109 -76l-7 9q54 97 73 144l7 5h81q37 -76 72 -152zM7 -184q38 53 55.5 111t17.5 150v382l-64 10l-1 12q94 27 178 29l7 -7v-440q0 -106 -41.5 -167t-143.5 -91z" />
<glyph unicode="&#x136;" horiz-adv-x="703" d="M317 0h-268l-2 13l51 11q13 4 17 11t4 21v561l-74 20l2 13h268l1 -13l-50 -11q-14 -4 -18 -10.5t-4 -20.5v-260h100l172 282l-75 20l1 13h233l2 -13q-5 -1 -24.5 -7.5t-23.5 -7.5q-88 -37 -153 -131l-51 -81l189 -334q20 -37 56 -51l33 -12l-1 -13l-119 -2 q-41 0 -63 15.5t-42 51.5l-135 238h-99v-269l74 -21zM436 -146q0 -45 -33.5 -95.5t-77.5 -78.5l-10 9q36 57 44 112q-51 9 -51 55q0 29 18.5 47t46.5 18t45.5 -18.5t17.5 -48.5z" />
<glyph unicode="&#x137;" horiz-adv-x="566" d="M264 0h-247l-2 12l44 11q13 5 17 11.5t4 20.5v589l-64 10l-1 12q94 27 178 29l7 -7v-410h80l112 195l-65 15l1 12h223l1 -12l-50 -17q-43 -18 -84 -62l-56 -71l126 -255q25 -48 59 -65q3 -1 9.5 -2.5t9.5 -2.5l-2 -13h-113q-31 0 -48 14.5t-34 50.5l-91 183h-78v-215 l65 -21zM362 -146q0 -45 -33.5 -95.5t-77.5 -78.5l-10 9q36 57 44 112q-51 9 -51 55q0 29 18.5 47t46.5 18t45.5 -18.5t17.5 -48.5z" />
<glyph unicode="&#x138;" horiz-adv-x="566" d="M264 0h-247l-2 12l44 11q13 5 17 11.5t4 20.5v404l-64 10l-1 12q94 27 178 29l7 -7v-225h80l112 195l-65 15l1 12h223l1 -12l-50 -17q-43 -18 -84 -62l-56 -71l126 -255q25 -48 59 -65l19 -5l-2 -13h-113q-31 0 -48 14.5t-34 50.5l-91 183h-78v-215l65 -21z" />
<glyph unicode="&#x139;" horiz-adv-x="551" d="M289 844q0 -31 -53 -66.5t-133 -58.5l-8 9q72 88 111 158q3 0 10 0.5t12 0.5q61 0 61 -43zM512 0h-464l-2 13l52 11q13 4 17 11t4 21v561l-74 20l2 13h268l1 -13l-50 -11q-14 -4 -18 -10.5t-4 -20.5v-563h179l69 198h9q16 -58 16 -143q0 -39 -5 -87z" />
<glyph unicode="&#x13a;" horiz-adv-x="280" d="M242 879q0 -31 -53 -66.5t-133 -58.5l-8 9q72 88 111 158q3 0 10 0.5t12 0.5q61 0 61 -43zM264 0h-247l-2 12l44 11q13 5 17 11.5t4 20.5v589l-64 10l-1 12q94 27 178 29l7 -7v-655l65 -21z" />
<glyph unicode="&#x13b;" horiz-adv-x="551" d="M512 0h-464l-2 13l52 11q13 4 17 11t4 21v561l-74 20l2 13h268l1 -13l-50 -11q-14 -4 -18 -10.5t-4 -20.5v-563h179l69 198h9q16 -58 16 -143q0 -39 -5 -87zM378 -146q0 -45 -33 -95.5t-77 -78.5l-10 9q34 54 44 112q-51 9 -51 55q0 29 18 47t46 18q29 0 46 -18.5 t17 -48.5z" />
<glyph unicode="&#x13c;" horiz-adv-x="280" d="M264 0h-247l-2 12l44 11q13 5 17 11.5t4 20.5v589l-64 10l-1 12q94 27 178 29l7 -7v-655l65 -21zM204 -146q0 -45 -33.5 -95.5t-77.5 -78.5l-9 9q35 59 43 112q-51 9 -51 55q0 29 18.5 47t46.5 18t45.5 -18.5t17.5 -48.5z" />
<glyph unicode="&#x13d;" horiz-adv-x="551" d="M512 0h-464l-2 13l52 11q13 4 17 11t4 21v561l-74 20l2 13h268l1 -13l-50 -11q-14 -4 -18 -10.5t-4 -20.5v-563h179l69 198h9q16 -58 16 -143q0 -39 -5 -87zM517 581q0 -45 -33.5 -95.5t-77.5 -78.5l-10 9q36 55 44 111q-51 9 -51 56q0 29 18.5 47t46.5 18t45.5 -18.5 t17.5 -48.5z" />
<glyph unicode="&#x13e;" horiz-adv-x="423" d="M403 727q0 -45 -33.5 -95.5t-77.5 -78.5l-10 8q36 57 44 112q-51 9 -51 56q0 29 18.5 46.5t46.5 17.5t45.5 -18.5t17.5 -47.5zM264 0h-247l-2 12l44 11q13 5 17 11.5t4 20.5v589l-64 10l-1 12q94 27 178 29l7 -7v-655l65 -21z" />
<glyph unicode="&#x13f;" horiz-adv-x="551" d="M512 0h-464l-2 13l52 11q13 4 17 11t4 21v561l-74 20l2 13h268l1 -13l-50 -11q-14 -4 -18 -10.5t-4 -20.5v-563h179l69 198h9q16 -58 16 -143q0 -39 -5 -87zM463 351q-26 0 -42.5 16t-16.5 41q0 27 19 45.5t46 18.5q24 0 39.5 -15t15.5 -39q0 -28 -17 -47.5t-44 -19.5z " />
<glyph unicode="&#x140;" horiz-adv-x="404" d="M264 0h-247l-2 12l44 11q13 5 17 11.5t4 20.5v589l-64 10l-1 12q94 27 178 29l7 -7v-655l65 -21zM401 359q0 -31 -20 -51t-51 -20q-26 0 -42.5 16.5t-16.5 43.5q0 30 20.5 50t50.5 20q26 0 42.5 -16t16.5 -43z" />
<glyph unicode="&#x141;" horiz-adv-x="551" d="M512 0h-464l-2 13l52 11q13 4 17 11t4 21v222l-84 -50l-15 27l99 60v302l-74 20l2 13h268l1 -13l-50 -11q-14 -4 -18 -10.5t-4 -20.5v-205l94 56l17 -27l-111 -67v-320h179l69 198h9q16 -58 16 -143q0 -39 -5 -87z" />
<glyph unicode="&#x142;" horiz-adv-x="280" d="M264 0h-247l-2 12l44 11q13 5 17 11.5t4 20.5v242l-92 -55l-15 28l107 64v310l-64 10l-1 12q94 27 178 29l7 -7v-282l91 55l17 -28l-108 -65v-335l65 -21z" />
<glyph unicode="&#x143;" horiz-adv-x="679" d="M462 844q0 -31 -53 -66.5t-133 -58.5l-8 9q72 88 111 158q3 0 10 0.5t12 0.5q61 0 61 -43zM241 0h-202l-2 13l61 14q13 4 17 10t4 19v561l-83 20l2 13h173l331 -511v478l-88 20l1 13h203l1 -13l-60 -13q-14 -4 -18 -10t-4 -19v-595h-92l-330 513v-479l88 -21z" />
<glyph unicode="&#x144;" d="M405 691q0 -31 -53 -66.5t-133 -58.5l-8 9q72 88 111 158q3 0 10 0.5t12 0.5q61 0 61 -43zM272 0h-247l-2 12l44 11q13 5 17 11.5t4 20.5v404l-64 10l-1 12q94 27 178 29l7 -7v-102q63 109 168 109q65 0 99 -39t34 -111v-327l65 -21l-2 -12h-247l-1 12l43 11 q13 5 17.5 11.5t4.5 20.5v280q0 96 -80 96q-28 0 -56.5 -17t-44.5 -44v-337l65 -21z" />
<glyph unicode="&#x145;" horiz-adv-x="679" d="M241 0h-202l-2 13l61 14q13 4 17 10t4 19v561l-83 20l2 13h173l331 -511v478l-88 20l1 13h203l1 -13l-60 -13q-14 -4 -18 -10t-4 -19v-595h-92l-330 513v-479l88 -21zM404 -146q0 -45 -33.5 -95.5t-77.5 -78.5l-10 9q36 57 44 112q-51 9 -51 55q0 29 18.5 47t46.5 18 t45.5 -18.5t17.5 -48.5z" />
<glyph unicode="&#x146;" d="M272 0h-247l-2 12l44 11q13 5 17 11.5t4 20.5v404l-64 10l-1 12q94 27 178 29l7 -7v-102q63 109 168 109q65 0 99 -39t34 -111v-327l65 -21l-2 -12h-247l-1 12l43 11q13 5 17.5 11.5t4.5 20.5v280q0 96 -80 96q-28 0 -56.5 -17t-44.5 -44v-337l65 -21zM360 -146 q0 -45 -33.5 -95.5t-77.5 -78.5l-10 9q36 57 44 112q-51 9 -51 55q0 29 18.5 47t46.5 18t45.5 -18.5t17.5 -48.5z" />
<glyph unicode="&#x147;" horiz-adv-x="679" d="M401 727l-7 -6h-82q-41 63 -93 152l8 7q62 -42 130 -80q103 63 131 79l7 -8q-72 -105 -94 -144zM241 0h-202l-2 13l61 14q13 4 17 10t4 19v561l-83 20l2 13h173l331 -511v478l-88 20l1 13h203l1 -13l-60 -13q-14 -4 -18 -10t-4 -19v-595h-92l-330 513v-479l88 -21z" />
<glyph unicode="&#x148;" d="M343 577l-7 -6h-82q-41 63 -93 152l8 7q62 -42 130 -80q103 63 131 79l7 -8q-72 -105 -94 -144zM272 0h-247l-2 12l44 11q13 5 17 11.5t4 20.5v404l-64 10l-1 12q94 27 178 29l7 -7v-102q63 109 168 109q65 0 99 -39t34 -111v-327l65 -21l-2 -12h-247l-1 12l43 11 q13 5 17.5 11.5t4.5 20.5v280q0 96 -80 96q-28 0 -56.5 -17t-44.5 -44v-337l65 -21z" />
<glyph unicode="&#x14a;" horiz-adv-x="679" d="M251 0h-212l-2 13l61 14q13 4 17 10t4 19v561l-83 20l2 13h173l331 -511v478l-88 20l1 13h203l1 -13l-60 -13q-14 -4 -18 -10t-4 -19v-557q0 -81 -27 -126t-97 -95l-9 11q46 48 67.5 83t27.5 90l-49 -9l-335 521v-479l98 -21z" />
<glyph unicode="&#x14b;" horiz-adv-x="581" d="M272 0h-247l-2 12l44 11q13 5 17 11.5t4 20.5v404l-64 10l-1 12q94 27 178 29l7 -7v-102q63 109 168 109q65 0 99 -39t34 -111v-297q0 -106 -41.5 -167t-144.5 -91l-7 11q38 53 55.5 111t17.5 150v258q0 96 -80 96q-28 0 -56.5 -17t-44.5 -44v-337l65 -21z" />
<glyph unicode="&#x14c;" horiz-adv-x="660" d="M182 768v65h288v-65h-288zM614 329q0 -151 -80.5 -245t-208.5 -94q-129 0 -207.5 91t-78.5 243q0 151 82 243.5t208 92.5t205.5 -90.5t79.5 -240.5zM173 324q-1 -144 40 -222.5t114 -78.5t112.5 81t40.5 225q0 143 -39 221t-113 78q-75 0 -115 -79t-40 -225z" />
<glyph unicode="&#x14d;" horiz-adv-x="527" d="M121 618v65h288v-65h-288zM490 260q0 -121 -62.5 -195.5t-166.5 -74.5q-101 0 -162 66.5t-61 182.5q0 125 64 198t167 73q100 0 160.5 -68t60.5 -182zM164 255q0 -121 24 -177t76 -56q100 0 100 226q0 119 -24 174.5t-74 55.5q-102 0 -102 -223z" />
<glyph unicode="&#x14e;" horiz-adv-x="660" d="M435 872l4 1l11 -3q-7 -70 -39.5 -106.5t-87.5 -36.5q-53 0 -84.5 37t-35.5 106l14 4q29 -69 110 -69q75 0 108 67zM614 329q0 -151 -80.5 -245t-208.5 -94q-129 0 -207.5 91t-78.5 243q0 151 82 243.5t208 92.5t205.5 -90.5t79.5 -240.5zM173 324q-1 -144 40 -222.5 t114 -78.5t112.5 81t40.5 225q0 143 -39 221t-113 78q-75 0 -115 -79t-40 -225z" />
<glyph unicode="&#x14f;" horiz-adv-x="527" d="M373 722l4 2l10 -4q-7 -69 -39.5 -106t-87.5 -37q-53 0 -84.5 37t-35.5 107l14 3q29 -69 111 -69q74 0 108 67zM490 260q0 -121 -62.5 -195.5t-166.5 -74.5q-101 0 -162 66.5t-61 182.5q0 125 64 198t167 73q100 0 160.5 -68t60.5 -182zM164 255q0 -121 24 -177t76 -56 q100 0 100 226q0 119 -24 174.5t-74 55.5q-102 0 -102 -223z" />
<glyph unicode="&#x150;" horiz-adv-x="660" d="M326 841q0 -31 -49.5 -66t-124.5 -58l-8 9q70 86 111 157q5 1 18 1q53 0 53 -43zM508 841q0 -31 -49.5 -66t-124.5 -58l-8 9q74 91 112 157q4 1 17 1q53 0 53 -43zM614 329q0 -151 -80.5 -245t-208.5 -94q-129 0 -207.5 91t-78.5 243q0 151 82 243.5t208 92.5 t205.5 -90.5t79.5 -240.5zM173 324q-1 -144 40 -222.5t114 -78.5t112.5 81t40.5 225q0 143 -39 221t-113 78q-75 0 -115 -79t-40 -225z" />
<glyph unicode="&#x151;" horiz-adv-x="527" d="M266 691q0 -31 -49.5 -66.5t-124.5 -58.5l-8 9q72 88 111 158q2 0 8 0.5t10 0.5q53 0 53 -43zM448 691q0 -31 -49.5 -66.5t-124.5 -58.5l-8 9q75 92 112 158q2 0 7.5 0.5t9.5 0.5q53 0 53 -43zM490 260q0 -121 -62.5 -195.5t-166.5 -74.5q-101 0 -162 66.5t-61 182.5 q0 125 64 198t167 73q100 0 160.5 -68t60.5 -182zM164 255q0 -121 24 -177t76 -56q100 0 100 226q0 119 -24 174.5t-74 55.5q-102 0 -102 -223z" />
<glyph unicode="&#x152;" horiz-adv-x="870" d="M732 352l-2 -50l-184 9v-279h184l73 166h9q15 -50 15 -124q0 -44 -5 -74h-401v1q-38 -11 -75 -11q-138 0 -222.5 90.5t-84.5 240.5q0 152 90 245.5t228 93.5q38 0 68 -10h388q6 -35 6 -72q0 -69 -16 -122h-9l-73 162q-28 1 -85 1h-90v-277zM173 321q-1 -144 46.5 -221 t133.5 -77q39 0 68 16v575q-28 14 -60 14q-90 0 -139 -80t-49 -227z" />
<glyph unicode="&#x153;" horiz-adv-x="809" d="M780 115q-53 -125 -194 -125q-104 0 -163 83q-61 -83 -164 -83q-100 0 -160.5 66.5t-60.5 182.5q0 125 63 198t166 73q105 0 164 -85q65 85 167 85q86 0 135.5 -54.5t49.5 -143.5q0 -28 -4 -51l-7 -6h-281q6 -87 48 -132.5t109 -45.5q66 0 125 46zM164 255 q0 -121 24 -177t76 -56q100 0 100 226q0 119 -24 174.5t-74 55.5q-102 0 -102 -223zM490 285v-4l170 7q2 16 2 44q0 72 -16.5 109t-56.5 37q-45 0 -72 -51t-27 -142z" />
<glyph unicode="&#x154;" horiz-adv-x="675" d="M440 844q0 -31 -53.5 -66.5t-133.5 -58.5l-8 9q75 92 112 158q2 0 9 0.5t12 0.5q62 0 62 -43zM317 0h-268l-2 13l51 11q13 4 17 11t4 21v561l-73 20l1 13h276q117 0 187 -48t70 -138q0 -111 -123 -163l131 -226q19 -36 52 -50l35 -12l-1 -13l-123 -2q-40 0 -62 15.5 t-38 50.5l-109 211q-9 -2 -17 -2h-81v-239l74 -21zM306 619h-62v-315h63q65 0 106 42t41 115t-40 115.5t-108 42.5z" />
<glyph unicode="&#x155;" horiz-adv-x="421" d="M337 691q0 -31 -53.5 -66.5t-133.5 -58.5l-8 9q75 92 112 158q2 0 9 0.5t12 0.5q62 0 62 -43zM292 0h-267l-2 12l44 11q13 5 17 11.5t4 20.5v404l-64 10l-1 12q94 27 178 29l7 -7v-128q50 135 130 135q33 0 52.5 -21t19.5 -54q0 -36 -20 -60l-5 -2q-37 21 -77 21 q-57 0 -100 -49v-312l85 -21z" />
<glyph unicode="&#x156;" horiz-adv-x="675" d="M317 0h-268l-2 13l51 11q13 4 17 11t4 21v561l-73 20l1 13h276q117 0 187 -48t70 -138q0 -111 -123 -163l131 -226q19 -36 52 -50l35 -12l-1 -13l-123 -2q-40 0 -62 15.5t-38 50.5l-109 211q-9 -2 -17 -2h-81v-239l74 -21zM306 619h-62v-315h63q65 0 106 42t41 115 t-40 115.5t-108 42.5zM418 -146q0 -45 -33 -95.5t-77 -78.5l-10 9q34 54 44 112q-51 9 -51 55q0 29 18 47t46 18q29 0 46 -18.5t17 -48.5z" />
<glyph unicode="&#x157;" horiz-adv-x="421" d="M292 0h-267l-2 12l44 11q13 5 17 11.5t4 20.5v404l-64 10l-1 12q94 27 178 29l7 -7v-128q50 135 130 135q33 0 52.5 -21t19.5 -54q0 -36 -20 -60l-5 -2q-37 21 -77 21q-57 0 -100 -49v-312l85 -21zM212 -146q0 -45 -33 -95.5t-77 -78.5l-10 9q34 54 44 112q-51 9 -51 55 q0 29 18 47t46 18q29 0 46 -18.5t17 -48.5z" />
<glyph unicode="&#x158;" horiz-adv-x="675" d="M379 727l-8 -6h-81q-29 45 -94 152l8 7q65 -43 131 -80q88 55 131 79l7 -8q-70 -99 -94 -144zM317 0h-268l-2 13l51 11q13 4 17 11t4 21v561l-73 20l1 13h276q117 0 187 -48t70 -138q0 -111 -123 -163l131 -226q19 -36 52 -50l35 -12l-1 -13l-123 -2q-40 0 -62 15.5 t-38 50.5l-109 211q-9 -2 -17 -2h-81v-239l74 -21zM306 619h-62v-315h63q65 0 106 42t41 115t-40 115.5t-108 42.5z" />
<glyph unicode="&#x159;" horiz-adv-x="421" d="M275 577l-8 -6h-81q-29 45 -94 152l8 7q65 -43 131 -80q88 55 131 79l7 -8q-70 -99 -94 -144zM292 0h-267l-2 12l44 11q13 5 17 11.5t4 20.5v404l-64 10l-1 12q94 27 178 29l7 -7v-128q50 135 130 135q33 0 52.5 -21t19.5 -54q0 -36 -20 -60l-5 -2q-37 21 -77 21 q-57 0 -100 -49v-312l85 -21z" />
<glyph unicode="&#x15a;" horiz-adv-x="511" d="M362 844q0 -31 -53.5 -66.5t-133.5 -58.5l-8 9q75 92 112 158q2 0 9 0.5t12 0.5q62 0 62 -43zM477 167q0 -87 -68.5 -132t-179.5 -45q-135 0 -178 38q-17 15 -17 56q0 61 33 125l9 -1l61 -170q34 -17 80 -17q58 0 93.5 30t35.5 81q0 37 -23 67.5t-57 50t-74 43t-74 46.5 t-57 62t-23 87q0 79 68.5 125.5t170.5 46.5q125 0 168 -36q15 -12 15 -52q0 -26 -12.5 -63t-25.5 -59l-9 1l-54 165q-28 13 -70 13q-56 0 -91 -28t-35 -76q0 -45 32.5 -80t78.5 -60.5t92 -52.5t78.5 -69t32.5 -96z" />
<glyph unicode="&#x15b;" horiz-adv-x="443" d="M336 691q0 -31 -53.5 -66.5t-133.5 -58.5l-8 9q75 92 112 158q2 0 9 0.5t12 0.5q62 0 62 -43zM198 -10q-105 0 -142 25q-18 14 -18 56q0 27 11.5 54t26.5 42l10 -3q15 -81 33 -108q21 -34 82 -34q39 0 61.5 19.5t22.5 52.5t-24.5 58.5t-59 44.5t-69 40t-59 54t-24.5 77 q0 66 55.5 104t142.5 38q101 0 136 -33q15 -13 15 -48q0 -50 -43 -93l-11 3q-13 78 -29 106q-18 33 -70 33q-37 0 -59.5 -19t-22.5 -53q0 -32 25 -58t60.5 -45.5t71 -41t60.5 -54t25 -74.5q0 -70 -57 -106.5t-150 -36.5z" />
<glyph unicode="&#x15c;" horiz-adv-x="511" d="M397 728l-8 -7q-56 37 -131 79q-88 -55 -130 -78l-7 8q72 105 94 144l7 6h82q41 -63 93 -152zM477 167q0 -87 -68.5 -132t-179.5 -45q-135 0 -178 38q-17 15 -17 56q0 61 33 125l9 -1l61 -170q34 -17 80 -17q58 0 93.5 30t35.5 81q0 37 -23 67.5t-57 50t-74 43t-74 46.5 t-57 62t-23 87q0 79 68.5 125.5t170.5 46.5q125 0 168 -36q15 -12 15 -52q0 -26 -12.5 -63t-25.5 -59l-9 1l-54 165q-28 13 -70 13q-56 0 -91 -28t-35 -76q0 -45 32.5 -80t78.5 -60.5t92 -52.5t78.5 -69t32.5 -96z" />
<glyph unicode="&#x15d;" horiz-adv-x="443" d="M369 577l-9 -6q-71 45 -130 79q-103 -63 -131 -79l-7 9q66 92 94 144l8 5h81q23 -35 94 -152zM198 -10q-105 0 -142 25q-18 14 -18 56q0 27 11.5 54t26.5 42l10 -3q15 -81 33 -108q21 -34 82 -34q39 0 61.5 19.5t22.5 52.5t-24.5 58.5t-59 44.5t-69 40t-59 54t-24.5 77 q0 66 55.5 104t142.5 38q101 0 136 -33q15 -13 15 -48q0 -50 -43 -93l-11 3q-13 78 -29 106q-18 33 -70 33q-37 0 -59.5 -19t-22.5 -53q0 -32 25 -58t60.5 -45.5t71 -41t60.5 -54t25 -74.5q0 -70 -57 -106.5t-150 -36.5z" />
<glyph unicode="&#x15e;" horiz-adv-x="511" d="M216 -89l-3 6l12 73q-133 0 -174 38q-17 15 -17 56q0 61 33 125l9 -1l61 -170q34 -17 80 -17q58 0 93.5 30t35.5 81q0 37 -23 67.5t-57 50t-74 43t-74 46.5t-57 62t-23 87q0 79 68.5 125.5t170.5 46.5q125 0 168 -36q15 -12 15 -52q0 -26 -12.5 -63t-25.5 -59l-9 1 l-54 165q-28 13 -70 13q-56 0 -91 -28t-35 -76q0 -45 32.5 -80t78.5 -60.5t92 -52.5t78.5 -69t32.5 -96q0 -81 -59 -125.5t-158 -50.5l-6 -35q51 -4 79.5 -22.5t28.5 -47.5q0 -39 -46 -61t-124 -23l-3 15q80 19 80 57q0 30 -53 37z" />
<glyph unicode="&#x15f;" horiz-adv-x="443" d="M176 -89l-3 6l12 73q-96 2 -129 25q-18 14 -18 56q0 27 11.5 54t26.5 42l10 -3q15 -81 33 -108q21 -34 82 -34q39 0 61.5 19.5t22.5 52.5t-24.5 58.5t-59 44.5t-69 40t-59 54t-24.5 77q0 66 55.5 104t142.5 38q101 0 136 -33q15 -13 15 -48q0 -50 -43 -93l-11 3 q-13 78 -29 106q-18 33 -70 33q-37 0 -59.5 -19t-22.5 -53q0 -32 25 -58t60.5 -45.5t71 -41t60.5 -54.5t25 -75q0 -65 -50.5 -101t-133.5 -40l-6 -35q50 -5 78.5 -23.5t28.5 -46.5q0 -39 -45.5 -61t-123.5 -23l-3 15q80 19 80 57q0 30 -54 37z" />
<glyph unicode="&#x160;" horiz-adv-x="511" d="M306 727l-8 -6h-81q-29 45 -94 152l8 7q65 -43 131 -80q88 55 131 79l7 -8q-70 -99 -94 -144zM477 167q0 -87 -68.5 -132t-179.5 -45q-135 0 -178 38q-17 15 -17 56q0 61 33 125l9 -1l61 -170q34 -17 80 -17q58 0 93.5 30t35.5 81q0 37 -23 67.5t-57 50t-74 43t-74 46.5 t-57 62t-23 87q0 79 68.5 125.5t170.5 46.5q125 0 168 -36q15 -12 15 -52q0 -26 -12.5 -63t-25.5 -59l-9 1l-54 165q-28 13 -70 13q-56 0 -91 -28t-35 -76q0 -45 32.5 -80t78.5 -60.5t92 -52.5t78.5 -69t32.5 -96z" />
<glyph unicode="&#x161;" horiz-adv-x="443" d="M274 577l-8 -6h-81q-29 45 -94 152l8 7q65 -43 131 -80q88 55 131 79l7 -8q-70 -99 -94 -144zM198 -10q-105 0 -142 25q-18 14 -18 56q0 27 11.5 54t26.5 42l10 -3q15 -81 33 -108q21 -34 82 -34q39 0 61.5 19.5t22.5 52.5t-24.5 58.5t-59 44.5t-69 40t-59 54t-24.5 77 q0 66 55.5 104t142.5 38q101 0 136 -33q15 -13 15 -48q0 -50 -43 -93l-11 3q-13 78 -29 106q-18 33 -70 33q-37 0 -59.5 -19t-22.5 -53q0 -32 25 -58t60.5 -45.5t71 -41t60.5 -54t25 -74.5q0 -70 -57 -106.5t-150 -36.5z" />
<glyph unicode="&#x162;" horiz-adv-x="579" d="M259 -89l-3 6l14 83h-113l-2 13l51 11q13 4 17 11t4 21v563h-54q-43 0 -64 -1l-67 -183h-9q-16 56 -16 131q0 44 6 84h534q5 -34 5 -84q0 -73 -15 -131h-9l-68 183q-21 1 -63 1h-55v-585l74 -21l-1 -13h-119l-8 -44q50 -5 78.5 -23.5t28.5 -46.5q0 -39 -45.5 -61 t-123.5 -23l-3 15q80 19 80 57q0 30 -54 37z" />
<glyph unicode="&#x163;" horiz-adv-x="373" d="M169 -89l-3 6l12 75q-106 15 -106 158v298h-71l-2 12l69 23l115 147l9 -2v-152h145v-28h-145v-267q0 -104 75 -104q46 0 93 42l8 -7q-22 -50 -61 -84.5t-94 -37.5l-6 -34q51 -4 79.5 -22.5t28.5 -47.5q0 -39 -46 -61t-124 -23l-3 15q80 19 80 57q0 30 -53 37z" />
<glyph unicode="&#x164;" horiz-adv-x="579" d="M336 727l-8 -6h-81q-29 45 -94 152l8 7q65 -43 131 -80q88 55 131 79l7 -8q-70 -99 -94 -144zM425 0h-268l-2 13l51 11q13 4 17 11t4 21v563h-54q-43 0 -64 -1l-67 -183h-9q-16 56 -16 131q0 44 6 84h534q5 -34 5 -84q0 -73 -15 -131h-9l-68 183q-21 1 -63 1h-55v-585 l74 -21z" />
<glyph unicode="&#x165;" horiz-adv-x="373" d="M398 707q0 -45 -33.5 -95.5t-77.5 -78.5l-10 8q36 57 44 112q-51 9 -51 56q0 29 18.5 46.5t46.5 17.5t45.5 -18.5t17.5 -47.5zM337 476v-28h-145v-267q0 -104 75 -104q46 0 93 42l8 -7q-23 -52 -64.5 -87t-99.5 -35q-64 0 -98 40.5t-34 119.5v298h-71l-2 12l69 23 l115 147l9 -2v-152h145z" />
<glyph unicode="&#x166;" horiz-adv-x="579" d="M425 0h-268l-2 13l51 11q13 4 17 11t4 21v244h-140v34h140v285h-54q-43 0 -64 -1l-67 -183h-9q-16 56 -16 131q0 44 6 84h534q5 -34 5 -84q0 -73 -15 -131h-9l-68 183q-21 1 -63 1h-55v-285h140v-34h-140v-266l74 -21z" />
<glyph unicode="&#x167;" horiz-adv-x="373" d="M339 311h-147v-130q0 -104 75 -104q46 0 93 42l8 -7q-23 -52 -64.5 -87t-99.5 -35q-64 0 -98 40.5t-34 119.5v161h-72v28h72v109h-71l-2 12l69 23l115 147l9 -2v-152h145v-28h-145v-109h147v-28z" />
<glyph unicode="&#x168;" horiz-adv-x="692" d="M482 809q25 29 44 56l10 -4q2 -8 2 -24q-3 -42 -22.5 -70t-53.5 -28q-25 0 -60 10t-72 24t-48 17q-25 -29 -44 -56l-10 3q-3 13 -3 26q3 40 23.5 68.5t53.5 28.5t101.5 -24.5t78.5 -26.5zM588 223q0 -113 -62 -173t-172 -60q-105 0 -172.5 61t-67.5 174v392l-74 20l2 13 h268l1 -13l-50 -11q-14 -4 -18 -10.5t-4 -20.5v-363q0 -95 42 -146.5t114 -51.5q70 0 114 50t44 143v390l-84 20l2 13h198l1 -13l-82 -20v-394z" />
<glyph unicode="&#x169;" d="M385 659q25 29 44 56l10 -3q2 -18 2 -25q-3 -41 -23 -69.5t-54 -28.5q-25 0 -59.5 10t-72 24t-48.5 17q-25 -29 -44 -56l-10 4q-3 13 -3 25q3 41 23.5 69t54.5 28q33 0 102.5 -24.5t77.5 -26.5zM575 44q-37 -54 -101 -54q-43 0 -68 27.5t-25 71.5v6q-59 -105 -161 -105 q-67 0 -103.5 40t-36.5 112v317l-64 10l-1 12q94 27 178 29l7 -7v-337q0 -95 81 -97q59 0 100 60v330l-65 10l-1 12q96 27 178 29l8 -7v-388q0 -67 40 -67q14 0 29 5z" />
<glyph unicode="&#x16a;" horiz-adv-x="692" d="M238 767v65h288v-65h-288zM588 223q0 -113 -62 -173t-172 -60q-105 0 -172.5 61t-67.5 174v392l-74 20l2 13h268l1 -13l-50 -11q-14 -4 -18 -10.5t-4 -20.5v-363q0 -95 42 -146.5t114 -51.5q70 0 114 50t44 143v390l-84 20l2 13h198l1 -13l-82 -20v-394z" />
<glyph unicode="&#x16b;" d="M138 618v65h288v-65h-288zM575 44q-37 -54 -101 -54q-43 0 -68 27.5t-25 71.5v6q-59 -105 -161 -105q-67 0 -103.5 40t-36.5 112v317l-64 10l-1 12q94 27 178 29l7 -7v-337q0 -95 81 -97q59 0 100 60v330l-65 10l-1 12q96 27 178 29l8 -7v-388q0 -67 40 -67q14 0 29 5z " />
<glyph unicode="&#x16c;" horiz-adv-x="692" d="M491 871l4 2l10 -4q-7 -69 -39.5 -106t-87.5 -37q-53 0 -84.5 37t-35.5 107l14 3q29 -69 111 -69q74 0 108 67zM588 223q0 -113 -62 -173t-172 -60q-105 0 -172.5 61t-67.5 174v392l-74 20l2 13h268l1 -13l-50 -11q-14 -4 -18 -10.5t-4 -20.5v-363q0 -95 42 -146.5 t114 -51.5q70 0 114 50t44 143v390l-84 20l2 13h198l1 -13l-82 -20v-394z" />
<glyph unicode="&#x16d;" d="M394 722l4 2l10 -4q-7 -69 -39.5 -106t-87.5 -37q-53 0 -84.5 37t-35.5 107l14 3q29 -69 111 -69q74 0 108 67zM575 44q-37 -54 -101 -54q-43 0 -68 27.5t-25 71.5v6q-59 -105 -161 -105q-67 0 -103.5 40t-36.5 112v317l-64 10l-1 12q94 27 178 29l7 -7v-337 q0 -95 81 -97q59 0 100 60v330l-65 10l-1 12q96 27 178 29l8 -7v-388q0 -67 40 -67q14 0 29 5z" />
<glyph unicode="&#x16e;" horiz-adv-x="692" d="M378 718q-38 0 -62 21.5t-24 55.5q0 37 26.5 60.5t66.5 23.5q37 0 61.5 -21.5t24.5 -55.5q0 -37 -26.5 -60.5t-66.5 -23.5zM382 845q-18 0 -29 -14t-11 -35q0 -19 11 -31.5t28 -12.5t28 13.5t11 35.5q0 19 -10.5 31.5t-27.5 12.5zM588 223q0 -113 -62 -173t-172 -60 q-105 0 -172.5 61t-67.5 174v392l-74 20l2 13h268l1 -13l-50 -11q-14 -4 -18 -10.5t-4 -20.5v-363q0 -95 42 -146.5t114 -51.5q70 0 114 50t44 143v390l-84 20l2 13h198l1 -13l-82 -20v-394z" />
<glyph unicode="&#x16f;" d="M282 570q-38 0 -62 21.5t-24 55.5q0 37 26.5 60.5t66.5 23.5q37 0 61.5 -21.5t24.5 -55.5q0 -37 -26.5 -60.5t-66.5 -23.5zM286 697q-18 0 -29 -14t-11 -35q0 -19 11 -31.5t28 -12.5t28 13.5t11 35.5q0 19 -10.5 31.5t-27.5 12.5zM575 44q-37 -54 -101 -54 q-43 0 -68 27.5t-25 71.5v6q-59 -105 -161 -105q-67 0 -103.5 40t-36.5 112v317l-64 10l-1 12q94 27 178 29l7 -7v-337q0 -95 81 -97q59 0 100 60v330l-65 10l-1 12q96 27 178 29l8 -7v-388q0 -67 40 -67q14 0 29 5z" />
<glyph unicode="&#x170;" horiz-adv-x="692" d="M381 841q0 -31 -49.5 -66.5t-124.5 -58.5l-8 9q75 92 112 158q2 0 7.5 0.5t9.5 0.5q53 0 53 -43zM564 841q0 -31 -49.5 -66.5t-124.5 -58.5l-8 9q72 88 111 158q2 0 8 0.5t10 0.5q24 0 38.5 -11t14.5 -32zM588 223q0 -113 -62 -173t-172 -60q-105 0 -172.5 61t-67.5 174 v392l-74 20l2 13h268l1 -13l-50 -11q-14 -4 -18 -10.5t-4 -20.5v-363q0 -95 42 -146.5t114 -51.5q70 0 114 50t44 143v390l-84 20l2 13h198l1 -13l-82 -20v-394z" />
<glyph unicode="&#x171;" d="M287 691q0 -31 -49.5 -66.5t-124.5 -58.5l-8 9q72 88 111 158q2 0 8 0.5t10 0.5q53 0 53 -43zM469 691q0 -31 -49.5 -66.5t-124.5 -58.5l-8 9q75 92 112 158q2 0 7.5 0.5t9.5 0.5q53 0 53 -43zM575 44q-37 -54 -101 -54q-43 0 -68 27.5t-25 71.5v6q-59 -105 -161 -105 q-67 0 -103.5 40t-36.5 112v317l-64 10l-1 12q94 27 178 29l7 -7v-337q0 -95 81 -97q59 0 100 60v330l-65 10l-1 12q96 27 178 29l8 -7v-388q0 -67 40 -67q14 0 29 5z" />
<glyph unicode="&#x172;" horiz-adv-x="692" d="M474 -142q-15 -26 -43 -41t-59 -15q-36 0 -58 18.5t-22 49.5q0 67 129 127q-28 -7 -67 -7q-105 0 -172.5 61t-67.5 174v392l-74 20l2 13h268l1 -13l-50 -11q-14 -4 -18 -10.5t-4 -20.5v-363q0 -95 42 -146.5t114 -51.5q70 0 114 50t44 143v390l-84 20l2 13h198l1 -13 l-82 -20v-394q0 -140 -93 -197q-44 -35 -63 -51.5t-35 -38.5t-16 -41q0 -39 43 -39q23 0 46 9z" />
<glyph unicode="&#x173;" d="M561 -142q-34 -56 -94 -56q-31 0 -52.5 16.5t-22.5 47.5q1 34 28.5 63.5t81.5 63.5q-14 -3 -28 -3q-43 0 -68 27.5t-25 71.5v6q-59 -105 -161 -105q-67 0 -103.5 40t-36.5 112v317l-64 10l-1 12q94 27 178 29l7 -7v-337q0 -95 81 -97q59 0 100 60v330l-65 10l-1 12 q96 27 178 29l8 -7v-388q0 -67 40 -67q14 0 29 5l5 -9q-11 -16 -37.5 -47.5t-41.5 -56t-15 -46.5q0 -38 36 -38q17 0 40 9z" />
<glyph unicode="&#x174;" horiz-adv-x="1008" d="M660 728l-9 -7q-52 35 -130 79q-99 -61 -131 -78l-7 8q70 99 94 144l8 6h81q29 -45 94 -152zM356 -2h-64l-208 581q-13 38 -43 47l-41 11l2 13h277l2 -13l-77 -22l165 -485l117 368l-26 81q-12 37 -43 47l-46 11l2 13h282l2 -13l-78 -22l151 -485l154 485l-81 22l1 13 h203l1 -13l-15 -5t-22.5 -8t-13.5 -7q-18 -10 -29 -28t-24 -56l-187 -535h-64l-147 441z" />
<glyph unicode="&#x175;" horiz-adv-x="798" d="M555 577l-9 -6q-71 45 -130 79q-103 -63 -131 -79l-7 9q66 92 94 144l8 5h81q23 -35 94 -152zM408 500h65l111 -404l109 372l-66 20l2 12h168l1 -12q-3 -2 -24 -9.5t-24 -10.5q-21 -12 -31 -46l-135 -422h-87l-101 310l-97 -310h-86l-140 425q-15 44 -43 57l-30 6l2 12 h255l1 -12l-66 -21l107 -371z" />
<glyph unicode="&#x176;" horiz-adv-x="643" d="M472 728l-8 -7q-56 37 -131 79q-88 -55 -130 -78l-7 8q72 105 94 144l7 6h82q41 -63 93 -152zM457 0h-268l-2 13l51 11q13 4 17 11t4 21v187l-176 341q-11 19 -19 28t-23 14l-41 11l2 13h277l2 -13l-76 -22l159 -344l158 345l-74 21l2 13h192l1 -13q-21 -6 -36 -14 q-34 -20 -65 -77l-158 -303v-209l74 -21z" />
<glyph unicode="&#x177;" horiz-adv-x="529" d="M407 577l-8 -6q-73 47 -131 79q-88 -55 -130 -79l-7 9q66 94 94 144l7 5h82q35 -52 93 -152zM119 -195q-36 0 -58 18.5t-22 47.5q0 21 10 36q40 -14 74 -14q46 1 87.5 27.5t64.5 74.5h-53l-149 430q-15 44 -43 57l-30 6l2 12h255l1 -12l-66 -21l115 -373l117 375l-66 19 l1 12h168l2 -12l-36 -8q-17 -7 -26 -20t-18 -38l-133 -396q-74 -221 -197 -221z" />
<glyph unicode="&#x178;" horiz-adv-x="643" d="M290 806q0 -29 -19.5 -48t-50.5 -19q-26 0 -42 15.5t-16 40.5q0 29 21 47.5t50 18.5q26 0 41.5 -15t15.5 -40zM507 806q0 -29 -19.5 -48t-50.5 -19q-26 0 -42 15.5t-16 40.5q0 29 21 47.5t50 18.5q26 0 41.5 -15t15.5 -40zM457 0h-268l-2 13l51 11q13 4 17 11t4 21v187 l-176 341q-11 19 -19 28t-23 14l-41 11l2 13h277l2 -13l-76 -22l159 -344l158 345l-74 21l2 13h192l1 -13q-21 -6 -36 -14q-34 -20 -65 -77l-158 -303v-209l74 -21z" />
<glyph unicode="&#x179;" horiz-adv-x="581" d="M398 844q0 -31 -53 -66.5t-133 -58.5l-8 9q72 88 111 158q3 0 10 0.5t12 0.5q61 0 61 -43zM529 89q0 -45 -6 -89h-462l-10 54l344 565h-242l-75 -188h-9q-16 58 -16 135q0 42 6 84h460l10 -53l-342 -566h240l77 189h9q16 -53 16 -131z" />
<glyph unicode="&#x17a;" horiz-adv-x="461" d="M338 691q0 -31 -53 -66.5t-133 -58.5l-8 9q72 88 111 158q3 0 10 0.5t12 0.5q61 0 61 -43zM428 76q0 -45 -5 -76h-383l-8 45l271 429h-175l-70 -158h-9q-16 48 -16 113q0 37 6 71h382l8 -45l-269 -429h172l71 159h10q15 -42 15 -109z" />
<glyph unicode="&#x17b;" horiz-adv-x="581" d="M364 806q0 -31 -22.5 -51t-56.5 -20q-29 0 -47.5 16.5t-18.5 43.5q0 30 23 50t56 20q29 0 47.5 -16t18.5 -43zM529 89q0 -45 -6 -89h-462l-10 54l344 565h-242l-75 -188h-9q-16 58 -16 135q0 42 6 84h460l10 -53l-342 -566h240l77 189h9q16 -53 16 -131z" />
<glyph unicode="&#x17c;" horiz-adv-x="461" d="M306 656q0 -31 -22.5 -51t-56.5 -20q-29 0 -47.5 16.5t-18.5 43.5q0 30 23 50t56 20q29 0 47.5 -16t18.5 -43zM428 76q0 -45 -5 -76h-383l-8 45l271 429h-175l-70 -158h-9q-16 48 -16 113q0 37 6 71h382l8 -45l-269 -429h172l71 159h10q15 -42 15 -109z" />
<glyph unicode="&#x17d;" horiz-adv-x="581" d="M337 727l-7 -6h-82q-41 63 -93 152l8 7q62 -42 130 -80q103 63 131 79l7 -8q-72 -105 -94 -144zM529 89q0 -45 -6 -89h-462l-10 54l344 565h-242l-75 -188h-9q-16 58 -16 135q0 42 6 84h460l10 -53l-342 -566h240l77 189h9q16 -53 16 -131z" />
<glyph unicode="&#x17e;" horiz-adv-x="461" d="M276 577l-7 -6h-82q-41 63 -93 152l8 7q62 -42 130 -80q103 63 131 79l7 -8q-72 -105 -94 -144zM428 76q0 -45 -5 -76h-383l-8 45l271 429h-175l-70 -158h-9q-16 48 -16 113q0 37 6 71h382l8 -45l-269 -429h172l71 159h10q15 -42 15 -109z" />
<glyph unicode="&#x18f;" horiz-adv-x="627" d="M300 -10q-113 0 -182 75.5t-69 204.5q0 16 2 42l14 14h389q-1 302 -145 302q-57 0 -93 -42t-36 -107q0 -21 5 -46q-24 -14 -61 -14q-25 0 -41 15t-16 41q0 72 74 128.5t170 56.5q123 0 196.5 -87t73.5 -234q0 -159 -76.5 -254t-204.5 -95zM174 267q0 -116 33.5 -180 t99.5 -64q67 0 105 72t42 199l-279 -6q-1 -7 -1 -21z" />
<glyph unicode="&#x192;" horiz-adv-x="540" d="M258 108q-16 -108 -78.5 -171.5t-144.5 -63.5q-41 0 -67 19.5t-26 46.5q0 44 62 59q9 -80 56 -80q77 0 88 188l15 189h-112l5 34h110l9 106q6 118 73 179t159 61q63 0 101.5 -29t38.5 -68q0 -27 -18 -44t-43 -20q-33 128 -81 128q-39 0 -62 -46t-36 -138l-18 -129h162 l-5 -34h-162z" />
<glyph unicode="&#x19d;" horiz-adv-x="679" d="M38 650h173l331 -511v478l-88 20l1 13h203l1 -13l-60 -13q-14 -4 -18 -10t-4 -19v-595h-92l-330 513v-420q0 -88 -27 -137t-97 -99l-9 11q54 55 75.5 102.5t21.5 136.5v510l-83 20z" />
<glyph unicode="&#x1cd;" horiz-adv-x="667" d="M380 727l-8 -6h-81q-29 45 -94 152l8 7q65 -43 131 -80q88 55 131 79l7 -8q-70 -99 -94 -144zM301 652h64l218 -581q8 -22 17.5 -31.5t28.5 -15.5l38 -11l-2 -13h-284l-2 13l82 22l-59 166h-232l-61 -167l82 -21l-2 -13h-187l-2 13l41 10q19 6 27.5 16t17.5 35zM182 233 h209l-103 291z" />
<glyph unicode="&#x1ce;" horiz-adv-x="519" d="M302 577l-7 -6h-82q-41 63 -93 152l8 7q62 -42 130 -80q103 63 131 79l7 -8q-72 -105 -94 -144zM512 46q-35 -56 -99 -56q-41 0 -66 24t-28 64q-21 -38 -60 -63t-92 -25q-55 0 -91 32t-36 84q0 76 75.5 117t203.5 46v115q0 49 -16 71.5t-50 22.5q-36 0 -60.5 -27 t-24.5 -66q0 -27 5 -49q-29 -13 -56 -13q-26 0 -42 12.5t-16 36.5q0 53 62 95.5t145 42.5q176 0 176 -171q0 -39 -1.5 -116t-1.5 -108q0 -67 41 -67q15 0 28 5zM166 128q0 -35 18.5 -54t46.5 -19t52.5 16t35.5 42v130q-70 -6 -111.5 -34.5t-41.5 -80.5z" />
<glyph unicode="&#x1cf;" horiz-adv-x="363" d="M228 727l-8 -6h-81q-29 45 -94 152l8 7q65 -43 131 -80q88 55 131 79l7 -8q-70 -99 -94 -144zM317 0h-268l-2 13l51 11q13 4 17 11t4 21v561l-74 20l2 13h268l1 -13l-50 -11q-14 -4 -18 -10.5t-4 -20.5v-561l74 -21z" />
<glyph unicode="&#x1d0;" horiz-adv-x="288" d="M184 576l-8 -5h-80q-23 44 -72 152l8 6q45 -35 108 -76q101 70 110 76l7 -9q-54 -97 -73 -144zM272 0h-247l-2 12l44 11q13 5 17 11.5t4 20.5v404l-64 10l-1 12q94 27 178 29l7 -7v-470l65 -21z" />
<glyph unicode="&#x1d1;" horiz-adv-x="660" d="M372 727l-7 -6h-82q-41 63 -93 152l8 7q62 -42 130 -80q103 63 131 79l7 -8q-72 -105 -94 -144zM614 329q0 -151 -80.5 -245t-208.5 -94q-129 0 -207.5 91t-78.5 243q0 151 82 243.5t208 92.5t205.5 -90.5t79.5 -240.5zM173 324q-1 -144 40 -222.5t114 -78.5t112.5 81 t40.5 225q0 143 -39 221t-113 78q-75 0 -115 -79t-40 -225z" />
<glyph unicode="&#x1d2;" horiz-adv-x="527" d="M310 577l-8 -6h-81q-29 45 -94 152l8 7q65 -43 131 -80q88 55 131 79l7 -8q-70 -99 -94 -144zM490 260q0 -121 -62.5 -195.5t-166.5 -74.5q-101 0 -162 66.5t-61 182.5q0 125 64 198t167 73q100 0 160.5 -68t60.5 -182zM164 255q0 -121 24 -177t76 -56q100 0 100 226 q0 119 -24 174.5t-74 55.5q-102 0 -102 -223z" />
<glyph unicode="&#x1d3;" horiz-adv-x="692" d="M428 726l-8 -5h-81q-23 35 -94 152l8 6q56 -37 131 -79q88 55 131 79l7 -9q-66 -92 -94 -144zM588 223q0 -113 -62 -173t-172 -60q-105 0 -172.5 61t-67.5 174v392l-74 20l2 13h268l1 -13l-50 -11q-14 -4 -18 -10.5t-4 -20.5v-363q0 -95 42 -146.5t114 -51.5q70 0 114 50 t44 143v390l-84 20l2 13h198l1 -13l-82 -20v-394z" />
<glyph unicode="&#x1d4;" d="M331 577l-8 -6h-81q-29 45 -94 152l8 7q65 -43 131 -80q88 55 131 79l7 -8q-70 -99 -94 -144zM575 44q-37 -54 -101 -54q-43 0 -68 27.5t-25 71.5v6q-59 -105 -161 -105q-67 0 -103.5 40t-36.5 112v317l-64 10l-1 12q94 27 178 29l7 -7v-337q0 -95 81 -97q59 0 100 60 v330l-65 10l-1 12q96 27 178 29l8 -7v-388q0 -67 40 -67q14 0 29 5z" />
<glyph unicode="&#x1d5;" horiz-adv-x="692" d="M238 988v65h288v-65h-288zM337 805q0 -29 -19.5 -47.5t-50.5 -18.5q-26 0 -42 15.5t-16 40.5q0 28 21 47t50 19q26 0 41.5 -15.5t15.5 -40.5zM554 805q0 -29 -19.5 -47.5t-50.5 -18.5q-26 0 -42 15.5t-16 40.5q0 28 21 47t50 19q26 0 41.5 -15.5t15.5 -40.5zM588 223 q0 -113 -62 -173t-172 -60q-105 0 -172.5 61t-67.5 174v392l-74 20l2 13h268l1 -13l-50 -11q-14 -4 -18 -10.5t-4 -20.5v-363q0 -95 42 -146.5t114 -51.5q70 0 114 50t44 143v390l-84 20l2 13h198l1 -13l-82 -20v-394z" />
<glyph unicode="&#x1d6;" d="M142 826v65h288v-65h-288zM241 656q0 -29 -19.5 -48t-50.5 -19q-26 0 -42 15.5t-16 40.5q0 29 21 47.5t50 18.5q26 0 41.5 -15t15.5 -40zM458 656q0 -29 -19.5 -48t-50.5 -19q-26 0 -42 15.5t-16 40.5q0 29 21 47.5t50 18.5q26 0 41.5 -15t15.5 -40zM575 44 q-37 -54 -101 -54q-43 0 -68 27.5t-25 71.5v6q-59 -105 -161 -105q-67 0 -103.5 40t-36.5 112v317l-64 10l-1 12q94 27 178 29l7 -7v-337q0 -95 81 -97q59 0 100 60v330l-65 10l-1 12q96 27 178 29l8 -7v-388q0 -67 40 -67q14 0 29 5z" />
<glyph unicode="&#x1d7;" horiz-adv-x="692" d="M491 1062q0 -31 -53 -66.5t-133 -58.5l-8 9q72 88 111 158q3 0 10 0.5t12 0.5q61 0 61 -43zM337 805q0 -29 -19.5 -47.5t-50.5 -18.5q-26 0 -42 15.5t-16 40.5q0 28 21 47t50 19q26 0 41.5 -15.5t15.5 -40.5zM554 805q0 -29 -19.5 -47.5t-50.5 -18.5q-26 0 -42 15.5 t-16 40.5q0 28 21 47t50 19q26 0 41.5 -15.5t15.5 -40.5zM588 223q0 -113 -62 -173t-172 -60q-105 0 -172.5 61t-67.5 174v392l-74 20l2 13h268l1 -13l-50 -11q-14 -4 -18 -10.5t-4 -20.5v-363q0 -95 42 -146.5t114 -51.5q70 0 114 50t44 143v390l-84 20l2 13h198l1 -13 l-82 -20v-394z" />
<glyph unicode="&#x1d8;" d="M393 899q0 -31 -53.5 -66.5t-133.5 -58.5l-8 9q75 92 112 158q2 0 9 0.5t12 0.5q62 0 62 -43zM241 656q0 -29 -19.5 -48t-50.5 -19q-26 0 -42 15.5t-16 40.5q0 29 21 47.5t50 18.5q26 0 41.5 -15t15.5 -40zM458 656q0 -29 -19.5 -48t-50.5 -19q-26 0 -42 15.5t-16 40.5 q0 29 21 47.5t50 18.5q26 0 41.5 -15t15.5 -40zM575 44q-37 -54 -101 -54q-43 0 -68 27.5t-25 71.5v6q-59 -105 -161 -105q-67 0 -103.5 40t-36.5 112v317l-64 10l-1 12q94 27 178 29l7 -7v-337q0 -95 81 -97q59 0 100 60v330l-65 10l-1 12q96 27 178 29l8 -7v-388 q0 -67 40 -67q14 0 29 5z" />
<glyph unicode="&#x1d9;" horiz-adv-x="692" d="M430 947l-7 -5h-82q-35 52 -93 152l8 6q52 -35 130 -79q103 63 131 79l7 -9q-66 -94 -94 -144zM337 805q0 -29 -19.5 -47.5t-50.5 -18.5q-26 0 -42 15.5t-16 40.5q0 28 21 47t50 19q26 0 41.5 -15.5t15.5 -40.5zM554 805q0 -29 -19.5 -47.5t-50.5 -18.5q-26 0 -42 15.5 t-16 40.5q0 28 21 47t50 19q26 0 41.5 -15.5t15.5 -40.5zM588 223q0 -113 -62 -173t-172 -60q-105 0 -172.5 61t-67.5 174v392l-74 20l2 13h268l1 -13l-50 -11q-14 -4 -18 -10.5t-4 -20.5v-363q0 -95 42 -146.5t114 -51.5q70 0 114 50t44 143v390l-84 20l2 13h198l1 -13 l-82 -20v-394z" />
<glyph unicode="&#x1da;" d="M332 785l-8 -6h-81q-29 45 -94 152l8 7q65 -43 131 -80q88 55 131 79l7 -8q-70 -99 -94 -144zM241 656q0 -29 -19.5 -48t-50.5 -19q-26 0 -42 15.5t-16 40.5q0 29 21 47.5t50 18.5q26 0 41.5 -15t15.5 -40zM458 656q0 -29 -19.5 -48t-50.5 -19q-26 0 -42 15.5t-16 40.5 q0 29 21 47.5t50 18.5q26 0 41.5 -15t15.5 -40zM575 44q-37 -54 -101 -54q-43 0 -68 27.5t-25 71.5v6q-59 -105 -161 -105q-67 0 -103.5 40t-36.5 112v317l-64 10l-1 12q94 27 178 29l7 -7v-337q0 -95 81 -97q59 0 100 60v330l-65 10l-1 12q96 27 178 29l8 -7v-388 q0 -67 40 -67q14 0 29 5z" />
<glyph unicode="&#x1db;" horiz-adv-x="692" d="M474 944l-8 -9q-83 23 -137 58t-54 69q0 44 63 44q16 0 21 -1q40 -71 115 -161zM337 805q0 -29 -19.5 -47.5t-50.5 -18.5q-26 0 -42 15.5t-16 40.5q0 28 21 47t50 19q26 0 41.5 -15.5t15.5 -40.5zM554 805q0 -29 -19.5 -47.5t-50.5 -18.5q-26 0 -42 15.5t-16 40.5 q0 28 21 47t50 19q26 0 41.5 -15.5t15.5 -40.5zM588 223q0 -113 -62 -173t-172 -60q-105 0 -172.5 61t-67.5 174v392l-74 20l2 13h268l1 -13l-50 -11q-14 -4 -18 -10.5t-4 -20.5v-363q0 -95 42 -146.5t114 -51.5q70 0 114 50t44 143v390l-84 20l2 13h198l1 -13l-82 -20v-394 z" />
<glyph unicode="&#x1dc;" d="M384 781l-8 -9q-84 23 -138 58t-54 69q0 44 63 44q16 0 22 -1q40 -71 115 -161zM241 656q0 -29 -19.5 -48t-50.5 -19q-26 0 -42 15.5t-16 40.5q0 29 21 47.5t50 18.5q26 0 41.5 -15t15.5 -40zM458 656q0 -29 -19.5 -48t-50.5 -19q-26 0 -42 15.5t-16 40.5q0 29 21 47.5 t50 18.5q26 0 41.5 -15t15.5 -40zM575 44q-37 -54 -101 -54q-43 0 -68 27.5t-25 71.5v6q-59 -105 -161 -105q-67 0 -103.5 40t-36.5 112v317l-64 10l-1 12q94 27 178 29l7 -7v-337q0 -95 81 -97q59 0 100 60v330l-65 10l-1 12q96 27 178 29l8 -7v-388q0 -67 40 -67 q14 0 29 5z" />
<glyph unicode="&#x1e6;" horiz-adv-x="630" d="M396 727l-7 -6h-82q-41 63 -93 152l8 7q62 -42 130 -80q103 63 131 79l7 -8q-72 -105 -94 -144zM562 19q-72 -29 -180 -29q-155 0 -247 87.5t-92 243.5q0 155 98 247t247 92q98 0 164 -29q4 -27 4 -61q0 -78 -19 -135h-9l-72 183q-30 10 -61 10q-93 0 -159.5 -83.5 t-66.5 -220.5t66.5 -219.5t153.5 -82.5q33 0 63 8v245l-75 20l2 12h246l2 -12l-43 -11q-14 -4 -18 -10.5t-4 -20.5v-234z" />
<glyph unicode="&#x1e7;" horiz-adv-x="487" d="M286 577l-7 -6h-82q-41 63 -93 152l8 7q62 -42 130 -80q103 63 131 79l7 -8q-72 -105 -94 -144zM479 -32q0 -73 -66 -118t-189 -45q-92 0 -155 27t-63 77q0 38 37.5 62.5t90.5 29.5q-2 2 -2 3q-53 22 -53 75q0 31 23.5 56.5t58.5 35.5q-58 15 -91 56t-33 103q0 80 59 129 t148 49q146 0 231 13q11 -15 11 -35q0 -34 -40 -34q-22 0 -104 16l-2 -3q39 -17 63.5 -53t24.5 -81q0 -79 -55 -123.5t-143 -44.5q-24 0 -45 3q-16 -16 -16 -33q0 -32 54 -37l91 -5q165 -11 165 -123zM153 330q0 -135 79 -135q81 0 81 140q0 133 -76 133q-41 0 -62.5 -38 t-21.5 -100zM107 -80q0 -39 35 -61t98 -22q62 0 102.5 23.5t40.5 60.5q0 50 -93 58l-79 4q-32 2 -44 4q-60 -24 -60 -67z" />
<glyph unicode="&#x1ea;" horiz-adv-x="660" d="M433 -142q-15 -26 -43 -41t-59 -15q-36 0 -57.5 18t-21.5 50q-1 35 31.5 65.5t98.5 59.5q-32 -5 -57 -5q-129 0 -207.5 91t-78.5 243q0 151 82 243.5t208 92.5t205.5 -90.5t79.5 -240.5q0 -100 -37 -177t-102 -119l4 2q-80 -51 -109.5 -81t-29.5 -59q0 -39 44 -39 q21 0 46 9zM173 324q-1 -144 40 -222.5t114 -78.5t112.5 81t40.5 225q0 143 -39 221t-113 78q-75 0 -115 -79t-40 -225z" />
<glyph unicode="&#x1eb;" horiz-adv-x="527" d="M374 -142q-35 -56 -102 -56q-34 0 -56 18t-22 48q0 35 31 63.5t94 65.5q-25 -7 -58 -7q-101 0 -162 66.5t-61 182.5q0 125 64 198t167 73q100 0 160.5 -68t60.5 -182q0 -150 -91 -223q-15 -14 -42 -39t-40 -37.5t-24 -30.5t-11 -34q0 -40 44 -40q21 0 44 9zM164 255 q0 -121 24 -177t76 -56q100 0 100 226q0 119 -24 174.5t-74 55.5q-102 0 -102 -223z" />
<glyph unicode="&#x1f4;" horiz-adv-x="630" d="M457 844q0 -31 -53 -66.5t-133 -58.5l-8 9q72 88 111 158q3 0 10 0.5t12 0.5q61 0 61 -43zM562 19q-72 -29 -180 -29q-155 0 -247 87.5t-92 243.5q0 155 98 247t247 92q98 0 164 -29q4 -27 4 -61q0 -78 -19 -135h-9l-72 183q-30 10 -61 10q-93 0 -159.5 -83.5 t-66.5 -220.5t66.5 -219.5t153.5 -82.5q33 0 63 8v245l-75 20l2 12h246l2 -12l-43 -11q-14 -4 -18 -10.5t-4 -20.5v-234z" />
<glyph unicode="&#x1f5;" horiz-adv-x="487" d="M348 691q0 -31 -53 -66.5t-133 -58.5l-8 9q72 88 111 158q3 0 10 0.5t12 0.5q61 0 61 -43zM479 -32q0 -73 -66 -118t-189 -45q-92 0 -155 27t-63 77q0 38 37.5 62.5t90.5 29.5q-2 2 -2 3q-53 22 -53 75q0 31 23.5 56.5t58.5 35.5q-58 15 -91 56t-33 103q0 80 59 129 t148 49q146 0 231 13q11 -15 11 -35q0 -34 -40 -34q-22 0 -104 16l-2 -3q39 -17 63.5 -53t24.5 -81q0 -79 -55 -123.5t-143 -44.5q-24 0 -45 3q-16 -16 -16 -33q0 -32 54 -37l91 -5q165 -11 165 -123zM153 330q0 -135 79 -135q81 0 81 140q0 133 -76 133q-41 0 -62.5 -38 t-21.5 -100zM107 -80q0 -39 35 -61t98 -22q62 0 102.5 23.5t40.5 60.5q0 50 -93 58l-79 4q-32 2 -44 4q-60 -24 -60 -67z" />
<glyph unicode="&#x1fa;" horiz-adv-x="667" d="M436 1062q0 -31 -53.5 -66.5t-133.5 -58.5l-8 9q75 92 112 158q2 0 9 0.5t12 0.5q62 0 62 -43zM330 718q-38 0 -62 21.5t-24 56.5q0 36 26.5 59.5t66.5 23.5q37 0 61.5 -21.5t24.5 -55.5q0 -37 -26.5 -60.5t-66.5 -23.5zM334 846q-18 0 -29 -14t-11 -35q0 -20 11 -32.5 t28 -12.5t28 14t11 35q0 20 -11 32.5t-27 12.5zM301 652h64l218 -581q8 -22 17.5 -31.5t28.5 -15.5l38 -11l-2 -13h-284l-2 13l82 22l-59 166h-232l-61 -167l82 -21l-2 -13h-187l-2 13l41 10q19 6 27.5 16t17.5 35zM182 233h209l-103 291z" />
<glyph unicode="&#x1fb;" horiz-adv-x="519" d="M359 902q0 -31 -53 -66.5t-133 -58.5l-8 9q72 88 111 158q3 0 10 0.5t12 0.5q61 0 61 -43zM253 570q-38 0 -62 21.5t-24 55.5q0 37 26.5 60.5t67.5 23.5q37 0 61 -21.5t24 -55.5q0 -37 -26.5 -60.5t-66.5 -23.5zM257 697q-17 0 -28 -14t-11 -35q0 -19 10.5 -31.5 t27.5 -12.5q18 0 29 13.5t11 35.5q0 19 -11 31.5t-28 12.5zM512 46q-35 -56 -99 -56q-41 0 -66 24t-28 64q-21 -38 -60 -63t-92 -25q-55 0 -91 32t-36 84q0 76 75.5 117t203.5 46v115q0 49 -16 71.5t-50 22.5q-36 0 -60.5 -27t-24.5 -66q0 -27 5 -49q-29 -13 -56 -13 q-26 0 -42 12.5t-16 36.5q0 53 62 95.5t145 42.5q176 0 176 -171q0 -39 -1.5 -116t-1.5 -108q0 -67 41 -67q15 0 28 5zM166 128q0 -35 18.5 -54t46.5 -19t52.5 16t35.5 42v130q-70 -6 -111.5 -34.5t-41.5 -80.5z" />
<glyph unicode="&#x1fc;" horiz-adv-x="872" d="M648 844q0 -31 -53 -66.5t-133 -58.5l-8 9q72 88 111 158q3 0 10 0.5t12 0.5q61 0 61 -43zM14 0l-1 13q31 9 48 15q14 5 21.5 14.5t17.5 33.5l202 543l-81 18l1 13h590q6 -35 6 -72q0 -69 -16 -122h-9l-73 162q-28 1 -85 1h-90v-277l186 10l-2 -50l-184 9v-279h184 l73 166h9q15 -50 15 -124q0 -44 -5 -74h-473l-1 13l51 11q14 4 18 10.5t4 21.5v255l-198 -3l-99 -274l82 -21l-1 -13h-190zM420 619h-84l-101 -277h185v277z" />
<glyph unicode="&#x1fd;" horiz-adv-x="765" d="M506 691q0 -31 -53 -66.5t-133 -58.5l-8 9q72 88 111 158q3 0 10 0.5t12 0.5q61 0 61 -43zM736 116q-54 -126 -197 -126q-141 2 -193 114q-20 -46 -64.5 -80t-107.5 -34q-60 0 -97 31.5t-37 83.5q0 79 76 121.5t203 47.5v110q0 49 -16 71.5t-50 22.5q-36 0 -60.5 -27 t-24.5 -66q0 -27 5 -49q-29 -13 -56 -13q-26 0 -42 12.5t-16 36.5q0 53 62 95.5t145 42.5q97 0 140 -52q62 53 145 53q87 0 137.5 -55t50.5 -144q0 -18 -4 -50l-8 -7h-281q7 -87 48.5 -132t109.5 -45q67 0 124 46zM445 285v-4l171 8q2 30 2 44q0 72 -16.5 109t-56.5 37 q-46 0 -73 -51.5t-27 -142.5zM166 136q0 -36 19.5 -57.5t50.5 -21.5q30 0 56.5 20t42.5 53q-16 51 -16 111v7q-70 -6 -111.5 -33.5t-41.5 -78.5z" />
<glyph unicode="&#x1fe;" horiz-adv-x="660" d="M428 844q0 -31 -53 -66.5t-133 -58.5l-8 9q72 88 111 158q3 0 10 0.5t12 0.5q61 0 61 -43zM614 329q0 -151 -80.5 -245t-209.5 -94q-109 0 -184 67l-50 -64l-29 24l53 67q-75 91 -75 240q0 151 82 243.5t208 92.5q107 0 183 -68l50 65l29 -23l-54 -68q77 -93 77 -237z M173 324q-1 -81 13 -147l268 342q-39 109 -126 109q-75 0 -115 -79t-40 -225zM479 329q1 80 -13 146l-267 -342q40 -110 128 -110q73 0 112.5 81t39.5 225z" />
<glyph unicode="&#x1ff;" horiz-adv-x="527" d="M372 691q0 -31 -53.5 -66.5t-133.5 -58.5l-8 9q75 92 112 158q2 0 9 0.5t12 0.5q62 0 62 -43zM490 260q0 -121 -62.5 -195.5t-166.5 -74.5q-106 0 -166 71l-45 -44l-21 23l47 47q-38 61 -38 152q0 125 64 198t167 73q100 0 161 -70l45 45l24 -23l-49 -48q40 -66 40 -154z M164 255q0 -55 2 -78l189 189q-19 112 -89 112q-102 0 -102 -223zM364 248q0 46 -4 77l-189 -188q20 -115 93 -115q100 0 100 226z" />
<glyph unicode="&#x218;" horiz-adv-x="511" d="M477 167q0 -87 -68.5 -132t-179.5 -45q-135 0 -178 38q-17 15 -17 56q0 61 33 125l9 -1l61 -170q34 -17 80 -17q58 0 93.5 30t35.5 81q0 37 -23 67.5t-57 50t-74 43t-74 46.5t-57 62t-23 87q0 79 68.5 125.5t170.5 46.5q125 0 168 -36q15 -12 15 -52q0 -26 -12.5 -63 t-25.5 -59l-9 1l-54 165q-28 13 -70 13q-56 0 -91 -28t-35 -76q0 -45 32.5 -80t78.5 -60.5t92 -52.5t78.5 -69t32.5 -96zM309 -146q0 -45 -33 -95.5t-77 -78.5l-10 9q34 54 44 112q-51 9 -51 55q0 29 18 47t46 18q29 0 46 -18.5t17 -48.5z" />
<glyph unicode="&#x219;" horiz-adv-x="443" d="M198 -10q-105 0 -142 25q-18 14 -18 56q0 27 11.5 54t26.5 42l10 -3q15 -81 33 -108q21 -34 82 -34q39 0 61.5 19.5t22.5 52.5t-24.5 58.5t-59 44.5t-69 40t-59 54t-24.5 77q0 66 55.5 104t142.5 38q101 0 136 -33q15 -13 15 -48q0 -50 -43 -93l-11 3q-13 78 -29 106 q-18 33 -70 33q-37 0 -59.5 -19t-22.5 -53q0 -32 25 -58t60.5 -45.5t71 -41t60.5 -54t25 -74.5q0 -70 -57 -106.5t-150 -36.5zM270 -146q0 -45 -33.5 -95.5t-77.5 -78.5l-9 9q35 59 43 112q-51 9 -51 55q0 29 18.5 47t46.5 18t45.5 -18.5t17.5 -48.5z" />
<glyph unicode="&#x21a;" horiz-adv-x="579" d="M425 0h-268l-2 13l51 11q13 4 17 11t4 21v563h-54q-43 0 -64 -1l-67 -183h-9q-16 56 -16 131q0 44 6 84h534q5 -34 5 -84q0 -73 -15 -131h-9l-68 183q-21 1 -63 1h-55v-585l74 -21zM353 -146q0 -45 -33.5 -95.5t-77.5 -78.5l-10 9q36 57 44 112q-51 9 -51 55 q0 29 18.5 47t46.5 18t45.5 -18.5t17.5 -48.5z" />
<glyph unicode="&#x21b;" horiz-adv-x="373" d="M337 476v-28h-145v-267q0 -104 75 -104q46 0 93 42l8 -7q-23 -52 -64.5 -87t-99.5 -35q-64 0 -98 40.5t-34 119.5v298h-71l-2 12l69 23l115 147l9 -2v-152h145zM262 -146q0 -45 -33 -95.5t-77 -78.5l-10 9q34 54 44 112q-51 9 -51 55q0 29 18 47t46 18q29 0 46 -18.5 t17 -48.5z" />
<glyph unicode="&#x232;" horiz-adv-x="643" d="M191 768v65h288v-65h-288zM457 0h-268l-2 13l51 11q13 4 17 11t4 21v187l-176 341q-11 19 -19 28t-23 14l-41 11l2 13h277l2 -13l-76 -22l159 -344l158 345l-74 21l2 13h192l1 -13q-21 -6 -36 -14q-34 -20 -65 -77l-158 -303v-209l74 -21z" />
<glyph unicode="&#x233;" horiz-adv-x="529" d="M119 618v65h288v-65h-288zM119 -195q-36 0 -58 18.5t-22 47.5q0 21 10 36q40 -14 74 -14q46 1 87.5 27.5t64.5 74.5h-53l-149 430q-15 44 -43 57l-30 6l2 12h255l1 -12l-66 -21l115 -373l117 375l-66 19l1 12h168l2 -12l-36 -8q-17 -7 -26 -20t-18 -38l-133 -396 q-74 -221 -197 -221z" />
<glyph unicode="&#x237;" horiz-adv-x="272" d="M7 -184q38 53 55.5 111t17.5 150v382l-64 10l-1 12q94 27 178 29l7 -7v-440q0 -106 -41.5 -167t-143.5 -91z" />
<glyph unicode="&#x259;" horiz-adv-x="492" d="M47 241h281q0 3 0.5 9.5t0.5 10.5q0 117 -22.5 167t-70.5 50q-36 0 -57.5 -27.5t-21.5 -67.5q0 -26 5 -47q-30 -13 -58 -13q-61 0 -61 49q0 55 56.5 96.5t138.5 41.5q102 0 159.5 -67t57.5 -183q0 -125 -64 -197.5t-160 -72.5q-90 0 -143 56t-53 143q0 25 4 46zM156 171 q0 -149 81 -149q83 0 91 193l-170 -8q-2 -26 -2 -36z" />
<glyph unicode="&#x272;" horiz-adv-x="581" d="M564 0h-247l-1 12l43 11q13 5 17.5 11.5t4.5 20.5v280q0 96 -80 96q-28 0 -56.5 -17t-44.5 -44v-307q0 -106 -41.5 -167t-143.5 -91l-8 11q38 53 55.5 111t17.5 150v382l-64 10l-1 12q94 27 178 29l7 -7v-102q63 109 168 109q65 0 99 -39t34 -111v-327l65 -21z" />
<glyph unicode="&#x2c6;" horiz-adv-x="393" d="M335 577l-9 -6q-71 45 -130 79q-103 -63 -131 -79l-7 9q66 92 94 144l8 5h81q23 -35 94 -152z" />
<glyph unicode="&#x2c7;" horiz-adv-x="402" d="M245 577l-7 -6h-82q-41 63 -93 152l8 7q62 -42 130 -80q103 63 131 79l7 -8q-72 -105 -94 -144z" />
<glyph unicode="&#x2d8;" horiz-adv-x="359" d="M289 722l4 2l10 -4q-7 -69 -39.5 -106t-87.5 -37q-53 0 -84.5 37t-35.5 107l14 3q29 -69 111 -69q74 0 108 67z" />
<glyph unicode="&#x2d9;" horiz-adv-x="264" d="M205 656q0 -31 -22.5 -51t-56.5 -20q-29 0 -47.5 16.5t-18.5 43.5q0 30 23 50t56 20q29 0 47.5 -16t18.5 -43z" />
<glyph unicode="&#x2da;" horiz-adv-x="316" d="M155 570q-38 0 -62 21.5t-24 55.5q0 37 26.5 60.5t66.5 23.5q37 0 61.5 -21.5t24.5 -55.5q0 -37 -26.5 -60.5t-66.5 -23.5zM159 697q-18 0 -29 -14t-11 -35q0 -19 11 -31.5t28 -12.5t28 13.5t11 35.5q0 19 -10.5 31.5t-27.5 12.5z" />
<glyph unicode="&#x2db;" horiz-adv-x="304" d="M242 -142q-15 -26 -43 -41t-59 -15q-36 0 -58 18t-22 50q0 42 44 82t121 57l10 -9q-36 -15 -61 -45t-25 -59q0 -40 45 -40q21 0 44 9z" />
<glyph unicode="&#x2dc;" horiz-adv-x="452" d="M327 659q25 29 44 56l10 -3q2 -18 2 -25q-3 -41 -23 -69.5t-54 -28.5q-25 0 -59.5 10t-72 24t-48.5 17q-25 -29 -44 -56l-10 4q-3 14 -3 25q3 41 23.5 69t54.5 28q33 0 102.5 -24.5t77.5 -26.5z" />
<glyph unicode="&#x2dd;" horiz-adv-x="488" d="M244 691q0 -31 -49.5 -66.5t-124.5 -58.5l-8 9q72 88 111 158q2 0 8 0.5t10 0.5q53 0 53 -43zM426 691q0 -31 -49.5 -66.5t-124.5 -58.5l-8 9q75 92 112 158q2 0 7.5 0.5t9.5 0.5q53 0 53 -43z" />
<glyph unicode="&#x1e0c;" horiz-adv-x="688" d="M311 0h-263l-2 13l52 11q13 4 17 11t4 21v561l-73 20l1 13h268q150 0 240 -85t90 -236t-92.5 -240t-241.5 -89zM301 619h-57v-588h58q101 0 158.5 79.5t58.5 218.5q0 138 -57.5 214t-160.5 76zM425 -139q0 -31 -22.5 -50.5t-56.5 -19.5q-30 0 -48 16.5t-18 43.5 q0 30 23 50t56 20q30 0 48 -16.5t18 -43.5z" />
<glyph unicode="&#x1e0d;" horiz-adv-x="558" d="M38 233q0 135 67.5 206t174.5 71q42 0 78 -9v143l-64 10l-1 12q94 27 178 29l7 -7v-573q0 -67 39 -67q14 0 29 5l4 -7q-37 -56 -100 -56q-40 0 -64.5 24t-27.5 64q-21 -38 -59 -63t-86 -25q-79 0 -127 64.5t-48 178.5zM164 252q0 -94 28.5 -145.5t79.5 -51.5q26 0 51 17 t35 42v336q-25 18 -62 18q-63 0 -97.5 -58.5t-34.5 -157.5zM340 -139q0 -31 -22 -50.5t-56 -19.5q-30 0 -48.5 16.5t-18.5 43.5q0 30 23.5 50t55.5 20q30 0 48 -16.5t18 -43.5z" />
<glyph unicode="&#x1e24;" horiz-adv-x="756" d="M317 0h-268l-2 13l51 11q13 4 17 11t4 21v561l-74 20l2 13h268l1 -13l-50 -11q-14 -4 -18 -10.5t-4 -20.5v-246h268v268l-74 20l2 13h268l1 -13l-50 -11q-14 -4 -18 -10.5t-4 -20.5v-561l74 -21l-1 -13h-268l-2 13l51 11q13 4 17 11t4 21v259h-268v-281l74 -21zM450 -139 q0 -31 -22.5 -50.5t-56.5 -19.5q-30 0 -48 16.5t-18 43.5q0 30 23 50t56 20q30 0 48 -16.5t18 -43.5z" />
<glyph unicode="&#x1e25;" horiz-adv-x="581" d="M264 0h-247l-2 12l44 11q13 5 17 11.5t4 20.5v589l-64 10l-1 12q94 27 178 29l7 -7v-285q65 107 168 107q65 0 99 -39.5t34 -110.5v-327l65 -21l-2 -12h-247l-1 12l43 11q13 5 17.5 11.5t4.5 20.5v280q0 96 -81 96q-28 0 -56 -17t-44 -44v-337l65 -21zM361 -139 q0 -31 -22.5 -50.5t-56.5 -19.5q-30 0 -48 16.5t-18 43.5q0 30 23 50t56 20q30 0 48 -16.5t18 -43.5z" />
<glyph unicode="&#x1e44;" horiz-adv-x="679" d="M428 806q0 -31 -22.5 -51t-56.5 -20q-29 0 -47.5 16.5t-18.5 43.5q0 30 23 50t56 20q29 0 47.5 -16t18.5 -43zM241 0h-202l-2 13l61 14q13 4 17 10t4 19v561l-83 20l2 13h173l331 -511v478l-88 20l1 13h203l1 -13l-60 -13q-14 -4 -18 -10t-4 -19v-595h-92l-330 513v-479 l88 -21z" />
<glyph unicode="&#x1e45;" d="M373 656q0 -31 -22.5 -51t-56.5 -20q-29 0 -47.5 16.5t-18.5 43.5q0 30 23 50t56 20q29 0 47.5 -16t18.5 -43zM272 0h-247l-2 12l44 11q13 5 17 11.5t4 20.5v404l-64 10l-1 12q94 27 178 29l7 -7v-102q63 109 168 109q65 0 99 -39t34 -111v-327l65 -21l-2 -12h-247l-1 12 l43 11q13 5 17.5 11.5t4.5 20.5v280q0 96 -80 96q-28 0 -56.5 -17t-44.5 -44v-337l65 -21z" />
<glyph unicode="&#x1e5a;" horiz-adv-x="675" d="M317 0h-268l-2 13l51 11q13 4 17 11t4 21v561l-73 20l1 13h276q117 0 187 -48t70 -138q0 -111 -123 -163l131 -226q19 -36 52 -50l35 -12l-1 -13l-123 -2q-40 0 -62 15.5t-38 50.5l-109 211q-9 -2 -17 -2h-81v-239l74 -21zM306 619h-62v-315h63q65 0 106 42t41 115 t-40 115.5t-108 42.5zM427 -139q0 -31 -22 -50.5t-56 -19.5q-30 0 -48.5 16.5t-18.5 43.5q0 30 23.5 50t55.5 20q30 0 48 -16.5t18 -43.5z" />
<glyph unicode="&#x1e5b;" horiz-adv-x="421" d="M292 0h-267l-2 12l44 11q13 5 17 11.5t4 20.5v404l-64 10l-1 12q94 27 178 29l7 -7v-128q50 135 130 135q33 0 52.5 -21t19.5 -54q0 -36 -20 -60l-5 -2q-37 21 -77 21q-57 0 -100 -49v-312l85 -21zM221 -139q0 -31 -22 -50.5t-56 -19.5q-30 0 -48.5 16.5t-18.5 43.5 q0 30 23.5 50t55.5 20q30 0 48 -16.5t18 -43.5z" />
<glyph unicode="&#x1e62;" horiz-adv-x="511" d="M477 167q0 -87 -68.5 -132t-179.5 -45q-135 0 -178 38q-17 15 -17 56q0 61 33 125l9 -1l61 -170q34 -17 80 -17q58 0 93.5 30t35.5 81q0 37 -23 67.5t-57 50t-74 43t-74 46.5t-57 62t-23 87q0 79 68.5 125.5t170.5 46.5q125 0 168 -36q15 -12 15 -52q0 -26 -12.5 -63 t-25.5 -59l-9 1l-54 165q-28 13 -70 13q-56 0 -91 -28t-35 -76q0 -45 32.5 -80t78.5 -60.5t92 -52.5t78.5 -69t32.5 -96zM318 -139q0 -31 -22 -50.5t-56 -19.5q-30 0 -48.5 16.5t-18.5 43.5q0 30 23.5 50t55.5 20q30 0 48 -16.5t18 -43.5z" />
<glyph unicode="&#x1e63;" horiz-adv-x="443" d="M198 -10q-105 0 -142 25q-18 14 -18 56q0 27 11.5 54t26.5 42l10 -3q15 -81 33 -108q21 -34 82 -34q39 0 61.5 19.5t22.5 52.5t-24.5 58.5t-59 44.5t-69 40t-59 54t-24.5 77q0 66 55.5 104t142.5 38q101 0 136 -33q15 -13 15 -48q0 -50 -43 -93l-11 3q-13 78 -29 106 q-18 33 -70 33q-37 0 -59.5 -19t-22.5 -53q0 -32 25 -58t60.5 -45.5t71 -41t60.5 -54t25 -74.5q0 -70 -57 -106.5t-150 -36.5zM279 -139q0 -31 -22.5 -50.5t-56.5 -19.5q-30 0 -48 16.5t-18 43.5q0 30 23 50t56 20q30 0 48 -16.5t18 -43.5z" />
<glyph unicode="&#x1e6c;" horiz-adv-x="579" d="M425 0h-268l-2 13l51 11q13 4 17 11t4 21v563h-54q-43 0 -64 -1l-67 -183h-9q-16 56 -16 131q0 44 6 84h534q5 -34 5 -84q0 -73 -15 -131h-9l-68 183q-21 1 -63 1h-55v-585l74 -21zM362 -139q0 -31 -22.5 -50.5t-56.5 -19.5q-30 0 -48 16.5t-18 43.5q0 30 23 50t56 20 q30 0 48 -16.5t18 -43.5z" />
<glyph unicode="&#x1e6d;" horiz-adv-x="373" d="M337 476v-28h-145v-267q0 -104 75 -104q46 0 93 42l8 -7q-23 -52 -64.5 -87t-99.5 -35q-64 0 -98 40.5t-34 119.5v298h-71l-2 12l69 23l115 147l9 -2v-152h145zM271 -139q0 -31 -22 -50.5t-56 -19.5q-30 0 -48.5 16.5t-18.5 43.5q0 30 23.5 50t55.5 20q30 0 48 -16.5 t18 -43.5z" />
<glyph unicode="&#x1e80;" horiz-adv-x="1008" d="M623 724l-8 -9q-83 23 -137 58t-54 68q0 45 63 45q5 0 12 -0.5t9 -0.5q37 -68 115 -161zM356 -2h-64l-208 581q-13 38 -43 47l-41 11l2 13h277l2 -13l-77 -22l165 -485l117 368l-26 81q-12 37 -43 47l-46 11l2 13h282l2 -13l-78 -22l151 -485l154 485l-81 22l1 13h203 l1 -13l-15 -5t-22.5 -8t-13.5 -7q-18 -10 -29 -28t-24 -56l-187 -535h-64l-147 441z" />
<glyph unicode="&#x1e81;" horiz-adv-x="798" d="M515 573l-8 -9q-83 23 -137 58t-54 69q0 44 63 44q16 0 21 -1q40 -71 115 -161zM408 500h65l111 -404l109 372l-66 20l2 12h168l1 -12q-3 -2 -24 -9.5t-24 -10.5q-21 -12 -31 -46l-135 -422h-87l-101 310l-97 -310h-86l-140 425q-15 44 -43 57l-30 6l2 12h255l1 -12 l-66 -21l107 -371z" />
<glyph unicode="&#x1e82;" horiz-adv-x="1008" d="M624 844q0 -31 -53 -66.5t-133 -58.5l-8 9q72 88 111 158q3 0 10 0.5t12 0.5q61 0 61 -43zM356 -2h-64l-208 581q-13 38 -43 47l-41 11l2 13h277l2 -13l-77 -22l165 -485l117 368l-26 81q-12 37 -43 47l-46 11l2 13h282l2 -13l-78 -22l151 -485l154 485l-81 22l1 13h203 l1 -13l-15 -5t-22.5 -8t-13.5 -7q-18 -10 -29 -28t-24 -56l-187 -535h-64l-147 441z" />
<glyph unicode="&#x1e83;" horiz-adv-x="798" d="M522 691q0 -31 -53.5 -66.5t-133.5 -58.5l-8 9q75 92 112 158q2 0 9 0.5t12 0.5q62 0 62 -43zM408 500h65l111 -404l109 372l-66 20l2 12h168l1 -12q-3 -2 -24 -9.5t-24 -10.5q-21 -12 -31 -46l-135 -422h-87l-101 310l-97 -310h-86l-140 425q-15 44 -43 57l-30 6l2 12 h255l1 -12l-66 -21l107 -371z" />
<glyph unicode="&#x1e84;" horiz-adv-x="1008" d="M478 806q0 -29 -20 -48t-50 -19q-26 0 -42 15.5t-16 40.5q0 29 20.5 47.5t49.5 18.5q26 0 42 -15t16 -40zM695 806q0 -29 -20 -48t-50 -19q-26 0 -42 15.5t-16 40.5q0 29 20.5 47.5t49.5 18.5q26 0 42 -15t16 -40zM356 -2h-64l-208 581q-13 38 -43 47l-41 11l2 13h277 l2 -13l-77 -22l165 -485l117 368l-26 81q-12 37 -43 47l-46 11l2 13h282l2 -13l-78 -22l151 -485l154 485l-81 22l1 13h203l1 -13l-15 -5t-22.5 -8t-13.5 -7q-18 -10 -29 -28t-24 -56l-187 -535h-64l-147 441z" />
<glyph unicode="&#x1e85;" horiz-adv-x="798" d="M370 656q0 -29 -19.5 -48t-50.5 -19q-26 0 -42 15.5t-16 40.5q0 29 21 47.5t50 18.5q26 0 41.5 -15t15.5 -40zM587 656q0 -29 -19.5 -48t-50.5 -19q-26 0 -42 15.5t-16 40.5q0 29 21 47.5t50 18.5q26 0 41.5 -15t15.5 -40zM408 500h65l111 -404l109 372l-66 20l2 12h168 l1 -12q-3 -2 -24 -9.5t-24 -10.5q-21 -12 -31 -46l-135 -422h-87l-101 310l-97 -310h-86l-140 425q-15 44 -43 57l-30 6l2 12h255l1 -12l-66 -21l107 -371z" />
<glyph unicode="&#x1e92;" horiz-adv-x="581" d="M529 89q0 -45 -6 -89h-462l-10 54l344 565h-242l-75 -188h-9q-16 58 -16 135q0 42 6 84h460l10 -53l-342 -566h240l77 189h9q16 -53 16 -131zM363 -139q0 -31 -22.5 -50.5t-56.5 -19.5q-30 0 -48 16.5t-18 43.5q0 30 23 50t56 20q30 0 48 -16.5t18 -43.5z" />
<glyph unicode="&#x1e93;" horiz-adv-x="461" d="M428 76q0 -45 -5 -76h-383l-8 45l271 429h-175l-70 -158h-9q-16 48 -16 113q0 37 6 71h382l8 -45l-269 -429h172l71 159h10q15 -42 15 -109zM303 -139q0 -31 -22.5 -50.5t-56.5 -19.5q-30 0 -48 16.5t-18 43.5q0 30 23 50t56 20q30 0 48 -16.5t18 -43.5z" />
<glyph unicode="&#x1e9e;" horiz-adv-x="720" d="M387 660q63 0 119.5 -21.5t89.5 -53.5v-14l-158 -155q118 -47 187 -106.5t69 -142.5q0 -81 -60.5 -129t-159.5 -48q-52 0 -96.5 11.5t-55.5 27.5q-14 22 -14 63q0 61 23 106l11 -1q18 -105 44 -136q32 -40 82 -40q44 0 69.5 27t25.5 73q0 135 -212 222l-3 19l167 178 q-47 89 -132 89q-65 0 -105.5 -51t-40.5 -130v-436l-11 -12h-185l-2 13l46 10q18 4 22.5 11.5t4.5 27.5v355q0 104 78.5 173.5t196.5 69.5z" />
<glyph unicode="&#x1ea0;" horiz-adv-x="667" d="M301 652h64l218 -581q8 -22 17.5 -31.5t28.5 -15.5l38 -11l-2 -13h-284l-2 13l82 22l-59 166h-232l-61 -167l82 -21l-2 -13h-187l-2 13l41 10q19 6 27.5 16t17.5 35zM182 233h209l-103 291zM362 -139q0 -31 -22 -50.5t-56 -19.5q-30 0 -48.5 16.5t-18.5 43.5 q0 30 23.5 50t55.5 20q30 0 48 -16.5t18 -43.5z" />
<glyph unicode="&#x1ea1;" horiz-adv-x="519" d="M512 46q-35 -56 -99 -56q-41 0 -66 24t-28 64q-21 -38 -60 -63t-92 -25q-55 0 -91 32t-36 84q0 76 75.5 117t203.5 46v115q0 49 -16 71.5t-50 22.5q-36 0 -60.5 -27t-24.5 -66q0 -27 5 -49q-29 -13 -56 -13q-26 0 -42 12.5t-16 36.5q0 53 62 95.5t145 42.5 q176 0 176 -171q0 -39 -1.5 -116t-1.5 -108q0 -67 41 -67q15 0 28 5zM166 128q0 -35 18.5 -54t46.5 -19t52.5 16t35.5 42v130q-70 -6 -111.5 -34.5t-41.5 -80.5zM327 -139q0 -31 -22 -50.5t-56 -19.5q-30 0 -48.5 16.5t-18.5 43.5q0 30 23.5 50t55.5 20q30 0 48 -16.5 t18 -43.5z" />
<glyph unicode="&#x1eb8;" horiz-adv-x="568" d="M520 0h-472l-2 13l52 11q13 4 17 11t4 21v561l-73 20l1 13h465q5 -29 5 -72q0 -72 -15 -122h-9l-73 162q-28 1 -85 1h-91v-277l186 10l-2 -50l-184 9v-279h184l73 166h9q16 -53 16 -124q0 -38 -6 -74zM379 -139q0 -31 -22.5 -50.5t-56.5 -19.5q-30 0 -48 16.5t-18 43.5 q0 30 23 50t56 20q30 0 48 -16.5t18 -43.5z" />
<glyph unicode="&#x1eb9;" horiz-adv-x="483" d="M454 115q-53 -125 -196 -125q-98 0 -159 68t-61 183q0 124 66.5 196.5t165.5 72.5q87 0 137 -54.5t50 -143.5q0 -28 -4 -51l-7 -6h-281q6 -87 48 -132.5t109 -45.5q66 0 125 46zM164 285v-4l170 7q2 16 2 44q0 72 -16.5 109t-56.5 37q-45 0 -72 -51t-27 -142zM331 -139 q0 -31 -22 -50.5t-56 -19.5q-30 0 -48.5 16.5t-18.5 43.5q0 30 23.5 50t55.5 20q30 0 48 -16.5t18 -43.5z" />
<glyph unicode="&#x1ebc;" horiz-adv-x="568" d="M413 809q25 29 44 56l10 -3q2 -18 2 -25q-3 -41 -23 -69.5t-54 -28.5q-25 0 -59.5 10t-72 24t-48.5 17q-25 -29 -44 -56l-10 4q-3 14 -3 25q3 41 23.5 69t54.5 28q33 0 102.5 -24.5t77.5 -26.5zM520 0h-472l-2 13l52 11q13 4 17 11t4 21v561l-73 20l1 13h465q5 -29 5 -72 q0 -72 -15 -122h-9l-73 162q-28 1 -85 1h-91v-277l186 10l-2 -50l-184 9v-279h184l73 166h9q16 -53 16 -124q0 -38 -6 -74z" />
<glyph unicode="&#x1ebd;" horiz-adv-x="483" d="M356 659q25 29 44 56l10 -3q2 -9 2 -25q-3 -41 -22.5 -69.5t-53.5 -28.5q-25 0 -60 10t-72 24t-48 17q-25 -29 -44 -56l-10 4q-3 14 -3 25q3 40 23.5 68.5t53.5 28.5t103.5 -25t76.5 -26zM454 115q-53 -125 -196 -125q-98 0 -159 68t-61 183q0 124 66.5 196.5t165.5 72.5 q87 0 137 -54.5t50 -143.5q0 -28 -4 -51l-7 -6h-281q6 -87 48 -132.5t109 -45.5q66 0 125 46zM164 285v-4l170 7q2 16 2 44q0 72 -16.5 109t-56.5 37q-45 0 -72 -51t-27 -142z" />
<glyph unicode="&#x1eca;" horiz-adv-x="363" d="M317 0h-268l-2 13l51 11q13 4 17 11t4 21v561l-74 20l2 13h268l1 -13l-50 -11q-14 -4 -18 -10.5t-4 -20.5v-561l74 -21zM256 -139q0 -31 -22.5 -50.5t-56.5 -19.5q-30 0 -48 16.5t-18 43.5q0 30 23 50t56 20q30 0 48 -16.5t18 -43.5z" />
<glyph unicode="&#x1ecb;" horiz-adv-x="288" d="M218 655q0 -31 -22 -50.5t-56 -19.5q-30 0 -48.5 16.5t-18.5 43.5q0 30 23.5 50t55.5 20q30 0 48 -16.5t18 -43.5zM272 0h-247l-2 12l44 11q13 5 17 11.5t4 20.5v404l-64 10l-1 12q94 27 178 29l7 -7v-470l65 -21zM220 -139q0 -31 -22 -50.5t-56 -19.5q-30 0 -48.5 16.5 t-18.5 43.5q0 30 23.5 50t55.5 20q30 0 48 -16.5t18 -43.5z" />
<glyph unicode="&#x1ecc;" horiz-adv-x="660" d="M614 329q0 -151 -80.5 -245t-208.5 -94q-129 0 -207.5 91t-78.5 243q0 151 82 243.5t208 92.5t205.5 -90.5t79.5 -240.5zM173 324q-1 -144 40 -222.5t114 -78.5t112.5 81t40.5 225q0 143 -39 221t-113 78q-75 0 -115 -79t-40 -225zM398 -139q0 -31 -22 -50.5t-56 -19.5 q-30 0 -48.5 16.5t-18.5 43.5q0 30 23.5 50t55.5 20q30 0 48 -16.5t18 -43.5z" />
<glyph unicode="&#x1ecd;" horiz-adv-x="527" d="M490 260q0 -121 -62.5 -195.5t-166.5 -74.5q-101 0 -162 66.5t-61 182.5q0 125 64 198t167 73q100 0 160.5 -68t60.5 -182zM164 255q0 -121 24 -177t76 -56q100 0 100 226q0 119 -24 174.5t-74 55.5q-102 0 -102 -223zM336 -139q0 -31 -22.5 -50.5t-56.5 -19.5 q-30 0 -48 16.5t-18 43.5q0 30 23 50t56 20q30 0 48 -16.5t18 -43.5z" />
<glyph unicode="&#x1ee4;" horiz-adv-x="692" d="M588 223q0 -113 -62 -173t-172 -60q-105 0 -172.5 61t-67.5 174v392l-74 20l2 13h268l1 -13l-50 -11q-14 -4 -18 -10.5t-4 -20.5v-363q0 -95 42 -146.5t114 -51.5q70 0 114 50t44 143v390l-84 20l2 13h198l1 -13l-82 -20v-394zM423 -139q0 -31 -22 -50.5t-56 -19.5 q-30 0 -48.5 16.5t-18.5 43.5q0 30 23.5 50t55.5 20q30 0 48 -16.5t18 -43.5z" />
<glyph unicode="&#x1ee5;" d="M575 44q-37 -54 -101 -54q-43 0 -68 27.5t-25 71.5v6q-59 -105 -161 -105q-67 0 -103.5 40t-36.5 112v317l-64 10l-1 12q94 27 178 29l7 -7v-337q0 -95 81 -97q59 0 100 60v330l-65 10l-1 12q96 27 178 29l8 -7v-388q0 -67 40 -67q14 0 29 5zM364 -139q0 -31 -22 -50.5 t-56 -19.5q-30 0 -48.5 16.5t-18.5 43.5q0 30 23.5 50t55.5 20q30 0 48 -16.5t18 -43.5z" />
<glyph unicode="&#x1ef2;" horiz-adv-x="643" d="M436 724l-8 -9q-83 23 -137.5 58t-54.5 68q0 45 63 45q5 0 12 -0.5t10 -0.5q37 -68 115 -161zM457 0h-268l-2 13l51 11q13 4 17 11t4 21v187l-176 341q-11 19 -19 28t-23 14l-41 11l2 13h277l2 -13l-76 -22l159 -344l158 345l-74 21l2 13h192l1 -13q-21 -6 -36 -14 q-34 -20 -65 -77l-158 -303v-209l74 -21z" />
<glyph unicode="&#x1ef3;" horiz-adv-x="529" d="M368 573l-8 -9q-84 23 -138 58t-54 69q0 44 63 44q16 0 22 -1q40 -71 115 -161zM119 -195q-36 0 -58 18.5t-22 47.5q0 21 10 36q40 -14 74 -14q46 1 87.5 27.5t64.5 74.5h-53l-149 430q-15 44 -43 57l-30 6l2 12h255l1 -12l-66 -21l115 -373l117 375l-66 19l1 12h168 l2 -12l-36 -8q-17 -7 -26 -20t-18 -38l-133 -396q-74 -221 -197 -221z" />
<glyph unicode="&#x1ef8;" horiz-adv-x="643" d="M435 809q25 29 44 56l10 -3q2 -9 2 -25q-3 -41 -22.5 -69.5t-53.5 -28.5q-25 0 -60 10t-72 24t-48 17q-25 -29 -44 -56l-10 4q-3 14 -3 25q3 40 23.5 68.5t53.5 28.5t103.5 -25t76.5 -26zM457 0h-268l-2 13l51 11q13 4 17 11t4 21v187l-176 341q-11 19 -19 28t-23 14 l-41 11l2 13h277l2 -13l-76 -22l159 -344l158 345l-74 21l2 13h192l1 -13q-21 -6 -36 -14q-34 -20 -65 -77l-158 -303v-209l74 -21z" />
<glyph unicode="&#x1ef9;" horiz-adv-x="529" d="M366 659q25 29 44 56l10 -3q2 -9 2 -25q-3 -41 -22.5 -69.5t-53.5 -28.5q-25 0 -60 10t-72 24t-48 17q-25 -29 -44 -56l-10 4q-3 14 -3 25q3 40 23.5 68.5t53.5 28.5t103.5 -25t76.5 -26zM119 -195q-36 0 -58 18.5t-22 47.5q0 21 10 36q40 -14 74 -14q46 1 87.5 27.5 t64.5 74.5h-53l-149 430q-15 44 -43 57l-30 6l2 12h255l1 -12l-66 -21l115 -373l117 375l-66 19l1 12h168l2 -12l-36 -8q-17 -7 -26 -20t-18 -38l-133 -396q-74 -221 -197 -221z" />
<glyph unicode="&#x2013;" horiz-adv-x="526" d="M36 250v34h454v-34h-454z" />
<glyph unicode="&#x2014;" horiz-adv-x="804" d="M36 250v34h732v-34h-732z" />
<glyph unicode="&#x2018;" horiz-adv-x="235" d="M52 492q0 52 36 110.5t86 92.5l9 -8q-49 -69 -59 -142q22 -4 35.5 -18.5t13.5 -36.5q0 -29 -17.5 -47t-43.5 -18q-27 0 -43.5 18.5t-16.5 48.5z" />
<glyph unicode="&#x2019;" horiz-adv-x="235" d="M183 628q0 -52 -36 -110.5t-85 -92.5l-10 9q49 67 59 141q-22 4 -35 18.5t-13 36.5q0 30 17 47.5t44 17.5t43 -18.5t16 -48.5z" />
<glyph unicode="&#x201a;" horiz-adv-x="235" d="M183 44q0 -52 -36 -110.5t-85 -92.5l-10 8q49 69 59 142q-22 4 -35 18.5t-13 36.5q0 30 17 47.5t44 17.5t43 -18.5t16 -48.5z" />
<glyph unicode="&#x201c;" horiz-adv-x="398" d="M52 492q0 52 36 110.5t86 92.5l9 -8q-49 -69 -59 -142q22 -4 35.5 -18.5t13.5 -36.5q0 -29 -17.5 -47t-43.5 -18q-27 0 -43.5 18.5t-16.5 48.5zM215 492q0 52 36 110.5t85 92.5l10 -8q-49 -69 -59 -142q48 -9 48 -55q0 -30 -17 -47.5t-44 -17.5t-43 18.5t-16 48.5z" />
<glyph unicode="&#x201d;" horiz-adv-x="398" d="M346 628q0 -52 -36 -110.5t-86 -92.5l-10 9q49 67 59 141q-48 9 -48 55q0 29 17.5 47t43.5 18q27 0 43.5 -18.5t16.5 -48.5zM183 628q0 -52 -36 -110.5t-85 -92.5l-10 9q49 67 59 141q-22 4 -35 18.5t-13 36.5q0 30 17 47.5t44 17.5t43 -18.5t16 -48.5z" />
<glyph unicode="&#x201e;" horiz-adv-x="398" d="M346 44q0 -52 -36 -110.5t-86 -92.5l-10 8q49 69 59 142q-48 9 -48 55q0 29 17.5 47t43.5 18q27 0 43.5 -18.5t16.5 -48.5zM183 44q0 -52 -36 -110.5t-85 -92.5l-10 8q49 69 59 142q-22 4 -35 18.5t-13 36.5q0 30 17 47.5t44 17.5t43 -18.5t16 -48.5z" />
<glyph unicode="&#x2020;" horiz-adv-x="502" d="M259 -10h-16l-69 125l64 304l-175 -50l-3 2q-6 39 -8 118l8 6l179 -51l-60 201l2 3q48 6 136 8l6 -7l-60 -205l177 51l3 -2q7 -58 7 -118l-8 -6l-178 50l64 -304z" />
<glyph unicode="&#x2021;" horiz-adv-x="522" d="M62 253l8 5l181 -55q-41 109 -41 124q0 16 40 117l-177 -52l-3 2q-6 39 -8 123l8 6l182 -56l-68 178l2 3q47 6 146 8l6 -7l-69 -182l181 56l3 -2q7 -58 7 -123l-8 -6l-180 52q40 -101 40 -117q0 -13 -41 -124l179 55l3 -2q7 -56 7 -123l-8 -5l-181 52l67 -175l-2 -3 q-45 -6 -145 -8l-7 7l67 179l-178 -52l-3 2q-6 38 -8 123z" />
<glyph unicode="&#x2022;" horiz-adv-x="427" d="M209 164q-51 0 -83 32.5t-34 79.5q-1 55 37.5 95.5t93.5 40.5q49 0 80 -31t32 -80q2 -57 -33 -97t-93 -40z" />
<glyph unicode="&#x2026;" horiz-adv-x="574" d="M461 -10q-26 0 -42.5 16t-16.5 41q0 27 19 45.5t46 18.5q24 0 39.5 -15t15.5 -39q0 -28 -17 -47.5t-44 -19.5zM286 -10q-26 0 -42.5 16t-16.5 41q0 27 19 45.5t46 18.5q24 0 39.5 -15t15.5 -39q0 -28 -17 -47.5t-44 -19.5zM111 -10q-26 0 -42.5 16t-16.5 41q0 27 19 45.5 t46 18.5q24 0 39.5 -15t15.5 -39q0 -28 -17 -47.5t-44 -19.5z" />
<glyph unicode="&#x2030;" horiz-adv-x="1370" d="M652 660h69l-399 -670h-69zM402 475q0 -89 -49.5 -139.5t-123.5 -50.5q-75 0 -122.5 49t-47.5 137q0 87 50.5 136.5t123.5 49.5t121 -47t48 -135zM232 308q70 0 70 167q0 159 -70 159q-71 0 -73 -163q0 -163 73 -163zM916 183q0 -89 -49.5 -139.5t-123.5 -50.5 q-75 0 -122.5 49t-47.5 137q0 87 50.5 136.5t123.5 49.5t121 -47t48 -135zM1311 177q0 -88 -49.5 -139t-123.5 -51q-75 0 -122.5 49t-47.5 138q0 87 50.5 136.5t123.5 49.5t121 -47.5t48 -135.5zM746 16q70 0 70 167q0 159 -70 159q-71 0 -73 -163q0 -163 73 -163zM1141 11 q70 0 70 166q0 160 -70 160q-71 0 -73 -163q0 -163 73 -163z" />
<glyph unicode="&#x2039;" horiz-adv-x="340" d="M267 61l-12 -8q-97 111 -180 177l-3 5v33q104 92 185 184l11 -8q-36 -78 -104 -195q51 -74 103 -188z" />
<glyph unicode="&#x203a;" horiz-adv-x="340" d="M268 240q-97 -86 -184 -183l-12 7q36 78 104 195q-53 77 -102 188l11 8q101 -115 181 -176l2 -5v-34z" />
<glyph unicode="&#x2044;" horiz-adv-x="248" d="M290 660h68l-399 -670h-69z" />
<glyph unicode="&#x2070;" horiz-adv-x="431" d="M387 555q0 -89 -49.5 -139.5t-123.5 -50.5q-75 0 -122.5 49t-47.5 137q0 87 50.5 136.5t123.5 49.5t121 -47t48 -135zM217 388q70 0 70 167q0 159 -70 159q-71 0 -73 -163q0 -163 73 -163z" />
<glyph unicode="&#x2071;" horiz-adv-x="231" d="M112 790q-24 0 -39 12.5t-15 33.5q0 22 19 37.5t46 15.5q24 0 39 -12.5t15 -33.5q0 -23 -18 -38t-47 -15zM215 372h-191l-1 9l32 8q17 6 17 23v288l-49 8v8q72 19 139 21l5 -5v-336l49 -15z" />
<glyph unicode="&#x2074;" horiz-adv-x="407" d="M44 485l208 252l54 -5v-246h57l-4 -34h-53v-80h-93v80h-162zM77 486h136v173z" />
<glyph unicode="&#x2075;" horiz-adv-x="372" d="M328 464q0 -46 -44.5 -72.5t-112.5 -26.5q-55 0 -91 17t-36 44q0 18 18 30.5t45 15.5l4 -1q-3 -7 -3 -14q0 -31 15.5 -50t42.5 -19q29 0 46 17.5t17 46.5q0 96 -155 98l-7 5l4 175h240q0 -56 -13 -108h-7q-4 32 -10.5 41t-27.5 9h-144l-2 -105q20 2 34 2q85 0 136 -28 t51 -77z" />
<glyph unicode="&#x2076;" horiz-adv-x="413" d="M369 484q0 -53 -44 -86t-117 -33q-75 0 -119.5 39.5t-44.5 106.5q0 96 77 157.5t206 68.5l2 -9q-150 -42 -178 -168q40 27 94 27q56 0 90 -27t34 -76zM144 499q0 -52 17.5 -81.5t49.5 -29.5q29 0 46 22.5t17 58.5q0 42 -18 65t-50 23q-35 0 -60 -20q-2 -24 -2 -38z" />
<glyph unicode="&#x2077;" horiz-adv-x="358" d="M208 372h-93q3 86 50 163.5t120 136.5h-193q-18 0 -25 -9.5t-12 -42.5h-8q-2 61 9 110h252l6 -56q-48 -48 -77 -129.5t-29 -172.5z" />
<glyph unicode="&#x2078;" horiz-adv-x="397" d="M353 462q0 -42 -44 -69.5t-116 -27.5q-63 0 -106 24t-43 62q0 31 27.5 54.5t75.5 35.5q-40 21 -62 43t-22 57q0 41 41 68.5t105 27.5q58 0 93 -23t35 -60q0 -56 -86 -85q25 -12 38.5 -20t30.5 -21.5t25 -29.5t8 -36zM156 663q0 -45 69 -81q40 36 40 78q0 24 -14.5 39 t-38.5 15q-25 0 -40.5 -14.5t-15.5 -36.5zM131 448q0 -28 17 -44t47 -16q27 0 44.5 13.5t17.5 35.5q0 30 -21 49t-62 41q-43 -36 -43 -79z" />
<glyph unicode="&#x2079;" horiz-adv-x="413" d="M44 618q0 53 44.5 86t116.5 33q75 0 119.5 -39t44.5 -107q0 -96 -76.5 -157.5t-205.5 -68.5l-2 9q149 42 177 168q-40 -27 -94 -27q-55 0 -89.5 27.5t-34.5 75.5zM139 634q0 -43 18 -66t51 -23q34 0 59 20q2 24 2 39q0 52 -17 81t-50 29q-29 0 -46 -22.5t-17 -57.5z" />
<glyph unicode="&#x207f;" horiz-adv-x="462" d="M215 372h-191l-1 9l32 8q17 6 17 23v288l-49 8v8q72 19 139 21l5 -5v-72q48 77 129 77q50 0 76 -28t26 -79v-234l49 -15l-1 -9h-192l-1 9l33 8q16 6 16 23v199q0 67 -60 67q-47 0 -75 -41v-241l49 -15z" />
<glyph unicode="&#x2080;" horiz-adv-x="431" d="M387 83q0 -89 -49.5 -139.5t-123.5 -50.5q-75 0 -122.5 48.5t-47.5 137.5q0 87 50.5 136.5t123.5 49.5t121 -47t48 -135zM217 -84q70 0 70 167q0 159 -70 159q-71 0 -73 -163q0 -163 73 -163z" />
<glyph unicode="&#x2081;" horiz-adv-x="289" d="M245 -100h-200l-1 8l42 8q9 2 11.5 5.5t2.5 11.5v292l-55 3v8l143 29l5 -4v-341l52 -12v-8z" />
<glyph unicode="&#x2082;" horiz-adv-x="365" d="M57 -100l-7 47q84 62 123.5 105.5t39.5 89.5q0 30 -18.5 48.5t-51.5 18.5q-62 0 -91 -62l-8 2q12 52 53 84t97 32q55 0 87 -28t32 -73q0 -50 -46 -91t-141 -99q-18 -10 -27 -16h164q21 0 31 10.5t19 41.5l8 -1q-2 -65 -15 -109h-249z" />
<glyph unicode="&#x2083;" horiz-adv-x="376" d="M332 -9q0 -43 -46 -70.5t-111 -27.5q-55 0 -93 15.5t-38 44.5q0 17 18 28.5t45 15.5l4 -1q-3 -9 -3 -12q0 -32 15.5 -50t44.5 -18t46.5 17.5t17.5 49.5q0 37 -27 57.5t-67 20.5q-8 0 -24 -2l-4 13q110 17 110 82q0 24 -18 39t-46 15t-53 -16t-38 -43l-7 2q11 52 52.5 83 t96.5 31q50 0 81.5 -23.5t30.5 -61.5q1 -41 -33.5 -65.5t-89.5 -34.5q60 -3 98 -26.5t38 -62.5z" />
<glyph unicode="&#x2084;" horiz-adv-x="407" d="M44 13l208 252l54 -5v-246h57l-4 -34h-53v-80h-93v80h-162zM77 14h136v173z" />
<glyph unicode="&#x2085;" horiz-adv-x="372" d="M328 -8q0 -46 -44.5 -72.5t-112.5 -26.5q-55 0 -91 17t-36 44q0 18 18 30.5t45 15.5l4 -2q-3 -6 -3 -13q0 -32 15.5 -50.5t42.5 -18.5q29 0 46 17.5t17 46.5q0 96 -155 98l-7 5l4 175h240q0 -56 -13 -108h-7q-4 32 -10.5 41t-27.5 9h-144l-2 -105q20 2 34 2q85 0 136 -28 t51 -77z" />
<glyph unicode="&#x2086;" horiz-adv-x="413" d="M369 12q0 -53 -44 -86t-117 -33q-75 0 -119.5 39t-44.5 107q0 96 77 157.5t206 68.5l2 -9q-150 -42 -178 -168q40 27 94 27q56 0 90 -27t34 -76zM144 27q0 -52 17 -81.5t50 -29.5q29 0 46 22.5t17 57.5q0 43 -18 66t-50 23q-35 0 -60 -20q-2 -24 -2 -38z" />
<glyph unicode="&#x2087;" horiz-adv-x="358" d="M208 -100h-93q3 86 50 163.5t120 136.5h-193q-18 0 -25 -9.5t-12 -42.5h-8q-2 61 9 110h252l6 -56q-48 -48 -77 -129.5t-29 -172.5z" />
<glyph unicode="&#x2088;" horiz-adv-x="397" d="M353 -10q0 -42 -44 -69.5t-116 -27.5q-63 0 -106 23.5t-43 62.5q0 31 27.5 54.5t75.5 35.5q-40 21 -62 43t-22 57q0 41 41 68.5t105 27.5q58 0 93 -23t35 -60q0 -56 -86 -85q25 -12 38.5 -20t30.5 -21.5t25 -29.5t8 -36zM156 191q0 -45 69 -81q40 36 40 78q0 24 -14.5 39 t-38.5 15q-25 0 -40.5 -14.5t-15.5 -36.5zM131 -24q0 -28 17 -44t47 -16q27 0 44.5 13.5t17.5 35.5q0 30 -21 49t-62 41q-43 -36 -43 -79z" />
<glyph unicode="&#x2089;" horiz-adv-x="413" d="M44 146q0 53 44.5 86t116.5 33q75 0 119.5 -39t44.5 -107q0 -96 -76.5 -157.5t-205.5 -68.5l-2 9q149 42 177 168q-40 -27 -94 -27q-55 0 -89.5 27.5t-34.5 75.5zM139 162q0 -43 18 -66t51 -23q34 0 59 20q2 24 2 39q0 52 -17 81t-50 29q-29 0 -46 -22.5t-17 -57.5z" />
<glyph unicode="&#x2090;" horiz-adv-x="412" d="M405 -66q-29 -41 -78 -41q-31 0 -51 17t-22 45q-39 -62 -116 -62q-43 0 -70.5 22.5t-27.5 60.5q0 55 58 84t156 32v84q0 66 -49 66q-28 0 -46 -18.5t-18 -47.5q0 -10 4 -36q-23 -9 -44 -9q-46 0 -46 35q0 38 48 68.5t112 30.5q137 0 137 -123q0 -12 -1 -83t-1 -76 q0 -48 30 -48q8 0 22 4zM140 -8q0 -25 14 -38.5t35 -13.5t39 11t26 29v94q-52 -4 -83 -24.5t-31 -57.5z" />
<glyph unicode="&#x2091;" horiz-adv-x="387" d="M360 -16q-41 -91 -153 -91q-75 0 -122 48.5t-47 131.5q0 88 51.5 140t127.5 52q67 0 106 -39t39 -103q0 -19 -3 -36l-6 -5h-215q6 -62 38 -93.5t83 -31.5t95 33zM138 106v-5l127 6q1 10 1 31q0 104 -54 104q-34 0 -54 -36t-20 -100z" />
<glyph unicode="&#x2092;" horiz-adv-x="424" d="M387 86q0 -87 -48 -140t-129 -53q-78 0 -125 47.5t-47 130.5q0 90 49 142t130 52q76 0 123 -48.5t47 -130.5zM138 83q0 -88 18 -127.5t57 -39.5q74 0 74 161q0 165 -73 165q-76 0 -76 -159z" />
<glyph unicode="&#x2093;" horiz-adv-x="417" d="M62 209q-22 29 -44 38l-18 3l2 8h199l1 -8l-50 -13l89 -126l67 127l-49 12l1 8h156l1 -8q0 -1 -6.5 -3.5t-14 -5t-9.5 -4.5q-15 -6 -37 -31q-5 -5 -42 -47.5t-56 -63.5l104 -148q19 -26 38 -35l23 -4l-1 -8h-199l-2 8l50 13l-89 126l-66 -127l49 -12l-2 -8h-155l-2 8 q1 1 15.5 6t16.5 8q16 7 35 30q5 5 21.5 23.5t39 45t37.5 42.5z" />
<glyph unicode="&#x2095;" horiz-adv-x="453" d="M208 -92l-1 -8h-191l-1 8l32 8q17 7 17 24v420l-49 8v8q68 20 139 22l5 -5v-205q50 77 129 77q49 0 75 -28t26 -79v-218h-95v199q0 67 -61 67q-46 0 -74 -41v-242zM438 -95l-78 -5l-114 3l25 10q13 3 13 10q2 1 7 3t8.5 3.5t6 4.5t2.5 6l81 -6l32 -17z" />
<glyph unicode="&#x2096;" horiz-adv-x="440" d="M207 -100h-191l-1 8l32 8q17 7 17 24v420l-49 8v8q68 20 139 22l5 -5v-294h60l85 139l-49 12l1 8h172l1 -8l-38 -13q-33 -14 -67 -46l-41 -47l97 -185q19 -33 46 -47l14 -3l-2 -9h-90q-23 0 -36 10.5t-26 35.5l-69 131h-58v-154l49 -15z" />
<glyph unicode="&#x2097;" horiz-adv-x="223" d="M207 -100h-191l-1 8l32 8q17 7 17 24v420l-49 8v8q68 20 139 22l5 -5v-470l49 -15z" />
<glyph unicode="&#x2098;" horiz-adv-x="679" d="M215 -100h-191l-1 8l32 8q17 7 17 24v288l-49 8v8q72 19 139 21l5 -5v-69q46 74 125 74q83 0 96 -79q46 79 129 79q48 0 73 -28t25 -79v-235l49 -15l-1 -8h-192l-1 8l33 8q16 7 16 24v199q0 67 -57 67q-20 0 -40.5 -11t-31.5 -28q0 -1 0.5 -4t0.5 -5v-235l49 -15l-1 -8 h-191l-2 8l33 8q17 7 17 24v199q0 67 -58 67q-20 0 -40.5 -11t-30.5 -27v-245l49 -15z" />
<glyph unicode="&#x2099;" horiz-adv-x="462" d="M215 -100h-191l-1 8l32 8q17 7 17 24v288l-49 8v8q72 19 139 21l5 -5v-72q48 77 129 77q50 0 76 -28t26 -79v-235l49 -15l-1 -8h-192l-1 8l33 8q16 7 16 24v199q0 67 -60 67q-47 0 -75 -41v-242l49 -15z" />
<glyph unicode="&#x209a;" horiz-adv-x="442" d="M222 -234h-206l-1 9l32 7q17 6 17 23v425l-49 8v9q68 20 139 22l5 -6v-65q42 67 116 67q61 0 95 -47t34 -133q0 -94 -48 -143t-123 -49q-37 0 -74 8v-112l65 -14zM227 210q-47 0 -68 -43v-230q30 -14 59 -14q43 0 65 41.5t21 109.5q0 136 -77 136z" />
<glyph unicode="&#x209b;" horiz-adv-x="360" d="M161 -107q-82 0 -109 18q-14 9 -14 39q0 44 30 70l8 -2q12 -56 26 -78q16 -24 62 -24q29 0 46 14t17 37t-18.5 41t-45 32t-53.5 28.5t-45.5 38.5t-18.5 56q0 48 43 75t111 27q81 0 105 -24q12 -10 12 -34q0 -37 -34 -67l-9 3q-12 57 -23 75q-14 24 -53 24 q-28 0 -44.5 -13t-16.5 -37q0 -27 29 -50.5t63.5 -38.5t63.5 -43t29 -65q0 -50 -44 -76t-117 -26z" />
<glyph unicode="&#x209c;" horiz-adv-x="288" d="M259 241v-21h-109v-189q0 -74 57 -74q35 0 70 30l6 -6q-41 -88 -127 -88q-102 0 -102 115v212h-54l-1 9l52 17l91 105l8 -1v-109h109z" />
<glyph unicode="&#x20ac;" horiz-adv-x="648" d="M474 259h-211q16 -90 66 -138t127 -48q76 0 135 44l8 -7q-23 -55 -74.5 -87.5t-126.5 -32.5q-115 0 -187 70t-85 199h-73l4 34h66v21q0 14 2 40h-63l4 34h63q21 122 103 197t190 75q74 0 123 -32t49 -77q0 -21 -15.5 -33.5t-40.5 -12.5q-9 0 -27 2q-15 116 -95 116 q-63 0 -106 -64t-52 -171h228l-4 -34h-225q0 -9 -1 -13q3 -46 3 -48h219z" />
<glyph unicode="&#x2122;" horiz-adv-x="739" d="M330 650h117l54 -160l56 160h115v-11l-32 -7l16 -209l30 -8v-12h-132l-1 12l35 8l-17 193l-73 -210h-33l-75 210l-16 -193l36 -8v-12h-97v12l35 8l15 209l-34 7zM203 423l36 -8v-12h-134l-1 12l35 8v203h-53l-19 -64h-13v88h235v-88h-13l-16 64h-57v-203z" />
<glyph unicode="&#x2212;" horiz-adv-x="569" d="M485 284h-407v78q123 4 408 4l6 -6z" />
<glyph unicode="&#x221e;" horiz-adv-x="853" d="M773 297q0 -79 -47.5 -131t-122.5 -52q-57 0 -98.5 30.5t-77.5 82.5q-70 -113 -183 -113q-72 0 -118 51t-46 130t47.5 130.5t123.5 51.5q58 0 99 -31t78 -85q72 116 183 116q74 0 118 -50.5t44 -129.5zM594 405q-69 0 -129 -99q38 -60 68 -89t67 -29q38 0 63 29t25 79 t-26 79.5t-68 29.5zM165 297q0 -50 27 -80t71 -31q68 0 127 97q-37 59 -68 89.5t-68 30.5q-38 0 -63.5 -28.5t-25.5 -77.5z" />
<glyph unicode="&#x2248;" horiz-adv-x="583" d="M169 421q-13 0 -60 -58l-43 21q17 34 29.5 55.5t34.5 43.5t43 22q26 0 124.5 -26t116.5 -26q13 0 61 57l42 -21q-58 -121 -106 -121q-26 0 -126 26.5t-116 26.5zM169 197q-13 0 -60 -58l-43 21q17 34 29.5 55.5t34.5 43.5t43 22q26 0 124.5 -26t116.5 -26q13 0 61 57 l42 -21q-58 -121 -106 -121q-26 0 -126 26.5t-116 26.5z" />
<glyph unicode="&#x2260;" horiz-adv-x="569" d="M172 70l-44 26l46 84h-96v78q18 1 66.5 1.5t72.5 0.5l69 128h-208l-1 78q168 3 253 3l59 110l8 3l44 -26l-47 -86h92l6 -6l-7 -76h-135l-69 -127q79 1 205 1l6 -6l-7 -76h-247l-58 -107z" />
<glyph unicode="&#x2264;" horiz-adv-x="562" d="M479 576v-88l-293 -87l293 -88v-91q-42 11 -405 142l-1 14v57q27 11 215.5 75.5t190.5 65.5zM475 76h-407v77q153 5 408 5l6 -7z" />
<glyph unicode="&#x2265;" horiz-adv-x="562" d="M80 222v88l294 89l-293 86v91q212 -64 404 -140l2 -5l1 -66zM487 76h-407v77q155 5 408 5l6 -7z" />
<glyph unicode="&#x25fc;" horiz-adv-x="500" d="M0 500h500v-500h-500v500z" />
<glyph unicode="&#x2c7c;" horiz-adv-x="219" d="M102 318q-25 0 -40 12.5t-15 33.5q0 23 19 38t46 15q24 0 39 -12.5t15 -32.5q0 -24 -18 -39t-46 -15zM62 228h1l-49 8l-1 8q74 19 139 21l6 -5v-314q0 -76 -32.5 -120.5t-112.5 -65.5l-6 8q29 37 42 79t13 109v272z" />
<glyph unicode="&#xfb01;" horiz-adv-x="588" d="M285 0h-257l-2 12l44 11q13 5 17 11.5t4 20.5v394h-70l-2 12l72 18q5 95 64 155.5t158 60.5q73 0 118.5 -28.5t45.5 -66.5q0 -43 -65 -43q-15 0 -30 3q-2 48 -22 75.5t-58 27.5q-65 0 -82 -62q-9 -32 -9 -123h176q51 23 113 27l8 -7v-465l65 -21l-2 -12h-247l-1 12l43 11 q13 5 17.5 11.5t4.5 20.5v394h-177v-416l75 -21z" />
<glyph unicode="&#xfb02;" horiz-adv-x="585" d="M282 0h-257l-2 12l44 11q13 5 17 11.5t4 20.5v394h-70l-2 12l72 19v-1q5 95 63 155.5t157 60.5q63 0 112 -32q50 15 77 16l8 -7v-639l65 -21l-2 -12h-247l-1 12l43 11q13 5 17.5 11.5t4.5 20.5v394h-177v-416l75 -21zM203 535q0 -8 2 -25.5t3 -31.5h177v82q0 47 -22 75 t-62 28q-46 0 -72 -32.5t-26 -95.5z" />
<glyph unicode="&#xfb06;" horiz-adv-x="812" d="M291 460v12q-19 8 -42 8q-39 0 -62.5 -19t-23.5 -52t25 -59.5t60.5 -46.5t71 -41.5t60.5 -54t25 -74.5q0 -70 -57 -106.5t-150 -36.5q-105 0 -142 25q-18 14 -18 56q0 27 11.5 54t26.5 42l10 -3q15 -81 33 -108q21 -34 82 -34q39 0 61.5 19.5t22.5 52.5t-24.5 58.5 t-59 44.5t-69 40t-59 55t-24.5 78q0 65 55.5 102.5t140.5 37.5q27 0 47 -4q9 85 67 137t144 52q68 0 108.5 -34t40.5 -92q0 -56 -44 -88h168v-33h-145v-267q0 -104 75 -104q46 0 93 42l8 -7q-23 -52 -64.5 -87t-99.5 -35q-64 0 -98 40.5t-34 119.5v298h-61l-2 12 q91 31 91 112q0 37 -21 58.5t-56 21.5q-53 0 -94 -41.5t-50 -110.5q38 -11 60 -34t22 -51q0 -18 -12 -29t-31 -11q-27 0 -45.5 24t-20.5 61z" />
<glyph horiz-adv-x="1048" d="M731 0h-247l-1 12l43 11q13 5 17.5 11.5t4.5 20.5v595q-76 -15 -127.5 -54t-70.5 -96q43 -13 68.5 -39.5t25.5 -60.5q0 -26 -15 -41.5t-40 -15.5q-33 0 -53.5 28t-20.5 75q0 16 1 24q-14 10 -36 10q-53 0 -84.5 -52t-31.5 -140q0 -103 42.5 -157t115.5 -54q64 0 125 46 l7 -8q-22 -55 -69.5 -90t-122.5 -35q-100 0 -162 68.5t-62 185.5q0 120 69 193t173 73q26 0 43 -4q24 86 112 137.5t215 51.5h10l8 -7v-285q28 47 71 77t96 30q65 0 99 -39.5t34 -110.5v-327l65 -21l-1 -12h-247l-2 12l44 11q13 5 17 11.5t4 20.5v280q0 96 -81 96 q-27 0 -55 -17t-44 -44v-337l65 -21z" />
<glyph horiz-adv-x="846" d="M492 652q-53 0 -94.5 -41t-53.5 -109q45 -12 72.5 -39.5t27.5 -62.5q0 -26 -15 -41.5t-40 -15.5q-32 0 -52 27t-22 74q-1 14 0 27q-15 9 -35 9q-53 0 -84.5 -51.5t-31.5 -140.5q0 -103 42.5 -157t115.5 -54q64 0 125 46l7 -8q-22 -55 -69.5 -90t-122.5 -35 q-100 0 -162 68.5t-62 185.5q0 120 69 193t173 73q20 0 38 -3q14 86 72 137t143 51q71 0 112 -34.5t41 -91.5q-1 -53 -40 -88h164v-33h-145v-267q0 -104 75 -104q46 0 93 42l8 -7q-23 -52 -64.5 -87t-99.5 -35q-64 0 -98 40.5t-34 119.5v298h-61l-2 12q43 15 67 44t24 66 t-21.5 59.5t-59.5 22.5z" />
<glyph horiz-adv-x="1008" d="M357 375q-27 0 -46.5 23t-19.5 57v13q-17 12 -44 12q-38 0 -61 -19.5t-23 -53.5q0 -32 25 -58.5t60.5 -46.5t71 -41.5t60.5 -54t25 -73.5q0 -70 -57 -106.5t-150 -36.5q-105 0 -142 25q-18 14 -18 56q0 27 11.5 54t26.5 42l10 -3q15 -81 33 -108q21 -34 82 -34 q39 0 61.5 19.5t22.5 52.5t-24.5 58.5t-59 44.5t-69 40t-59 55t-24.5 78q0 65 56 102.5t140 37.5q25 0 52 -5q22 84 108.5 137t204.5 53h10l8 -7v-285q28 47 71 77t96 30q65 0 99 -39.5t34 -110.5v-327l65 -21l-1 -12h-247l-2 12l44 11q13 5 17 11.5t4 20.5v280q0 96 -81 96 q-27 0 -55 -17t-44 -44v-337l65 -21l-2 -12h-247l-1 12l43 11q13 5 17.5 11.5t4.5 20.5v594q-70 -16 -118.5 -55t-66.5 -95q77 -26 77 -84q0 -18 -12 -29t-31 -11z" />
<glyph horiz-adv-x="412" d="M405 406q-30 -41 -78 -41q-31 0 -51 17t-22 45q-39 -62 -116 -62q-43 0 -70.5 22.5t-27.5 60.5q0 55 58 84t156 32v84q0 66 -49 66q-28 0 -46 -18.5t-18 -47.5q0 -10 4 -36q-23 -9 -44 -9q-46 0 -46 35q0 38 48 68.5t112 30.5q137 0 137 -123q0 -11 -1 -82t-1 -77 q0 -47 30 -47q12 0 22 3zM140 464q0 -24 14 -37.5t35 -13.5q46 0 65 39v94q-52 -4 -83 -24.5t-31 -57.5z" />
<glyph horiz-adv-x="433" d="M396 553q0 -93 -48 -140.5t-124 -47.5q-49 0 -99 15l-64 -15l-5 4v463l-48 8l-1 8q70 20 139 22l6 -5v-194q43 66 115 66q60 0 94.5 -49t34.5 -135zM218 682q-46 0 -66 -42v-231q26 -13 57 -13q43 0 65 39.5t22 107.5q-2 139 -78 139z" />
<glyph horiz-adv-x="373" d="M38 546q0 87 51 139t128 52q63 0 100 -30.5t37 -74.5q0 -19 -13 -29.5t-33 -10.5q-21 0 -37 9q1 2 1 7q0 106 -56 106q-35 0 -56.5 -37t-21.5 -101q0 -71 32.5 -108.5t88.5 -37.5q50 0 95 32l6 -6q-40 -91 -149 -91q-77 0 -125 49t-48 132z" />
<glyph horiz-adv-x="441" d="M38 539q0 96 52 147t134 51q30 0 59 -6v101l-49 8l-1 8q70 20 140 22l5 -5v-410q0 -47 30 -47q12 0 22 3l3 -5q-29 -41 -79 -41q-31 0 -50 17t-21 46q-37 -63 -111 -63q-61 0 -97.5 46t-36.5 128zM138 553q0 -67 21.5 -103.5t59.5 -36.5q19 0 38 11.5t26 27.5v242 q-20 13 -46 13q-47 0 -73 -42t-26 -112z" />
<glyph horiz-adv-x="387" d="M360 456q-41 -91 -153 -91q-75 0 -122 49t-47 131q0 88 51.5 140t127.5 52q67 0 106 -39t39 -103q0 -19 -3 -36l-6 -5h-215q6 -62 37.5 -93t83.5 -31q50 0 95 32zM138 578v-5l127 6q1 10 1 31q0 104 -54 104q-34 0 -54 -36t-20 -100z" />
<glyph horiz-adv-x="271" d="M229 372h-207l-1 9l32 8q17 6 17 23v272h-54l-1 9l55 14v-1q2 72 44 118t113 46q45 0 75 -21.5t30 -49.5q0 -32 -48 -32q-13 0 -20 2q-2 78 -47 78q-56 0 -56 -83q0 -8 2 -27t2 -32h110v-21h-110v-288l64 -15v-9z" />
<glyph horiz-adv-x="377" d="M371 351q0 -53 -51.5 -86t-145.5 -33q-70 0 -119 19.5t-49 55.5q0 27 29 44.5t69 19.5l-2 2q-40 16 -40 55q-1 23 17 41t46 25q-45 12 -70.5 41t-25.5 73q0 57 46 92t115 35q109 0 178 11q8 -14 8 -27q0 -25 -31 -25q-5 0 -79 12l-1 -2q29 -13 48 -38t19 -57 q0 -56 -42.5 -88t-110.5 -32q-24 0 -34 2q-13 -13 -13 -23q0 -23 42 -25l70 -4q127 -8 127 -88zM121 608q0 -96 60 -96t60 100q0 95 -57 95q-30 0 -46.5 -27.5t-16.5 -71.5zM86 315q0 -28 26.5 -43.5t74.5 -15.5q47 0 77.5 17t30.5 42q0 36 -70 41l-60 3q-18 0 -36 2 q-43 -17 -43 -46z" />
<glyph horiz-adv-x="453" d="M208 381l-1 -9h-191l-1 9l32 8q17 6 17 23v420l-49 8v8q68 20 139 22l5 -5v-205q50 77 129 77q49 0 75 -28t26 -79v-218h-95v199q0 67 -61 67q-46 0 -74 -41v-241zM438 377l-78 -5l-114 4l25 9q13 3 13 11q1 1 9 3.5t11.5 5.5t3.5 7l81 -5l32 -17z" />
<glyph horiz-adv-x="219" d="M102 790q-25 0 -40 12.5t-15 33.5q0 23 19 38t46 15q24 0 39 -12.5t15 -32.5q0 -24 -18 -39t-46 -15zM62 700h1l-49 8l-1 8q74 19 139 21l6 -5v-314q0 -76 -32.5 -120.5t-112.5 -65.5l-6 8q29 38 42 80t13 109v271z" />
<glyph horiz-adv-x="440" d="M207 372h-191l-1 9l32 8q17 6 17 23v420l-49 8v8q68 20 139 22l5 -5v-294h60l85 139l-49 12l1 8h172l1 -8l-38 -13q-33 -14 -67 -46l-41 -47l97 -185q19 -32 46 -47l14 -3l-2 -9h-90q-23 0 -36 10.5t-26 36.5l-69 130h-58v-153l49 -15z" />
<glyph horiz-adv-x="223" d="M207 372h-191l-1 9l32 8q17 6 17 23v420l-49 8v8q68 20 139 22l5 -5v-469l49 -15z" />
<glyph horiz-adv-x="679" d="M215 372h-191l-1 9l32 8q17 6 17 23v288l-49 8v8q72 19 139 21l5 -5v-69q46 74 125 74q83 0 96 -79q46 79 129 79q48 0 73 -28t25 -79v-234l49 -15l-1 -9h-192l-1 9l33 8q16 6 16 23v199q0 67 -57 67q-20 0 -40.5 -11t-31.5 -28q0 -1 0.5 -4t0.5 -5v-234l49 -15l-1 -9 h-191l-2 9l33 8q17 6 17 23v199q0 67 -58 67q-20 0 -40.5 -11t-30.5 -27v-244l49 -15z" />
<glyph horiz-adv-x="424" d="M387 558q0 -87 -48 -140t-129 -53q-78 0 -125 47.5t-47 130.5q0 90 49 142t130 52q76 0 123 -48.5t47 -130.5zM138 555q0 -87 18 -127t57 -40q74 0 74 161q0 165 -73 165q-76 0 -76 -159z" />
<glyph horiz-adv-x="442" d="M222 238h-206l-1 9l32 8q17 6 17 23v424l-49 8v9q68 20 139 22l5 -6v-65q42 67 116 67q61 0 95 -47t34 -133q0 -93 -48 -142.5t-123 -49.5q-37 0 -74 8v-111l65 -15zM227 682q-47 0 -68 -43v-230q27 -13 59 -13q43 0 65 41.5t21 108.5q0 136 -77 136z" />
<glyph horiz-adv-x="434" d="M426 240h-191l-1 9l32 7q17 6 17 23v148q-39 -62 -111 -62q-61 0 -97.5 46t-36.5 128q0 96 52 147t134 51q48 0 88 -14l62 14l4 -4v-470l49 -14zM138 553q0 -67 21.5 -103.5t59.5 -36.5q19 0 38 11.5t26 27.5v242q-20 13 -46 13q-47 0 -73 -42t-26 -112z" />
<glyph horiz-adv-x="332" d="M231 372h-207l-1 9l32 8q17 6 17 23v288l-49 8v8q72 19 139 21l5 -5v-93q39 98 99 98q26 0 40.5 -15.5t14.5 -41.5q0 -34 -19 -53l-4 -1q-19 24 -55 25q-42 0 -76 -34v-221l64 -15v-9z" />
<glyph horiz-adv-x="360" d="M161 365q-82 0 -109 18q-14 9 -14 40q0 43 30 69l8 -2q12 -57 26 -77q17 -25 62 -25q29 0 46 14t17 37t-18.5 41t-45 32t-53.5 28.5t-45.5 39t-18.5 55.5q0 48 43 75t111 27q81 0 105 -24q12 -10 12 -34q0 -37 -34 -67l-9 3q-12 57 -23 75q-14 24 -53 24q-28 0 -44.5 -13 t-16.5 -37q0 -23 19 -41.5t46.5 -32.5t54.5 -29.5t46 -39t19 -53.5q0 -51 -44 -77t-117 -26z" />
<glyph horiz-adv-x="288" d="M259 713v-21h-109v-189q0 -73 57 -73q34 0 70 29l6 -5q-42 -89 -127 -89q-49 0 -75.5 29t-26.5 86v212h-54l-1 9l52 17l91 105l8 -1v-109h109z" />
<glyph horiz-adv-x="460" d="M446 405q-28 -40 -79 -40q-33 0 -53 20t-20 51v5q-43 -76 -123 -76q-51 0 -79 29t-28 80v226l-49 8v8q71 19 139 21l5 -5v-241q0 -67 61 -67q48 0 74 41v235l-48 8l-1 8q72 19 139 21l5 -5v-277q0 -47 32 -47q12 0 21 3z" />
<glyph horiz-adv-x="405" d="M236 372h-68l-113 303q-11 32 -33 42l-22 5l2 8h197l1 -8l-50 -16l87 -265l88 266l-49 15l1 8h127l1 -8q-2 -2 -17.5 -7.5t-16.5 -6.5q-15 -7 -26 -35z" />
<glyph horiz-adv-x="613" d="M313 730h52l85 -288l82 265l-49 15l1 8h127l2 -8q-3 -2 -18.5 -7.5t-17.5 -7.5q-17 -10 -24 -34l-104 -301h-69l-76 218l-73 -218h-69l-107 303q-11 32 -33 42l-22 5l2 8h197l1 -8l-50 -16l81 -264z" />
<glyph horiz-adv-x="417" d="M62 681q-22 29 -44 38l-18 3l2 8h199l1 -8l-50 -13l89 -126l67 127l-49 12l1 8h156l1 -8q0 -1 -6.5 -3.5t-14 -5t-9.5 -4.5q-15 -6 -37 -31q-5 -5 -42 -47.5t-56 -63.5l104 -147q19 -26 38 -35l23 -4l-1 -9h-199l-2 9l50 12l-89 126l-66 -127l49 -11l-2 -9h-155l-2 9 q1 1 15.5 6t16.5 7q17 9 35 30q5 5 21.5 23.5t39 45t37.5 42.5z" />
<glyph horiz-adv-x="405" d="M92 232q-28 0 -45 13.5t-17 35.5q0 17 8 27q26 -10 57 -10q36 0 68 18.5t49 52.5h-43l-114 306q-11 32 -33 42l-22 5l2 8h197l1 -8l-50 -16l87 -265l88 266l-49 15l1 8h127l1 -8l-25 -6q-21 -8 -35 -43l-101 -281q-58 -160 -152 -160z" />
<glyph horiz-adv-x="371" d="M338 427q0 -31 -4 -55h-295l-7 34l207 305h-131l-55 -114h-8q-12 38 -12 82q0 28 4 51h296l6 -33l-206 -306h129l57 114h7q12 -28 12 -78z" />
<glyph horiz-adv-x="433" d="M396 81q0 -93 -48 -140.5t-124 -47.5q-49 0 -99 15l-64 -15l-5 3v464l-48 8l-1 8q70 20 139 22l6 -5v-194q43 66 115 66q60 0 94.5 -49t34.5 -135zM218 210q-46 0 -66 -42v-231q28 -14 57 -14q44 0 65.5 39.5t21.5 108.5q-2 139 -78 139z" />
<glyph horiz-adv-x="373" d="M38 74q0 87 51 139t128 52q63 0 100 -30.5t37 -74.5q0 -19 -13 -29.5t-33 -10.5q-21 0 -37 9q1 2 1 7q0 106 -56 106q-35 0 -56.5 -37t-21.5 -101q0 -71 32.5 -109t88.5 -38q50 0 95 33l6 -6q-40 -91 -149 -91q-78 0 -125.5 48.5t-47.5 132.5z" />
<glyph horiz-adv-x="441" d="M38 67q0 96 52 147t134 51q30 0 59 -6v101l-49 8l-1 8q70 20 140 22l5 -5v-410q0 -48 30 -48q8 0 22 4l3 -5q-29 -41 -79 -41q-31 0 -50 17t-21 46q-37 -63 -111 -63q-61 0 -97.5 46t-36.5 128zM138 81q0 -67 21.5 -104t59.5 -37q19 0 38 11.5t26 28.5v242q-20 13 -46 13 q-47 0 -73 -42t-26 -112z" />
<glyph horiz-adv-x="271" d="M229 -100h-207l-1 8l32 8q17 7 17 24v272h-54l-1 9l55 14v-1q2 72 44 118t113 46q45 0 75 -21.5t30 -49.5q0 -32 -48 -32q-13 0 -20 2q-2 78 -47 78q-56 0 -56 -83q0 -8 2 -27t2 -32h110v-21h-110v-289l64 -15v-8z" />
<glyph horiz-adv-x="377" d="M332 137q0 -56 -42.5 -88t-110.5 -33q-19 0 -34 3q-13 -13 -13 -23q0 -23 42 -26l70 -4q127 -8 127 -88q0 -53 -51 -85.5t-146 -32.5q-71 0 -119.5 19t-48.5 55q0 27 29 44.5t69 20.5l-2 2q-40 15 -40 54q-1 23 17 41.5t46 25.5q-45 12 -70.5 41t-25.5 73q0 57 46 92 t115 35q109 0 178 11q8 -14 8 -27q0 -25 -31 -25q-5 0 -79 12l-1 -2q29 -13 48 -38t19 -57zM121 136q0 -96 60 -96t60 100q0 95 -57 95q-30 0 -46.5 -27.5t-16.5 -71.5zM86 -157q0 -28 26.5 -44t74.5 -16q47 0 77.5 17t30.5 43q0 35 -70 40l-60 3q-23 2 -36 3 q-43 -17 -43 -46z" />
<glyph horiz-adv-x="231" d="M112 318q-24 0 -39 12.5t-15 33.5q0 22 19 37.5t46 15.5q24 0 39 -12.5t15 -33.5q0 -23 -18 -38t-47 -15zM215 -100h-191l-1 8l32 8q17 7 17 24v288l-49 8v8q72 19 139 21l5 -5v-337l49 -15z" />
<glyph horiz-adv-x="434" d="M38 67q0 96 52 147t134 51q48 0 88 -14l62 14l4 -4v-470l49 -15l-1 -8h-191l-1 8l32 8q17 6 17 23v148q-39 -62 -111 -62q-61 0 -97.5 46t-36.5 128zM138 81q0 -67 21.5 -104t59.5 -37q19 0 38 11.5t26 28.5v242q-20 13 -46 13q-47 0 -73 -42t-26 -112z" />
<glyph horiz-adv-x="332" d="M231 -100h-207l-1 8l32 8q17 7 17 24v288l-49 8v8q72 19 139 21l5 -5v-93q39 98 99 98q26 0 40.5 -15.5t14.5 -41.5q0 -34 -19 -53l-4 -1q-19 24 -55 25q-42 0 -76 -34v-222l64 -15v-8z" />
<glyph horiz-adv-x="460" d="M446 -68q-29 -39 -79 -39q-33 0 -53 19.5t-20 51.5v5q-43 -76 -123 -76q-51 0 -79 28.5t-28 80.5v226l-49 8v8q71 19 139 21l5 -5v-241q0 -67 61 -67q48 0 74 41v235l-48 8l-1 8q72 19 139 21l5 -5v-277q0 -48 32 -48q9 0 21 4z" />
<glyph horiz-adv-x="405" d="M236 -100h-68l-113 303q-11 32 -33 42l-22 5l2 8h197l1 -8l-50 -16l87 -265l88 266l-49 15l1 8h127l1 -8q-2 -2 -17.5 -7.5t-16.5 -6.5q-15 -7 -26 -35z" />
<glyph horiz-adv-x="613" d="M313 258h52l85 -288l82 265l-49 15l1 8h127l2 -8q-3 -2 -18.5 -7.5t-17.5 -7.5q-17 -10 -24 -34l-104 -301h-69l-76 218l-73 -218h-69l-107 303q-11 32 -33 42l-22 5l2 8h197l1 -8l-50 -16l81 -264z" />
<glyph horiz-adv-x="405" d="M92 -240q-28 0 -45 13.5t-17 35.5q0 16 8 27q26 -10 57 -10q36 0 68 18.5t49 52.5h-43l-114 306q-11 32 -33 42l-22 5l2 8h197l1 -8l-50 -16l87 -266l88 267l-49 15l1 8h127l1 -8l-25 -6q-21 -8 -35 -43l-101 -282q-58 -159 -152 -159z" />
<glyph horiz-adv-x="371" d="M338 -46q0 -30 -4 -54h-295l-7 33l207 306h-131l-55 -114h-8q-12 38 -12 82q0 28 4 51h296l6 -33l-206 -307h129l57 115h7q12 -29 12 -79z" />
<glyph horiz-adv-x="605" d="M561 329q0 -159 -73.5 -249t-186.5 -90q-115 0 -186 87.5t-71 246.5q0 157 75 246.5t188 89.5q112 0 183 -86t71 -245zM305 24q59 0 90.5 79t31.5 226q1 146 -31 222.5t-91 76.5q-61 0 -93.5 -78t-33.5 -226q0 -146 33.5 -223t93.5 -77z" />
<glyph horiz-adv-x="370" d="M338 0h-307l-1 13l73 14q13 3 17 9t4 20v537l-93 5l-2 12l212 50l7 -7v-619l91 -21z" />
<glyph horiz-adv-x="513" d="M55 0l-10 69q54 49 78.5 72t64.5 62.5t58 63.5t39 56.5t28.5 61.5t7.5 60q0 56 -32 90.5t-86 34.5q-52 0 -92.5 -31.5t-62.5 -85.5l-12 4q19 94 81.5 148.5t149.5 54.5t137.5 -49.5t50.5 -127.5q0 -30 -10 -61t-23.5 -55.5t-42.5 -56t-50 -52t-64.5 -55t-67.5 -52 t-77 -56.5h264q31 0 45.5 19t28.5 76l11 -1q-4 -109 -23 -189h-391z" />
<glyph horiz-adv-x="495" d="M451 165q0 -77 -71 -126t-173 -49q-87 0 -145 28.5t-58 79.5q0 29 25.5 50t65.5 29l5 -4q-5 -8 -5 -23q0 -60 28 -93.5t79 -33.5t83 35t32 95q0 67 -47 104.5t-115 37.5q-21 0 -42 -3l-5 22q95 14 145.5 53.5t50.5 100.5q0 44 -29.5 72t-77.5 28q-49 0 -91.5 -30 t-64.5 -82l-11 5q19 90 81.5 144.5t147.5 54.5q79 0 129 -42.5t50 -108.5q0 -72 -56 -117t-145 -64q95 -6 154.5 -49t59.5 -114z" />
<glyph horiz-adv-x="540" d="M12 201l333 459l74 -7v-450h93l-6 -58h-87v-145h-125v145h-271zM61 203h233v336z" />
<glyph horiz-adv-x="505" d="M469 168q0 -82 -69 -130t-173 -48q-87 0 -143 30t-56 80q0 30 25.5 52.5t65.5 29.5l5 -4q-5 -15 -5 -27q0 -59 27.5 -94t77.5 -35q51 0 81.5 34.5t30.5 91.5q0 91 -68.5 135.5t-193.5 44.5l-10 10l6 312h372q1 -90 -18 -189h-11q-6 61 -15.5 77t-41.5 16h-233l-4 -196 q24 3 52 3q135 0 216.5 -51t81.5 -142z" />
<glyph horiz-adv-x="567" d="M531 199q0 -93 -66.5 -151t-171.5 -58q-116 0 -182.5 69.5t-66.5 186.5q0 177 118.5 289t314.5 125l3 -15q-240 -75 -289 -295q55 35 132 35q93 0 150.5 -49.5t57.5 -136.5zM178 229q0 -98 29 -152.5t84 -54.5q47 0 76.5 43.5t29.5 111.5q0 81 -32.5 125.5t-91.5 44.5 q-51 0 -87 -23q-8 -48 -8 -95z" />
<glyph horiz-adv-x="472" d="M275 0h-123q4 153 78.5 300t185.5 254h-314q-29 0 -39.5 -18t-17.5 -79h-11q-6 97 8 193h409l9 -93q-80 -91 -131 -242t-54 -315z" />
<glyph horiz-adv-x="549" d="M513 162q0 -74 -69.5 -123t-177.5 -49q-101 0 -165.5 41.5t-64.5 110.5q0 59 49 103t128 61q-69 40 -107 81t-38 105q0 71 62 119.5t159 48.5q88 0 143 -41t55 -105q0 -99 -142 -157q42 -24 63 -37.5t50 -38.5t42 -54t13 -65zM193 532q0 -51 31.5 -86.5t91.5 -71.5 q71 75 71 145q1 49 -24.5 79t-70.5 30t-72 -27.5t-27 -68.5zM154 146q0 -57 31.5 -90t84.5 -33q48 0 81 28.5t33 74.5q0 29 -11 52.5t-35.5 45t-43.5 34t-55 33.5q-85 -67 -85 -145z" />
<glyph horiz-adv-x="567" d="M36 451q0 93 66.5 151t171.5 58q116 0 182.5 -69.5t66.5 -186.5q0 -177 -118 -288.5t-315 -125.5l-4 16q239 73 290 294q-55 -35 -132 -35q-93 0 -150.5 49.5t-57.5 136.5zM170 473q0 -81 32.5 -125.5t91.5 -44.5q51 0 87 23q8 48 8 95q0 98 -29 152.5t-84 54.5 q-47 0 -76.5 -43.5t-29.5 -111.5z" />
<glyph horiz-adv-x="550" d="M506 258q0 -119 -65 -193.5t-169 -74.5q-103 0 -165.5 67t-62.5 184q0 124 66.5 196.5t170.5 72.5q100 0 162.5 -69t62.5 -183zM173 253q0 -231 103 -231q102 0 102 228t-101 228q-104 0 -104 -225z" />
<glyph horiz-adv-x="378" d="M347 13l-1 -13h-316l-1 13l80 14q13 3 17 9t4 20v386l-93 5l-2 13l208 50l7 -7v-469z" />
<glyph horiz-adv-x="483" d="M48 0l-10 64q12 8 46.5 30.5t47.5 31.5t40.5 29t39.5 31.5t30.5 30.5t26.5 34t14.5 33.5t6.5 37.5q0 42 -27 68.5t-72 26.5q-94 0 -143 -105l-12 4q20 93 79.5 143.5t136.5 50.5t124 -42t47 -108q0 -79 -78.5 -145.5t-227.5 -129.5h237q31 0 46.5 19t29.5 76l9 -1 q-4 -103 -23 -179h-368z" />
<glyph horiz-adv-x="489" d="M451 15q0 -77 -71 -126t-173 -49q-87 0 -145 28.5t-58 78.5q0 30 25.5 51t65.5 29l5 -4q-5 -8 -5 -23q0 -60 28 -94t79 -34t83 35t32 96q0 67 -47 104.5t-115 37.5q-21 0 -42 -3l-5 22q95 14 145.5 53.5t50.5 100.5q0 44 -29.5 72t-77.5 28q-49 0 -91.5 -30t-64.5 -82 l-11 5q19 90 81.5 144.5t147.5 54.5q79 0 129 -42.5t50 -108.5q0 -72 -56 -117t-145 -64q95 -6 154.5 -49t59.5 -114z" />
<glyph horiz-adv-x="532" d="M12 51l333 459l74 -7v-450h93l-6 -58h-87v-145h-125v145h-271zM61 53h233v336z" />
<glyph horiz-adv-x="497" d="M469 18q0 -82 -68.5 -130t-173.5 -48q-87 0 -143 30t-56 79q0 31 25.5 53.5t65.5 29.5l5 -4q-5 -15 -5 -27q0 -60 27.5 -94.5t77.5 -34.5q51 0 81.5 34t30.5 92q0 91 -68.5 135.5t-193.5 44.5l-10 10l6 312h372q1 -90 -18 -189h-11q-6 61 -15.5 77t-41.5 16h-233l-4 -196 q24 3 52 3q135 0 216.5 -51t81.5 -142z" />
<glyph horiz-adv-x="567" d="M531 199q0 -93 -66.5 -151t-171.5 -58q-116 0 -182.5 69.5t-66.5 186.5q0 177 118.5 289t314.5 125l3 -15q-240 -75 -289 -295q55 35 132 35q93 0 150.5 -49.5t57.5 -136.5zM178 229q0 -98 29 -152.5t84 -54.5q47 0 76.5 43.5t29.5 111.5q0 81 -32.5 125.5t-91.5 44.5 q-51 0 -87 -23q-8 -48 -8 -95z" />
<glyph horiz-adv-x="472" d="M275 -150h-123q4 153 78.5 300t185.5 254h-314q-29 0 -39.5 -18t-17.5 -79h-11q-6 97 8 193h409l9 -93q-80 -91 -131 -242t-54 -315z" />
<glyph horiz-adv-x="549" d="M513 162q0 -74 -69.5 -123t-177.5 -49q-101 0 -165.5 41.5t-64.5 110.5q0 59 49 103t128 61q-69 40 -107 81t-38 105q0 71 62 119.5t159 48.5q88 0 143 -41t55 -105q0 -99 -142 -157q42 -24 63 -37.5t50 -38.5t42 -54t13 -65zM193 532q0 -51 31.5 -86.5t91.5 -71.5 q71 75 71 145q1 49 -24.5 79t-70.5 30t-72 -27.5t-27 -68.5zM154 146q0 -57 31.5 -90t84.5 -33q48 0 81 28.5t33 74.5q0 29 -11 52.5t-35.5 45t-43.5 34t-55 33.5q-85 -67 -85 -145z" />
<glyph horiz-adv-x="567" d="M36 301q0 93 66.5 151t171.5 58q116 0 182.5 -69.5t66.5 -186.5q0 -177 -118.5 -289t-314.5 -125l-4 15q240 75 290 295q-55 -35 -132 -35q-93 0 -150.5 49.5t-57.5 136.5zM170 323q0 -81 32.5 -125.5t91.5 -44.5q51 0 87 23q8 48 8 95q0 98 -29 152.5t-84 54.5 q-47 0 -76.5 -43.5t-29.5 -111.5z" />
<glyph horiz-adv-x="431" d="M387 475q0 -89 -49.5 -139.5t-123.5 -50.5q-75 0 -122.5 49t-47.5 137q0 87 50.5 136.5t123.5 49.5t121 -47t48 -135zM217 308q70 0 70 167q0 159 -70 159q-71 0 -73 -163q0 -163 73 -163z" />
<glyph horiz-adv-x="289" d="M245 292h-200l-1 9l42 7q14 4 14 17v292l-55 3v8l143 29l5 -4v-341l52 -11v-9z" />
<glyph horiz-adv-x="365" d="M57 292l-7 47q84 62 123.5 105.5t39.5 89.5q0 30 -18.5 48.5t-51.5 18.5q-62 0 -91 -62l-8 2q12 52 53 84t97 32q55 0 87 -28t32 -73q0 -27 -12 -50.5t-48 -52t-54 -40.5t-76 -47l-24 -15h164q21 0 31 10.5t19 40.5l8 -1q-2 -65 -15 -109h-249z" />
<glyph horiz-adv-x="376" d="M332 383q0 -43 -46 -70.5t-111 -27.5q-55 0 -93 16t-38 44q0 17 18 29t45 16l4 -2q-3 -6 -3 -11q0 -32 15.5 -50.5t44.5 -18.5t46.5 18t17.5 49q0 37 -27 57.5t-67 20.5q-8 0 -24 -2l-4 13q110 17 110 82q0 24 -18 39t-46 15t-53 -16t-38 -43l-7 2q11 52 52.5 83t96.5 31 q50 0 81.5 -23.5t30.5 -61.5q1 -41 -33.5 -65.5t-89.5 -34.5q60 -3 98 -26.5t38 -62.5z" />
<glyph horiz-adv-x="407" d="M44 405l208 252l54 -5v-246h57l-4 -34h-53v-80h-93v80h-162zM77 406h136v173z" />
<glyph horiz-adv-x="372" d="M328 384q0 -46 -44.5 -72.5t-112.5 -26.5q-55 0 -91 17t-36 44q0 18 18 30.5t45 15.5l4 -1q-3 -7 -3 -14q0 -31 15.5 -50t42.5 -19q29 0 46 17.5t17 46.5q0 96 -155 98l-7 5l4 175h240q0 -56 -13 -108h-7q-4 32 -10.5 41t-27.5 9h-144l-2 -105q20 2 34 2q85 0 136 -28 t51 -77z" />
<glyph horiz-adv-x="413" d="M369 404q0 -53 -44 -86t-117 -33q-75 0 -119.5 39.5t-44.5 106.5q0 96 77 157.5t206 68.5l2 -9q-150 -42 -178 -168q40 27 94 27q56 0 90 -27t34 -76zM144 419q0 -52 17.5 -81.5t49.5 -29.5q29 0 46 22.5t17 58.5q0 42 -18 65t-50 23q-35 0 -60 -20q-2 -24 -2 -38z" />
<glyph horiz-adv-x="358" d="M208 292h-93q3 86 50 163.5t120 136.5h-193q-18 0 -25 -9.5t-12 -42.5h-8q-2 61 9 110h252l6 -56q-48 -48 -77 -129.5t-29 -172.5z" />
<glyph horiz-adv-x="397" d="M353 382q0 -42 -44 -69.5t-116 -27.5q-63 0 -106 24t-43 62q0 31 27.5 54.5t75.5 35.5q-40 21 -62 43t-22 57q0 41 41 68.5t105 27.5q58 0 93 -23t35 -60q0 -56 -86 -85q25 -12 38.5 -20t30.5 -21.5t25 -29.5t8 -36zM156 583q0 -45 69 -81q40 36 40 78q0 24 -14.5 39 t-38.5 15q-25 0 -40.5 -14.5t-15.5 -36.5zM131 368q0 -28 17 -44t47 -16q27 0 44.5 13.5t17.5 35.5q0 30 -21 49t-62 41q-43 -36 -43 -79z" />
<glyph horiz-adv-x="413" d="M44 538q0 53 44.5 86t116.5 33q75 0 119.5 -39t44.5 -107q0 -96 -76.5 -157.5t-205.5 -68.5l-2 9q149 42 177 168q-40 -27 -94 -27q-55 0 -89.5 27.5t-34.5 75.5zM139 554q0 -43 18 -66t51 -23q34 0 59 20q2 24 2 39q0 52 -17 81t-50 29q-29 0 -46 -22.5t-17 -57.5z" />
<glyph horiz-adv-x="431" d="M387 183q0 -89 -49.5 -139.5t-123.5 -50.5q-75 0 -122.5 49t-47.5 137q0 87 50.5 136.5t123.5 49.5t121 -47t48 -135zM217 16q70 0 70 167q0 159 -70 159q-71 0 -73 -163q0 -163 73 -163z" />
<glyph horiz-adv-x="289" d="M245 0h-200l-1 9l42 7q14 4 14 17v292l-55 3v8l143 29l5 -4v-341l52 -11v-9z" />
<glyph horiz-adv-x="365" d="M57 0l-7 47q84 62 123.5 105.5t39.5 89.5q0 30 -18.5 48.5t-51.5 18.5q-62 0 -91 -62l-8 2q12 52 53 84t97 32q55 0 87 -28t32 -73q0 -27 -12 -50.5t-48 -52t-54 -40.5t-76 -47l-24 -15h164q21 0 31 10.5t19 40.5l8 -1q-2 -65 -15 -109h-249z" />
<glyph horiz-adv-x="376" d="M332 91q0 -43 -46 -70.5t-111 -27.5q-55 0 -93 16t-38 44q0 17 18 29t45 16l4 -2q-3 -6 -3 -11q0 -32 15.5 -50.5t44.5 -18.5t46.5 18t17.5 49q0 37 -27 57.5t-67 20.5q-8 0 -24 -2l-4 13q110 17 110 82q0 24 -18 39t-46 15t-53 -16t-38 -43l-7 2q11 52 52.5 83t96.5 31 q50 0 81.5 -23.5t30.5 -61.5q1 -41 -33.5 -65.5t-89.5 -34.5q60 -3 98 -26.5t38 -62.5z" />
<glyph horiz-adv-x="407" d="M44 113l208 252l54 -5v-246h57l-4 -34h-53v-80h-93v80h-162zM77 114h136v173z" />
<glyph horiz-adv-x="372" d="M328 92q0 -46 -44.5 -72.5t-112.5 -26.5q-55 0 -91 17t-36 44q0 18 18 30.5t45 15.5l4 -1q-3 -8 -3 -14q0 -31 15.5 -50t42.5 -19q29 0 46 17.5t17 46.5q0 96 -155 98l-7 5l4 175h240q0 -56 -13 -108h-7q-4 32 -10.5 41t-27.5 9h-144l-2 -105q20 2 34 2q85 0 136 -28 t51 -77z" />
<glyph horiz-adv-x="413" d="M369 112q0 -53 -44 -86t-117 -33q-75 0 -119.5 39.5t-44.5 106.5q0 96 77 157.5t206 68.5l2 -9q-150 -42 -178 -168q40 27 94 27q56 0 90 -27t34 -76zM144 127q0 -52 17.5 -81.5t49.5 -29.5q29 0 46 22.5t17 58.5q0 42 -18 65t-50 23q-35 0 -60 -20q-2 -24 -2 -38z" />
<glyph horiz-adv-x="358" d="M208 0h-93q3 86 50 163.5t120 136.5h-193q-18 0 -25 -9.5t-12 -42.5h-8q-2 61 9 110h252l6 -56q-48 -48 -77 -129.5t-29 -172.5z" />
<glyph horiz-adv-x="397" d="M353 90q0 -42 -44 -69.5t-116 -27.5q-63 0 -106 24t-43 62q0 31 27.5 54.5t75.5 35.5q-40 21 -62 43t-22 57q0 41 41 68.5t105 27.5q58 0 93 -23t35 -60q0 -56 -86 -85q25 -12 38.5 -20t30.5 -21.5t25 -29.5t8 -36zM156 291q0 -45 69 -81q40 36 40 78q0 24 -14.5 39 t-38.5 15q-25 0 -40.5 -14.5t-15.5 -36.5zM131 76q0 -28 17 -44t47 -16q27 0 44.5 13.5t17.5 35.5q0 30 -21 49t-62 41q-43 -36 -43 -79z" />
<glyph horiz-adv-x="413" d="M44 246q0 53 44.5 86t116.5 33q75 0 119.5 -39t44.5 -107q0 -96 -76.5 -157.5t-205.5 -68.5l-2 9q149 42 177 168q-40 -27 -94 -27q-55 0 -89.5 27.5t-34.5 75.5zM139 262q0 -43 18 -66t51 -23q34 0 59 20q2 24 2 39q0 52 -17 81t-50 29q-29 0 -46 -22.5t-17 -57.5z" />
<glyph horiz-adv-x="513" d="M61 244q0 113 59 185t151 80v111l34 3l6 -6v-108q73 -4 116 -45.5t43 -99.5q0 -27 -16 -41t-42 -14q-28 0 -47 12q2 6 2 11q0 146 -75 146q-47 0 -76 -52.5t-29 -142.5q0 -100 42.5 -153t115.5 -53q65 0 125 46l8 -8q-47 -112 -167 -124v-111l-33 -3l-7 6v107 q-95 5 -152.5 73t-57.5 181z" />
<glyph horiz-adv-x="525" d="M437 116l-71 72q-45 -40 -112 -40q-60 0 -102 31l-64 -64l-30 31l63 63q-36 47 -36 112t41 115l-67 68l29 29q10 -11 33 -34l35 -35q45 34 103 34q62 0 107 -37l71 72l30 -31l-72 -72q33 -46 33 -102q0 -60 -34 -109q15 -15 72 -69v-9zM258 440q-53 0 -83 -34t-30 -83 t30 -83.5t82 -34.5q54 0 82.5 35.5t28.5 84.5q0 47 -29.5 81t-80.5 34z" />
<glyph horiz-adv-x="565" d="M304 -120l-33 -3l-7 6v107q-135 0 -178 38q-17 15 -17 56q0 61 33 125l9 -1l61 -170q34 -17 80 -17q54 0 86.5 30t32.5 81q0 37 -22 67.5t-55 50t-72 43t-72 46.5t-55 61.5t-22 86.5q0 75 58.5 121t148.5 51v111l34 3l6 -6v-107q112 -4 150 -36q15 -12 15 -52 q0 -26 -12.5 -63t-25.5 -59l-9 1l-54 165q-28 13 -70 13q-52 0 -84 -28t-32 -76q0 -45 31.5 -80t76 -60.5t89 -52.5t76 -69t31.5 -96q0 -79 -54 -123t-144 -52v-112z" />
<glyph horiz-adv-x="648" d="M474 259h-211q16 -90 66 -138t127 -48q76 0 135 44l8 -7q-23 -55 -74.5 -87.5t-126.5 -32.5q-115 0 -187 70t-85 199h-73l4 34h66v21q0 14 2 40h-63l4 34h63q21 122 103 197t190 75q74 0 123 -32t49 -77q0 -21 -15.5 -33.5t-40.5 -12.5q-9 0 -27 2q-15 116 -95 116 q-63 0 -106 -64t-52 -171h228l-4 -34h-225q0 -9 -1 -13q3 -46 3 -48h219z" />
<glyph horiz-adv-x="540" d="M258 108q-16 -108 -78.5 -171.5t-144.5 -63.5q-41 0 -67 19.5t-26 46.5q0 44 62 59q9 -80 56 -80q77 0 88 188l15 189h-112l5 34h110l9 106q6 118 73 179t159 61q63 0 101.5 -29t38.5 -68q0 -27 -18 -44t-43 -20q-33 128 -81 128q-39 0 -62 -46t-36 -138l-18 -129h162 l-5 -34h-162z" />
<glyph horiz-adv-x="564" d="M446 295h-157l-5 -34q-24 -139 -96 -215q11 -4 45 -18.5t54.5 -21.5t53.5 -17t66 -14.5t68 -4.5q28 0 47 4q3 -9 3 -19q0 -34 -21 -58t-61 -24q-46 0 -95.5 29t-101 66.5t-89.5 49.5q-39 -28 -79 -28q-21 0 -33 10t-12 25q0 18 17 31t46 12q27 0 62 -11q15 38 22 114 q0 14 6 124h-114l5 34h111q6 98 10 124q14 104 70.5 163t144.5 59q64 0 104 -29t40 -69q0 -24 -19 -39.5t-45 -18.5q-26 123 -79 123q-38 0 -61 -40t-37 -127l-22 -146h157z" />
<glyph horiz-adv-x="639" d="M455 0h-268l-2 13l51 11q13 4 17 11t4 21v77h-146v34h146v61h-146v34h145l-175 322q-11 19 -19 28t-23 14l-41 11l1 13h278l2 -13l-76 -22l159 -326l158 327l-74 21l2 13h192l1 -13q-21 -6 -36 -14q-34 -20 -65 -77l-157 -284h146v-34h-147v-61h147v-34h-147v-99l74 -21z " />
<glyph horiz-adv-x="513" d="M61 244q0 113 59 185t151 80v111l34 3l6 -6v-108q73 -4 116 -45.5t43 -99.5q0 -27 -16 -41t-42 -14q-28 0 -47 12q2 6 2 11q0 146 -75 146q-47 0 -76 -52.5t-29 -142.5q0 -100 42.5 -153t115.5 -53q65 0 125 46l8 -8q-47 -112 -167 -124v-111l-33 -3l-7 6v107 q-95 5 -152.5 73t-57.5 181z" />
<glyph horiz-adv-x="525" d="M437 39l-71 72q-45 -40 -112 -40q-60 0 -102 31l-64 -64l-30 31l63 63q-36 46 -36 112q0 65 41 115l-67 68l29 29l33 -33t35 -36q46 34 103 33q61 1 107 -36l71 72l30 -31l-72 -72q33 -46 33 -103q0 -59 -34 -108q15 -15 72 -69v-9zM258 363q-53 0 -83 -34t-30 -83 t30 -83.5t82 -34.5q54 0 82.5 35.5t28.5 84.5q0 47 -29.5 81t-80.5 34z" />
<glyph horiz-adv-x="500" d="M229 -10q-104 0 -141 25q-19 14 -19 56q0 27 11.5 54t26.5 42l11 -3q15 -81 32 -108q23 -34 83 -34q38 0 60.5 20t22.5 52q0 33 -24.5 58.5t-59 44.5t-69 40t-59 54t-24.5 77q0 59 44.5 95.5t117.5 44.5v112l34 3l6 -6v-107q100 -1 132 -33q15 -13 15 -48q0 -52 -43 -93 l-10 3q-15 79 -29 106q-20 33 -71 33q-37 0 -59 -19t-22 -53q0 -32 25 -58t60.5 -45.5t71 -41t60 -54t24.5 -74.5q1 -62 -43.5 -97.5t-120.5 -43.5v-112l-33 -3l-7 6v107h-3z" />
<glyph horiz-adv-x="584" d="M441 195h-183q33 -120 150 -120q63 0 120 42l7 -8q-22 -56 -71 -87.5t-116 -31.5q-89 0 -148.5 54.5t-73.5 150.5h-73l4 34h66q0 13 -1 20q0 19 3 39h-62l4 34h63q20 88 85 138t157 50q66 0 111.5 -28.5t45.5 -64.5q0 -42 -58 -47q-29 103 -102 103q-50 0 -82 -40 t-39 -111h206l-4 -34h-203q0 -36 4 -59h194z" />
<glyph horiz-adv-x="532" d="M262 111q-19 -109 -79.5 -171.5t-147.5 -62.5q-41 0 -67 19t-26 47q0 42 62 59q12 -80 56 -80q67 0 83 187l11 108h-112l5 34h111l3 27q4 59 25 104.5t52.5 72.5t70 41t80.5 14q63 0 101.5 -29t38.5 -68q0 -27 -18 -44t-43 -20q-33 128 -81 128q-37 0 -57.5 -42.5 t-36.5 -134.5l-8 -49h158l-5 -34h-159z" />
<glyph horiz-adv-x="538" d="M443 225h-165l-1 -7q-19 -103 -87 -173q11 -4 44.5 -18t54 -21.5t52.5 -17t65.5 -14t68.5 -4.5q28 0 47 4q3 -9 3 -19q0 -35 -24 -58.5t-68 -23.5q-42 0 -90.5 26.5t-102.5 63.5t-88 51q-38 -24 -74 -24q-21 0 -33 10t-12 25q0 18 15.5 31t41.5 13q23 0 57 -9 q13 55 20 145l2 20h-105l5 34h103l2 16q7 113 63.5 174t151.5 61q63 0 102.5 -28t39.5 -65q0 -26 -18.5 -42.5t-43.5 -19.5q-28 123 -80 123q-70 0 -96 -167l-9 -52h164z" />
<glyph horiz-adv-x="562" d="M77 84v34h144v61h-144v34h143l-142 221q-14 22 -22 30.5t-21 14.5l-32 9l2 12h250l1 -12l-65 -21l132 -230l129 229l-66 22l2 12h169l2 -12l-39 -10q-21 -7 -45 -47l-134 -218h141v-34h-141v-61h141v-34h-141v-51l65 -21l-2 -12h-247l-1 12l43 11q13 5 17.5 11.5 t4.5 20.5v29h-144z" />
<glyph horiz-adv-x="709" d="M601 179h-139l-46 -189l-57 8l-6 7l43 174h-146l-46 -189l-57 8l-6 7l43 174h-126l-6 5l8 52h138l44 179h-135l-6 5l7 52h148l47 188l56 -8l6 -6l-43 -174h146l47 188l56 -8l6 -6l-43 -174h117l6 -5l-8 -52h-129l-44 -179h126l6 -5zM264 236h146l44 179h-146z" />
<glyph horiz-adv-x="349" d="M172 428q-48 0 -80.5 31t-32.5 82t34.5 85t83.5 34t81 -31t32 -81q0 -51 -33.5 -85.5t-84.5 -34.5zM175 620q-33 0 -52.5 -22t-19.5 -55t20 -54t51 -21q33 0 52.5 22t19.5 55t-19 54t-52 21z" />
<glyph horiz-adv-x="975" d="M652 660h69l-399 -670h-69zM402 475q0 -89 -49.5 -139.5t-123.5 -50.5q-75 0 -122.5 49t-47.5 137q0 87 50.5 136.5t123.5 49.5t121 -47t48 -135zM232 308q70 0 70 167q0 159 -70 159q-71 0 -73 -163q0 -163 73 -163zM916 183q0 -89 -49.5 -139.5t-123.5 -50.5 q-75 0 -122.5 49t-47.5 137q0 87 50.5 136.5t123.5 49.5t121 -47t48 -135zM746 16q70 0 70 167q0 159 -70 159q-71 0 -73 -163q0 -163 73 -163z" />
<glyph horiz-adv-x="1370" d="M652 660h69l-399 -670h-69zM402 475q0 -89 -49.5 -139.5t-123.5 -50.5q-75 0 -122.5 49t-47.5 137q0 87 50.5 136.5t123.5 49.5t121 -47t48 -135zM232 308q70 0 70 167q0 159 -70 159q-71 0 -73 -163q0 -163 73 -163zM916 183q0 -89 -49.5 -139.5t-123.5 -50.5 q-75 0 -122.5 49t-47.5 137q0 87 50.5 136.5t123.5 49.5t121 -47t48 -135zM1311 177q0 -88 -49.5 -139t-123.5 -51q-75 0 -122.5 49t-47.5 138q0 87 50.5 136.5t123.5 49.5t121 -47.5t48 -135.5zM746 16q70 0 70 167q0 159 -70 159q-71 0 -73 -163q0 -163 73 -163zM1141 11 q70 0 70 166q0 160 -70 160q-71 0 -73 -163q0 -163 73 -163z" />
<glyph horiz-adv-x="569" d="M485 284h-156v-163h-88l-1 163h-162l-1 78q78 2 163 2v166h89v-165q61 1 157 1l6 -6z" />
<glyph horiz-adv-x="569" d="M485 284h-407v78q123 4 408 4l6 -6z" />
<glyph horiz-adv-x="580" d="M428 127l-138 140l-136 -136l-59 58l137 137l-140 142l56 56q51 -48 142 -139l135 136l60 -60l-136 -135l139 -139v-9z" />
<glyph horiz-adv-x="569" d="M344 513q0 -29 -18 -49.5t-47 -20.5q-24 0 -39 17t-15 41q0 28 19.5 48.5t46.5 20.5q23 0 38 -16t15 -41zM485 284h-407v78q123 4 408 4l6 -6zM344 151q0 -29 -18 -49t-47 -20q-24 0 -39 16.5t-15 40.5q0 28 19.5 48.5t46.5 20.5q23 0 38 -16t15 -41z" />
<glyph horiz-adv-x="569" d="M485 388h-407v78q123 4 408 4l6 -6zM485 180h-407v78q123 4 408 4l6 -6z" />
<glyph horiz-adv-x="569" d="M172 70l-44 26l46 84h-96v78q18 1 66.5 1.5t72.5 0.5l69 128h-208l-1 78q168 3 253 3l59 110l8 3l44 -26l-47 -86h92l6 -6l-7 -76h-135l-69 -127q79 1 205 1l6 -6l-7 -76h-247l-58 -107z" />
<glyph horiz-adv-x="566" d="M90 109v95l297 123l-296 119v95q190 -75 403 -179l2 -5v-66z" />
<glyph horiz-adv-x="566" d="M476 542v-95l-297 -123l296 -118v-95q-191 76 -402 178l-2 6l-1 65z" />
<glyph horiz-adv-x="562" d="M80 222v88l294 89l-293 86v91q212 -64 404 -140l2 -5l1 -66zM487 76h-407v77q155 5 408 5l6 -7z" />
<glyph horiz-adv-x="562" d="M479 576v-88l-293 -87l293 -88v-91q-42 11 -405 142l-1 14v57q27 11 215.5 75.5t190.5 65.5zM475 76h-407v77q153 5 408 5l6 -7z" />
<glyph horiz-adv-x="564" d="M483 363h-156v-163h-88l-1 163h-162l-1 78q78 2 163 2v166h89v-165q61 1 157 1l6 -6zM482 65h-407v78q124 4 408 4l6 -6z" />
<glyph horiz-adv-x="583" d="M169 421q-13 0 -60 -58l-43 21q17 34 29.5 55.5t34.5 43.5t43 22q26 0 124.5 -26t116.5 -26q13 0 61 57l42 -21q-58 -121 -106 -121q-26 0 -126 26.5t-116 26.5zM169 197q-13 0 -60 -58l-43 21q17 34 29.5 55.5t34.5 43.5t43 22q26 0 124.5 -26t116.5 -26q13 0 61 57 l42 -21q-58 -121 -106 -121q-26 0 -126 26.5t-116 26.5z" />
<glyph horiz-adv-x="559" d="M481 375v-228h-87v152h-326v79q152 5 405 5z" />
<glyph horiz-adv-x="853" d="M773 297q0 -79 -47.5 -131t-122.5 -52q-57 0 -98.5 30.5t-77.5 82.5q-70 -113 -183 -113q-72 0 -118 51t-46 130t47.5 130.5t123.5 51.5q58 0 99 -31t78 -85q72 116 183 116q74 0 118 -50.5t44 -129.5zM594 405q-69 0 -129 -99q38 -60 68 -89t67 -29q38 0 63 29t25 79 t-26 79.5t-68 29.5zM165 297q0 -50 27 -80t71 -31q68 0 127 97q-37 59 -68 89.5t-68 30.5q-38 0 -63.5 -28.5t-25.5 -77.5z" />
<glyph horiz-adv-x="656" d="M551 124h-123l-33 -134l-56 8l-6 7l29 119h-131l-33 -134l-56 8l-6 7l29 119h-107l-6 6l8 52h119l34 138h-109l-6 6l7 52h122l33 132l57 -8l6 -6l-30 -118h131l33 132l57 -8l6 -6l-30 -118h108l6 -6l-8 -52h-120l-34 -138h110l6 -6zM245 182h131l34 138h-131z" />
<glyph horiz-adv-x="335" d="M165 278q-48 0 -80.5 31t-32.5 82t34.5 85t83.5 34t81 -31t32 -81q0 -51 -33.5 -85.5t-84.5 -34.5zM168 470q-33 0 -52.5 -22t-19.5 -55t20 -54t51 -21q33 0 52.5 22t19.5 55t-19 54t-52 21z" />
<glyph horiz-adv-x="901" d="M583 510h68l-334 -520h-69zM375 378q0 -64 -47 -102t-116 -38t-114.5 37t-45.5 99t48 99t116 37q69 0 114 -35t45 -97zM215 261q29 0 44.5 31t15.5 86q0 109 -60 109q-61 0 -63 -113q0 -54 16.5 -83.5t46.5 -29.5zM849 131q1 -63 -46 -101.5t-117 -38.5q-68 0 -113.5 37 t-45.5 100q0 61 48.5 98.5t115.5 37.5q69 0 114 -35.5t44 -97.5zM689 15q30 0 45.5 31t14.5 85q2 110 -60 110q-60 0 -62 -113q0 -54 16.5 -83.5t45.5 -29.5z" />
<glyph horiz-adv-x="1276" d="M583 510h68l-334 -520h-69zM375 378q0 -64 -47 -102t-116 -38t-114.5 37t-45.5 99t48 99t116 37q69 0 114 -35t45 -97zM215 261q29 0 44.5 31t15.5 86q0 109 -60 109q-61 0 -63 -113q0 -54 16.5 -83.5t46.5 -29.5zM849 131q1 -63 -46 -101.5t-117 -38.5q-68 0 -113.5 37 t-45.5 100q0 61 48.5 98.5t115.5 37.5q69 0 114 -35.5t44 -97.5zM1224 131q1 -63 -46 -101.5t-117 -38.5q-68 0 -113.5 37t-45.5 100q0 61 48 98.5t116 37.5q69 0 114 -35.5t44 -97.5zM689 15q30 0 45.5 31t14.5 85q2 110 -60 110q-60 0 -62 -113q0 -54 16.5 -83.5 t45.5 -29.5zM1064 15q30 0 45.5 31t14.5 85q2 110 -60 110q-60 0 -62 -113q0 -54 16.5 -83.5t45.5 -29.5z" />
<glyph horiz-adv-x="569" d="M485 209h-156v-163h-88l-1 163h-162l-1 78q78 2 163 2v166h89v-165q61 1 157 1l6 -6z" />
<glyph horiz-adv-x="569" d="M485 209h-407v78q123 4 408 4l6 -6z" />
<glyph horiz-adv-x="580" d="M428 52l-138 140l-136 -136l-59 58l137 137l-140 142l56 56q51 -48 142 -139l135 136l60 -60l-136 -135l139 -139v-9z" />
<glyph horiz-adv-x="569" d="M344 438q0 -29 -18 -49.5t-47 -20.5q-24 0 -39 17t-15 41q0 28 19.5 48.5t46.5 20.5q23 0 38 -16t15 -41zM485 209h-407v78q123 4 408 4l6 -6zM344 76q0 -29 -18 -49t-47 -20q-24 0 -39 16.5t-15 40.5q0 28 19.5 48.5t46.5 20.5q23 0 38 -16t15 -41z" />
<glyph horiz-adv-x="569" d="M485 313h-407v78q123 4 408 4l6 -6zM485 105h-407v78q123 4 408 4l6 -6z" />
<glyph horiz-adv-x="569" d="M172 -6l-44 27l46 84h-96v78q18 1 66.5 1.5t72.5 0.5l69 128h-208l-1 78q168 3 253 3l59 110l8 3l44 -26l-47 -86h92l6 -6l-7 -76h-135l-69 -127q79 1 205 1l6 -6l-7 -76h-247l-58 -108z" />
<glyph horiz-adv-x="566" d="M90 34v95l297 123l-296 118v95q174 -69 403 -178l2 -6v-65z" />
<glyph horiz-adv-x="566" d="M476 34l-406 182l1 65l2 6q211 102 402 178v-95l-296 -118l297 -123v-95z" />
<glyph horiz-adv-x="562" d="M80 157v80l297 85l-296 83v81q255 -77 404 -130l2 -5l1 -61zM487 20h-407v73q124 4 408 4l6 -6z" />
<glyph horiz-adv-x="562" d="M480 157l-408 133l1 61l2 5q149 53 404 130v-81l-297 -83l298 -85v-80zM475 20h-407v73q123 4 408 4l6 -6z" />
<glyph horiz-adv-x="567" d="M486 283h-156v-146h-87l-1 146h-163v72q45 1 163 3l-1 148h89v-147q33 0 87 0.5t70 0.5l6 -7zM482 18h-407v72q155 5 408 5l6 -7z" />
<glyph horiz-adv-x="583" d="M169 346q-12 0 -60 -57l-43 21q17 34 29.5 55.5t34.5 43.5t43 22q26 0 124.5 -26.5t116.5 -26.5q12 0 61 58l42 -21q-58 -121 -106 -121q-26 0 -126 26t-116 26zM169 122q-12 0 -60 -57l-43 21q17 34 29.5 55.5t34.5 43.5t43 22q26 0 124.5 -26.5t116.5 -26.5q12 0 61 58 l42 -21q-58 -121 -106 -121q-26 0 -126 26t-116 26z" />
<glyph horiz-adv-x="559" d="M481 342v-228h-87v152h-326v79q152 5 405 5z" />
<glyph horiz-adv-x="853" d="M773 251q0 -79 -47.5 -130.5t-122.5 -51.5q-99 0 -176 113q-70 -113 -183 -113q-72 0 -118 51t-46 129q0 79 47.5 131t123.5 52q58 0 99 -31t78 -85q73 116 183 116q74 0 118 -50.5t44 -130.5zM594 359q-69 0 -129 -99q39 -59 68.5 -88t66.5 -29q38 0 63 28.5t25 78.5 t-26 79.5t-68 29.5zM165 251q0 -50 27 -80t71 -30q68 0 127 97q-37 59 -68 89.5t-68 30.5q-38 0 -63.5 -29t-25.5 -78z" />
<glyph horiz-adv-x="372" d="M36 308v34h300v-34h-300z" />
<glyph horiz-adv-x="526" d="M36 308v34h454v-34h-454z" />
<glyph horiz-adv-x="804" d="M36 309v34h732v-34h-732z" />
<glyph horiz-adv-x="365" d="M130 -10l-55 14l-3 5l164 651l55 -13l2 -5z" />
<glyph horiz-adv-x="365" d="M236 -10l-164 652l3 5l55 13l163 -651l-2 -5z" />
<glyph horiz-adv-x="421" d="M235 422q0 -27 -24 -27t-24 27q0 12 6 42t8 46q-14 -10 -30.5 -24.5t-27.5 -23t-20 -10.5q-19 -7 -28 13q-8 20 12 31q11 6 40 16t44 16q-16 7 -44.5 16.5t-39.5 15.5q-21 11 -12 30q9 20 28 14q8 -3 19 -11.5t28.5 -23t30.5 -24.5q-2 17 -8 47t-6 41q0 27 24 27t24 -27 q0 -11 -6 -41t-8 -47q12 9 29.5 24.5t29 24t19.5 10.5q18 7 28 -13q7 -18 -13 -31q-10 -5 -38 -15t-45 -17q17 -7 45 -17t38 -15q24 -13 12 -34q-10 -18 -28 -10q-8 2 -19.5 10.5t-28 23.5t-29.5 24q2 -16 8 -46t6 -42z" />
<glyph horiz-adv-x="304" d="M151 265q-26 0 -42.5 16t-16.5 41q0 26 19 45t46 19q24 0 39.5 -15t15.5 -40q0 -27 -17 -46.5t-44 -19.5z" />
<glyph horiz-adv-x="427" d="M209 202q-51 0 -83 32.5t-34 79.5q-1 55 37.5 95t93.5 40q49 0 80 -31t32 -80q2 -56 -33.5 -96t-92.5 -40z" />
<glyph horiz-adv-x="351" d="M113 595q0 28 20 46.5t52 18.5q27 0 44 -15.5t17 -40.5q0 -28 -21.5 -46.5t-51.5 -18.5q-27 0 -43.5 15.5t-16.5 40.5zM253 6l-4 -7q-66 -9 -118 -9q-18 0 -25.5 6.5t-7.5 22.5q0 24 10 92l47 345h44z" />
<glyph horiz-adv-x="351" d="M98 644l4 7q66 9 118 9q33 0 33 -28q0 -25 -10 -92l-47 -346h-44zM238 56q0 -29 -20.5 -47.5t-51.5 -18.5q-27 0 -44 15.5t-17 40.5q0 28 21.5 46.5t51.5 18.5q27 0 43.5 -15t16.5 -40z" />
<glyph horiz-adv-x="487" d="M183 595q0 28 20.5 46.5t51.5 18.5q27 0 44.5 -15.5t17.5 -40.5q0 -28 -21.5 -46.5t-51.5 -18.5q-27 0 -44 15.5t-17 40.5zM223 456l11 5h10q53 -38 53 -84q0 -26 -19 -46q-8 -10 -48 -45t-63.5 -71.5t-23.5 -82.5q0 -49 27.5 -79t77.5 -30q47 0 76.5 34t29.5 84 q0 29 -9 67q20 10 46 10q36 0 60 -19.5t24 -50.5q0 -66 -69.5 -112t-168.5 -46t-162 44t-63 118q0 43 27.5 82t56 58.5t71.5 43.5t49 28q4 4 4 11z" />
<glyph horiz-adv-x="487" d="M264 194l-10 -4q-6 -1 -10 -1q-54 41 -54 85q0 24 19 46q7 9 47.5 44t64 71.5t23.5 83.5q0 49 -27 79t-77 30q-47 0 -77 -34.5t-30 -83.5q0 -31 9 -67q-17 -10 -46 -10q-36 0 -60 19t-24 50q0 66 70 112t168 46q99 0 162 -43.5t63 -117.5q0 -35 -16 -66.5t-43.5 -54.5 t-52.5 -39.5t-54 -31.5t-37 -21q-4 -2 -4 -10zM304 56q0 -29 -20.5 -47.5t-51.5 -18.5q-27 0 -44 15.5t-17 40.5q0 28 21.5 46.5t51.5 18.5q27 0 43.5 -15t16.5 -40z" />
<glyph horiz-adv-x="386" d="M50 651l3 5q39 4 87 4l10 -11l-42 -244h-24l-14 116zM232 651l3 5q39 4 87 4l10 -11l-42 -244h-24l-14 116z" />
<glyph horiz-adv-x="204" d="M52 669l4 4q47 5 87 5l9 -12l-42 -244h-24l-14 117z" />
<glyph horiz-adv-x="340" d="M267 134l-12 -8q-97 111 -180 177l-3 5v33q104 92 185 184l11 -8q-36 -78 -104 -195q51 -74 103 -188z" />
<glyph horiz-adv-x="340" d="M266 303q-86 -68 -181 -177l-11 8q49 111 102 188q-68 117 -104 195l12 8q85 -96 184 -184v-33z" />
<glyph horiz-adv-x="526" d="M453 136l-12 -8q-103 117 -180 176l-3 5v34q101 90 185 183l11 -8q-40 -86 -104 -194q51 -75 103 -188zM267 136l-12 -8q-103 117 -180 176l-3 5v34q101 90 185 183l11 -8q-40 -86 -104 -194q51 -75 103 -188z" />
<glyph horiz-adv-x="526" d="M266 304q-80 -61 -181 -176l-11 8q49 110 102 188q-64 108 -104 194l12 8q87 -97 184 -183v-34zM452 304q-80 -61 -181 -176l-11 8q49 110 102 188q-64 108 -104 194l12 8q87 -97 184 -183v-34z" />
<glyph horiz-adv-x="235" d="M52 457q0 52 36 110.5t86 92.5l9 -8q-49 -69 -59 -142q22 -4 35.5 -18.5t13.5 -36.5q0 -29 -17.5 -47t-43.5 -18q-27 0 -43.5 18.5t-16.5 48.5z" />
<glyph horiz-adv-x="235" d="M183 593q0 -52 -36 -110.5t-85 -92.5l-10 9q49 67 59 141q-22 4 -35 18.5t-13 36.5q0 30 17 47.5t44 17.5t43 -18.5t16 -48.5z" />
<glyph horiz-adv-x="398" d="M52 457q0 52 36 110.5t86 92.5l9 -8q-49 -69 -59 -142q22 -4 35.5 -18.5t13.5 -36.5q0 -29 -17.5 -47t-43.5 -18q-27 0 -43.5 18.5t-16.5 48.5zM215 457q0 52 36 110.5t85 92.5l10 -8q-49 -69 -59 -142q48 -9 48 -55q0 -30 -17 -47.5t-44 -17.5t-43 18.5t-16 48.5z" />
<glyph horiz-adv-x="418" d="M346 593q0 -52 -36 -110.5t-86 -92.5l-10 9q49 67 59 141q-48 9 -48 55q0 29 17.5 47t43.5 18q27 0 43.5 -18.5t16.5 -48.5zM183 593q0 -52 -36 -110.5t-85 -92.5l-10 9q49 67 59 141q-22 4 -35 18.5t-13 36.5q0 30 17 47.5t44 17.5t43 -18.5t16 -48.5z" />
<glyph horiz-adv-x="235" d="M183 44q0 -52 -36 -110.5t-85 -92.5l-10 8q49 69 59 142q-22 4 -35 18.5t-13 36.5q0 30 17 47.5t44 17.5t43 -18.5t16 -48.5z" />
<glyph horiz-adv-x="398" d="M346 44q0 -52 -36 -110.5t-86 -92.5l-10 8q49 69 59 142q-48 9 -48 55q0 29 17.5 47t43.5 18q27 0 43.5 -18.5t16.5 -48.5zM183 44q0 -52 -36 -110.5t-85 -92.5l-10 8q49 69 59 142q-22 4 -35 18.5t-13 36.5q0 30 17 47.5t44 17.5t43 -18.5t16 -48.5z" />
<glyph horiz-adv-x="377" d="M345 -34l-13 -15q-112 59 -176 153t-64 221t64 221t176 153l13 -15q-56 -68 -92 -161.5t-36 -197.5q0 -199 128 -359z" />
<glyph horiz-adv-x="377" d="M32 -34q127 158 128 359q-1 104 -36.5 197.5t-91.5 161.5l13 15q112 -59 176 -153t64 -221t-64 -221t-176 -153z" />
<glyph horiz-adv-x="413" d="M361 -46h-229v743h229v-31h-109v-681h109v-31z" />
<glyph horiz-adv-x="413" d="M52 -46v31h109v681h-109v31h229v-743h-229z" />
<glyph horiz-adv-x="424" d="M92 337q51 4 70 24.5t19 56.5q0 25 -20 80.5t-20 85.5q0 60 54 90.5t176 30.5l1 -26q-106 -3 -106 -81q0 -26 18.5 -81.5t18.5 -83.5q0 -44 -35.5 -71.5t-97.5 -36.5q62 -10 97.5 -37.5t35.5 -70.5q0 -27 -18.5 -83t-17.5 -82q0 -78 105 -81l-1 -26q-122 0 -175.5 30 t-53.5 91q0 30 19.5 86.5t19.5 78.5q0 37 -19.5 58t-69.5 25v23z" />
<glyph horiz-adv-x="424" d="M332 337v-23q-50 -4 -69.5 -25t-19.5 -58q0 -22 19.5 -78.5t19.5 -86.5q0 -61 -53.5 -91t-175.5 -30l-1 26q105 3 105 81q1 26 -17.5 82t-18.5 83q0 43 35.5 70.5t96.5 37.5q-62 9 -97 36.5t-35 71.5q0 28 18.5 83.5t18.5 81.5q0 78 -106 81l1 26q122 0 176 -30.5 t54 -90.5q0 -30 -20 -85.5t-20 -80.5q0 -36 19 -56.5t70 -24.5z" />
</font>
</defs>
</svg>
