<?xml version="1.0" standalone="no"?>
<!DOCTYPE svg PUBLIC "-//W3C//DTD SVG 1.1//EN" "http://www.w3.org/Graphics/SVG/1.1/DTD/svg11.dtd" >
<svg xmlns="http://www.w3.org/2000/svg" xmlns:xlink="http://www.w3.org/1999/xlink" version="1.1">
<metadata></metadata>
<defs>
<font id="indivisa_display_serifThIt" horiz-adv-x="559" >
<font-face units-per-em="1000" ascent="800" descent="-200" />
<missing-glyph horiz-adv-x="250" />
<glyph unicode="&#xfb00;" horiz-adv-x="511" d="M125 -6q-19 -92 -57.5 -140.5t-92.5 -48.5q-35 0 -58.5 16.5t-23.5 39.5q0 15 12 21q36 -50 77 -50q47 0 70.5 35.5t42.5 125.5l97 457h-86l1 7l89 15l6 26q21 95 67 146t107 51q42 0 71.5 -19t42.5 -44q42 63 104 63q34 0 58 -17t24 -37q0 -15 -13 -21q-13 22 -35.5 37 t-47.5 15q-58 0 -91 -98q-6 -19 -14 -57l-10 -45h146l-4 -22h-146l-97 -456q-19 -92 -57.5 -140.5t-92.5 -48.5q-35 0 -58.5 16.5t-23.5 39.5q0 15 12 21q36 -50 77 -50q47 0 70.5 35.5t42.5 125.5l97 457h-209zM234 507l-7 -35h208l8 36q12 57 32 97q-33 67 -109 67 q-77 0 -114 -99q-10 -30 -18 -66z" />
<glyph unicode="&#xfb03;" horiz-adv-x="708" d="M125 -6q-19 -92 -57.5 -140.5t-92.5 -48.5q-35 0 -58.5 16.5t-23.5 39.5q0 15 12 21q36 -50 77 -50q47 0 70.5 35.5t42.5 125.5l97 457h-86l1 7l89 15l6 26q21 95 67 146t107 51q45 0 76 -21.5t41 -46.5q50 68 126 68q41 0 70.5 -19.5t29.5 -41.5q0 -15 -13 -21 q-15 25 -42.5 42t-58.5 17q-57 0 -92 -55q-24 -35 -38 -100l-10 -45h158q68 0 68 -64q0 -20 -12.5 -74t-31 -125t-25.5 -104q-10 -48 -10 -70q0 -15 8 -15q27 0 103 111l6 -4q-23 -51 -57 -94t-63 -43q-27 0 -27 42q0 25 10 73q8 36 25.5 106t30 123t13.5 71q1 24 -9 34.5 t-35 10.5h-156l-97 -456q-19 -92 -57.5 -140.5t-92.5 -48.5q-35 0 -58.5 16.5t-23.5 39.5q0 15 12 21q36 -50 77 -50q47 0 70.5 35.5t42.5 125.5l97 457h-209zM234 507l-7 -35h208l8 36q13 57 34 94q-34 70 -111 70t-114 -99q-10 -30 -18 -66z" />
<glyph unicode="&#xfb04;" horiz-adv-x="714" d="M125 -6q-19 -92 -57.5 -140.5t-92.5 -48.5q-35 0 -58.5 16.5t-23.5 39.5q0 15 12 21q36 -50 77 -50q47 0 70.5 35.5t42.5 125.5l97 457h-86l1 7l89 15l6 26q21 95 67 146t107 51q45 0 76 -21.5t41 -46.5q50 68 128 68q32 0 59 -12t37 -29q13 7 25 9l4 -4l-118 -554 q-10 -48 -10 -70q0 -15 8 -15q27 0 103 111l6 -4q-23 -51 -57 -94t-63 -43q-27 0 -27 42q0 25 10 73l110 514q-16 22 -43.5 37.5t-57.5 15.5q-57 0 -93 -55q-24 -36 -39 -100l-10 -45h146l-4 -22h-146l-97 -456q-19 -92 -57.5 -140.5t-92.5 -48.5q-35 0 -58.5 16.5 t-23.5 39.5q0 15 12 21q36 -50 77 -50q47 0 70.5 35.5t42.5 125.5l97 457h-209zM234 507l-7 -35h208l8 36q13 57 34 94q-34 70 -111 70t-114 -99q-10 -30 -18 -66z" />
<glyph unicode="fi" horiz-adv-x="469" d="M125 -6q-19 -92 -57.5 -140.5t-92.5 -48.5q-35 0 -58.5 16.5t-23.5 39.5q0 15 12 21q36 -50 77 -50q47 0 70.5 35.5t42.5 125.5l97 457h-86l1 7l89 15l8 36q19 90 66 138.5t110 48.5q41 0 70.5 -19.5t29.5 -41.5q0 -15 -13 -21q-15 25 -42.5 42t-58.5 17q-57 0 -92 -55 q-24 -35 -38 -100l-10 -45h158q68 0 68 -64q0 -20 -12.5 -74t-31 -125t-25.5 -104q-10 -48 -10 -70q0 -15 8 -15q27 0 103 111l6 -4q-23 -51 -57 -94t-63 -43q-27 0 -27 42q0 25 10 73q8 36 25.5 106t30 123t13.5 71q1 24 -9 34.5t-35 10.5h-156z" />
<glyph unicode="fl" horiz-adv-x="475" d="M125 -6q-19 -92 -57.5 -140.5t-92.5 -48.5q-35 0 -58.5 16.5t-23.5 39.5q0 15 12 21q36 -50 77 -50q47 0 70.5 35.5t42.5 125.5l97 457h-86l1 7l89 15l8 36q19 90 66.5 138.5t111.5 48.5q32 0 59 -12t37 -29q13 7 25 9l4 -4l-118 -554q-10 -48 -10 -70q0 -15 8 -15 q27 0 103 111l6 -4q-23 -51 -57 -94t-63 -43q-27 0 -27 42q0 25 10 73l110 514q-16 22 -43.5 37.5t-57.5 15.5q-57 0 -93 -55q-24 -36 -39 -100l-10 -45h146l-4 -22h-146z" />
<glyph unicode="&#x2f;symbol&#x33;&#x2f;" horiz-adv-x="957" d="M505 638l68 -270h270l-203 -135l136 -270l-271 135l-270 -270l135 405l-270 203l338 -68zM814 87q18 0 30.5 -12.5t12.5 -31.5q0 -18 -12.5 -30.5t-30.5 -12.5t-30.5 12.5t-12.5 30.5q0 19 12.5 31.5t30.5 12.5zM854 43q0 17 -11.5 29t-28.5 12t-28.5 -12t-11.5 -29 t12 -28.5t28 -11.5t28 11.5t12 28.5zM796 68h18q8 0 11 -2q6 -3 6 -10q0 -5 -4 -9q-3 -3 -6 -3q7 -3 8 -10q2 -14 3 -16h-7q-1 2 -2 7.5t-1 6.5q0 9 -10 9h-9v-23h-7v50zM803 47h10q5 0 7 1q3 3 3 6q0 9 -10 9h-10v-16z" />
<glyph unicode="&#x2f;symbol&#x32;&#x2f;" horiz-adv-x="932" d="M494 570l52 -90l-137 -240h-103l137 240l-52 90h103zM357 570l52 -90l-138 -240h-103l138 240l-52 90h103zM752 120h-103l-137 240l51 90l137 -240h103zM683 0h-103l-137 240l51 90l138 -240h103zM100 120l51 90h275l51 -90h-274l-52 -90zM168 0l52 90h274l52 -90h-275 l-51 -90zM789 88q18 0 30.5 -13t12.5 -31t-12.5 -31t-30.5 -13t-30.5 13t-12.5 31t12.5 31t30.5 13zM829 44q0 16 -11.5 28t-28.5 12t-28.5 -12t-11.5 -28t11.5 -28t28.5 -12t28.5 12t11.5 28zM771 69h18q7 0 11 -2q5 -4 5 -11q0 -5 -3 -8q-1 -2 -6 -4q7 -1 8 -9q0 -8 3 -16 h-8q-1 2 -1.5 6.5t-0.5 6.5q-1 10 -11 10h-8v-23h-7v50zM778 47h10q5 0 7 1q3 3 3 7q0 8 -10 8h-10v-16z" />
<glyph unicode="&#x2f;symbol&#x31;&#x2f;" horiz-adv-x="5534" d="M1865 412q-25 0 -40.5 14.5t-15.5 37.5q0 35 32.5 64t70.5 29q24 0 39 -13.5t15 -37.5q0 -36 -31 -65t-70 -29zM1284 412q-26 0 -41.5 14.5t-15.5 37.5q0 35 33 64t71 29q24 0 38.5 -13.5t14.5 -37.5q0 -36 -31 -65t-69 -29zM959 0q0 42 11 108q-16 -50 -51.5 -82.5 t-78.5 -32.5q-41 0 -63 29.5t-22 82.5q0 62 27 121t84 101t132 42q17 0 25 -1l16 73l6 102l136 7q0 -67 -46 -273t-46 -277h-130zM100 0l78 364q17 86 21 136l128 7l11 -15l-104 -492h-134zM3503 492l-57 -492h-131l20 175q5 50 33 215h-3q-31 -102 -81 -215l-76 -175h-149 l-2 175q-2 121 9 215h-2q-32 -130 -59 -215l-53 -175h-109l154 500l184 6l1 -137q2 -134 -15 -259h2q39 126 94 259l56 131l169 7zM5316 300q-37 -177 -37 -183q0 -34 36 -34q25 0 59 18l-9 -79q-52 -29 -114 -29q-105 0 -105 100q0 20 40 210l-47 1l9 44l54 14l53 95l81 6 l13 -15l-20 -86h99l6 -14l-17 -51zM3936 0q0 74 42 260l5 102l137 7q0 -31 -7 -89h2q53 89 134 89q34 0 53 -19.5t19 -51.5q0 -27 -26 -147q-18 -85 -18 -151h-131q0 55 19 150q15 71 15 87q0 24 -17 24q-34 0 -64 -82.5t-32 -178.5h-131zM3768 369q87 0 145 -32l-28 -128 q-31 -145 -31 -209h-130q0 45 12 112q-15 -52 -51 -85.5t-81 -33.5q-41 0 -63 29.5t-22 83.5q0 46 16 91.5t46 84t79 63t108 24.5zM4653 51q-67 -58 -159 -58q-65 0 -103.5 35t-38.5 102q0 94 68.5 166.5t167.5 72.5q54 0 86.5 -23.5t32.5 -64.5q0 -57 -60 -96.5t-161 -43.5 v-1q0 -64 63 -64q42 0 90 28zM2525 369q88 0 146 -32l-29 -128q-31 -145 -31 -209h-130q0 37 12 112q-15 -52 -51 -85.5t-81 -33.5q-41 0 -62.5 29.5t-21.5 83.5q0 62 26.5 120.5t85 100.5t136.5 42zM2245 256q-52 30 -97 30q-18 0 -30 -7t-12 -19q0 -14 20 -26.5t44 -22 t44 -33t20 -56.5q0 -57 -53 -93t-128 -36q-78 0 -118 28l27 93q57 -38 111 -38q19 0 29.5 7.5t10.5 18.5q0 13 -20 26t-44 23t-44 33t-20 55q0 56 54.5 93t128.5 37q58 0 104 -18zM4716 0q0 79 41 260l6 102l137 7q0 -12 -7 -89h2q52 89 134 89q34 0 53 -19.5t19 -51.5 q0 -27 -26 -147q-19 -90 -19 -151h-130q0 55 19 150q15 78 15 87q0 24 -17 24q-35 0 -65 -82t-32 -179h-130zM1752 0q0 69 26 193l15 67l6 102l137 7q0 -46 -27 -177t-27 -192h-130zM1399 362l140 7q13 -129 -5 -289h2q76 151 91 284q22 5 50 5q32 0 48.5 -8.5t16.5 -33.5 q0 -46 -51 -147.5t-116 -179.5h-149q-5 228 -27 362zM1170 0q0 72 27 193l14 67l6 102l137 7q0 -46 -27 -177t-27 -192h-130zM336 0q0 79 41 260l6 102l137 7q0 -31 -7 -89h2q52 89 134 89q34 0 53 -19.5t19 -51.5q0 -27 -26 -147q-18 -85 -18 -151h-131q0 55 19 150 q15 78 15 87q0 24 -17 24q-34 0 -64 -82.5t-32 -178.5h-131zM4490 177q47 10 73 34t26 59q0 31 -22 31q-28 0 -48.5 -38.5t-28.5 -85.5zM2435 101q23 0 47 43.5t37 100.5q3 14 9 44q-14 8 -27 8q-34 0 -62 -54.5t-28 -101.5q0 -40 24 -40zM913 101q22 0 44.5 39.5t37.5 94.5 q1 9 8 40l3 14q-14 8 -27 8q-33 0 -61.5 -54.5t-28.5 -101.5q0 -40 24 -40zM3677 101q23 0 47 43t38 101q1 8 4.5 24.5t4.5 19.5q-16 8 -27 8q-34 0 -62.5 -54.5t-28.5 -101.5q0 -40 24 -40z" />
<glyph unicode="&#x2f;symbol&#x35;&#x2f;" horiz-adv-x="705" d="M232 -6l-132 136l124 234l129 -136zM474 -6l-121 234l128 136l124 -234z" />
<glyph unicode="&#x2f;symbol&#x34;&#x2f;" horiz-adv-x="2607" d="M1684 406q0 65 -11 128l126 14l15 -15v-533h-130v406zM1889 406q0 62 -10 128l126 14l14 -15v-533h-130v406zM427 101v-101h-320v362q0 80 -7 135l126 7l14 -14v-396zM925 21l7 109q62 -36 144 -36q50 0 50 36q0 20 -31.5 41.5t-69 40.5t-69 57t-31.5 88q0 69 55 108 t138 39q80 0 127 -18l-14 -111q-56 29 -111 29q-27 0 -42.5 -11t-15.5 -29q0 -20 20.5 -38t50 -34t59.5 -35t50.5 -51t20.5 -72q0 -66 -53.5 -103.5t-139.5 -37.5q-41 0 -83.5 8t-61.5 20zM2405 213q0 -24 -1 -36l-11 -11h-191q14 -83 98 -83q44 0 84 21l7 -81 q-46 -30 -127 -30q-90 0 -144 47.5t-54 134.5q0 85 52 139t132 54q72 0 113.5 -43t41.5 -112zM795 0l-106 -7q-11 16 -21 49h-4q-34 -49 -104 -49q-43 0 -70 23t-27 66q0 113 191 118v20q0 54 -58 54q-55 0 -108 -29l-8 97q72 26 150 26q154 0 154 -135q0 -25 -2 -69t-2 -70 q0 -51 15 -94zM1626 0l-107 -7q-12 20 -21 49h-3q-34 -49 -105 -49q-43 0 -69.5 23t-26.5 66q0 113 191 118v20q0 54 -58 54q-54 0 -109 -29l-7 97q72 26 150 26q153 0 153 -135q0 -25 -1.5 -69.5t-1.5 -69.5q0 -51 15 -94zM2199 207l78 4q2 14 2 26q0 59 -34 59 q-44 0 -46 -89zM654 74v88q-29 -3 -47 -18t-18 -39q0 -18 10 -29t27 -11q16 0 28 9zM1485 74v88q-29 -3 -47 -18t-18 -39q0 -18 10 -29t27 -11q16 0 28 9zM2464 85q18 0 30.5 -13t12.5 -31t-12.5 -31t-30.5 -13t-31 13t-13 31t13 31t31 13zM2504 41q0 17 -12 28.5t-28 11.5 t-28 -11.5t-12 -28.5t12 -28.5t28 -11.5t28 11.5t12 28.5zM2446 66h18q7 0 11 -3q5 -3 5 -10q0 -5 -3 -9q-3 -3 -6 -3q7 -1 8 -10q0 -7 3 -15h-8q-1 2 -1.5 6.5t-0.5 6.5q-1 9 -11 9h-8v-22h-7v50zM2453 44h10q5 0 7 1q3 3 3 7q0 8 -10 8h-10v-16z" />
<glyph unicode=" "  horiz-adv-x="250" />
<glyph unicode="&#x09;" horiz-adv-x="250" />
<glyph unicode="&#xa0;" horiz-adv-x="250" />
<glyph unicode="!" horiz-adv-x="264" d="M259 690l4 3q12 2 22 2q11 0 9 -10q-2 -7 -21 -93l-100 -438h-18zM170 35q0 -17 -11.5 -31t-28.5 -14q-26 0 -26 26q0 17 12.5 30.5t28.5 13.5q25 0 25 -25z" />
<glyph unicode="&#x22;" horiz-adv-x="296" d="M211 692l3 3q18 0 27 -3l5 -6l-57 -217l-14 2l17 102zM343 692l3 3q18 0 27 -3l5 -6l-57 -217l-14 2l17 102z" />
<glyph unicode="#" horiz-adv-x="711" d="M670 193h-167l-64 -203l-21 3l-6 7l61 193h-180l-64 -203l-21 3l-6 7l61 193h-143l-6 5l5 20h152l67 215h-157l-6 5l4 20h167l64 202l21 -3l6 -7l-61 -192h180l64 202l21 -3l6 -7l-61 -192h143l6 -5l-4 -20h-152l-68 -215h158l5 -5zM301 218h180l67 215h-179z" />
<glyph unicode="$" horiz-adv-x="449" d="M206 -120l-25 -2l-4 5l23 108q-89 5 -120 41q-10 12 -10 22q0 46 32 136h8l-10 -143q37 -35 121 -35q76 0 123 40t47 108q0 43 -23 79t-55.5 61.5t-64.5 51.5t-55 61.5t-23 78.5q0 71 54 117t135 51l24 110l25 2l4 -5l-23 -107q82 -3 111 -34q8 -10 8 -19 q0 -18 -12 -65.5t-21 -68.5h-8l10 141q-37 24 -108 24q-72 0 -119 -39t-47 -100q0 -40 23 -73.5t55.5 -59.5t64.5 -52.5t55 -65t23 -85.5q0 -75 -53 -122.5t-141 -50.5z" />
<glyph unicode="%" horiz-adv-x="856" d="M756 660h38l-543 -670h-37zM425 525q0 -94 -44 -167t-114 -73q-47 0 -73 36t-26 96q0 93 44 166t114 73q47 0 73 -36t26 -95zM196 417q0 -52 18.5 -81.5t55.5 -29.5q40 0 70 34t43.5 82.5t13.5 101.5q0 52 -18.5 81.5t-55.5 29.5q-40 0 -70 -34t-43.5 -82.5t-13.5 -101.5 zM826 237q0 -94 -44 -167t-114 -73q-47 0 -73 36t-26 96q0 93 44 166t114 73q47 0 73 -36t26 -95zM597 129q0 -52 18.5 -81.5t55.5 -29.5q40 0 70 34t43.5 82.5t13.5 101.5q0 52 -18.5 81.5t-55.5 29.5q-40 0 -70 -34t-43.5 -82.5t-13.5 -101.5z" />
<glyph unicode="&#x26;" horiz-adv-x="744" d="M439 660q54 0 83.5 -30t29.5 -73q0 -55 -61 -105q63 -5 147 0t123 15h3q7 -7 7 -19q0 -25 -53 -25q-48 0 -75 1q-5 -122 -63 -235q15 -6 43 -17.5t39 -16.5q18 -7 24.5 -22.5t6.5 -49.5q0 -35 -11.5 -64t-30.5 -29q-9 0 -16 7l-1 5q31 37 31 100q0 3 -3 14t-3 14 q-14 5 -40 15q-36 14 -52 21q-103 -176 -270 -176q-81 0 -129 42.5t-48 113.5q0 139 168 215q-30 51 -30 111q0 79 52.5 133.5t128.5 54.5zM289 471q0 -49 22 -91.5t63.5 -75.5t83 -56.5t99.5 -48.5q48 101 53 226q-63 3 -133 10l-10 17q52 40 52 100q0 38 -23 60.5 t-64 22.5q-61 0 -102 -45t-41 -119zM152 147q0 -59 39.5 -95.5t108.5 -36.5q156 0 245 160q-183 80 -246 169q-63 -27 -105 -78.5t-42 -118.5z" />
<glyph unicode="'" horiz-adv-x="164" d="M211 692l3 3q18 0 27 -3l5 -6l-57 -217l-14 2l17 102z" />
<glyph unicode="(" horiz-adv-x="336" d="M274 -85l-12 -12q-105 135 -105 285q0 155 74.5 288t197.5 219l8 -14q-248 -208 -248 -491q0 -143 85 -275z" />
<glyph unicode=")" horiz-adv-x="336" d="M189 683l12 12q105 -135 105 -285q0 -155 -74.5 -288t-197.5 -219l-8 14q248 208 248 491q0 143 -85 275z" />
<glyph unicode="*" horiz-adv-x="424" d="M326 464q-3 -15 -18 -15q-14 0 -14 14q0 7 4.5 19.5t13 35.5t15.5 46q-21 -12 -45.5 -28.5t-37.5 -24t-20 -7.5q-13 0 -13 15q0 10 12 15q9 4 42 16t57 22q-18 9 -43.5 20.5t-31.5 15.5q-10 7 -10 15q0 17 17 17q7 0 17.5 -8t28 -25t30.5 -27q4 28 6 60.5t4 39.5 q3 15 18 15q14 0 14 -13q0 -7 -3.5 -18.5t-12.5 -37t-16 -46.5q23 12 46.5 28t36 24t19.5 8q14 0 14 -15q0 -9 -15 -15q-68 -26 -97 -39q17 -9 42 -20t33 -15q12 -7 12 -15q0 -18 -17 -18q-7 0 -18 8.5t-30 25.5t-30 26q-4 -27 -6 -59t-4 -40z" />
<glyph unicode="+" horiz-adv-x="539" d="M525 312h-174l-39 -182h-28l39 182h-182l5 23q84 2 182 2l39 183h28l-39 -183q69 1 176 1l3 -5z" />
<glyph unicode="," horiz-adv-x="208" d="M149 30q0 -35 -32 -89t-81 -100l-5 5q58 69 79 144q-24 0 -24 25q0 17 12 30t26 13q25 0 25 -28z" />
<glyph unicode="-" horiz-adv-x="369" d="M101 249l5 25h273l-5 -25h-273z" />
<glyph unicode="." horiz-adv-x="189" d="M92 -10q-24 0 -24 25q0 17 12 30t27 13q24 0 24 -23q0 -18 -11.5 -31.5t-27.5 -13.5z" />
<glyph unicode="/" horiz-adv-x="372" d="M110 -10l-25 12l319 692l3 1l25 -12l-319 -692z" />
<glyph unicode="0" horiz-adv-x="513" d="M537 438q0 -105 -35 -208t-99 -171.5t-139 -68.5q-73 0 -111.5 57t-38.5 158q0 109 35.5 213t100.5 173t141 69q72 0 109 -59.5t37 -162.5zM146 214q0 -93 31 -148.5t88 -55.5q66 0 122.5 68.5t87 166t30.5 191.5q0 95 -28.5 149.5t-86.5 54.5q-67 0 -124.5 -68.5 t-88.5 -166t-31 -191.5z" />
<glyph unicode="1" horiz-adv-x="348" d="M306 0h-262v10l103 12q18 3 22 17l128 592l-119 -15v7l150 37l6 -7l-133 -614l-3 -13l109 -16z" />
<glyph unicode="2" horiz-adv-x="470" d="M160 20q-64 0 -107 -30l-12 15q238 200 331 310.5t93 199.5q0 55 -31.5 86.5t-87.5 31.5t-106.5 -38.5t-82.5 -105.5l-7 3q23 77 79 122.5t124 45.5q66 0 105 -38.5t39 -104.5q0 -46 -22 -94.5t-69 -103t-91.5 -98.5t-116.5 -108q-67 -58 -94 -80q33 13 74 13 q37 0 114.5 -12t91.5 -12q5 0 10 2.5t9 8t7.5 10.5t7.5 15.5t6.5 16t7 18.5t6.5 18l7 -2q-9 -48 -17 -74q-13 -45 -42 -45q-22 0 -104.5 15t-121.5 15z" />
<glyph unicode="3" horiz-adv-x="419" d="M414 217q0 -92 -99 -154t-260 -73l-1 14q152 21 240 75t88 140q0 56 -41.5 85t-107.5 29q-15 0 -49 -2l-2 19q118 13 184 64t66 125q0 44 -26.5 69.5t-75.5 25.5q-54 0 -99.5 -33t-74.5 -92l-7 3q21 67 73.5 107.5t113.5 40.5q57 0 92 -33t35 -88q0 -65 -54.5 -117.5 t-139.5 -71.5q65 -7 105 -42t40 -91z" />
<glyph unicode="4" horiz-adv-x="502" d="M75 200l405 460l19 -5l-96 -451l107 1l-7 -30l-106 1l-37 -176h-30l38 176l-285 2zM460 608l-352 -407l265 3z" />
<glyph unicode="5" horiz-adv-x="441" d="M433 244q0 -102 -103 -175.5t-256 -78.5l-1 14q141 15 234.5 80.5t93.5 157.5q0 114 -139 114q-53 0 -98 -15l-13 12l68 300q28 -1 77 -2.5t87 -2.5t65 -1q21 0 32 10.5t23 35.5l7 -2q-9 -41 -21.5 -58.5t-41.5 -17.5q-79 0 -212 9l-58 -257q50 13 91 13q80 0 122.5 -35 t42.5 -101z" />
<glyph unicode="6" horiz-adv-x="489" d="M120 172q0 187 122.5 325.5t300.5 162.5l1 -14q-146 -28 -254 -135.5t-135 -251.5q29 61 82.5 97.5t109.5 36.5q65 0 102.5 -44t37.5 -123q0 -95 -61 -165.5t-146 -70.5q-75 0 -117.5 49.5t-42.5 132.5zM455 224q0 71 -30 110t-86 39q-66 0 -126 -61t-61 -142 q-1 -74 33 -117t97 -43q76 0 124.5 63.5t48.5 150.5z" />
<glyph unicode="7" horiz-adv-x="425" d="M181 -3q-4 -7 -15 -7q-10 0 -17 9q248 417 326 578q-68 22 -143 37t-115 15q-31 0 -47 -19.5t-30 -64.5l-8 1q7 33 11.5 48t13 33.5t21 25.5t31.5 7q88 0 274 -65q19 38 30 65q12 -5 12 -19q0 -24 -130 -265t-214 -379z" />
<glyph unicode="8" horiz-adv-x="472" d="M447 165q0 -74 -57.5 -124.5t-140.5 -50.5q-68 0 -115 37t-47 99q0 133 201 212q-49 40 -75.5 76t-26.5 85q0 66 51 113.5t126 47.5q65 0 102.5 -35.5t37.5 -91.5q0 -115 -171 -197q38 -31 57.5 -49t38.5 -52t19 -70zM216 500q0 -45 25.5 -78.5t74.5 -72.5 q158 69 158 184q0 48 -30 77.5t-80 29.5q-62 0 -105 -40.5t-43 -99.5zM116 128q0 -54 39.5 -86t95.5 -32q74 0 120 43.5t46 110.5q0 34 -19.5 66t-37 48t-57.5 48q-187 -77 -187 -198z" />
<glyph unicode="9" horiz-adv-x="489" d="M507 478q0 -187 -122.5 -325.5t-300.5 -162.5l-1 14q146 28 254 135.5t135 251.5q-29 -61 -82.5 -97.5t-109.5 -36.5q-65 0 -102.5 44t-37.5 123q0 95 61 165.5t146 70.5q75 0 117.5 -49.5t42.5 -132.5zM172 426q0 -71 30 -110t86 -39q66 0 126 61t61 142q1 74 -33 117 t-97 43q-76 0 -124.5 -63.5t-48.5 -150.5z" />
<glyph unicode=":" horiz-adv-x="190" d="M167 340q-24 0 -24 25q0 17 12 30t27 13q24 0 24 -23q0 -18 -11.5 -31.5t-27.5 -13.5zM93 -10q-24 0 -24 25q0 17 12 30t27 13q24 0 24 -23q0 -18 -11.5 -31.5t-27.5 -13.5z" />
<glyph unicode=";" horiz-adv-x="208" d="M184 340q-24 0 -24 25q0 17 12 30t27 13q24 0 24 -23q0 -18 -11.5 -31.5t-27.5 -13.5zM149 30q0 -35 -32 -89t-81 -100l-5 5q58 69 79 144q-24 0 -24 25q0 17 12 30t26 13q25 0 25 -28z" />
<glyph unicode="&#x3c;" horiz-adv-x="538" d="M557 518l-6 -32l-370 -165l300 -161l-7 -27q-163 82 -336 182l2 16z" />
<glyph unicode="=" horiz-adv-x="540" d="M547 413h-384l5 23q132 3 386 3l3 -5zM504 211h-384l5 23q132 3 386 3l3 -5z" />
<glyph unicode="&#x3e;" horiz-adv-x="538" d="M119 133l6 32l370 165l-300 161l7 27q163 -82 336 -182l-2 -16z" />
<glyph unicode="?" horiz-adv-x="408" d="M345 695q65 0 108.5 -39t43.5 -104q0 -50 -25 -94t-60.5 -75.5t-71.5 -59.5t-61 -57.5t-25 -58.5q0 -31 25 -47l-3 -6q-22 5 -36 20.5t-14 36.5q0 31 24.5 62.5t59.5 60t70.5 59t60 72.5t24.5 88q0 56 -35.5 87.5t-92.5 31.5q-71 0 -120.5 -52.5t-49.5 -121.5 q0 -12 3 -24q-5 -4 -14 -4q-21 0 -21 35q0 73 60.5 131.5t149.5 58.5zM252 35q0 -17 -11.5 -31t-28.5 -14q-26 0 -26 26q0 17 12.5 30.5t28.5 13.5q25 0 25 -25z" />
<glyph unicode="@" horiz-adv-x="995" d="M617 635q-86 0 -171.5 -36t-153.5 -98t-110.5 -156t-42.5 -200q0 -145 91.5 -230t239.5 -85q162 0 293 84l9 -14q-122 -95 -305 -95q-158 0 -259.5 91t-101.5 241q0 115 44.5 214.5t117.5 166t165.5 104.5t188.5 38q162 0 264.5 -97t102.5 -246q0 -137 -77 -232t-169 -95 q-73 0 -101.5 53.5t-14.5 139.5l15 95q-119 -288 -208 -288q-33 0 -53 33t-20 93q0 100 37.5 191t102 147t138.5 56q42 0 86 -20l-10 -39l-46 -191q-60 -245 80 -245q75 0 141 88.5t66 216.5q0 138 -93.5 226.5t-245.5 88.5zM439 16q31 0 77.5 64t89.5 157.5t68 182.5l15 54 q-29 11 -61 11q-91 0 -162.5 -111.5t-71.5 -256.5q0 -44 11.5 -72.5t33.5 -28.5z" />
<glyph unicode="A" horiz-adv-x="685" d="M476 654h13l87 -590q4 -25 10.5 -32.5t27.5 -12.5l45 -9l-2 -10h-204v10l96 15l-29 204l-259 -2l1 5l-116 -206l90 -16l-2 -10h-204v10l53 10q22 4 32.5 12.5t23.5 31.5zM275 254l242 -3l-50 342z" />
<glyph unicode="B" horiz-adv-x="561" d="M172 0h-122v10l78 12q17 2 20 17l122 572l3 13l-89 16l3 10h205q82 0 126.5 -34t44.5 -97q0 -67 -46 -117.5t-113 -67.5q63 -11 100 -50t37 -92q0 -93 -74.5 -142.5t-206.5 -49.5h-88l5 23h92q110 0 174.5 44.5t64.5 122.5q0 58 -45 94.5t-135 36.5h-88l-60 -282z M386 627h-81l-3 -16l-57 -267h90q80 0 137.5 49.5t57.5 121.5q0 112 -144 112z" />
<glyph unicode="C" d="M487 660q80 0 131 -32q-7 -76 -39 -172h-8l12 159q-47 21 -101 21q-141 0 -235 -113t-94 -263q0 -118 61 -182t159 -64q64 0 102 20l57 168h8q-3 -28 -19 -115q-2 -13 -16 -65q-52 -32 -134 -32q-113 0 -182 70t-69 193q0 110 45.5 202.5t130 148.5t191.5 56z" />
<glyph unicode="D" horiz-adv-x="634" d="M269 0h-219v10l78 12q17 2 20 17l122 572l3 13l-89 16l3 10h201q129 0 197.5 -64.5t68.5 -178.5q0 -78 -24.5 -149.5t-71 -129.5t-121.5 -93t-168 -35zM379 628h-74l-3 -17l-122 -572l-3 -17h94q110 0 191.5 55t120 140.5t38.5 186.5q0 108 -60.5 166t-181.5 58z" />
<glyph unicode="E" horiz-adv-x="515" d="M469 0h-419v10l78 12q17 2 20 17l122 572l3 13l-89 16l3 10h410q-6 -77 -39 -175h-7l11 150q-47 2 -140 2h-117l-3 -16l-57 -269l216 4l-6 -30l-215 5l-60 -282l-3 -16h123q97 0 144 2l53 150h7q-2 -32 -9 -70q-12 -65 -26 -105z" />
<glyph unicode="F" horiz-adv-x="490" d="M288 0h-237l-1 8l78 12q17 2 20 17l122 574l3 13l-89 16l3 10h409q-7 -81 -41 -183h-7l13 158q-47 2 -140 2h-116l-3 -16l-59 -279l220 4l-6 -30l-219 5l-58 -274l-3 -14l113 -15z" />
<glyph unicode="G" horiz-adv-x="622" d="M515 22q-54 -32 -140 -32q-114 0 -184.5 68t-70.5 195q0 110 46 202.5t132 148.5t194 56q84 0 136 -32q-7 -76 -39 -172h-8l12 160q-46 20 -106 20q-95 0 -173 -53.5t-119.5 -139.5t-41.5 -183q0 -120 62.5 -183t162.5 -63q64 0 108 21l47 223l2 12l-91 17l3 8h200l-1 -8 l-62 -12q-16 -4 -19 -17z" />
<glyph unicode="H" horiz-adv-x="693" d="M264 0h-214v10l78 12q17 2 20 17l122 572l3 13l-89 16l2 10h214v-10l-78 -12q-17 -2 -20 -17l-57 -268h349l57 268l3 13l-89 16l2 10h214v-10l-78 -12q-17 -2 -20 -17l-122 -572l-3 -13l89 -16l-2 -10h-214v10l78 12q17 2 20 17l60 281h-349l-60 -281l-3 -13l89 -16z" />
<glyph unicode="I" horiz-adv-x="312" d="M264 0h-214v10l78 12q17 2 20 17l122 572l3 13l-89 16l2 10h214v-10l-78 -12q-17 -2 -20 -17l-122 -572l-3 -13l89 -16z" />
<glyph unicode="J" horiz-adv-x="312" d="M196 111q-18 -85 -53.5 -132t-113.5 -94l-7 11q65 50 95.5 95.5t48.5 130.5l104 489l3 13l-89 16l2 10h214v-10l-78 -12q-17 -2 -20 -17z" />
<glyph unicode="K" horiz-adv-x="635" d="M264 0h-214v10l78 12q17 2 20 17l121 572l3 13l-89 16l2 10h214v-10l-78 -12q-17 -2 -20 -17l-56 -267h148l227 282l-93 14l2 10h204v-8l-58 -11q-24 -4 -43 -27l-216 -267l108 -276q8 -20 18.5 -28t32.5 -14l47 -11l-1 -8h-50q-58 0 -79 54l-103 267h-149l-60 -282 l-3 -13l89 -16z" />
<glyph unicode="L" horiz-adv-x="506" d="M461 0h-411v10l78 12q17 2 20 17l122 572l3 13l-89 16l2 10h214v-10l-78 -12q-17 -2 -20 -17l-122 -572l-3 -16h117q94 0 141 2l52 151h8q-2 -29 -18 -113q-6 -32 -16 -63z" />
<glyph unicode="M" horiz-adv-x="872" d="M224 650h134l84 -586l343 586h120v-10l-86 -15l-63 -600l86 -15l-3 -10h-212l1 10l44 7q35 6 43.5 12t11.5 31l60 544l-338 -576l-18 -32h-13l-3 32l-83 582l-176 -586l78 -14l-3 -10h-199l1 10l52 8q30 4 39 11.5t17 34.5l170 560l-89 16z" />
<glyph unicode="N" horiz-adv-x="696" d="M258 0h-206v10l77 12q16 2 19 17l125 587l-88 16l2 8h128l223 -610l122 571l3 13l-89 16l2 10h206v-10l-77 -12q-16 -2 -19 -17l-130 -611h-37l-223 612l-122 -573l-3 -13l89 -16z" />
<glyph unicode="O" d="M581 428q0 -108 -36.5 -208t-105 -165t-150.5 -65q-83 0 -128 61.5t-45 168.5q0 108 38 209t107.5 166t151.5 65t125 -62.5t43 -169.5zM149 229q0 -102 38.5 -159t103.5 -57q72 0 132.5 64t92.5 158t32 191q0 96 -36 153.5t-103 57.5q-72 0 -133 -64t-94 -157.5 t-33 -186.5z" />
<glyph unicode="P" horiz-adv-x="518" d="M288 0h-237l-1 8l78 12q17 2 20 17l122 574l3 13l-89 16l3 10h201q90 0 146 -38.5t56 -114.5q0 -107 -82 -169.5t-208 -62.5h-72l-48 -228l-3 -14l113 -15zM379 627h-74l-3 -16l-69 -323h71q112 0 182 55.5t70 149.5q0 134 -177 134z" />
<glyph unicode="Q" d="M581 428q0 -104 -34.5 -201t-98 -163t-141.5 -73q65 -49 155 -82.5t183 -33.5q49 0 87 10q3 -4 3 -11q0 -34 -94 -34q-92 0 -192.5 42t-185.5 110q-71 9 -109 69t-38 159q0 108 38 209t107.5 166t151.5 65t125 -62.5t43 -169.5zM149 229q0 -102 38.5 -159t103.5 -57 q72 0 132.5 64t92.5 158t32 191q0 96 -36 153.5t-103 57.5q-72 0 -133 -64t-94 -157.5t-33 -186.5z" />
<glyph unicode="R" horiz-adv-x="606" d="M264 0h-214v10l78 12q17 2 20 17l122 572l3 13l-89 16l3 10h203q88 0 139.5 -39t51.5 -113q0 -77 -51.5 -131t-125.5 -72h-1l94 -237q8 -19 18 -26.5t30 -11.5l48 -10l-1 -10h-52q-33 0 -49 12t-27 41l-91 235q-26 -3 -54 -3h-87l-52 -246l-3 -13l89 -16zM385 627h-80 l-3 -16l-65 -303h86q103 0 164.5 54.5t61.5 135.5q0 64 -44.5 96.5t-119.5 32.5z" />
<glyph unicode="S" horiz-adv-x="463" d="M184 492q0 75 58.5 121.5t145.5 46.5q94 0 126 -34q8 -10 8 -19q0 -18 -12 -65.5t-21 -68.5h-8l10 141q-37 24 -108 24q-72 0 -119 -39t-47 -100q0 -40 23 -73.5t55.5 -59.5t64.5 -52.5t55 -65t23 -85.5q0 -77 -56 -125t-148 -48q-47 0 -86 12t-54 30q-10 12 -10 22 q0 46 32 136h8l-10 -143q37 -35 121 -35q76 0 123 40t47 108q0 43 -23 79t-55.5 61.5t-64.5 51.5t-55 61.5t-23 78.5z" />
<glyph unicode="T" horiz-adv-x="513" d="M364 0h-214v10l78 12q17 2 20 17l125 588h-93q-67 0 -100 -1l-54 -153h-7q6 45 8 57q8 50 28 120h478q-7 -87 -40 -177h-7l12 153q-33 1 -100 1h-93l-125 -588l-3 -13l89 -16z" />
<glyph unicode="U" horiz-adv-x="656" d="M577 221q-24 -113 -89.5 -172t-153.5 -59q-76 0 -122 44t-46 128q0 30 8 68l81 381l3 13l-89 16l2 10h214v-10l-78 -12q-17 -2 -20 -17l-82 -385q-8 -35 -8 -60q0 -72 39.5 -111t104.5 -39q73 0 131 54t79 153l83 390l2 11l-89 16l2 10h209v-10l-95 -16l-3 -11z" />
<glyph unicode="V" horiz-adv-x="654" d="M336 -4h-13l-88 590q-4 24 -10.5 33t-24.5 12l-50 9l2 10h198v-10l-88 -15l83 -565l319 565l-88 15l2 10h198v-10q-28 -4 -54 -10q-19 -4 -29 -13.5t-22 -30.5z" />
<glyph unicode="W" horiz-adv-x="974" d="M991 586l-330 -590h-13l-57 463l-260 -463h-13l-83 590q-3 23 -9 32t-23 12l-53 10l2 10h198v-10l-88 -15l78 -564l245 441l-10 84q-3 23 -9.5 32t-22.5 12l-53 10l2 10h198v-10l-88 -15l70 -563l312 562l-88 16l2 10h198v-10q-36 -6 -54 -10q-20 -4 -29.5 -13t-21.5 -31 z" />
<glyph unicode="X" horiz-adv-x="645" d="M143 58l230 270l-117 262q-11 23 -18.5 30.5t-23.5 10.5l-50 9l2 10h198v-10l-89 -15l123 -275l223 275l-84 15l2 10h198v-10q-16 -2 -54 -10q-23 -5 -52 -38l-224 -263l123 -276q14 -30 39 -34l50 -9l-2 -10h-198v10l89 15l-126 282l-229 -282l84 -15l-2 -10h-198v10 q23 3 54 10q25 5 52 38z" />
<glyph unicode="Y" horiz-adv-x="584" d="M403 0h-214v10l78 12q17 2 20 17l22 104q15 89 11 197t-28 199t-55 91q-38 0 -104 -111l-8 4q20 50 54.5 93.5t66.5 43.5q50 0 80.5 -131.5t21.5 -292.5q67 170 145.5 297t125.5 127q16 0 27.5 -11t18.5 -32t10.5 -39t7.5 -45l-9 -4q-9 29 -13 41.5t-11 29.5t-14.5 23.5 t-17.5 6.5q-29 0 -90.5 -89.5t-116.5 -206t-70 -189.5l-22 -106l-3 -13l89 -16z" />
<glyph unicode="Z" horiz-adv-x="527" d="M487 77q-7 -37 -20 -77h-406l-1 17l497 611h-327l-57 -163h-8q4 55 17 111q11 47 20 74h397l1 -17l-498 -611h337l57 163h8q-2 -35 -17 -108z" />
<glyph unicode="[" horiz-adv-x="366" d="M281 -96h-157l168 791h157l-5 -23h-127l-159 -745h128z" />
<glyph unicode="\" horiz-adv-x="448" d="M360 -6l-28 -4l-101 698l2 3l28 4l101 -698z" />
<glyph unicode="]" horiz-adv-x="365" d="M212 695h157l-168 -791h-157l5 23h127l159 745h-128z" />
<glyph unicode="^" horiz-adv-x="600" d="M217 210h-35l213 335h36l76 -335h-34l-68 299z" />
<glyph unicode="_" horiz-adv-x="512" d="M9 -185l5 25h416l-5 -25h-416z" />
<glyph unicode="`" horiz-adv-x="351" d="M240 585l-8 -8q-115 96 -115 128q0 18 17 18h3q30 -56 103 -138z" />
<glyph unicode="a" horiz-adv-x="428" d="M78 94q0 91 35.5 186.5t100.5 162.5t138 67q45 0 76 -20l-23 -93l-63 -292q-10 -48 -10 -70q0 -15 8 -15q27 0 103 111l6 -4q-23 -51 -57 -94t-63 -43q-27 0 -27 42q0 25 10 73l45 197q-52 -140 -113 -226t-106 -86q-60 0 -60 104zM378 407l14 66q-27 13 -61 13 q-55 0 -108 -61.5t-84 -151.5t-31 -174q0 -81 37 -81q42 0 112 111.5t121 277.5z" />
<glyph unicode="b" horiz-adv-x="407" d="M106 105l100 470l20 96l-85 8v5q105 10 116 11l4 -4l-25 -116q-51 -232 -86 -382q52 145 110.5 231t106.5 86q65 0 65 -113q0 -89 -30 -181.5t-89 -159t-131 -66.5q-67 0 -97 25zM360 482q-43 0 -109 -109.5t-117 -275.5l-15 -66q34 -17 84 -17q54 0 101 61.5t72.5 148 t25.5 168.5q0 90 -42 90z" />
<glyph unicode="c" horiz-adv-x="341" d="M347 139q-24 -59 -67.5 -104t-87.5 -45q-49 0 -75.5 41t-26.5 116q0 84 30 168.5t79.5 139.5t102.5 55q36 0 55.5 -25.5t19.5 -66.5q0 -36 -9.5 -64.5t-26.5 -28.5q-8 0 -13 4q18 40 18 84q0 77 -51 77q-42 0 -83 -54.5t-65.5 -134t-24.5 -153.5q0 -62 19 -98t53 -36 q35 0 74.5 36.5t72.5 92.5z" />
<glyph unicode="d" horiz-adv-x="428" d="M312 105l39 182q-52 -134 -110.5 -215.5t-102.5 -81.5q-60 0 -60 104q0 91 35.5 186.5t100.5 162.5t138 67q26 0 45 -6l15 71l20 96l-85 8v5q105 10 116 11l4 -4l-25 -116l-100 -470q-10 -48 -10 -70q0 -15 8 -15q27 0 103 111l6 -4q-23 -51 -57 -94t-63 -43 q-27 0 -27 42q0 25 10 73zM145 18q42 0 111.5 112t120.5 278l14 65q-26 13 -60 13q-55 0 -108 -61.5t-84 -151.5t-31 -174q0 -81 37 -81z" />
<glyph unicode="e" horiz-adv-x="329" d="M347 139q-25 -60 -67.5 -104.5t-91.5 -44.5q-46 0 -72 41.5t-26 115.5q0 84 29.5 168t79.5 139.5t104 55.5q34 0 52.5 -21.5t18.5 -55.5q0 -94 -74.5 -153.5t-172.5 -65.5q-5 -37 -5 -65q0 -62 18.5 -98.5t53.5 -36.5q34 0 74 36.5t73 92.5zM297 490q-52 0 -100.5 -78.5 t-66.5 -179.5q99 12 155.5 68t56.5 133q0 25 -11 41t-34 16z" />
<glyph unicode="f" horiz-adv-x="272" d="M125 -6q-19 -92 -57.5 -140.5t-92.5 -48.5q-35 0 -58.5 16.5t-23.5 39.5q0 15 12 21q36 -50 77 -50q47 0 70.5 35.5t42.5 125.5l97 457h-86l1 7l89 15l8 36q19 91 58 139t93 48q34 0 58 -17t24 -37q0 -15 -13 -21q-13 22 -35.5 37t-47.5 15q-74 0 -105 -155l-10 -45h146 l-4 -22h-146z" />
<glyph unicode="g" horiz-adv-x="331" d="M319 -70q0 -44 -55.5 -84.5t-128.5 -40.5q-69 0 -107 26.5t-38 69.5q0 60 86 113l5 -5q-59 -52 -59 -99q0 -38 31 -59.5t87 -21.5q58 0 102.5 28t44.5 67q0 24 -23.5 45t-51.5 33.5t-51.5 30.5t-23.5 35q0 16 19.5 35t64.5 53l12 9q-16 -4 -30 -4q-43 0 -69.5 32 t-26.5 91q0 91 51.5 158.5t126.5 67.5q119 0 174 8q3 -6 3 -13q0 -22 -28 -22q-29 0 -112 11q40 -30 40 -102q0 -57 -20 -106t-48 -81t-56.5 -57t-48.5 -44t-20 -31q0 -11 23.5 -27t51.5 -30.5t51.5 -38t23.5 -47.5zM137 290q0 -51 18.5 -79.5t52.5 -28.5q48 0 86 60.5 t38 147.5q0 43 -15.5 69.5t-46.5 26.5q-52 0 -92.5 -60t-40.5 -136z" />
<glyph unicode="h" horiz-adv-x="466" d="M124 -3q-21 -7 -26 -7q-6 0 -4 6l23 109h1l100 470l20 96l-85 8v5q105 10 116 11l4 -4l-25 -116q-75 -346 -81 -370q58 140 121 222.5t115 82.5q51 0 51 -59q0 -32 -13 -92.5t-33.5 -139t-27.5 -114.5q-10 -48 -10 -70q0 -15 8 -15q27 0 103 111l6 -4q-23 -51 -57 -94 t-63 -43q-27 0 -27 42q0 25 10 73q8 39 28 116.5t33 136t13 88.5q0 36 -28 36q-48 0 -119.5 -106t-128.5 -271h-1z" />
<glyph unicode="i" horiz-adv-x="246" d="M282 660q0 -17 -11.5 -31t-28.5 -14q-26 0 -26 26q0 17 12.5 30.5t28.5 13.5q25 0 25 -25zM130 105q9 43 35 146t34 144q10 48 10 70q0 15 -8 15q-27 0 -103 -111l-6 4q23 51 57 94t63 43q27 0 27 -42q0 -25 -10 -73q-9 -45 -35 -149.5t-34 -140.5q-10 -48 -10 -70 q0 -15 8 -15q27 0 103 111l6 -4q-23 -51 -57 -94t-63 -43q-27 0 -27 42q0 25 10 73z" />
<glyph unicode="j" horiz-adv-x="222" d="M289 660q0 -17 -11.5 -31t-28.5 -14q-26 0 -26 26q0 17 12.5 30.5t28.5 13.5q25 0 25 -25zM149 -6q-19 -92 -57.5 -140.5t-92.5 -48.5q-35 0 -58.5 16.5t-23.5 39.5q0 15 12 21q36 -50 77 -50q47 0 70.5 35.5t42.5 125.5l85 402q10 48 10 70q0 15 -8 15q-27 0 -103 -111 l-6 4q23 51 57 94t63 43q27 0 27 -42q0 -25 -10 -73z" />
<glyph unicode="k" horiz-adv-x="444" d="M125 -3q-21 -7 -26 -7t-4 6l23 109l100 470l20 96l-85 8v5q105 10 116 11l4 -4l-25 -116q-49 -224 -90 -400q56 154 125 244.5t133 90.5q31 0 47.5 -19.5t16.5 -51.5q0 -69 -62 -128t-148 -94q37 -110 60 -154.5t42 -44.5q29 0 105 113l6 -4q-25 -54 -56.5 -95.5 t-61.5 -41.5t-58 52.5t-67 175.5l1 4q92 37 149.5 92.5t57.5 120.5q0 47 -42 47q-55 0 -130 -109t-130 -278z" />
<glyph unicode="l" horiz-adv-x="234" d="M118 105l100 470l20 96l-85 8v5q105 10 116 11l4 -4l-25 -116l-100 -470q-10 -48 -10 -70q0 -15 8 -15q27 0 103 111l6 -4q-23 -51 -57 -94t-63 -43q-27 0 -27 42q0 25 10 73z" />
<glyph unicode="m" horiz-adv-x="694" d="M137 -3q-21 -7 -26 -7t-4 6l23 109l6 28l37 174q27 126 27 153q0 20 -11 20q-31 0 -99 -111l-6 4q21 49 56 93t64 44q27 0 27 -38q0 -46 -55 -275q58 145 120.5 229t114.5 84q48 0 48 -59q0 -52 -44 -233q55 135 113 213.5t107 78.5q48 0 48 -59q0 -32 -13 -92t-34 -140 t-28 -114q-10 -48 -10 -70q0 -15 8 -15q27 0 103 111l6 -4q-23 -51 -57 -94t-63 -43q-27 0 -27 42q0 25 10 73q8 38 28.5 116t33.5 136.5t13 88.5q0 36 -25 36q-46 0 -113.5 -106t-122.5 -271h-1l-23 -108q-21 -7 -26 -7q-6 0 -4 6l23 109h1q7 37 25.5 116t30 137t11.5 88 q0 36 -25 36q-48 0 -118 -106t-126 -271z" />
<glyph unicode="n" horiz-adv-x="477" d="M137 -3q-21 -7 -26 -7t-4 6l23 109l6 28l37 174q27 126 27 153q0 20 -11 20q-31 0 -99 -111l-6 4q21 49 56 93t64 44q27 0 27 -38q0 -52 -56 -278q58 146 121.5 231t117.5 85q51 0 51 -59q0 -32 -13 -92.5t-33.5 -139t-27.5 -114.5q-10 -48 -10 -70q0 -15 8 -15 q27 0 103 111l6 -4q-23 -51 -57 -94t-63 -43q-27 0 -27 42q0 25 10 73q8 39 28 116.5t33 136t13 88.5q0 36 -28 36q-48 0 -119 -106t-128 -271z" />
<glyph unicode="o" horiz-adv-x="396" d="M408 335q0 -136 -61.5 -240.5t-141.5 -104.5q-51 0 -81 48.5t-30 126.5q0 135 64 240t145 105q51 0 78 -46.5t27 -128.5zM126 169q0 -72 21.5 -113.5t60.5 -41.5q46 0 85.5 48t61 121.5t21.5 152.5q0 150 -78 150q-69 0 -120.5 -100.5t-51.5 -216.5z" />
<glyph unicode="p" horiz-adv-x="431" d="M97 -188q-21 -7 -26 -7t-4 6l23 109l46 213l37 174q27 126 27 153q0 20 -11 20q-31 0 -99 -111l-6 4q21 49 56 93t64 44q27 0 27 -38q0 -46 -55 -274q51 142 109.5 227t105.5 85q65 0 65 -113q0 -90 -30 -182t-89.5 -158.5t-132.5 -66.5q-32 0 -67 11l-17 -81zM384 482 q-43 0 -109.5 -109.5t-117.5 -277.5l-13 -63q35 -18 84 -18q51 0 98 59.5t73.5 147t26.5 172.5q0 89 -42 89z" />
<glyph unicode="q" horiz-adv-x="394" d="M280 -188q-21 -7 -26 -7q-6 0 -4 6l23 109q44 209 85 385q-52 -142 -113 -228.5t-107 -86.5q-60 0 -60 104q0 91 35.5 186.5t100.5 162.5t138 67q46 0 74 -20l-22 -93l-101 -477zM108 99q0 -81 37 -81q42 0 111.5 111.5t120.5 277.5l14 66q-26 13 -60 13 q-55 0 -108 -61.5t-84 -151.5t-31 -174z" />
<glyph unicode="r" horiz-adv-x="348" d="M137 -3q-21 -7 -26 -7t-4 6l23 109l6 28l37 174q27 126 27 153q0 20 -11 20q-31 0 -99 -111l-6 4q21 49 56 93t64 44q27 0 27 -38q0 -48 -52 -262q52 140 110 220t111 80q16 0 26.5 -9t10.5 -21q0 -13 -12 -25q-19 21 -39 21q-46 0 -109.5 -103.5t-116.5 -267.5z" />
<glyph unicode="s" horiz-adv-x="336" d="M322 119q0 -56 -39.5 -92.5t-102.5 -36.5q-49 0 -80.5 27t-31.5 66q0 53 47 92l6 -3q-23 -44 -23 -78q0 -38 24.5 -60t63.5 -22q45 0 75 27.5t30 76.5q0 30 -16 58.5t-39 51t-46 45.5t-39 53.5t-16 63.5q0 52 37 87t90 35q45 0 74.5 -24.5t29.5 -66.5q0 -44 -37 -90l-7 3 q14 44 14 73q0 39 -21 61t-56 22q-40 0 -66.5 -27t-26.5 -70q0 -37 24.5 -73t53.5 -61t53.5 -62t24.5 -76z" />
<glyph unicode="t" horiz-adv-x="290" d="M305 127q-29 -54 -68 -95.5t-78 -41.5q-21 0 -35 13t-14 42q0 19 11 74l71 331h-86l1 7l90 15l54 147l6 -1l-31 -146h146l-4 -22h-147l-70 -331q-11 -57 -11 -71q0 -28 26 -28q38 0 133 111z" />
<glyph unicode="u" horiz-adv-x="484" d="M453 503q21 7 26 7t4 -6l-23 -109l-6 -28l-37 -174q-27 -126 -27 -153q0 -20 11 -20q31 0 99 111l6 -4q-21 -49 -56 -93t-64 -44q-27 0 -27 38q0 52 56 278q-58 -146 -121.5 -231t-117.5 -85q-51 0 -51 59q0 32 13 92.5t33.5 139t27.5 114.5q10 48 10 70q0 15 -8 15 q-27 0 -103 -111l-6 4q23 51 57 94t63 43q27 0 27 -42q0 -25 -10 -73q-8 -39 -28 -116.5t-33 -136t-13 -88.5q0 -36 28 -36q48 0 119 106t128 271z" />
<glyph unicode="v" horiz-adv-x="343" d="M146 0q24 277 24 400q0 80 -28 80q-34 0 -93 -111l-6 4q19 54 49.5 95.5t61.5 41.5q27 0 36.5 -27t9.5 -78q0 -118 -26 -355q82 111 139.5 230.5t57.5 202.5q0 11 -2 23q6 4 14 4q20 0 20 -33q0 -79 -68 -209.5t-180 -267.5h-9z" />
<glyph unicode="w" horiz-adv-x="560" d="M388 510q15 0 19.5 -13.5t4.5 -45.5q0 -143 -22 -402q82 111 140 231t58 203q0 11 -2 23q6 4 14 4q20 0 20 -33q0 -79 -68 -210t-180 -267h-9q21 286 23 423q-52 -205 -231 -423h-9q24 277 24 400q0 80 -28 80q-29 0 -93 -111l-6 4q20 55 49.5 96t60.5 41q27 0 37 -27 t10 -78q0 -118 -26 -354q202 271 202 452v4q4 3 12 3z" />
<glyph unicode="x" horiz-adv-x="402" d="M106 -13q-6 -2 -14 -2q-24 0 -24 28q0 66 176 238l-25 109q-16 72 -24.5 93.5t-21.5 21.5q-23 0 -88 -110l-7 3q22 55 49.5 96t54.5 41q23 0 34 -25.5t30 -106.5l24 -107q35 37 52.5 57t42 53t35.5 61.5t11 57.5q0 10 -1 17q6 3 14 3q24 0 24 -28q0 -67 -173 -240 l25 -112q16 -72 24.5 -93.5t21.5 -21.5q23 0 88 110l7 -3q-22 -55 -49.5 -96t-54.5 -41q-23 0 -34 25.5t-30 106.5l-25 110q-36 -38 -53.5 -57t-42.5 -52t-36 -61.5t-11 -56.5q0 -11 1 -18z" />
<glyph unicode="y" horiz-adv-x="359" d="M223 355q0 -163 -56 -336q98 91 157.5 217.5t59.5 238.5q0 15 -2 31q6 4 14 4q20 0 20 -33q0 -110 -69 -250t-191 -240q-67 -182 -164 -182q-32 0 -52 11.5t-20 28.5q0 19 17 30q9 -20 25.5 -33t35.5 -13q56 0 102 89t68.5 207.5t22.5 226.5q0 128 -35 128 q-27 0 -86 -111l-6 4q18 55 45.5 96t55.5 41q58 0 58 -155z" />
<glyph unicode="z" horiz-adv-x="373" d="M147 24q-45 0 -91 -34l-12 12q115 149 301 417q-102 54 -152 54q-22 0 -38.5 -24.5t-43.5 -85.5l-9 4q29 91 44 112q19 25 46 26q58 0 165 -70q24 36 51 75q22 -2 22 -18q0 -8 -8 -19q-163 -229 -324 -441q32 18 63 18q20 0 69 -14t62 -14q16 0 35 25t53 85l8 -5 q-26 -68 -46.5 -102.5t-45.5 -34.5q-18 0 -70.5 17t-78.5 17z" />
<glyph unicode="{" horiz-adv-x="380" d="M169 308q66 7 88.5 38t22.5 98q0 15 -3.5 46t-3.5 47q0 81 49.5 119.5t137.5 38.5v-16q-78 -3 -116 -36t-38 -104q0 -16 2 -49.5t2 -50.5q0 -120 -102 -143q58 -17 58 -71q0 -33 -37.5 -112t-37.5 -114q0 -76 105 -82l-3 -16q-65 0 -100 25.5t-35 72.5q0 33 39 114 t39 112q0 60 -70 63z" />
<glyph unicode="|" horiz-adv-x="321" d="M136 -192l-29 -3l-3 5l189 882l28 3l3 -5z" />
<glyph unicode="}" horiz-adv-x="320" d="M337 288q-66 -7 -88.5 -38t-22.5 -98q0 -15 3.5 -46t3.5 -47q0 -81 -49.5 -119.5t-137.5 -38.5v16q78 3 116 36t38 104q0 16 -2 49.5t-2 50.5q0 120 102 143q-58 17 -58 71q0 33 37.5 112t37.5 114q0 76 -105 82l3 16q65 0 100 -25.5t35 -72.5q0 -33 -39 -114t-39 -112 q0 -60 70 -63z" />
<glyph unicode="~" horiz-adv-x="600" d="M228 279q-16 0 -67 -66l-14 8q14 26 23 40t26 30.5t33 16.5q21 0 126 -30.5t129 -30.5q16 0 67 66l14 -8q-46 -87 -82 -87q-22 0 -128.5 30.5t-126.5 30.5z" />
<glyph unicode="&#xa1;" horiz-adv-x="264" d="M200 465q0 17 11.5 31t28.5 14q26 0 26 -26q0 -17 -12.5 -30.5t-28.5 -13.5q-25 0 -25 25zM111 -190l-4 -3q-12 -2 -22 -2q-11 0 -9 10q2 7 21 93l100 438h18z" />
<glyph unicode="&#xa2;" horiz-adv-x="397" d="M219 -120l-25 -2l-4 5l23 108q-44 4 -67.5 45t-23.5 111q0 83 29 166.5t77.5 138.5t100.5 58l24 110l25 2l4 -5l-24 -111q51 -16 51 -88q0 -36 -9.5 -64.5t-26.5 -28.5q-8 0 -13 4q18 40 18 84q0 77 -51 77q-42 0 -83 -54.5t-65.5 -134t-24.5 -153.5q0 -62 19 -98t53 -36 q35 0 74.5 36.5t72.5 92.5l6 -4q-21 -52 -58.5 -94.5t-77.5 -52.5z" />
<glyph unicode="&#xa3;" horiz-adv-x="451" d="M476 -85q0 -29 -42 -29q-54 0 -157.5 55.5t-138.5 61.5q-24 -13 -51 -13q-26 0 -26 18q2 21 44 21q16 0 38 -5q33 44 62 160l31 130h-121l7 23h120l32 135q26 108 72.5 163t105.5 55q44 0 72.5 -27t28.5 -61q0 -27 -26 -29q-11 93 -83 93q-91 0 -138 -191l-34 -138h176 l-7 -23h-174l-33 -134q-28 -118 -73 -161q18 -5 125 -51.5t160 -46.5q21 0 28 2q2 -4 2 -8z" />
<glyph unicode="&#xa4;" horiz-adv-x="555" d="M488 117l-61 79q-53 -43 -117 -43q-62 0 -99 37l-88 -74l-20 24l90 74q-20 34 -20 77q0 87 66 148l-58 75l25 21q19 -25 59 -75q49 33 107 33q60 0 96 -39l97 81l20 -24l-99 -81q19 -36 19 -79q0 -73 -55 -134q9 -11 63 -75l-2 -8zM367 466q-69 0 -116 -51.5t-47 -119.5 q0 -52 28.5 -83.5t79.5 -31.5q68 0 114.5 50.5t46.5 114.5q0 121 -106 121z" />
<glyph unicode="&#xa5;" horiz-adv-x="604" d="M413 0h-214v10l78 12q17 2 20 17l16 77h-182l3 23h184l1 4q7 30 10 73h-178l3 23h176q6 132 -19 261.5t-64 129.5q-38 0 -104 -111l-8 4q20 50 54.5 93.5t66.5 43.5q50 0 80.5 -130.5t21.5 -290.5h1q67 169 145 295t125 126q16 0 27.5 -11t18.5 -32t10.5 -39t7.5 -45 l-9 -4q-9 29 -13 41.5t-11 29.5t-14.5 23.5t-17.5 6.5q-36 0 -116.5 -130.5t-131.5 -260.5h151l-3 -23h-156q-15 -39 -21 -71l-1 -6h161l-3 -23h-163l-16 -77l-3 -13l89 -16z" />
<glyph unicode="&#xa6;" horiz-adv-x="321" d="M246 325l-29 -3l-3 5l79 365l28 3l3 -5zM136 -192l-29 -3l-3 5l78 367l29 3l3 -5z" />
<glyph unicode="&#xa7;" horiz-adv-x="511" d="M461 95q0 -112 -82 -183.5t-184 -71.5q-63 0 -105 21t-42 49q0 20 26 36h7q37 -76 149 -86q36 20 62.5 66t26.5 94q0 46 -25.5 98.5t-55.5 92.5t-55.5 95t-25.5 105q0 107 80.5 178t182.5 71q62 0 105 -23t43 -54q0 -26 -27 -39h-7q-43 91 -149 96q-35 -20 -61 -65.5 t-26 -95.5q0 -46 25.5 -97.5t56 -90.5t56 -92.5t25.5 -103.5zM287 -116l4 -4q62 27 100 84.5t38 125.5q0 47 -25.5 100t-56 92.5t-56 91.5t-25.5 97q0 89 62 145l-4 4q-62 -29 -98.5 -82t-36.5 -122q0 -48 25.5 -101.5t55.5 -94t55.5 -93.5t25.5 -100q0 -91 -64 -143z" />
<glyph unicode="&#xa8;" horiz-adv-x="441" d="M163 662q0 -18 -12.5 -33t-28.5 -15q-22 0 -22 24q0 19 12.5 33.5t28.5 14.5q22 0 22 -24zM341 662q0 -18 -12.5 -33t-28.5 -15q-22 0 -22 24q0 19 12.5 33.5t28.5 14.5q22 0 22 -24z" />
<glyph unicode="&#xa9;" horiz-adv-x="642" d="M332 -10q-101 0 -160 57.5t-59 151.5q0 126 91.5 218.5t211.5 92.5q98 0 158.5 -60t60.5 -151q0 -123 -90.5 -216t-212.5 -93zM339 15q107 0 186.5 85t79.5 192q0 87 -52 140t-142 53q-105 0 -186.5 -85t-81.5 -196q0 -86 52.5 -137.5t143.5 -51.5zM463 155 q-42 -61 -104 -61q-47 0 -73.5 29.5t-26.5 85.5q0 78 47.5 137.5t109.5 59.5q35 0 56.5 -21t21.5 -55q0 -48 -27 -48q-7 0 -11 4q8 21 8 43q0 59 -53 59q-49 0 -85 -55t-36 -121q0 -44 20.5 -69t54.5 -25q44 0 93 44z" />
<glyph unicode="&#xaa;" horiz-adv-x="347" d="M132 365q0 65 27.5 132.5t77.5 115t108 47.5q37 0 63 -15l-18 -66l-48 -205q-7 -37 -7 -50q0 -10 6 -10q21 0 78 77l5 -2q-19 -39 -45.5 -70t-49.5 -31t-23 34q0 18 8 52l33 132q-40 -99 -86 -158.5t-81 -59.5q-48 0 -48 77zM364 588l11 45q-18 9 -46 9q-42 0 -82 -44 t-63.5 -108t-23.5 -122q0 -56 28 -56q31 0 84 80t92 196z" />
<glyph unicode="&#xab;" horiz-adv-x="487" d="M418 70l-13 -8q-61 124 -111 184l-1 4l3 17q60 47 189 172l9 -8q-20 -24 -45.5 -51.5t-63.5 -67.5t-55 -58q47 -74 88 -184zM263 70l-13 -8q-61 124 -111 184l-1 4l3 17q60 47 189 172l9 -8q-20 -24 -45.5 -51.5t-63.5 -67.5t-55 -58q47 -74 88 -184z" />
<glyph unicode="&#xac;" horiz-adv-x="539" d="M523 325l-41 -193h-28l36 171h-360l5 25q145 5 382 5z" />
<glyph unicode="&#xae;" horiz-adv-x="642" d="M332 -10q-101 0 -160 57.5t-59 151.5q0 126 91.5 218.5t211.5 92.5q99 0 159 -60t60 -151q0 -123 -90.5 -216t-212.5 -93zM339 15q107 0 186.5 85t79.5 192q0 87 -52 140t-142 53q-105 0 -186.5 -85t-81.5 -196q0 -86 52.5 -137.5t143.5 -51.5zM311 123l46 -12l-2 -7 h-124v7l33 8q19 4 22 17l12 58l36 168q2 8 -0.5 11.5t-12.5 6.5l-31 9l3 7h114q42 0 67 -18t25 -52q0 -33 -23 -58t-61 -37l22 -51q16 -36 23.5 -47t21.5 -16l15 -6l-2 -7q-22 -1 -26 -1q-22 0 -31 10t-19 35l-32 78h-54l-7 -32zM395 378h-30l-12 -58l-16 -76h41 q38 0 64.5 22.5t26.5 56.5q0 55 -74 55z" />
<glyph unicode="&#xaf;" horiz-adv-x="446" d="M103 638l6 24h234l-6 -24h-234z" />
<glyph unicode="&#xb0;" horiz-adv-x="363" d="M280 435q-44 0 -68.5 25t-24.5 67q0 54 39 93.5t92 39.5q41 0 66 -25t25 -67q0 -52 -38.5 -92.5t-90.5 -40.5zM313 635q-41 0 -69.5 -32t-28.5 -72q0 -33 18.5 -52t51.5 -19q39 0 67 32.5t28 72.5q0 32 -17.5 51t-49.5 19z" />
<glyph unicode="&#xb1;" horiz-adv-x="540" d="M538 374h-173l-32 -149h-28l32 149h-183l5 23q84 2 183 2l31 146h28l-31 -146q68 1 175 1l3 -5zM484 115h-384l5 23q132 3 386 3l3 -5z" />
<glyph unicode="&#xb2;" horiz-adv-x="349" d="M215 387q-43 0 -69 -21l-8 14q142 107 194.5 161.5t52.5 106.5q0 32 -20 50t-56 18q-33 0 -63 -21t-48 -58l-6 2q14 45 49 71.5t79 26.5q42 0 67.5 -23t25.5 -62q0 -22 -10 -45.5t-22 -41t-39 -43.5t-43.5 -40t-53.5 -44q-29 -24 -51 -37q16 6 40 6q19 0 62.5 -8.5 t51.5 -8.5q5 0 8.5 2.5t7.5 8.5t6 10t6 14.5t6 14.5l4 -1q-1 -7 -11 -46q-10 -27 -27 -27q-16 0 -63.5 10.5t-69.5 10.5z" />
<glyph unicode="&#xb3;" horiz-adv-x="324" d="M370 489q0 -52 -61 -85t-163 -39l-2 13q197 24 197 110q0 31 -26 47.5t-66 16.5q-16 0 -30 -1l-2 13q71 7 110 34t39 66q0 24 -16.5 39t-46.5 15q-68 0 -104 -68l-4 2q11 39 42.5 63t70.5 24q40 0 63 -20.5t23 -54.5t-29.5 -61.5t-76.5 -38.5q37 -6 59.5 -26t22.5 -49z " />
<glyph unicode="&#xb4;" horiz-adv-x="390" d="M269 705q0 -20 -54.5 -57t-109.5 -67l-6 8q108 82 152 131q18 0 18 -15z" />
<glyph unicode="&#xb6;" horiz-adv-x="584" d="M378 190h-15q-95 0 -154 48t-59 136q0 121 89 198.5t217 77.5h100l-5 -23h-80zM464 64q-23 -108 -78 -166t-128 -58q-58 0 -93 28.5t-37 78.5q-3 81 83 126l5 -5q-54 -56 -54 -111q0 -43 26 -68t71 -25q63 0 108 54.5t66 150.5l115 544l8 37h101l-1 -8l-56 -12 q-17 -4 -20 -17z" />
<glyph unicode="&#xb7;" horiz-adv-x="261" d="M176 216q-24 0 -24 25q0 17 12 30t27 13q24 0 24 -23q0 -18 -11.5 -31.5t-27.5 -13.5z" />
<glyph unicode="&#xb8;" horiz-adv-x="330" d="M142 -71l-2 5l22 66h24l-17 -52q61 -8 61 -48q0 -31 -40 -51.5t-86 -22.5l-2 15q96 13 96 55q0 30 -56 33z" />
<glyph unicode="&#xb9;" horiz-adv-x="278" d="M301 371h-165v6l60 7q12 1 15 11l69 321l-72 -8v6l101 25l4 -4l-73 -340l-2 -9l64 -9z" />
<glyph unicode="&#xba;" horiz-adv-x="334" d="M392 533q0 -97 -48.5 -171t-111.5 -74q-41 0 -65 35t-24 92q0 96 50 170.5t114 74.5q41 0 63 -34t22 -93zM174 414q0 -51 16 -79.5t45 -28.5q52 0 89 73t37 159q0 104 -58 104q-52 0 -90.5 -73t-38.5 -155z" />
<glyph unicode="&#xbb;" horiz-adv-x="487" d="M299 241q-60 -47 -189 -172l-9 8q20 24 45.5 51.5t63.5 67.5t55 58q-47 74 -88 184l13 8q61 -124 111 -184l1 -4zM454 241q-60 -47 -189 -172l-9 8q20 24 45.5 51.5t63.5 67.5t55 58q-47 74 -88 184l13 8q61 -124 111 -184l1 -4z" />
<glyph unicode="&#xbc;" horiz-adv-x="920" d="M762 660h38l-543 -670h-37zM307 288h-165v6l60 7q12 1 15 11l69 321l-72 -8v6l101 25l4 -4l-73 -340l-2 -9l64 -9zM565 113l245 255l17 -4l-52 -248l63 1l-5 -22h-63l-20 -95h-28l20 96l-173 1zM792 327l-202 -213l157 2z" />
<glyph unicode="&#xbd;" horiz-adv-x="920" d="M762 660h38l-543 -670h-37zM307 288h-165v6l60 7q12 1 15 11l69 321l-72 -8v6l101 25l4 -4l-73 -340l-2 -9l64 -9zM653 16q-43 0 -69 -21l-8 14q142 107 194.5 161.5t52.5 106.5q0 32 -20 50t-56 18q-33 0 -63 -21t-48 -58l-6 2q14 45 49 71.5t79 26.5q42 0 67.5 -23 t25.5 -62q0 -22 -10 -45.5t-22 -41t-39 -43.5t-43.5 -40t-53.5 -44q-29 -24 -51 -37q16 6 40 6q19 0 62.5 -8.5t51.5 -8.5q5 0 8.5 2.5t7.5 8.5t6 10t6 14.5t6 14.5l4 -1q-1 -7 -11 -46q-10 -27 -27 -27q-16 0 -63.5 10.5t-69.5 10.5z" />
<glyph unicode="&#xbe;" horiz-adv-x="920" d="M762 660h38l-543 -670h-37zM366 406q0 -52 -61 -85t-163 -39l-2 13q197 24 197 110q0 31 -26 47.5t-66 16.5q-16 0 -30 -1l-2 13q71 7 110 34t39 66q0 24 -16.5 39t-46.5 15q-68 0 -104 -68l-4 2q11 39 42.5 63t70.5 24q40 0 63 -20.5t23 -54.5t-29.5 -61.5t-76.5 -38.5 q37 -6 59.5 -26t22.5 -49zM565 113l245 255l17 -4l-52 -248l63 1l-5 -22h-63l-20 -95h-28l20 96l-173 1zM792 327l-202 -213l157 2z" />
<glyph unicode="&#xbf;" horiz-adv-x="407" d="M262 465q0 17 11.5 31t28.5 14q26 0 26 -26q0 -17 -12.5 -30.5t-28.5 -13.5q-25 0 -25 25zM169 -195q-65 0 -108.5 39t-43.5 104q0 50 25 94t60.5 75.5t71.5 59.5t61 57.5t25 58.5q0 31 -25 47l3 6q22 -5 36 -20.5t14 -36.5q0 -31 -24.5 -62.5t-59.5 -60t-70.5 -59 t-60 -72.5t-24.5 -88q0 -56 35.5 -87.5t92.5 -31.5q71 0 120.5 52.5t49.5 121.5q0 12 -3 24q5 4 14 4q21 0 21 -35q0 -73 -60.5 -131.5t-149.5 -58.5z" />
<glyph unicode="&#xc0;" horiz-adv-x="685" d="M574 735l-8 -8q-115 96 -115 128q0 18 17 18h3q30 -56 103 -138zM476 654h13l87 -590q4 -25 10.5 -32.5t27.5 -12.5l45 -9l-2 -10h-204v10l96 15l-29 204l-259 -2l1 5l-116 -206l90 -16l-2 -10h-204v10l53 10q22 4 32.5 12.5t23.5 31.5zM275 254l242 -3l-50 342z" />
<glyph unicode="&#xc1;" horiz-adv-x="685" d="M597 855q0 -20 -54.5 -57t-109.5 -67l-6 8q108 82 152 131q18 0 18 -15zM476 654h13l87 -590q4 -25 10.5 -32.5t27.5 -12.5l45 -9l-2 -10h-204v10l96 15l-29 204l-259 -2l1 5l-116 -206l90 -16l-2 -10h-204v10l53 10q22 4 32.5 12.5t23.5 31.5zM275 254l242 -3l-50 342z " />
<glyph unicode="&#xc2;" horiz-adv-x="685" d="M613 736l-9 -6q-45 62 -84 108q-49 -45 -125 -107l-6 7q83 79 123 129l5 3h18q28 -46 78 -134zM476 654h13l87 -590q4 -25 10.5 -32.5t27.5 -12.5l45 -9l-2 -10h-204v10l96 15l-29 204l-259 -2l1 5l-116 -206l90 -16l-2 -10h-204v10l53 10q22 4 32.5 12.5t23.5 31.5z M275 254l242 -3l-50 342z" />
<glyph unicode="&#xc3;" horiz-adv-x="685" d="M581 787q23 19 60 59l8 -5q-42 -78 -73 -78q-21 0 -79.5 24.5t-70.5 24.5q-23 -19 -60 -59l-8 5q42 78 73 78q22 0 80 -24.5t70 -24.5zM476 654h13l87 -590q4 -25 10.5 -32.5t27.5 -12.5l45 -9l-2 -10h-204v10l96 15l-29 204l-259 -2l1 5l-116 -206l90 -16l-2 -10h-204 v10l53 10q22 4 32.5 12.5t23.5 31.5zM275 254l242 -3l-50 342z" />
<glyph unicode="&#xc4;" horiz-adv-x="685" d="M455 812q0 -18 -12.5 -33t-28.5 -15q-22 0 -22 24q0 19 12.5 33.5t28.5 14.5q22 0 22 -24zM633 812q0 -18 -12.5 -33t-28.5 -15q-22 0 -22 24q0 19 12.5 33.5t28.5 14.5q22 0 22 -24zM476 654h13l87 -590q4 -25 10.5 -32.5t27.5 -12.5l45 -9l-2 -10h-204v10l96 15 l-29 204l-259 -2l1 5l-116 -206l90 -16l-2 -10h-204v10l53 10q22 4 32.5 12.5t23.5 31.5zM275 254l242 -3l-50 342z" />
<glyph unicode="&#xc5;" horiz-adv-x="685" d="M582 810q0 -32 -25 -54.5t-58 -22.5q-28 0 -43 14t-15 39q0 31 25 54t59 23q27 0 42 -14.5t15 -38.5zM470 786q2 -33 34 -33q21 0 35 16.5t14 40.5q-2 33 -33 33q-21 0 -35.5 -16.5t-14.5 -40.5zM476 654h13l87 -590q4 -25 10.5 -32.5t27.5 -12.5l45 -9l-2 -10h-204v10 l96 15l-29 204l-259 -2l1 5l-116 -206l90 -16l-2 -10h-204v10l53 10q22 4 32.5 12.5t23.5 31.5zM275 254l242 -3l-50 342z" />
<glyph unicode="&#xc6;" horiz-adv-x="834" d="M234 0h-204v10l53 10q22 4 32.5 12.5t23.5 31.5l321 561l-81 15l2 10h535q-6 -77 -39 -175h-7l11 150q-47 2 -140 2h-117l-62 -293l216 4l-6 -30l-215 5l-58 -274l-3 -16h123q97 0 144 2l53 150h7q-2 -32 -9 -70q-12 -65 -26 -105h-419v10l78 12q17 2 20 17l58 273 l-218 -2l-161 -284l90 -16zM487 627l-165 -290l208 -3l62 293h-105z" />
<glyph unicode="&#xc7;" d="M328 -71l-2 5l19 57q-103 8 -164 77t-61 185q0 110 45.5 202.5t130 148.5t191.5 56q80 0 131 -32q-7 -76 -39 -172h-8l12 159q-47 21 -101 21q-141 0 -235 -113t-94 -263q0 -118 61 -182t159 -64q64 0 102 20l57 168h8q-3 -28 -19 -115q-2 -13 -16 -65q-52 -32 -134 -32 h-2l-14 -42q61 -8 61 -48q0 -31 -40 -51.5t-86 -22.5l-2 15q96 13 96 55q0 30 -56 33z" />
<glyph unicode="&#xc8;" horiz-adv-x="515" d="M517 735l-8 -8q-115 96 -115 128q0 18 17 18h3q30 -56 103 -138zM469 0h-419v10l78 12q17 2 20 17l122 572l3 13l-89 16l3 10h410q-6 -77 -39 -175h-7l11 150q-47 2 -140 2h-117l-3 -16l-57 -269l216 4l-6 -30l-215 5l-60 -282l-3 -16h123q97 0 144 2l53 150h7 q-2 -32 -9 -70q-12 -65 -26 -105z" />
<glyph unicode="&#xc9;" horiz-adv-x="515" d="M540 855q0 -20 -54.5 -57t-109.5 -67l-6 8q108 82 152 131q18 0 18 -15zM469 0h-419v10l78 12q17 2 20 17l122 573l3 13l-89 16l3 10h410q-6 -75 -39 -176h-7l11 151q-47 2 -140 2h-117l-3 -16l-57 -270l216 4l-6 -30l-215 5l-60 -282l-3 -16h123q97 0 144 2l53 150h7 q-2 -32 -9 -70q-12 -65 -26 -105z" />
<glyph unicode="&#xca;" horiz-adv-x="515" d="M556 736l-9 -6q-45 62 -84 108q-49 -45 -125 -107l-6 7q83 79 123 129l5 3h18q28 -46 78 -134zM469 0h-419v10l78 12q17 2 20 17l122 572l3 13l-89 16l3 10h410q-6 -77 -39 -175h-7l11 150q-47 2 -140 2h-117l-3 -16l-57 -269l216 4l-6 -30l-215 5l-60 -282l-3 -16h123 q97 0 144 2l53 150h7q-2 -32 -9 -70q-12 -65 -26 -105z" />
<glyph unicode="&#xcb;" horiz-adv-x="515" d="M398 812q0 -18 -12.5 -33t-28.5 -15q-22 0 -22 24q0 19 12.5 33.5t28.5 14.5q22 0 22 -24zM576 812q0 -18 -12.5 -33t-28.5 -15q-22 0 -22 24q0 19 12.5 33.5t28.5 14.5q22 0 22 -24zM469 0h-419v10l78 12q17 2 20 17l122 572l3 13l-89 16l3 10h410q-6 -77 -39 -175h-7 l11 150q-47 2 -140 2h-117l-3 -16l-57 -269l216 4l-6 -30l-215 5l-60 -282l-3 -16h123q97 0 144 2l53 150h7q-2 -32 -9 -70q-12 -65 -26 -105z" />
<glyph unicode="&#xcc;" horiz-adv-x="312" d="M388 735l-8 -8q-115 96 -115 128q0 18 17 18h3q30 -56 103 -138zM264 0h-214v10l78 12q17 2 20 17l122 572l3 13l-89 16l2 10h214v-10l-78 -12q-17 -2 -20 -17l-122 -572l-3 -13l89 -16z" />
<glyph unicode="&#xcd;" horiz-adv-x="312" d="M411 855q0 -20 -54.5 -57t-109.5 -67l-6 8q108 82 152 131q18 0 18 -15zM264 0h-214v10l78 12q17 2 20 17l122 572l3 13l-89 16l2 10h214v-10l-78 -12q-17 -2 -20 -17l-122 -572l-3 -13l89 -16z" />
<glyph unicode="&#xce;" horiz-adv-x="312" d="M427 736l-9 -6q-45 62 -84 108q-49 -45 -125 -107l-6 7q83 79 123 129l5 3h18q28 -46 78 -134zM264 0h-214v10l78 12q17 2 20 17l122 572l3 13l-89 16l2 10h214v-10l-78 -12q-17 -2 -20 -17l-122 -572l-3 -13l89 -16z" />
<glyph unicode="&#xcf;" horiz-adv-x="312" d="M269 812q0 -18 -12.5 -33t-28.5 -15q-22 0 -22 24q0 19 12.5 33.5t28.5 14.5q22 0 22 -24zM447 812q0 -18 -12.5 -33t-28.5 -15q-22 0 -22 24q0 19 12.5 33.5t28.5 14.5q22 0 22 -24zM264 0h-214v10l78 12q17 2 20 17l122 572l3 13l-89 16l2 10h214v-10l-78 -12 q-17 -2 -20 -17l-122 -572l-3 -13l89 -16z" />
<glyph unicode="&#xd0;" horiz-adv-x="634" d="M269 0h-219v10l78 12q17 2 20 17l58 273h-91l4 22h92l59 277l3 13l-89 16l3 10h201q129 0 197.5 -64.5t68.5 -178.5q0 -78 -24.5 -149.5t-71 -129.5t-121.5 -93t-168 -35zM422 312h-184l-58 -273l-3 -17h94q110 0 191.5 55t120 140.5t38.5 186.5q0 108 -60.5 166 t-181.5 58h-74l-3 -17l-59 -277h183z" />
<glyph unicode="&#xd1;" horiz-adv-x="696" d="M586 787q23 19 60 59l8 -5q-42 -78 -73 -78q-21 0 -79.5 24.5t-70.5 24.5q-23 -19 -60 -59l-8 5q42 78 73 78q22 0 80 -24.5t70 -24.5zM258 0h-206v10l77 12q16 2 19 17l125 587l-88 16l2 8h128l223 -610l122 571l3 13l-89 16l2 10h206v-10l-77 -12q-16 -2 -19 -17 l-130 -611h-37l-223 612l-122 -573l-3 -13l89 -16z" />
<glyph unicode="&#xd2;" d="M512 735l-8 -8q-115 96 -115 128q0 18 17 18h3q30 -56 103 -138zM581 428q0 -108 -36.5 -208t-105 -165t-150.5 -65q-83 0 -128 61.5t-45 168.5q0 108 38 209t107.5 166t151.5 65t125 -62.5t43 -169.5zM149 229q0 -102 38.5 -159t103.5 -57q72 0 132.5 64t92.5 158 t32 191q0 96 -36 153.5t-103 57.5q-72 0 -133 -64t-94 -157.5t-33 -186.5z" />
<glyph unicode="&#xd3;" d="M535 855q0 -20 -54.5 -57t-109.5 -67l-6 8q108 82 152 131q18 0 18 -15zM581 428q0 -108 -36.5 -208t-105 -165t-150.5 -65q-83 0 -128 61.5t-45 168.5q0 108 38 209t107.5 166t151.5 65t125 -62.5t43 -169.5zM149 229q0 -102 38.5 -159t103.5 -57q72 0 132.5 64 t92.5 158t32 191q0 96 -36 153.5t-103 57.5q-72 0 -133 -64t-94 -157.5t-33 -186.5z" />
<glyph unicode="&#xd4;" d="M551 736l-9 -6q-45 62 -84 108q-49 -45 -125 -107l-6 7q83 79 123 129l5 3h18q28 -46 78 -134zM581 428q0 -108 -36.5 -208t-105 -165t-150.5 -65q-83 0 -128 61.5t-45 168.5q0 108 38 209t107.5 166t151.5 65t125 -62.5t43 -169.5zM149 229q0 -102 38.5 -159t103.5 -57 q72 0 132.5 64t92.5 158t32 191q0 96 -36 153.5t-103 57.5q-72 0 -133 -64t-94 -157.5t-33 -186.5z" />
<glyph unicode="&#xd5;" d="M519 787q23 19 60 59l8 -5q-42 -78 -73 -78q-21 0 -79.5 24.5t-70.5 24.5q-23 -19 -60 -59l-8 5q42 78 73 78q22 0 80 -24.5t70 -24.5zM581 428q0 -108 -36.5 -208t-105 -165t-150.5 -65q-83 0 -128 61.5t-45 168.5q0 108 38 209t107.5 166t151.5 65t125 -62.5t43 -169.5 zM149 229q0 -102 38.5 -159t103.5 -57q72 0 132.5 64t92.5 158t32 191q0 96 -36 153.5t-103 57.5q-72 0 -133 -64t-94 -157.5t-33 -186.5z" />
<glyph unicode="&#xd6;" d="M393 812q0 -18 -12.5 -33t-28.5 -15q-22 0 -22 24q0 19 12.5 33.5t28.5 14.5q22 0 22 -24zM571 812q0 -18 -12.5 -33t-28.5 -15q-22 0 -22 24q0 19 12.5 33.5t28.5 14.5q22 0 22 -24zM581 428q0 -108 -36.5 -208t-105 -165t-150.5 -65q-83 0 -128 61.5t-45 168.5 q0 108 38 209t107.5 166t151.5 65t125 -62.5t43 -169.5zM149 229q0 -102 38.5 -159t103.5 -57q72 0 132.5 64t92.5 158t32 191q0 96 -36 153.5t-103 57.5q-72 0 -133 -64t-94 -157.5t-33 -186.5z" />
<glyph unicode="&#xd7;" horiz-adv-x="531" d="M461 141l-127 165l-193 -165l-16 19l194 166l-129 169l19 15q39 -47 130 -167l195 167l16 -19l-196 -168q101 -132 126 -164l-3 -6z" />
<glyph unicode="&#xd8;" d="M581 428q0 -108 -36.5 -208t-105 -165t-150.5 -65q-91 0 -137 74l-60 -74l-18 16l66 81q-24 54 -24 133q0 108 38 209t107.5 166t151.5 65q88 0 132 -74l60 74l19 -15l-67 -82q24 -55 24 -135zM149 229q0 -61 16 -111l358 441q-37 78 -114 78q-72 0 -133 -64t-94 -157.5 t-33 -186.5zM548 426q0 62 -15 107l-358 -441q37 -79 116 -79q72 0 132.5 64t92.5 158t32 191z" />
<glyph unicode="&#xd9;" horiz-adv-x="656" d="M549 735l-8 -8q-115 96 -115 128q0 18 17 18h3q30 -56 103 -138zM577 221q-24 -113 -89.5 -172t-153.5 -59q-76 0 -122 44t-46 128q0 30 8 68l81 381l3 13l-89 16l2 10h214v-10l-78 -12q-17 -2 -20 -17l-82 -385q-8 -35 -8 -60q0 -72 39.5 -111t104.5 -39q73 0 131 54 t79 153l83 390l2 11l-89 16l2 10h209v-10l-95 -16l-3 -11z" />
<glyph unicode="&#xda;" horiz-adv-x="656" d="M582 855q0 -20 -54.5 -57t-109.5 -67l-6 8q108 82 152 131q18 0 18 -15zM577 221q-24 -113 -89.5 -172t-153.5 -59q-76 0 -122 44t-46 128q0 30 8 68l81 381l3 13l-89 16l2 10h214v-10l-78 -12q-17 -2 -20 -17l-82 -385q-8 -35 -8 -60q0 -72 39.5 -111t104.5 -39 q73 0 131 54t79 153l83 390l2 11l-89 16l2 10h209v-10l-95 -16l-3 -11z" />
<glyph unicode="&#xdb;" horiz-adv-x="656" d="M598 736l-9 -6q-45 62 -84 108q-49 -45 -125 -107l-6 7q83 79 123 129l5 3h18q28 -46 78 -134zM577 221q-24 -113 -89.5 -172t-153.5 -59q-76 0 -122 44t-46 128q0 30 8 68l81 381l3 13l-89 16l2 10h214v-10l-78 -12q-17 -2 -20 -17l-82 -385q-8 -35 -8 -60 q0 -72 39.5 -111t104.5 -39q73 0 131 54t79 153l83 390l2 11l-89 16l2 10h209v-10l-95 -16l-3 -11z" />
<glyph unicode="&#xdc;" horiz-adv-x="656" d="M440 812q0 -18 -12.5 -33t-28.5 -15q-22 0 -22 24q0 19 12.5 33.5t28.5 14.5q22 0 22 -24zM618 812q0 -18 -12.5 -33t-28.5 -15q-22 0 -22 24q0 19 12.5 33.5t28.5 14.5q22 0 22 -24zM577 221q-24 -113 -89.5 -172t-153.5 -59q-76 0 -122 44t-46 128q0 30 8 68l81 381 l3 13l-89 16l2 10h214v-10l-78 -12q-17 -2 -20 -17l-82 -385q-8 -35 -8 -60q0 -72 39.5 -111t104.5 -39q73 0 131 54t79 153l83 390l2 11l-89 16l2 10h209v-10l-95 -16l-3 -11z" />
<glyph unicode="&#xdd;" horiz-adv-x="584" d="M549 855q0 -20 -54.5 -57t-109.5 -67l-6 8q108 82 152 131q18 0 18 -15zM403 0h-214v10l78 12q17 2 20 17l22 104q15 89 11 197t-28 199t-55 91q-38 0 -104 -111l-8 4q20 50 54.5 93.5t66.5 43.5q50 0 80.5 -131.5t21.5 -292.5q67 170 145.5 297t125.5 127q16 0 27.5 -11 t18.5 -32t10.5 -39t7.5 -45l-9 -4q-9 29 -13 41.5t-11 29.5t-14.5 23.5t-17.5 6.5q-29 0 -90.5 -89.5t-116.5 -206t-70 -189.5l-22 -106l-3 -13l89 -16z" />
<glyph unicode="&#xde;" horiz-adv-x="518" d="M288 0h-237l-1 8l78 12q17 2 20 17l122 574l3 13l-89 16l2 10h214v-10l-78 -12q-17 -2 -20 -17l-20 -93h78q90 0 146 -38.5t56 -114.5q0 -107 -82 -169.5t-208 -62.5h-72l-20 -96l-3 -14l113 -15zM351 495h-74l-72 -339h71q112 0 182 55.5t70 149.5q0 134 -177 134z" />
<glyph unicode="&#xdf;" horiz-adv-x="438" d="M125 -6q-19 -92 -57.5 -140.5t-92.5 -48.5q-35 0 -58.5 16.5t-23.5 39.5q0 15 12 21q36 -50 77 -50q47 0 70.5 35.5t42.5 125.5l105 496q42 206 169 206q44 0 69.5 -28.5t25.5 -76.5q0 -67 -38 -119.5t-103 -68.5q52 -38 80 -95t27 -119q1 -81 -42 -138t-105 -57 q-32 0 -54.5 16.5t-22.5 38.5q0 20 16 27q11 -23 31.5 -37.5t42.5 -14.5q43 0 72.5 47t29.5 115q0 133 -115 214l3 11q65 9 105.5 56.5t40.5 111.5q0 44 -19 69.5t-53 25.5q-44 0 -78 -47t-50 -128z" />
<glyph unicode="&#xe0;" horiz-adv-x="428" d="M412 585l-8 -8q-115 96 -115 128q0 18 17 18h3q30 -56 103 -138zM78 94q0 91 35.5 186.5t100.5 162.5t138 67q45 0 76 -20l-23 -93l-63 -292q-10 -48 -10 -70q0 -15 8 -15q27 0 103 111l6 -4q-23 -51 -57 -94t-63 -43q-27 0 -27 42q0 25 10 73l45 197q-52 -140 -113 -226 t-106 -86q-60 0 -60 104zM378 407l14 66q-27 13 -61 13q-55 0 -108 -61.5t-84 -151.5t-31 -174q0 -81 37 -81q42 0 112 111.5t121 277.5z" />
<glyph unicode="&#xe1;" horiz-adv-x="428" d="M435 705q0 -20 -54.5 -57t-109.5 -67l-6 8q108 82 152 131q18 0 18 -15zM78 94q0 91 35.5 186.5t100.5 162.5t138 67q45 0 76 -20l-23 -93l-63 -292q-10 -48 -10 -70q0 -15 8 -15q27 0 103 111l6 -4q-23 -51 -57 -94t-63 -43q-27 0 -27 42q0 25 10 73l45 197 q-52 -140 -113 -226t-106 -86q-60 0 -60 104zM378 407l14 66q-27 13 -61 13q-55 0 -108 -61.5t-84 -151.5t-31 -174q0 -81 37 -81q42 0 112 111.5t121 277.5z" />
<glyph unicode="&#xe2;" horiz-adv-x="428" d="M452 586l-9 -6q-45 62 -84 108q-49 -45 -125 -107l-6 7q83 79 123 129l5 3h18q28 -46 78 -134zM78 94q0 91 35.5 186.5t100.5 162.5t138 67q45 0 76 -20l-23 -93l-63 -292q-10 -48 -10 -70q0 -15 8 -15q27 0 103 111l6 -4q-23 -51 -57 -94t-63 -43q-27 0 -27 42 q0 25 10 73l45 197q-52 -140 -113 -226t-106 -86q-60 0 -60 104zM378 407l14 66q-27 13 -61 13q-55 0 -108 -61.5t-84 -151.5t-31 -174q0 -81 37 -81q42 0 112 111.5t121 277.5z" />
<glyph unicode="&#xe3;" horiz-adv-x="428" d="M425 637q23 19 60 59l8 -5q-42 -78 -73 -78q-21 0 -79.5 24.5t-70.5 24.5q-23 -19 -60 -59l-8 5q42 78 73 78q22 0 80 -24.5t70 -24.5zM78 94q0 91 35.5 186.5t100.5 162.5t138 67q45 0 76 -20l-23 -93l-63 -292q-10 -48 -10 -70q0 -15 8 -15q27 0 103 111l6 -4 q-23 -51 -57 -94t-63 -43q-27 0 -27 42q0 25 10 73l45 197q-52 -140 -113 -226t-106 -86q-60 0 -60 104zM378 407l14 66q-27 13 -61 13q-55 0 -108 -61.5t-84 -151.5t-31 -174q0 -81 37 -81q42 0 112 111.5t121 277.5z" />
<glyph unicode="&#xe4;" horiz-adv-x="428" d="M293 662q0 -18 -12.5 -33t-28.5 -15q-22 0 -22 24q0 19 12.5 33.5t28.5 14.5q22 0 22 -24zM471 662q0 -18 -12.5 -33t-28.5 -15q-22 0 -22 24q0 19 12.5 33.5t28.5 14.5q22 0 22 -24zM78 94q0 91 35.5 186.5t100.5 162.5t138 67q45 0 76 -20l-23 -93l-63 -292 q-10 -48 -10 -70q0 -15 8 -15q27 0 103 111l6 -4q-23 -51 -57 -94t-63 -43q-27 0 -27 42q0 25 10 73l45 197q-52 -140 -113 -226t-106 -86q-60 0 -60 104zM378 407l14 66q-27 13 -61 13q-55 0 -108 -61.5t-84 -151.5t-31 -174q0 -81 37 -81q42 0 112 111.5t121 277.5z" />
<glyph unicode="&#xe5;" horiz-adv-x="428" d="M422 663q0 -32 -25 -54.5t-58 -22.5q-28 0 -43 14t-15 39q0 31 25 54t59 23q27 0 42 -14.5t15 -38.5zM310 639q2 -33 34 -33q21 0 35 16.5t14 40.5q-2 33 -33 33q-21 0 -35.5 -16.5t-14.5 -40.5zM78 94q0 91 35.5 186.5t100.5 162.5t138 67q45 0 76 -20l-23 -93l-63 -292 q-10 -48 -10 -70q0 -15 8 -15q27 0 103 111l6 -4q-23 -51 -57 -94t-63 -43q-27 0 -27 42q0 25 10 73l45 197q-52 -140 -113 -226t-106 -86q-60 0 -60 104zM378 407l14 66q-27 13 -61 13q-55 0 -108 -61.5t-84 -151.5t-31 -174q0 -81 37 -81q42 0 112 111.5t121 277.5z" />
<glyph unicode="&#xe6;" horiz-adv-x="572" d="M590 139q-25 -60 -67.5 -104.5t-91.5 -44.5q-46 0 -72 41.5t-26 115.5q0 78 27 161h-1q-53 -143 -114 -230.5t-107 -87.5q-60 0 -60 104q0 91 35.5 186.5t100.5 162.5t138 67q45 0 76 -20l-21 -83q63 103 139 103q34 0 52.5 -21.5t18.5 -55.5q0 -94 -74.5 -153.5 t-172.5 -65.5q-5 -37 -5 -65q0 -62 18.5 -98.5t53.5 -36.5q34 0 74 36.5t73 92.5zM540 490q-52 0 -100.5 -78.5t-66.5 -179.5q99 12 155.5 68t56.5 133q0 25 -11 41t-34 16zM108 99q0 -81 37 -81q42 0 111.5 111t120.5 274l15 70q-27 13 -61 13q-55 0 -108 -61.5t-84 -151.5 t-31 -174z" />
<glyph unicode="&#xe7;" horiz-adv-x="341" d="M158 -71l-2 5l19 57q-41 7 -63 47.5t-22 108.5q0 84 30 168.5t79.5 139.5t102.5 55q36 0 55.5 -25.5t19.5 -66.5q0 -36 -9.5 -64.5t-26.5 -28.5q-8 0 -13 4q18 40 18 84q0 77 -51 77q-42 0 -83 -54.5t-65.5 -134t-24.5 -153.5q0 -62 19 -98t53 -36q35 0 74.5 36.5 t72.5 92.5l6 -4q-23 -56 -64 -100.5t-84 -48.5l-14 -42q61 -8 61 -48q0 -31 -40 -51.5t-86 -22.5l-2 15q96 13 96 55q0 30 -56 33z" />
<glyph unicode="&#xe8;" horiz-adv-x="329" d="M392 585l-8 -8q-115 96 -115 128q0 18 17 18h3q30 -56 103 -138zM347 139q-25 -60 -67.5 -104.5t-91.5 -44.5q-46 0 -72 41.5t-26 115.5q0 84 29.5 168t79.5 139.5t104 55.5q34 0 52.5 -21.5t18.5 -55.5q0 -94 -74.5 -153.5t-172.5 -65.5q-5 -37 -5 -65q0 -62 18.5 -98.5 t53.5 -36.5q34 0 74 36.5t73 92.5zM297 490q-52 0 -100.5 -78.5t-66.5 -179.5q99 12 155.5 68t56.5 133q0 25 -11 41t-34 16z" />
<glyph unicode="&#xe9;" horiz-adv-x="329" d="M415 705q0 -20 -54.5 -57t-109.5 -67l-6 8q108 82 152 131q18 0 18 -15zM347 139q-25 -60 -67.5 -104.5t-91.5 -44.5q-46 0 -72 41.5t-26 115.5q0 84 29.5 168t79.5 139.5t104 55.5q34 0 52.5 -21.5t18.5 -55.5q0 -94 -74.5 -153.5t-172.5 -65.5q-5 -37 -5 -65 q0 -62 18.5 -98.5t53.5 -36.5q34 0 74 36.5t73 92.5zM297 490q-52 0 -100.5 -78.5t-66.5 -179.5q99 12 155.5 68t56.5 133q0 25 -11 41t-34 16z" />
<glyph unicode="&#xea;" horiz-adv-x="329" d="M432 586l-9 -6q-45 62 -84 108q-49 -45 -125 -107l-6 7q83 79 123 129l5 3h18q28 -46 78 -134zM347 139q-25 -60 -67.5 -104.5t-91.5 -44.5q-46 0 -72 41.5t-26 115.5q0 84 29.5 168t79.5 139.5t104 55.5q34 0 52.5 -21.5t18.5 -55.5q0 -94 -74.5 -153.5t-172.5 -65.5 q-5 -37 -5 -65q0 -62 18.5 -98.5t53.5 -36.5q34 0 74 36.5t73 92.5zM297 490q-52 0 -100.5 -78.5t-66.5 -179.5q99 12 155.5 68t56.5 133q0 25 -11 41t-34 16z" />
<glyph unicode="&#xeb;" horiz-adv-x="329" d="M273 662q0 -18 -12.5 -33t-28.5 -15q-22 0 -22 24q0 19 12.5 33.5t28.5 14.5q22 0 22 -24zM451 662q0 -18 -12.5 -33t-28.5 -15q-22 0 -22 24q0 19 12.5 33.5t28.5 14.5q22 0 22 -24zM347 139q-25 -60 -67.5 -104.5t-91.5 -44.5q-46 0 -72 41.5t-26 115.5q0 84 29.5 168 t79.5 139.5t104 55.5q34 0 52.5 -21.5t18.5 -55.5q0 -94 -74.5 -153.5t-172.5 -65.5q-5 -37 -5 -65q0 -62 18.5 -98.5t53.5 -36.5q34 0 74 36.5t73 92.5zM297 490q-52 0 -100.5 -78.5t-66.5 -179.5q99 12 155.5 68t56.5 133q0 25 -11 41t-34 16z" />
<glyph unicode="&#xec;" horiz-adv-x="246" d="M311 585l-8 -8q-115 96 -115 128q0 18 17 18h3q30 -56 103 -138zM130 105q9 43 35 146t34 144q10 48 10 70q0 15 -8 15q-27 0 -103 -111l-6 4q23 51 57 94t63 43q27 0 27 -42q0 -25 -10 -73q-9 -45 -35 -149.5t-34 -140.5q-10 -48 -10 -70q0 -15 8 -15q27 0 103 111l6 -4 q-23 -51 -57 -94t-63 -43q-27 0 -27 42q0 25 10 73z" />
<glyph unicode="&#xed;" horiz-adv-x="246" d="M334 705q0 -20 -54.5 -57t-109.5 -67l-6 8q108 82 152 131q18 0 18 -15zM130 105q9 43 35 146t34 144q10 48 10 70q0 15 -8 15q-27 0 -103 -111l-6 4q23 51 57 94t63 43q27 0 27 -42q0 -25 -10 -73q-9 -45 -35 -149.5t-34 -140.5q-10 -48 -10 -70q0 -15 8 -15 q27 0 103 111l6 -4q-23 -51 -57 -94t-63 -43q-27 0 -27 42q0 25 10 73z" />
<glyph unicode="&#xee;" horiz-adv-x="246" d="M330 586l-9 -6q-34 60 -64 106q-33 -35 -105 -105l-6 7q69 78 103 129l5 3h18q17 -35 58 -134zM130 105q9 43 35 146t34 144q10 48 10 70q0 15 -8 15q-27 0 -103 -111l-6 4q23 51 57 94t63 43q27 0 27 -42q0 -25 -10 -73q-9 -45 -35 -149.5t-34 -140.5q-10 -48 -10 -70 q0 -15 8 -15q27 0 103 111l6 -4q-23 -51 -57 -94t-63 -43q-27 0 -27 42q0 25 10 73z" />
<glyph unicode="&#xef;" horiz-adv-x="246" d="M209 662q0 -18 -12.5 -33t-28.5 -15q-22 0 -22 24q0 19 12.5 33.5t28.5 14.5q22 0 22 -24zM353 662q0 -18 -12.5 -33t-28.5 -15q-22 0 -22 24q0 19 12.5 33.5t28.5 14.5q22 0 22 -24zM130 105q9 43 35 146t34 144q10 48 10 70q0 15 -8 15q-27 0 -103 -111l-6 4 q23 51 57 94t63 43q27 0 27 -42q0 -25 -10 -73q-9 -45 -35 -149.5t-34 -140.5q-10 -48 -10 -70q0 -15 8 -15q27 0 103 111l6 -4q-23 -51 -57 -94t-63 -43q-27 0 -27 42q0 25 10 73z" />
<glyph unicode="&#xf0;" horiz-adv-x="396" d="M445 633l-97 -39q59 -91 60 -260q0 -89 -28.5 -168.5t-75.5 -127.5t-99 -48q-51 0 -81 48.5t-30 126.5q0 135 63.5 240t143.5 105q49 0 73 -58q-13 79 -48 133l-148 -59l-5 21l140 57q-38 48 -96 79l7 12q68 -30 111 -83l104 42zM126 169q0 -72 21.5 -113.5t60.5 -41.5 q46 0 85.5 48t61 121.5t21.5 152.5q0 150 -78 150q-69 0 -120.5 -100.5t-51.5 -216.5z" />
<glyph unicode="&#xf1;" horiz-adv-x="477" d="M437 637q23 19 60 59l8 -5q-42 -78 -73 -78q-21 0 -79.5 24.5t-70.5 24.5q-23 -19 -60 -59l-8 5q42 78 73 78q22 0 80 -24.5t70 -24.5zM137 -3q-21 -7 -26 -7t-4 6l23 109l6 28l37 174q27 126 27 153q0 20 -11 20q-31 0 -99 -111l-6 4q21 49 56 93t64 44q27 0 27 -38 q0 -52 -56 -278q58 146 121.5 231t117.5 85q51 0 51 -59q0 -32 -13 -92.5t-33.5 -139t-27.5 -114.5q-10 -48 -10 -70q0 -15 8 -15q27 0 103 111l6 -4q-23 -51 -57 -94t-63 -43q-27 0 -27 42q0 25 10 73q8 39 28 116.5t33 136t13 88.5q0 36 -28 36q-48 0 -119 -106t-128 -271 z" />
<glyph unicode="&#xf2;" horiz-adv-x="396" d="M402 585l-8 -8q-115 96 -115 128q0 18 17 18h3q30 -56 103 -138zM408 335q0 -136 -61.5 -240.5t-141.5 -104.5q-51 0 -81 48.5t-30 126.5q0 135 64 240t145 105q51 0 78 -46.5t27 -128.5zM126 169q0 -72 21.5 -113.5t60.5 -41.5q46 0 85.5 48t61 121.5t21.5 152.5 q0 150 -78 150q-69 0 -120.5 -100.5t-51.5 -216.5z" />
<glyph unicode="&#xf3;" horiz-adv-x="396" d="M425 705q0 -20 -54.5 -57t-109.5 -67l-6 8q108 82 152 131q18 0 18 -15zM408 335q0 -136 -61.5 -240.5t-141.5 -104.5q-51 0 -81 48.5t-30 126.5q0 135 64 240t145 105q51 0 78 -46.5t27 -128.5zM126 169q0 -72 21.5 -113.5t60.5 -41.5q46 0 85.5 48t61 121.5t21.5 152.5 q0 150 -78 150q-69 0 -120.5 -100.5t-51.5 -216.5z" />
<glyph unicode="&#xf4;" horiz-adv-x="396" d="M442 586l-9 -6q-45 62 -84 108q-49 -45 -125 -107l-6 7q83 79 123 129l5 3h18q28 -46 78 -134zM408 335q0 -136 -61.5 -240.5t-141.5 -104.5q-51 0 -81 48.5t-30 126.5q0 135 64 240t145 105q51 0 78 -46.5t27 -128.5zM126 169q0 -72 21.5 -113.5t60.5 -41.5 q46 0 85.5 48t61 121.5t21.5 152.5q0 150 -78 150q-69 0 -120.5 -100.5t-51.5 -216.5z" />
<glyph unicode="&#xf5;" horiz-adv-x="396" d="M415 637q23 19 60 59l8 -5q-42 -78 -73 -78q-21 0 -79.5 24.5t-70.5 24.5q-23 -19 -60 -59l-8 5q42 78 73 78q22 0 80 -24.5t70 -24.5zM408 335q0 -136 -61.5 -240.5t-141.5 -104.5q-51 0 -81 48.5t-30 126.5q0 135 64 240t145 105q51 0 78 -46.5t27 -128.5zM126 169 q0 -72 21.5 -113.5t60.5 -41.5q46 0 85.5 48t61 121.5t21.5 152.5q0 150 -78 150q-69 0 -120.5 -100.5t-51.5 -216.5z" />
<glyph unicode="&#xf6;" horiz-adv-x="396" d="M283 662q0 -18 -12.5 -33t-28.5 -15q-22 0 -22 24q0 19 12.5 33.5t28.5 14.5q22 0 22 -24zM461 662q0 -18 -12.5 -33t-28.5 -15q-22 0 -22 24q0 19 12.5 33.5t28.5 14.5q22 0 22 -24zM408 335q0 -136 -61.5 -240.5t-141.5 -104.5q-51 0 -81 48.5t-30 126.5q0 135 64 240 t145 105q51 0 78 -46.5t27 -128.5zM126 169q0 -72 21.5 -113.5t60.5 -41.5q46 0 85.5 48t61 121.5t21.5 152.5q0 150 -78 150q-69 0 -120.5 -100.5t-51.5 -216.5z" />
<glyph unicode="&#xf7;" horiz-adv-x="539" d="M366 456q-24 0 -24 25q0 17 12 30t27 13q24 0 24 -23q0 -18 -11.5 -31.5t-27.5 -13.5zM525 312h-384l5 23q132 3 386 3l3 -5zM296 127q-24 0 -24 25q0 17 12 30t27 13q24 0 24 -23q0 -18 -11.5 -31.5t-27.5 -13.5z" />
<glyph unicode="&#xf8;" horiz-adv-x="396" d="M408 335q0 -136 -61.5 -240.5t-141.5 -104.5q-71 0 -99 88l-62 -66l-16 18l71 76q-5 30 -5 59q0 135 64 240t145 105q70 0 94 -86l60 64l17 -17l-70 -75q4 -25 4 -61zM126 169q0 -23 1 -33l244 261q-15 89 -73 89q-69 0 -120.5 -100.5t-51.5 -216.5zM376 336q0 20 -1 29 l-244 -260q18 -91 77 -91q46 0 85.5 48t61 121.5t21.5 152.5z" />
<glyph unicode="&#xf9;" horiz-adv-x="484" d="M439 585l-8 -8q-115 96 -115 128q0 18 17 18h3q30 -56 103 -138zM453 503q21 7 26 7t4 -6l-23 -109l-6 -28l-37 -174q-27 -126 -27 -153q0 -20 11 -20q31 0 99 111l6 -4q-21 -49 -56 -93t-64 -44q-27 0 -27 38q0 52 56 278q-58 -146 -121.5 -231t-117.5 -85q-51 0 -51 59 q0 32 13 92.5t33.5 139t27.5 114.5q10 48 10 70q0 15 -8 15q-27 0 -103 -111l-6 4q23 51 57 94t63 43q27 0 27 -42q0 -25 -10 -73q-8 -39 -28 -116.5t-33 -136t-13 -88.5q0 -36 28 -36q48 0 119 106t128 271z" />
<glyph unicode="&#xfa;" horiz-adv-x="484" d="M462 705q0 -20 -54.5 -57t-109.5 -67l-6 8q108 82 152 131q18 0 18 -15zM453 503q21 7 26 7t4 -6l-23 -109l-6 -28l-37 -174q-27 -126 -27 -153q0 -20 11 -20q31 0 99 111l6 -4q-21 -49 -56 -93t-64 -44q-27 0 -27 38q0 52 56 278q-58 -146 -121.5 -231t-117.5 -85 q-51 0 -51 59q0 32 13 92.5t33.5 139t27.5 114.5q10 48 10 70q0 15 -8 15q-27 0 -103 -111l-6 4q23 51 57 94t63 43q27 0 27 -42q0 -25 -10 -73q-8 -39 -28 -116.5t-33 -136t-13 -88.5q0 -36 28 -36q48 0 119 106t128 271z" />
<glyph unicode="&#xfb;" horiz-adv-x="484" d="M479 586l-9 -6q-45 62 -84 108q-49 -45 -125 -107l-6 7q83 79 123 129l5 3h18q28 -46 78 -134zM453 503q21 7 26 7t4 -6l-23 -109l-6 -28l-37 -174q-27 -126 -27 -153q0 -20 11 -20q31 0 99 111l6 -4q-21 -49 -56 -93t-64 -44q-27 0 -27 38q0 52 56 278 q-58 -146 -121.5 -231t-117.5 -85q-51 0 -51 59q0 32 13 92.5t33.5 139t27.5 114.5q10 48 10 70q0 15 -8 15q-27 0 -103 -111l-6 4q23 51 57 94t63 43q27 0 27 -42q0 -25 -10 -73q-8 -39 -28 -116.5t-33 -136t-13 -88.5q0 -36 28 -36q48 0 119 106t128 271z" />
<glyph unicode="&#xfc;" horiz-adv-x="484" d="M320 662q0 -18 -12.5 -33t-28.5 -15q-22 0 -22 24q0 19 12.5 33.5t28.5 14.5q22 0 22 -24zM498 662q0 -18 -12.5 -33t-28.5 -15q-22 0 -22 24q0 19 12.5 33.5t28.5 14.5q22 0 22 -24zM453 503q21 7 26 7t4 -6l-23 -109l-6 -28l-37 -174q-27 -126 -27 -153q0 -20 11 -20 q31 0 99 111l6 -4q-21 -49 -56 -93t-64 -44q-27 0 -27 38q0 52 56 278q-58 -146 -121.5 -231t-117.5 -85q-51 0 -51 59q0 32 13 92.5t33.5 139t27.5 114.5q10 48 10 70q0 15 -8 15q-27 0 -103 -111l-6 4q23 51 57 94t63 43q27 0 27 -42q0 -25 -10 -73q-8 -39 -28 -116.5 t-33 -136t-13 -88.5q0 -36 28 -36q48 0 119 106t128 271z" />
<glyph unicode="&#xfd;" horiz-adv-x="359" d="M402 705q0 -20 -54.5 -57t-109.5 -67l-6 8q108 82 152 131q18 0 18 -15zM223 355q0 -163 -56 -336q98 91 157.5 217.5t59.5 238.5q0 15 -2 31q6 4 14 4q20 0 20 -33q0 -110 -69 -250t-191 -240q-67 -182 -164 -182q-32 0 -52 11.5t-20 28.5q0 19 17 30q9 -20 25.5 -33 t35.5 -13q56 0 102 89t68.5 207.5t22.5 226.5q0 128 -35 128q-27 0 -86 -111l-6 4q18 55 45.5 96t55.5 41q58 0 58 -155z" />
<glyph unicode="&#xfe;" horiz-adv-x="420" d="M86 -188q-21 -7 -26 -7q-6 0 -4 6l23 109l139 655l20 96l-85 8v5q105 10 116 11l4 -4l-25 -116l-43 -204q-13 -62 -38 -167q51 140 109 223t104 83q65 0 65 -113q0 -90 -30 -182t-89.5 -158.5t-132.5 -66.5q-32 0 -67 11l-17 -81zM373 482q-43 0 -109.5 -109.5 t-117.5 -277.5l-13 -63q35 -18 84 -18q51 0 98 59.5t73.5 147t26.5 172.5q0 89 -42 89z" />
<glyph unicode="&#xff;" horiz-adv-x="359" d="M260 662q0 -18 -12.5 -33t-28.5 -15q-22 0 -22 24q0 19 12.5 33.5t28.5 14.5q22 0 22 -24zM438 662q0 -18 -12.5 -33t-28.5 -15q-22 0 -22 24q0 19 12.5 33.5t28.5 14.5q22 0 22 -24zM223 355q0 -163 -56 -336q98 91 157.5 217.5t59.5 238.5q0 15 -2 31q6 4 14 4 q20 0 20 -33q0 -110 -69 -250t-191 -240q-67 -182 -164 -182q-32 0 -52 11.5t-20 28.5q0 19 17 30q9 -20 25.5 -33t35.5 -13q56 0 102 89t68.5 207.5t22.5 226.5q0 128 -35 128q-27 0 -86 -111l-6 4q18 55 45.5 96t55.5 41q58 0 58 -155z" />
<glyph unicode="&#x100;" horiz-adv-x="685" d="M392 788l6 24h234l-6 -24h-234zM476 654h13l87 -590q4 -25 10.5 -32.5t27.5 -12.5l45 -9l-2 -10h-204v10l96 15l-29 204l-259 -2l1 5l-116 -206l90 -16l-2 -10h-204v10l53 10q22 4 32.5 12.5t23.5 31.5zM275 254l242 -3l-50 342z" />
<glyph unicode="&#x101;" horiz-adv-x="428" d="M232 638l6 24h234l-6 -24h-234zM78 94q0 91 35.5 186.5t100.5 162.5t138 67q45 0 76 -20l-23 -93l-63 -292q-10 -48 -10 -70q0 -15 8 -15q27 0 103 111l6 -4q-23 -51 -57 -94t-63 -43q-27 0 -27 42q0 25 10 73l45 197q-52 -140 -113 -226t-106 -86q-60 0 -60 104z M378 407l14 66q-27 13 -61 13q-55 0 -108 -61.5t-84 -151.5t-31 -174q0 -81 37 -81q42 0 112 111.5t121 277.5z" />
<glyph unicode="&#x102;" horiz-adv-x="685" d="M596 850l4 2l10 -4q-17 -47 -48.5 -73.5t-70.5 -26.5q-40 0 -61 26.5t-18 74.5l14 3q2 -37 20.5 -58t49.5 -21q65 0 100 77zM476 654h13l87 -590q4 -25 10.5 -32.5t27.5 -12.5l45 -9l-2 -10h-204v10l96 15l-29 204l-259 -2l1 5l-116 -206l90 -16l-2 -10h-204v10l53 10 q22 4 32.5 12.5t23.5 31.5zM275 254l242 -3l-50 342z" />
<glyph unicode="&#x103;" horiz-adv-x="428" d="M444 700l4 2l10 -4q-17 -47 -48.5 -73.5t-70.5 -26.5q-40 0 -61 26.5t-18 74.5l14 3q2 -37 20.5 -58t49.5 -21q65 0 100 77zM78 94q0 91 35.5 186.5t100.5 162.5t138 67q45 0 76 -20l-23 -93l-63 -292q-10 -48 -10 -70q0 -15 8 -15q27 0 103 111l6 -4q-23 -51 -57 -94 t-63 -43q-27 0 -27 42q0 25 10 73l45 197q-52 -140 -113 -226t-106 -86q-60 0 -60 104zM378 407l14 66q-27 13 -61 13q-55 0 -108 -61.5t-84 -151.5t-31 -174q0 -81 37 -81q42 0 112 111.5t121 277.5z" />
<glyph unicode="&#x104;" horiz-adv-x="685" d="M688 -77q-49 -97 -99 -97q-40 0 -40 44q0 37 24.5 73t60.5 57h-181v10l96 15l-29 204l-259 -2l1 5l-116 -206l90 -16l-2 -10h-204v10l53 10q22 4 32.5 12.5t23.5 31.5l337 590h13l87 -590q4 -25 10.5 -32.5t27.5 -12.5l45 -9l-2 -10q-30 -18 -54 -55t-24 -66 q0 -23 19 -23q27 0 84 71zM275 254l242 -3l-50 342z" />
<glyph unicode="&#x105;" horiz-adv-x="428" d="M78 94q0 91 35.5 186.5t100.5 162.5t138 67q45 0 76 -20l-23 -93l-63 -292q-10 -48 -10 -70q0 -15 8 -15q27 0 103 111l6 -4q-9 -20 -27 -51l1 1l-6 -9q-12 -19 -26 -35q-16 -22 -39 -50.5t-34 -43t-20 -31t-9 -29.5q0 -23 20 -23q28 0 83 71l6 -4q-49 -97 -99 -97 q-18 0 -29 12t-11 32q0 16 10 35t19 29.5t29.5 32t24.5 25.5q-10 -2 -13 -2q-27 0 -27 42q0 25 10 73l45 197q-52 -140 -113 -226t-106 -86q-60 0 -60 104zM378 407l14 66q-27 13 -61 13q-55 0 -108 -61.5t-84 -151.5t-31 -174q0 -81 37 -81q42 0 112 111.5t121 277.5z" />
<glyph unicode="&#x106;" d="M588 855q0 -20 -54.5 -57t-109.5 -67l-6 8q108 82 152 131q18 0 18 -15zM487 660q80 0 131 -32q-7 -76 -39 -172h-8l12 159q-47 21 -101 21q-141 0 -235 -113t-94 -263q0 -118 61 -182t159 -64q64 0 102 20l57 168h8q-3 -28 -19 -115q-2 -13 -16 -65q-52 -32 -134 -32 q-113 0 -182 70t-69 193q0 110 45.5 202.5t130 148.5t191.5 56z" />
<glyph unicode="&#x107;" horiz-adv-x="341" d="M415 705q0 -20 -54.5 -57t-109.5 -67l-6 8q108 82 152 131q18 0 18 -15zM347 139q-24 -59 -67.5 -104t-87.5 -45q-49 0 -75.5 41t-26.5 116q0 84 30 168.5t79.5 139.5t102.5 55q36 0 55.5 -25.5t19.5 -66.5q0 -36 -9.5 -64.5t-26.5 -28.5q-8 0 -13 4q18 40 18 84 q0 77 -51 77q-42 0 -83 -54.5t-65.5 -134t-24.5 -153.5q0 -62 19 -98t53 -36q35 0 74.5 36.5t72.5 92.5z" />
<glyph unicode="&#x108;" d="M604 736l-9 -6q-45 62 -84 108q-49 -45 -125 -107l-6 7q83 79 123 129l5 3h18q28 -46 78 -134zM487 660q80 0 131 -32q-7 -76 -39 -172h-8l12 159q-47 21 -101 21q-141 0 -235 -113t-94 -263q0 -118 61 -182t159 -64q64 0 102 20l57 168h8q-3 -28 -19 -115 q-2 -13 -16 -65q-52 -32 -134 -32q-113 0 -182 70t-69 193q0 110 45.5 202.5t130 148.5t191.5 56z" />
<glyph unicode="&#x109;" horiz-adv-x="341" d="M432 586l-9 -6q-45 62 -84 108q-49 -45 -125 -107l-6 7q83 79 123 129l5 3h18q28 -46 78 -134zM347 139q-24 -59 -67.5 -104t-87.5 -45q-49 0 -75.5 41t-26.5 116q0 84 30 168.5t79.5 139.5t102.5 55q36 0 55.5 -25.5t19.5 -66.5q0 -36 -9.5 -64.5t-26.5 -28.5 q-8 0 -13 4q18 40 18 84q0 77 -51 77q-42 0 -83 -54.5t-65.5 -134t-24.5 -153.5q0 -62 19 -98t53 -36q35 0 74.5 36.5t72.5 92.5z" />
<glyph unicode="&#x10a;" d="M536 810q0 -17 -11.5 -31t-28.5 -14q-26 0 -26 26q0 17 12.5 30.5t28.5 13.5q25 0 25 -25zM487 660q80 0 131 -32q-7 -76 -39 -172h-8l12 159q-47 21 -101 21q-141 0 -235 -113t-94 -263q0 -118 61 -182t159 -64q64 0 102 20l57 168h8q-3 -28 -19 -115q-2 -13 -16 -65 q-52 -32 -134 -32q-113 0 -182 70t-69 193q0 110 45.5 202.5t130 148.5t191.5 56z" />
<glyph unicode="&#x10b;" horiz-adv-x="341" d="M363 660q0 -17 -11.5 -31t-28.5 -14q-26 0 -26 26q0 17 12.5 30.5t28.5 13.5q25 0 25 -25zM347 139q-24 -59 -67.5 -104t-87.5 -45q-49 0 -75.5 41t-26.5 116q0 84 30 168.5t79.5 139.5t102.5 55q36 0 55.5 -25.5t19.5 -66.5q0 -36 -9.5 -64.5t-26.5 -28.5q-8 0 -13 4 q18 40 18 84q0 77 -51 77q-42 0 -83 -54.5t-65.5 -134t-24.5 -153.5q0 -62 19 -98t53 -36q35 0 74.5 36.5t72.5 92.5z" />
<glyph unicode="&#x10c;" d="M499 733l-5 -3h-18q-28 46 -78 134l9 6q45 -62 84 -108q49 45 125 107l6 -7q-83 -79 -123 -129zM487 660q80 0 131 -32q-7 -76 -39 -172h-8l12 159q-47 21 -101 21q-141 0 -235 -113t-94 -263q0 -118 61 -182t159 -64q64 0 102 20l57 168h8q-3 -28 -19 -115 q-2 -13 -16 -65q-52 -32 -134 -32q-113 0 -182 70t-69 193q0 110 45.5 202.5t130 148.5t191.5 56z" />
<glyph unicode="&#x10d;" horiz-adv-x="341" d="M327 583l-5 -3h-18q-28 46 -78 134l9 6q45 -62 84 -108q49 45 125 107l6 -7q-83 -79 -123 -129zM347 139q-24 -59 -67.5 -104t-87.5 -45q-49 0 -75.5 41t-26.5 116q0 84 30 168.5t79.5 139.5t102.5 55q36 0 55.5 -25.5t19.5 -66.5q0 -36 -9.5 -64.5t-26.5 -28.5 q-8 0 -13 4q18 40 18 84q0 77 -51 77q-42 0 -83 -54.5t-65.5 -134t-24.5 -153.5q0 -62 19 -98t53 -36q35 0 74.5 36.5t72.5 92.5z" />
<glyph unicode="&#x10e;" horiz-adv-x="634" d="M471 733l-5 -3h-18q-28 46 -78 134l9 6q45 -62 84 -108q49 45 125 107l6 -7q-83 -79 -123 -129zM269 0h-219v10l78 12q17 2 20 17l122 572l3 13l-89 16l3 10h201q129 0 197.5 -64.5t68.5 -178.5q0 -78 -24.5 -149.5t-71 -129.5t-121.5 -93t-168 -35zM379 628h-74l-3 -17 l-122 -572l-3 -17h94q110 0 191.5 55t120 140.5t38.5 186.5q0 108 -60.5 166t-181.5 58z" />
<glyph unicode="&#x10f;" horiz-adv-x="528" d="M312 105l39 182q-52 -134 -110.5 -215.5t-102.5 -81.5q-60 0 -60 104q0 91 35.5 186.5t100.5 162.5t138 67q26 0 45 -6l15 71l20 96l-85 8v5q105 10 116 11l4 -4l-25 -116l-100 -470q-10 -48 -10 -70q0 -15 8 -15q27 0 103 111l6 -4q-23 -51 -57 -94t-63 -43 q-27 0 -27 42q0 25 10 73zM628 667q0 -27 -22 -69t-55 -78l-5 5q34 54 44 102h-1q-24 0 -24 25q0 17 12 30t26 13q25 0 25 -28zM145 18q42 0 111.5 112t120.5 278l14 65q-26 13 -60 13q-55 0 -108 -61.5t-84 -151.5t-31 -174q0 -81 37 -81z" />
<glyph unicode="&#x110;" horiz-adv-x="628" d="M269 0h-219v10l78 12q17 2 20 17l58 273h-91l4 22h92l59 277l3 13l-89 16l3 10h201q129 0 197.5 -64.5t68.5 -178.5q0 -78 -24.5 -149.5t-71 -129.5t-121.5 -93t-168 -35zM422 312h-184l-58 -273l-3 -17h94q110 0 191.5 55t120 140.5t38.5 186.5q0 108 -60.5 166 t-181.5 58h-74l-3 -17l-59 -277h183z" />
<glyph unicode="&#x111;" horiz-adv-x="428" d="M312 105l39 182q-52 -134 -110.5 -215.5t-102.5 -81.5q-60 0 -60 104q0 91 35.5 186.5t100.5 162.5t138 67q26 0 45 -6l15 70h-147l4 22h147l16 75l-85 8v5q105 10 116 11l4 -4l-20 -95h101l-4 -22h-102l-100 -469q-10 -48 -10 -70q0 -15 8 -15q27 0 103 111l6 -4 q-23 -51 -57 -94t-63 -43q-27 0 -27 42q0 25 10 73zM145 18q42 0 111.5 112t120.5 278l14 65q-26 13 -60 13q-55 0 -108 -61.5t-84 -151.5t-31 -174q0 -81 37 -81z" />
<glyph unicode="&#x112;" horiz-adv-x="515" d="M335 788l6 24h234l-6 -24h-234zM469 0h-419v10l78 12q17 2 20 17l122 572l3 13l-89 16l3 10h410q-6 -77 -39 -175h-7l11 150q-47 2 -140 2h-117l-3 -16l-57 -269l216 4l-6 -30l-215 5l-60 -282l-3 -16h123q97 0 144 2l53 150h7q-2 -32 -9 -70q-12 -65 -26 -105z" />
<glyph unicode="&#x113;" horiz-adv-x="329" d="M212 638l6 24h234l-6 -24h-234zM347 139q-25 -60 -67.5 -104.5t-91.5 -44.5q-46 0 -72 41.5t-26 115.5q0 84 29.5 168t79.5 139.5t104 55.5q34 0 52.5 -21.5t18.5 -55.5q0 -94 -74.5 -153.5t-172.5 -65.5q-5 -37 -5 -65q0 -62 18.5 -98.5t53.5 -36.5q34 0 74 36.5 t73 92.5zM297 490q-52 0 -100.5 -78.5t-66.5 -179.5q99 12 155.5 68t56.5 133q0 25 -11 41t-34 16z" />
<glyph unicode="&#x114;" horiz-adv-x="515" d="M539 850l4 2l10 -4q-17 -47 -48.5 -73.5t-70.5 -26.5q-40 0 -61 26.5t-18 74.5l14 3q2 -37 20.5 -58t49.5 -21q65 0 100 77zM469 0h-419v10l78 12q17 2 20 17l122 572l3 13l-89 16l3 10h410q-6 -77 -39 -175h-7l11 150q-47 2 -140 2h-117l-3 -16l-57 -269l216 4l-6 -30 l-215 5l-60 -282l-3 -16h123q97 0 144 2l53 150h7q-2 -32 -9 -70q-12 -65 -26 -105z" />
<glyph unicode="&#x115;" horiz-adv-x="329" d="M424 700l4 2l10 -4q-17 -47 -48.5 -73.5t-70.5 -26.5q-40 0 -61 26.5t-18 74.5l14 3q2 -37 20.5 -58t49.5 -21q65 0 100 77zM347 139q-25 -60 -67.5 -104.5t-91.5 -44.5q-46 0 -72 41.5t-26 115.5q0 84 29.5 168t79.5 139.5t104 55.5q34 0 52.5 -21.5t18.5 -55.5 q0 -94 -74.5 -153.5t-172.5 -65.5q-5 -37 -5 -65q0 -62 18.5 -98.5t53.5 -36.5q34 0 74 36.5t73 92.5zM297 490q-52 0 -100.5 -78.5t-66.5 -179.5q99 12 155.5 68t56.5 133q0 25 -11 41t-34 16z" />
<glyph unicode="&#x116;" horiz-adv-x="515" d="M488 810q0 -17 -11.5 -31t-28.5 -14q-26 0 -26 26q0 17 12.5 30.5t28.5 13.5q25 0 25 -25zM469 0h-419v10l78 12q17 2 20 17l122 572l3 13l-89 16l3 10h410q-6 -77 -39 -175h-7l11 150q-47 2 -140 2h-117l-3 -16l-57 -269l216 4l-6 -30l-215 5l-60 -282l-3 -16h123 q97 0 144 2l53 150h7q-2 -32 -9 -70q-12 -65 -26 -105z" />
<glyph unicode="&#x117;" horiz-adv-x="329" d="M363 660q0 -17 -11.5 -31t-28.5 -14q-26 0 -26 26q0 17 12.5 30.5t28.5 13.5q25 0 25 -25zM347 139q-25 -60 -67.5 -104.5t-91.5 -44.5q-46 0 -72 41.5t-26 115.5q0 84 29.5 168t79.5 139.5t104 55.5q34 0 52.5 -21.5t18.5 -55.5q0 -94 -74.5 -153.5t-172.5 -65.5 q-5 -37 -5 -65q0 -62 18.5 -98.5t53.5 -36.5q34 0 74 36.5t73 92.5zM297 490q-52 0 -100.5 -78.5t-66.5 -179.5q99 12 155.5 68t56.5 133q0 25 -11 41t-34 16z" />
<glyph unicode="&#x118;" horiz-adv-x="515" d="M500 -77q-49 -97 -99 -97q-40 0 -40 44q0 37 24.5 73t60.5 57h-396v10l78 12q17 2 20 17l122 572l3 13l-89 16l3 10h410q-6 -77 -39 -175h-7l11 150q-47 2 -140 2h-117l-3 -16l-57 -269l216 4l-6 -30l-215 5l-60 -282l-3 -16h123q97 0 144 2l53 150h7q-2 -32 -9 -70 q-12 -65 -26 -105q-30 -18 -54 -55t-24 -66q0 -23 19 -23q27 0 84 71z" />
<glyph unicode="&#x119;" horiz-adv-x="329" d="M263 -77q-49 -97 -99 -97q-19 0 -29.5 12.5t-10.5 34.5q0 7 1.5 13.5t6 14.5t8.5 14t12 14.5t12.5 13.5t15 14.5t15 13.5t16.5 14t15 13q-19 -8 -38 -8q-46 0 -72 41.5t-26 115.5q0 84 29.5 168t79.5 139.5t104 55.5q34 0 52.5 -21.5t18.5 -55.5q0 -94 -74.5 -153.5 t-172.5 -65.5q-5 -37 -5 -65q0 -62 18.5 -98.5t53.5 -36.5q34 0 74 36.5t73 92.5l6 -4q-24 -58 -61 -98q-20 -24 -56 -59t-56 -59t-20 -43q0 -24 20 -24q29 0 83 71zM297 490q-52 0 -100.5 -78.5t-66.5 -179.5q99 12 155.5 68t56.5 133q0 25 -11 41t-34 16z" />
<glyph unicode="&#x11a;" horiz-adv-x="515" d="M451 733l-5 -3h-18q-28 46 -78 134l9 6q45 -62 84 -108q49 45 125 107l6 -7q-83 -79 -123 -129zM469 0h-419v10l78 12q17 2 20 17l122 572l3 13l-89 16l3 10h410q-6 -77 -39 -175h-7l11 150q-47 2 -140 2h-117l-3 -16l-57 -269l216 4l-6 -30l-215 5l-60 -282l-3 -16h123 q97 0 144 2l53 150h7q-2 -32 -9 -70q-12 -65 -26 -105z" />
<glyph unicode="&#x11b;" horiz-adv-x="329" d="M327 583l-5 -3h-18q-28 46 -78 134l9 6q45 -62 84 -108q49 45 125 107l6 -7q-83 -79 -123 -129zM347 139q-25 -60 -67.5 -104.5t-91.5 -44.5q-46 0 -72 41.5t-26 115.5q0 84 29.5 168t79.5 139.5t104 55.5q34 0 52.5 -21.5t18.5 -55.5q0 -94 -74.5 -153.5t-172.5 -65.5 q-5 -37 -5 -65q0 -62 18.5 -98.5t53.5 -36.5q34 0 74 36.5t73 92.5zM297 490q-52 0 -100.5 -78.5t-66.5 -179.5q99 12 155.5 68t56.5 133q0 25 -11 41t-34 16z" />
<glyph unicode="&#x11c;" horiz-adv-x="622" d="M622 736l-9 -6q-45 62 -84 108q-49 -45 -125 -107l-6 7q83 79 123 129l5 3h18q28 -46 78 -134zM515 22q-54 -32 -140 -32q-114 0 -184.5 68t-70.5 195q0 110 46 202.5t132 148.5t194 56q84 0 136 -32q-7 -76 -39 -172h-8l12 160q-46 20 -106 20q-95 0 -173 -53.5 t-119.5 -139.5t-41.5 -183q0 -120 62.5 -183t162.5 -63q64 0 108 21l47 223l2 12l-91 17l3 8h200l-1 -8l-62 -12q-16 -4 -19 -17z" />
<glyph unicode="&#x11d;" horiz-adv-x="331" d="M399 586l-9 -6q-45 62 -84 108q-49 -45 -125 -107l-6 7q83 79 123 129l5 3h18q28 -46 78 -134zM319 -70q0 -44 -55.5 -84.5t-128.5 -40.5q-69 0 -107 26.5t-38 69.5q0 60 86 113l5 -5q-59 -52 -59 -99q0 -38 31 -59.5t87 -21.5q58 0 102.5 28t44.5 67q0 24 -23.5 45 t-51.5 33.5t-51.5 30.5t-23.5 35q0 16 19.5 35t64.5 53l12 9q-16 -4 -30 -4q-43 0 -69.5 32t-26.5 91q0 91 51.5 158.5t126.5 67.5q119 0 174 8q3 -6 3 -13q0 -22 -28 -22q-29 0 -112 11q40 -30 40 -102q0 -57 -20 -106t-48 -81t-56.5 -57t-48.5 -44t-20 -31q0 -11 23.5 -27 t51.5 -30.5t51.5 -38t23.5 -47.5zM137 290q0 -51 18.5 -79.5t52.5 -28.5q48 0 86 60.5t38 147.5q0 43 -15.5 69.5t-46.5 26.5q-52 0 -92.5 -60t-40.5 -136z" />
<glyph unicode="&#x11e;" horiz-adv-x="622" d="M605 850l4 2l10 -4q-17 -47 -48.5 -73.5t-70.5 -26.5q-40 0 -61 26.5t-18 74.5l14 3q2 -37 20.5 -58t49.5 -21q65 0 100 77zM515 22q-54 -32 -140 -32q-114 0 -184.5 68t-70.5 195q0 110 46 202.5t132 148.5t194 56q84 0 136 -32q-7 -76 -39 -172h-8l12 160 q-46 20 -106 20q-95 0 -173 -53.5t-119.5 -139.5t-41.5 -183q0 -120 62.5 -183t162.5 -63q64 0 108 21l47 223l2 12l-91 17l3 8h200l-1 -8l-62 -12q-16 -4 -19 -17z" />
<glyph unicode="&#x11f;" horiz-adv-x="331" d="M404 700l4 2l10 -4q-17 -47 -48.5 -73.5t-70.5 -26.5q-40 0 -61 26.5t-18 74.5l14 3q2 -37 20.5 -58t49.5 -21q65 0 100 77zM319 -70q0 -44 -55.5 -84.5t-128.5 -40.5q-69 0 -107 26.5t-38 69.5q0 60 86 113l5 -5q-59 -52 -59 -99q0 -38 31 -59.5t87 -21.5q58 0 102.5 28 t44.5 67q0 24 -23.5 45t-51.5 33.5t-51.5 30.5t-23.5 35q0 16 19.5 35t64.5 53l12 9q-16 -4 -30 -4q-43 0 -69.5 32t-26.5 91q0 91 51.5 158.5t126.5 67.5q119 0 174 8q3 -6 3 -13q0 -22 -28 -22q-29 0 -112 11q40 -30 40 -102q0 -57 -20 -106t-48 -81t-56.5 -57t-48.5 -44 t-20 -31q0 -11 23.5 -27t51.5 -30.5t51.5 -38t23.5 -47.5zM137 290q0 -51 18.5 -79.5t52.5 -28.5q48 0 86 60.5t38 147.5q0 43 -15.5 69.5t-46.5 26.5q-52 0 -92.5 -60t-40.5 -136z" />
<glyph unicode="&#x120;" horiz-adv-x="622" d="M554 810q0 -17 -11.5 -31t-28.5 -14q-26 0 -26 26q0 17 12.5 30.5t28.5 13.5q25 0 25 -25zM515 22q-54 -32 -140 -32q-114 0 -184.5 68t-70.5 195q0 110 46 202.5t132 148.5t194 56q84 0 136 -32q-7 -76 -39 -172h-8l12 160q-46 20 -106 20q-95 0 -173 -53.5 t-119.5 -139.5t-41.5 -183q0 -120 62.5 -183t162.5 -63q64 0 108 21l47 223l2 12l-91 17l3 8h200l-1 -8l-62 -12q-16 -4 -19 -17z" />
<glyph unicode="&#x121;" horiz-adv-x="331" d="M343 660q0 -17 -11.5 -31t-28.5 -14q-26 0 -26 26q0 17 12.5 30.5t28.5 13.5q25 0 25 -25zM319 -70q0 -44 -55.5 -84.5t-128.5 -40.5q-69 0 -107 26.5t-38 69.5q0 60 86 113l5 -5q-59 -52 -59 -99q0 -38 31 -59.5t87 -21.5q58 0 102.5 28t44.5 67q0 24 -23.5 45 t-51.5 33.5t-51.5 30.5t-23.5 35q0 16 19.5 35t64.5 53l12 9q-16 -4 -30 -4q-43 0 -69.5 32t-26.5 91q0 91 51.5 158.5t126.5 67.5q119 0 174 8q3 -6 3 -13q0 -22 -28 -22q-29 0 -112 11q40 -30 40 -102q0 -57 -20 -106t-48 -81t-56.5 -57t-48.5 -44t-20 -31q0 -11 23.5 -27 t51.5 -30.5t51.5 -38t23.5 -47.5zM137 290q0 -51 18.5 -79.5t52.5 -28.5q48 0 86 60.5t38 147.5q0 43 -15.5 69.5t-46.5 26.5q-52 0 -92.5 -60t-40.5 -136z" />
<glyph unicode="&#x122;" horiz-adv-x="622" d="M515 22q-54 -32 -140 -32q-114 0 -184.5 68t-70.5 195q0 110 46 202.5t132 148.5t194 56q84 0 136 -32q-7 -76 -39 -172h-8l12 160q-46 20 -106 20q-95 0 -173 -53.5t-119.5 -139.5t-41.5 -183q0 -120 62.5 -183t162.5 -63q64 0 108 21l47 223l2 12l-91 17l3 8h200l-1 -8 l-62 -12q-16 -4 -19 -17zM366 -130q0 -27 -22 -69t-55 -78l-5 5q34 54 44 102h-1q-24 0 -24 25q0 17 12 30t26 13q25 0 25 -28z" />
<glyph unicode="&#x123;" horiz-adv-x="331" d="M277 643q0 27 22 69t55 78l5 -5q-34 -54 -44 -102h1q24 0 24 -25q0 -17 -12 -30t-26 -13q-25 0 -25 28zM319 -70q0 -44 -55.5 -84.5t-128.5 -40.5q-69 0 -107 26.5t-38 69.5q0 60 86 113l5 -5q-59 -52 -59 -99q0 -38 31 -59.5t87 -21.5q58 0 102.5 28t44.5 67 q0 24 -23.5 45t-51.5 33.5t-51.5 30.5t-23.5 35q0 16 19.5 35t64.5 53l12 9q-16 -4 -30 -4q-43 0 -69.5 32t-26.5 91q0 91 51.5 158.5t126.5 67.5q119 0 174 8q3 -6 3 -13q0 -22 -28 -22q-29 0 -112 11q40 -30 40 -102q0 -57 -20 -106t-48 -81t-56.5 -57t-48.5 -44t-20 -31 q0 -11 23.5 -27t51.5 -30.5t51.5 -38t23.5 -47.5zM137 290q0 -51 18.5 -79.5t52.5 -28.5q48 0 86 60.5t38 147.5q0 43 -15.5 69.5t-46.5 26.5q-52 0 -92.5 -60t-40.5 -136z" />
<glyph unicode="&#x124;" horiz-adv-x="693" d="M617 736l-9 -6q-45 62 -84 108q-49 -45 -125 -107l-6 7q83 79 123 129l5 3h18q28 -46 78 -134zM264 0h-214v10l78 12q17 2 20 17l122 572l3 13l-89 16l2 10h214v-10l-78 -12q-17 -2 -20 -17l-57 -268h349l57 268l3 13l-89 16l2 10h214v-10l-78 -12q-17 -2 -20 -17 l-122 -572l-3 -13l89 -16l-2 -10h-214v10l78 12q17 2 20 17l60 281h-349l-60 -281l-3 -13l89 -16z" />
<glyph unicode="&#x125;" horiz-adv-x="466" d="M354 736l-9 -6q-45 62 -84 108q-49 -45 -125 -107l-6 7q83 79 123 129l5 3h18q28 -46 78 -134zM124 -3q-21 -7 -26 -7q-6 0 -4 6l23 109h1l100 470l20 96l-85 8v5q105 10 116 11l4 -4l-25 -116q-75 -346 -81 -370q58 140 121 222.5t115 82.5q51 0 51 -59q0 -32 -13 -92.5 t-33.5 -139t-27.5 -114.5q-10 -48 -10 -70q0 -15 8 -15q27 0 103 111l6 -4q-23 -51 -57 -94t-63 -43q-27 0 -27 42q0 25 10 73q8 39 28 116.5t33 136t13 88.5q0 36 -28 36q-48 0 -119.5 -106t-128.5 -271h-1z" />
<glyph unicode="&#x126;" horiz-adv-x="693" d="M264 0h-214v10l78 12q17 2 20 17l89 417h-92l4 23h93l28 132l3 13l-89 16l2 10h214v-10l-78 -12q-17 -2 -20 -17l-28 -132h349l28 132l3 13l-89 16l2 10h214v-10l-78 -12q-17 -2 -20 -17l-28 -132h94l-4 -23h-95l-89 -417l-3 -13l89 -16l-2 -10h-214v10l78 12q17 2 20 17 l60 281h-349l-60 -281l-3 -13l89 -16zM245 343h349l24 113h-349z" />
<glyph unicode="&#x127;" horiz-adv-x="466" d="M124 -3q-21 -7 -26 -7q-6 0 -4 6l23 109h1l100 469h-89l4 22h89l16 75l-85 8v5q105 10 116 11l4 -4l-20 -95h159l-4 -22h-160l-81 -369q58 140 121 222.5t115 82.5q51 0 51 -59q0 -32 -13 -92.5t-33.5 -139t-27.5 -114.5q-10 -48 -10 -70q0 -15 8 -15q27 0 103 111l6 -4 q-23 -51 -57 -94t-63 -43q-27 0 -27 42q0 25 10 73q8 39 28 116.5t33 136t13 88.5q0 36 -28 36q-48 0 -119.5 -106t-128.5 -271h-1z" />
<glyph unicode="&#x128;" horiz-adv-x="312" d="M395 787q23 19 60 59l8 -5q-42 -78 -73 -78q-21 0 -79.5 24.5t-70.5 24.5q-23 -19 -60 -59l-8 5q42 78 73 78q22 0 80 -24.5t70 -24.5zM264 0h-214v10l78 12q17 2 20 17l122 572l3 13l-89 16l2 10h214v-10l-78 -12q-17 -2 -20 -17l-122 -572l-3 -13l89 -16z" />
<glyph unicode="&#x129;" horiz-adv-x="246" d="M303 637q21 18 47 49l8 -6q-10 -20 -17 -31.5t-20 -23.5t-25 -12q-16 0 -58 19.5t-48 19.5q-21 -18 -47 -49l-8 6q10 20 17 31.5t20 23.5t25 12q16 0 58 -19.5t48 -19.5zM130 105q9 43 35 146t34 144q10 48 10 70q0 15 -8 15q-27 0 -103 -111l-6 4q23 51 57 94t63 43 q27 0 27 -42q0 -25 -10 -73q-9 -45 -35 -149.5t-34 -140.5q-10 -48 -10 -70q0 -15 8 -15q27 0 103 111l6 -4q-23 -51 -57 -94t-63 -43q-27 0 -27 42q0 25 10 73z" />
<glyph unicode="&#x12a;" horiz-adv-x="312" d="M206 788l6 24h234l-6 -24h-234zM264 0h-214v10l78 12q17 2 20 17l122 572l3 13l-89 16l2 10h214v-10l-78 -12q-17 -2 -20 -17l-122 -572l-3 -13l89 -16z" />
<glyph unicode="&#x12b;" horiz-adv-x="246" d="M156 638l6 24h174l-6 -24h-174zM130 105q9 43 35 146t34 144q10 48 10 70q0 15 -8 15q-27 0 -103 -111l-6 4q23 51 57 94t63 43q27 0 27 -42q0 -25 -10 -73q-9 -45 -35 -149.5t-34 -140.5q-10 -48 -10 -70q0 -15 8 -15q27 0 103 111l6 -4q-23 -51 -57 -94t-63 -43 q-27 0 -27 42q0 25 10 73z" />
<glyph unicode="&#x12c;" horiz-adv-x="312" d="M410 850l4 2l10 -4q-17 -47 -48.5 -73.5t-70.5 -26.5q-40 0 -61 26.5t-18 74.5l14 3q2 -37 20.5 -58t49.5 -21q65 0 100 77zM264 0h-214v10l78 12q17 2 20 17l122 572l3 13l-89 16l2 10h214v-10l-78 -12q-17 -2 -20 -17l-122 -572l-3 -13l89 -16z" />
<glyph unicode="&#x12d;" horiz-adv-x="246" d="M320 700l4 2l10 -4q-10 -47 -36 -73.5t-61 -26.5q-31 0 -47.5 20t-16.5 52q0 14 3 29l14 3q-1 -6 -1 -17q0 -28 13 -45t38 -17q28 0 49 20.5t31 56.5zM130 105q9 43 35 146t34 144q10 48 10 70q0 15 -8 15q-27 0 -103 -111l-6 4q23 51 57 94t63 43q27 0 27 -42 q0 -25 -10 -73q-9 -45 -35 -149.5t-34 -140.5q-10 -48 -10 -70q0 -15 8 -15q27 0 103 111l6 -4q-23 -51 -57 -94t-63 -43q-27 0 -27 42q0 25 10 73z" />
<glyph unicode="&#x12e;" horiz-adv-x="312" d="M295 -77q-49 -97 -99 -97q-40 0 -40 44q0 37 24.5 73t60.5 57h-191v10l78 12q17 2 20 17l122 572l3 13l-89 16l2 10h214v-10l-78 -12q-17 -2 -20 -17l-122 -572l-3 -13l89 -16l-2 -10q-30 -18 -54 -55t-24 -66q0 -23 19 -23q27 0 84 71z" />
<glyph unicode="&#x12f;" horiz-adv-x="246" d="M282 660q0 -17 -11.5 -31t-28.5 -14q-26 0 -26 26q0 17 12.5 30.5t28.5 13.5q25 0 25 -25zM215 -77q-49 -97 -99 -97q-18 0 -29 12t-11 32q0 15 10 33t20.5 30.5t29.5 32.5t25 27q-7 -3 -14 -3q-27 0 -27 42q0 25 10 73q9 43 35 146t34 144q10 48 10 70q0 15 -8 15 q-27 0 -103 -111l-6 4q23 51 57 94t63 43q27 0 27 -42q0 -25 -10 -73q-9 -45 -35 -149.5t-34 -140.5q-10 -48 -10 -70q0 -15 8 -15q27 0 103 111l6 -4q-23 -52 -55 -91q-17 -24 -49 -62t-44.5 -58t-12.5 -37q0 -23 20 -23q28 0 83 71z" />
<glyph unicode="&#x130;" horiz-adv-x="312" d="M359 810q0 -17 -11.5 -31t-28.5 -14q-26 0 -26 26q0 17 12.5 30.5t28.5 13.5q25 0 25 -25zM264 0h-214v10l78 12q17 2 20 17l122 572l3 13l-89 16l2 10h214v-10l-78 -12q-17 -2 -20 -17l-122 -572l-3 -13l89 -16z" />
<glyph unicode="&#x131;" horiz-adv-x="246" d="M130 105q9 43 35 146t34 144q10 48 10 70q0 15 -8 15q-27 0 -103 -111l-6 4q23 51 57 94t63 43q27 0 27 -42q0 -25 -10 -73q-9 -45 -35 -149.5t-34 -140.5q-10 -48 -10 -70q0 -15 8 -15q27 0 103 111l6 -4q-23 -51 -57 -94t-63 -43q-27 0 -27 42q0 25 10 73z" />
<glyph unicode="&#x132;" horiz-adv-x="624" d="M264 0h-214v10l78 12q17 2 20 17l122 572l3 13l-89 16l2 10h214v-10l-78 -12q-17 -2 -20 -17l-122 -572l-3 -13l89 -16zM508 111q-18 -85 -53.5 -132t-113.5 -94l-7 11q65 50 95.5 95.5t48.5 130.5l104 489l3 13l-89 16l2 10h214v-10l-78 -12q-17 -2 -20 -17z" />
<glyph unicode="&#x133;" horiz-adv-x="468" d="M282 660q0 -17 -11.5 -31t-28.5 -14q-26 0 -26 26q0 17 12.5 30.5t28.5 13.5q25 0 25 -25zM535 660q0 -17 -11.5 -31t-28.5 -14q-26 0 -26 26q0 17 12.5 30.5t28.5 13.5q25 0 25 -25zM130 105q9 43 35 146t34 144q10 48 10 70q0 15 -8 15q-27 0 -103 -111l-6 4 q23 51 57 94t63 43q27 0 27 -42q0 -25 -10 -73q-9 -45 -35 -149.5t-34 -140.5q-10 -48 -10 -70q0 -15 8 -15q27 0 103 111l6 -4q-23 -51 -57 -94t-63 -43q-27 0 -27 42q0 25 10 73zM395 -6q-19 -92 -57.5 -140.5t-92.5 -48.5q-35 0 -58.5 16.5t-23.5 39.5q0 15 12 21 q36 -50 77 -50q47 0 70.5 35.5t42.5 125.5l85 402q10 48 10 70q0 15 -8 15q-27 0 -103 -111l-6 4q23 51 57 94t63 43q27 0 27 -42q0 -25 -10 -73z" />
<glyph unicode="&#x134;" horiz-adv-x="312" d="M429 737l-9 -6q-45 62 -84 108q-49 -45 -125 -107l-6 7q83 79 123 129l5 3h18q28 -46 78 -134zM196 111q-18 -85 -53.5 -132t-113.5 -94l-7 11q65 50 95.5 95.5t48.5 130.5l104 489l3 13l-89 16l2 10h214v-10l-78 -12q-17 -2 -20 -17z" />
<glyph unicode="&#x135;" horiz-adv-x="222" d="M335 586l-9 -6q-34 60 -64 106q-33 -35 -105 -105l-6 7q69 78 103 129l5 3h18q17 -35 58 -134zM149 -6q-19 -92 -57.5 -140.5t-92.5 -48.5q-35 0 -58.5 16.5t-23.5 39.5q0 15 12 21q36 -50 77 -50q47 0 70.5 35.5t42.5 125.5l85 402q10 48 10 70q0 15 -8 15 q-27 0 -103 -111l-6 4q23 51 57 94t63 43q27 0 27 -42q0 -25 -10 -73z" />
<glyph unicode="&#x136;" horiz-adv-x="635" d="M264 0h-214v10l78 12q17 2 20 17l121 572l3 13l-89 16l2 10h214v-10l-78 -12q-17 -2 -20 -17l-56 -267h148l227 282l-93 14l2 10h204v-8l-58 -11q-24 -4 -43 -27l-216 -267l108 -276q8 -20 18.5 -28t32.5 -14l47 -11l-1 -8h-50q-58 0 -79 54l-103 267h-149l-60 -282 l-3 -13l89 -16zM389 -130q0 -27 -22 -69t-55 -78l-5 5q34 54 44 102h-1q-24 0 -24 25q0 17 12 30t26 13q25 0 25 -28z" />
<glyph unicode="&#x137;" horiz-adv-x="444" d="M125 -3q-21 -7 -26 -7t-4 6l23 109l100 470l20 96l-85 8v5q105 10 116 11l4 -4l-25 -116q-49 -224 -90 -400q56 154 125 244.5t133 90.5q31 0 47.5 -19.5t16.5 -51.5q0 -69 -62 -128t-148 -94q37 -110 60 -154.5t42 -44.5q29 0 105 113l6 -4q-25 -54 -56.5 -95.5 t-61.5 -41.5t-58 52.5t-67 175.5l1 4q92 37 149.5 92.5t57.5 120.5q0 47 -42 47q-55 0 -130 -109t-130 -278zM240 -130q0 -27 -22 -69t-55 -78l-5 5q34 54 44 102h-1q-24 0 -24 25q0 17 12 30t26 13q25 0 25 -28z" />
<glyph unicode="&#x138;" horiz-adv-x="485" d="M136 -3q-21 -7 -26 -7q-6 0 -4 6l23 109l62 290q10 48 10 70q0 15 -8 15q-27 0 -103 -111l-6 4q23 51 57 94t63 43q27 0 27 -42q0 -25 -10 -73l-30 -141h97q54 120 111.5 188t110.5 68q16 0 26.5 -9t10.5 -21q0 -13 -12 -25q-19 21 -39 21q-38 0 -88 -60t-98 -165l8 -25 q39 -116 62 -162t43 -46q29 0 105 113l6 -4q-25 -54 -56.5 -95.5t-61.5 -41.5q-31 0 -59 54.5t-71 187.5h-100l-27 -127z" />
<glyph unicode="&#x139;" horiz-adv-x="506" d="M411 855q0 -20 -54.5 -57t-109.5 -67l-6 8q108 82 152 131q18 0 18 -15zM461 0h-411v10l78 12q17 2 20 17l122 572l3 13l-89 16l2 10h214v-10l-78 -12q-17 -2 -20 -17l-122 -572l-3 -16h117q94 0 141 2l52 151h8q-2 -29 -18 -113q-6 -32 -16 -63z" />
<glyph unicode="&#x13a;" horiz-adv-x="234" d="M372 890q0 -20 -54.5 -57t-109.5 -67l-6 8q108 82 152 131q18 0 18 -15zM118 105l100 470l20 96l-85 8v5q105 10 116 11l4 -4l-25 -116l-100 -470q-10 -48 -10 -70q0 -15 8 -15q27 0 103 111l6 -4q-23 -51 -57 -94t-63 -43q-27 0 -27 42q0 25 10 73z" />
<glyph unicode="&#x13b;" horiz-adv-x="506" d="M461 0h-411v10l78 12q17 2 20 17l122 572l3 13l-89 16l2 10h214v-10l-78 -12q-17 -2 -20 -17l-122 -572l-3 -16h117q94 0 141 2l52 151h8q-2 -29 -18 -113q-6 -32 -16 -63zM307 -130q0 -27 -22 -69t-55 -78l-5 5q34 54 44 102h-1q-24 0 -24 25q0 17 12 30t26 13 q25 0 25 -28z" />
<glyph unicode="&#x13c;" horiz-adv-x="234" d="M118 105l100 470l20 96l-85 8v5q105 10 116 11l4 -4l-25 -116l-100 -470q-10 -48 -10 -70q0 -15 8 -15q27 0 103 111l6 -4q-23 -51 -57 -94t-63 -43q-27 0 -27 42q0 25 10 73zM128 -130q0 -27 -22 -69t-55 -78l-5 5q34 54 44 102h-1q-24 0 -24 25q0 17 12 30t26 13 q25 0 25 -28z" />
<glyph unicode="&#x13d;" horiz-adv-x="506" d="M551 632q0 -27 -22 -69t-55 -78l-5 5q34 54 44 102h-1q-24 0 -24 25q0 17 12 30t26 13q25 0 25 -28zM461 0h-411v10l78 12q17 2 20 17l122 572l3 13l-89 16l2 10h214v-10l-78 -12q-17 -2 -20 -17l-122 -572l-3 -16h117q94 0 141 2l52 151h8q-2 -29 -18 -113 q-6 -32 -16 -63z" />
<glyph unicode="&#x13e;" horiz-adv-x="278" d="M118 105l100 470l20 96l-85 8v5q105 10 116 11l4 -4l-25 -116l-100 -470q-10 -48 -10 -70q0 -15 8 -15q27 0 103 111l6 -4q-23 -51 -57 -94t-63 -43q-27 0 -27 42q0 25 10 73zM398 667q0 -27 -22 -69t-55 -78l-5 5q34 54 44 102h-1q-24 0 -24 25q0 17 12 30t26 13 q25 0 25 -28z" />
<glyph unicode="&#x13f;" horiz-adv-x="506" d="M461 0h-411v10l78 12q17 2 20 17l122 572l3 13l-89 16l2 10h214v-10l-78 -12q-17 -2 -20 -17l-122 -572l-3 -16h117q94 0 141 2l52 151h8q-2 -29 -18 -113q-6 -32 -16 -63zM511 366q-24 0 -24 25q0 17 12 30t27 13q24 0 24 -23q0 -18 -11.5 -31.5t-27.5 -13.5z" />
<glyph unicode="&#x140;" horiz-adv-x="305" d="M118 105l100 470l20 96l-85 8v5q105 10 116 11l4 -4l-25 -116l-100 -470q-10 -48 -10 -70q0 -15 8 -15q27 0 103 111l6 -4q-23 -51 -57 -94t-63 -43q-27 0 -27 42q0 25 10 73zM373 363q0 -17 -10 -31t-26 -14q-23 0 -23 26q0 17 11 30.5t26 13.5q22 0 22 -25z" />
<glyph unicode="&#x141;" horiz-adv-x="506" d="M461 0h-411v10l78 12q17 2 20 17l57 267l-103 -54l-7 20l116 61l59 278l3 13l-89 16l2 10h214v-10l-78 -12q-17 -2 -20 -17l-55 -259l101 54l9 -20l-116 -61l-61 -286l-3 -16h117q94 0 141 2l52 151h8q-2 -29 -18 -113q-6 -32 -16 -63z" />
<glyph unicode="&#x142;" horiz-adv-x="234" d="M118 105l48 225l-104 -55l-7 20l117 62l46 218l20 96l-85 8v5q105 10 116 11l4 -4l-25 -116l-43 -200l103 54l9 -20l-117 -62l-52 -242q-10 -48 -10 -70q0 -15 8 -15q27 0 103 111l6 -4q-23 -51 -57 -94t-63 -43q-27 0 -27 42q0 25 10 73z" />
<glyph unicode="&#x143;" horiz-adv-x="696" d="M602 855q0 -20 -54.5 -57t-109.5 -67l-6 8q108 82 152 131q18 0 18 -15zM258 0h-206v10l77 12q16 2 19 17l125 587l-88 16l2 8h128l223 -610l122 571l3 13l-89 16l2 10h206v-10l-77 -12q-16 -2 -19 -17l-130 -611h-37l-223 612l-122 -573l-3 -13l89 -16z" />
<glyph unicode="&#x144;" horiz-adv-x="477" d="M447 705q0 -20 -54.5 -57t-109.5 -67l-6 8q108 82 152 131q18 0 18 -15zM137 -3q-21 -7 -26 -7t-4 6l23 109l6 28l37 174q27 126 27 153q0 20 -11 20q-31 0 -99 -111l-6 4q21 49 56 93t64 44q27 0 27 -38q0 -52 -56 -278q58 146 121.5 231t117.5 85q51 0 51 -59 q0 -32 -13 -92.5t-33.5 -139t-27.5 -114.5q-10 -48 -10 -70q0 -15 8 -15q27 0 103 111l6 -4q-23 -51 -57 -94t-63 -43q-27 0 -27 42q0 25 10 73q8 39 28 116.5t33 136t13 88.5q0 36 -28 36q-48 0 -119 -106t-128 -271z" />
<glyph unicode="&#x145;" horiz-adv-x="696" d="M258 0h-206v10l77 12q16 2 19 17l125 587l-88 16l2 8h128l223 -610l122 571l3 13l-89 16l2 10h206v-10l-77 -12q-16 -2 -19 -17l-130 -611h-37l-223 612l-122 -573l-3 -13l89 -16zM380 -130q0 -27 -22 -69t-55 -78l-5 5q34 54 44 102h-1q-24 0 -24 25q0 17 12 30t26 13 q25 0 25 -28z" />
<glyph unicode="&#x146;" horiz-adv-x="477" d="M137 -3q-21 -7 -26 -7t-4 6l23 109l6 28l37 174q27 126 27 153q0 20 -11 20q-31 0 -99 -111l-6 4q21 49 56 93t64 44q27 0 27 -38q0 -52 -56 -278q58 146 121.5 231t117.5 85q51 0 51 -59q0 -32 -13 -92.5t-33.5 -139t-27.5 -114.5q-10 -48 -10 -70q0 -15 8 -15 q27 0 103 111l6 -4q-23 -51 -57 -94t-63 -43q-27 0 -27 42q0 25 10 73q8 39 28 116.5t33 136t13 88.5q0 36 -28 36q-48 0 -119 -106t-128 -271zM253 -130q0 -27 -22 -69t-55 -78l-5 5q34 54 44 102h-1q-24 0 -24 25q0 17 12 30t26 13q25 0 25 -28z" />
<glyph unicode="&#x147;" horiz-adv-x="696" d="M513 733l-5 -3h-18q-28 46 -78 134l9 6q45 -62 84 -108q49 45 125 107l6 -7q-83 -79 -123 -129zM258 0h-206v10l77 12q16 2 19 17l125 587l-88 16l2 8h128l223 -610l122 571l3 13l-89 16l2 10h206v-10l-77 -12q-16 -2 -19 -17l-130 -611h-37l-223 612l-122 -573l-3 -13 l89 -16z" />
<glyph unicode="&#x148;" horiz-adv-x="477" d="M359 583l-5 -3h-18q-28 46 -78 134l9 6q45 -62 84 -108q49 45 125 107l6 -7q-83 -79 -123 -129zM137 -3q-21 -7 -26 -7t-4 6l23 109l6 28l37 174q27 126 27 153q0 20 -11 20q-31 0 -99 -111l-6 4q21 49 56 93t64 44q27 0 27 -38q0 -52 -56 -278q58 146 121.5 231 t117.5 85q51 0 51 -59q0 -32 -13 -92.5t-33.5 -139t-27.5 -114.5q-10 -48 -10 -70q0 -15 8 -15q27 0 103 111l6 -4q-23 -51 -57 -94t-63 -43q-27 0 -27 42q0 25 10 73q8 39 28 116.5t33 136t13 88.5q0 36 -28 36q-48 0 -119 -106t-128 -271z" />
<glyph unicode="&#x14a;" horiz-adv-x="696" d="M258 0h-206v10l77 12q16 2 19 17l125 587l-88 16l2 8h128l223 -611l1 3l121 569l3 13l-89 16l2 10h206v-10l-77 -12q-16 -2 -19 -17l-123 -580q-17 -85 -51.5 -132t-109.5 -94l-7 11q54 41 82.5 77t46.5 92l-228 627l-122 -573l-3 -13l89 -16z" />
<glyph unicode="&#x14b;" horiz-adv-x="455" d="M142 -3q-21 -7 -26 -7q-6 0 -4 6l23 109l6 28l37 174q27 126 27 153q0 20 -11 20q-31 0 -99 -111l-6 4q21 49 56 93t64 44q27 0 27 -38q0 -52 -56 -278q58 146 121.5 231t117.5 85q51 0 51 -59q0 -23 -10.5 -83t-22.5 -114t-31.5 -142.5t-25.5 -117.5 q-19 -92 -57.5 -140.5t-92.5 -48.5q-35 0 -58.5 16.5t-23.5 39.5q0 15 12 21q36 -50 77 -50q47 0 70.5 35.5t42.5 125.5q8 37 34.5 157.5t41 195t14.5 100.5q0 36 -28 36q-48 0 -119 -106t-128 -271z" />
<glyph unicode="&#x14c;" d="M330 788l6 24h234l-6 -24h-234zM581 428q0 -108 -36.5 -208t-105 -165t-150.5 -65q-83 0 -128 61.5t-45 168.5q0 108 38 209t107.5 166t151.5 65t125 -62.5t43 -169.5zM149 229q0 -102 38.5 -159t103.5 -57q72 0 132.5 64t92.5 158t32 191q0 96 -36 153.5t-103 57.5 q-72 0 -133 -64t-94 -157.5t-33 -186.5z" />
<glyph unicode="&#x14d;" horiz-adv-x="396" d="M222 638l6 24h234l-6 -24h-234zM408 335q0 -136 -61.5 -240.5t-141.5 -104.5q-51 0 -81 48.5t-30 126.5q0 135 64 240t145 105q51 0 78 -46.5t27 -128.5zM126 169q0 -72 21.5 -113.5t60.5 -41.5q46 0 85.5 48t61 121.5t21.5 152.5q0 150 -78 150q-69 0 -120.5 -100.5 t-51.5 -216.5z" />
<glyph unicode="&#x14e;" d="M534 850l4 2l10 -4q-17 -47 -48.5 -73.5t-70.5 -26.5q-40 0 -61 26.5t-18 74.5l14 3q2 -37 20.5 -58t49.5 -21q65 0 100 77zM581 428q0 -108 -36.5 -208t-105 -165t-150.5 -65q-83 0 -128 61.5t-45 168.5q0 108 38 209t107.5 166t151.5 65t125 -62.5t43 -169.5zM149 229 q0 -102 38.5 -159t103.5 -57q72 0 132.5 64t92.5 158t32 191q0 96 -36 153.5t-103 57.5q-72 0 -133 -64t-94 -157.5t-33 -186.5z" />
<glyph unicode="&#x14f;" horiz-adv-x="396" d="M434 700l4 2l10 -4q-17 -47 -48.5 -73.5t-70.5 -26.5q-40 0 -61 26.5t-18 74.5l14 3q2 -37 20.5 -58t49.5 -21q65 0 100 77zM408 335q0 -136 -61.5 -240.5t-141.5 -104.5q-51 0 -81 48.5t-30 126.5q0 135 64 240t145 105q51 0 78 -46.5t27 -128.5zM126 169 q0 -72 21.5 -113.5t60.5 -41.5q46 0 85.5 48t61 121.5t21.5 152.5q0 150 -78 150q-69 0 -120.5 -100.5t-51.5 -216.5z" />
<glyph unicode="&#x150;" d="M460 856q0 -18 -52.5 -58t-99.5 -67l-6 8q101 81 142 131q16 0 16 -14zM598 856q0 -18 -52.5 -58t-99.5 -67l-6 8q101 81 142 131q16 0 16 -14zM581 428q0 -108 -36.5 -208t-105 -165t-150.5 -65q-83 0 -128 61.5t-45 168.5q0 108 38 209t107.5 166t151.5 65t125 -62.5 t43 -169.5zM149 229q0 -102 38.5 -159t103.5 -57q72 0 132.5 64t92.5 158t32 191q0 96 -36 153.5t-103 57.5q-72 0 -133 -64t-94 -157.5t-33 -186.5z" />
<glyph unicode="&#x151;" horiz-adv-x="396" d="M361 706q0 -18 -52.5 -58t-99.5 -67l-6 8q101 81 142 131q16 0 16 -14zM499 706q0 -18 -52.5 -58t-99.5 -67l-6 8q101 81 142 131q16 0 16 -14zM408 335q0 -136 -61.5 -240.5t-141.5 -104.5q-51 0 -81 48.5t-30 126.5q0 135 64 240t145 105q51 0 78 -46.5t27 -128.5z M126 169q0 -72 21.5 -113.5t60.5 -41.5q46 0 85.5 48t61 121.5t21.5 152.5q0 150 -78 150q-69 0 -120.5 -100.5t-51.5 -216.5z" />
<glyph unicode="&#x152;" horiz-adv-x="784" d="M738 0h-328q-47 -10 -89 -10q-100 0 -153.5 64t-53.5 176q0 107 44 204.5t128 161.5t189 64q48 0 78 -10h313q-6 -77 -39 -175h-7l11 150q-47 2 -140 2h-117l-60 -285l216 4l-6 -30l-215 5l-63 -298h123q97 0 144 2l53 150h7q-2 -32 -9 -70q-12 -65 -26 -105zM147 239 q0 -106 48 -166t129 -60q79 0 93 24l125 588q-32 12 -75 12q-70 0 -131.5 -37t-102 -95t-63.5 -128t-23 -138z" />
<glyph unicode="&#x153;" horiz-adv-x="585" d="M602 139q-25 -60 -67.5 -104.5t-91.5 -44.5q-42 0 -66.5 37.5t-27.5 105.5q-28 -65 -69.5 -104t-86.5 -39q-50 0 -79.5 48.5t-29.5 126.5q0 135 63 240t144 105q46 0 71.5 -43.5t27.5 -119.5q31 73 75.5 118t92.5 45q34 0 52.5 -21.5t18.5 -55.5q0 -94 -74.5 -153.5 t-172.5 -65.5q-5 -37 -5 -65q0 -62 18.5 -98.5t53.5 -36.5q34 0 74 36.5t73 92.5zM552 490q-52 0 -100.5 -78.5t-66.5 -179.5q99 12 155.5 68t56.5 133q0 25 -11 41t-34 16zM116 169q0 -72 21.5 -113.5t60.5 -41.5q46 0 85.5 48t61 121.5t21.5 152.5q0 150 -78 150 q-69 0 -120.5 -100.5t-51.5 -216.5z" />
<glyph unicode="&#x154;" horiz-adv-x="606" d="M577 855q0 -20 -54.5 -57t-109.5 -67l-6 8q108 82 152 131q18 0 18 -15zM264 0h-214v10l78 12q17 2 20 17l122 572l3 13l-89 16l3 10h203q88 0 139.5 -39t51.5 -113q0 -77 -51.5 -131t-125.5 -72h-1l94 -237q8 -19 18 -26.5t30 -11.5l48 -10l-1 -10h-52q-33 0 -49 12 t-27 41l-91 235q-26 -3 -54 -3h-87l-52 -246l-3 -13l89 -16zM385 627h-80l-3 -16l-65 -303h86q103 0 164.5 54.5t61.5 135.5q0 64 -44.5 96.5t-119.5 32.5z" />
<glyph unicode="&#x155;" horiz-adv-x="348" d="M417 705q0 -20 -54.5 -57t-109.5 -67l-6 8q108 82 152 131q18 0 18 -15zM137 -3q-21 -7 -26 -7t-4 6l23 109l6 28l37 174q27 126 27 153q0 20 -11 20q-31 0 -99 -111l-6 4q21 49 56 93t64 44q27 0 27 -38q0 -48 -52 -262q52 140 110 220t111 80q16 0 26.5 -9t10.5 -21 q0 -13 -12 -25q-19 21 -39 21q-46 0 -109.5 -103.5t-116.5 -267.5z" />
<glyph unicode="&#x156;" horiz-adv-x="606" d="M264 0h-214v10l78 12q17 2 20 17l122 572l3 13l-89 16l3 10h203q88 0 139.5 -39t51.5 -113q0 -77 -51.5 -131t-125.5 -72h-1l94 -237q8 -19 18 -26.5t30 -11.5l48 -10l-1 -10h-52q-33 0 -49 12t-27 41l-91 235q-26 -3 -54 -3h-87l-52 -246l-3 -13l89 -16zM385 627h-80 l-3 -16l-65 -303h86q103 0 164.5 54.5t61.5 135.5q0 64 -44.5 96.5t-119.5 32.5zM378 -130q0 -27 -22 -69t-55 -78l-5 5q34 54 44 102h-1q-24 0 -24 25q0 17 12 30t26 13q25 0 25 -28z" />
<glyph unicode="&#x157;" horiz-adv-x="348" d="M137 -3q-21 -7 -26 -7t-4 6l23 109l6 28l37 174q27 126 27 153q0 20 -11 20q-31 0 -99 -111l-6 4q21 49 56 93t64 44q27 0 27 -38q0 -48 -52 -262q52 140 110 220t111 80q16 0 26.5 -9t10.5 -21q0 -13 -12 -25q-19 21 -39 21q-46 0 -109.5 -103.5t-116.5 -267.5z M126 -130q0 -27 -22 -69t-55 -78l-5 5q34 54 44 102h-1q-24 0 -24 25q0 17 12 30t26 13q25 0 25 -28z" />
<glyph unicode="&#x158;" horiz-adv-x="606" d="M488 733l-5 -3h-18q-28 46 -78 134l9 6q45 -62 84 -108q49 45 125 107l6 -7q-83 -79 -123 -129zM264 0h-214v10l78 12q17 2 20 17l122 572l3 13l-89 16l3 10h203q88 0 139.5 -39t51.5 -113q0 -77 -51.5 -131t-125.5 -72h-1l94 -237q8 -19 18 -26.5t30 -11.5l48 -10 l-1 -10h-52q-33 0 -49 12t-27 41l-91 235q-26 -3 -54 -3h-87l-52 -246l-3 -13l89 -16zM385 627h-80l-3 -16l-65 -303h86q103 0 164.5 54.5t61.5 135.5q0 64 -44.5 96.5t-119.5 32.5z" />
<glyph unicode="&#x159;" horiz-adv-x="348" d="M329 583l-5 -3h-18q-28 46 -78 134l9 6q45 -62 84 -108q49 45 125 107l6 -7q-83 -79 -123 -129zM137 -3q-21 -7 -26 -7t-4 6l23 109l6 28l37 174q27 126 27 153q0 20 -11 20q-31 0 -99 -111l-6 4q21 49 56 93t64 44q27 0 27 -38q0 -48 -52 -262q52 140 110 220t111 80 q16 0 26.5 -9t10.5 -21q0 -13 -12 -25q-19 21 -39 21q-46 0 -109.5 -103.5t-116.5 -267.5z" />
<glyph unicode="&#x15a;" horiz-adv-x="463" d="M523 855q0 -20 -54.5 -57t-109.5 -67l-6 8q108 82 152 131q18 0 18 -15zM184 492q0 75 58.5 121.5t145.5 46.5q94 0 126 -34q8 -10 8 -19q0 -18 -12 -65.5t-21 -68.5h-8l10 141q-37 24 -108 24q-72 0 -119 -39t-47 -100q0 -40 23 -73.5t55.5 -59.5t64.5 -52.5t55 -65 t23 -85.5q0 -77 -56 -125t-148 -48q-47 0 -86 12t-54 30q-10 12 -10 22q0 46 32 136h8l-10 -143q37 -35 121 -35q76 0 123 40t47 108q0 43 -23 79t-55.5 61.5t-64.5 51.5t-55 61.5t-23 78.5z" />
<glyph unicode="&#x15b;" horiz-adv-x="336" d="M383 705q0 -20 -54.5 -57t-109.5 -67l-6 8q108 82 152 131q18 0 18 -15zM322 119q0 -56 -39.5 -92.5t-102.5 -36.5q-49 0 -80.5 27t-31.5 66q0 53 47 92l6 -3q-23 -44 -23 -78q0 -38 24.5 -60t63.5 -22q45 0 75 27.5t30 76.5q0 30 -16 58.5t-39 51t-46 45.5t-39 53.5 t-16 63.5q0 52 37 87t90 35q45 0 74.5 -24.5t29.5 -66.5q0 -44 -37 -90l-7 3q14 44 14 73q0 39 -21 61t-56 22q-40 0 -66.5 -27t-26.5 -70q0 -37 24.5 -73t53.5 -61t53.5 -62t24.5 -76z" />
<glyph unicode="&#x15c;" horiz-adv-x="463" d="M539 736l-9 -6q-45 62 -84 108q-49 -45 -125 -107l-6 7q83 79 123 129l5 3h18q28 -46 78 -134zM184 492q0 75 58.5 121.5t145.5 46.5q94 0 126 -34q8 -10 8 -19q0 -18 -12 -65.5t-21 -68.5h-8l10 141q-37 24 -108 24q-72 0 -119 -39t-47 -100q0 -40 23 -73.5t55.5 -59.5 t64.5 -52.5t55 -65t23 -85.5q0 -77 -56 -125t-148 -48q-47 0 -86 12t-54 30q-10 12 -10 22q0 46 32 136h8l-10 -143q37 -35 121 -35q76 0 123 40t47 108q0 43 -23 79t-55.5 61.5t-64.5 51.5t-55 61.5t-23 78.5z" />
<glyph unicode="&#x15d;" horiz-adv-x="336" d="M400 586l-9 -6q-45 62 -84 108q-49 -45 -125 -107l-6 7q83 79 123 129l5 3h18q28 -46 78 -134zM322 119q0 -56 -39.5 -92.5t-102.5 -36.5q-49 0 -80.5 27t-31.5 66q0 53 47 92l6 -3q-23 -44 -23 -78q0 -38 24.5 -60t63.5 -22q45 0 75 27.5t30 76.5q0 30 -16 58.5t-39 51 t-46 45.5t-39 53.5t-16 63.5q0 52 37 87t90 35q45 0 74.5 -24.5t29.5 -66.5q0 -44 -37 -90l-7 3q14 44 14 73q0 39 -21 61t-56 22q-40 0 -66.5 -27t-26.5 -70q0 -37 24.5 -73t53.5 -61t53.5 -62t24.5 -76z" />
<glyph unicode="&#x15e;" horiz-adv-x="463" d="M198 -71l-2 5l19 57q-90 5 -121 41q-10 12 -10 22q0 46 32 136h8l-10 -143q37 -35 121 -35q76 0 123 40t47 108q0 43 -23 79t-55.5 61.5t-64.5 51.5t-55 61.5t-23 78.5q0 75 58.5 121.5t145.5 46.5q94 0 126 -34q8 -10 8 -19q0 -18 -12 -65.5t-21 -68.5h-8l10 141 q-37 24 -108 24q-72 0 -119 -39t-47 -100q0 -40 23 -73.5t55.5 -59.5t64.5 -52.5t55 -65t23 -85.5q0 -77 -55 -125t-144 -48l-14 -42q61 -8 61 -48q0 -31 -40 -51.5t-86 -22.5l-2 15q96 13 96 55q0 30 -56 33z" />
<glyph unicode="&#x15f;" horiz-adv-x="336" d="M150 -71l-2 5l19 57q-44 4 -71.5 30t-27.5 62q0 53 47 92l6 -3q-23 -44 -23 -78q0 -38 24.5 -60t63.5 -22q45 0 75 27.5t30 76.5q0 30 -16 58.5t-39 51t-46 45.5t-39 53.5t-16 63.5q0 52 37 87t90 35q45 0 74.5 -24.5t29.5 -66.5q0 -44 -37 -90l-7 3q14 44 14 73 q0 39 -21 61t-56 22q-40 0 -66.5 -27t-26.5 -70q0 -37 24.5 -73t53.5 -61t53.5 -62t24.5 -76q0 -54 -36 -89.5t-95 -39.5l-14 -42q61 -8 61 -48q0 -31 -40 -51.5t-86 -22.5l-2 15q96 13 96 55q0 30 -56 33z" />
<glyph unicode="&#x160;" horiz-adv-x="463" d="M434 733l-5 -3h-18q-28 46 -78 134l9 6q45 -62 84 -108q49 45 125 107l6 -7q-83 -79 -123 -129zM184 492q0 75 58.5 121.5t145.5 46.5q94 0 126 -34q8 -10 8 -19q0 -18 -12 -65.5t-21 -68.5h-8l10 141q-37 24 -108 24q-72 0 -119 -39t-47 -100q0 -40 23 -73.5t55.5 -59.5 t64.5 -52.5t55 -65t23 -85.5q0 -77 -56 -125t-148 -48q-47 0 -86 12t-54 30q-10 12 -10 22q0 46 32 136h8l-10 -143q37 -35 121 -35q76 0 123 40t47 108q0 43 -23 79t-55.5 61.5t-64.5 51.5t-55 61.5t-23 78.5z" />
<glyph unicode="&#x161;" horiz-adv-x="336" d="M295 583l-5 -3h-18q-28 46 -78 134l9 6q45 -62 84 -108q49 45 125 107l6 -7q-83 -79 -123 -129zM322 119q0 -56 -39.5 -92.5t-102.5 -36.5q-49 0 -80.5 27t-31.5 66q0 53 47 92l6 -3q-23 -44 -23 -78q0 -38 24.5 -60t63.5 -22q45 0 75 27.5t30 76.5q0 30 -16 58.5t-39 51 t-46 45.5t-39 53.5t-16 63.5q0 52 37 87t90 35q45 0 74.5 -24.5t29.5 -66.5q0 -44 -37 -90l-7 3q14 44 14 73q0 39 -21 61t-56 22q-40 0 -66.5 -27t-26.5 -70q0 -37 24.5 -73t53.5 -61t53.5 -62t24.5 -76z" />
<glyph unicode="&#x162;" horiz-adv-x="513" d="M223 -71l-2 5l22 66h-93v10l78 12q17 2 20 17l125 588h-93q-67 0 -100 -1l-54 -153h-7q6 45 8 57q8 50 28 120h478q-7 -87 -40 -177h-7l12 153q-33 1 -100 1h-93l-125 -588l-3 -13l89 -16l-2 -10h-97l-17 -52q61 -8 61 -48q0 -31 -40 -51.5t-86 -22.5l-2 15q96 13 96 55 q0 30 -56 33z" />
<glyph unicode="&#x163;" horiz-adv-x="290" d="M128 -71l-2 5l19 58q-35 7 -35 53q0 19 11 74l71 331h-86l1 7l90 15l54 147l6 -1l-31 -146h146l-4 -22h-147l-70 -331q-11 -57 -11 -71q0 -28 26 -28q38 0 133 111l6 -4q-27 -50 -63 -90.5t-73 -45.5l-14 -43q61 -8 61 -48q0 -31 -40 -51.5t-86 -22.5l-2 15q96 13 96 55 q0 30 -56 33z" />
<glyph unicode="&#x164;" horiz-adv-x="513" d="M425 733l-5 -3h-18q-28 46 -78 134l9 6q45 -62 84 -108q49 45 125 107l6 -7q-83 -79 -123 -129zM364 0h-214v10l78 12q17 2 20 17l125 588h-93q-67 0 -100 -1l-54 -153h-7q6 45 8 57q8 50 28 120h478q-7 -87 -40 -177h-7l12 153q-33 1 -100 1h-93l-125 -588l-3 -13 l89 -16z" />
<glyph unicode="&#x165;" horiz-adv-x="290" d="M403 647q0 -27 -22 -69t-55 -78l-5 5q34 54 44 102h-1q-24 0 -24 25q0 17 12 30t26 13q25 0 25 -28zM305 127q-29 -54 -68 -95.5t-78 -41.5q-21 0 -35 13t-14 42q0 19 11 74l71 331h-86l1 7l90 15l54 147l6 -1l-31 -146h146l-4 -22h-147l-70 -331q-11 -57 -11 -71 q0 -28 26 -28q38 0 133 111z" />
<glyph unicode="&#x166;" horiz-adv-x="513" d="M364 0h-214v10l78 12q17 2 20 17l52 244h-164l4 23h165l68 321h-93q-67 0 -100 -1l-54 -153h-7q6 45 8 57q8 50 28 120h478q-7 -87 -40 -177h-7l12 153q-33 1 -100 1h-93l-68 -321h163l-4 -23h-164l-52 -244l-3 -13l89 -16z" />
<glyph unicode="&#x167;" horiz-adv-x="290" d="M305 127q-29 -54 -68 -95.5t-78 -41.5q-21 0 -35 13t-14 42q0 19 11 74l42 197h-85l4 22h86l24 112h-86l1 7l90 15l54 147l6 -1l-31 -146h146l-4 -22h-147l-23 -112h146l-3 -22h-148l-42 -197q-11 -57 -11 -71q0 -28 26 -28q38 0 133 111z" />
<glyph unicode="&#x168;" horiz-adv-x="656" d="M566 787q23 19 60 59l8 -5q-42 -78 -73 -78q-21 0 -79.5 24.5t-70.5 24.5q-23 -19 -60 -59l-8 5q42 78 73 78q22 0 80 -24.5t70 -24.5zM577 221q-24 -113 -89.5 -172t-153.5 -59q-76 0 -122 44t-46 128q0 30 8 68l81 381l3 13l-89 16l2 10h214v-10l-78 -12 q-17 -2 -20 -17l-82 -385q-8 -35 -8 -60q0 -72 39.5 -111t104.5 -39q73 0 131 54t79 153l83 390l2 11l-89 16l2 10h209v-10l-95 -16l-3 -11z" />
<glyph unicode="&#x169;" horiz-adv-x="484" d="M452 637q23 19 60 59l8 -5q-42 -78 -73 -78q-21 0 -79.5 24.5t-70.5 24.5q-23 -19 -60 -59l-8 5q42 78 73 78q22 0 80 -24.5t70 -24.5zM453 503q21 7 26 7t4 -6l-23 -109l-6 -28l-37 -174q-27 -126 -27 -153q0 -20 11 -20q31 0 99 111l6 -4q-21 -49 -56 -93t-64 -44 q-27 0 -27 38q0 52 56 278q-58 -146 -121.5 -231t-117.5 -85q-51 0 -51 59q0 32 13 92.5t33.5 139t27.5 114.5q10 48 10 70q0 15 -8 15q-27 0 -103 -111l-6 4q23 51 57 94t63 43q27 0 27 -42q0 -25 -10 -73q-8 -39 -28 -116.5t-33 -136t-13 -88.5q0 -36 28 -36q48 0 119 106 t128 271z" />
<glyph unicode="&#x16a;" horiz-adv-x="656" d="M377 788l6 24h234l-6 -24h-234zM577 221q-24 -113 -89.5 -172t-153.5 -59q-76 0 -122 44t-46 128q0 30 8 68l81 381l3 13l-89 16l2 10h214v-10l-78 -12q-17 -2 -20 -17l-82 -385q-8 -35 -8 -60q0 -72 39.5 -111t104.5 -39q73 0 131 54t79 153l83 390l2 11l-89 16l2 10 h209v-10l-95 -16l-3 -11z" />
<glyph unicode="&#x16b;" horiz-adv-x="484" d="M259 638l6 24h234l-6 -24h-234zM453 503q21 7 26 7t4 -6l-23 -109l-6 -28l-37 -174q-27 -126 -27 -153q0 -20 11 -20q31 0 99 111l6 -4q-21 -49 -56 -93t-64 -44q-27 0 -27 38q0 52 56 278q-58 -146 -121.5 -231t-117.5 -85q-51 0 -51 59q0 32 13 92.5t33.5 139 t27.5 114.5q10 48 10 70q0 15 -8 15q-27 0 -103 -111l-6 4q23 51 57 94t63 43q27 0 27 -42q0 -25 -10 -73q-8 -39 -28 -116.5t-33 -136t-13 -88.5q0 -36 28 -36q48 0 119 106t128 271z" />
<glyph unicode="&#x16c;" horiz-adv-x="656" d="M581 850l4 2l10 -4q-17 -47 -48.5 -73.5t-70.5 -26.5q-40 0 -61 26.5t-18 74.5l14 3q2 -37 20.5 -58t49.5 -21q65 0 100 77zM577 221q-24 -113 -89.5 -172t-153.5 -59q-76 0 -122 44t-46 128q0 30 8 68l81 381l3 13l-89 16l2 10h214v-10l-78 -12q-17 -2 -20 -17l-82 -385 q-8 -35 -8 -60q0 -72 39.5 -111t104.5 -39q73 0 131 54t79 153l83 390l2 11l-89 16l2 10h209v-10l-95 -16l-3 -11z" />
<glyph unicode="&#x16d;" horiz-adv-x="484" d="M471 700l4 2l10 -4q-17 -47 -48.5 -73.5t-70.5 -26.5q-40 0 -61 26.5t-18 74.5l14 3q2 -37 20.5 -58t49.5 -21q65 0 100 77zM453 503q21 7 26 7t4 -6l-23 -109l-6 -28l-37 -174q-27 -126 -27 -153q0 -20 11 -20q31 0 99 111l6 -4q-21 -49 -56 -93t-64 -44q-27 0 -27 38 q0 52 56 278q-58 -146 -121.5 -231t-117.5 -85q-51 0 -51 59q0 32 13 92.5t33.5 139t27.5 114.5q10 48 10 70q0 15 -8 15q-27 0 -103 -111l-6 4q23 51 57 94t63 43q27 0 27 -42q0 -25 -10 -73q-8 -39 -28 -116.5t-33 -136t-13 -88.5q0 -36 28 -36q48 0 119 106t128 271z" />
<glyph unicode="&#x16e;" horiz-adv-x="656" d="M567 810q0 -32 -25 -54.5t-58 -22.5q-28 0 -43 14t-15 39q0 31 25 54t59 23q27 0 42 -14.5t15 -38.5zM455 786q1 -33 34 -33q21 0 35 16.5t14 40.5q-2 33 -33 33q-21 0 -35.5 -16.5t-14.5 -40.5zM577 221q-24 -113 -89.5 -172t-153.5 -59q-76 0 -122 44t-46 128 q0 30 8 68l81 381l3 13l-89 16l2 10h214v-10l-78 -12q-17 -2 -20 -17l-82 -385q-8 -35 -8 -60q0 -72 39.5 -111t104.5 -39q73 0 131 54t79 153l83 390l2 11l-89 16l2 10h209v-10l-95 -16l-3 -11z" />
<glyph unicode="&#x16f;" horiz-adv-x="484" d="M449 663q0 -32 -25 -54.5t-58 -22.5q-28 0 -43 14t-15 39q0 31 25 54t59 23q27 0 42 -14.5t15 -38.5zM337 639q1 -33 34 -33q21 0 35 16.5t14 40.5q-2 33 -33 33q-21 0 -35.5 -16.5t-14.5 -40.5zM453 503q21 7 26 7t4 -6l-23 -109l-6 -28l-37 -174q-27 -126 -27 -153 q0 -20 11 -20q31 0 99 111l6 -4q-21 -49 -56 -93t-64 -44q-27 0 -27 38q0 52 56 278q-58 -146 -121.5 -231t-117.5 -85q-51 0 -51 59q0 32 13 92.5t33.5 139t27.5 114.5q10 48 10 70q0 15 -8 15q-27 0 -103 -111l-6 4q23 51 57 94t63 43q27 0 27 -42q0 -25 -10 -73 q-8 -39 -28 -116.5t-33 -136t-13 -88.5q0 -36 28 -36q48 0 119 106t128 271z" />
<glyph unicode="&#x170;" horiz-adv-x="656" d="M507 856q0 -18 -52.5 -58t-99.5 -67l-6 8q101 81 142 131q16 0 16 -14zM645 856q0 -18 -52.5 -58t-99.5 -67l-6 8q101 81 142 131q16 0 16 -14zM577 221q-24 -113 -89.5 -172t-153.5 -59q-76 0 -122 44t-46 128q0 30 8 68l81 381l3 13l-89 16l2 10h214v-10l-78 -12 q-17 -2 -20 -17l-82 -385q-8 -35 -8 -60q0 -72 39.5 -111t104.5 -39q73 0 131 54t79 153l83 390l2 11l-89 16l2 10h209v-10l-95 -16l-3 -11z" />
<glyph unicode="&#x171;" horiz-adv-x="484" d="M398 706q0 -18 -52.5 -58t-99.5 -67l-6 8q101 81 142 131q16 0 16 -14zM536 706q0 -18 -52.5 -58t-99.5 -67l-6 8q101 81 142 131q16 0 16 -14zM453 503q21 7 26 7t4 -6l-23 -109l-6 -28l-37 -174q-27 -126 -27 -153q0 -20 11 -20q31 0 99 111l6 -4q-21 -49 -56 -93 t-64 -44q-27 0 -27 38q0 52 56 278q-58 -146 -121.5 -231t-117.5 -85q-51 0 -51 59q0 32 13 92.5t33.5 139t27.5 114.5q10 48 10 70q0 15 -8 15q-27 0 -103 -111l-6 4q23 51 57 94t63 43q27 0 27 -42q0 -25 -10 -73q-8 -39 -28 -116.5t-33 -136t-13 -88.5q0 -36 28 -36 q48 0 119 106t128 271z" />
<glyph unicode="&#x172;" horiz-adv-x="656" d="M413 -77q-49 -97 -99 -97q-19 0 -29.5 12.5t-10.5 34.5q0 55 105 121q-19 -4 -45 -4q-76 0 -122 44t-46 128q0 30 8 68l81 381l3 13l-89 16l2 10h214v-10l-78 -12q-17 -2 -20 -17l-82 -385q-8 -35 -8 -60q0 -72 39.5 -111t104.5 -39q73 0 131 54t79 153l83 390l2 11 l-89 16l2 10h209v-10l-95 -16l-3 -11l-83 -392q-32 -152 -138 -206q-135 -80 -135 -135q0 -24 20 -24q29 0 83 71z" />
<glyph unicode="&#x173;" horiz-adv-x="484" d="M455 -77q-49 -97 -99 -97q-18 0 -29 11.5t-11 31.5q0 15 10 34t19.5 30.5t29.5 32.5t24 26q-8 -2 -13 -2q-27 0 -27 38q0 52 56 278q-58 -146 -121.5 -231t-117.5 -85q-51 0 -51 59q0 32 13 92.5t33.5 139t27.5 114.5q10 48 10 70q0 15 -8 15q-27 0 -103 -111l-6 4 q23 51 57 94t63 43q27 0 27 -42q0 -25 -10 -73q-8 -39 -28 -116.5t-33 -136t-13 -88.5q0 -36 28 -36q48 0 119 106t128 271l23 108q21 7 26 7t4 -6l-23 -109l-6 -28l-37 -174q-27 -126 -27 -153q0 -20 11 -20q31 0 99 111l6 -4q-18 -43 -48 -84q-20 -28 -52.5 -66t-46 -59 t-13.5 -39q0 -23 20 -23q28 0 83 71z" />
<glyph unicode="&#x174;" horiz-adv-x="974" d="M762 736l-9 -6q-45 62 -84 108q-49 -45 -125 -107l-6 7q83 79 123 129l5 3h18q28 -46 78 -134zM991 586l-330 -590h-13l-57 463l-260 -463h-13l-83 590q-3 23 -9 32t-23 12l-53 10l2 10h198v-10l-88 -15l78 -564l245 441l-10 84q-3 23 -9.5 32t-22.5 12l-53 10l2 10h198 v-10l-88 -15l70 -563l312 562l-88 16l2 10h198v-10q-36 -6 -54 -10q-20 -4 -29.5 -13t-21.5 -31z" />
<glyph unicode="&#x175;" d="M520 586l-9 -6q-45 62 -84 108q-49 -45 -125 -107l-6 7q83 79 123 129l5 3h18q28 -46 78 -134zM388 510q15 0 19.5 -13.5t4.5 -45.5q0 -143 -22 -402q82 111 140 231t58 203q0 11 -2 23q6 4 14 4q20 0 20 -33q0 -79 -68 -210t-180 -267h-9q21 286 23 423 q-52 -205 -231 -423h-9q24 277 24 400q0 80 -28 80q-29 0 -93 -111l-6 4q20 55 49.5 96t60.5 41q27 0 37 -27t10 -78q0 -118 -26 -354q202 271 202 452v4q4 3 12 3z" />
<glyph unicode="&#x176;" horiz-adv-x="584" d="M565 736l-9 -6q-45 62 -84 108q-49 -45 -125 -107l-6 7q83 79 123 129l5 3h18q28 -46 78 -134zM403 0h-214v10l78 12q17 2 20 17l22 104q15 89 11 197t-28 199t-55 91q-38 0 -104 -111l-8 4q20 50 54.5 93.5t66.5 43.5q50 0 80.5 -131.5t21.5 -292.5q67 170 145.5 297 t125.5 127q16 0 27.5 -11t18.5 -32t10.5 -39t7.5 -45l-9 -4q-9 29 -13 41.5t-11 29.5t-14.5 23.5t-17.5 6.5q-29 0 -90.5 -89.5t-116.5 -206t-70 -189.5l-22 -106l-3 -13l89 -16z" />
<glyph unicode="&#x177;" horiz-adv-x="359" d="M419 586l-9 -6q-45 62 -84 108q-49 -45 -125 -107l-6 7q83 79 123 129l5 3h18q28 -46 78 -134zM223 355q0 -163 -56 -336q98 91 157.5 217.5t59.5 238.5q0 15 -2 31q6 4 14 4q20 0 20 -33q0 -110 -69 -250t-191 -240q-67 -182 -164 -182q-32 0 -52 11.5t-20 28.5 q0 19 17 30q9 -20 25.5 -33t35.5 -13q56 0 102 89t68.5 207.5t22.5 226.5q0 128 -35 128q-27 0 -86 -111l-6 4q18 55 45.5 96t55.5 41q58 0 58 -155z" />
<glyph unicode="&#x178;" horiz-adv-x="584" d="M407 812q0 -18 -12.5 -33t-28.5 -15q-22 0 -22 24q0 19 12.5 33.5t28.5 14.5q22 0 22 -24zM585 812q0 -18 -12.5 -33t-28.5 -15q-22 0 -22 24q0 19 12.5 33.5t28.5 14.5q22 0 22 -24zM403 0h-214v10l78 12q17 2 20 17l22 104q15 89 11 197t-28 199t-55 91 q-38 0 -104 -111l-8 4q20 50 54.5 93.5t66.5 43.5q50 0 80.5 -131.5t21.5 -292.5q67 170 145.5 297t125.5 127q16 0 27.5 -11t18.5 -32t10.5 -39t7.5 -45l-9 -4q-9 29 -13 41.5t-11 29.5t-14.5 23.5t-17.5 6.5q-29 0 -90.5 -89.5t-116.5 -206t-70 -189.5l-22 -106l-3 -13 l89 -16z" />
<glyph unicode="&#x179;" horiz-adv-x="527" d="M502 855q0 -20 -54.5 -57t-109.5 -67l-6 8q108 82 152 131q18 0 18 -15zM487 77q-7 -37 -20 -77h-406l-1 17l497 611h-327l-57 -163h-8q4 55 17 111q11 47 20 74h397l1 -17l-498 -611h337l57 163h8q-2 -35 -17 -108z" />
<glyph unicode="&#x17a;" horiz-adv-x="373" d="M409 705q0 -20 -54.5 -57t-109.5 -67l-6 8q108 82 152 131q18 0 18 -15zM147 24q-45 0 -91 -34l-12 12q115 149 301 417q-102 54 -152 54q-22 0 -38.5 -24.5t-43.5 -85.5l-9 4q29 91 44 112q19 25 46 26q58 0 165 -70q24 36 51 75q22 -2 22 -18q0 -8 -8 -19 q-163 -229 -324 -441q32 18 63 18q20 0 69 -14t62 -14q16 0 35 25t53 85l8 -5q-26 -68 -46.5 -102.5t-45.5 -34.5q-18 0 -70.5 17t-78.5 17z" />
<glyph unicode="&#x17b;" horiz-adv-x="527" d="M450 810q0 -17 -11.5 -31t-28.5 -14q-26 0 -26 26q0 17 12.5 30.5t28.5 13.5q25 0 25 -25zM487 77q-7 -37 -20 -77h-406l-1 17l497 611h-327l-57 -163h-8q4 55 17 111q11 47 20 74h397l1 -17l-498 -611h337l57 163h8q-2 -35 -17 -108z" />
<glyph unicode="&#x17c;" horiz-adv-x="373" d="M357 660q0 -17 -11.5 -31t-28.5 -14q-26 0 -26 26q0 17 12.5 30.5t28.5 13.5q25 0 25 -25zM147 24q-45 0 -91 -34l-12 12q115 149 301 417q-102 54 -152 54q-22 0 -38.5 -24.5t-43.5 -85.5l-9 4q29 91 44 112q19 25 46 26q58 0 165 -70q24 36 51 75q22 -2 22 -18 q0 -8 -8 -19q-163 -229 -324 -441q32 18 63 18q20 0 69 -14t62 -14q16 0 35 25t53 85l8 -5q-26 -68 -46.5 -102.5t-45.5 -34.5q-18 0 -70.5 17t-78.5 17z" />
<glyph unicode="&#x17d;" horiz-adv-x="527" d="M413 733l-5 -3h-18q-28 46 -78 134l9 6q45 -62 84 -108q49 45 125 107l6 -7q-83 -79 -123 -129zM487 77q-7 -37 -20 -77h-406l-1 17l497 611h-327l-57 -163h-8q4 55 17 111q11 47 20 74h397l1 -17l-498 -611h337l57 163h8q-2 -35 -17 -108z" />
<glyph unicode="&#x17e;" horiz-adv-x="373" d="M321 583l-5 -3h-18q-28 46 -78 134l9 6q45 -62 84 -108q49 45 125 107l6 -7q-83 -79 -123 -129zM147 24q-45 0 -91 -34l-12 12q115 149 301 417q-102 54 -152 54q-22 0 -38.5 -24.5t-43.5 -85.5l-9 4q29 91 44 112q19 25 46 26q58 0 165 -70q24 36 51 75q22 -2 22 -18 q0 -8 -8 -19q-163 -229 -324 -441q32 18 63 18q20 0 69 -14t62 -14q16 0 35 25t53 85l8 -5q-26 -68 -46.5 -102.5t-45.5 -34.5q-18 0 -70.5 17t-78.5 17z" />
<glyph unicode="&#x18f;" horiz-adv-x="548" d="M109 188q0 52 14 114l13 11h389q12 57 12 113q0 209 -147 209q-82 0 -143 -57.5t-61 -130.5q0 -8 2 -14q-5 -4 -15 -4q-19 0 -19 19q0 77 72 144.5t169 67.5q87 0 131 -61.5t44 -170.5q0 -103 -35.5 -202.5t-104 -167.5t-152.5 -68q-86 0 -127.5 53.5t-41.5 144.5z M138 191q0 -79 36 -128.5t106 -49.5q84 0 148 80t92 197l-371 -4q-11 -52 -11 -95z" />
<glyph unicode="&#x192;" horiz-adv-x="434" d="M213 91q-50 -207 -150 -207q-33 0 -53.5 18t-20.5 41q0 12 7.5 19t17.5 7q5 -61 56 -61q39 0 63 42t47 138l54 226h-121l7 23h120l39 165q22 93 64.5 140.5t97.5 47.5q42 0 69 -26.5t27 -60.5q0 -28 -26 -30q-10 93 -79 93q-83 0 -121 -161l-40 -168h176l-7 -23h-174z " />
<glyph unicode="&#x19d;" horiz-adv-x="696" d="M173 31q-18 -85 -52 -132t-109 -94l-7 11q64 49 95 94.5t49 131.5l124 584l-88 16l2 8h128l223 -610l122 571l3 13l-89 16l2 10h206v-10l-77 -12q-16 -2 -19 -17l-130 -611h-37l-223 611z" />
<glyph unicode="&#x1cd;" horiz-adv-x="685" d="M508 733l-5 -3h-18q-28 46 -78 134l9 6q45 -62 84 -108q49 45 125 107l6 -7q-83 -79 -123 -129zM476 654h13l87 -590q4 -25 10.5 -32.5t27.5 -12.5l45 -9l-2 -10h-204v10l96 15l-29 204l-259 -2l1 5l-116 -206l90 -16l-2 -10h-204v10l53 10q22 4 32.5 12.5t23.5 31.5z M275 254l242 -3l-50 342z" />
<glyph unicode="&#x1ce;" horiz-adv-x="428" d="M347 583l-5 -3h-18q-28 46 -78 134l9 6q45 -62 84 -108q49 45 125 107l6 -7q-83 -79 -123 -129zM78 94q0 91 35.5 186.5t100.5 162.5t138 67q45 0 76 -20l-23 -93l-63 -292q-10 -48 -10 -70q0 -15 8 -15q27 0 103 111l6 -4q-23 -51 -57 -94t-63 -43q-27 0 -27 42 q0 25 10 73l45 197q-52 -140 -113 -226t-106 -86q-60 0 -60 104zM378 407l14 66q-27 13 -61 13q-55 0 -108 -61.5t-84 -151.5t-31 -174q0 -81 37 -81q42 0 112 111.5t121 277.5z" />
<glyph unicode="&#x1cf;" horiz-adv-x="312" d="M322 733l-5 -3h-18q-28 46 -78 134l9 6q45 -62 84 -108q49 45 125 107l6 -7q-83 -79 -123 -129zM264 0h-214v10l78 12q17 2 20 17l122 572l3 13l-89 16l2 10h214v-10l-78 -12q-17 -2 -20 -17l-122 -572l-3 -13l89 -16z" />
<glyph unicode="&#x1d0;" horiz-adv-x="246" d="M248 583l-5 -3h-18q-17 35 -58 134l9 6q34 -60 64 -106q33 35 105 105l6 -7q-69 -78 -103 -129zM130 105q9 43 35 146t34 144q10 48 10 70q0 15 -8 15q-27 0 -103 -111l-6 4q23 51 57 94t63 43q27 0 27 -42q0 -25 -10 -73q-9 -45 -35 -149.5t-34 -140.5q-10 -48 -10 -70 q0 -15 8 -15q27 0 103 111l6 -4q-23 -51 -57 -94t-63 -43q-27 0 -27 42q0 25 10 73z" />
<glyph unicode="&#x1d1;" d="M446 733l-5 -3h-18q-28 46 -78 134l9 6q45 -62 84 -108q49 45 125 107l6 -7q-83 -79 -123 -129zM581 428q0 -108 -36.5 -208t-105 -165t-150.5 -65q-83 0 -128 61.5t-45 168.5q0 108 38 209t107.5 166t151.5 65t125 -62.5t43 -169.5zM149 229q0 -102 38.5 -159t103.5 -57 q72 0 132.5 64t92.5 158t32 191q0 96 -36 153.5t-103 57.5q-72 0 -133 -64t-94 -157.5t-33 -186.5z" />
<glyph unicode="&#x1d2;" horiz-adv-x="396" d="M337 583l-5 -3h-18q-28 46 -78 134l9 6q45 -62 84 -108q49 45 125 107l6 -7q-83 -79 -123 -129zM408 335q0 -136 -61.5 -240.5t-141.5 -104.5q-51 0 -81 48.5t-30 126.5q0 135 64 240t145 105q51 0 78 -46.5t27 -128.5zM126 169q0 -72 21.5 -113.5t60.5 -41.5 q46 0 85.5 48t61 121.5t21.5 152.5q0 150 -78 150q-69 0 -120.5 -100.5t-51.5 -216.5z" />
<glyph unicode="&#x1d3;" horiz-adv-x="656" d="M493 733l-5 -3h-18q-28 46 -78 134l9 6q45 -62 84 -108q49 45 125 107l6 -7q-83 -79 -123 -129zM577 221q-24 -113 -89.5 -172t-153.5 -59q-76 0 -122 44t-46 128q0 30 8 68l81 381l3 13l-89 16l2 10h214v-10l-78 -12q-17 -2 -20 -17l-82 -385q-8 -35 -8 -60 q0 -72 39.5 -111t104.5 -39q73 0 131 54t79 153l83 390l2 11l-89 16l2 10h209v-10l-95 -16l-3 -11z" />
<glyph unicode="&#x1d4;" horiz-adv-x="484" d="M374 583l-5 -3h-18q-28 46 -78 134l9 6q45 -62 84 -108q49 45 125 107l6 -7q-83 -79 -123 -129zM453 503q21 7 26 7t4 -6l-23 -109l-6 -28l-37 -174q-27 -126 -27 -153q0 -20 11 -20q31 0 99 111l6 -4q-21 -49 -56 -93t-64 -44q-27 0 -27 38q0 52 56 278 q-58 -146 -121.5 -231t-117.5 -85q-51 0 -51 59q0 32 13 92.5t33.5 139t27.5 114.5q10 48 10 70q0 15 -8 15q-27 0 -103 -111l-6 4q23 51 57 94t63 43q27 0 27 -42q0 -25 -10 -73q-8 -39 -28 -116.5t-33 -136t-13 -88.5q0 -36 28 -36q48 0 119 106t128 271z" />
<glyph unicode="&#x1d5;" horiz-adv-x="656" d="M420 989l6 24h234l-6 -24h-234zM440 812q0 -18 -12.5 -33t-28.5 -15q-22 0 -22 24q0 19 12.5 33.5t28.5 14.5q22 0 22 -24zM618 812q0 -18 -12.5 -33t-28.5 -15q-22 0 -22 24q0 19 12.5 33.5t28.5 14.5q22 0 22 -24zM577 221q-24 -113 -89.5 -172t-153.5 -59 q-76 0 -122 44t-46 128q0 30 8 68l81 381l3 13l-89 16l2 10h214v-10l-78 -12q-17 -2 -20 -17l-82 -385q-8 -35 -8 -60q0 -72 39.5 -111t104.5 -39q73 0 131 54t79 153l83 390l2 11l-89 16l2 10h209v-10l-95 -16l-3 -11z" />
<glyph unicode="&#x1d6;" horiz-adv-x="484" d="M299 823l6 24h234l-6 -24h-234zM320 662q0 -18 -12.5 -33t-28.5 -15q-22 0 -22 24q0 19 12.5 33.5t28.5 14.5q22 0 22 -24zM498 662q0 -18 -12.5 -33t-28.5 -15q-22 0 -22 24q0 19 12.5 33.5t28.5 14.5q22 0 22 -24zM453 503q21 7 26 7t4 -6l-23 -109l-6 -28l-37 -174 q-27 -126 -27 -153q0 -20 11 -20q31 0 99 111l6 -4q-21 -49 -56 -93t-64 -44q-27 0 -27 38q0 52 56 278q-58 -146 -121.5 -231t-117.5 -85q-51 0 -51 59q0 32 13 92.5t33.5 139t27.5 114.5q10 48 10 70q0 15 -8 15q-27 0 -103 -111l-6 4q23 51 57 94t63 43q27 0 27 -42 q0 -25 -10 -73q-8 -39 -28 -116.5t-33 -136t-13 -88.5q0 -36 28 -36q48 0 119 106t128 271z" />
<glyph unicode="&#x1d7;" horiz-adv-x="656" d="M650 1056q0 -20 -54.5 -57t-109.5 -67l-6 8q108 82 152 131q18 0 18 -15zM440 812q0 -18 -12.5 -33t-28.5 -15q-22 0 -22 24q0 19 12.5 33.5t28.5 14.5q22 0 22 -24zM618 812q0 -18 -12.5 -33t-28.5 -15q-22 0 -22 24q0 19 12.5 33.5t28.5 14.5q22 0 22 -24zM577 221 q-24 -113 -89.5 -172t-153.5 -59q-76 0 -122 44t-46 128q0 30 8 68l81 381l3 13l-89 16l2 10h214v-10l-78 -12q-17 -2 -20 -17l-82 -385q-8 -35 -8 -60q0 -72 39.5 -111t104.5 -39q73 0 131 54t79 153l83 390l2 11l-89 16l2 10h209v-10l-95 -16l-3 -11z" />
<glyph unicode="&#x1d8;" horiz-adv-x="484" d="M502 890q0 -20 -54.5 -57t-109.5 -67l-6 8q108 82 152 131q18 0 18 -15zM320 662q0 -18 -12.5 -33t-28.5 -15q-22 0 -22 24q0 19 12.5 33.5t28.5 14.5q22 0 22 -24zM498 662q0 -18 -12.5 -33t-28.5 -15q-22 0 -22 24q0 19 12.5 33.5t28.5 14.5q22 0 22 -24zM453 503 q21 7 26 7t4 -6l-23 -109l-6 -28l-37 -174q-27 -126 -27 -153q0 -20 11 -20q31 0 99 111l6 -4q-21 -49 -56 -93t-64 -44q-27 0 -27 38q0 52 56 278q-58 -146 -121.5 -231t-117.5 -85q-51 0 -51 59q0 32 13 92.5t33.5 139t27.5 114.5q10 48 10 70q0 15 -8 15q-27 0 -103 -111 l-6 4q23 51 57 94t63 43q27 0 27 -42q0 -25 -10 -73q-8 -39 -28 -116.5t-33 -136t-13 -88.5q0 -36 28 -36q48 0 119 106t128 271z" />
<glyph unicode="&#x1d9;" horiz-adv-x="656" d="M534 934l-5 -3h-18q-28 46 -78 134l9 6q45 -62 84 -108q49 45 125 107l6 -7q-83 -79 -123 -129zM440 812q0 -18 -12.5 -33t-28.5 -15q-22 0 -22 24q0 19 12.5 33.5t28.5 14.5q22 0 22 -24zM618 812q0 -18 -12.5 -33t-28.5 -15q-22 0 -22 24q0 19 12.5 33.5t28.5 14.5 q22 0 22 -24zM577 221q-24 -113 -89.5 -172t-153.5 -59q-76 0 -122 44t-46 128q0 30 8 68l81 381l3 13l-89 16l2 10h214v-10l-78 -12q-17 -2 -20 -17l-82 -385q-8 -35 -8 -60q0 -72 39.5 -111t104.5 -39q73 0 131 54t79 153l83 390l2 11l-89 16l2 10h209v-10l-95 -16l-3 -11 z" />
<glyph unicode="&#x1da;" horiz-adv-x="484" d="M414 768l-5 -3h-18q-28 46 -78 134l9 6q45 -62 84 -108q49 45 125 107l6 -7q-83 -79 -123 -129zM320 662q0 -18 -12.5 -33t-28.5 -15q-22 0 -22 24q0 19 12.5 33.5t28.5 14.5q22 0 22 -24zM498 662q0 -18 -12.5 -33t-28.5 -15q-22 0 -22 24q0 19 12.5 33.5t28.5 14.5 q22 0 22 -24zM453 503q21 7 26 7t4 -6l-23 -109l-6 -28l-37 -174q-27 -126 -27 -153q0 -20 11 -20q31 0 99 111l6 -4q-21 -49 -56 -93t-64 -44q-27 0 -27 38q0 52 56 278q-58 -146 -121.5 -231t-117.5 -85q-51 0 -51 59q0 32 13 92.5t33.5 139t27.5 114.5q10 48 10 70 q0 15 -8 15q-27 0 -103 -111l-6 4q23 51 57 94t63 43q27 0 27 -42q0 -25 -10 -73q-8 -39 -28 -116.5t-33 -136t-13 -88.5q0 -36 28 -36q48 0 119 106t128 271z" />
<glyph unicode="&#x1db;" horiz-adv-x="656" d="M593 936l-8 -8q-115 96 -115 128q0 18 17 18h3q30 -56 103 -138zM440 812q0 -18 -12.5 -33t-28.5 -15q-22 0 -22 24q0 19 12.5 33.5t28.5 14.5q22 0 22 -24zM618 812q0 -18 -12.5 -33t-28.5 -15q-22 0 -22 24q0 19 12.5 33.5t28.5 14.5q22 0 22 -24zM577 221 q-24 -113 -89.5 -172t-153.5 -59q-76 0 -122 44t-46 128q0 30 8 68l81 381l3 13l-89 16l2 10h214v-10l-78 -12q-17 -2 -20 -17l-82 -385q-8 -35 -8 -60q0 -72 39.5 -111t104.5 -39q73 0 131 54t79 153l83 390l2 11l-89 16l2 10h209v-10l-95 -16l-3 -11z" />
<glyph unicode="&#x1dc;" horiz-adv-x="484" d="M479 770l-8 -8q-115 96 -115 128q0 18 17 18h3q30 -56 103 -138zM320 662q0 -18 -12.5 -33t-28.5 -15q-22 0 -22 24q0 19 12.5 33.5t28.5 14.5q22 0 22 -24zM498 662q0 -18 -12.5 -33t-28.5 -15q-22 0 -22 24q0 19 12.5 33.5t28.5 14.5q22 0 22 -24zM453 503q21 7 26 7 t4 -6l-23 -109l-6 -28l-37 -174q-27 -126 -27 -153q0 -20 11 -20q31 0 99 111l6 -4q-21 -49 -56 -93t-64 -44q-27 0 -27 38q0 52 56 278q-58 -146 -121.5 -231t-117.5 -85q-51 0 -51 59q0 32 13 92.5t33.5 139t27.5 114.5q10 48 10 70q0 15 -8 15q-27 0 -103 -111l-6 4 q23 51 57 94t63 43q27 0 27 -42q0 -25 -10 -73q-8 -39 -28 -116.5t-33 -136t-13 -88.5q0 -36 28 -36q48 0 119 106t128 271z" />
<glyph unicode="&#x1e6;" horiz-adv-x="622" d="M517 733l-5 -3h-18q-28 46 -78 134l9 6q45 -62 84 -108q49 45 125 107l6 -7q-83 -79 -123 -129zM515 22q-54 -32 -140 -32q-114 0 -184.5 68t-70.5 195q0 110 46 202.5t132 148.5t194 56q84 0 136 -32q-7 -76 -39 -172h-8l12 160q-46 20 -106 20q-95 0 -173 -53.5 t-119.5 -139.5t-41.5 -183q0 -120 62.5 -183t162.5 -63q64 0 108 21l47 223l2 12l-91 17l3 8h200l-1 -8l-62 -12q-16 -4 -19 -17z" />
<glyph unicode="&#x1e7;" horiz-adv-x="331" d="M307 583l-5 -3h-18q-28 46 -78 134l9 6q45 -62 84 -108q49 45 125 107l6 -7q-83 -79 -123 -129zM319 -70q0 -44 -55.5 -84.5t-128.5 -40.5q-69 0 -107 26.5t-38 69.5q0 60 86 113l5 -5q-59 -52 -59 -99q0 -38 31 -59.5t87 -21.5q58 0 102.5 28t44.5 67q0 24 -23.5 45 t-51.5 33.5t-51.5 30.5t-23.5 35q0 16 19.5 35t64.5 53l12 9q-16 -4 -30 -4q-43 0 -69.5 32t-26.5 91q0 91 51.5 158.5t126.5 67.5q119 0 174 8q3 -6 3 -13q0 -22 -28 -22q-29 0 -112 11q40 -30 40 -102q0 -57 -20 -106t-48 -81t-56.5 -57t-48.5 -44t-20 -31q0 -11 23.5 -27 t51.5 -30.5t51.5 -38t23.5 -47.5zM137 290q0 -51 18.5 -79.5t52.5 -28.5q48 0 86 60.5t38 147.5q0 43 -15.5 69.5t-46.5 26.5q-52 0 -92.5 -60t-40.5 -136z" />
<glyph unicode="&#x1ea;" d="M381 -77q-49 -97 -99 -97q-19 0 -29.5 12.5t-10.5 34.5q0 57 101 125q-29 -8 -54 -8q-83 0 -128 61.5t-45 168.5q0 108 38 209t107.5 166t151.5 65t125 -62.5t43 -169.5q0 -124 -48.5 -236.5t-128.5 -165.5q-132 -91 -132 -146q0 -24 20 -24q29 0 83 71zM149 229 q0 -102 38.5 -159t103.5 -57q72 0 132.5 64t92.5 158t32 191q0 96 -36 153.5t-103 57.5q-72 0 -133 -64t-94 -157.5t-33 -186.5z" />
<glyph unicode="&#x1eb;" horiz-adv-x="396" d="M285 -77q-49 -97 -99 -97q-19 0 -29.5 12.5t-10.5 34.5q0 26 24.5 53.5t69.5 64.5q2 2 3.5 3t3.5 3t4 3q-25 -10 -46 -10q-51 0 -81 48.5t-30 126.5q0 135 64 240t145 105q51 0 78 -46.5t27 -128.5q0 -85 -26 -162t-69 -126q-20 -25 -57.5 -61.5t-58.5 -61.5t-21 -44 q0 -24 20 -24q29 0 83 71zM126 169q0 -72 21.5 -113.5t60.5 -41.5q46 0 85.5 48t61 121.5t21.5 152.5q0 150 -78 150q-69 0 -120.5 -100.5t-51.5 -216.5z" />
<glyph unicode="&#x1f4;" horiz-adv-x="622" d="M606 855q0 -20 -54.5 -57t-109.5 -67l-6 8q108 82 152 131q18 0 18 -15zM515 22q-54 -32 -140 -32q-114 0 -184.5 68t-70.5 195q0 110 46 202.5t132 148.5t194 56q84 0 136 -32q-7 -76 -39 -172h-8l12 160q-46 20 -106 20q-95 0 -173 -53.5t-119.5 -139.5t-41.5 -183 q0 -120 62.5 -183t162.5 -63q64 0 108 21l47 223l2 12l-91 17l3 8h200l-1 -8l-62 -12q-16 -4 -19 -17z" />
<glyph unicode="&#x1f5;" horiz-adv-x="331" d="M395 705q0 -20 -54.5 -57t-109.5 -67l-6 8q108 82 152 131q18 0 18 -15zM319 -70q0 -44 -55.5 -84.5t-128.5 -40.5q-69 0 -107 26.5t-38 69.5q0 60 86 113l5 -5q-59 -52 -59 -99q0 -38 31 -59.5t87 -21.5q58 0 102.5 28t44.5 67q0 24 -23.5 45t-51.5 33.5t-51.5 30.5 t-23.5 35q0 16 19.5 35t64.5 53l12 9q-16 -4 -30 -4q-43 0 -69.5 32t-26.5 91q0 91 51.5 158.5t126.5 67.5q119 0 174 8q3 -6 3 -13q0 -22 -28 -22q-29 0 -112 11q40 -30 40 -102q0 -57 -20 -106t-48 -81t-56.5 -57t-48.5 -44t-20 -31q0 -11 23.5 -27t51.5 -30.5t51.5 -38 t23.5 -47.5zM137 290q0 -51 18.5 -79.5t52.5 -28.5q48 0 86 60.5t38 147.5q0 43 -15.5 69.5t-46.5 26.5q-52 0 -92.5 -60t-40.5 -136z" />
<glyph unicode="&#x1fa;" horiz-adv-x="685" d="M640 1056q0 -20 -54.5 -57t-109.5 -67l-6 8q108 82 152 131q18 0 18 -15zM582 810q0 -32 -25 -54.5t-58 -22.5q-28 0 -43 14t-15 39q0 31 25 54t59 23q27 0 42 -14.5t15 -38.5zM470 786q2 -33 34 -33q21 0 35 16.5t14 40.5q-2 33 -33 33q-21 0 -35.5 -16.5t-14.5 -40.5z M476 654h13l87 -590q4 -25 10.5 -32.5t27.5 -12.5l45 -9l-2 -10h-204v10l96 15l-29 204l-259 -2l1 5l-116 -206l90 -16l-2 -10h-204v10l53 10q22 4 32.5 12.5t23.5 31.5zM275 254l242 -3l-50 342z" />
<glyph unicode="&#x1fb;" horiz-adv-x="428" d="M473 890q0 -20 -54.5 -57t-109.5 -67l-6 8q108 82 152 131q18 0 18 -15zM422 663q0 -32 -25 -54.5t-58 -22.5q-28 0 -43 14t-15 39q0 31 25 54t59 23q27 0 42 -14.5t15 -38.5zM310 639q2 -33 34 -33q21 0 35 16.5t14 40.5q-2 33 -33 33q-21 0 -35.5 -16.5t-14.5 -40.5z M78 94q0 91 35.5 186.5t100.5 162.5t138 67q45 0 76 -20l-23 -93l-63 -292q-10 -48 -10 -70q0 -15 8 -15q27 0 103 111l6 -4q-23 -51 -57 -94t-63 -43q-27 0 -27 42q0 25 10 73l45 197q-52 -140 -113 -226t-106 -86q-60 0 -60 104zM378 407l14 66q-27 13 -61 13 q-55 0 -108 -61.5t-84 -151.5t-31 -174q0 -81 37 -81q42 0 112 111.5t121 277.5z" />
<glyph unicode="&#x1fc;" horiz-adv-x="834" d="M770 855q0 -20 -54.5 -57t-109.5 -67l-6 8q108 82 152 131q18 0 18 -15zM234 0h-204v10l53 10q22 4 32.5 12.5t23.5 31.5l321 561l-81 15l2 10h535q-6 -77 -39 -175h-7l11 150q-47 2 -140 2h-117l-62 -293l216 4l-6 -30l-215 5l-58 -274l-3 -16h123q97 0 144 2l53 150h7 q-2 -32 -9 -70q-12 -65 -26 -105h-419v10l78 12q17 2 20 17l58 273l-218 -2l-161 -284l90 -16zM487 627l-165 -290l208 -3l62 293h-105z" />
<glyph unicode="&#x1fd;" horiz-adv-x="572" d="M521 705q0 -20 -54.5 -57t-109.5 -67l-6 8q108 82 152 131q18 0 18 -15zM590 139q-25 -60 -67.5 -104.5t-91.5 -44.5q-46 0 -72 41.5t-26 115.5q0 78 27 161h-1q-53 -143 -114 -230.5t-107 -87.5q-60 0 -60 104q0 91 35.5 186.5t100.5 162.5t138 67q45 0 76 -20l-21 -83 q63 103 139 103q34 0 52.5 -21.5t18.5 -55.5q0 -94 -74.5 -153.5t-172.5 -65.5q-5 -37 -5 -65q0 -62 18.5 -98.5t53.5 -36.5q34 0 74 36.5t73 92.5zM540 490q-52 0 -100.5 -78.5t-66.5 -179.5q99 12 155.5 68t56.5 133q0 25 -11 41t-34 16zM108 99q0 -81 37 -81 q42 0 111.5 111t120.5 274l15 70q-27 13 -61 13q-55 0 -108 -61.5t-84 -151.5t-31 -174z" />
<glyph unicode="&#x1fe;" d="M535 855q0 -20 -54.5 -57t-109.5 -67l-6 8q108 82 152 131q18 0 18 -15zM581 428q0 -108 -36.5 -208t-105 -165t-150.5 -65q-91 0 -137 74l-60 -74l-18 16l66 81q-24 54 -24 133q0 108 38 209t107.5 166t151.5 65q88 0 132 -74l60 74l19 -15l-67 -82q24 -55 24 -135z M149 229q0 -61 16 -111l358 441q-37 78 -114 78q-72 0 -133 -64t-94 -157.5t-33 -186.5zM548 426q0 62 -15 107l-358 -441q37 -79 116 -79q72 0 132.5 64t92.5 158t32 191z" />
<glyph unicode="&#x1ff;" horiz-adv-x="396" d="M415 705q0 -20 -54.5 -57t-109.5 -67l-6 8q108 82 152 131q18 0 18 -15zM408 335q0 -136 -61.5 -240.5t-141.5 -104.5q-71 0 -99 88l-62 -66l-16 18l71 76q-5 30 -5 59q0 135 64 240t145 105q70 0 94 -86l60 64l17 -17l-70 -75q4 -25 4 -61zM126 169q0 -23 1 -33l244 261 q-15 89 -73 89q-69 0 -120.5 -100.5t-51.5 -216.5zM376 336q0 20 -1 29l-244 -260q18 -91 77 -91q46 0 85.5 48t61 121.5t21.5 152.5z" />
<glyph unicode="&#x218;" horiz-adv-x="463" d="M184 492q0 75 58.5 121.5t145.5 46.5q94 0 126 -34q8 -10 8 -19q0 -18 -12 -65.5t-21 -68.5h-8l10 141q-37 24 -108 24q-72 0 -119 -39t-47 -100q0 -40 23 -73.5t55.5 -59.5t64.5 -52.5t55 -65t23 -85.5q0 -77 -56 -125t-148 -48q-47 0 -86 12t-54 30q-10 12 -10 22 q0 46 32 136h8l-10 -143q37 -35 121 -35q76 0 123 40t47 108q0 43 -23 79t-55.5 61.5t-64.5 51.5t-55 61.5t-23 78.5zM271 -130q0 -27 -22 -69t-55 -78l-5 5q34 54 44 102h-1q-24 0 -24 25q0 17 12 30t26 13q25 0 25 -28z" />
<glyph unicode="&#x219;" horiz-adv-x="336" d="M322 119q0 -56 -39.5 -92.5t-102.5 -36.5q-49 0 -80.5 27t-31.5 66q0 53 47 92l6 -3q-23 -44 -23 -78q0 -38 24.5 -60t63.5 -22q45 0 75 27.5t30 76.5q0 30 -16 58.5t-39 51t-46 45.5t-39 53.5t-16 63.5q0 52 37 87t90 35q45 0 74.5 -24.5t29.5 -66.5q0 -44 -37 -90l-7 3 q14 44 14 73q0 39 -21 61t-56 22q-40 0 -66.5 -27t-26.5 -70q0 -37 24.5 -73t53.5 -61t53.5 -62t24.5 -76zM182 -130q0 -27 -22 -69t-55 -78l-5 5q34 54 44 102h-1q-24 0 -24 25q0 17 12 30t26 13q25 0 25 -28z" />
<glyph unicode="&#x21a;" horiz-adv-x="513" d="M364 0h-214v10l78 12q17 2 20 17l125 588h-93q-67 0 -100 -1l-54 -153h-7q6 45 8 57q8 50 28 120h478q-7 -87 -40 -177h-7l12 153q-33 1 -100 1h-93l-125 -588l-3 -13l89 -16zM255 -130q0 -27 -22 -69t-55 -78l-5 5q34 54 44 102h-1q-24 0 -24 25q0 17 12 30t26 13 q25 0 25 -28z" />
<glyph unicode="&#x21b;" horiz-adv-x="290" d="M305 127q-29 -54 -68 -95.5t-78 -41.5q-21 0 -35 13t-14 42q0 19 11 74l71 331h-86l1 7l90 15l54 147l6 -1l-31 -146h146l-4 -22h-147l-70 -331q-11 -57 -11 -71q0 -28 26 -28q38 0 133 111zM160 -130q0 -27 -22 -69t-55 -78l-5 5q34 54 44 102h-1q-24 0 -24 25 q0 17 12 30t26 13q25 0 25 -28z" />
<glyph unicode="&#x232;" horiz-adv-x="584" d="M344 788l6 24h234l-6 -24h-234zM403 0h-214v10l78 12q17 2 20 17l22 104q15 89 11 197t-28 199t-55 91q-38 0 -104 -111l-8 4q20 50 54.5 93.5t66.5 43.5q50 0 80.5 -131.5t21.5 -292.5q67 170 145.5 297t125.5 127q16 0 27.5 -11t18.5 -32t10.5 -39t7.5 -45l-9 -4 q-9 29 -13 41.5t-11 29.5t-14.5 23.5t-17.5 6.5q-29 0 -90.5 -89.5t-116.5 -206t-70 -189.5l-22 -106l-3 -13l89 -16z" />
<glyph unicode="&#x233;" horiz-adv-x="359" d="M199 638l6 24h234l-6 -24h-234zM223 355q0 -163 -56 -336q98 91 157.5 217.5t59.5 238.5q0 15 -2 31q6 4 14 4q20 0 20 -33q0 -110 -69 -250t-191 -240q-67 -182 -164 -182q-32 0 -52 11.5t-20 28.5q0 19 17 30q9 -20 25.5 -33t35.5 -13q56 0 102 89t68.5 207.5 t22.5 226.5q0 128 -35 128q-27 0 -86 -111l-6 4q18 55 45.5 96t55.5 41q58 0 58 -155z" />
<glyph unicode="&#x237;" horiz-adv-x="222" d="M149 -6q-19 -92 -57.5 -140.5t-92.5 -48.5q-35 0 -58.5 16.5t-23.5 39.5q0 15 12 21q36 -50 77 -50q47 0 70.5 35.5t42.5 125.5l85 402q10 48 10 70q0 15 -8 15q-27 0 -103 -111l-6 4q23 51 57 94t63 43q27 0 27 -42q0 -25 -10 -73z" />
<glyph unicode="&#x259;" horiz-adv-x="352" d="M369 353q0 -84 -29.5 -168t-79.5 -139.5t-104 -55.5q-34 0 -52.5 21.5t-18.5 55.5q0 94 74.5 153.5t172.5 65.5q5 37 5 65q0 139 -70 139q-45 0 -75.5 -47.5t-30.5 -96.5q-7 -4 -14 -4q-14 0 -14 20q0 50 42 99t96 49q98 0 98 -157zM117 67q0 -25 11 -41t34 -16 q52 0 100.5 78.5t66.5 179.5q-99 -12 -155.5 -68t-56.5 -133z" />
<glyph unicode="&#x272;" horiz-adv-x="494" d="M149 -6q-19 -92 -57.5 -140.5t-92.5 -48.5q-35 0 -58.5 16.5t-23.5 39.5q0 15 12 21q36 -50 77 -50q47 0 70.5 35.5t42.5 125.5l30 140l37 174q27 126 27 153q0 20 -11 20q-31 0 -99 -111l-6 4q21 49 56 93t64 44q27 0 27 -38q0 -52 -56 -278q58 146 121.5 231t117.5 85 q51 0 51 -59q0 -32 -13 -92.5t-33.5 -139t-27.5 -114.5q-10 -48 -10 -70q0 -15 8 -15q27 0 103 111l6 -4q-23 -51 -57 -94t-63 -43q-27 0 -27 42q0 25 10 73q8 39 28 116.5t33 136t13 88.5q0 36 -28 36q-48 0 -119 -106t-128 -271z" />
<glyph unicode="&#x2c6;" horiz-adv-x="424" d="M324 586l-9 -6q-45 62 -84 108q-49 -45 -125 -107l-6 7q83 79 123 129l5 3h18q28 -46 78 -134z" />
<glyph unicode="&#x2c7;" horiz-adv-x="398" d="M201 583l-5 -3h-18q-28 46 -78 134l9 6q45 -62 84 -108q49 45 125 107l6 -7q-83 -79 -123 -129z" />
<glyph unicode="&#x2d8;" horiz-adv-x="391" d="M281 700l4 2l10 -4q-17 -47 -48.5 -73.5t-70.5 -26.5q-40 0 -61 26.5t-18 74.5l14 3q2 -37 20.5 -58t49.5 -21q65 0 100 77z" />
<glyph unicode="&#x2d9;" horiz-adv-x="266" d="M166 660q0 -17 -11.5 -31t-28.5 -14q-26 0 -26 26q0 17 12.5 30.5t28.5 13.5q25 0 25 -25z" />
<glyph unicode="&#x2da;" horiz-adv-x="341" d="M241 663q0 -32 -25 -54.5t-58 -22.5q-28 0 -43 14t-15 39q0 31 25 54t59 23q27 0 42 -14.5t15 -38.5zM129 639q1 -33 34 -33q21 0 35 16.5t14 40.5q-2 33 -33 33q-21 0 -35.5 -16.5t-14.5 -40.5z" />
<glyph unicode="&#x2db;" horiz-adv-x="349" d="M249 -77q-49 -97 -99 -97q-40 0 -40 44q0 40 28.5 78.5t67.5 57.5l12 -6q-30 -18 -54 -55t-24 -66q0 -23 19 -23q27 0 84 71z" />
<glyph unicode="&#x2dc;" horiz-adv-x="491" d="M323 637q23 19 60 59l8 -5q-42 -78 -73 -78q-21 0 -79.5 24.5t-70.5 24.5q-23 -19 -60 -59l-8 5q42 78 73 78q22 0 80 -24.5t70 -24.5z" />
<glyph unicode="&#x2dd;" horiz-adv-x="496" d="M258 706q0 -18 -52.5 -58t-99.5 -67l-6 8q101 81 142 131q16 0 16 -14zM396 706q0 -18 -52.5 -58t-99.5 -67l-6 8q101 81 142 131q16 0 16 -14z" />
<glyph unicode="&#x326;" horiz-adv-x="282" d="M182 -130q0 -27 -22 -69t-55 -78l-5 5q34 54 44 102h-1q-24 0 -24 25q0 17 12 30t26 13q25 0 25 -28z" />
<glyph unicode="&#x1e0c;" horiz-adv-x="634" d="M269 0h-219v10l78 12q17 2 20 17l122 572l3 13l-89 16l3 10h201q129 0 197.5 -64.5t68.5 -178.5q0 -78 -24.5 -149.5t-71 -129.5t-121.5 -93t-168 -35zM379 628h-74l-3 -17l-122 -572l-3 -17h94q110 0 191.5 55t120 140.5t38.5 186.5q0 108 -60.5 166t-181.5 58z M334 -127q0 -17 -11.5 -31t-28.5 -14q-26 0 -26 26q0 17 12.5 30.5t28.5 13.5q25 0 25 -25z" />
<glyph unicode="&#x1e0d;" horiz-adv-x="428" d="M312 105l39 182q-52 -134 -110.5 -215.5t-102.5 -81.5q-60 0 -60 104q0 91 35.5 186.5t100.5 162.5t138 67q26 0 45 -6l15 71l20 96l-85 8v5q105 10 116 11l4 -4l-25 -116l-100 -470q-10 -48 -10 -70q0 -15 8 -15q27 0 103 111l6 -4q-23 -51 -57 -94t-63 -43 q-27 0 -27 42q0 25 10 73zM145 18q42 0 111.5 112t120.5 278l14 65q-26 13 -60 13q-55 0 -108 -61.5t-84 -151.5t-31 -174q0 -81 37 -81zM201 -127q0 -17 -11.5 -31t-28.5 -14q-26 0 -26 26q0 17 12.5 30.5t28.5 13.5q25 0 25 -25z" />
<glyph unicode="&#x1e24;" horiz-adv-x="693" d="M264 0h-214v10l78 12q17 2 20 17l122 572l3 13l-89 16l2 10h214v-10l-78 -12q-17 -2 -20 -17l-57 -268h349l57 268l3 13l-89 16l2 10h214v-10l-78 -12q-17 -2 -20 -17l-122 -572l-3 -13l89 -16l-2 -10h-214v10l78 12q17 2 20 17l60 281h-349l-60 -281l-3 -13l89 -16z M351 -127q0 -17 -11.5 -31t-28.5 -14q-26 0 -26 26q0 17 12.5 30.5t28.5 13.5q25 0 25 -25z" />
<glyph unicode="&#x1e25;" horiz-adv-x="466" d="M124 -3q-21 -7 -26 -7q-6 0 -4 6l23 109h1l100 470l20 96l-85 8v5q105 10 116 11l4 -4l-25 -116q-75 -346 -81 -370q58 140 121 222.5t115 82.5q51 0 51 -59q0 -32 -13 -92.5t-33.5 -139t-27.5 -114.5q-10 -48 -10 -70q0 -15 8 -15q27 0 103 111l6 -4q-23 -51 -57 -94 t-63 -43q-27 0 -27 42q0 25 10 73q8 39 28 116.5t33 136t13 88.5q0 36 -28 36q-48 0 -119.5 -106t-128.5 -271h-1zM247 -127q0 -17 -11.5 -31t-28.5 -14q-26 0 -26 26q0 17 12.5 30.5t28.5 13.5q25 0 25 -25z" />
<glyph unicode="&#x1e44;" horiz-adv-x="696" d="M550 810q0 -17 -11.5 -31t-28.5 -14q-26 0 -26 26q0 17 12.5 30.5t28.5 13.5q25 0 25 -25zM258 0h-206v10l77 12q16 2 19 17l125 587l-88 16l2 8h128l223 -610l122 571l3 13l-89 16l2 10h206v-10l-77 -12q-16 -2 -19 -17l-130 -611h-37l-223 612l-122 -573l-3 -13l89 -16 z" />
<glyph unicode="&#x1e45;" horiz-adv-x="477" d="M395 660q0 -17 -11.5 -31t-28.5 -14q-26 0 -26 26q0 17 12.5 30.5t28.5 13.5q25 0 25 -25zM137 -3q-21 -7 -26 -7t-4 6l23 109l6 28l37 174q27 126 27 153q0 20 -11 20q-31 0 -99 -111l-6 4q21 49 56 93t64 44q27 0 27 -38q0 -52 -56 -278q58 146 121.5 231t117.5 85 q51 0 51 -59q0 -32 -13 -92.5t-33.5 -139t-27.5 -114.5q-10 -48 -10 -70q0 -15 8 -15q27 0 103 111l6 -4q-23 -51 -57 -94t-63 -43q-27 0 -27 42q0 25 10 73q8 39 28 116.5t33 136t13 88.5q0 36 -28 36q-48 0 -119 -106t-128 -271z" />
<glyph unicode="&#x1e5a;" horiz-adv-x="606" d="M264 0h-214v10l78 12q17 2 20 17l122 572l3 13l-89 16l3 10h203q88 0 139.5 -39t51.5 -113q0 -77 -51.5 -131t-125.5 -72h-1l94 -237q8 -19 18 -26.5t30 -11.5l48 -10l-1 -10h-52q-33 0 -49 12t-27 41l-91 235q-26 -3 -54 -3h-87l-52 -246l-3 -13l89 -16zM385 627h-80 l-3 -16l-65 -303h86q103 0 164.5 54.5t61.5 135.5q0 64 -44.5 96.5t-119.5 32.5zM381 -127q0 -17 -11.5 -31t-28.5 -14q-26 0 -26 26q0 17 12.5 30.5t28.5 13.5q25 0 25 -25z" />
<glyph unicode="&#x1e5b;" horiz-adv-x="348" d="M137 -3q-21 -7 -26 -7t-4 6l23 109l6 28l37 174q27 126 27 153q0 20 -11 20q-31 0 -99 -111l-6 4q21 49 56 93t64 44q27 0 27 -38q0 -48 -52 -262q52 140 110 220t111 80q16 0 26.5 -9t10.5 -21q0 -13 -12 -25q-19 21 -39 21q-46 0 -109.5 -103.5t-116.5 -267.5z M129 -127q0 -17 -11.5 -31t-28.5 -14q-26 0 -26 26q0 17 12.5 30.5t28.5 13.5q25 0 25 -25z" />
<glyph unicode="&#x1e62;" horiz-adv-x="463" d="M184 492q0 75 58.5 121.5t145.5 46.5q94 0 126 -34q8 -10 8 -19q0 -18 -12 -65.5t-21 -68.5h-8l10 141q-37 24 -108 24q-72 0 -119 -39t-47 -100q0 -40 23 -73.5t55.5 -59.5t64.5 -52.5t55 -65t23 -85.5q0 -77 -56 -125t-148 -48q-47 0 -86 12t-54 30q-10 12 -10 22 q0 46 32 136h8l-10 -143q37 -35 121 -35q76 0 123 40t47 108q0 43 -23 79t-55.5 61.5t-64.5 51.5t-55 61.5t-23 78.5zM274 -127q0 -17 -11.5 -31t-28.5 -14q-26 0 -26 26q0 17 12.5 30.5t28.5 13.5q25 0 25 -25z" />
<glyph unicode="&#x1e63;" horiz-adv-x="336" d="M322 119q0 -56 -39.5 -92.5t-102.5 -36.5q-49 0 -80.5 27t-31.5 66q0 53 47 92l6 -3q-23 -44 -23 -78q0 -38 24.5 -60t63.5 -22q45 0 75 27.5t30 76.5q0 30 -16 58.5t-39 51t-46 45.5t-39 53.5t-16 63.5q0 52 37 87t90 35q45 0 74.5 -24.5t29.5 -66.5q0 -44 -37 -90l-7 3 q14 44 14 73q0 39 -21 61t-56 22q-40 0 -66.5 -27t-26.5 -70q0 -37 24.5 -73t53.5 -61t53.5 -62t24.5 -76zM185 -127q0 -17 -11.5 -31t-28.5 -14q-26 0 -26 26q0 17 12.5 30.5t28.5 13.5q25 0 25 -25z" />
<glyph unicode="&#x1e6c;" horiz-adv-x="513" d="M364 0h-214v10l78 12q17 2 20 17l125 588h-93q-67 0 -100 -1l-54 -153h-7q6 45 8 57q8 50 28 120h478q-7 -87 -40 -177h-7l12 153q-33 1 -100 1h-93l-125 -588l-3 -13l89 -16zM258 -127q0 -17 -11.5 -31t-28.5 -14q-26 0 -26 26q0 17 12.5 30.5t28.5 13.5q25 0 25 -25z " />
<glyph unicode="&#x1e6d;" horiz-adv-x="290" d="M305 127q-29 -54 -68 -95.5t-78 -41.5q-21 0 -35 13t-14 42q0 19 11 74l71 331h-86l1 7l90 15l54 147l6 -1l-31 -146h146l-4 -22h-147l-70 -331q-11 -57 -11 -71q0 -28 26 -28q38 0 133 111zM163 -127q0 -17 -11.5 -31t-28.5 -14q-26 0 -26 26q0 17 12.5 30.5t28.5 13.5 q25 0 25 -25z" />
<glyph unicode="&#x1e80;" horiz-adv-x="974" d="M723 735l-8 -8q-115 96 -115 128q0 18 17 18h3q30 -56 103 -138zM991 586l-330 -590h-13l-57 463l-260 -463h-13l-83 590q-3 23 -9 32t-23 12l-53 10l2 10h198v-10l-88 -15l78 -564l245 441l-10 84q-3 23 -9.5 32t-22.5 12l-53 10l2 10h198v-10l-88 -15l70 -563l312 562 l-88 16l2 10h198v-10q-36 -6 -54 -10q-20 -4 -29.5 -13t-21.5 -31z" />
<glyph unicode="&#x1e81;" d="M480 585l-8 -8q-115 96 -115 128q0 18 17 18h3q30 -56 103 -138zM388 510q15 0 19.5 -13.5t4.5 -45.5q0 -143 -22 -402q82 111 140 231t58 203q0 11 -2 23q6 4 14 4q20 0 20 -33q0 -79 -68 -210t-180 -267h-9q21 286 23 423q-52 -205 -231 -423h-9q24 277 24 400 q0 80 -28 80q-29 0 -93 -111l-6 4q20 55 49.5 96t60.5 41q27 0 37 -27t10 -78q0 -118 -26 -354q202 271 202 452v4q4 3 12 3z" />
<glyph unicode="&#x1e82;" horiz-adv-x="974" d="M746 855q0 -20 -54.5 -57t-109.5 -67l-6 8q108 82 152 131q18 0 18 -15zM991 586l-330 -590h-13l-57 463l-260 -463h-13l-83 590q-3 23 -9 32t-23 12l-53 10l2 10h198v-10l-88 -15l78 -564l245 441l-10 84q-3 23 -9.5 32t-22.5 12l-53 10l2 10h198v-10l-88 -15l70 -563 l312 562l-88 16l2 10h198v-10q-36 -6 -54 -10q-20 -4 -29.5 -13t-21.5 -31z" />
<glyph unicode="&#x1e83;" d="M503 705q0 -20 -54.5 -57t-109.5 -67l-6 8q108 82 152 131q18 0 18 -15zM388 510q15 0 19.5 -13.5t4.5 -45.5q0 -143 -22 -402q82 111 140 231t58 203q0 11 -2 23q6 4 14 4q20 0 20 -33q0 -79 -68 -210t-180 -267h-9q21 286 23 423q-52 -205 -231 -423h-9q24 277 24 400 q0 80 -28 80q-29 0 -93 -111l-6 4q20 55 49.5 96t60.5 41q27 0 37 -27t10 -78q0 -118 -26 -354q202 271 202 452v4q4 3 12 3z" />
<glyph unicode="&#x1e84;" horiz-adv-x="974" d="M604 812q0 -18 -12.5 -33t-28.5 -15q-22 0 -22 24q0 19 12.5 33.5t28.5 14.5q22 0 22 -24zM782 812q0 -18 -12.5 -33t-28.5 -15q-22 0 -22 24q0 19 12.5 33.5t28.5 14.5q22 0 22 -24zM991 586l-330 -590h-13l-57 463l-260 -463h-13l-83 590q-3 23 -9 32t-23 12l-53 10 l2 10h198v-10l-88 -15l78 -564l245 441l-10 84q-3 23 -9.5 32t-22.5 12l-53 10l2 10h198v-10l-88 -15l70 -563l312 562l-88 16l2 10h198v-10q-36 -6 -54 -10q-20 -4 -29.5 -13t-21.5 -31z" />
<glyph unicode="&#x1e85;" d="M361 662q0 -18 -12.5 -33t-28.5 -15q-22 0 -22 24q0 19 12.5 33.5t28.5 14.5q22 0 22 -24zM539 662q0 -18 -12.5 -33t-28.5 -15q-22 0 -22 24q0 19 12.5 33.5t28.5 14.5q22 0 22 -24zM388 510q15 0 19.5 -13.5t4.5 -45.5q0 -143 -22 -402q82 111 140 231t58 203 q0 11 -2 23q6 4 14 4q20 0 20 -33q0 -79 -68 -210t-180 -267h-9q21 286 23 423q-52 -205 -231 -423h-9q24 277 24 400q0 80 -28 80q-29 0 -93 -111l-6 4q20 55 49.5 96t60.5 41q27 0 37 -27t10 -78q0 -118 -26 -354q202 271 202 452v4q4 3 12 3z" />
<glyph unicode="&#x1e92;" horiz-adv-x="527" d="M487 77q-7 -37 -20 -77h-406l-1 17l497 611h-327l-57 -163h-8q4 55 17 111q11 47 20 74h397l1 -17l-498 -611h337l57 163h8q-2 -35 -17 -108zM275 -127q0 -17 -11.5 -31t-28.5 -14q-26 0 -26 26q0 17 12.5 30.5t28.5 13.5q25 0 25 -25z" />
<glyph unicode="&#x1e93;" horiz-adv-x="373" d="M147 24q-45 0 -91 -34l-12 12q115 149 301 417q-102 54 -152 54q-22 0 -38.5 -24.5t-43.5 -85.5l-9 4q29 91 44 112q19 25 46 26q58 0 165 -70q24 36 51 75q22 -2 22 -18q0 -8 -8 -19q-163 -229 -324 -441q32 18 63 18q20 0 69 -14t62 -14q16 0 35 25t53 85l8 -5 q-26 -68 -46.5 -102.5t-45.5 -34.5q-18 0 -70.5 17t-78.5 17zM194 -127q0 -17 -11.5 -31t-28.5 -14q-26 0 -26 26q0 17 12.5 30.5t28.5 13.5q25 0 25 -25z" />
<glyph unicode="&#x1e9e;" horiz-adv-x="612" d="M609 155q0 -72 -55 -118.5t-140 -46.5q-42 0 -86 17t-44 46q0 17 10.5 63.5t19.5 73.5h8q-1 -13 -2 -32t-2 -32.5t-1 -23.5q0 -49 22 -69.5t80 -20.5q72 0 114.5 40t42.5 100q0 23 -8 44.5t-18 36.5t-31.5 34.5t-34.5 29t-43 30.5t-41 29l2 21l186 171q-15 42 -46.5 66 t-73.5 24q-81 0 -133.5 -59t-75.5 -168l-86 -404l-8 -7h-115v10l78 12q17 2 20 17l80 374q25 117 88 182t161 65q50 0 88 -29t54 -73l-1 -10l-189 -172q12 -9 47.5 -34.5t51.5 -39.5t39 -38.5t32.5 -51t9.5 -57.5z" />
<glyph unicode="&#x1ea0;" horiz-adv-x="685" d="M476 654h13l87 -590q4 -25 10.5 -32.5t27.5 -12.5l45 -9l-2 -10h-204v10l96 15l-29 204l-259 -2l1 5l-116 -206l90 -16l-2 -10h-204v10l53 10q22 4 32.5 12.5t23.5 31.5zM275 254l242 -3l-50 342zM347 -127q0 -17 -11.5 -31t-28.5 -14q-26 0 -26 26q0 17 12.5 30.5 t28.5 13.5q25 0 25 -25z" />
<glyph unicode="&#x1ea1;" horiz-adv-x="428" d="M78 94q0 91 35.5 186.5t100.5 162.5t138 67q45 0 76 -20l-23 -93l-63 -292q-10 -48 -10 -70q0 -15 8 -15q27 0 103 111l6 -4q-23 -51 -57 -94t-63 -43q-27 0 -27 42q0 25 10 73l45 197q-52 -140 -113 -226t-106 -86q-60 0 -60 104zM378 407l14 66q-27 13 -61 13 q-55 0 -108 -61.5t-84 -151.5t-31 -174q0 -81 37 -81q42 0 112 111.5t121 277.5zM202 -127q0 -17 -11.5 -31t-28.5 -14q-26 0 -26 26q0 17 12.5 30.5t28.5 13.5q25 0 25 -25z" />
<glyph unicode="&#x1eb8;" horiz-adv-x="515" d="M469 0h-419v10l78 12q17 2 20 17l122 572l3 13l-89 16l3 10h410q-6 -77 -39 -175h-7l11 150q-47 2 -140 2h-117l-3 -16l-57 -269l216 4l-6 -30l-215 5l-60 -282l-3 -16h123q97 0 144 2l53 150h7q-2 -32 -9 -70q-12 -65 -26 -105zM301 -127q0 -17 -11.5 -31t-28.5 -14 q-26 0 -26 26q0 17 12.5 30.5t28.5 13.5q25 0 25 -25z" />
<glyph unicode="&#x1eb9;" horiz-adv-x="329" d="M347 139q-25 -60 -67.5 -104.5t-91.5 -44.5q-46 0 -72 41.5t-26 115.5q0 84 29.5 168t79.5 139.5t104 55.5q34 0 52.5 -21.5t18.5 -55.5q0 -94 -74.5 -153.5t-172.5 -65.5q-5 -37 -5 -65q0 -62 18.5 -98.5t53.5 -36.5q34 0 74 36.5t73 92.5zM297 490q-52 0 -100.5 -78.5 t-66.5 -179.5q99 12 155.5 68t56.5 133q0 25 -11 41t-34 16zM196 -127q0 -17 -11.5 -31t-28.5 -14q-26 0 -26 26q0 17 12.5 30.5t28.5 13.5q25 0 25 -25z" />
<glyph unicode="&#x1ebc;" horiz-adv-x="515" d="M524 787q23 19 60 59l8 -5q-42 -78 -73 -78q-21 0 -79.5 24.5t-70.5 24.5q-23 -19 -60 -59l-8 5q42 78 73 78q22 0 80 -24.5t70 -24.5zM469 0h-419v10l78 12q17 2 20 17l122 572l3 13l-89 16l3 10h410q-6 -77 -39 -175h-7l11 150q-47 2 -140 2h-117l-3 -16l-57 -269 l216 4l-6 -30l-215 5l-60 -282l-3 -16h123q97 0 144 2l53 150h7q-2 -32 -9 -70q-12 -65 -26 -105z" />
<glyph unicode="&#x1ebd;" horiz-adv-x="329" d="M405 637q23 19 60 59l8 -5q-42 -78 -73 -78q-21 0 -79.5 24.5t-70.5 24.5q-23 -19 -60 -59l-8 5q42 78 73 78q22 0 80 -24.5t70 -24.5zM347 139q-25 -60 -67.5 -104.5t-91.5 -44.5q-46 0 -72 41.5t-26 115.5q0 84 29.5 168t79.5 139.5t104 55.5q34 0 52.5 -21.5 t18.5 -55.5q0 -94 -74.5 -153.5t-172.5 -65.5q-5 -37 -5 -65q0 -62 18.5 -98.5t53.5 -36.5q34 0 74 36.5t73 92.5zM297 490q-52 0 -100.5 -78.5t-66.5 -179.5q99 12 155.5 68t56.5 133q0 25 -11 41t-34 16z" />
<glyph unicode="&#x1eca;" horiz-adv-x="312" d="M264 0h-214v10l78 12q17 2 20 17l122 572l3 13l-89 16l2 10h214v-10l-78 -12q-17 -2 -20 -17l-122 -572l-3 -13l89 -16zM159 -127q0 -17 -11.5 -31t-28.5 -14q-26 0 -26 26q0 17 12.5 30.5t28.5 13.5q25 0 25 -25z" />
<glyph unicode="&#x1ecb;" horiz-adv-x="246" d="M282 660q0 -17 -11.5 -31t-28.5 -14q-26 0 -26 26q0 17 12.5 30.5t28.5 13.5q25 0 25 -25zM130 105q9 43 35 146t34 144q10 48 10 70q0 15 -8 15q-27 0 -103 -111l-6 4q23 51 57 94t63 43q27 0 27 -42q0 -25 -10 -73q-9 -45 -35 -149.5t-34 -140.5q-10 -48 -10 -70 q0 -15 8 -15q27 0 103 111l6 -4q-23 -51 -57 -94t-63 -43q-27 0 -27 42q0 25 10 73zM154 -127q0 -17 -11.5 -31t-28.5 -14q-26 0 -26 26q0 17 12.5 30.5t28.5 13.5q25 0 25 -25z" />
<glyph unicode="&#x1ecc;" d="M581 428q0 -108 -36.5 -208t-105 -165t-150.5 -65q-83 0 -128 61.5t-45 168.5q0 108 38 209t107.5 166t151.5 65t125 -62.5t43 -169.5zM149 229q0 -102 38.5 -159t103.5 -57q72 0 132.5 64t92.5 158t32 191q0 96 -36 153.5t-103 57.5q-72 0 -133 -64t-94 -157.5 t-33 -186.5zM282 -127q0 -17 -11.5 -31t-28.5 -14q-26 0 -26 26q0 17 12.5 30.5t28.5 13.5q25 0 25 -25z" />
<glyph unicode="&#x1ecd;" horiz-adv-x="396" d="M408 335q0 -136 -61.5 -240.5t-141.5 -104.5q-51 0 -81 48.5t-30 126.5q0 135 64 240t145 105q51 0 78 -46.5t27 -128.5zM126 169q0 -72 21.5 -113.5t60.5 -41.5q46 0 85.5 48t61 121.5t21.5 152.5q0 150 -78 150q-69 0 -120.5 -100.5t-51.5 -216.5zM212 -127 q0 -17 -11.5 -31t-28.5 -14q-26 0 -26 26q0 17 12.5 30.5t28.5 13.5q25 0 25 -25z" />
<glyph unicode="&#x1ee4;" horiz-adv-x="656" d="M577 221q-24 -113 -89.5 -172t-153.5 -59q-76 0 -122 44t-46 128q0 30 8 68l81 381l3 13l-89 16l2 10h214v-10l-78 -12q-17 -2 -20 -17l-82 -385q-8 -35 -8 -60q0 -72 39.5 -111t104.5 -39q73 0 131 54t79 153l83 390l2 11l-89 16l2 10h209v-10l-95 -16l-3 -11zM340 -127 q0 -17 -11.5 -31t-28.5 -14q-26 0 -26 26q0 17 12.5 30.5t28.5 13.5q25 0 25 -25z" />
<glyph unicode="&#x1ee5;" horiz-adv-x="484" d="M453 503q21 7 26 7t4 -6l-23 -109l-6 -28l-37 -174q-27 -126 -27 -153q0 -20 11 -20q31 0 99 111l6 -4q-21 -49 -56 -93t-64 -44q-27 0 -27 38q0 52 56 278q-58 -146 -121.5 -231t-117.5 -85q-51 0 -51 59q0 32 13 92.5t33.5 139t27.5 114.5q10 48 10 70q0 15 -8 15 q-27 0 -103 -111l-6 4q23 51 57 94t63 43q27 0 27 -42q0 -25 -10 -73q-8 -39 -28 -116.5t-33 -136t-13 -88.5q0 -36 28 -36q48 0 119 106t128 271zM276 -127q0 -17 -11.5 -31t-28.5 -14q-26 0 -26 26q0 17 12.5 30.5t28.5 13.5q25 0 25 -25z" />
<glyph unicode="&#x1ef2;" horiz-adv-x="584" d="M526 735l-8 -8q-115 96 -115 128q0 18 17 18h3q30 -56 103 -138zM403 0h-214v10l78 12q17 2 20 17l22 104q15 89 11 197t-28 199t-55 91q-38 0 -104 -111l-8 4q20 50 54.5 93.5t66.5 43.5q50 0 80.5 -131.5t21.5 -292.5q67 170 145.5 297t125.5 127q16 0 27.5 -11 t18.5 -32t10.5 -39t7.5 -45l-9 -4q-9 29 -13 41.5t-11 29.5t-14.5 23.5t-17.5 6.5q-29 0 -90.5 -89.5t-116.5 -206t-70 -189.5l-22 -106l-3 -13l89 -16z" />
<glyph unicode="&#x1ef3;" horiz-adv-x="359" d="M379 585l-8 -8q-115 96 -115 128q0 18 17 18h3q30 -56 103 -138zM223 355q0 -163 -56 -336q98 91 157.5 217.5t59.5 238.5q0 15 -2 31q6 4 14 4q20 0 20 -33q0 -110 -69 -250t-191 -240q-67 -182 -164 -182q-32 0 -52 11.5t-20 28.5q0 19 17 30q9 -20 25.5 -33t35.5 -13 q56 0 102 89t68.5 207.5t22.5 226.5q0 128 -35 128q-27 0 -86 -111l-6 4q18 55 45.5 96t55.5 41q58 0 58 -155z" />
<glyph unicode="&#x1ef8;" horiz-adv-x="584" d="M533 787q23 19 60 59l8 -5q-42 -78 -73 -78q-21 0 -79.5 24.5t-70.5 24.5q-23 -19 -60 -59l-8 5q42 78 73 78q22 0 80 -24.5t70 -24.5zM403 0h-214v10l78 12q17 2 20 17l22 104q15 89 11 197t-28 199t-55 91q-38 0 -104 -111l-8 4q20 50 54.5 93.5t66.5 43.5 q50 0 80.5 -131.5t21.5 -292.5q67 170 145.5 297t125.5 127q16 0 27.5 -11t18.5 -32t10.5 -39t7.5 -45l-9 -4q-9 29 -13 41.5t-11 29.5t-14.5 23.5t-17.5 6.5q-29 0 -90.5 -89.5t-116.5 -206t-70 -189.5l-22 -106l-3 -13l89 -16z" />
<glyph unicode="&#x1ef9;" horiz-adv-x="359" d="M392 637q23 19 60 59l8 -5q-42 -78 -73 -78q-21 0 -79.5 24.5t-70.5 24.5q-23 -19 -60 -59l-8 5q42 78 73 78q22 0 80 -24.5t70 -24.5zM223 355q0 -163 -56 -336q98 91 157.5 217.5t59.5 238.5q0 15 -2 31q6 4 14 4q20 0 20 -33q0 -110 -69 -250t-191 -240 q-67 -182 -164 -182q-32 0 -52 11.5t-20 28.5q0 19 17 30q9 -20 25.5 -33t35.5 -13q56 0 102 89t68.5 207.5t22.5 226.5q0 128 -35 128q-27 0 -86 -111l-6 4q18 55 45.5 96t55.5 41q58 0 58 -155z" />
<glyph unicode="&#x2013;" horiz-adv-x="508" d="M101 249l5 25h412l-5 -25h-412z" />
<glyph unicode="&#x2014;" horiz-adv-x="760" d="M101 249l5 25h664l-5 -25h-664z" />
<glyph unicode="&#x2018;" horiz-adv-x="208" d="M173 506q0 35 32 89t81 100l5 -5q-58 -69 -79 -144q24 0 24 -25q0 -17 -12 -30t-26 -13q-25 0 -25 28z" />
<glyph unicode="&#x2019;" horiz-adv-x="209" d="M285 667q0 -35 -32 -89t-81 -100l-5 5q58 69 79 144q-24 0 -24 25q0 17 12 30t26 13q25 0 25 -28z" />
<glyph unicode="&#x201a;" horiz-adv-x="208" d="M149 30q0 -35 -32 -89t-81 -100l-5 5q58 69 79 144q-24 0 -24 25q0 17 12 30t26 13q25 0 25 -28z" />
<glyph unicode="&#x201c;" horiz-adv-x="325" d="M173 506q0 35 32 89t81 100l5 -5q-58 -69 -79 -144q24 0 24 -25q0 -17 -12 -30t-26 -13q-25 0 -25 28zM290 506q0 35 32 89t81 100l5 -5q-58 -69 -79 -144q24 0 24 -25q0 -17 -12 -30t-26 -13q-25 0 -25 28z" />
<glyph unicode="&#x201d;" horiz-adv-x="326" d="M402 667q0 -35 -32 -89t-81 -100l-5 5q58 69 79 144q-24 0 -24 25q0 17 12 30t26 13q25 0 25 -28zM285 667q0 -35 -32 -89t-81 -100l-5 5q58 69 79 144q-24 0 -24 25q0 17 12 30t26 13q25 0 25 -28z" />
<glyph unicode="&#x201e;" horiz-adv-x="325" d="M266 30q0 -35 -32 -89t-81 -100l-5 5q58 69 79 144q-24 0 -24 25q0 17 12 30t26 13q25 0 25 -28zM149 30q0 -35 -32 -89t-81 -100l-5 5q58 69 79 144q-24 0 -24 25q0 17 12 30t26 13q25 0 25 -28z" />
<glyph unicode="&#x2020;" horiz-adv-x="498" d="M252 -10h-10l12 125l74 317l-167 -7l-2 1q0 19 1 27l6 5l167 -7l35 199l1 2q12 3 33 5l4 -5l-49 -201l167 7l2 -1q0 -19 -1 -27l-6 -5l-166 7l-61 -317z" />
<glyph unicode="&#x2021;" horiz-adv-x="498" d="M109 210l6 5l169 -7q3 21 7.5 51t7.5 49l3 20l5 18q5 17 13.5 48t13.5 48l-170 -7l-2 1q0 19 1 27l6 5l169 -7l31 189l1 2q12 3 33 5l4 -5l-49 -191l169 7l2 -1q0 -19 -1 -27l-6 -5l-168 7q-17 -113 -18 -114q0 -2 -32 -120l169 7l2 -1q1 -9 -1 -27l-6 -5l-168 7 l-31 -189l-2 -2q-10 -2 -33 -5l-4 5l50 191l-170 -7l-1 1v8v10.5v8.5z" />
<glyph unicode="&#x2022;" horiz-adv-x="387" d="M233 147q-38 0 -59.5 24t-21.5 60q0 47 32.5 84.5t78.5 37.5q37 0 58 -22t21 -57q0 -49 -29.5 -88t-79.5 -39z" />
<glyph unicode="&#x2026;" horiz-adv-x="469" d="M372 -10q-24 0 -24 25q0 17 12 30t27 13q24 0 24 -23q0 -18 -11.5 -31.5t-27.5 -13.5zM232 -10q-24 0 -24 25q0 17 12 30t27 13q24 0 24 -23q0 -18 -11.5 -31.5t-27.5 -13.5zM92 -10q-24 0 -24 25q0 17 12 30t27 13q24 0 24 -23q0 -18 -11.5 -31.5t-27.5 -13.5z" />
<glyph unicode="&#x2030;" horiz-adv-x="1185" d="M756 660h38l-543 -670h-37zM425 525q0 -94 -44 -167t-114 -73q-47 0 -73 36t-26 96q0 93 44 166t114 73q47 0 73 -36t26 -95zM196 417q0 -52 18.5 -81.5t55.5 -29.5q40 0 70 34t43.5 82.5t13.5 101.5q0 52 -18.5 81.5t-55.5 29.5q-40 0 -70 -34t-43.5 -82.5t-13.5 -101.5 zM826 237q0 -94 -44 -167t-114 -73q-47 0 -73 36t-26 96q0 93 44 166t114 73q47 0 73 -36t26 -95zM1155 237q0 -94 -44 -167t-114 -73q-47 0 -73 36t-26 96q0 93 44 166t114 73q47 0 73 -36t26 -95zM597 129q0 -52 18.5 -81.5t55.5 -29.5q40 0 70 34t43.5 82.5t13.5 101.5 q0 52 -18.5 81.5t-55.5 29.5q-40 0 -70 -34t-43.5 -82.5t-13.5 -101.5zM926 129q0 -52 18.5 -81.5t55.5 -29.5q40 0 70 34t43.5 82.5t13.5 101.5q0 52 -18.5 81.5t-55.5 29.5q-40 0 -70 -34t-43.5 -82.5t-13.5 -101.5z" />
<glyph unicode="&#x2039;" horiz-adv-x="332" d="M263 70l-13 -8q-61 124 -111 184l-1 4l3 17q60 47 189 172l9 -8q-20 -24 -45.5 -51.5t-63.5 -67.5t-55 -58q47 -74 88 -184z" />
<glyph unicode="&#x203a;" horiz-adv-x="332" d="M299 241q-60 -47 -189 -172l-9 8q20 24 45.5 51.5t63.5 67.5t55 58q-47 74 -88 184l13 8q61 -124 111 -184l1 -4z" />
<glyph unicode="&#x2044;" horiz-adv-x="246" d="M444 660h38l-543 -670h-37z" />
<glyph unicode="&#x2070;" horiz-adv-x="362" d="M427 608q0 -94 -44 -167t-114 -73q-47 0 -73 36t-26 96q0 93 44 166t114 73q47 0 73 -36t26 -95zM198 500q0 -52 18.5 -81.5t55.5 -29.5q40 0 70 34t43.5 82.5t13.5 101.5q0 52 -18.5 81.5t-55.5 29.5q-40 0 -70 -34t-43.5 -82.5t-13.5 -101.5z" />
<glyph unicode="&#x2071;" horiz-adv-x="194" d="M257 767q-22 0 -22 21q0 14 10.5 25t23.5 11q21 0 21 -21q0 -14 -9.5 -25t-23.5 -11zM144 592l-5 2q19 39 45.5 70t49.5 31t23 -34q0 -32 -33.5 -154.5t-33.5 -147.5q0 -10 6 -10q21 0 78 77l4 -2q-18 -38 -44.5 -69.5t-49.5 -31.5t-23 34q0 31 33.5 152t33.5 150 q0 10 -6 10q-21 0 -78 -77z" />
<glyph unicode="&#x2074;" horiz-adv-x="384" d="M159 484l245 255l17 -4l-52 -248l63 1l-5 -22h-63l-20 -95h-28l20 96l-173 1zM386 698l-202 -213l157 2z" />
<glyph unicode="&#x2075;" horiz-adv-x="314" d="M363 503q0 -59 -61 -97t-165 -41l-1 13q93 8 147 41t54 84q0 60 -84 60q-33 0 -62 -9l-9 9l39 172q19 0 71.5 -2t74.5 -2q13 0 20.5 6t14.5 21l5 -1q-5 -19 -8.5 -28t-11.5 -15.5t-22 -6.5q-45 0 -129 6l-31 -136q26 6 54 6q104 0 104 -80z" />
<glyph unicode="&#x2076;" horiz-adv-x="351" d="M165 484q0 104 71 173.5t181 81.5l1 -13q-90 -17 -152 -71.5t-76 -130.5q17 32 47 49.5t63 17.5q43 0 70 -28t27 -71q0 -52 -36.5 -89.5t-91.5 -37.5q-48 0 -76 34.5t-28 84.5zM371 489q0 35 -20 58.5t-53 23.5q-39 0 -73 -29t-34 -67q0 -37 21 -64t59 -27q44 0 72 31 t28 74z" />
<glyph unicode="&#x2077;" horiz-adv-x="351" d="M242 372q-5 -7 -13 -7q-9 0 -13 8q123 188 189 309q-107 33 -154 33q-20 0 -30 -11t-18 -37l-5 1q8 38 17.5 54.5t33.5 16.5q56 0 165 -41q7 13 21 41q14 -3 14 -13q0 -14 -79.5 -149t-127.5 -205z" />
<glyph unicode="&#x2078;" horiz-adv-x="333" d="M374 465q0 -40 -36 -70t-87 -30q-44 0 -71.5 21t-27.5 56q0 38 30.5 68t85.5 47q-28 21 -43.5 41t-15.5 48q0 39 29.5 66t74.5 27q39 0 62.5 -21.5t23.5 -53.5q0 -68 -94 -105q23 -17 34.5 -26.5t23 -28.5t11.5 -39zM235 648q0 -17 9 -33t19.5 -25t28.5 -23q80 36 80 94 q0 27 -16 44t-43 17q-33 0 -55.5 -20.5t-22.5 -53.5zM178 445q0 -30 20.5 -46.5t55.5 -16.5q41 0 67.5 23t26.5 57q0 18 -12 35.5t-23 26t-34 25.5q-101 -41 -101 -104z" />
<glyph unicode="&#x2079;" horiz-adv-x="351" d="M421 620q0 -104 -71 -173.5t-181 -81.5l-1 13q90 17 152 71.5t76 130.5q-17 -32 -47 -49.5t-63 -17.5q-43 0 -70 28t-27 71q0 52 36.5 89.5t91.5 37.5q48 0 76 -34.5t28 -84.5zM215 615q0 -35 20 -58.5t53 -23.5q39 0 73 29t34 67q0 37 -21 64t-59 27q-44 0 -72 -31 t-28 -74z" />
<glyph unicode="&#x207f;" horiz-adv-x="371" d="M177 328q-15 -5 -25 -5q-6 0 -4 5l18 81l5 24l28 117q20 89 20 106q0 13 -8 13q-24 0 -75 -77l-5 2q15 37 42.5 69t51.5 32q23 0 23 -30q0 -33 -42 -190q44 101 93 160.5t90 59.5q40 0 40 -44q0 -23 -10 -65.5t-24.5 -96.5t-20.5 -80q-8 -34 -8 -50q0 -10 6 -10 q21 0 78 77l5 -2q-18 -38 -45 -69.5t-50 -31.5t-23 34q0 10 8 52q6 27 21 81t25 94.5t10 60.5q0 25 -21 25q-36 0 -89 -73.5t-96 -187.5z" />
<glyph unicode="&#x2080;" horiz-adv-x="362" d="M327 136q0 -94 -44 -167t-114 -73q-47 0 -73 36t-26 96q0 93 44 166t114 73q47 0 73 -36t26 -95zM98 28q0 -52 18.5 -81.5t55.5 -29.5q40 0 70 34t43.5 82.5t13.5 101.5q0 52 -18.5 81.5t-55.5 29.5q-40 0 -70 -34t-43.5 -82.5t-13.5 -101.5z" />
<glyph unicode="&#x2081;" horiz-adv-x="278" d="M201 -101h-165v6l60 7q12 1 15 11l69 321l-72 -8v6l101 25l4 -4l-73 -340l-2 -9l64 -9z" />
<glyph unicode="&#x2082;" horiz-adv-x="348" d="M114 -85q-44 0 -69 -21l-8 14q142 107 194.5 161.5t52.5 106.5q0 32 -20 50t-56 18q-33 0 -63 -21t-48 -58l-6 2q14 45 49 71.5t79 26.5q42 0 67.5 -23t25.5 -62q0 -22 -10 -45.5t-22 -41t-39 -43.5t-43.5 -40t-53.5 -44q-29 -24 -51 -37q16 6 40 6q19 0 62.5 -8.5 t51.5 -8.5q5 0 8.5 2.5t7.5 8.5t6 10t6 14.5t6 14.5l4 -1q-1 -7 -11 -46q-10 -27 -27 -27q-16 0 -63.5 10.5t-69.5 10.5z" />
<glyph unicode="&#x2083;" horiz-adv-x="323" d="M269 17q0 -52 -61 -85t-163 -39l-2 13q197 24 197 110q0 31 -26 47.5t-66 16.5q-16 0 -30 -1l-2 13q71 7 110 34t39 66q0 24 -16.5 39t-46.5 15q-68 0 -104 -68l-4 2q11 39 42.5 63t70.5 24t62.5 -20.5t23.5 -54.5t-29.5 -61.5t-76.5 -38.5q37 -6 59.5 -26t22.5 -49z" />
<glyph unicode="&#x2084;" horiz-adv-x="385" d="M59 12l245 255l17 -4l-52 -248l63 1l-5 -22h-63l-20 -95h-28l20 96l-173 1zM286 226l-202 -213l157 2z" />
<glyph unicode="&#x2085;" horiz-adv-x="315" d="M263 31q0 -59 -61 -97t-165 -41l-1 13q93 8 147 41t54 84q0 60 -84 60q-33 0 -62 -9l-9 9l39 172q19 0 71.5 -2t74.5 -2q13 0 20.5 6t14.5 21l5 -1q-5 -19 -8.5 -28t-11.5 -15.5t-22 -6.5q-45 0 -129 6l-31 -136q25 6 54 6q104 0 104 -80z" />
<glyph unicode="&#x2086;" horiz-adv-x="351" d="M64 12q0 104 71 173.5t181 81.5l1 -13q-90 -17 -152 -71.5t-76 -130.5q17 32 47 49.5t63 17.5q43 0 70 -28t27 -71q0 -52 -36.5 -89.5t-91.5 -37.5q-48 0 -76 34.5t-28 84.5zM270 17q0 35 -20 58.5t-53 23.5q-39 0 -73 -29t-34 -67q0 -37 21 -64t59 -27q44 0 72 31t28 74 z" />
<glyph unicode="&#x2087;" horiz-adv-x="351" d="M142 -100q-5 -7 -13 -7q-9 0 -13 8q123 188 189 309q-107 33 -154 33q-20 0 -30 -11t-18 -37l-5 1q8 38 17.5 54.5t33.5 16.5q56 0 165 -41q7 13 21 41q14 -3 14 -13q0 -14 -79.5 -149t-127.5 -205z" />
<glyph unicode="&#x2088;" horiz-adv-x="333" d="M274 -7q0 -40 -36 -70t-87 -30q-44 0 -71.5 21t-27.5 56q0 38 30.5 68t85.5 47q-28 21 -43.5 41t-15.5 48q0 39 29.5 66t74.5 27q39 0 62.5 -21.5t23.5 -53.5q0 -68 -94 -105q23 -17 34.5 -26.5t23 -28.5t11.5 -39zM135 176q0 -17 9 -33t19.5 -25t28.5 -23q80 36 80 94 q0 27 -16 44t-43 17q-33 0 -55.5 -20.5t-22.5 -53.5zM78 -27q0 -30 20.5 -46.5t55.5 -16.5q41 0 67.5 23t26.5 57q0 18 -12 35.5t-23 26t-34 25.5q-101 -41 -101 -104z" />
<glyph unicode="&#x2089;" horiz-adv-x="351" d="M321 148q0 -104 -71 -173.5t-181 -81.5l-1 13q90 17 152 71.5t76 130.5q-17 -32 -47 -49.5t-63 -17.5q-43 0 -70 28t-27 71q0 52 36.5 89.5t91.5 37.5q48 0 76 -34.5t28 -84.5zM115 143q0 -35 20 -58.5t53 -23.5q39 0 73 29t34 67q0 37 -21 64t-59 27q-44 0 -72 -31 t-28 -74z" />
<glyph unicode="&#x2090;" horiz-adv-x="347" d="M39 -72q0 65 27.5 132.5t77.5 115t108 47.5q37 0 63 -15l-18 -66l-48 -205q-7 -37 -7 -50q0 -10 6 -10q21 0 78 77l5 -2q-19 -39 -45.5 -70t-49.5 -31t-23 34q0 18 8 52l33 132q-40 -99 -86 -158.5t-81 -59.5q-48 0 -48 77zM271 151l11 45q-18 9 -46 9q-42 0 -82 -44 t-63.5 -108t-23.5 -122q0 -56 28 -56q31 0 84 80t92 196z" />
<glyph unicode="&#x2091;" horiz-adv-x="271" d="M250 -41q-19 -44 -53 -76t-72 -32q-37 0 -57.5 30.5t-20.5 83.5q0 94 51 176t115 82q28 0 43 -16t15 -42q0 -66 -57.5 -108t-133.5 -46q-3 -21 -3 -42q0 -44 14.5 -70t41.5 -26q26 0 56.5 25t55.5 64zM208 208q-40 0 -76.5 -56t-49.5 -128q75 9 117.5 49t42.5 95 q0 40 -34 40z" />
<glyph unicode="&#x2092;" horiz-adv-x="334" d="M299 96q0 -97 -48.5 -171t-111.5 -74q-41 0 -65 35t-24 92q0 96 50 170.5t114 74.5q41 0 63 -34t22 -93zM81 -23q0 -51 16 -79.5t45 -28.5q52 0 89 73t37 159q0 104 -58 104q-52 0 -90.5 -73t-38.5 -155z" />
<glyph unicode="&#x2093;" horiz-adv-x="307" d="M51 -150q-3 -2 -13 -2q-21 0 -21 22q0 51 135 167l-19 77q-12 51 -18.5 65.5t-16.5 14.5q-18 0 -67 -77l-6 2q16 41 39 71t44 30q18 0 27 -18.5t24 -78.5l19 -74q34 34 51.5 53.5t35 50t17.5 57.5q0 8 -1 14q3 2 13 2q21 0 21 -22q0 -52 -134 -169l20 -78 q12 -49 18.5 -64.5t16.5 -15.5q20 0 67 77l6 -3q-17 -41 -39 -70.5t-44 -29.5q-18 0 -27 18.5t-24 77.5l-19 77q-34 -33 -52.5 -53t-36 -50.5t-17.5 -56.5q0 -9 1 -14z" />
<glyph unicode="&#x2095;" horiz-adv-x="361" d="M84 -63h-1l-18 -81q-15 -5 -25 -5q-5 0 -3 5l18 81h1l76 332l15 66l-65 7v4q52 6 94 10l3 -4l-19 -83q-7 -31 -28.5 -120.5t-33.5 -138.5q45 98 92.5 155.5t88.5 57.5q40 0 40 -44q0 -23 -10 -65.5t-24.5 -96.5t-20.5 -80q-8 -34 -8 -50q0 -10 6 -10q21 0 78 77l5 -2 q-18 -38 -45 -69.5t-50 -31.5t-23 34q0 10 8 52q6 27 21 81t25 94.5t10 60.5q0 25 -21 25q-36 0 -90 -73.5t-96 -187.5z" />
<glyph unicode="&#x2096;" horiz-adv-x="341" d="M66 -144q-10 -5 -25 -5q-5 0 -3 5l18 81l76 332l16 66l-66 7v4q52 6 95 10l3 -4l-20 -83q-42 -177 -69 -283q42 108 95.5 172.5t102.5 64.5q24 0 37.5 -14.5t13.5 -37.5q0 -49 -46.5 -90t-111.5 -66q27 -77 44 -108t33 -31q9 0 24 13t26 26.5t30 38.5l4 -2 q-18 -40 -43.5 -70.5t-49.5 -30.5t-45.5 37t-51.5 124l1 3q69 27 112.5 66t43.5 84q0 33 -32 33q-42 0 -98 -75.5t-97 -192.5v1z" />
<glyph unicode="&#x2097;" horiz-adv-x="181" d="M56 -63l76 332l15 66l-65 7v4q52 6 94 10l3 -4l-95 -415q-8 -34 -8 -50q0 -10 7 -10q19 0 78 77l4 -2q-18 -38 -44.5 -69.5t-49.5 -31.5t-23 34q0 18 8 52z" />
<glyph unicode="&#x2098;" horiz-adv-x="539" d="M76 -144q-10 -5 -25 -5q-5 0 -3 5l18 81l5 24l28 117q20 89 20 106q0 13 -9 13q-22 0 -75 -77l-4 2q15 37 42.5 69t51.5 32q23 0 23 -30q0 -36 -41 -185q44 99 91.5 157t87.5 58q38 0 38 -43q0 -38 -33 -164q42 96 86.5 151.5t82.5 55.5t38 -44q0 -23 -9.5 -65t-25 -97.5 t-21.5 -79.5q-8 -34 -8 -50q0 -10 6 -10q21 0 78 77l5 -2q-17 -38 -44 -69.5t-50 -31.5t-23 34q0 15 7 52q6 26 21.5 80.5t25.5 95t10 61.5q0 24 -19 24q-34 0 -85 -73.5t-92 -187.5l-19 -81q-10 -5 -25 -5q-5 0 -3 5l18 81h1q6 28 19.5 82.5t22 94t8.5 59.5q0 25 -19 25 q-35 0 -87.5 -73.5t-94.5 -187.5z" />
<glyph unicode="&#x2099;" horiz-adv-x="371" d="M77 -144q-15 -5 -25 -5q-6 0 -4 5l18 81l5 24l28 117q20 89 20 106q0 13 -8 13q-24 0 -75 -77l-5 2q15 37 42.5 69t51.5 32q23 0 23 -30q0 -33 -42 -190q44 101 93 160.5t90 59.5q40 0 40 -44q0 -23 -10 -65.5t-24.5 -96.5t-20.5 -80q-8 -34 -8 -50q0 -10 6 -10 q21 0 78 77l5 -2q-18 -38 -45 -69.5t-50 -31.5t-23 34q0 10 8 52q6 27 21 81t25 94.5t10 60.5q0 25 -21 25q-36 0 -89 -73.5t-96 -187.5z" />
<glyph unicode="&#x209a;" horiz-adv-x="349" d="M47 -277q-2 0 -13 -3l-12 -2q-6 0 -4 5l18 81l36 157l27 117q21 93 21 106t-9 13q-24 0 -75 -77l-5 2q16 37 43.5 69t50.5 32t23 -30q0 -34 -42 -192q39 102 84 162t82 60q51 0 51 -83q0 -65 -23 -130t-69.5 -112t-103.5 -47q-24 0 -50 7zM264 199q-33 0 -82.5 -76 t-88.5 -192l-11 -50q25 -12 63 -12q58 0 104 87.5t46 180.5q0 62 -31 62z" />
<glyph unicode="&#x209b;" horiz-adv-x="283" d="M233 -56q0 -40 -31 -66.5t-81 -26.5q-39 0 -64 19t-25 48q0 39 39 65l5 -3q-17 -31 -17 -55q0 -27 18.5 -42t48.5 -15q34 0 56 19t22 52q0 26 -19 51t-41.5 43t-41.5 45t-19 56q0 38 29 63.5t71 25.5q36 0 60 -18t24 -48q0 -33 -32 -63l-5 2q10 32 10 52 q-1 27 -16.5 42.5t-42.5 15.5q-30 0 -49.5 -18t-19.5 -48q0 -26 19 -52t41.5 -44t41.5 -45t19 -55z" />
<glyph unicode="&#x209c;" horiz-adv-x="227" d="M205 -48q-22 -40 -52.5 -70.5t-61.5 -30.5q-17 0 -28.5 10t-11.5 32q0 15 9 53l54 234h-66l1 5l69 12l46 104l5 -1l-24 -104h110l-3 -16h-110l-54 -234q-8 -44 -8 -50q0 -19 19 -19q30 0 101 77z" />
<glyph unicode="&#x20ac;" d="M492 263h-256q-5 -38 -5 -69q0 -86 29 -132.5t85 -46.5q88 0 188 131l8 -5q-90 -151 -204 -151q-67 0 -102.5 52t-35.5 150q0 39 4 71h-88l3 23h89q6 36 17 77h-89l3 23h93q39 118 111.5 196t153.5 78q46 0 71 -30t25 -80q0 -37 -11.5 -66.5t-28.5 -29.5q-5 0 -11 4 q19 42 19 88q0 90 -72 90q-63 0 -124.5 -72t-98.5 -178h250l-3 -23h-254q-11 -33 -19 -77h256z" />
<glyph unicode="&#x2122;" horiz-adv-x="663" d="M215 685h190l-13 -68h-7l-2 50h-63l-41 -192l30 -8l-2 -7h-90v7l34 8l41 192h-64l-23 -50h-7zM382 460v7l33 8l72 194l-31 9l4 7h61l25 -197l107 197h63l-2 -7l-34 -9l-9 -194l27 -8l-1 -7h-86l-1 7l35 8l6 172l-101 -187h-28l-24 189l-65 -174l29 -8l-1 -7h-79z" />
<glyph unicode="&#x2212;" horiz-adv-x="539" d="M525 312h-384l5 23q132 3 386 3l3 -5z" />
<glyph unicode="&#x221e;" horiz-adv-x="843" d="M817 300q0 -83 -54.5 -142.5t-133.5 -59.5q-61 0 -96 36t-59 98q-105 -134 -210 -134q-59 0 -92 37t-33 99q0 81 56 140.5t138 59.5q34 0 59.5 -11.5t43 -34.5t28 -43t22.5 -52q104 141 213 141q57 0 87.5 -36t30.5 -98zM170 237q0 -51 28 -82t73 -31q48 0 99 38t95 96 l-2 5q-24 72 -54 108.5t-79 36.5q-68 0 -114 -51t-46 -120zM692 408q-87 0 -198 -139q27 -73 57 -109t79 -36q65 0 110.5 51.5t45.5 120.5q0 53 -25.5 82.5t-68.5 29.5z" />
<glyph unicode="&#x2248;" horiz-adv-x="550" d="M237 453q-16 0 -67 -66l-14 8q14 26 23 40t26 30.5t33 16.5q22 0 126 -30.5t129 -30.5q16 0 67 66l14 -8q-46 -87 -82 -87q-22 0 -128.5 30.5t-126.5 30.5zM189 229q-16 0 -67 -66l-14 8q14 26 23 40t26 30.5t33 16.5q22 0 126 -30.5t129 -30.5q16 0 67 66l14 -8 q-46 -87 -82 -87q-22 0 -128.5 30.5t-126.5 30.5z" />
<glyph unicode="&#x2260;" horiz-adv-x="540" d="M188 116l-15 13l63 82h-116l5 23q17 1 62.5 1.5t67.5 0.5l136 177h-228l5 23q39 1 242 3l72 93l5 3l16 -13l-64 -83h115l3 -5l-10 -21h-128l-135 -177q85 1 227 1l3 -5l-10 -21h-239l-71 -92z" />
<glyph unicode="&#x2264;" horiz-adv-x="549" d="M579 536l-6 -31l-358 -125l305 -122l-7 -27q-161 61 -347 142l2 16zM488 115h-384l5 23q132 3 386 3l3 -5z" />
<glyph unicode="&#x2265;" horiz-adv-x="549" d="M134 231l6 31l358 125l-305 122l7 27q161 -61 347 -142l-2 -16zM488 115h-384l5 23q132 3 386 3l3 -5z" />
<glyph unicode="&#x25fc;" horiz-adv-x="515" d="M0 515h515v-515h-515v515z" />
<glyph unicode="&#x2c7c;" horiz-adv-x="186" d="M184 331q0 -14 -9.5 -25t-23.5 -11q-23 0 -23 21q0 14 10.5 25t24.5 11q21 0 21 -21zM79 -142q-15 -68 -46 -104t-74 -36q-27 0 -45.5 12.5t-18.5 29.5q0 13 12 17q27 -37 57 -37q36 0 54 26t32 90l64 281q8 34 8 50q0 10 -6 10q-21 0 -78 -77l-5 2q18 38 45 69.5 t50 31.5t23 -34q0 -10 -8 -52z" />
<glyph unicode="&#xfb01;" horiz-adv-x="469" d="M125 -6q-19 -92 -57.5 -140.5t-92.5 -48.5q-35 0 -58.5 16.5t-23.5 39.5q0 15 12 21q36 -50 77 -50q47 0 70.5 35.5t42.5 125.5l97 457h-86l1 7l89 15l8 36q19 90 66 138.5t110 48.5q41 0 70.5 -19.5t29.5 -41.5q0 -15 -13 -21q-15 25 -42.5 42t-58.5 17q-57 0 -92 -55 q-24 -35 -38 -100l-10 -45h158q68 0 68 -64q0 -20 -12.5 -74t-31 -125t-25.5 -104q-10 -48 -10 -70q0 -15 8 -15q27 0 103 111l6 -4q-23 -51 -57 -94t-63 -43q-27 0 -27 42q0 25 10 73q8 36 25.5 106t30 123t13.5 71q1 24 -9 34.5t-35 10.5h-156z" />
<glyph unicode="&#xfb02;" horiz-adv-x="475" d="M125 -6q-19 -92 -57.5 -140.5t-92.5 -48.5q-35 0 -58.5 16.5t-23.5 39.5q0 15 12 21q36 -50 77 -50q47 0 70.5 35.5t42.5 125.5l97 457h-86l1 7l89 15l8 36q19 90 66.5 138.5t111.5 48.5q32 0 59 -12t37 -29q13 7 25 9l4 -4l-118 -554q-10 -48 -10 -70q0 -15 8 -15 q27 0 103 111l6 -4q-23 -51 -57 -94t-63 -43q-27 0 -27 42q0 25 10 73l110 514q-16 22 -43.5 37.5t-57.5 15.5q-57 0 -93 -55q-24 -36 -39 -100l-10 -45h146l-4 -22h-146z" />
<glyph unicode="&#xfb06;" horiz-adv-x="628" d="M322 119q0 -56 -39.5 -92.5t-102.5 -36.5q-49 0 -80.5 27t-31.5 66q0 53 47 92l6 -3q-23 -44 -23 -78q0 -38 24.5 -60t63.5 -22q45 0 75 27.5t30 76.5q0 30 -16 58.5t-39 51t-46 45.5t-39 53.5t-16 63.5q0 52 40.5 87t99.5 35q33 0 54 -9q15 80 68 137t118 57 q41 0 66.5 -25.5t25.5 -65.5q0 -38 -24 -74.5t-66 -57.5h183l-4 -22h-147l-70 -331q-11 -57 -11 -71q0 -28 26 -28q38 0 133 111l6 -4q-29 -54 -68 -95.5t-78 -41.5q-21 0 -35 13t-14 42q0 19 11 74l71 331h-86l2 10q66 13 103.5 51t37.5 90q0 32 -19 51t-52 19 q-55 0 -102.5 -53t-59.5 -125q27 -19 27 -52q0 -16 -6 -26t-16 -10q-24 0 -24 48q0 14 1 21q-18 14 -55 14q-45 0 -75 -27t-30 -70q0 -37 24.5 -73t53.5 -61t53.5 -62t24.5 -76z" />
<glyph horiz-adv-x="810" d="M346 139q-24 -59 -67.5 -104t-87.5 -45q-49 0 -75.5 41t-26.5 116q0 84 31.5 168.5t83.5 139.5t108 55q11 0 29 -4q20 76 92 132.5t157 56.5h3l4 -4l-17 -80q-64 -299 -89 -405q58 140 121 222t115 82q51 0 51 -59q0 -32 -13 -92.5t-33.5 -139t-27.5 -114.5 q-10 -48 -10 -70q0 -15 8 -15q27 0 103 111l6 -4q-23 -51 -57 -94t-63 -43q-27 0 -27 42q0 25 10 73q8 39 28 116.5t33 136t13 88.5q0 36 -28 36q-48 0 -119.5 -106t-128.5 -271l-23 -108q-21 -7 -26 -7t-4 6l23 109l120 564q-73 -7 -129 -54t-78 -117q25 -17 25 -52 q0 -16 -6 -26t-16 -10q-24 0 -24 48q0 8 2 26q-10 6 -27 6q-47 0 -91.5 -54.5t-70.5 -134t-26 -153.5q0 -62 19 -98t53 -36q35 0 74.5 36.5t72.5 92.5z" />
<glyph horiz-adv-x="637" d="M346 139q-24 -59 -67.5 -104t-87.5 -45q-49 0 -75.5 41t-26.5 116q0 84 31.5 168.5t83.5 139.5t108 55q16 0 27 -4q14 78 65 133.5t111 55.5q42 0 66.5 -25t24.5 -66t-25.5 -76.5t-63.5 -55.5h182l-4 -22h-147l-70 -331q-11 -49 -11 -71q0 -28 26 -28q38 0 133 111l6 -4 q-29 -54 -68 -95.5t-78 -41.5q-21 0 -35 13t-14 42q0 19 11 74l71 331h-86l2 10q66 13 103.5 51.5t37.5 89.5q0 32 -18 51t-48 19q-53 0 -98.5 -51t-57.5 -121q26 -16 26 -53q0 -16 -6 -26t-16 -10q-24 0 -24 48q0 18 1 26q-10 6 -26 6q-47 0 -91.5 -54.5t-70.5 -134 t-26 -153.5q0 -62 19 -98t53 -36q35 0 74.5 36.5t72.5 92.5z" />
<glyph horiz-adv-x="791" d="M322 119q0 -56 -39.5 -92.5t-102.5 -36.5q-49 0 -80.5 27t-31.5 66q0 53 47 92l6 -3q-23 -44 -23 -78q0 -38 24.5 -60t63.5 -22q45 0 75 27.5t30 76.5q0 30 -16 58.5t-39 51t-46 45.5t-39 53.5t-16 63.5q0 52 40.5 87t99.5 35q35 0 56 -10q20 79 92 137t158 58h3l4 -4 l-17 -80q-64 -299 -89 -405q58 140 121 222t115 82q51 0 51 -59q0 -32 -13 -92.5t-33.5 -139t-27.5 -114.5q-10 -48 -10 -70q0 -15 8 -15q27 0 103 111l6 -4q-23 -51 -57 -94t-63 -43q-27 0 -27 42q0 25 10 73q8 39 28 116.5t33 136t13 88.5q0 36 -28 36q-48 0 -119.5 -106 t-128.5 -271l-23 -108q-21 -7 -26 -7q-6 0 -4 6l23 109l120 564q-73 -8 -130.5 -56.5t-76.5 -120.5q25 -19 25 -51q0 -16 -6 -26t-16 -10q-24 0 -24 48q0 14 1 21q-19 14 -55 14q-45 0 -75 -27t-30 -70q0 -37 24.5 -73t53.5 -61t53.5 -62t24.5 -76z" />
<glyph horiz-adv-x="348" d="M140 400q0 65 27.5 132.5t77.5 115t108 47.5q37 0 63 -15l-18 -66l-48 -205q-7 -37 -7 -50q0 -10 6 -10q21 0 78 77l5 -2q-19 -39 -45.5 -70t-49.5 -31t-23 34q0 18 8 52l33 132q-40 -99 -86 -158.5t-81 -59.5q-48 0 -48 77zM372 623l11 45q-18 9 -46 9q-42 0 -82 -44 t-63.5 -108t-23.5 -122q0 -56 28 -56q31 0 84 80t92 196z" />
<glyph horiz-adv-x="326" d="M143 405l77 336l15 66l-65 7v4q52 6 94 10l3 -4l-19 -83q-40 -173 -66 -269q40 103 85 163t82 60q51 0 51 -83q0 -64 -23 -129.5t-69 -112.5t-102 -47q-55 0 -79 19zM170 402v1l-11 -50q24 -12 63 -12q60 0 105 88.5t45 179.5q0 62 -31 62q-33 0 -82.5 -76.5 t-88.5 -192.5z" />
<glyph horiz-adv-x="283" d="M351 431q-18 -43 -52.5 -75.5t-69.5 -32.5q-38 0 -59.5 30t-21.5 84q0 94 51.5 176t114.5 82q29 0 44.5 -19t15.5 -49q0 -26 -8 -46.5t-22 -20.5q-7 0 -12 4q14 30 14 63q0 53 -38 53q-48 0 -89 -79.5t-41 -159.5q0 -44 15 -70t41 -26q52 0 113 89z" />
<glyph horiz-adv-x="348" d="M322 409l28 119q-39 -93 -83.5 -149t-78.5 -56q-48 0 -48 77q0 65 27.5 132.5t78 115t107.5 47.5q21 0 34 -4l11 50l16 66l-65 7v4q46 6 94 10l3 -4l-95 -415q-8 -34 -8 -50q0 -10 6 -10q21 0 78 77l5 -2q-17 -38 -44 -69.5t-50 -31.5t-23 34q0 15 7 52zM196 347 q32 0 84.5 80t91.5 196l10 45q-18 9 -45 9q-42 0 -81.5 -44t-63 -108t-23.5 -122q0 -56 27 -56z" />
<glyph horiz-adv-x="271" d="M351 431q-19 -44 -53 -76t-72 -32q-37 0 -57.5 30.5t-20.5 83.5q0 94 51 176t115 82q28 0 43 -16t15 -42q0 -66 -57.5 -108t-133.5 -46q-3 -21 -3 -42q0 -44 14.5 -70t41.5 -26q26 0 56.5 25t55.5 64zM309 680q-40 0 -76.5 -56t-49.5 -128q75 9 117.5 49t42.5 95 q0 40 -34 40z" />
<glyph horiz-adv-x="198" d="M155 330q-14 -68 -45.5 -104t-73.5 -36q-28 0 -46 12t-18 30q0 13 11 17q29 -37 58 -37q35 0 53 26t33 90l74 324h-66l1 5l69 12l5 24q14 64 45.5 99.5t74.5 35.5q26 0 45 -12.5t19 -28.5q0 -13 -12 -17q-25 38 -64 38q-54 0 -78 -110l-7 -30h110l-3 -16h-111z" />
<glyph horiz-adv-x="263" d="M325 281q0 -33 -43.5 -62t-101.5 -29q-53 0 -84 19.5t-31 50.5q0 44 68 79l4 -3q-44 -35 -44 -66q0 -29 23.5 -45.5t67.5 -16.5q43 0 76.5 19t33.5 46q0 16 -18 31t-40 24.5t-40 22.5t-18 26t18 28.5t58 41.5q-11 -3 -22 -3q-35 0 -56.5 23.5t-21.5 66.5q0 66 40.5 113.5 t99.5 47.5q98 0 136 6q3 -5 3 -11q0 -18 -22 -18q-20 0 -86 8q32 -20 32 -73q0 -48 -23.5 -89.5t-51 -63t-51 -41t-23.5 -29.5q0 -8 18.5 -19t40 -21.5t40 -27.5t18.5 -35zM182 536q0 -35 14 -55.5t40 -20.5q35 0 63.5 44.5t28.5 105.5q0 68 -46 68q-39 0 -69.5 -43.5 t-30.5 -98.5z" />
<glyph horiz-adv-x="361" d="M165 328q-15 -5 -25 -5q-5 0 -3 5l18 81h1l76 332l15 66l-65 7v4q52 6 94 10l3 -4l-19 -83q-7 -31 -28.5 -120.5t-33.5 -138.5q45 98 92.5 155.5t88.5 57.5q40 0 40 -44q0 -23 -10 -65.5t-24.5 -96.5t-20.5 -80q-8 -34 -8 -50q0 -10 6 -10q21 0 78 77l5 -2 q-18 -38 -45 -69.5t-50 -31.5t-23 34q0 10 8 52q6 27 21 81t25 94.5t10 60.5q0 25 -21 25q-36 0 -90 -73.5t-96 -187.5h-1z" />
<glyph horiz-adv-x="187" d="M285 803q0 -14 -9.5 -25t-23.5 -11q-23 0 -23 21q0 14 10.5 25t24.5 11q21 0 21 -21zM180 330q-15 -68 -46 -104t-74 -36q-27 0 -45.5 12.5t-18.5 29.5q0 13 12 17q27 -37 57 -37q36 0 54 26t32 90l64 281q8 34 8 50q0 10 -6 10q-21 0 -78 -77l-5 2q18 38 45 69.5 t50 31.5t23 -34q0 -10 -8 -52z" />
<glyph horiz-adv-x="341" d="M166 328q-10 -5 -25 -5q-5 0 -3 5l18 81l76 332l16 66l-66 7v4q52 6 95 10l3 -4l-20 -83q-42 -177 -69 -283q42 108 95.5 172.5t102.5 64.5q24 0 37.5 -14.5t13.5 -37.5q0 -49 -46.5 -90t-111.5 -66q27 -77 44 -108t33 -31q9 0 24 13t26 26.5t30 38.5l4 -2 q-18 -40 -43.5 -70.5t-49.5 -30.5t-45.5 37t-51.5 124l1 3q69 27 112.5 66t43.5 84q0 33 -32 33q-42 0 -98 -75.5t-97 -192.5v1z" />
<glyph horiz-adv-x="181" d="M156 409l76 332l15 66l-65 7v4q52 6 94 10l3 -4l-95 -415q-8 -34 -8 -50q0 -10 7 -10q19 0 78 77l4 -2q-18 -38 -44.5 -69.5t-49.5 -31.5t-23 34q0 18 8 52z" />
<glyph horiz-adv-x="539" d="M176 328q-10 -5 -25 -5q-5 0 -3 5l18 81l5 24l28 117q20 89 20 106q0 13 -9 13q-22 0 -75 -77l-4 2q15 37 42.5 69t51.5 32q23 0 23 -30q0 -36 -41 -185q44 99 91.5 157t87.5 58q38 0 38 -43q0 -38 -33 -164q42 96 86.5 151.5t82.5 55.5t38 -44q0 -23 -9.5 -65t-25 -97.5 t-21.5 -79.5q-8 -34 -8 -50q0 -10 6 -10q21 0 78 77l5 -2q-17 -38 -44 -69.5t-50 -31.5t-23 34q0 15 7 52q6 26 21.5 80.5t25.5 95t10 61.5q0 24 -19 24q-34 0 -85 -73.5t-92 -187.5l-19 -81q-10 -5 -25 -5q-5 0 -3 5l18 81h1q6 28 19.5 82.5t22 94t8.5 59.5q0 25 -19 25 q-35 0 -87.5 -73.5t-94.5 -187.5z" />
<glyph horiz-adv-x="335" d="M400 568q0 -97 -48.5 -171t-111.5 -74q-41 0 -65 35t-24 92q0 96 50 170.5t114 74.5q41 0 63 -34t22 -93zM182 449q0 -51 16 -79.5t45 -28.5q52 0 89 73t37 159q0 104 -58 104q-52 0 -90.5 -73t-38.5 -155z" />
<glyph horiz-adv-x="349" d="M147 195q-2 0 -13 -3l-12 -2q-6 0 -4 5l18 81l36 157l27 117q21 93 21 106t-9 13q-24 0 -75 -77l-5 2q16 37 43.5 69t50.5 32t23 -30q0 -34 -42 -192q39 102 84 162t82 60q51 0 51 -83q0 -65 -23 -130t-69.5 -112t-103.5 -47q-24 0 -50 7zM364 671q-33 0 -82.5 -76 t-88.5 -192l-11 -50q25 -12 63 -12q58 0 104 87.5t46 180.5q0 62 -31 62z" />
<glyph horiz-adv-x="342" d="M303 195q-2 0 -13 -2.5t-12 -2.5q-6 0 -4 5l18 81q21 91 65 271q-40 -101 -86.5 -162.5t-82.5 -61.5q-48 0 -48 77q0 65 27.5 132.5t77.5 115t108 47.5q37 0 62 -15l-17 -66l-77 -338zM168 403q0 -56 28 -56q32 0 84.5 80t91.5 196v-1l10 46q-20 9 -45 9q-42 0 -82 -44 t-63.5 -108t-23.5 -122z" />
<glyph horiz-adv-x="276" d="M177 328q-15 -5 -25 -5q-4 0 -4 5l18 81l6 24l27 117q20 89 20 106q0 13 -8 13q-24 0 -75 -77l-5 2q16 37 43.5 69t50.5 32t23 -30q0 -35 -39 -180q40 98 84 154t85 56q12 0 20 -7t8 -17q0 -11 -10 -25q-16 16 -32 16q-35 0 -82 -70.5t-87 -182.5z" />
<glyph horiz-adv-x="283" d="M333 416q0 -40 -31 -66.5t-81 -26.5q-39 0 -64 19t-25 48q0 39 39 65l5 -3q-17 -31 -17 -55q0 -27 18.5 -42t48.5 -15q34 0 56 19t22 52q0 26 -19 51t-41.5 43t-41.5 45t-19 56q0 38 29 63.5t71 25.5q36 0 60 -18t24 -48q0 -33 -32 -63l-5 2q10 32 10 52 q-1 27 -16.5 42.5t-42.5 15.5q-30 0 -49.5 -18t-19.5 -48q0 -26 19 -52t41.5 -44t41.5 -45t19 -55z" />
<glyph horiz-adv-x="228" d="M306 424q-22 -40 -52.5 -70.5t-61.5 -30.5q-17 0 -28.5 10t-11.5 32q0 15 9 53l54 234h-66l1 5l69 12l46 104l5 -1l-24 -104h110l-3 -16h-110l-54 -234q-8 -44 -8 -50q0 -19 19 -19q30 0 101 77z" />
<glyph horiz-adv-x="378" d="M388 545q-44 -102 -93 -162t-90 -60t-41 44q0 23 9.5 65t25 97.5t21.5 79.5q8 34 8 50q0 10 -6 10q-21 0 -78 -77l-5 2q18 38 44.5 69.5t49.5 31.5t23 -34q0 -15 -7 -52q-6 -27 -21 -81t-25 -94.5t-10 -60.5q0 -25 21 -25q36 0 89.5 74t95.5 187l18 81q15 5 25 5 q5 0 3 -5l-50 -222q-20 -89 -20 -106q0 -13 8 -13q24 0 75 77l5 -2q-16 -37 -43.5 -69t-50.5 -32t-23 30q0 40 42 192z" />
<glyph horiz-adv-x="270" d="M169 330q18 185 18 274q0 65 -21 65q-26 0 -71 -77l-5 2q14 40 38.5 70.5t49.5 30.5q38 0 38 -78q0 -80 -20 -250q62 79 105 162.5t43 141.5q0 9 -2 21q9 3 13 3q18 0 18 -28q0 -57 -52.5 -149t-140.5 -189z" />
<glyph horiz-adv-x="439" d="M359 695q21 0 21 -47q0 -104 -17 -283q62 79 105.5 163.5t43.5 142.5q0 9 -2 21q9 3 13 3q19 0 19 -28q0 -58 -53 -150.5t-141 -187.5l-10 1q16 232 17 291q-41 -141 -175 -292l-11 1q18 185 18 274q0 65 -21 65q-22 0 -71 -77l-5 2q16 41 39.5 71t48.5 30q38 0 38 -78 q0 -79 -20 -249q151 187 151 317v7q5 3 12 3z" />
<glyph horiz-adv-x="308" d="M152 322q-3 -2 -13 -2q-21 0 -21 22q0 51 135 167l-19 77q-12 51 -18.5 65.5t-16.5 14.5q-18 0 -67 -77l-6 2q16 41 39 71t44 30q18 0 27 -18.5t24 -78.5l19 -74q34 34 51.5 53.5t35 50t17.5 57.5q0 8 -1 14q3 2 13 2q21 0 21 -22q0 -52 -134 -169l20 -78 q12 -49 18.5 -64.5t16.5 -15.5q20 0 67 77l6 -3q-17 -41 -39 -70.5t-44 -29.5q-18 0 -27 18.5t-24 77.5l-19 77q-34 -33 -52.5 -53t-36 -50.5t-17.5 -56.5q0 -9 1 -14z" />
<glyph horiz-adv-x="287" d="M237 583q0 -116 -44 -239q75 65 119.5 154t44.5 168q0 19 -1 26q6 3 13 3q18 0 18 -29q0 -79 -53.5 -177.5t-148.5 -167.5q-53 -131 -129 -131q-25 0 -40.5 9t-15.5 22q0 15 15 24q16 -35 46 -35q42 0 76.5 63.5t52 147.5t17.5 160q0 88 -27 88q-21 0 -65 -77l-5 2 q14 40 36 70.5t45 30.5q46 0 46 -112z" />
<glyph horiz-adv-x="294" d="M185 347q-37 0 -71 -24l-9 9q108 128 228 292q-76 36 -114 36q-17 0 -30 -16.5t-33 -59.5l-7 3q24 74 38 90q13 15 33 15q45 0 125 -52q9 12 41 55q19 -2 19 -15q0 -8 -9 -18q-168 -209 -245 -301q23 11 48 11q15 0 53 -9.5t48 -9.5q12 0 26.5 17.5t40.5 59.5l6 -4 q-20 -51 -36 -77t-36 -26q-15 0 -55 12t-61 12z" />
<glyph horiz-adv-x="326" d="M43 -67l77 336l15 66l-65 7v4q52 6 94 10l3 -4l-19 -83q-40 -173 -66 -269q40 103 85 163t82 60q51 0 51 -83q0 -64 -23 -129.5t-69 -112.5t-102 -47q-55 0 -79 19zM70 -70v1l-11 -50q24 -12 63 -12q60 0 105 88.5t45 179.5q0 62 -31 62q-33 0 -82.5 -76.5t-88.5 -192.5z " />
<glyph horiz-adv-x="283" d="M250 -41q-18 -43 -52.5 -75.5t-69.5 -32.5q-38 0 -59.5 30t-21.5 84q0 94 51.5 176t114.5 82q29 0 44.5 -19t15.5 -49q0 -26 -8 -46.5t-22 -20.5q-7 0 -12 4q14 30 14 63q0 53 -38 53q-48 0 -89 -79.5t-41 -159.5q0 -44 15 -70t41 -26q52 0 113 89z" />
<glyph horiz-adv-x="347" d="M221 -63l28 119q-39 -93 -83.5 -149t-78.5 -56q-48 0 -48 77q0 65 27.5 132.5t78 115t107.5 47.5q21 0 34 -4l11 50l16 66l-65 7v4q46 6 94 10l3 -4l-95 -415q-8 -34 -8 -50q0 -10 6 -10q21 0 78 77l5 -2q-17 -38 -44 -69.5t-50 -31.5t-23 34q0 15 7 52zM95 -125 q32 0 84.5 80t91.5 196l10 45q-18 9 -45 9q-42 0 -81.5 -44t-63 -108t-23.5 -122q0 -56 27 -56z" />
<glyph horiz-adv-x="197" d="M54 -142q-14 -68 -45.5 -104t-73.5 -36q-28 0 -46 12t-18 30q0 13 11 17q29 -37 58 -37q35 0 53 26t33 90l74 324h-66l1 5l69 12l5 24q14 64 45.5 99.5t74.5 35.5q26 0 45 -12.5t19 -28.5q0 -13 -12 -17q-25 38 -64 38q-54 0 -78 -110l-7 -30h110l-3 -16h-111z" />
<glyph horiz-adv-x="263" d="M225 -191q0 -33 -43.5 -62t-101.5 -29q-53 0 -84 19.5t-31 50.5q0 44 68 79l4 -3q-44 -35 -44 -66q0 -29 23.5 -45.5t67.5 -16.5q43 0 76.5 19t33.5 46q0 16 -18 31t-40 24.5t-40 22.5t-18 26t18 28.5t58 41.5q-10 -3 -22 -3q-35 0 -56.5 23.5t-21.5 66.5 q0 66 40.5 113.5t99.5 47.5q98 0 136 6q3 -5 3 -11q0 -18 -22 -18q-20 0 -86 8q32 -20 32 -73q0 -48 -23.5 -89.5t-51 -63t-51 -41t-23.5 -29.5q0 -8 18.5 -19t40 -21.5t40 -27.5t18.5 -35zM82 64q0 -35 14 -55.5t40 -20.5q35 0 63.5 44.5t28.5 105.5q0 68 -46 68 q-39 0 -69.5 -43.5t-30.5 -98.5z" />
<glyph horiz-adv-x="194" d="M157 295q-22 0 -22 21q0 14 10.5 25t23.5 11q21 0 21 -21q0 -14 -9.5 -25t-23.5 -11zM44 120l-5 2q19 39 45.5 70t49.5 31t23 -34q0 -32 -33.5 -154.5t-33.5 -147.5q0 -10 6 -10q21 0 78 77l4 -2q-18 -38 -44.5 -69.5t-49.5 -31.5t-23 34q0 31 33.5 152t33.5 150 q0 10 -6 10q-21 0 -78 -77z" />
<glyph horiz-adv-x="342" d="M202 -277q-2 0 -13 -2.5t-12 -2.5q-6 0 -4 5l18 81q21 91 65 271q-40 -101 -86.5 -162.5t-82.5 -61.5q-48 0 -48 77q0 65 27.5 132.5t77.5 115t108 47.5q37 0 62 -15l-17 -66l-77 -338zM67 -69q0 -56 28 -56q32 0 84.5 80t91.5 196v-1l10 46q-19 9 -45 9q-42 0 -82 -44 t-63.5 -108t-23.5 -122z" />
<glyph horiz-adv-x="276" d="M77 -144q-15 -5 -25 -5q-4 0 -4 5l18 81l6 24l27 117q20 89 20 106q0 13 -8 13q-24 0 -75 -77l-5 2q16 37 43.5 69t50.5 32t23 -30q0 -35 -39 -180q40 98 84 154t85 56q12 0 20 -7t8 -17q0 -11 -10 -25q-16 16 -32 16q-35 0 -82 -70.5t-87 -182.5z" />
<glyph horiz-adv-x="378" d="M288 73q-44 -102 -93 -162t-90 -60t-41 44q0 23 9.5 65t25 97.5t21.5 79.5q8 34 8 50q0 10 -6 10q-21 0 -78 -77l-5 2q18 38 44.5 69.5t49.5 31.5t23 -34q0 -15 -7 -52q-6 -27 -21 -81t-25 -94.5t-10 -60.5q0 -25 21 -25q36 0 89.5 74t95.5 187l18 81q15 5 25 5q5 0 3 -5 l-50 -222q-20 -89 -20 -106q0 -13 8 -13q24 0 75 77l5 -2q-16 -37 -43.5 -69t-50.5 -32t-23 30q0 40 42 192z" />
<glyph horiz-adv-x="271" d="M69 -142q18 185 18 274q0 65 -21 65q-26 0 -71 -77l-5 2q14 40 38.5 70.5t49.5 30.5q38 0 38 -78q0 -80 -20 -250q62 79 105 162.5t43 141.5q0 9 -2 21q9 3 13 3q18 0 18 -28q0 -57 -52.5 -149t-140.5 -189z" />
<glyph horiz-adv-x="440" d="M259 223q21 0 21 -47q0 -104 -17 -283q62 79 105.5 163.5t43.5 142.5q0 9 -2 21q9 3 13 3q19 0 19 -28q0 -58 -53 -150.5t-141 -187.5l-10 1q16 232 17 291q-41 -141 -175 -292l-11 1q18 185 18 274q0 65 -21 65q-22 0 -71 -77l-5 2q16 41 39.5 71t48.5 30q38 0 38 -78 q0 -79 -20 -249q151 187 151 317v7q5 3 12 3z" />
<glyph horiz-adv-x="286" d="M136 111q0 -116 -44 -239q75 65 119.5 154t44.5 168q0 19 -1 26q6 3 13 3q18 0 18 -29q0 -79 -53.5 -177.5t-148.5 -167.5q-53 -131 -129 -131q-25 0 -40.5 9t-15.5 22q0 15 15 24q16 -35 46 -35q42 0 76.5 63.5t52 147.5t17.5 160q0 88 -27 88q-21 0 -65 -77l-5 2 q14 40 36 70.5t45 30.5q46 0 46 -112z" />
<glyph horiz-adv-x="294" d="M84 -125q-36 0 -71 -24l-9 9q108 128 228 292q-76 36 -114 36q-17 0 -30 -16.5t-33 -59.5l-7 3q24 74 38 90q13 15 33 15q45 0 125 -52q9 12 41 55q19 -2 19 -15q0 -7 -9 -18q-168 -209 -245 -301q23 11 48 11q15 0 53 -9.5t48 -9.5q12 0 26.5 17.5t40.5 59.5l6 -4 q-20 -51 -36 -77t-36 -26q-14 0 -55 12t-61 12z" />
<glyph horiz-adv-x="513" d="M537 438q0 -105 -35 -208t-99 -171.5t-139 -68.5q-73 0 -111.5 57t-38.5 158q0 109 35.5 213t100.5 173t141 69q72 0 109 -59.5t37 -162.5zM146 214q0 -93 31 -148.5t88 -55.5q66 0 122.5 68.5t87 166t30.5 191.5q0 95 -28.5 149.5t-86.5 54.5q-67 0 -124.5 -68.5 t-88.5 -166t-31 -191.5z" />
<glyph horiz-adv-x="348" d="M306 0h-262v10l103 12q18 3 22 17l128 592l-119 -15v7l150 37l6 -7l-133 -614l-3 -13l109 -16z" />
<glyph horiz-adv-x="470" d="M160 20q-64 0 -107 -30l-12 15q238 200 331 310.5t93 199.5q0 55 -31.5 86.5t-87.5 31.5t-106.5 -38.5t-82.5 -105.5l-7 3q23 77 79 122.5t124 45.5q66 0 105 -38.5t39 -104.5q0 -46 -22 -94.5t-69 -103t-91.5 -98.5t-116.5 -108q-67 -58 -94 -80q33 13 74 13 q37 0 114.5 -12t91.5 -12q5 0 10 2.5t9 8t7.5 10.5t7.5 15.5t6.5 16t7 18.5t6.5 18l7 -2q-9 -48 -17 -74q-13 -45 -42 -45q-22 0 -104.5 15t-121.5 15z" />
<glyph horiz-adv-x="419" d="M414 217q0 -92 -99 -154t-260 -73l-1 14q152 21 240 75t88 140q0 56 -41.5 85t-107.5 29q-15 0 -49 -2l-2 19q118 13 184 64t66 125q0 44 -26.5 69.5t-75.5 25.5q-54 0 -99.5 -33t-74.5 -92l-7 3q21 67 73.5 107.5t113.5 40.5q57 0 92 -33t35 -88q0 -65 -54.5 -117.5 t-139.5 -71.5q65 -7 105 -42t40 -91z" />
<glyph horiz-adv-x="502" d="M75 200l405 460l19 -5l-96 -451l107 1l-7 -30l-106 1l-37 -176h-30l38 176l-285 2zM460 608l-352 -407l265 3z" />
<glyph horiz-adv-x="441" d="M433 244q0 -102 -103 -175.5t-256 -78.5l-1 14q141 15 234.5 80.5t93.5 157.5q0 114 -139 114q-53 0 -98 -15l-13 12l68 300q28 -1 77 -2.5t87 -2.5t65 -1q21 0 32 10.5t23 35.5l7 -2q-9 -41 -21.5 -58.5t-41.5 -17.5q-79 0 -212 9l-58 -257q50 13 91 13q80 0 122.5 -35 t42.5 -101z" />
<glyph horiz-adv-x="485" d="M120 172q0 187 122.5 325.5t300.5 162.5l1 -14q-146 -28 -254 -135.5t-135 -251.5q29 61 82.5 97.5t109.5 36.5q65 0 102.5 -44t37.5 -123q0 -95 -61 -165.5t-146 -70.5q-75 0 -117.5 49.5t-42.5 132.5zM455 224q0 71 -30 110t-86 39q-66 0 -126 -61t-61 -142 q-1 -74 33 -117t97 -43q76 0 124.5 63.5t48.5 150.5z" />
<glyph horiz-adv-x="425" d="M181 -3q-4 -7 -15 -7q-10 0 -17 9q248 417 326 578q-68 22 -143 37t-115 15q-31 0 -47 -19.5t-30 -64.5l-8 1q7 33 11.5 48t13 33.5t21 25.5t31.5 7q88 0 274 -65q19 38 30 65q12 -5 12 -19q0 -24 -130 -265t-214 -379z" />
<glyph horiz-adv-x="472" d="M447 165q0 -74 -57.5 -124.5t-140.5 -50.5q-68 0 -115 37t-47 99q0 133 201 212q-49 40 -75.5 76t-26.5 85q0 66 51 113.5t126 47.5q65 0 102.5 -35.5t37.5 -91.5q0 -115 -171 -197q38 -31 57.5 -49t38.5 -52t19 -70zM216 500q0 -45 25.5 -78.5t74.5 -72.5 q158 69 158 184q0 48 -30 77.5t-80 29.5q-62 0 -105 -40.5t-43 -99.5zM116 128q0 -54 39.5 -86t95.5 -32q74 0 120 43.5t46 110.5q0 34 -19.5 66t-37 48t-57.5 48q-187 -77 -187 -198z" />
<glyph horiz-adv-x="489" d="M507 478q0 -187 -122.5 -325.5t-300.5 -162.5l-1 14q146 28 254 135.5t135 251.5q-29 -61 -82.5 -97.5t-109.5 -36.5q-65 0 -102.5 44t-37.5 123q0 95 61 165.5t146 70.5q75 0 117.5 -49.5t42.5 -132.5zM172 426q0 -71 30 -110t86 -39q66 0 126 61t61 142q1 74 -33 117 t-97 43q-76 0 -124.5 -63.5t-48.5 -150.5z" />
<glyph horiz-adv-x="473" d="M477 321q-2 -124 -69.5 -227.5t-160.5 -103.5q-65 0 -104.5 51t-39.5 140q0 125 71.5 226.5t165.5 101.5q63 0 100.5 -50t36.5 -138zM135 183q0 -79 33 -126t81 -47q51 0 96.5 48t72 121t27.5 147q1 76 -28 119.5t-80 43.5q-83 0 -142.5 -97t-59.5 -209z" />
<glyph horiz-adv-x="348" d="M306 0h-262v10l103 12q18 3 22 17l94 442l-119 -15v7l150 37l6 -7l-99 -464l-3 -13l109 -16z" />
<glyph horiz-adv-x="422" d="M143 20q-51 0 -90 -30l-12 15q190 142 267 226.5t77 154.5q0 44 -28 71t-71 27q-98 0 -161 -125l-7 3q21 69 67 108.5t108 39.5q53 0 88 -34t35 -90q0 -60 -49.5 -122.5t-160.5 -153.5q-36 -31 -94 -74q22 10 56 10q28 0 92 -12t75 -12q5 0 10 2t9 7t7.5 10t7 13.5t6 14 t7 16t6.5 16.5l7 -2q-7 -37 -18 -75q-9 -34 -40 -34q-17 0 -86 15t-108 15z" />
<glyph horiz-adv-x="419" d="M382 67q0 -92 -99 -154t-260 -73l-1 14q152 21 240 75t88 140q0 56 -41.5 85t-107.5 29q-15 0 -49 -2l-2 19q118 13 184 64t66 125q0 44 -26.5 69.5t-75.5 25.5q-54 0 -99.5 -33t-74.5 -92l-7 3q21 67 73.5 107.5t113.5 40.5q57 0 92 -33t35 -88q0 -65 -54.5 -117.5 t-139.5 -71.5q65 -7 105 -42t40 -91z" />
<glyph horiz-adv-x="502" d="M43 50l405 460l19 -5l-96 -451l107 1l-7 -30l-106 1l-37 -176h-30l38 176l-285 2zM428 458l-352 -407l265 3z" />
<glyph horiz-adv-x="441" d="M401 94q0 -102 -103 -175.5t-256 -78.5l-1 14q141 15 234.5 80.5t93.5 157.5q0 114 -139 114q-53 0 -98 -15l-13 12l68 300q28 -1 77 -2.5t87 -2.5t65 -1q21 0 32 10.5t23 35.5l7 -2q-9 -41 -21.5 -58.5t-41.5 -17.5q-79 0 -212 9l-58 -257q50 13 91 13q80 0 122.5 -35 t42.5 -101z" />
<glyph horiz-adv-x="489" d="M120 172q0 187 122.5 325.5t300.5 162.5l1 -14q-146 -28 -254 -135.5t-135 -251.5q29 61 82.5 97.5t109.5 36.5q65 0 102.5 -44t37.5 -123q0 -95 -61 -165.5t-146 -70.5q-75 0 -117.5 49.5t-42.5 132.5zM455 224q0 71 -30 110t-86 39q-66 0 -126 -61t-61 -142 q-1 -74 33 -117t97 -43q76 0 124.5 63.5t48.5 150.5z" />
<glyph horiz-adv-x="438" d="M168 -153q-4 -7 -15 -7q-10 0 -17 9q248 417 326 578q-68 22 -143 37t-115 15q-31 0 -47 -19.5t-30 -64.5l-8 1q7 33 11.5 48t13 33.5t21 25.5t31.5 7q88 0 274 -65q19 37 30 65q12 -5 12 -19q0 -24 -130 -265t-214 -379z" />
<glyph horiz-adv-x="463" d="M436 165q0 -74 -57.5 -124.5t-140.5 -50.5q-68 0 -115 37t-47 99q0 133 201 212q-49 40 -75.5 76t-26.5 85q0 66 51 113.5t126 47.5q65 0 102.5 -35.5t37.5 -91.5q0 -115 -171 -197q38 -31 57.5 -49t38.5 -52t19 -70zM205 500q0 -45 25.5 -78.5t74.5 -72.5 q158 69 158 184q0 48 -30 77.5t-80 29.5q-62 0 -105 -40.5t-43 -99.5zM105 128q0 -54 39.5 -86t95.5 -32q74 0 120 43.5t46 110.5q0 34 -19.5 66t-37 48t-57.5 48q-187 -77 -187 -198z" />
<glyph horiz-adv-x="541" d="M487 328q0 -187 -122.5 -325.5t-300.5 -162.5l-1 14q146 28 254 135.5t135 251.5q-29 -61 -82.5 -97.5t-109.5 -36.5q-65 0 -102.5 44t-37.5 123q0 95 61 165.5t146 70.5q75 0 117.5 -49.5t42.5 -132.5zM152 276q0 -71 30 -110t86 -39q66 0 126 61t61 142q1 74 -33 117 t-97 43q-76 0 -124.5 -63.5t-48.5 -150.5z" />
<glyph horiz-adv-x="361" d="M409 525q0 -94 -44 -167t-114 -73q-47 0 -73 36t-26 96q0 93 44 166t114 73q47 0 73 -36t26 -95zM180 417q0 -52 18.5 -81.5t55.5 -29.5q40 0 70 34t43.5 82.5t13.5 101.5q0 52 -18.5 81.5t-55.5 29.5q-40 0 -70 -34t-43.5 -82.5t-13.5 -101.5z" />
<glyph horiz-adv-x="278" d="M283 288h-165v6l60 7q12 1 15 11l69 321l-72 -8v6l101 25l4 -4l-73 -340l-2 -9l64 -9z" />
<glyph horiz-adv-x="348" d="M197 304q-43 0 -69 -21l-8 14q142 107 194.5 161.5t52.5 106.5q0 32 -20 50t-56 18q-33 0 -63 -21t-48 -58l-6 2q14 45 49 71.5t79 26.5q42 0 67.5 -23t25.5 -62q0 -22 -10 -45.5t-22 -41t-39 -43.5t-43.5 -40t-53.5 -44q-29 -24 -51 -37q16 6 40 6q19 0 62.5 -8.5 t51.5 -8.5q5 0 8.5 2.5t7.5 8.5t6 10t6 14.5t6 14.5l4 -1q-1 -7 -11 -46q-10 -27 -27 -27q-16 0 -63.5 10.5t-69.5 10.5z" />
<glyph horiz-adv-x="323" d="M352 406q0 -52 -61 -85t-163 -39l-2 13q197 24 197 110q0 31 -26 47.5t-66 16.5q-16 0 -30 -1l-2 13q71 7 110 34t39 66q0 24 -16.5 39t-46.5 15q-68 0 -104 -68l-4 2q11 39 42.5 63t70.5 24q40 0 63 -20.5t23 -54.5t-29.5 -61.5t-76.5 -38.5q37 -6 59.5 -26t22.5 -49z " />
<glyph horiz-adv-x="384" d="M141 401l245 255l17 -4l-52 -248l63 1l-5 -22h-63l-20 -95h-28l20 96l-173 1zM368 615l-202 -213l157 2z" />
<glyph horiz-adv-x="315" d="M346 420q0 -59 -61 -97t-165 -41l-1 13q93 8 147 41t54 84q0 60 -84 60q-34 0 -62 -9l-9 9l39 172q19 0 71.5 -2t74.5 -2t35 27l5 -1q-5 -19 -8.5 -28t-11.5 -15.5t-22 -6.5q-45 0 -129 6l-31 -136q26 6 54 6q104 0 104 -80z" />
<glyph horiz-adv-x="351" d="M147 401q0 104 71 173.5t181 81.5l1 -13q-90 -17 -152 -71.5t-76 -130.5q17 32 47 49.5t63 17.5q43 0 70 -28t27 -71q0 -52 -36.5 -89.5t-91.5 -37.5q-48 0 -76 34.5t-28 84.5zM353 406q0 35 -20 58.5t-53 23.5q-39 0 -73 -29t-34 -67q0 -37 21 -64t59 -27q44 0 72 31 t28 74z" />
<glyph horiz-adv-x="350" d="M224 289q-5 -7 -13 -7q-9 0 -13 8q123 188 189 309q-107 33 -154 33q-20 0 -30 -11t-18 -37l-5 1q8 38 17.5 54.5t33.5 16.5q56 0 165 -41q7 13 21 41q14 -3 14 -13q0 -14 -79.5 -149t-127.5 -205z" />
<glyph horiz-adv-x="333" d="M356 382q0 -40 -36 -70t-87 -30q-44 0 -71.5 21t-27.5 56q0 38 30.5 68t85.5 47q-28 21 -43.5 41t-15.5 48q0 39 29.5 66t74.5 27q39 0 62.5 -21.5t23.5 -53.5q0 -68 -94 -105q23 -17 34.5 -26.5t23 -28.5t11.5 -39zM217 565q0 -17 9 -33t19.5 -25t28.5 -23q80 36 80 94 q0 27 -16 44t-43 17q-33 0 -55.5 -20.5t-22.5 -53.5zM160 362q0 -30 20.5 -46.5t55.5 -16.5q41 0 67.5 23t26.5 57q0 18 -12 35.5t-23 26t-34 25.5q-101 -41 -101 -104z" />
<glyph horiz-adv-x="351" d="M403 537q0 -104 -71 -173.5t-181 -81.5l-1 13q90 17 152 71.5t76 130.5q-17 -32 -47 -49.5t-63 -17.5q-43 0 -70 28t-27 71q0 52 36.5 89.5t91.5 37.5q48 0 76 -34.5t28 -84.5zM197 532q0 -35 20 -58.5t53 -23.5q39 0 73 29t34 67q0 37 -21 64t-59 27q-44 0 -72 -31 t-28 -74z" />
<glyph horiz-adv-x="362" d="M348 237q0 -94 -44 -167t-114 -73q-47 0 -73 36t-26 96q0 93 44 166t114 73q47 0 73 -36t26 -95zM119 129q0 -52 18.5 -81.5t55.5 -29.5q40 0 70 34t43.5 82.5t13.5 101.5q0 52 -18.5 81.5t-55.5 29.5q-40 0 -70 -34t-43.5 -82.5t-13.5 -101.5z" />
<glyph horiz-adv-x="278" d="M222 0h-165v6l60 7q12 1 15 11l69 321l-72 -8v6l101 25l4 -4l-73 -340l-2 -9l64 -9z" />
<glyph horiz-adv-x="349" d="M136 16q-44 0 -69 -21l-8 14q142 107 194.5 161.5t52.5 106.5q0 32 -20 50t-56 18q-33 0 -63 -21t-48 -58l-6 2q14 45 49 71.5t79 26.5q42 0 67.5 -23t25.5 -62q0 -22 -10 -45.5t-22 -41t-39 -43.5t-43.5 -40t-53.5 -44q-29 -24 -51 -37q16 6 40 6q19 0 62.5 -8.5 t51.5 -8.5q5 0 8.5 2.5t7.5 8.5t6 10t6 14.5t6 14.5l4 -1q-1 -7 -11 -46q-10 -27 -27 -27q-16 0 -63.5 10.5t-69.5 10.5z" />
<glyph horiz-adv-x="324" d="M291 118q0 -52 -61 -85t-163 -39l-2 13q197 24 197 110q0 31 -26 47.5t-66 16.5q-16 0 -30 -1l-2 13q71 7 110 34t39 66q0 24 -16.5 39t-46.5 15q-68 0 -104 -68l-4 2q11 39 42.5 63t70.5 24t62.5 -20.5t23.5 -54.5t-29.5 -61.5t-76.5 -38.5q37 -6 59.5 -26t22.5 -49z " />
<glyph horiz-adv-x="384" d="M80 113l245 255l17 -4l-52 -248l63 1l-5 -22h-63l-20 -95h-28l20 96l-173 1zM307 327l-202 -213l157 2z" />
<glyph horiz-adv-x="314" d="M284 132q0 -59 -61 -97t-165 -41l-1 13q93 8 147 41t54 84q0 60 -84 60q-34 0 -62 -9l-9 9l39 172q19 0 71.5 -2t74.5 -2t35 27l5 -1q-5 -19 -8.5 -28t-11.5 -15.5t-22 -6.5q-45 0 -129 6l-31 -136q26 6 54 6q104 0 104 -80z" />
<glyph horiz-adv-x="351" d="M86 113q0 104 71 173.5t181 81.5l1 -13q-90 -17 -152 -71.5t-76 -130.5q17 32 47 49.5t63 17.5q43 0 70 -28t27 -71q0 -52 -36.5 -89.5t-91.5 -37.5q-48 0 -76 34.5t-28 84.5zM292 118q0 35 -20 58.5t-53 23.5q-39 0 -73 -29t-34 -67q0 -37 21 -64t59 -27q44 0 72 31 t28 74z" />
<glyph horiz-adv-x="351" d="M163 1q-5 -7 -13 -7q-9 0 -13 8q123 188 189 309q-107 33 -154 33q-20 0 -30 -11t-18 -37l-5 1q8 38 17.5 54.5t33.5 16.5q56 0 165 -41q7 13 21 41q14 -3 14 -13q0 -14 -79.5 -149t-127.5 -205z" />
<glyph horiz-adv-x="333" d="M295 94q0 -40 -36 -70t-87 -30q-44 0 -71.5 21t-27.5 56q0 38 30.5 68t85.5 47q-28 21 -43.5 41t-15.5 48q0 39 29.5 66t74.5 27q39 0 62.5 -21.5t23.5 -53.5q0 -68 -94 -105q23 -17 34.5 -26.5t23 -28.5t11.5 -39zM156 277q0 -17 9 -33t19.5 -25t28.5 -23q80 36 80 94 q0 27 -16 44t-43 17q-33 0 -55.5 -20.5t-22.5 -53.5zM99 74q0 -30 20.5 -46.5t55.5 -16.5q41 0 67.5 23t26.5 57q0 18 -12 35.5t-23 26t-34 25.5q-101 -41 -101 -104z" />
<glyph horiz-adv-x="351" d="M342 249q0 -104 -71 -173.5t-181 -81.5l-1 13q90 17 152 71.5t76 130.5q-17 -32 -47 -49.5t-63 -17.5q-43 0 -70 28t-27 71q0 52 36.5 89.5t91.5 37.5q48 0 76 -34.5t28 -84.5zM136 244q0 -35 20 -58.5t53 -23.5q39 0 73 29t34 67q0 37 -21 64t-59 27q-44 0 -72 -31 t-28 -74z" />
<glyph horiz-adv-x="397" d="M219 -120l-25 -2l-4 5l23 108q-44 4 -67.5 45t-23.5 111q0 83 29 166.5t77.5 138.5t100.5 58l24 110l25 2l4 -5l-24 -111q51 -16 51 -88q0 -36 -9.5 -64.5t-26.5 -28.5q-8 0 -13 4q18 40 18 84q0 77 -51 77q-42 0 -83 -54.5t-65.5 -134t-24.5 -153.5q0 -62 19 -98t53 -36 q35 0 74.5 36.5t72.5 92.5l6 -4q-21 -52 -58.5 -94.5t-77.5 -52.5z" />
<glyph horiz-adv-x="555" d="M488 117l-61 79q-53 -43 -117 -43q-62 0 -99 37l-88 -74l-20 24l90 74q-20 34 -20 77q0 87 66 148l-58 75l25 21q19 -25 59 -75q49 33 107 33q60 0 96 -39l97 81l20 -24l-99 -81q19 -36 19 -79q0 -73 -55 -134q9 -11 63 -75l-2 -8zM367 466q-69 0 -116 -51.5t-47 -119.5 q0 -52 28.5 -83.5t79.5 -31.5q68 0 114.5 50.5t46.5 114.5q0 121 -106 121z" />
</font>
</defs>
</svg>
