<?xml version="1.0" standalone="no"?>
<!DOCTYPE svg PUBLIC "-//W3C//DTD SVG 1.1//EN" "http://www.w3.org/Graphics/SVG/1.1/DTD/svg11.dtd" >
<svg xmlns="http://www.w3.org/2000/svg" xmlns:xlink="http://www.w3.org/1999/xlink" version="1.1">
<metadata></metadata>
<defs>
<font id="indivisa_text_sansLtIt" horiz-adv-x="560" >
<font-face units-per-em="1000" ascent="755" descent="-245" />
<missing-glyph horiz-adv-x="260" />
<glyph unicode="&#x2f;symbol&#x33;&#x2f;" horiz-adv-x="957" d="M505 638l68 -270h270l-203 -135l136 -270l-271 135l-270 -270l135 405l-270 203l338 -68zM814 87q18 0 30.5 -12.5t12.5 -31.5q0 -18 -12.5 -30.5t-30.5 -12.5t-30.5 12.5t-12.5 30.5q0 19 12.5 31.5t30.5 12.5zM854 43q0 17 -11.5 29t-28.5 12t-28.5 -12t-11.5 -29 t12 -28.5t28 -11.5t28 11.5t12 28.5zM796 68h18q8 0 11 -2q6 -3 6 -10q0 -5 -4 -9q-3 -3 -6 -3q7 -3 8 -10q2 -14 3 -16h-7q-1 2 -2 7.5t-1 6.5q0 9 -10 9h-9v-23h-7v50zM803 47h10q5 0 7 1q3 3 3 6q0 9 -10 9h-10v-16z" />
<glyph unicode="&#x2f;symbol&#x32;&#x2f;" horiz-adv-x="932" d="M494 570l52 -90l-137 -240h-103l137 240l-52 90h103zM357 570l52 -90l-138 -240h-103l138 240l-52 90h103zM752 120h-103l-137 240l51 90l137 -240h103zM683 0h-103l-137 240l51 90l138 -240h103zM100 120l51 90h275l51 -90h-274l-52 -90zM168 0l52 90h274l52 -90h-275 l-51 -90zM789 88q18 0 30.5 -13t12.5 -31t-12.5 -31t-30.5 -13t-30.5 13t-12.5 31t12.5 31t30.5 13zM829 44q0 16 -11.5 28t-28.5 12t-28.5 -12t-11.5 -28t11.5 -28t28.5 -12t28.5 12t11.5 28zM771 69h18q7 0 11 -2q5 -4 5 -11q0 -5 -3 -8q-1 -2 -6 -4q7 -1 8 -9q0 -8 3 -16 h-8q-1 2 -1.5 6.5t-0.5 6.5q-1 10 -11 10h-8v-23h-7v50zM778 47h10q5 0 7 1q3 3 3 7q0 8 -10 8h-10v-16z" />
<glyph unicode="&#x2f;symbol&#x35;&#x2f;" horiz-adv-x="705" d="M232 -6l-132 136l124 234l129 -136zM474 -6l-121 234l128 136l124 -234z" />
<glyph unicode="&#x2f;symbol&#x31;&#x2f;" horiz-adv-x="5534" d="M1865 412q-25 0 -40.5 14.5t-15.5 37.5q0 35 32.5 64t70.5 29q24 0 39 -13.5t15 -37.5q0 -36 -31 -65t-70 -29zM1284 412q-26 0 -41.5 14.5t-15.5 37.5q0 35 33 64t71 29q24 0 38.5 -13.5t14.5 -37.5q0 -36 -31 -65t-69 -29zM959 0q0 42 11 108q-16 -50 -51.5 -82.5 t-78.5 -32.5q-41 0 -63 29.5t-22 82.5q0 62 27 121t84 101t132 42q17 0 25 -1l16 73l6 102l136 7q0 -67 -46 -273t-46 -277h-130zM100 0l78 364q17 86 21 136l128 7l11 -15l-104 -492h-134zM3503 492l-57 -492h-131l20 175q5 50 33 215h-3q-31 -102 -81 -215l-76 -175h-149 l-2 175q-2 121 9 215h-2q-32 -130 -59 -215l-53 -175h-109l154 500l184 6l1 -137q2 -134 -15 -259h2q39 126 94 259l56 131l169 7zM5316 300q-37 -177 -37 -183q0 -34 36 -34q25 0 59 18l-9 -79q-52 -29 -114 -29q-105 0 -105 100q0 20 40 210l-47 1l9 44l54 14l53 95l81 6 l13 -15l-20 -86h99l6 -14l-17 -51zM336 0q0 79 41 260l6 102l137 7q0 -31 -7 -89h2q52 89 134 89q34 0 53 -19.5t19 -51.5q0 -27 -26 -147q-18 -85 -18 -151h-131q0 55 19 150q15 78 15 87q0 24 -17 24q-34 0 -64 -82.5t-32 -178.5h-131zM1170 0q0 72 27 193l14 67l6 102 l137 7q0 -46 -27 -177t-27 -192h-130zM1399 362l140 7q13 -129 -5 -289h2q76 151 91 284q22 5 50 5q32 0 48.5 -8.5t16.5 -33.5q0 -46 -51 -147.5t-116 -179.5h-149q-5 228 -27 362zM1752 0q0 69 26 193l15 67l6 102l137 7q0 -46 -27 -177t-27 -192h-130zM4716 0 q0 79 41 260l6 102l137 7q0 -12 -7 -89h2q52 89 134 89q34 0 53 -19.5t19 -51.5q0 -27 -26 -147q-19 -90 -19 -151h-130q0 55 19 150q15 78 15 87q0 24 -17 24q-35 0 -65 -82t-32 -179h-130zM2245 256q-52 30 -97 30q-18 0 -30 -7t-12 -19q0 -14 20 -26.5t44 -22t44 -33 t20 -56.5q0 -57 -53 -93t-128 -36q-78 0 -118 28l27 93q57 -38 111 -38q19 0 29.5 7.5t10.5 18.5q0 13 -20 26t-44 23t-44 33t-20 55q0 56 54.5 93t128.5 37q58 0 104 -18zM2525 369q88 0 146 -32l-29 -128q-31 -145 -31 -209h-130q0 37 12 112q-15 -52 -51 -85.5t-81 -33.5 q-41 0 -62.5 29.5t-21.5 83.5q0 62 26.5 120.5t85 100.5t136.5 42zM4653 51q-67 -58 -159 -58q-65 0 -103.5 35t-38.5 102q0 94 68.5 166.5t167.5 72.5q54 0 86.5 -23.5t32.5 -64.5q0 -57 -60 -96.5t-161 -43.5v-1q0 -64 63 -64q42 0 90 28zM3936 0q0 74 42 260l5 102l137 7 q0 -31 -7 -89h2q53 89 134 89q34 0 53 -19.5t19 -51.5q0 -27 -26 -147q-18 -85 -18 -151h-131q0 55 19 150q15 71 15 87q0 24 -17 24q-34 0 -64 -82.5t-32 -178.5h-131zM3768 369q87 0 145 -32l-28 -128q-31 -145 -31 -209h-130q0 45 12 112q-15 -52 -51 -85.5t-81 -33.5 q-41 0 -63 29.5t-22 83.5q0 46 16 91.5t46 84t79 63t108 24.5zM4490 177q47 10 73 34t26 59q0 31 -22 31q-28 0 -48.5 -38.5t-28.5 -85.5zM3677 101q23 0 47 43t38 101q1 8 4.5 24.5t4.5 19.5q-16 8 -27 8q-34 0 -62.5 -54.5t-28.5 -101.5q0 -40 24 -40zM913 101 q22 0 44.5 39.5t37.5 94.5q1 9 8 40l3 14q-14 8 -27 8q-33 0 -61.5 -54.5t-28.5 -101.5q0 -40 24 -40zM2435 101q23 0 47 43.5t37 100.5q3 14 9 44q-14 8 -27 8q-34 0 -62 -54.5t-28 -101.5q0 -40 24 -40z" />
<glyph unicode="&#x2f;symbol&#x34;&#x2f;" horiz-adv-x="2607" d="M1684 406q0 65 -11 128l126 14l15 -15v-533h-130v406zM1889 406q0 62 -10 128l126 14l14 -15v-533h-130v406zM427 101v-101h-320v362q0 80 -7 135l126 7l14 -14v-396zM925 21l7 109q62 -36 144 -36q50 0 50 36q0 20 -31.5 41.5t-69 40.5t-69 57t-31.5 88q0 69 55 108 t138 39q80 0 127 -18l-14 -111q-56 29 -111 29q-27 0 -42.5 -11t-15.5 -29q0 -20 20.5 -38t50 -34t59.5 -35t50.5 -51t20.5 -72q0 -66 -53.5 -103.5t-139.5 -37.5q-41 0 -83.5 8t-61.5 20zM795 0l-106 -7q-11 16 -21 49h-4q-34 -49 -104 -49q-43 0 -70 23t-27 66 q0 113 191 118v20q0 54 -58 54q-55 0 -108 -29l-8 97q72 26 150 26q154 0 154 -135q0 -25 -2 -69t-2 -70q0 -51 15 -94zM1626 0l-107 -7q-12 20 -21 49h-3q-34 -49 -105 -49q-43 0 -69.5 23t-26.5 66q0 113 191 118v20q0 54 -58 54q-54 0 -109 -29l-7 97q72 26 150 26 q153 0 153 -135q0 -25 -1.5 -69.5t-1.5 -69.5q0 -51 15 -94zM2405 213q0 -24 -1 -36l-11 -11h-191q14 -83 98 -83q44 0 84 21l7 -81q-46 -30 -127 -30q-90 0 -144 47.5t-54 134.5q0 85 52 139t132 54q72 0 113.5 -43t41.5 -112zM2199 207l78 4q2 14 2 26q0 59 -34 59 q-44 0 -46 -89zM654 74v88q-29 -3 -47 -18t-18 -39q0 -18 10 -29t27 -11q16 0 28 9zM1485 74v88q-29 -3 -47 -18t-18 -39q0 -18 10 -29t27 -11q16 0 28 9zM2464 85q18 0 30.5 -13t12.5 -31t-12.5 -31t-30.5 -13t-31 13t-13 31t13 31t31 13zM2504 41q0 17 -12 28.5t-28 11.5 t-28 -11.5t-12 -28.5t12 -28.5t28 -11.5t28 11.5t12 28.5zM2446 66h18q7 0 11 -3q5 -3 5 -10q0 -5 -3 -9q-3 -3 -6 -3q7 -1 8 -10q0 -7 3 -15h-8q-1 2 -1.5 6.5t-0.5 6.5q-1 9 -11 9h-8v-22h-7v50zM2453 44h10q5 0 7 1q3 3 3 7q0 8 -10 8h-10v-16z" />
<glyph unicode=" "  horiz-adv-x="260" />
<glyph unicode="&#x09;" horiz-adv-x="260" />
<glyph unicode="&#xa0;" horiz-adv-x="260" />
<glyph unicode="!" horiz-adv-x="257" d="M129 190h-31q27 140 60 304t38 191l44 10l4 -5q-57 -249 -115 -500zM119 51q0 -24 -15 -42.5t-34 -18.5q-27 0 -27 30q0 23 15.5 41.5t33.5 18.5q27 0 27 -29z" />
<glyph unicode="&#x22;" horiz-adv-x="228" d="M191 755l4 -5l-64 -229h-20l37 234h43zM291 755l4 -5l-64 -229h-20l37 234h43z" />
<glyph unicode="#" horiz-adv-x="719" d="M185 -10l-27 2l-7 8l71 155h-141l-6 8l11 28h153l73 158h-147l-7 8l11 28h159l74 160l28 -2l6 -8l-69 -150h179l74 160l28 -2l6 -8l-69 -150h136l6 -8l-9 -28h-150l-72 -158h147l6 -8l-10 -28h-160l-76 -165l-27 2l-7 8l71 155h-179zM278 191h179l73 158h-180z" />
<glyph unicode="$" horiz-adv-x="460" d="M136 -140l-6 8l26 122h-2q-81 0 -141 35l17 43q54 -40 136 -40q73 0 122 39t49 106q0 36 -15.5 66.5t-39 51t-51 44t-51 44.5t-39 52.5t-15.5 68.5q0 73 54 127t135 65l27 130l23 3l6 -8l-26 -122h7q78 0 129 -33l-17 -43q-48 38 -121 38q-75 0 -123 -43t-48 -106 q0 -39 21.5 -72t52.5 -57t62 -49.5t52.5 -62.5t21.5 -82q0 -78 -55.5 -131t-140.5 -62l-27 -129z" />
<glyph unicode="%" horiz-adv-x="936" d="M436 558q0 -99 -59 -181.5t-149 -82.5q-55 0 -84.5 36t-29.5 103q0 100 59 181.5t148 81.5q56 0 85.5 -35.5t29.5 -102.5zM734 695l-422 -705h-40l421 705h41zM152 436q0 -112 85 -112q72 0 116.5 73t44.5 158q0 111 -85 111q-72 0 -116.5 -73t-44.5 -157zM848 186 q0 -99 -59 -181.5t-149 -82.5q-55 0 -84.5 36t-29.5 103q0 100 59 181.5t148 81.5q56 0 85.5 -35.5t29.5 -102.5zM564 64q0 -112 85 -112q72 0 116.5 73t44.5 158q0 111 -85 111q-72 0 -116.5 -73t-44.5 -157z" />
<glyph unicode="&#x26;" horiz-adv-x="753" d="M681 57q0 -53 -54 -67l-7 7q18 22 18 56q0 30 -26 55.5t-76 54.5q-50 -79 -119 -126t-151 -47q-85 0 -132.5 48.5t-47.5 120.5q0 69 46 130t123 95q-23 46 -23 102q0 94 59 151.5t141 57.5q54 0 84 -25.5t30 -66.5q0 -31 -16.5 -61t-42.5 -49q141 3 268 12l5 -5 q0 -21 -6 -43q-6 0 -128 5q-3 -141 -72 -268q63 -35 95 -66t32 -71zM275 489q0 -51 19.5 -93t59.5 -76t72 -54t86 -50q10 -5 15 -8q61 120 63 256q-6 0 -127 9l-5 11q45 55 45 101q0 32 -19 53t-61 21q-62 0 -105 -46.5t-43 -123.5zM129 164q0 -62 42 -100t110 -38 q69 0 127.5 40.5t101.5 110.5q-5 3 -32 17.5t-35 19t-32 19t-34.5 22.5t-30.5 22.5t-31 26t-24.5 27t-23.5 31.5q-69 -34 -103.5 -88t-34.5 -110z" />
<glyph unicode="'" horiz-adv-x="128" d="M191 755l4 -5l-64 -229h-20l37 234h43z" />
<glyph unicode="(" horiz-adv-x="351" d="M103 114q0 182 81 360t217 281l14 -19q-129 -119 -200.5 -286t-71.5 -338q0 -168 78 -288l-22 -19q-96 111 -96 309z" />
<glyph unicode=")" horiz-adv-x="352" d="M262 446q0 -182 -81 -360t-217 -281l-14 19q129 119 200.5 286t71.5 338q0 168 -78 288l22 19q96 -111 96 -309z" />
<glyph unicode="*" horiz-adv-x="481" d="M255 376l-4 4l39 152l-148 -85l-9 26l1 7l153 69l-126 71l21 26l6 3l110 -82l26 155h30l4 -4l-41 -153l150 86l9 -26l-1 -7l-150 -69l123 -71l-21 -26l-6 -3l-111 84l-25 -157h-30z" />
<glyph unicode="+" d="M521 328h-199l-43 -203h-40l42 203h-210l7 35q147 3 211 3l41 199h42l-42 -198q77 1 199 1l3 -5z" />
<glyph unicode="," horiz-adv-x="207" d="M-40 -177q57 87 84 167q-14 0 -22.5 9t-8.5 23q0 23 17 40.5t39 17.5q30 0 30 -33q0 -36 -39.5 -109t-83.5 -125z" />
<glyph unicode="-" horiz-adv-x="349" d="M41 279l3 35h285l-3 -35h-285z" />
<glyph unicode="." horiz-adv-x="211" d="M104 48q0 -22 -17 -40t-37 -18q-14 0 -23.5 9t-9.5 24q0 22 17.5 39.5t37.5 17.5q14 0 23 -9t9 -23z" />
<glyph unicode="/" horiz-adv-x="349" d="M389 753l6 -8l-346 -747l-29 5l-6 8l346 747z" />
<glyph unicode="0" horiz-adv-x="692" d="M629 458q0 -119 -47.5 -227t-128.5 -174.5t-171 -66.5q-84 0 -131.5 61t-47.5 177q0 118 47.5 226t128.5 174.5t171 66.5q84 0 131.5 -60.5t47.5 -176.5zM147 233q0 -99 36.5 -153t107.5 -54q77 0 145.5 60.5t108.5 159t40 206.5q0 100 -37 153.5t-108 53.5 q-77 0 -145 -60.5t-108 -159t-40 -206.5z" />
<glyph unicode="1" horiz-adv-x="294" d="M209 639h-1l-130 -33l-2 24l179 65l4 -5l-147 -690h-40l104 491q24 111 33 148z" />
<glyph unicode="2" horiz-adv-x="541" d="M0 0l2 43q103 78 178 140.5t146.5 132.5t109 130.5t37.5 108.5t-36 76t-102 28q-84 0 -209 -55l3 36q114 55 221 55q77 0 122 -36t45 -95q0 -46 -31.5 -103t-74.5 -106.5t-114.5 -113.5t-122.5 -104.5t-127 -98.5h225q88 0 162 10l-20 -48h-414z" />
<glyph unicode="3" horiz-adv-x="494" d="M151 640q102 55 201 55q64 0 101.5 -29t37.5 -83q0 -68 -62 -128.5t-171 -98.5q186 -10 186 -139q0 -92 -84 -159.5t-204 -67.5q-82 0 -154 24l13 36q74 -24 150 -24q98 0 166 53.5t68 127.5q0 63 -50.5 91t-128.5 28q-36 0 -67 -7l7 35q128 28 207.5 88.5t79.5 131.5 q0 41 -28 63t-81 22q-78 0 -190 -55z" />
<glyph unicode="4" horiz-adv-x="550" d="M52 235l395 448l42 10l4 -5l-96 -452q74 4 107 9l-20 -48h-95l-42 -197h-40l43 197h-298v38zM92 234v-1q83 2 228 2h22h16l53 247q27 125 33 152h-1z" />
<glyph unicode="5" horiz-adv-x="544" d="M27 14l13 36q69 -24 140 -24q101 0 170.5 62.5t69.5 150.5q0 65 -41.5 97t-108.5 32q-84 0 -135 -20l-8 10l70 327h188q86 0 162 10l-14 -48h-306l-56 -258q60 14 116 14q78 0 127.5 -38.5t49.5 -116.5q0 -105 -85.5 -181.5t-207.5 -76.5q-76 0 -144 24z" />
<glyph unicode="6" horiz-adv-x="592" d="M242 -10q-162 0 -162 204q0 124 55 240t149 188.5t198 72.5q58 0 80 -15l-13 -36q-23 15 -72 15q-112 0 -205.5 -90t-133.5 -263h1q40 42 99.5 65t114.5 23q71 0 112 -39.5t41 -109.5q0 -102 -78.5 -178.5t-185.5 -76.5zM339 358q-58 0 -119 -28t-90 -75q-5 -38 -5 -67 q0 -75 31.5 -118.5t98.5 -43.5q84 0 145.5 63t61.5 147q0 57 -31.5 89.5t-91.5 32.5z" />
<glyph unicode="7" horiz-adv-x="514" d="M148 637l21 48h398l4 -5l-6 -28q-139 -136 -260.5 -312t-168.5 -340h-43q44 156 170 335.5t254 310.5l1 1h-207q-87 0 -163 -10z" />
<glyph unicode="8" horiz-adv-x="539" d="M198 -10q-82 0 -133 36.5t-51 96.5q0 63 57.5 121.5t154.5 98.5v1q-112 64 -112 160q0 78 67.5 134.5t158.5 56.5q73 0 120 -38t47 -100q0 -65 -53.5 -121.5t-141.5 -89.5l-1 -1q59 -28 97 -71t38 -96q0 -75 -71.5 -131.5t-176.5 -56.5zM332 659q-73 0 -124 -42t-51 -103 q0 -91 125 -150q84 34 133 82.5t49 105.5q0 48 -36 77.5t-96 29.5zM256 325q-91 -36 -145 -89.5t-54 -106.5q0 -46 41 -74.5t107 -28.5q84 0 141 44.5t57 103.5q0 48 -38.5 83t-108.5 68z" />
<glyph unicode="9" horiz-adv-x="588" d="M277 270q-76 0 -119 42.5t-43 118.5q0 104 73.5 184t180.5 80q82 0 129 -54t47 -158q0 -84 -31.5 -172t-84 -159t-129 -116.5t-159.5 -45.5q-49 0 -73 8l7 36q24 -8 66 -8q117 0 214 95.5t130 242.5h-1q-37 -46 -93 -70t-114 -24zM360 659q-84 0 -142 -67t-58 -154 q0 -62 33 -97t97 -35q57 0 112 27t91 82q7 36 7 72q0 79 -36.5 125.5t-103.5 46.5z" />
<glyph unicode=":" horiz-adv-x="212" d="M174 375q0 -22 -17 -40t-37 -18q-14 0 -23.5 9t-9.5 24q0 22 17.5 39.5t37.5 17.5q14 0 23 -9t9 -23zM104 48q0 -22 -17 -40t-37 -18q-14 0 -23.5 9t-9.5 24q0 22 17.5 39.5t37.5 17.5q14 0 23 -9t9 -23z" />
<glyph unicode=";" horiz-adv-x="221" d="M183 375q0 -22 -17 -40t-37 -18q-14 0 -23.5 9t-9.5 24q0 22 17.5 39.5t37.5 17.5q14 0 23 -9t9 -23zM-40 -177q57 87 84 167q-14 0 -22.5 9t-8.5 23q0 23 17 40.5t39 17.5q30 0 30 -33q0 -36 -39.5 -109t-83.5 -125z" />
<glyph unicode="&#x3c;" d="M543 558l-10 -45l-397 -180l323 -166l-9 -40q-225 107 -372 190l-2 6l5 27z" />
<glyph unicode="=" d="M540 421h-450l8 35q170 5 450 5l4 -5zM501 237h-450l7 35q172 5 451 5l3 -5z" />
<glyph unicode="&#x3e;" d="M57 127l10 45l397 180l-323 166l9 40q225 -107 372 -190l2 -6l-5 -27z" />
<glyph unicode="?" horiz-adv-x="423" d="M177 209h-28q0 5 3 40q4 26 30.5 53t62 52t70 53t58.5 68t24 86q0 44 -28 71t-78 27q-44 0 -93.5 -22.5t-88.5 -68.5l-21 21q42 50 100 78t116 28q64 0 101 -32t38 -86q0 -44 -18 -84t-45 -67.5t-59 -54.5t-60.5 -46t-48.5 -40.5t-23 -39.5q-2 -14 -2 -28zM165 51 q0 -24 -15 -42.5t-34 -18.5q-27 0 -27 30q0 23 15.5 41.5t33.5 18.5q27 0 27 -29z" />
<glyph unicode="@" horiz-adv-x="1118" d="M820 -163q-138 -92 -304 -92q-190 0 -312 121t-122 312q0 118 49.5 226t131 184.5t188.5 121.5t218 45q186 0 303.5 -114.5t117.5 -284.5q0 -151 -90 -258.5t-217 -107.5q-68 0 -101.5 36t-30.5 89.5t20 115.5h-4q-38 -92 -100 -166.5t-124 -74.5q-40 0 -65.5 35.5 t-25.5 106.5q0 91 39.5 176.5t112 141t156.5 55.5q53 0 103 -15l-56 -228q-5 -21 -8 -35.5t-7 -41t-4 -45.5t4.5 -42t15.5 -37.5t31 -24.5t48 -10q97 0 178.5 94t81.5 234q0 158 -107.5 261.5t-269.5 103.5q-97 0 -194 -39.5t-175 -107.5t-127 -169.5t-49 -215.5 q0 -178 111 -292t292 -114q83 0 146.5 21t131.5 59zM455 26q35 0 75 39.5t72.5 96t57.5 114.5t35 100l20 81q-42 12 -78 12q-94 0 -168 -104.5t-74 -227.5q0 -52 15.5 -81.5t44.5 -29.5z" />
<glyph unicode="A" horiz-adv-x="589" d="M13 0h-41l344 592q37 64 56 100l28 3l4 -5l107 -690h-44l-35 222h-290zM267 437l-104 -179h264l-28 179q-21 139 -22 200h-1q-23 -51 -109 -200z" />
<glyph unicode="B" horiz-adv-x="593" d="M229 0h-150l115 538q17 83 24 147h138q90 0 139.5 -36.5t49.5 -102.5t-44 -118t-111 -69q65 -10 97.5 -47.5t32.5 -91.5q0 -100 -82 -160t-209 -60zM346 650h-86l-60 -279h64q102 0 168.5 47.5t66.5 116.5q0 115 -153 115zM287 336h-94l-65 -301h115q103 0 167.5 49 t64.5 131q0 60 -44 90.5t-144 30.5z" />
<glyph unicode="C" horiz-adv-x="578" d="M498 86l-2 -38q-40 -27 -94 -42.5t-102 -15.5q-95 0 -148 63t-53 180q0 111 43.5 216t127.5 175.5t188 70.5q95 0 159 -45l-18 -42q-56 49 -148 49q-94 0 -166.5 -66.5t-106.5 -159t-34 -188.5q0 -101 43 -158t127 -57q95 0 184 58z" />
<glyph unicode="D" horiz-adv-x="689" d="M629 433q0 -81 -29.5 -158.5t-82 -138.5t-131 -98.5t-169.5 -37.5h-138l115 538q17 83 24 147h147q125 0 194.5 -63t69.5 -189zM351 649h-92l-130 -613h94q84 0 154 34t114.5 89.5t68.5 125.5t24 144q0 110 -56.5 165t-176.5 55z" />
<glyph unicode="E" horiz-adv-x="532" d="M437 39l-8 -39h-350l115 538q17 83 24 147h342l4 -5l-7 -34l-297 4l-63 -292l257 2l-9 -39l-255 2l-62 -288z" />
<glyph unicode="F" horiz-adv-x="502" d="M121 0h-42l115 538q17 83 24 147h342l4 -5l-7 -34l-297 4l-65 -302l257 2l-9 -39l-255 2l4 22z" />
<glyph unicode="G" horiz-adv-x="639" d="M563 288l4 -5l-53 -242q-77 -51 -193 -51q-106 0 -163.5 62.5t-57.5 187.5q0 114 44.5 218t127.5 170.5t182 66.5q94 0 158 -45l-18 -42q-56 49 -147 49q-88 0 -159 -62t-107 -155t-36 -193q0 -219 191 -219q72 0 140 30l15 73q17 83 24 147z" />
<glyph unicode="H" horiz-adv-x="713" d="M121 0h-42l114 538q19 93 25 147l46 10l4 -5l-71 -331h372l38 179q18 80 25 147l46 10l4 -5l-147 -690h-42l68 323h-371z" />
<glyph unicode="I" horiz-adv-x="299" d="M121 0h-42l114 538q18 80 25 147l46 10l4 -5z" />
<glyph unicode="J" horiz-adv-x="269" d="M-66 -182l-10 26q104 51 135 199l105 495q17 80 24 147l46 10l4 -5l-137 -647q-35 -166 -167 -225z" />
<glyph unicode="K" horiz-adv-x="598" d="M194 538q17 83 24 147l44 10l4 -5l-70 -331h109q102 112 308 336l25 -13l4 -5l-305 -333l183 -344l-43 -10l-177 333h-112l-69 -323h-40z" />
<glyph unicode="L" horiz-adv-x="504" d="M121 0h-42l115 539q17 84 24 146l46 10l4 -5zM429 39l-8 -39h-300l8 35z" />
<glyph unicode="M" horiz-adv-x="826" d="M765 695l4 -5l-56 -690h-42l22 271q17 224 32 341h-1q-43 -84 -187 -341l-154 -271h-46l-37 271q-38 270 -44 341h-1q-18 -61 -114 -341l-94 -271h-40l239 691l36 4l60 -424q22 -148 27 -230h1q55 106 126 230l237 420z" />
<glyph unicode="N" horiz-adv-x="728" d="M395 384q14 -34 38.5 -91.5t36.5 -87t27 -72.5t25 -82h1q16 95 99 487q18 80 25 147l46 10l4 -5l-147 -690h-45q-22 52 -65 155.5t-64 155.5q-10 24 -30.5 73.5t-29 70t-22 56t-23 64t-18.5 59.5h-1q-18 -108 -50 -252l-81 -382h-42l114 538q18 80 25 147l48 10 q35 -83 129 -311z" />
<glyph unicode="O" horiz-adv-x="689" d="M630 448q0 -111 -42.5 -215.5t-122 -173.5t-174.5 -69q-90 0 -141.5 62.5t-51.5 178.5q0 111 43.5 217t123.5 176.5t174 70.5q89 0 140 -64.5t51 -182.5zM143 240q0 -100 41 -156t118 -56q83 0 149.5 64t100 158.5t33.5 193.5q0 101 -39 157t-115 56q-82 0 -150 -65 t-103 -160t-35 -192z" />
<glyph unicode="P" horiz-adv-x="538" d="M121 0h-42l115 538q17 83 24 147h140q91 0 142 -42t51 -116q0 -116 -85 -188t-212 -72h-76zM348 650h-88l-75 -348h85q105 0 170.5 61.5t65.5 159.5q0 59 -39 93t-119 34z" />
<glyph unicode="Q" horiz-adv-x="666" d="M740 -125q0 -38 -92 -38q-95 0 -199 42.5t-189 112.5q-76 11 -119 72t-43 167q0 111 43.5 217t123.5 176.5t174 70.5q89 0 140 -64.5t51 -182.5q0 -106 -39 -207t-113 -171t-164 -79q62 -43 156 -76t180 -33q45 0 84 10q6 -6 6 -17zM302 28q83 0 149.5 64t100 158.5 t33.5 193.5q0 101 -39 157t-115 56q-82 0 -150 -65t-103 -160t-35 -192q0 -100 41 -156t118 -56z" />
<glyph unicode="R" horiz-adv-x="571" d="M121 0h-42l115 538q17 83 24 147h140q91 0 142.5 -42.5t51.5 -115.5q0 -85 -54.5 -146.5t-143.5 -82.5l134 -298l-41 -10q-23 49 -67 148t-67 149h-131zM348 650h-88l-70 -328h85q104 0 167.5 54.5t63.5 146.5q0 58 -39 92.5t-119 34.5z" />
<glyph unicode="S" horiz-adv-x="493" d="M417 190q0 -87 -69 -143.5t-177 -56.5q-92 0 -158 35l17 43q60 -40 150 -40q83 0 138 45t55 111q0 28 -9.5 50t-31.5 41t-36.5 28.5t-44.5 27.5l-37.5 22.5t-33.5 24t-31 31t-18.5 37.5t-8.5 49q0 84 68.5 142t174.5 58q90 0 146 -33l-17 -43q-53 38 -136 38 q-82 0 -136.5 -43.5t-54.5 -107.5q0 -33 19 -61t39 -42t59 -37q2 -1 3.5 -2t4 -2.5t4.5 -2.5q27 -16 43.5 -28t37 -33t30.5 -48t10 -60z" />
<glyph unicode="T" horiz-adv-x="491" d="M214 0h-42l139 650q-95 0 -217 -5l12 40h465l-6 -40q-117 5 -212 5z" />
<glyph unicode="U" horiz-adv-x="634" d="M87 157q0 41 45.5 245.5t50.5 284.5l54 8v-1q-22 -101 -53 -246q-55 -254 -55 -281q0 -66 40.5 -101.5t106.5 -35.5q78 0 139 49t80 138q12 54 25.5 118t20 95t14.5 69.5t11.5 56t7.5 39t5.5 34.5t3 27t2.5 31l54 8l-101 -475q-24 -110 -100.5 -170t-175.5 -60 q-79 0 -127 43t-48 124z" />
<glyph unicode="V" horiz-adv-x="586" d="M228 -5l-109 696l43 4l67 -427q23 -147 23 -219q32 70 133 244l232 402l33 -5l4 -5l-401 -690h-25z" />
<glyph unicode="W" horiz-adv-x="956" d="M197 -5l-78 695l41 5l48 -428q17 -141 14 -215q22 57 117 238l215 401l39 4l48 -428q17 -141 14 -215q26 68 116 235l218 408l31 -5l4 -5l-369 -690h-25l-55 492q-11 105 -13 151h-1q-26 -58 -77 -151l-262 -492h-25z" />
<glyph unicode="X" horiz-adv-x="541" d="M-22 0v5l287 343l-142 337l44 10l134 -319h1l265 319l37 -5v-5l-286 -338l140 -347h-47l-129 319h-1l-263 -319h-40z" />
<glyph unicode="Y" horiz-adv-x="524" d="M243 256l-124 435l43 4l74 -260q2 -9 12 -42.5t15.5 -59t7.5 -48.5h1q16 30 101 152l182 258l33 -5l4 -5l-308 -433l-54 -252h-42z" />
<glyph unicode="Z" horiz-adv-x="507" d="M-16 0l-1 25l522 625l-379 -3l11 38h417l4 -25l-522 -625l397 4l-11 -39h-438z" />
<glyph unicode="[" horiz-adv-x="298" d="M188 755h193l-8 -36h-151l-186 -878h151l-8 -36h-193l194 914z" />
<glyph unicode="\" horiz-adv-x="349" d="M194 -2l-28 747l10 8l31 5l28 -747l-10 -8z" />
<glyph unicode="]" horiz-adv-x="298" d="M124 -195h-193l8 36h151l186 878h-151l8 36h193l-194 -914z" />
<glyph unicode="^" horiz-adv-x="525" d="M127 210h-45l213 335h56l76 -335h-44l-68 299z" />
<glyph unicode="_" horiz-adv-x="340" d="M-92 -183l8 35h340l-8 -35h-340z" />
<glyph unicode="`" horiz-adv-x="341" d="M283 580q-91 66 -130 151l5 8l42 16q26 -71 96 -162z" />
<glyph unicode="a" horiz-adv-x="506" d="M52 132q0 91 39.5 176.5t112 141t156.5 55.5q53 0 103 -15l-42 -173q-17 -72 -25 -108.5t-15.5 -95t-7.5 -113.5h-40q0 101 29 232q-112 -242 -219 -242q-40 0 -65.5 35.5t-25.5 106.5zM95 137q0 -52 15.5 -81.5t44.5 -29.5q45 0 100.5 74.5t93 158.5t52.5 143 q3 10 7.5 29.5t6.5 25.5q-42 12 -78 12q-94 0 -168 -104.5t-74 -227.5z" />
<glyph unicode="b" horiz-adv-x="512" d="M366 505q43 0 68.5 -35t25.5 -107q0 -141 -90.5 -257t-218.5 -116q-58 0 -104 15q49 206 85 375l49 229l8 136l49 10q0 -53 -16 -145t-30 -154t-45 -193q43 102 99 172t120 70zM357 469q-45 0 -100 -69.5t-94.5 -154t-55.5 -149.5q-1 -6 -3.5 -18t-4.5 -21.5t-4 -17.5 q40 -13 80 -13q94 0 168 104.5t74 227.5q0 52 -15.5 81.5t-44.5 29.5z" />
<glyph unicode="c" horiz-adv-x="444" d="M366 119l18 -13q-74 -116 -181 -116q-66 0 -105 47t-39 131q0 130 82 233.5t186 103.5q57 0 101 -42l-17 -41q-40 47 -94 47q-81 0 -148 -93.5t-67 -203.5q0 -66 28.5 -106t82.5 -40q79 0 153 93z" />
<glyph unicode="d" horiz-adv-x="509" d="M376 0h-40q0 77 32 238q-106 -248 -225 -248q-40 0 -65.5 35.5t-25.5 106.5q0 91 39.5 176.5t112 141t156.5 55.5q27 0 63 -6l23 110l8 136l49 10q0 -94 -63.5 -371t-63.5 -384zM95 137q0 -52 15.5 -81.5t44.5 -29.5q44 0 99.5 71.5t93.5 155.5t52 143l14 61 q-42 12 -77 12q-94 0 -168 -104.5t-74 -227.5z" />
<glyph unicode="e" horiz-adv-x="447" d="M364 119l18 -13q-30 -54 -79 -85t-100 -31q-64 0 -104 47.5t-40 131.5q0 78 33.5 156t91.5 129t123 51q47 0 76 -27.5t29 -74.5q0 -70 -71 -120t-234 -58q-5 -30 -5 -53q0 -66 29 -106t80 -40q78 0 153 93zM298 469q-60 0 -111.5 -64.5t-73.5 -150.5q140 9 198 53t58 95 q0 30 -19.5 48.5t-51.5 18.5z" />
<glyph unicode="f" horiz-adv-x="318" d="M-11 -203l-15 21q67 76 90 182l98 462l-76 2l5 24l78 7q3 14 7 37t6.5 38.5t4.5 23.5q16 76 60.5 118.5t113.5 42.5q56 0 99 -26l-21 -40q-36 30 -89 30q-52 0 -81 -32t-43 -96q-11 -53 -18 -96h136l4 -5l-9 -31l-137 3l-98 -462q-24 -116 -115 -203z" />
<glyph unicode="g" horiz-adv-x="415" d="M120 -255q-76 0 -117.5 32.5t-41.5 85.5q0 69 78 118l14 -16q-49 -47 -49 -94q0 -39 33 -64.5t91 -25.5q69 0 113 32.5t44 74.5q0 25 -19.5 44.5t-65.5 42.5q-3 2 -14 7t-14.5 7t-12.5 6.5t-12.5 7l-10.5 7.5t-9.5 8.5t-6 8.5t-5 10.5t-1.5 11.5q0 39 82 101v1 q-8 -1 -9 -1q-58 0 -87.5 35t-29.5 94q0 91 58.5 158.5t142.5 67.5q107 0 151 10q5 -8 5 -21q0 -26 -37 -26q-23 0 -73 12v-1q48 -31 48 -105q0 -53 -21.5 -99.5t-52 -77.5t-61 -56t-52 -45t-21.5 -35q0 -4 1 -7.5t4 -7t5.5 -6.5t7 -6l7.5 -5t8.5 -5t7.5 -4l8 -4t7 -3 q61 -29 88 -56t27 -61q0 -57 -56.5 -104t-151.5 -47zM325 370q0 47 -20 74t-55 27q-53 0 -96.5 -59.5t-43.5 -129.5q0 -47 21 -72t57 -25q57 0 97 58t40 127z" />
<glyph unicode="h" horiz-adv-x="537" d="M111 0h-40q0 96 61 380l49 229l8 136l49 10q0 -98 -65 -381q-5 -19 -7 -29h2q35 78 89.5 119t110.5 41q45 0 69.5 -25.5t24.5 -70.5q0 -26 -4.5 -50.5t-29.5 -140.5q-27 -127 -27 -218h-40q0 86 34 238q27 124 27 162q0 69 -65 69q-68 0 -124 -66t-87.5 -172.5 t-34.5 -230.5z" />
<glyph unicode="i" horiz-adv-x="241" d="M227 682q0 -24 -15 -42.5t-34 -18.5q-27 0 -27 30q0 23 15.5 41.5t33.5 18.5q27 0 27 -29zM111 0h-40q0 96 37 267l20 92l8 136l49 10q0 -73 -37 -248t-37 -257z" />
<glyph unicode="j" horiz-adv-x="218" d="M219 682q0 -24 -15 -42.5t-34 -18.5q-27 0 -27 30q0 23 15.5 41.5t33.5 18.5q27 0 27 -29zM-70 -255l-15 21q91 52 119 182l88 411l8 136l49 10q0 -19 -1 -36.5t-5.5 -45.5t-8.5 -50.5t-14 -72t-18 -87t-25.5 -119t-31.5 -146.5q-29 -132 -145 -203z" />
<glyph unicode="k" horiz-adv-x="474" d="M449 429q0 -60 -58 -119.5t-139 -100.5q76 -132 149 -209h-52q-73 85 -144 225q201 102 201 196q0 48 -47 48q-57 0 -114.5 -74t-94 -183t-39.5 -212h-40q0 96 61 380l49 229l8 136l49 10q0 -34 -4.5 -75.5t-15 -95t-19 -91.5t-24.5 -107t-23 -100h2q38 104 98 161.5 t121 57.5q37 0 56.5 -21t19.5 -55z" />
<glyph unicode="l" horiz-adv-x="240" d="M111 0h-40q0 96 61 380l49 229l8 136l49 10q0 -94 -63.5 -371t-63.5 -384z" />
<glyph unicode="m" horiz-adv-x="807" d="M165 345q34 77 86.5 118.5t107.5 41.5q56 0 79 -42t8 -113l-1 -5h2q33 77 85 118.5t107 41.5q56 0 79 -42t8 -113l-42 -199q-13 -59 -13 -151h-40q0 80 42 287q21 96 11 139t-58 43q-65 0 -119.5 -67t-84.5 -174t-31 -228h-40q0 80 42 287q21 97 11 139.5t-58 42.5 q-69 0 -124 -75t-81.5 -180t-29.5 -214h-40q0 59 11.5 130.5t45.5 228.5l8 136l49 10q0 -65 -22 -160h2z" />
<glyph unicode="n" horiz-adv-x="537" d="M111 0h-40q0 22 1.5 45.5t3.5 41.5t6.5 45.5t6.5 41t9 46.5t9 43t10.5 49t10.5 47l8 136l49 10q0 -67 -22 -160h2q36 78 91.5 119t112.5 41q45 0 69 -25t24 -69q0 -41 -32 -185q-18 -82 -23.5 -124.5t-5.5 -101.5h-40q0 73 34 245q22 112 22 150q0 74 -63 74 q-64 0 -119 -64t-88 -172t-36 -233z" />
<glyph unicode="o" horiz-adv-x="494" d="M436 337q0 -82 -30 -160.5t-88.5 -132.5t-129.5 -54q-62 0 -95.5 43t-33.5 126t30.5 162t88.5 131.5t128 52.5q62 0 96 -42.5t34 -125.5zM102 164q0 -138 97 -138q57 0 103 48.5t68.5 117.5t22.5 139q0 138 -97 138q-57 0 -103 -48.5t-68.5 -117.5t-22.5 -139z" />
<glyph unicode="p" horiz-adv-x="507" d="M147 -10q-28 0 -62 6q-33 -155 -33 -241h-40q0 91 61 375l49 229l8 136l49 10q0 -75 -32 -230q100 230 217 230q40 0 65.5 -35.5t25.5 -106.5q0 -91 -39.5 -176.5t-112 -141t-156.5 -55.5zM352 469q-43 0 -97.5 -69.5t-92.5 -152.5t-54 -145q-11 -49 -14 -64 q40 -12 76 -12q94 0 168 104.5t74 227.5q0 52 -15.5 81.5t-44.5 29.5z" />
<glyph unicode="q" horiz-adv-x="501" d="M143 -10q-40 0 -65.5 35.5t-25.5 106.5q0 91 39.5 176.5t112 141t156.5 55.5q53 0 103 -15l-102 -443q-43 -189 -43 -292h-40q0 111 65 391l19 81q-20 -43 -42.5 -81t-51 -75t-61 -59t-64.5 -22zM95 137q0 -52 15.5 -81.5t44.5 -29.5q34 0 75 42t74.5 102.5t59.5 121 t37 103.5l14 62q-41 12 -78 12q-94 0 -168 -104.5t-74 -227.5z" />
<glyph unicode="r" horiz-adv-x="368" d="M111 0h-40q0 96 37 267l20 92l8 136l49 10q0 -67 -25 -180h2q36 92 84 136t101 44q38 0 62 -19l-25 -34q-23 14 -49 14q-58 0 -110.5 -74.5t-82 -181.5t-31.5 -210z" />
<glyph unicode="s" horiz-adv-x="425" d="M376 479l-17 -41q-48 31 -103 31t-89.5 -28t-34.5 -71q0 -31 21 -54t51.5 -38.5t61 -32t51.5 -44t21 -65.5q0 -62 -51.5 -104t-130.5 -42q-73 0 -127 32l17 41q50 -37 120 -37q53 0 90 29.5t37 72.5q0 30 -21.5 52.5t-51.5 37.5t-60.5 31t-52 43.5t-21.5 65.5 q0 64 53.5 105.5t128.5 41.5q58 0 108 -26z" />
<glyph unicode="t" horiz-adv-x="338" d="M330 462h-138q-70 -327 -72 -354q-1 -7 -1 -15q0 -67 62 -67q43 0 86 25l2 -33q-49 -28 -104 -28q-89 0 -89 88q0 28 42 223q20 96 34 161h-76l6 26l77 7l33 112l30 4l4 -5l-27 -111h135l4 -5z" />
<glyph unicode="u" horiz-adv-x="510" d="M76 145l45 214l8 136l49 10q0 -34 -5 -74.5t-10 -68.5t-15.5 -79t-15.5 -75q-9 -50 -12 -79.5t0 -55t17.5 -36.5t40.5 -11q64 0 114.5 62t81.5 165q29 129 34 191q3 26 3 51l40 10q0 -35 -5.5 -79t-12 -77t-18 -86.5t-16.5 -80.5q-22 -114 -22 -182h-40q0 61 13 137 q-33 -71 -83 -109t-101 -38q-56 0 -80.5 42t-9.5 113z" />
<glyph unicode="v" horiz-adv-x="398" d="M126 0q0 261 -58 495l40 10q59 -211 59 -445h1q180 263 200 441q9 4 19 4q18 0 18 -18q0 -68 -72.5 -216.5t-168.5 -270.5h-38z" />
<glyph unicode="w" horiz-adv-x="606" d="M595 505q18 0 18 -18q0 -70 -64.5 -217t-154.5 -270h-40q4 207 -14 417h-1q-20 -92 -75 -206t-124 -211h-40q5 269 -32 495l41 7q38 -209 33 -447h1q156 242 178 440h44q36 -206 31 -440h1q72 110 120 228t59 218q9 4 19 4z" />
<glyph unicode="x" horiz-adv-x="419" d="M4 0q70 147 182 254q-39 166 -83 241l40 10q45 -76 80 -222q124 111 151 217q6 5 16 5q20 0 20 -19q0 -38 -54.5 -107.5t-124.5 -130.5q44 -177 85 -248h-46q-39 67 -76 218q-95 -94 -150 -218h-40z" />
<glyph unicode="y" horiz-adv-x="398" d="M387 505q18 0 18 -18q0 -61 -59 -185.5t-140.5 -247.5t-176 -216t-157.5 -93q-37 0 -37 27q0 13 8 23q21 -3 37 -3q96 0 246 210q0 261 -58 493l40 10q59 -217 59 -445h1q180 263 200 441q9 4 19 4z" />
<glyph unicode="z" horiz-adv-x="392" d="M-1 -10l-18 23q135 153 208.5 243.5t128.5 174.5q-86 38 -154 38q-57 0 -97 -58l-21 8q23 50 51 68t69 18q71 0 167 -50q25 43 29 50q28 0 28 -17q0 -30 -105 -166.5t-235 -278.5q10 3 25 3q22 0 75.5 -10t73.5 -10q54 0 101 61l21 -8q-27 -52 -56.5 -70.5t-72.5 -18.5 q-31 0 -90.5 10t-82.5 10q-26 0 -45 -20z" />
<glyph unicode="{" horiz-adv-x="290" d="M137 174q0 36 -21 60t-62 31l8 39q65 3 101.5 57t36.5 154q0 10 -0.5 30.5t-0.5 28.5q0 105 45 143t130 38l-3 -30q-75 0 -104 -34t-29 -123v-55q0 -108 -36 -164t-90 -69q65 -27 65 -98q0 -51 -45 -146.5t-45 -136.5q0 -34 22 -49t73 -15l-10 -30q-67 0 -96 18t-29 63 q0 49 45 147.5t45 140.5z" />
<glyph unicode="|" horiz-adv-x="321" d="M41 -255l-6 7l213 1000l33 3l6 -7l-213 -1000z" />
<glyph unicode="}" horiz-adv-x="289" d="M166 386q0 -36 21 -60t62 -31l-8 -39q-65 -3 -101.5 -57t-36.5 -154q0 -10 0.5 -30.5t0.5 -28.5q0 -105 -45 -143t-130 -38l3 30q75 0 104 34t29 123v55q0 108 36 164t90 69q-65 27 -65 98q0 51 45 146.5t45 136.5q0 34 -22 49t-73 15l10 30q67 0 96 -18t29 -63 q0 -49 -45 -147.5t-45 -140.5z" />
<glyph unicode="~" d="M402 227q-25 0 -127 38t-112 38q-18 0 -86 -75q-3 -3 -4.5 -5t-4 -4.5l-4.5 -4.5l-22 18q86 111 131 111q25 0 126 -38t112 -38q3 0 7 1.5t9 4.5t9 6.5t10.5 9t11.5 10t12.5 12.5t12.5 13.5t14 15t15 15.5l21 -17q-86 -111 -131 -111z" />
<glyph unicode="&#xa1;" horiz-adv-x="257" d="M138 444q0 24 15 42.5t34 18.5q27 0 27 -30q0 -23 -15.5 -41.5t-33.5 -18.5q-27 0 -27 29zM128 305h31q-27 -140 -60 -304t-38 -191l-44 -10l-4 5q57 249 115 500z" />
<glyph unicode="&#xa2;" horiz-adv-x="448" d="M172 -140l-6 8l26 123q-59 4 -94 51t-35 137q0 139 79 245.5t186 114.5l30 137l22 3l7 -8l-29 -133q50 -5 81 -41l-17 -41q-33 47 -91 47q-90 0 -156.5 -94.5t-66.5 -222.5q0 -78 27.5 -119t79.5 -41q85 0 155 93l18 -13q-68 -106 -166 -115l-27 -128z" />
<glyph unicode="&#xa3;" horiz-adv-x="506" d="M177 298l-109 2l7 27l112 7q47 173 63 213q44 116 116 140q22 7 48 7q62 0 95 -26l-23 -47q-33 37 -80 37q-63 0 -96.5 -65.5t-82.5 -258.5h182l4 -5l-13 -31h-182l-16 -59q-43 -163 -91 -215q21 -9 87 -44t117 -54t94 -19q45 0 68 14l-23 -48q-18 -10 -58 -10 q-46 0 -98 23t-117.5 62t-97.5 54q-21 -13 -45 -13q-40 0 -37 27q2 28 40 28q13 0 38 -7q25 22 43 70t43 145z" />
<glyph unicode="&#xa4;" horiz-adv-x="577" d="M442 48l-68 90q-60 -44 -131 -44q-60 0 -99 34l-95 -77l-18 23l94 78q-21 31 -21 77q0 91 76 159l-62 81l25 21q9 -11 31.5 -39.5t33.5 -41.5q56 37 120 37q67 0 105 -41l102 85l19 -23l-104 -86q17 -32 17 -71q0 -83 -65 -148q58 -71 69 -91v-4zM317 414 q-70 0 -121.5 -52.5t-51.5 -122.5q0 -49 28.5 -81t83.5 -32q71 0 121 52t50 123q0 52 -29.5 82.5t-80.5 30.5z" />
<glyph unicode="&#xa5;" horiz-adv-x="542" d="M47 134l7 33h179l21 100h-179l7 33h179l-142 391l45 4l85 -237q26 -67 41 -124h1q16 23 33 44.5t35.5 45t28.5 36.5l183 235l35 -5l4 -5l-305 -385h177l-7 -33h-179l-21 -100h179l-7 -33h-179l-29 -134h-42l29 134h-179z" />
<glyph unicode="&#xa6;" horiz-adv-x="321" d="M208 377l-24 -3l-15 7l79 371l33 3l6 -7zM74 -252l-23 -3l-16 7l79 371l34 3l5 -7z" />
<glyph unicode="&#xa7;" horiz-adv-x="532" d="M415 629q-61 0 -100 -39t-39 -101q0 -46 25 -96t54.5 -88.5t54.5 -94.5t25 -111q0 -114 -89.5 -191.5t-226.5 -77.5q-76 0 -117 23l25 69q31 -26 86 -26q67 0 109.5 41t42.5 104q0 37 -16.5 75t-40 72t-47.5 69t-40.5 79t-16.5 90q0 113 88.5 191t218.5 78q73 0 114 -23 l-25 -69q-31 26 -85 26zM119 -138q125 0 198.5 67t73.5 160q0 50 -25.5 103.5t-55.5 92t-55.5 89t-25.5 96.5q0 73 53.5 129.5t136.5 59.5l1 4q-125 0 -198.5 -66.5t-73.5 -160.5q0 -51 25.5 -104.5t55.5 -91.5t55.5 -88.5t25.5 -96.5q0 -73 -53.5 -129.5t-136.5 -59.5z" />
<glyph unicode="&#xa8;" horiz-adv-x="360" d="M210 678q0 -24 -14.5 -43t-33.5 -19q-26 0 -26 30q0 22 15.5 41t33.5 19q25 0 25 -28zM398 678q0 -24 -14.5 -43t-33.5 -19q-26 0 -26 30q0 22 15.5 41t33.5 19q25 0 25 -28z" />
<glyph unicode="&#xa9;" horiz-adv-x="692" d="M283 -36q-103 0 -166.5 62.5t-63.5 160.5q0 133 108.5 241t246.5 108q102 0 166.5 -63t64.5 -162q0 -132 -108.5 -239.5t-247.5 -107.5zM290 0q121 0 216.5 93t95.5 208q0 86 -57 142.5t-146 56.5q-120 0 -214.5 -94t-94.5 -211q0 -86 55.5 -140.5t144.5 -54.5zM459 379 l-18 -33q-27 31 -68 31q-50 0 -85 -43t-35 -106q0 -45 19 -71t54 -26q53 0 99 56l16 -12q-24 -35 -59 -55t-71 -20q-44 0 -70 30.5t-26 86.5q0 79 49.5 135t117.5 56q50 0 77 -29z" />
<glyph unicode="&#xaa;" horiz-adv-x="419" d="M92 397q0 109 73.5 198t178.5 89q45 0 87 -13l-32 -135q-15 -64 -20 -88t-11 -70t-6 -88h-35q-1 72 20 174q-89 -182 -177 -182q-34 0 -56 29t-22 86zM130 402q0 -88 50 -88q37 0 81.5 56t75 121t43.5 114q6 26 9 40q-30 9 -61 9q-78 0 -138 -79.5t-60 -172.5z" />
<glyph unicode="&#xab;" horiz-adv-x="439" d="M68 287l3 12q82 65 208 197l11 -8q-75 -107 -165 -195q54 -93 82 -195l-14 -8q-77 142 -125 197zM228 287l3 12q82 65 208 197l11 -8q-75 -107 -165 -195q54 -93 82 -195l-14 -8q-77 142 -125 197z" />
<glyph unicode="&#xac;" horiz-adv-x="520" d="M482 305l-46 -209h-40l38 177h-395l7 35q163 5 430 5z" />
<glyph unicode="&#xae;" horiz-adv-x="693" d="M283 -36q-102 0 -165.5 63t-63.5 162q0 87 50 167.5t132.5 130t172.5 49.5q103 0 167 -64t64 -162q0 -86 -50 -166.5t-133.5 -130t-173.5 -49.5zM292 0q121 0 216 93t95 208q0 86 -57 142.5t-146 56.5q-120 0 -214.5 -94t-94.5 -211q0 -87 56.5 -141t144.5 -54zM260 92 h-32l49 229q14 64 15 100h97q91 0 91 -79q0 -42 -28.5 -74.5t-70.5 -39.5l43 -136l-36 -5q-7 21 -21.5 72.5t-17.5 61.5h-62zM384 390h-61l-29 -138h59q39 0 64.5 25t25.5 61q0 24 -15.5 38t-43.5 14z" />
<glyph unicode="&#xaf;" horiz-adv-x="324" d="M135 646l7 34h264l-7 -34h-264z" />
<glyph unicode="&#xb0;" horiz-adv-x="331" d="M173 310q-39 0 -64 23.5t-25 63.5q0 57 46 102.5t104 45.5q40 0 64.5 -23.5t24.5 -62.5q0 -57 -46.5 -103t-103.5 -46zM223 510q-39 0 -69.5 -31.5t-30.5 -70.5q0 -29 16.5 -46t44.5 -17q39 0 69.5 31.5t30.5 71.5q0 30 -17 46t-44 16z" />
<glyph unicode="&#xb1;" horiz-adv-x="569" d="M553 421h-184l-35 -166h-40l34 166h-189l7 35q129 3 190 3l34 166h42l-35 -165q72 1 184 1l3 -5zM530 98h-450l7 35q172 5 451 5l3 -5z" />
<glyph unicode="&#xb2;" horiz-adv-x="359" d="M115 352l2 33q68 41 109 68.5t87.5 65t68.5 73t22 70.5t-22.5 54.5t-61.5 19.5q-66 0 -134 -45l3 31q27 20 67.5 32t76.5 12q50 0 81.5 -25.5t31.5 -69.5q0 -40 -25 -80.5t-71 -78.5t-89.5 -66.5t-101.5 -61.5h135q54 0 105 6l-14 -38h-270z" />
<glyph unicode="&#xb3;" horiz-adv-x="346" d="M205 733q56 33 127 33q44 0 72 -19t28 -52q0 -43 -42.5 -79.5t-107.5 -55.5q57 0 90.5 -22t33.5 -62q0 -55 -55 -93.5t-135 -38.5q-54 0 -100 14l10 29q46 -14 94 -14q61 0 103 28t42 68q0 69 -114 69q-25 0 -45 -4l7 29q81 16 129 49t48 74q0 23 -19 36.5t-54 13.5 q-57 0 -114 -32z" />
<glyph unicode="&#xb4;" horiz-adv-x="237" d="M271 736l1 -8q-79 -87 -194 -151l-7 13q114 96 164 162z" />
<glyph unicode="&#xb6;" horiz-adv-x="604" d="M164 -131q177 0 225 227l100 469l18 85h-74l-89 -420h-31q-13 0 -26.5 1t-44.5 10.5t-53.5 26t-40.5 53t-18 85.5q0 115 82.5 197t201.5 82h142l-25 -120l-102 -480q-26 -123 -95 -189.5t-170 -66.5q-73 0 -142 26l13 40q69 -26 129 -26z" />
<glyph unicode="&#xb7;" horiz-adv-x="283" d="M193 298q0 -22 -17 -40t-37 -18q-14 0 -23.5 9t-9.5 24q0 22 17.5 39.5t37.5 17.5q14 0 23 -9t9 -23z" />
<glyph unicode="&#xb8;" horiz-adv-x="300" d="M142 -115q0 -37 -45 -63.5t-99 -33.5l-1 22q102 23 102 66q0 27 -55 33l-5 11l44 81l29 -1l-34 -62q64 -10 64 -53z" />
<glyph unicode="&#xb9;" horiz-adv-x="227" d="M254 722h-1l-81 -17l-2 22l126 39l3 -4l-87 -410h-38l60 283q9 44 20 87z" />
<glyph unicode="&#xba;" horiz-adv-x="415" d="M419 546q0 -99 -59 -181.5t-149 -82.5q-55 0 -84.5 36t-29.5 103q0 100 59 181.5t148 81.5q56 0 85.5 -35.5t29.5 -102.5zM135 424q0 -112 85 -112q72 0 116.5 73t44.5 158q0 111 -85 111q-72 0 -116.5 -73t-44.5 -157z" />
<glyph unicode="&#xbb;" horiz-adv-x="439" d="M390 299l-3 -12q-82 -65 -208 -197l-11 8q75 107 165 195q-54 93 -82 195l14 8q77 -142 125 -197zM230 299l-3 -12q-82 -65 -208 -197l-11 8q75 107 165 195q-54 93 -82 195l14 8q77 -142 125 -197z" />
<glyph unicode="&#xbc;" horiz-adv-x="787" d="M271 662h-1l-81 -17l-2 22l126 39l3 -4l-87 -410h-38l60 283q9 44 20 87zM732 700l-576 -710h-45l575 710h46zM434 132l247 266l41 6l3 -4l-56 -266q46 2 68 5l-15 -36h-60l-24 -113h-37l25 113h-192v29zM469 133v-1q49 1 142 1h20h1l29 133q5 24 11 53t10 44h-1z" />
<glyph unicode="&#xbd;" horiz-adv-x="849" d="M271 662h-1l-81 -17l-2 22l126 39l3 -4l-87 -410h-38l60 283q9 44 20 87zM744 700l-576 -710h-45l575 710h46zM498 -10l2 33q68 41 109 68.5t87.5 65t68.5 73t22 70.5t-22.5 54.5t-61.5 19.5q-67 0 -134 -45l3 31q27 20 67.5 32t76.5 12q50 0 81.5 -25.5t31.5 -69.5 q0 -40 -25 -80.5t-71 -78.5t-89.5 -66.5t-101.5 -61.5h135q54 0 105 6l-14 -38h-270z" />
<glyph unicode="&#xbe;" horiz-adv-x="926" d="M222 671q56 33 127 33q44 0 72 -19t28 -52q0 -43 -42.5 -79.5t-107.5 -55.5q57 0 90.5 -22t33.5 -62q0 -55 -55 -93.5t-135 -38.5q-54 0 -100 14l10 29q46 -14 94 -14q61 0 103 28t42 68q0 69 -114 69q-25 0 -45 -4l7 29q81 16 129 49t48 74q0 23 -19 36.5t-54 13.5 q-57 0 -114 -32zM864 700l-576 -710h-45l575 710h46zM573 132l247 266l41 6l3 -4l-56 -266q46 2 68 5l-15 -36h-60l-24 -113h-37l25 113h-192v29zM608 133v-1q49 1 142 1h20h1l29 133q5 24 11 53t10 44h-1z" />
<glyph unicode="&#xbf;" horiz-adv-x="422" d="M258 445q0 24 15 42.5t34 18.5q27 0 27 -30q0 -23 -15.5 -41.5t-33.5 -18.5q-27 0 -27 29zM246 287h28q0 -5 -3 -40q-4 -26 -30.5 -53t-62 -52t-70 -53t-58.5 -68t-24 -86q0 -44 28 -71t78 -27q44 0 93.5 22.5t88.5 68.5l21 -21q-42 -50 -100 -78t-116 -28q-64 0 -101 32 t-38 86q0 44 18 84t45 67.5t59 54.5t60.5 46t48.5 40.5t23 39.5q2 14 2 28z" />
<glyph unicode="&#xc0;" horiz-adv-x="589" d="M518 779q-126 20 -207 78l1 8l36 31q64 -54 181 -100zM13 0h-41l344 592q37 64 56 100l28 3l4 -5l107 -690h-44l-35 222h-290zM267 437l-104 -179h264l-28 179q-21 139 -22 200h-1q-23 -51 -109 -200z" />
<glyph unicode="&#xc1;" horiz-adv-x="589" d="M544 865l-3 -8q-108 -58 -241 -78l-3 17q144 50 223 100zM13 0h-41l344 592q37 64 56 100l28 3l4 -5l107 -690h-44l-35 222h-290zM267 437l-104 -179h264l-28 179q-21 139 -22 200h-1q-23 -51 -109 -200z" />
<glyph unicode="&#xc2;" horiz-adv-x="589" d="M290 770l-10 13q81 62 138 118l44 5q47 -70 99 -123l-16 -13q-70 55 -113 97q-69 -53 -142 -97zM13 0h-41l344 592q37 64 56 100l28 3l4 -5l107 -690h-44l-35 222h-290zM267 437l-104 -179h264l-28 179q-21 139 -22 200h-1q-23 -51 -109 -200z" />
<glyph unicode="&#xc3;" horiz-adv-x="589" d="M364 890q29 0 68 -28t61 -28q40 0 82 57l15 -3q-13 -37 -43.5 -64.5t-66.5 -27.5q-30 0 -69 28t-61 28q-40 0 -82 -57l-15 3q13 35 43 63.5t68 28.5zM13 0h-41l344 592q37 64 56 100l28 3l4 -5l107 -690h-44l-35 222h-290zM267 437l-104 -179h264l-28 179 q-21 139 -22 200h-1q-23 -51 -109 -200z" />
<glyph unicode="&#xc4;" horiz-adv-x="589" d="M555 849q0 -22 -15.5 -39.5t-34.5 -17.5q-14 0 -22 8.5t-8 21.5q0 20 16 37.5t35 17.5q29 0 29 -28zM365 849q0 -22 -15.5 -39.5t-34.5 -17.5q-14 0 -22 8.5t-8 21.5q0 20 16 37.5t35 17.5q29 0 29 -28zM13 0h-41l344 592q37 64 56 100l28 3l4 -5l107 -690h-44l-35 222 h-290zM267 437l-104 -179h264l-28 179q-21 139 -22 200h-1q-23 -51 -109 -200z" />
<glyph unicode="&#xc5;" horiz-adv-x="589" d="M500 852q0 -35 -30.5 -63.5t-68.5 -28.5q-26 0 -44 16t-18 40q0 34 31 62t69 28q27 0 44 -15t17 -39zM374 821q0 -16 9.5 -25t25.5 -9q22 0 39 18t17 41q0 33 -35 33q-22 0 -39 -17.5t-17 -40.5zM13 0h-41l344 592q37 64 56 100l28 3l4 -5l107 -690h-44l-35 222h-290z M267 437l-104 -179h264l-28 179q-21 139 -22 200h-1q-23 -51 -109 -200z" />
<glyph unicode="&#xc6;" horiz-adv-x="833" d="M13 0h-41l438 592q2 3 15.5 21.5t51.5 71.5h304l4 -5l-8 -34l-268 4l-26 -292l232 2l-9 -39l-226 2l-26 -288l284 4l-8 -39h-323l23 222h-253zM336 437l-132 -179h230l19 179q17 159 24 200h-1q-43 -69 -140 -200z" />
<glyph unicode="&#xc7;" horiz-adv-x="578" d="M368 -115q0 -37 -45 -63.5t-99 -33.5l-1 22q102 23 102 66q0 27 -55 33l-5 11l38 70h-3q-95 0 -148 63t-53 180q0 111 43.5 216t127.5 175.5t188 70.5q95 0 159 -45l-18 -42q-56 49 -148 49q-94 0 -166.5 -66.5t-106.5 -159t-34 -188.5q0 -101 43 -158t127 -57 q95 0 184 58l-2 -38q-66 -45 -162 -56l-30 -54q64 -10 64 -53z" />
<glyph unicode="&#xc8;" horiz-adv-x="532" d="M523 779q-126 20 -207 78l1 8l36 31q64 -54 181 -100zM437 39l-8 -39h-350l115 538q17 83 24 147h342l4 -5l-7 -34l-297 4l-63 -292l257 2l-9 -39l-255 2l-62 -288z" />
<glyph unicode="&#xc9;" horiz-adv-x="532" d="M549 865l-3 -8q-108 -58 -241 -78l-3 17q144 50 223 100zM437 39l-8 -39h-350l115 538q17 83 24 147h342l4 -5l-7 -34l-297 4l-63 -292l257 2l-9 -39l-255 2l-62 -288z" />
<glyph unicode="&#xca;" horiz-adv-x="532" d="M295 770l-10 13q81 62 138 118l44 5q47 -70 99 -123l-16 -13q-70 55 -113 97q-69 -53 -142 -97zM437 39l-8 -39h-350l115 538q17 83 24 147h342l4 -5l-7 -34l-297 4l-63 -292l257 2l-9 -39l-255 2l-62 -288z" />
<glyph unicode="&#xcb;" horiz-adv-x="532" d="M560 849q0 -22 -15.5 -39.5t-34.5 -17.5q-14 0 -22 8.5t-8 21.5q0 20 16 37.5t35 17.5q29 0 29 -28zM370 849q0 -22 -15.5 -39.5t-34.5 -17.5q-14 0 -22 8.5t-8 21.5q0 20 16 37.5t35 17.5q29 0 29 -28zM437 39l-8 -39h-350l115 538q17 83 24 147h342l4 -5l-7 -34l-297 4 l-63 -292l257 2l-9 -39l-255 2l-62 -288z" />
<glyph unicode="&#xcc;" horiz-adv-x="299" d="M373 779q-126 20 -207 78l1 8l36 31q64 -54 181 -100zM121 0h-42l114 538q18 80 25 147l46 10l4 -5z" />
<glyph unicode="&#xcd;" horiz-adv-x="299" d="M399 865l-3 -8q-108 -58 -241 -78l-3 17q144 50 223 100zM121 0h-42l114 538q18 80 25 147l46 10l4 -5z" />
<glyph unicode="&#xce;" horiz-adv-x="299" d="M145 770l-10 13q81 62 138 118l44 5q47 -70 99 -123l-16 -13q-70 55 -113 97q-69 -53 -142 -97zM121 0h-42l114 538q18 80 25 147l46 10l4 -5z" />
<glyph unicode="&#xcf;" horiz-adv-x="299" d="M410 849q0 -22 -15.5 -39.5t-34.5 -17.5q-14 0 -22 8.5t-8 21.5q0 20 16 37.5t35 17.5q29 0 29 -28zM220 849q0 -22 -15.5 -39.5t-34.5 -17.5q-14 0 -22 8.5t-8 21.5q0 20 16 37.5t35 17.5q29 0 29 -28zM121 0h-42l114 538q18 80 25 147l46 10l4 -5z" />
<glyph unicode="&#xd0;" horiz-adv-x="689" d="M629 433q0 -81 -29.5 -158.5t-82 -138.5t-131 -98.5t-169.5 -37.5h-138l70 328h-87l6 30h88l38 180q17 83 24 147h147q125 0 194.5 -63t69.5 -189zM422 328h-231l-62 -292h94q84 0 154 34t114.5 89.5t68.5 125.5t24 144q0 110 -56.5 165t-176.5 55h-92l-62 -291h231z" />
<glyph unicode="&#xd1;" horiz-adv-x="728" d="M425 890q29 0 68 -28t61 -28q40 0 82 57l15 -3q-13 -37 -43.5 -64.5t-66.5 -27.5q-30 0 -69 28t-61 28q-40 0 -82 -57l-15 3q13 35 43 63.5t68 28.5zM395 384q14 -34 38.5 -91.5t36.5 -87t27 -72.5t25 -82h1q16 95 99 487q18 80 25 147l46 10l4 -5l-147 -690h-45 q-22 52 -65 155.5t-64 155.5q-10 24 -30.5 73.5t-29 70t-22 56t-23 64t-18.5 59.5h-1q-18 -108 -50 -252l-81 -382h-42l114 538q18 80 25 147l48 10q35 -83 129 -311z" />
<glyph unicode="&#xd2;" horiz-adv-x="689" d="M575 779q-126 20 -207 78l1 8l36 31q64 -54 181 -100zM630 448q0 -111 -42.5 -215.5t-122 -173.5t-174.5 -69q-90 0 -141.5 62.5t-51.5 178.5q0 111 43.5 217t123.5 176.5t174 70.5q89 0 140 -64.5t51 -182.5zM143 240q0 -100 41 -156t118 -56q83 0 149.5 64t100 158.5 t33.5 193.5q0 101 -39 157t-115 56q-82 0 -150 -65t-103 -160t-35 -192z" />
<glyph unicode="&#xd3;" horiz-adv-x="689" d="M601 865l-3 -8q-108 -58 -241 -78l-3 17q144 50 223 100zM630 448q0 -111 -42.5 -215.5t-122 -173.5t-174.5 -69q-90 0 -141.5 62.5t-51.5 178.5q0 111 43.5 217t123.5 176.5t174 70.5q89 0 140 -64.5t51 -182.5zM143 240q0 -100 41 -156t118 -56q83 0 149.5 64 t100 158.5t33.5 193.5q0 101 -39 157t-115 56q-82 0 -150 -65t-103 -160t-35 -192z" />
<glyph unicode="&#xd4;" horiz-adv-x="689" d="M347 770l-10 13q81 62 138 118l44 5q47 -70 99 -123l-16 -13q-70 55 -113 97q-69 -53 -142 -97zM630 448q0 -111 -42.5 -215.5t-122 -173.5t-174.5 -69q-90 0 -141.5 62.5t-51.5 178.5q0 111 43.5 217t123.5 176.5t174 70.5q89 0 140 -64.5t51 -182.5zM143 240 q0 -100 41 -156t118 -56q83 0 149.5 64t100 158.5t33.5 193.5q0 101 -39 157t-115 56q-82 0 -150 -65t-103 -160t-35 -192z" />
<glyph unicode="&#xd5;" horiz-adv-x="689" d="M421 890q29 0 68 -28t61 -28q40 0 82 57l15 -3q-13 -37 -43.5 -64.5t-66.5 -27.5q-30 0 -69 28t-61 28q-40 0 -82 -57l-15 3q13 35 43 63.5t68 28.5zM630 448q0 -111 -42.5 -215.5t-122 -173.5t-174.5 -69q-90 0 -141.5 62.5t-51.5 178.5q0 111 43.5 217t123.5 176.5 t174 70.5q89 0 140 -64.5t51 -182.5zM143 240q0 -100 41 -156t118 -56q83 0 149.5 64t100 158.5t33.5 193.5q0 101 -39 157t-115 56q-82 0 -150 -65t-103 -160t-35 -192z" />
<glyph unicode="&#xd6;" horiz-adv-x="689" d="M612 849q0 -22 -15.5 -39.5t-34.5 -17.5q-14 0 -22 8.5t-8 21.5q0 20 16 37.5t35 17.5q29 0 29 -28zM422 849q0 -22 -15.5 -39.5t-34.5 -17.5q-14 0 -22 8.5t-8 21.5q0 20 16 37.5t35 17.5q29 0 29 -28zM630 448q0 -111 -42.5 -215.5t-122 -173.5t-174.5 -69 q-90 0 -141.5 62.5t-51.5 178.5q0 111 43.5 217t123.5 176.5t174 70.5q89 0 140 -64.5t51 -182.5zM143 240q0 -100 41 -156t118 -56q83 0 149.5 64t100 158.5t33.5 193.5q0 101 -39 157t-115 56q-82 0 -150 -65t-103 -160t-35 -192z" />
<glyph unicode="&#xd7;" d="M429 154l-133 167l-203 -168l-19 25l203 168l-133 167l32 25q28 -35 39 -49.5t33.5 -43.5t58.5 -74l203 168l19 -26l-202 -167q15 -19 57.5 -73t72.5 -92l-3 -7z" />
<glyph unicode="&#xd8;" horiz-adv-x="689" d="M630 448q0 -111 -42.5 -215.5t-122 -173.5t-174.5 -69q-119 0 -167 103l-101 -93l-20 22l110 101q-15 47 -15 108q0 111 43.5 217t123.5 176.5t174 70.5q122 0 168 -114l114 105l22 -21l-125 -116q12 -44 12 -101zM143 240q0 -43 8 -81l420 389q-33 109 -140 109 q-82 0 -150 -65t-103 -160t-35 -192zM585 444q0 38 -6 70l-418 -387q38 -99 141 -99q83 0 149.5 64t100 158.5t33.5 193.5z" />
<glyph unicode="&#xd9;" horiz-adv-x="634" d="M545 779q-126 20 -207 78l1 8l36 31q64 -54 181 -100zM87 157q0 41 45.5 245.5t50.5 284.5l54 8v-1q-22 -101 -53 -246q-55 -254 -55 -281q0 -66 40.5 -101.5t106.5 -35.5q78 0 139 49t80 138q12 54 25.5 118t20 95t14.5 69.5t11.5 56t7.5 39t5.5 34.5t3 27t2.5 31l54 8 l-101 -475q-24 -110 -100.5 -170t-175.5 -60q-79 0 -127 43t-48 124z" />
<glyph unicode="&#xda;" horiz-adv-x="634" d="M571 865l-3 -8q-108 -58 -241 -78l-3 17q144 50 223 100zM87 157q0 41 45.5 245.5t50.5 284.5l54 8v-1q-22 -101 -53 -246q-55 -254 -55 -281q0 -66 40.5 -101.5t106.5 -35.5q78 0 139 49t80 138q12 54 25.5 118t20 95t14.5 69.5t11.5 56t7.5 39t5.5 34.5t3 27t2.5 31 l54 8l-101 -475q-24 -110 -100.5 -170t-175.5 -60q-79 0 -127 43t-48 124z" />
<glyph unicode="&#xdb;" horiz-adv-x="634" d="M317 770l-10 13q81 62 138 118l44 5q47 -70 99 -123l-16 -13q-70 55 -113 97q-69 -53 -142 -97zM87 157q0 41 45.5 245.5t50.5 284.5l54 8v-1q-22 -101 -53 -246q-55 -254 -55 -281q0 -66 40.5 -101.5t106.5 -35.5q78 0 139 49t80 138q12 54 25.5 118t20 95t14.5 69.5 t11.5 56t7.5 39t5.5 34.5t3 27t2.5 31l54 8l-101 -475q-24 -110 -100.5 -170t-175.5 -60q-79 0 -127 43t-48 124z" />
<glyph unicode="&#xdc;" horiz-adv-x="634" d="M582 849q0 -22 -15.5 -39.5t-34.5 -17.5q-14 0 -22 8.5t-8 21.5q0 20 16 37.5t35 17.5q29 0 29 -28zM392 849q0 -22 -15.5 -39.5t-34.5 -17.5q-14 0 -22 8.5t-8 21.5q0 20 16 37.5t35 17.5q29 0 29 -28zM87 157q0 41 45.5 245.5t50.5 284.5l54 8v-1q-22 -101 -53 -246 q-55 -254 -55 -281q0 -66 40.5 -101.5t106.5 -35.5q78 0 139 49t80 138q12 54 25.5 118t20 95t14.5 69.5t11.5 56t7.5 39t5.5 34.5t3 27t2.5 31l54 8l-101 -475q-24 -110 -100.5 -170t-175.5 -60q-79 0 -127 43t-48 124z" />
<glyph unicode="&#xdd;" horiz-adv-x="524" d="M511 865l-3 -8q-108 -58 -241 -78l-3 17q144 50 223 100zM243 256l-124 435l43 4l74 -260q2 -9 12 -42.5t15.5 -59t7.5 -48.5h1q16 30 101 152l182 258l33 -5l4 -5l-308 -433l-54 -252h-42z" />
<glyph unicode="&#xde;" horiz-adv-x="553" d="M121 0h-42l114 538q18 87 25 147h49l-26 -123h105q92 0 143 -42t51 -122q0 -107 -84.5 -180.5t-212.5 -73.5h-91zM337 527h-104l-74 -348h100q103 0 169.5 61.5t66.5 153.5q0 133 -158 133z" />
<glyph unicode="&#xdf;" horiz-adv-x="551" d="M-12 -203l-15 21q67 76 90 182l98 462l-75 2l5 24l77 7l6 30q27 125 83 177.5t121 52.5q55 0 88.5 -34t33.5 -92q0 -69 -46.5 -121.5t-127.5 -73.5q63 -35 101 -100.5t38 -142.5q0 -90 -50.5 -145.5t-131.5 -55.5q-45 0 -91 17l8 40q42 -21 88 -21q66 0 100 46t34 115 q0 77 -41.5 142.5t-112.5 99.5l6 28q85 13 133 60t48 110q0 43 -22.5 67.5t-63.5 24.5q-115 0 -155 -191l-111 -528q-24 -116 -115 -203z" />
<glyph unicode="&#xe0;" horiz-adv-x="506" d="M413 580q-91 66 -130 151l5 8l42 16q26 -71 96 -162zM52 132q0 91 39.5 176.5t112 141t156.5 55.5q53 0 103 -15l-42 -173q-17 -72 -25 -108.5t-15.5 -95t-7.5 -113.5h-40q0 101 29 232q-112 -242 -219 -242q-40 0 -65.5 35.5t-25.5 106.5zM95 137q0 -52 15.5 -81.5 t44.5 -29.5q45 0 100.5 74.5t93 158.5t52.5 143q3 10 7.5 29.5t6.5 25.5q-42 12 -78 12q-94 0 -168 -104.5t-74 -227.5z" />
<glyph unicode="&#xe1;" horiz-adv-x="506" d="M453 736l1 -8q-79 -87 -194 -151l-7 13q114 96 164 162zM52 132q0 91 39.5 176.5t112 141t156.5 55.5q53 0 103 -15l-42 -173q-17 -72 -25 -108.5t-15.5 -95t-7.5 -113.5h-40q0 101 29 232q-112 -242 -219 -242q-40 0 -65.5 35.5t-25.5 106.5zM95 137q0 -52 15.5 -81.5 t44.5 -29.5q45 0 100.5 74.5t93 158.5t52.5 143q3 10 7.5 29.5t6.5 25.5q-42 12 -78 12q-94 0 -168 -104.5t-74 -227.5z" />
<glyph unicode="&#xe2;" horiz-adv-x="506" d="M238 579l-11 11q82 87 133 154l44 5q31 -79 78 -159l-15 -11q-47 57 -94 126q-56 -56 -135 -126zM52 132q0 91 39.5 176.5t112 141t156.5 55.5q53 0 103 -15l-42 -173q-17 -72 -25 -108.5t-15.5 -95t-7.5 -113.5h-40q0 101 29 232q-112 -242 -219 -242q-40 0 -65.5 35.5 t-25.5 106.5zM95 137q0 -52 15.5 -81.5t44.5 -29.5q45 0 100.5 74.5t93 158.5t52.5 143q3 10 7.5 29.5t6.5 25.5q-42 12 -78 12q-94 0 -168 -104.5t-74 -227.5z" />
<glyph unicode="&#xe3;" horiz-adv-x="506" d="M299 710q26 0 62 -28t55 -28q33 0 75 57l15 -3q-14 -36 -42.5 -64t-60.5 -28q-27 0 -63 28t-55 28q-33 0 -75 -57l-15 3q15 35 43 63.5t61 28.5zM52 132q0 91 39.5 176.5t112 141t156.5 55.5q53 0 103 -15l-42 -173q-17 -72 -25 -108.5t-15.5 -95t-7.5 -113.5h-40 q0 101 29 232q-112 -242 -219 -242q-40 0 -65.5 35.5t-25.5 106.5zM95 137q0 -52 15.5 -81.5t44.5 -29.5q45 0 100.5 74.5t93 158.5t52.5 143q3 10 7.5 29.5t6.5 25.5q-42 12 -78 12q-94 0 -168 -104.5t-74 -227.5z" />
<glyph unicode="&#xe4;" horiz-adv-x="506" d="M298 680q0 -24 -14.5 -43t-33.5 -19q-26 0 -26 30q0 22 15.5 41t33.5 19q25 0 25 -28zM486 680q0 -24 -14.5 -43t-33.5 -19q-26 0 -26 30q0 22 15.5 41t33.5 19q25 0 25 -28zM52 132q0 91 39.5 176.5t112 141t156.5 55.5q53 0 103 -15l-42 -173q-17 -72 -25 -108.5 t-15.5 -95t-7.5 -113.5h-40q0 101 29 232q-112 -242 -219 -242q-40 0 -65.5 35.5t-25.5 106.5zM95 137q0 -52 15.5 -81.5t44.5 -29.5q45 0 100.5 74.5t93 158.5t52.5 143q3 10 7.5 29.5t6.5 25.5q-42 12 -78 12q-94 0 -168 -104.5t-74 -227.5z" />
<glyph unicode="&#xe5;" horiz-adv-x="506" d="M432 666q0 -35 -30.5 -63.5t-68.5 -28.5q-26 0 -44 16t-18 40q0 34 31 62t69 28q27 0 44 -15t17 -39zM306 635q0 -16 9.5 -25t25.5 -9q22 0 39 18t17 41q0 33 -35 33q-22 0 -39 -17.5t-17 -40.5zM52 132q0 91 39.5 176.5t112 141t156.5 55.5q53 0 103 -15l-42 -173 q-17 -72 -25 -108.5t-15.5 -95t-7.5 -113.5h-40q0 101 29 232q-112 -242 -219 -242q-40 0 -65.5 35.5t-25.5 106.5zM95 137q0 -52 15.5 -81.5t44.5 -29.5q45 0 100.5 74.5t93 158.5t52.5 143q3 10 7.5 29.5t6.5 25.5q-42 12 -78 12q-94 0 -168 -104.5t-74 -227.5z" />
<glyph unicode="&#xe6;" horiz-adv-x="730" d="M52 133q0 91 39 175.5t114 140.5t168 56q61 0 127 -27q44 27 90 27q47 0 76 -27.5t29 -74.5q0 -70 -71 -120t-234 -58q-5 -30 -5 -53q0 -66 29 -106t80 -40q78 0 153 93l18 -13q-30 -54 -79 -85t-100 -31q-64 0 -104 47.5t-40 131.5q0 16 1 24q-103 -203 -200 -203 q-40 0 -65.5 35.5t-25.5 107.5zM95 137q0 -111 59 -111q36 0 78.5 47.5t75.5 107t62 128.5q31 82 88 136q-48 24 -103 24q-111 0 -185.5 -102.5t-74.5 -229.5zM581 469q-60 0 -111.5 -64.5t-73.5 -150.5q140 9 198 53t58 95q0 30 -19.5 48.5t-51.5 18.5z" />
<glyph unicode="&#xe7;" horiz-adv-x="444" d="M265 -115q0 -37 -45 -63.5t-99 -33.5l-1 22q102 23 102 66q0 27 -55 33l-5 11l38 70q-65 1 -103 47.5t-38 130.5q0 130 82 233.5t186 103.5q57 0 101 -42l-17 -41q-40 47 -94 47q-81 0 -148 -93.5t-67 -203.5q0 -66 28.5 -106t82.5 -40q79 0 153 93l18 -13 q-63 -99 -153 -114l-30 -54q64 -10 64 -53z" />
<glyph unicode="&#xe8;" horiz-adv-x="447" d="M367 580q-91 66 -130 151l5 8l42 16q26 -71 96 -162zM364 119l18 -13q-30 -54 -79 -85t-100 -31q-64 0 -104 47.5t-40 131.5q0 78 33.5 156t91.5 129t123 51q47 0 76 -27.5t29 -74.5q0 -70 -71 -120t-234 -58q-5 -30 -5 -53q0 -66 29 -106t80 -40q78 0 153 93zM298 469 q-60 0 -111.5 -64.5t-73.5 -150.5q140 9 198 53t58 95q0 30 -19.5 48.5t-51.5 18.5z" />
<glyph unicode="&#xe9;" horiz-adv-x="447" d="M407 736l1 -8q-79 -87 -194 -151l-7 13q114 96 164 162zM364 119l18 -13q-30 -54 -79 -85t-100 -31q-64 0 -104 47.5t-40 131.5q0 78 33.5 156t91.5 129t123 51q47 0 76 -27.5t29 -74.5q0 -70 -71 -120t-234 -58q-5 -30 -5 -53q0 -66 29 -106t80 -40q78 0 153 93z M298 469q-60 0 -111.5 -64.5t-73.5 -150.5q140 9 198 53t58 95q0 30 -19.5 48.5t-51.5 18.5z" />
<glyph unicode="&#xea;" horiz-adv-x="447" d="M192 579l-11 11q82 87 133 154l44 5q31 -79 78 -159l-15 -11q-47 57 -94 126q-56 -56 -135 -126zM364 119l18 -13q-30 -54 -79 -85t-100 -31q-64 0 -104 47.5t-40 131.5q0 78 33.5 156t91.5 129t123 51q47 0 76 -27.5t29 -74.5q0 -70 -71 -120t-234 -58q-5 -30 -5 -53 q0 -66 29 -106t80 -40q78 0 153 93zM298 469q-60 0 -111.5 -64.5t-73.5 -150.5q140 9 198 53t58 95q0 30 -19.5 48.5t-51.5 18.5z" />
<glyph unicode="&#xeb;" horiz-adv-x="447" d="M252 680q0 -24 -14.5 -43t-33.5 -19q-26 0 -26 30q0 22 15.5 41t33.5 19q25 0 25 -28zM440 680q0 -24 -14.5 -43t-33.5 -19q-26 0 -26 30q0 22 15.5 41t33.5 19q25 0 25 -28zM364 119l18 -13q-30 -54 -79 -85t-100 -31q-64 0 -104 47.5t-40 131.5q0 78 33.5 156t91.5 129 t123 51q47 0 76 -27.5t29 -74.5q0 -70 -71 -120t-234 -58q-5 -30 -5 -53q0 -66 29 -106t80 -40q78 0 153 93zM298 469q-60 0 -111.5 -64.5t-73.5 -150.5q140 9 198 53t58 95q0 30 -19.5 48.5t-51.5 18.5z" />
<glyph unicode="&#xec;" horiz-adv-x="241" d="M247 580q-91 66 -130 151l5 8l42 16q26 -71 96 -162zM111 0h-40q0 96 37 267l20 92l8 136l49 10q0 -73 -37 -248t-37 -257z" />
<glyph unicode="&#xed;" horiz-adv-x="241" d="M287 736l1 -8q-79 -87 -194 -151l-7 13q114 96 164 162zM111 0h-40q0 96 37 267l20 92l8 136l49 10q0 -73 -37 -248t-37 -257z" />
<glyph unicode="&#xee;" horiz-adv-x="241" d="M92 586l-8 10q62 86 103 154l44 5q25 -92 48 -159l-12 -10q-33 52 -67 121q-78 -91 -108 -121zM111 0h-40q0 96 37 267l20 92l8 136l49 10q0 -73 -37 -248t-37 -257z" />
<glyph unicode="&#xef;" horiz-adv-x="241" d="M158 683q0 -24 -14.5 -43t-33.5 -19q-26 0 -26 30q0 22 15.5 41t33.5 19q25 0 25 -28zM294 683q0 -24 -14.5 -43t-33.5 -19q-26 0 -26 30q0 22 15.5 41t33.5 19q25 0 25 -28zM111 0h-40q0 96 37 267l20 92l8 136l49 10q0 -73 -37 -248t-37 -257z" />
<glyph unicode="&#xf0;" horiz-adv-x="513" d="M196 -10q-61 0 -95.5 43t-34.5 126t30.5 162t88.5 131.5t128 52.5q63 0 97 -45q-13 91 -72 168l-160 -82l-11 29l151 77q-42 45 -91 76l24 27q63 -34 107 -83l144 74l11 -28l-136 -70q74 -99 74 -254q0 -168 -73.5 -286t-181.5 -118zM303 469q-57 0 -103 -48.5 t-68.5 -117.5t-22.5 -139q0 -138 97 -138q57 0 103 48.5t68.5 117.5t22.5 139q0 138 -97 138z" />
<glyph unicode="&#xf1;" horiz-adv-x="537" d="M293 710q26 0 62 -28t55 -28q33 0 75 57l15 -3q-14 -36 -42.5 -64t-60.5 -28q-27 0 -63 28t-55 28q-33 0 -75 -57l-15 3q15 35 43 63.5t61 28.5zM111 0h-40q0 22 1.5 45.5t3.5 41.5t6.5 45.5t6.5 41t9 46.5t9 43t10.5 49t10.5 47l8 136l49 10q0 -67 -22 -160h2 q36 78 91.5 119t112.5 41q45 0 69 -25t24 -69q0 -41 -32 -185q-18 -82 -23.5 -124.5t-5.5 -101.5h-40q0 73 34 245q22 112 22 150q0 74 -63 74q-64 0 -119 -64t-88 -172t-36 -233z" />
<glyph unicode="&#xf2;" horiz-adv-x="494" d="M391 580q-91 66 -130 151l5 8l42 16q26 -71 96 -162zM436 337q0 -82 -30 -160.5t-88.5 -132.5t-129.5 -54q-62 0 -95.5 43t-33.5 126t30.5 162t88.5 131.5t128 52.5q62 0 96 -42.5t34 -125.5zM102 164q0 -138 97 -138q57 0 103 48.5t68.5 117.5t22.5 139q0 138 -97 138 q-57 0 -103 -48.5t-68.5 -117.5t-22.5 -139z" />
<glyph unicode="&#xf3;" horiz-adv-x="494" d="M431 736l1 -8q-79 -87 -194 -151l-7 13q114 96 164 162zM436 337q0 -82 -30 -160.5t-88.5 -132.5t-129.5 -54q-62 0 -95.5 43t-33.5 126t30.5 162t88.5 131.5t128 52.5q62 0 96 -42.5t34 -125.5zM102 164q0 -138 97 -138q57 0 103 48.5t68.5 117.5t22.5 139 q0 138 -97 138q-57 0 -103 -48.5t-68.5 -117.5t-22.5 -139z" />
<glyph unicode="&#xf4;" horiz-adv-x="494" d="M216 579l-11 11q82 87 133 154l44 5q31 -79 78 -159l-15 -11q-47 57 -94 126q-56 -56 -135 -126zM436 337q0 -82 -30 -160.5t-88.5 -132.5t-129.5 -54q-62 0 -95.5 43t-33.5 126t30.5 162t88.5 131.5t128 52.5q62 0 96 -42.5t34 -125.5zM102 164q0 -138 97 -138 q57 0 103 48.5t68.5 117.5t22.5 139q0 138 -97 138q-57 0 -103 -48.5t-68.5 -117.5t-22.5 -139z" />
<glyph unicode="&#xf5;" horiz-adv-x="494" d="M277 710q26 0 62 -28t55 -28q33 0 75 57l15 -3q-14 -36 -42.5 -64t-60.5 -28q-27 0 -63 28t-55 28q-33 0 -75 -57l-15 3q15 35 43 63.5t61 28.5zM436 337q0 -82 -30 -160.5t-88.5 -132.5t-129.5 -54q-62 0 -95.5 43t-33.5 126t30.5 162t88.5 131.5t128 52.5 q62 0 96 -42.5t34 -125.5zM102 164q0 -138 97 -138q57 0 103 48.5t68.5 117.5t22.5 139q0 138 -97 138q-57 0 -103 -48.5t-68.5 -117.5t-22.5 -139z" />
<glyph unicode="&#xf6;" horiz-adv-x="494" d="M276 680q0 -24 -14.5 -43t-33.5 -19q-26 0 -26 30q0 22 15.5 41t33.5 19q25 0 25 -28zM464 680q0 -24 -14.5 -43t-33.5 -19q-26 0 -26 30q0 22 15.5 41t33.5 19q25 0 25 -28zM436 337q0 -82 -30 -160.5t-88.5 -132.5t-129.5 -54q-62 0 -95.5 43t-33.5 126t30.5 162 t88.5 131.5t128 52.5q62 0 96 -42.5t34 -125.5zM102 164q0 -138 97 -138q57 0 103 48.5t68.5 117.5t22.5 139q0 138 -97 138q-57 0 -103 -48.5t-68.5 -117.5t-22.5 -139z" />
<glyph unicode="&#xf7;" d="M388 547q0 -21 -17.5 -39t-39.5 -18q-14 0 -22 8.5t-8 21.5q0 22 18 40t40 18q13 0 21 -8.5t8 -22.5zM521 328h-450l7 35q172 5 451 5l3 -5zM310 175q0 -21 -17.5 -39t-39.5 -18q-14 0 -22 8.5t-8 21.5q0 22 18 40t40 18q13 0 21 -8.5t8 -22.5z" />
<glyph unicode="&#xf8;" horiz-adv-x="494" d="M436 337q0 -82 -30 -160.5t-88.5 -132.5t-129.5 -54q-88 0 -117 84l-82 -72l-18 22l92 81q-4 21 -4 54q0 83 30.5 162t88.5 131.5t128 52.5q89 0 118 -86l86 75l19 -22l-97 -84q4 -21 4 -51zM102 164q0 -17 1 -25l285 248q-18 82 -92 82q-57 0 -103 -48.5t-68.5 -117.5 t-22.5 -139zM393 331q0 15 -1 22l-284 -248q17 -79 91 -79q57 0 103 48.5t68.5 117.5t22.5 139z" />
<glyph unicode="&#xf9;" horiz-adv-x="510" d="M388 580q-91 66 -130 151l5 8l42 16q26 -71 96 -162zM76 145l45 214l8 136l49 10q0 -34 -5 -74.5t-10 -68.5t-15.5 -79t-15.5 -75q-9 -50 -12 -79.5t0 -55t17.5 -36.5t40.5 -11q64 0 114.5 62t81.5 165q29 129 34 191q3 26 3 51l40 10q0 -35 -5.5 -79t-12 -77t-18 -86.5 t-16.5 -80.5q-22 -114 -22 -182h-40q0 61 13 137q-33 -71 -83 -109t-101 -38q-56 0 -80.5 42t-9.5 113z" />
<glyph unicode="&#xfa;" horiz-adv-x="510" d="M428 736l1 -8q-79 -87 -194 -151l-7 13q114 96 164 162zM76 145l45 214l8 136l49 10q0 -34 -5 -74.5t-10 -68.5t-15.5 -79t-15.5 -75q-9 -50 -12 -79.5t0 -55t17.5 -36.5t40.5 -11q64 0 114.5 62t81.5 165q29 129 34 191q3 26 3 51l40 10q0 -35 -5.5 -79t-12 -77 t-18 -86.5t-16.5 -80.5q-22 -114 -22 -182h-40q0 61 13 137q-33 -71 -83 -109t-101 -38q-56 0 -80.5 42t-9.5 113z" />
<glyph unicode="&#xfb;" horiz-adv-x="510" d="M213 579l-11 11q82 87 133 154l44 5q31 -79 78 -159l-15 -11q-47 57 -94 126q-56 -56 -135 -126zM76 145l45 214l8 136l49 10q0 -34 -5 -74.5t-10 -68.5t-15.5 -79t-15.5 -75q-9 -50 -12 -79.5t0 -55t17.5 -36.5t40.5 -11q64 0 114.5 62t81.5 165q29 129 34 191 q3 26 3 51l40 10q0 -35 -5.5 -79t-12 -77t-18 -86.5t-16.5 -80.5q-22 -114 -22 -182h-40q0 61 13 137q-33 -71 -83 -109t-101 -38q-56 0 -80.5 42t-9.5 113z" />
<glyph unicode="&#xfc;" horiz-adv-x="510" d="M273 680q0 -24 -14.5 -43t-33.5 -19q-26 0 -26 30q0 22 15.5 41t33.5 19q25 0 25 -28zM461 680q0 -24 -14.5 -43t-33.5 -19q-26 0 -26 30q0 22 15.5 41t33.5 19q25 0 25 -28zM76 145l45 214l8 136l49 10q0 -34 -5 -74.5t-10 -68.5t-15.5 -79t-15.5 -75q-9 -50 -12 -79.5 t0 -55t17.5 -36.5t40.5 -11q64 0 114.5 62t81.5 165q29 129 34 191q3 26 3 51l40 10q0 -35 -5.5 -79t-12 -77t-18 -86.5t-16.5 -80.5q-22 -114 -22 -182h-40q0 61 13 137q-33 -71 -83 -109t-101 -38q-56 0 -80.5 42t-9.5 113z" />
<glyph unicode="&#xfd;" horiz-adv-x="398" d="M364 736l1 -8q-79 -87 -194 -151l-7 13q114 96 164 162zM387 505q18 0 18 -18q0 -61 -59 -185.5t-140.5 -247.5t-176 -216t-157.5 -93q-37 0 -37 27q0 13 8 23q21 -3 37 -3q96 0 246 210q0 261 -58 493l40 10q59 -217 59 -445h1q180 263 200 441q9 4 19 4z" />
<glyph unicode="&#xfe;" horiz-adv-x="507" d="M52 -245h-40q0 89 61 375l102 479l8 136l49 10q0 -28 -4.5 -66.5t-9.5 -70t-17 -89.5t-18 -85.5t-22.5 -99t-21.5 -92.5q42 105 99 179t123 74q43 0 68.5 -35t25.5 -107q0 -91 -39.5 -176.5t-112 -141t-156.5 -55.5q-28 0 -63 6q-32 -160 -32 -241zM352 469 q-44 0 -97.5 -68t-96.5 -166.5t-65 -196.5q41 -12 77 -12q94 0 168 104.5t74 227.5q0 52 -15.5 81.5t-44.5 29.5z" />
<glyph unicode="&#xff;" horiz-adv-x="398" d="M209 680q0 -24 -14.5 -43t-33.5 -19q-26 0 -26 30q0 22 15.5 41t33.5 19q25 0 25 -28zM397 680q0 -24 -14.5 -43t-33.5 -19q-26 0 -26 30q0 22 15.5 41t33.5 19q25 0 25 -28zM387 505q18 0 18 -18q0 -61 -59 -185.5t-140.5 -247.5t-176 -216t-157.5 -93q-37 0 -37 27 q0 13 8 23q21 -3 37 -3q96 0 246 210q0 261 -58 493l40 10q59 -217 59 -445h1q180 263 200 441q9 4 19 4z" />
<glyph unicode="&#x100;" horiz-adv-x="589" d="M289 817l8 39h254l-8 -39h-254zM13 0h-41l344 592q37 64 56 100l28 3l4 -5l107 -690h-44l-35 222h-290zM267 437l-104 -179h264l-28 179q-21 139 -22 200h-1q-23 -51 -109 -200z" />
<glyph unicode="&#x101;" horiz-adv-x="506" d="M219 646l7 34h264l-7 -34h-264zM52 132q0 91 39.5 176.5t112 141t156.5 55.5q53 0 103 -15l-42 -173q-17 -72 -25 -108.5t-15.5 -95t-7.5 -113.5h-40q0 101 29 232q-112 -242 -219 -242q-40 0 -65.5 35.5t-25.5 106.5zM95 137q0 -52 15.5 -81.5t44.5 -29.5 q45 0 100.5 74.5t93 158.5t52.5 143q3 10 7.5 29.5t6.5 25.5q-42 12 -78 12q-94 0 -168 -104.5t-74 -227.5z" />
<glyph unicode="&#x102;" horiz-adv-x="589" d="M517 890l22 -3q-22 -48 -60 -75t-84 -27q-45 0 -70.5 27.5t-23.5 74.5l23 3q4 -29 26.5 -45.5t58.5 -16.5q70 0 108 62zM13 0h-41l344 592q37 64 56 100l28 3l4 -5l107 -690h-44l-35 222h-290zM267 437l-104 -179h264l-28 179q-21 139 -22 200h-1q-23 -51 -109 -200z" />
<glyph unicode="&#x103;" horiz-adv-x="506" d="M452 727l22 -3q-23 -57 -63 -89.5t-85 -32.5t-69.5 32.5t-20.5 89.5l23 3q2 -39 23.5 -60.5t57.5 -21.5q33 0 62.5 22t49.5 60zM52 132q0 91 39.5 176.5t112 141t156.5 55.5q53 0 103 -15l-42 -173q-17 -72 -25 -108.5t-15.5 -95t-7.5 -113.5h-40q0 101 29 232 q-112 -242 -219 -242q-40 0 -65.5 35.5t-25.5 106.5zM95 137q0 -52 15.5 -81.5t44.5 -29.5q45 0 100.5 74.5t93 158.5t52.5 143q3 10 7.5 29.5t6.5 25.5q-42 12 -78 12q-94 0 -168 -104.5t-74 -227.5z" />
<glyph unicode="&#x104;" horiz-adv-x="589" d="M13 0h-41l344 592q37 64 56 100l28 3l4 -5l107 -690h-3q-139 -71 -139 -142q0 -37 46 -37q24 0 59 12l4 -22q-34 -23 -79 -23q-35 0 -55 14.5t-20 41.5q0 83 143 156l-35 222h-290zM267 437l-104 -179h264l-28 179q-21 139 -22 200h-1q-23 -51 -109 -200z" />
<glyph unicode="&#x105;" horiz-adv-x="506" d="M52 132q0 91 39.5 176.5t112 141t156.5 55.5q53 0 103 -15l-42 -173q-17 -72 -25 -108.5t-15.5 -95t-7.5 -113.5q-139 -71 -139 -142q0 -37 46 -37q24 0 59 12l4 -22q-34 -23 -79 -23q-35 0 -55 14.5t-20 41.5q0 85 144 156q0 102 29 232q-112 -242 -219 -242 q-40 0 -65.5 35.5t-25.5 106.5zM95 137q0 -52 15.5 -81.5t44.5 -29.5q45 0 100.5 74.5t93 158.5t52.5 143q3 10 7.5 29.5t6.5 25.5q-42 12 -78 12q-94 0 -168 -104.5t-74 -227.5z" />
<glyph unicode="&#x106;" horiz-adv-x="578" d="M592 865l-3 -8q-108 -58 -241 -78l-3 17q144 50 223 100zM498 86l-2 -38q-40 -27 -94 -42.5t-102 -15.5q-95 0 -148 63t-53 180q0 111 43.5 216t127.5 175.5t188 70.5q95 0 159 -45l-18 -42q-56 49 -148 49q-94 0 -166.5 -66.5t-106.5 -159t-34 -188.5q0 -101 43 -158 t127 -57q95 0 184 58z" />
<glyph unicode="&#x107;" horiz-adv-x="444" d="M418 736l1 -8q-79 -87 -194 -151l-7 13q114 96 164 162zM366 119l18 -13q-74 -116 -181 -116q-66 0 -105 47t-39 131q0 130 82 233.5t186 103.5q57 0 101 -42l-17 -41q-40 47 -94 47q-81 0 -148 -93.5t-67 -203.5q0 -66 28.5 -106t82.5 -40q79 0 153 93z" />
<glyph unicode="&#x108;" horiz-adv-x="578" d="M338 770l-10 13q81 62 138 118l44 5q47 -70 99 -123l-16 -13q-70 55 -113 97q-69 -53 -142 -97zM498 86l-2 -38q-40 -27 -94 -42.5t-102 -15.5q-95 0 -148 63t-53 180q0 111 43.5 216t127.5 175.5t188 70.5q95 0 159 -45l-18 -42q-56 49 -148 49q-94 0 -166.5 -66.5 t-106.5 -159t-34 -188.5q0 -101 43 -158t127 -57q95 0 184 58z" />
<glyph unicode="&#x109;" horiz-adv-x="444" d="M203 579l-11 11q82 87 133 154l44 5q31 -79 78 -159l-15 -11q-47 57 -94 126q-56 -56 -135 -126zM366 119l18 -13q-74 -116 -181 -116q-66 0 -105 47t-39 131q0 130 82 233.5t186 103.5q57 0 101 -42l-17 -41q-40 47 -94 47q-81 0 -148 -93.5t-67 -203.5q0 -66 28.5 -106 t82.5 -40q79 0 153 93z" />
<glyph unicode="&#x10a;" horiz-adv-x="578" d="M511 857q0 -22 -15 -38t-36 -16q-32 0 -32 29q0 20 16 36.5t36 16.5q31 0 31 -28zM498 86l-2 -38q-40 -27 -94 -42.5t-102 -15.5q-95 0 -148 63t-53 180q0 111 43.5 216t127.5 175.5t188 70.5q95 0 159 -45l-18 -42q-56 49 -148 49q-94 0 -166.5 -66.5t-106.5 -159 t-34 -188.5q0 -101 43 -158t127 -57q95 0 184 58z" />
<glyph unicode="&#x10b;" horiz-adv-x="444" d="M358 682q0 -24 -15 -42.5t-34 -18.5q-27 0 -27 30q0 23 15.5 41.5t33.5 18.5q27 0 27 -29zM366 119l18 -13q-74 -116 -181 -116q-66 0 -105 47t-39 131q0 130 82 233.5t186 103.5q57 0 101 -42l-17 -41q-40 47 -94 47q-81 0 -148 -93.5t-67 -203.5q0 -66 28.5 -106 t82.5 -40q79 0 153 93z" />
<glyph unicode="&#x10c;" horiz-adv-x="578" d="M599 906l10 -13q-81 -62 -138 -118l-44 -5q-47 70 -99 123l16 13q70 -55 113 -97q69 53 142 97zM498 86l-2 -38q-40 -27 -94 -42.5t-102 -15.5q-95 0 -148 63t-53 180q0 111 43.5 216t127.5 175.5t188 70.5q95 0 159 -45l-18 -42q-56 49 -148 49q-94 0 -166.5 -66.5 t-106.5 -159t-34 -188.5q0 -101 43 -158t127 -57q95 0 184 58z" />
<glyph unicode="&#x10d;" horiz-adv-x="444" d="M437 750l11 -11q-82 -87 -133 -154l-44 -5q-31 79 -78 159l15 11q47 -57 94 -126q56 56 135 126zM366 119l18 -13q-74 -116 -181 -116q-66 0 -105 47t-39 131q0 130 82 233.5t186 103.5q57 0 101 -42l-17 -41q-40 47 -94 47q-81 0 -148 -93.5t-67 -203.5q0 -66 28.5 -106 t82.5 -40q79 0 153 93z" />
<glyph unicode="&#x10e;" horiz-adv-x="689" d="M587 906l10 -13q-81 -62 -138 -118l-44 -5q-47 70 -99 123l16 13q70 -55 113 -97q69 53 142 97zM629 433q0 -81 -29.5 -158.5t-82 -138.5t-131 -98.5t-169.5 -37.5h-138l115 538q17 83 24 147h147q125 0 194.5 -63t69.5 -189zM351 649h-92l-130 -613h94q84 0 154 34 t114.5 89.5t68.5 125.5t24 144q0 110 -56.5 165t-176.5 55z" />
<glyph unicode="&#x10f;" horiz-adv-x="509" d="M376 0h-40q0 77 32 238q-106 -248 -225 -248q-40 0 -65.5 35.5t-25.5 106.5q0 91 39.5 176.5t112 141t156.5 55.5q27 0 63 -6l23 110l8 136l49 10q0 -94 -63.5 -371t-63.5 -384zM672 755l5 -6q-29 -102 -109 -212l-15 6q59 122 76 206zM95 137q0 -52 15.5 -81.5 t44.5 -29.5q44 0 99.5 71.5t93.5 155.5t52 143l14 61q-42 12 -77 12q-94 0 -168 -104.5t-74 -227.5z" />
<glyph unicode="&#x110;" horiz-adv-x="689" d="M629 433q0 -81 -29.5 -158.5t-82 -138.5t-131 -98.5t-169.5 -37.5h-138l70 328h-87l6 30h88l38 180q17 83 24 147h147q125 0 194.5 -63t69.5 -189zM422 328h-231l-62 -292h94q84 0 154 34t114.5 89.5t68.5 125.5t24 144q0 110 -56.5 165t-176.5 55h-92l-62 -291h231z" />
<glyph unicode="&#x111;" horiz-adv-x="509" d="M376 0h-40q0 77 32 238q-106 -248 -225 -248q-40 0 -65.5 35.5t-25.5 106.5q0 91 39.5 176.5t112 141t156.5 55.5q27 0 63 -6l21 101h-221l6 30h218l7 115l49 10q0 -46 -12 -125h98l-6 -30h-97q-12 -64 -42 -194.5t-49 -232.5t-19 -173zM95 137q0 -52 15.5 -81.5 t44.5 -29.5q44 0 99.5 71.5t93.5 155.5t52 143l14 61q-42 12 -77 12q-94 0 -168 -104.5t-74 -227.5z" />
<glyph unicode="&#x112;" horiz-adv-x="532" d="M294 817l8 39h254l-8 -39h-254zM437 39l-8 -39h-350l115 538q17 83 24 147h342l4 -5l-7 -34l-297 4l-63 -292l257 2l-9 -39l-255 2l-62 -288z" />
<glyph unicode="&#x113;" horiz-adv-x="447" d="M173 646l7 34h264l-7 -34h-264zM364 119l18 -13q-30 -54 -79 -85t-100 -31q-64 0 -104 47.5t-40 131.5q0 78 33.5 156t91.5 129t123 51q47 0 76 -27.5t29 -74.5q0 -70 -71 -120t-234 -58q-5 -30 -5 -53q0 -66 29 -106t80 -40q78 0 153 93zM298 469q-60 0 -111.5 -64.5 t-73.5 -150.5q140 9 198 53t58 95q0 30 -19.5 48.5t-51.5 18.5z" />
<glyph unicode="&#x114;" horiz-adv-x="532" d="M522 890l22 -3q-22 -48 -60 -75t-84 -27q-45 0 -70.5 27.5t-23.5 74.5l23 3q4 -29 26.5 -45.5t58.5 -16.5q70 0 108 62zM437 39l-8 -39h-350l115 538q17 83 24 147h342l4 -5l-7 -34l-297 4l-63 -292l257 2l-9 -39l-255 2l-62 -288z" />
<glyph unicode="&#x115;" horiz-adv-x="447" d="M406 727l22 -3q-23 -57 -63 -89.5t-85 -32.5t-69.5 32.5t-20.5 89.5l23 3q2 -39 23.5 -60.5t57.5 -21.5q33 0 62.5 22t49.5 60zM364 119l18 -13q-30 -54 -79 -85t-100 -31q-64 0 -104 47.5t-40 131.5q0 78 33.5 156t91.5 129t123 51q47 0 76 -27.5t29 -74.5 q0 -70 -71 -120t-234 -58q-5 -30 -5 -53q0 -66 29 -106t80 -40q78 0 153 93zM298 469q-60 0 -111.5 -64.5t-73.5 -150.5q140 9 198 53t58 95q0 30 -19.5 48.5t-51.5 18.5z" />
<glyph unicode="&#x116;" horiz-adv-x="532" d="M468 857q0 -22 -15 -38t-36 -16q-32 0 -32 29q0 20 16 36.5t36 16.5q31 0 31 -28zM437 39l-8 -39h-350l115 538q17 83 24 147h342l4 -5l-7 -34l-297 4l-63 -292l257 2l-9 -39l-255 2l-62 -288z" />
<glyph unicode="&#x117;" horiz-adv-x="447" d="M347 682q0 -24 -15 -42.5t-34 -18.5q-27 0 -27 30q0 23 15.5 41.5t33.5 18.5q27 0 27 -29zM364 119l18 -13q-30 -54 -79 -85t-100 -31q-64 0 -104 47.5t-40 131.5q0 78 33.5 156t91.5 129t123 51q47 0 76 -27.5t29 -74.5q0 -70 -71 -120t-234 -58q-5 -30 -5 -53 q0 -66 29 -106t80 -40q78 0 153 93zM298 469q-60 0 -111.5 -64.5t-73.5 -150.5q140 9 198 53t58 95q0 30 -19.5 48.5t-51.5 18.5z" />
<glyph unicode="&#x118;" horiz-adv-x="532" d="M429 0q-139 -71 -139 -142q0 -37 46 -37q24 0 59 12l4 -22q-34 -23 -79 -23q-35 0 -55 14.5t-20 41.5q0 83 143 156h-309l115 538q17 83 24 147h342l4 -5l-7 -34l-297 4l-63 -292l257 2l-9 -39l-255 2l-62 -288l309 4z" />
<glyph unicode="&#x119;" horiz-adv-x="447" d="M305 22q-51 -36 -75 -55t-44 -46t-20 -54q0 -46 47 -46q23 0 58 12l4 -22q-34 -23 -79 -23q-35 0 -55 17.5t-20 48.5q0 64 102 137q-7 -1 -20 -1q-64 0 -104 47.5t-40 131.5q0 78 33.5 156t91.5 129t123 51q47 0 76 -27.5t29 -74.5q0 -70 -71 -120t-234 -58 q-5 -30 -5 -53q0 -66 29 -106t80 -40q78 0 153 93l18 -13q-29 -52 -77 -84zM298 469q-60 0 -111.5 -64.5t-73.5 -150.5q140 9 198 53t58 95q0 30 -19.5 48.5t-51.5 18.5z" />
<glyph unicode="&#x11a;" horiz-adv-x="532" d="M556 906l10 -13q-81 -62 -138 -118l-44 -5q-47 70 -99 123l16 13q70 -55 113 -97q69 53 142 97zM437 39l-8 -39h-350l115 538q17 83 24 147h342l4 -5l-7 -34l-297 4l-63 -292l257 2l-9 -39l-255 2l-62 -288z" />
<glyph unicode="&#x11b;" horiz-adv-x="447" d="M426 750l11 -11q-82 -87 -133 -154l-44 -5q-31 79 -78 159l15 11q47 -57 94 -126q56 56 135 126zM364 119l18 -13q-30 -54 -79 -85t-100 -31q-64 0 -104 47.5t-40 131.5q0 78 33.5 156t91.5 129t123 51q47 0 76 -27.5t29 -74.5q0 -70 -71 -120t-234 -58q-5 -30 -5 -53 q0 -66 29 -106t80 -40q78 0 153 93zM298 469q-60 0 -111.5 -64.5t-73.5 -150.5q140 9 198 53t58 95q0 30 -19.5 48.5t-51.5 18.5z" />
<glyph unicode="&#x11c;" horiz-adv-x="639" d="M325 770l-10 13q81 62 138 118l44 5q47 -70 99 -123l-16 -13q-70 55 -113 97q-69 -53 -142 -97zM563 288l4 -5l-53 -242q-77 -51 -193 -51q-106 0 -163.5 62.5t-57.5 187.5q0 114 44.5 218t127.5 170.5t182 66.5q94 0 158 -45l-18 -42q-56 49 -147 49q-88 0 -159 -62 t-107 -155t-36 -193q0 -219 191 -219q72 0 140 30l15 73q17 83 24 147z" />
<glyph unicode="&#x11d;" horiz-adv-x="415" d="M180 579l-11 11q82 87 133 154l44 5q31 -79 78 -159l-15 -11q-47 57 -94 126q-56 -56 -135 -126zM120 -255q-76 0 -117.5 32.5t-41.5 85.5q0 69 78 118l14 -16q-49 -47 -49 -94q0 -39 33 -64.5t91 -25.5q69 0 113 32.5t44 74.5q0 25 -19.5 44.5t-65.5 42.5q-3 2 -14 7 t-14.5 7t-12.5 6.5t-12.5 7l-10.5 7.5t-9.5 8.5t-6 8.5t-5 10.5t-1.5 11.5q0 39 82 101v1q-8 -1 -9 -1q-58 0 -87.5 35t-29.5 94q0 91 58.5 158.5t142.5 67.5q107 0 151 10q5 -8 5 -21q0 -26 -37 -26q-23 0 -73 12v-1q48 -31 48 -105q0 -53 -21.5 -99.5t-52 -77.5t-61 -56 t-52 -45t-21.5 -35q0 -4 1 -7.5t4 -7t5.5 -6.5t7 -6l7.5 -5t8.5 -5t7.5 -4l8 -4t7 -3q61 -29 88 -56t27 -61q0 -57 -56.5 -104t-151.5 -47zM325 370q0 47 -20 74t-55 27q-53 0 -96.5 -59.5t-43.5 -129.5q0 -47 21 -72t57 -25q57 0 97 58t40 127z" />
<glyph unicode="&#x11e;" horiz-adv-x="639" d="M552 890l22 -3q-22 -48 -60 -75t-84 -27q-45 0 -70.5 27.5t-23.5 74.5l23 3q4 -29 26.5 -45.5t58.5 -16.5q70 0 108 62zM563 288l4 -5l-53 -242q-77 -51 -193 -51q-106 0 -163.5 62.5t-57.5 187.5q0 114 44.5 218t127.5 170.5t182 66.5q94 0 158 -45l-18 -42 q-56 49 -147 49q-88 0 -159 -62t-107 -155t-36 -193q0 -219 191 -219q72 0 140 30l15 73q17 83 24 147z" />
<glyph unicode="&#x11f;" horiz-adv-x="415" d="M394 727l22 -3q-23 -57 -63 -89.5t-85 -32.5t-69.5 32.5t-20.5 89.5l23 3q2 -39 23.5 -60.5t57.5 -21.5q33 0 62.5 22t49.5 60zM120 -255q-76 0 -117.5 32.5t-41.5 85.5q0 69 78 118l14 -16q-49 -47 -49 -94q0 -39 33 -64.5t91 -25.5q69 0 113 32.5t44 74.5 q0 25 -19.5 44.5t-65.5 42.5q-3 2 -14 7t-14.5 7t-12.5 6.5t-12.5 7l-10.5 7.5t-9.5 8.5t-6 8.5t-5 10.5t-1.5 11.5q0 39 82 101v1q-8 -1 -9 -1q-58 0 -87.5 35t-29.5 94q0 91 58.5 158.5t142.5 67.5q107 0 151 10q5 -8 5 -21q0 -26 -37 -26q-23 0 -73 12v-1q48 -31 48 -105 q0 -53 -21.5 -99.5t-52 -77.5t-61 -56t-52 -45t-21.5 -35q0 -4 1 -7.5t4 -7t5.5 -6.5t7 -6l7.5 -5t8.5 -5t7.5 -4l8 -4t7 -3q61 -29 88 -56t27 -61q0 -57 -56.5 -104t-151.5 -47zM325 370q0 47 -20 74t-55 27q-53 0 -96.5 -59.5t-43.5 -129.5q0 -47 21 -72t57 -25 q57 0 97 58t40 127z" />
<glyph unicode="&#x120;" horiz-adv-x="639" d="M498 857q0 -22 -15 -38t-36 -16q-32 0 -32 29q0 20 16 36.5t36 16.5q31 0 31 -28zM563 288l4 -5l-53 -242q-77 -51 -193 -51q-106 0 -163.5 62.5t-57.5 187.5q0 114 44.5 218t127.5 170.5t182 66.5q94 0 158 -45l-18 -42q-56 49 -147 49q-88 0 -159 -62t-107 -155 t-36 -193q0 -219 191 -219q72 0 140 30l15 73q17 83 24 147z" />
<glyph unicode="&#x121;" horiz-adv-x="415" d="M335 682q0 -24 -15 -42.5t-34 -18.5q-27 0 -27 30q0 23 15.5 41.5t33.5 18.5q27 0 27 -29zM120 -255q-76 0 -117.5 32.5t-41.5 85.5q0 69 78 118l14 -16q-49 -47 -49 -94q0 -39 33 -64.5t91 -25.5q69 0 113 32.5t44 74.5q0 25 -19.5 44.5t-65.5 42.5q-3 2 -14 7t-14.5 7 t-12.5 6.5t-12.5 7l-10.5 7.5t-9.5 8.5t-6 8.5t-5 10.5t-1.5 11.5q0 39 82 101v1q-8 -1 -9 -1q-58 0 -87.5 35t-29.5 94q0 91 58.5 158.5t142.5 67.5q107 0 151 10q5 -8 5 -21q0 -26 -37 -26q-23 0 -73 12v-1q48 -31 48 -105q0 -53 -21.5 -99.5t-52 -77.5t-61 -56t-52 -45 t-21.5 -35q0 -4 1 -7.5t4 -7t5.5 -6.5t7 -6l7.5 -5t8.5 -5t7.5 -4l8 -4t7 -3q61 -29 88 -56t27 -61q0 -57 -56.5 -104t-151.5 -47zM325 370q0 47 -20 74t-55 27q-53 0 -96.5 -59.5t-43.5 -129.5q0 -47 21 -72t57 -25q57 0 97 58t40 127z" />
<glyph unicode="&#x122;" horiz-adv-x="639" d="M563 288l4 -5l-53 -242q-77 -51 -193 -51q-106 0 -163.5 62.5t-57.5 187.5q0 114 44.5 218t127.5 170.5t182 66.5q94 0 158 -45l-18 -42q-56 49 -147 49q-88 0 -159 -62t-107 -155t-36 -193q0 -219 191 -219q72 0 140 30l15 73q17 83 24 147zM244 -306q37 53 54 94h-2 q-28 0 -28 32q0 21 14.5 40t37.5 19q30 0 30 -32q0 -65 -89 -164z" />
<glyph unicode="&#x123;" horiz-adv-x="415" d="M404 759q-37 -53 -54 -94h2q28 0 28 -32q0 -21 -14.5 -40t-37.5 -19q-30 0 -30 32q0 65 89 164zM120 -255q-76 0 -117.5 32.5t-41.5 85.5q0 69 78 118l14 -16q-49 -47 -49 -94q0 -39 33 -64.5t91 -25.5q69 0 113 32.5t44 74.5q0 25 -19.5 44.5t-65.5 42.5q-3 2 -14 7 t-14.5 7t-12.5 6.5t-12.5 7l-10.5 7.5t-9.5 8.5t-6 8.5t-5 10.5t-1.5 11.5q0 39 82 101v1q-8 -1 -9 -1q-58 0 -87.5 35t-29.5 94q0 91 58.5 158.5t142.5 67.5q107 0 151 10q5 -8 5 -21q0 -26 -37 -26q-23 0 -73 12v-1q48 -31 48 -105q0 -53 -21.5 -99.5t-52 -77.5t-61 -56 t-52 -45t-21.5 -35q0 -4 1 -7.5t4 -7t5.5 -6.5t7 -6l7.5 -5t8.5 -5t7.5 -4l8 -4t7 -3q61 -29 88 -56t27 -61q0 -57 -56.5 -104t-151.5 -47zM325 370q0 47 -20 74t-55 27q-53 0 -96.5 -59.5t-43.5 -129.5q0 -47 21 -72t57 -25q57 0 97 58t40 127z" />
<glyph unicode="&#x124;" horiz-adv-x="713" d="M350 770l-10 13q81 62 138 118l44 5q47 -70 99 -123l-16 -13q-70 55 -113 97q-69 -53 -142 -97zM121 0h-42l114 538q19 93 25 147l46 10l4 -5l-71 -331h372l38 179q18 80 25 147l46 10l4 -5l-147 -690h-42l68 323h-371z" />
<glyph unicode="&#x125;" horiz-adv-x="537" d="M163 830l-10 13q81 62 138 118l44 5q47 -70 99 -123l-16 -13q-70 55 -113 97q-69 -53 -142 -97zM111 0h-40q0 96 61 380l49 229l8 136l49 10q0 -98 -65 -381q-5 -19 -7 -29h2q35 78 89.5 119t110.5 41q45 0 69.5 -25.5t24.5 -70.5q0 -26 -4.5 -50.5t-29.5 -140.5 q-27 -127 -27 -218h-40q0 86 34 238q27 124 27 162q0 69 -65 69q-68 0 -124 -66t-87.5 -172.5t-34.5 -230.5z" />
<glyph unicode="&#x126;" horiz-adv-x="713" d="M121 0h-42l106 498h-86l6 30h86l2 10q19 93 25 147l46 10l4 -5l-35 -162h372l2 10q18 80 25 147l46 10l4 -5l-35 -162h78l-6 -30h-78l-106 -498h-42l68 323h-371zM197 359h372l30 139h-372z" />
<glyph unicode="&#x127;" horiz-adv-x="537" d="M111 0h-40q0 96 61 380l45 211h-86l6 30h85l7 124l49 10q0 -53 -13 -134h232l-6 -30h-231q-7 -37 -54 -246h2q35 78 89.5 119t110.5 41q45 0 69.5 -25.5t24.5 -70.5q0 -26 -4.5 -50.5t-29.5 -140.5q-27 -127 -27 -218h-40q0 86 34 238q27 124 27 162q0 69 -65 69 q-68 0 -124 -66t-87.5 -172.5t-34.5 -230.5z" />
<glyph unicode="&#x128;" horiz-adv-x="299" d="M219 890q29 0 68 -28t61 -28q40 0 82 57l15 -3q-13 -37 -43.5 -64.5t-66.5 -27.5q-30 0 -69 28t-61 28q-40 0 -82 -57l-15 3q13 35 43 63.5t68 28.5zM121 0h-42l114 538q18 80 25 147l46 10l4 -5z" />
<glyph unicode="&#x129;" horiz-adv-x="241" d="M155 714q21 0 45 -28t38 -28q28 0 60 57l15 -3q-9 -32 -35 -62t-53 -30q-21 0 -45.5 28t-38.5 28q-28 0 -60 -57l-15 3q10 33 35.5 62.5t53.5 29.5zM111 0h-40q0 96 37 267l20 92l8 136l49 10q0 -73 -37 -248t-37 -257z" />
<glyph unicode="&#x12a;" horiz-adv-x="299" d="M144 817l8 39h254l-8 -39h-254zM121 0h-42l114 538q18 80 25 147l46 10l4 -5z" />
<glyph unicode="&#x12b;" horiz-adv-x="241" d="M78 646l6 34h198l-6 -34h-198zM111 0h-40q0 96 37 267l20 92l8 136l49 10q0 -73 -37 -248t-37 -257z" />
<glyph unicode="&#x12c;" horiz-adv-x="299" d="M372 890l22 -3q-22 -48 -60 -75t-84 -27q-45 0 -70.5 27.5t-23.5 74.5l23 3q4 -29 26.5 -45.5t58.5 -16.5q70 0 108 62zM121 0h-42l114 538q18 80 25 147l46 10l4 -5z" />
<glyph unicode="&#x12d;" horiz-adv-x="241" d="M271 730l23 -3q-23 -58 -58 -90t-75 -32q-39 0 -59.5 32.5t-15.5 89.5l22 3q1 -38 18.5 -60t48.5 -22q27 0 53 22t43 60zM111 0h-40q0 96 37 267l20 92l8 136l49 10q0 -73 -37 -248t-37 -257z" />
<glyph unicode="&#x12e;" horiz-adv-x="299" d="M121 0q-83 -76 -83 -133q0 -46 47 -46q23 0 58 12l4 -22q-34 -23 -79 -23q-36 0 -55.5 17t-19.5 48q0 71 96 147h-10l114 538q18 80 25 147l46 10l4 -5z" />
<glyph unicode="&#x12f;" horiz-adv-x="241" d="M227 682q0 -24 -15 -42.5t-34 -18.5q-27 0 -27 30q0 23 15.5 41.5t33.5 18.5q27 0 27 -29zM111 0q-81 -73 -81 -130q0 -49 47 -49q23 0 58 12l4 -22q-34 -23 -79 -23q-36 0 -55.5 17.5t-19.5 50.5q0 71 93 144h-7q0 96 37 267l20 92l8 136l49 10q0 -73 -37 -248t-37 -257 z" />
<glyph unicode="&#x130;" horiz-adv-x="299" d="M318 857q0 -22 -15 -38t-36 -16q-32 0 -32 29q0 20 16 36.5t36 16.5q31 0 31 -28zM121 0h-42l114 538q18 80 25 147l46 10l4 -5z" />
<glyph unicode="&#x131;" horiz-adv-x="241" d="M111 0h-40q0 96 37 267l20 92l8 136l49 10q0 -73 -37 -248t-37 -257z" />
<glyph unicode="&#x132;" horiz-adv-x="568" d="M121 0h-42l114 538q18 80 25 147l46 10l4 -5zM233 -182l-10 26q104 51 135 199l105 495q17 80 24 147l46 10l4 -5l-137 -647q-35 -166 -167 -225z" />
<glyph unicode="&#x133;" horiz-adv-x="459" d="M227 682q0 -24 -15 -42.5t-34 -18.5q-27 0 -27 30q0 23 15.5 41.5t33.5 18.5q27 0 27 -29zM460 682q0 -24 -15 -42.5t-34 -18.5q-27 0 -27 30q0 23 15.5 41.5t33.5 18.5q27 0 27 -29zM111 0h-40q0 96 37 267l20 92l8 136l49 10q0 -73 -37 -248t-37 -257zM171 -255l-15 21 q91 52 119 182l88 411l8 136l49 10q0 -19 -1 -36.5t-5.5 -45.5t-8.5 -50.5t-14 -72t-18 -87t-25.5 -119t-31.5 -146.5q-29 -132 -145 -203z" />
<glyph unicode="&#x134;" horiz-adv-x="269" d="M115 770l-10 13q81 62 138 118l44 5q47 -70 99 -123l-16 -13q-70 55 -113 97q-69 -53 -142 -97zM-66 -182l-10 26q104 51 135 199l105 495q17 80 24 147l46 10l4 -5l-137 -647q-35 -166 -167 -225z" />
<glyph unicode="&#x135;" horiz-adv-x="218" d="M84 586l-8 10q62 86 103 154l44 5q25 -92 48 -159l-12 -10q-33 52 -67 121q-78 -91 -108 -121zM-70 -255l-15 21q91 52 119 182l88 411l8 136l49 10q0 -19 -1 -36.5t-5.5 -45.5t-8.5 -50.5t-14 -72t-18 -87t-25.5 -119t-31.5 -146.5q-29 -132 -145 -203z" />
<glyph unicode="&#x136;" horiz-adv-x="598" d="M194 538q17 83 24 147l44 10l4 -5l-70 -331h109q102 112 308 336l25 -13l4 -5l-305 -333l183 -344l-43 -10l-177 333h-112l-69 -323h-40zM161 -306q37 53 54 94h-2q-28 0 -28 32q0 21 14.5 40t37.5 19q30 0 30 -32q0 -65 -89 -164z" />
<glyph unicode="&#x137;" horiz-adv-x="474" d="M449 429q0 -60 -58 -119.5t-139 -100.5q76 -132 149 -209h-52q-73 85 -144 225q201 102 201 196q0 48 -47 48q-57 0 -114.5 -74t-94 -183t-39.5 -212h-40q0 96 61 380l49 229l8 136l49 10q0 -34 -4.5 -75.5t-15 -95t-19 -91.5t-24.5 -107t-23 -100h2q38 104 98 161.5 t121 57.5q37 0 56.5 -21t19.5 -55zM132 -306q37 53 54 94h-2q-28 0 -28 32q0 21 14.5 40t37.5 19q30 0 30 -32q0 -65 -89 -164z" />
<glyph unicode="&#x138;" horiz-adv-x="474" d="M349 0q-54 64 -91 145t-47 143q-44 -77 -72 -158.5t-28 -129.5h-40q0 96 37 267l20 92l8 136l49 10q0 -33 -5.5 -76t-11 -72t-18 -87.5t-16.5 -79.5h3q49 142 125 228.5t155 86.5q33 0 63 -15l-21 -38q-20 17 -55 17q-75 0 -162 -129q6 -71 50 -166t109 -174h-52z" />
<glyph unicode="&#x139;" horiz-adv-x="504" d="M516 865l-3 -8q-108 -58 -241 -78l-3 17q144 50 223 100zM121 0h-42l115 539q17 84 24 146l46 10l4 -5zM429 39l-8 -39h-300l8 35z" />
<glyph unicode="&#x13a;" horiz-adv-x="240" d="M423 914l-3 -8q-108 -58 -241 -78l-3 17q144 50 223 100zM111 0h-40q0 96 61 380l49 229l8 136l49 10q0 -94 -63.5 -371t-63.5 -384z" />
<glyph unicode="&#x13b;" horiz-adv-x="504" d="M121 0h-42l115 539q17 84 24 146l46 10l4 -5zM429 39l-8 -39h-300l8 35zM114 -306q37 53 54 94h-2q-28 0 -28 32q0 21 14.5 40t37.5 19q30 0 30 -32q0 -65 -89 -164z" />
<glyph unicode="&#x13c;" horiz-adv-x="240" d="M111 0h-40q0 96 61 380l49 229l8 136l49 10q0 -94 -63.5 -371t-63.5 -384zM-4 -306q37 53 54 94h-2q-28 0 -28 32q0 21 14.5 40t37.5 19q30 0 30 -32q0 -65 -89 -164z" />
<glyph unicode="&#x13d;" horiz-adv-x="504" d="M476 727l5 -6q-29 -102 -109 -212l-15 6q59 122 76 206zM121 0h-42l115 539q17 84 24 146l46 10l4 -5zM429 39l-8 -39h-300l8 35z" />
<glyph unicode="&#x13e;" horiz-adv-x="240" d="M111 0h-40q0 96 61 380l49 229l8 136l49 10q0 -94 -63.5 -371t-63.5 -384zM403 755l5 -6q-29 -102 -109 -212l-15 6q59 122 76 206z" />
<glyph unicode="&#x13f;" horiz-adv-x="600" d="M121 0h-42l115 539q17 84 24 146l46 10l4 -5zM403 358q0 -22 -17 -40t-37 -18q-14 0 -23.5 9t-9.5 24q0 22 17.5 39.5t37.5 17.5q14 0 23 -9t9 -23zM429 39l-8 -39h-300l8 35z" />
<glyph unicode="&#x140;" horiz-adv-x="414" d="M111 0h-40q0 96 61 380l49 229l8 136l49 10q0 -94 -63.5 -371t-63.5 -384zM354 328q0 -22 -17 -40t-37 -18q-14 0 -23.5 9t-9.5 24q0 22 17.5 39.5t37.5 17.5q14 0 23 -9t9 -23z" />
<glyph unicode="&#x141;" horiz-adv-x="504" d="M121 0h-42l67 314l-139 -69l-10 29l157 78l40 187q17 84 24 146l46 10l4 -5l-67 -315l132 66l11 -29l-151 -75zM429 39l-8 -39h-300l8 35z" />
<glyph unicode="&#x142;" horiz-adv-x="240" d="M111 0h-40q0 96 61 380l1 4l-136 -67l-10 29l154 77l40 186l8 136l49 10q0 -89 -49 -309l134 67l11 -29l-154 -76q-69 -298 -69 -408z" />
<glyph unicode="&#x143;" horiz-adv-x="728" d="M605 865l-3 -8q-108 -58 -241 -78l-3 17q144 50 223 100zM395 384q14 -34 38.5 -91.5t36.5 -87t27 -72.5t25 -82h1q16 95 99 487q18 80 25 147l46 10l4 -5l-147 -690h-45q-22 52 -65 155.5t-64 155.5q-10 24 -30.5 73.5t-29 70t-22 56t-23 64t-18.5 59.5h-1 q-18 -108 -50 -252l-81 -382h-42l114 538q18 80 25 147l48 10q35 -83 129 -311z" />
<glyph unicode="&#x144;" horiz-adv-x="537" d="M447 736l1 -8q-79 -87 -194 -151l-7 13q114 96 164 162zM111 0h-40q0 22 1.5 45.5t3.5 41.5t6.5 45.5t6.5 41t9 46.5t9 43t10.5 49t10.5 47l8 136l49 10q0 -67 -22 -160h2q36 78 91.5 119t112.5 41q45 0 69 -25t24 -69q0 -41 -32 -185q-18 -82 -23.5 -124.5t-5.5 -101.5 h-40q0 73 34 245q22 112 22 150q0 74 -63 74q-64 0 -119 -64t-88 -172t-36 -233z" />
<glyph unicode="&#x145;" horiz-adv-x="728" d="M395 384q14 -34 38.5 -91.5t36.5 -87t27 -72.5t25 -82h1q16 95 99 487q18 80 25 147l46 10l4 -5l-147 -690h-45q-22 52 -65 155.5t-64 155.5q-10 24 -30.5 73.5t-29 70t-22 56t-23 64t-18.5 59.5h-1q-18 -108 -50 -252l-81 -382h-42l114 538q18 80 25 147l48 10 q35 -83 129 -311zM225 -306q37 53 54 94h-2q-28 0 -28 32q0 21 14.5 40t37.5 19q30 0 30 -32q0 -65 -89 -164z" />
<glyph unicode="&#x146;" horiz-adv-x="537" d="M111 0h-40q0 22 1.5 45.5t3.5 41.5t6.5 45.5t6.5 41t9 46.5t9 43t10.5 49t10.5 47l8 136l49 10q0 -67 -22 -160h2q36 78 91.5 119t112.5 41q45 0 69 -25t24 -69q0 -41 -32 -185q-18 -82 -23.5 -124.5t-5.5 -101.5h-40q0 73 34 245q22 112 22 150q0 74 -63 74 q-64 0 -119 -64t-88 -172t-36 -233zM147 -306q37 53 54 94h-2q-28 0 -28 32q0 21 14.5 40t37.5 19q30 0 30 -32q0 -65 -89 -164z" />
<glyph unicode="&#x147;" horiz-adv-x="728" d="M612 906l10 -13q-81 -62 -138 -118l-44 -5q-47 70 -99 123l16 13q70 -55 113 -97q69 53 142 97zM395 384q14 -34 38.5 -91.5t36.5 -87t27 -72.5t25 -82h1q16 95 99 487q18 80 25 147l46 10l4 -5l-147 -690h-45q-22 52 -65 155.5t-64 155.5q-10 24 -30.5 73.5t-29 70 t-22 56t-23 64t-18.5 59.5h-1q-18 -108 -50 -252l-81 -382h-42l114 538q18 80 25 147l48 10q35 -83 129 -311z" />
<glyph unicode="&#x148;" horiz-adv-x="537" d="M466 750l11 -11q-82 -87 -133 -154l-44 -5q-31 79 -78 159l15 11q47 -57 94 -126q56 56 135 126zM111 0h-40q0 22 1.5 45.5t3.5 41.5t6.5 45.5t6.5 41t9 46.5t9 43t10.5 49t10.5 47l8 136l49 10q0 -67 -22 -160h2q36 78 91.5 119t112.5 41q45 0 69 -25t24 -69 q0 -41 -32 -185q-18 -82 -23.5 -124.5t-5.5 -101.5h-40q0 73 34 245q22 112 22 150q0 74 -63 74q-64 0 -119 -64t-88 -172t-36 -233z" />
<glyph unicode="&#x149;" horiz-adv-x="606" d="M104 500q57 87 84 167q-14 0 -22.5 9t-8.5 23q0 23 17 40.5t39 17.5q30 0 30 -33q0 -36 -39.5 -109t-83.5 -125zM180 0h-40q0 22 1.5 45.5t3.5 41.5t6.5 45.5t6.5 41t9 46.5t9 43t10.5 49t10.5 47l8 136l49 10q0 -67 -22 -160h2q36 78 91.5 119t112.5 41q45 0 69 -25 t24 -69q0 -41 -32 -185q-18 -82 -23.5 -124.5t-5.5 -101.5h-40q0 73 34 245q22 112 22 150q0 74 -63 74q-64 0 -119 -64t-88 -172t-36 -233z" />
<glyph unicode="&#x14a;" horiz-adv-x="728" d="M392 -182l-9 26q94 48 123 152q-58 142 -130 315q-9 23 -28 67.5t-26 61.5t-19.5 49t-19 50.5t-15 44t-15.5 50.5h-1q-14 -81 -50 -252l-81 -382h-42l114 538q19 90 25 147l48 10q113 -271 129 -311q15 -36 39.5 -95t36.5 -88.5t26.5 -71t24.5 -78.5h1q16 91 99 486 q16 74 25 148l46 10l4 -5l-138 -647q-37 -168 -167 -225z" />
<glyph unicode="&#x14b;" horiz-adv-x="514" d="M111 0h-40q1 108 57 359l8 136l49 10q0 -67 -22 -160h2q36 78 91.5 119t111.5 41q57 0 80 -41.5t8 -113.5l-42 -199q-38 -179 -60.5 -235.5t-87.5 -118.5l-15 21q67 76 90 182l66 309q17 84 6 122t-58 38q-67 0 -123 -67t-87 -174t-34 -228z" />
<glyph unicode="&#x14c;" horiz-adv-x="689" d="M346 817l8 39h254l-8 -39h-254zM630 448q0 -111 -42.5 -215.5t-122 -173.5t-174.5 -69q-90 0 -141.5 62.5t-51.5 178.5q0 111 43.5 217t123.5 176.5t174 70.5q89 0 140 -64.5t51 -182.5zM143 240q0 -100 41 -156t118 -56q83 0 149.5 64t100 158.5t33.5 193.5 q0 101 -39 157t-115 56q-82 0 -150 -65t-103 -160t-35 -192z" />
<glyph unicode="&#x14d;" horiz-adv-x="494" d="M197 646l7 34h264l-7 -34h-264zM436 337q0 -82 -30 -160.5t-88.5 -132.5t-129.5 -54q-62 0 -95.5 43t-33.5 126t30.5 162t88.5 131.5t128 52.5q62 0 96 -42.5t34 -125.5zM102 164q0 -138 97 -138q57 0 103 48.5t68.5 117.5t22.5 139q0 138 -97 138q-57 0 -103 -48.5 t-68.5 -117.5t-22.5 -139z" />
<glyph unicode="&#x14e;" horiz-adv-x="689" d="M574 890l22 -3q-22 -48 -60 -75t-84 -27q-45 0 -70.5 27.5t-23.5 74.5l23 3q4 -29 26.5 -45.5t58.5 -16.5q70 0 108 62zM630 448q0 -111 -42.5 -215.5t-122 -173.5t-174.5 -69q-90 0 -141.5 62.5t-51.5 178.5q0 111 43.5 217t123.5 176.5t174 70.5q89 0 140 -64.5 t51 -182.5zM143 240q0 -100 41 -156t118 -56q83 0 149.5 64t100 158.5t33.5 193.5q0 101 -39 157t-115 56q-82 0 -150 -65t-103 -160t-35 -192z" />
<glyph unicode="&#x14f;" horiz-adv-x="494" d="M430 727l22 -3q-23 -57 -63 -89.5t-85 -32.5t-69.5 32.5t-20.5 89.5l23 3q2 -39 23.5 -60.5t57.5 -21.5q33 0 62.5 22t49.5 60zM436 337q0 -82 -30 -160.5t-88.5 -132.5t-129.5 -54q-62 0 -95.5 43t-33.5 126t30.5 162t88.5 131.5t128 52.5q62 0 96 -42.5t34 -125.5z M102 164q0 -138 97 -138q57 0 103 48.5t68.5 117.5t22.5 139q0 138 -97 138q-57 0 -103 -48.5t-68.5 -117.5t-22.5 -139z" />
<glyph unicode="&#x150;" horiz-adv-x="689" d="M486 865l-3 -8q-86 -58 -191 -78l-3 17q113 51 173 100zM666 865l-3 -8q-86 -58 -191 -78l-3 17q113 51 173 100zM630 448q0 -111 -42.5 -215.5t-122 -173.5t-174.5 -69q-90 0 -141.5 62.5t-51.5 178.5q0 111 43.5 217t123.5 176.5t174 70.5q89 0 140 -64.5t51 -182.5z M143 240q0 -100 41 -156t118 -56q83 0 149.5 64t100 158.5t33.5 193.5q0 101 -39 157t-115 56q-82 0 -150 -65t-103 -160t-35 -192z" />
<glyph unicode="&#x151;" horiz-adv-x="494" d="M385 742l1 -8q-81 -90 -189 -154l-7 13q103 82 164 162zM499 742l1 -8q-79 -89 -189 -154l-7 13q103 82 164 162zM436 337q0 -82 -30 -160.5t-88.5 -132.5t-129.5 -54q-62 0 -95.5 43t-33.5 126t30.5 162t88.5 131.5t128 52.5q62 0 96 -42.5t34 -125.5zM102 164 q0 -138 97 -138q57 0 103 48.5t68.5 117.5t22.5 139q0 138 -97 138q-57 0 -103 -48.5t-68.5 -117.5t-22.5 -139z" />
<glyph unicode="&#x152;" horiz-adv-x="925" d="M652 460q0 -52 -9 -102l204 2l-9 -39l-203 2q-23 -93 -73.5 -168.5t-117.5 -118.5l386 3l-8 -39h-456q-33 -10 -71 -10q-91 0 -145 60.5t-54 170.5q0 121 50.5 231t134 176.5t176.5 66.5q36 0 65 -10h431l4 -5l-8 -34l-366 3q69 -61 69 -189zM142 230q0 -95 43.5 -148.5 t121.5 -53.5q121 0 210.5 127.5t89.5 300.5q0 94 -41 147.5t-117 53.5q-121 0 -214 -129t-93 -298z" />
<glyph unicode="&#x153;" horiz-adv-x="764" d="M681 119l18 -13q-30 -54 -79 -85t-100 -31q-54 0 -92 35t-48 98q-76 -133 -192 -133q-62 0 -95.5 43t-33.5 126t30.5 162t88.5 131.5t128 52.5q55 0 88 -33.5t40 -99.5q36 60 86 96.5t104 36.5q47 0 76 -27.5t29 -74.5q0 -70 -71 -120t-234 -58q-5 -30 -5 -53 q0 -66 29 -106t80 -40q78 0 153 93zM102 164q0 -138 97 -138q57 0 103 48.5t68.5 117.5t22.5 139q0 138 -97 138q-57 0 -103 -48.5t-68.5 -117.5t-22.5 -139zM615 469q-60 0 -111.5 -64.5t-73.5 -150.5q140 9 198 53t58 95q0 30 -19.5 48.5t-51.5 18.5z" />
<glyph unicode="&#x154;" horiz-adv-x="571" d="M550 865l-3 -8q-108 -58 -241 -78l-3 17q144 50 223 100zM121 0h-42l115 538q17 83 24 147h140q91 0 142.5 -42.5t51.5 -115.5q0 -85 -54.5 -146.5t-143.5 -82.5l134 -298l-41 -10q-23 49 -67 148t-67 149h-131zM348 650h-88l-70 -328h85q104 0 167.5 54.5t63.5 146.5 q0 58 -39 92.5t-119 34.5z" />
<glyph unicode="&#x155;" horiz-adv-x="368" d="M375 736l1 -8q-79 -87 -194 -151l-7 13q114 96 164 162zM111 0h-40q0 96 37 267l20 92l8 136l49 10q0 -67 -25 -180h2q36 92 84 136t101 44q38 0 62 -19l-25 -34q-23 14 -49 14q-58 0 -110.5 -74.5t-82 -181.5t-31.5 -210z" />
<glyph unicode="&#x156;" horiz-adv-x="571" d="M121 0h-42l115 538q17 83 24 147h140q91 0 142.5 -42.5t51.5 -115.5q0 -85 -54.5 -146.5t-143.5 -82.5l134 -298l-41 -10q-23 49 -67 148t-67 149h-131zM348 650h-88l-70 -328h85q104 0 167.5 54.5t63.5 146.5q0 58 -39 92.5t-119 34.5zM148 -306q37 53 54 94h-2 q-28 0 -28 32q0 21 14.5 40t37.5 19q30 0 30 -32q0 -65 -89 -164z" />
<glyph unicode="&#x157;" horiz-adv-x="368" d="M111 0h-40q0 96 37 267l20 92l8 136l49 10q0 -67 -25 -180h2q36 92 84 136t101 44q38 0 62 -19l-25 -34q-23 14 -49 14q-58 0 -110.5 -74.5t-82 -181.5t-31.5 -210zM-4 -306q37 53 54 94h-2q-28 0 -28 32q0 21 14.5 40t37.5 19q30 0 30 -32q0 -65 -89 -164z" />
<glyph unicode="&#x158;" horiz-adv-x="571" d="M557 906l10 -13q-81 -62 -138 -118l-44 -5q-47 70 -99 123l16 13q70 -55 113 -97q69 53 142 97zM121 0h-42l115 538q17 83 24 147h140q91 0 142.5 -42.5t51.5 -115.5q0 -85 -54.5 -146.5t-143.5 -82.5l134 -298l-41 -10q-23 49 -67 148t-67 149h-131zM348 650h-88 l-70 -328h85q104 0 167.5 54.5t63.5 146.5q0 58 -39 92.5t-119 34.5z" />
<glyph unicode="&#x159;" horiz-adv-x="368" d="M394 750l11 -11q-82 -87 -133 -154l-44 -5q-31 79 -78 159l15 11q47 -57 94 -126q56 56 135 126zM111 0h-40q0 96 37 267l20 92l8 136l49 10q0 -67 -25 -180h2q36 92 84 136t101 44q38 0 62 -19l-25 -34q-23 14 -49 14q-58 0 -110.5 -74.5t-82 -181.5t-31.5 -210z" />
<glyph unicode="&#x15a;" horiz-adv-x="493" d="M496 865l-3 -8q-108 -58 -241 -78l-3 17q144 50 223 100zM417 190q0 -87 -69 -143.5t-177 -56.5q-92 0 -158 35l17 43q60 -40 150 -40q83 0 138 45t55 111q0 28 -9.5 50t-31.5 41t-36.5 28.5t-44.5 27.5l-37.5 22.5t-33.5 24t-31 31t-18.5 37.5t-8.5 49q0 84 68.5 142 t174.5 58q90 0 146 -33l-17 -43q-53 38 -136 38q-82 0 -136.5 -43.5t-54.5 -107.5q0 -33 19 -61t39 -42t59 -37q2 -1 3.5 -2t4 -2.5t4.5 -2.5q27 -16 43.5 -28t37 -33t30.5 -48t10 -60z" />
<glyph unicode="&#x15b;" horiz-adv-x="425" d="M360 736l1 -8q-79 -87 -194 -151l-7 13q114 96 164 162zM376 479l-17 -41q-48 31 -103 31t-89.5 -28t-34.5 -71q0 -31 21 -54t51.5 -38.5t61 -32t51.5 -44t21 -65.5q0 -62 -51.5 -104t-130.5 -42q-73 0 -127 32l17 41q50 -37 120 -37q53 0 90 29.5t37 72.5 q0 30 -21.5 52.5t-51.5 37.5t-60.5 31t-52 43.5t-21.5 65.5q0 64 53.5 105.5t128.5 41.5q58 0 108 -26z" />
<glyph unicode="&#x15c;" horiz-adv-x="493" d="M242 770l-10 13q81 62 138 118l44 5q47 -70 99 -123l-16 -13q-70 55 -113 97q-69 -53 -142 -97zM417 190q0 -87 -69 -143.5t-177 -56.5q-92 0 -158 35l17 43q60 -40 150 -40q83 0 138 45t55 111q0 28 -9.5 50t-31.5 41t-36.5 28.5t-44.5 27.5l-37.5 22.5t-33.5 24t-31 31 t-18.5 37.5t-8.5 49q0 84 68.5 142t174.5 58q90 0 146 -33l-17 -43q-53 38 -136 38q-82 0 -136.5 -43.5t-54.5 -107.5q0 -33 19 -61t39 -42t59 -37q2 -1 3.5 -2t4 -2.5t4.5 -2.5q27 -16 43.5 -28t37 -33t30.5 -48t10 -60z" />
<glyph unicode="&#x15d;" horiz-adv-x="425" d="M145 579l-11 11q82 87 133 154l44 5q31 -79 78 -159l-15 -11q-47 57 -94 126q-56 -56 -135 -126zM376 479l-17 -41q-48 31 -103 31t-89.5 -28t-34.5 -71q0 -31 21 -54t51.5 -38.5t61 -32t51.5 -44t21 -65.5q0 -62 -51.5 -104t-130.5 -42q-73 0 -127 32l17 41 q50 -37 120 -37q53 0 90 29.5t37 72.5q0 30 -21.5 52.5t-51.5 37.5t-60.5 31t-52 43.5t-21.5 65.5q0 64 53.5 105.5t128.5 41.5q58 0 108 -26z" />
<glyph unicode="&#x15e;" horiz-adv-x="493" d="M250 -115q0 -37 -45 -63.5t-99 -33.5l-1 22q102 23 102 66q0 27 -55 33l-5 11l38 70h-14q-92 0 -158 35l17 43q60 -40 150 -40q83 0 138 45t55 111q0 28 -9.5 50t-31.5 41t-36.5 28.5t-44.5 27.5l-37.5 22.5t-33.5 24t-31 31t-18.5 37.5t-8.5 49q0 84 68.5 142t174.5 58 q90 0 146 -33l-17 -43q-53 38 -136 38q-82 0 -136.5 -43.5t-54.5 -107.5q0 -33 19 -61t39 -42t59 -37q2 -1 3.5 -2t4 -2.5t4.5 -2.5q27 -16 43.5 -28t37 -33t30.5 -48t10 -60q0 -77 -55 -131t-146 -66l-30 -55q64 -10 64 -53z" />
<glyph unicode="&#x15f;" horiz-adv-x="425" d="M234 -115q0 -37 -45 -63.5t-99 -33.5l-1 22q102 23 102 66q0 27 -55 33l-5 11l38 70h-13q-73 0 -127 32l17 41q50 -37 120 -37q53 0 90 29.5t37 72.5q0 30 -21.5 52.5t-51.5 37.5t-60.5 31t-52 43.5t-21.5 65.5q0 64 53.5 105.5t128.5 41.5q58 0 108 -26l-17 -41 q-48 31 -103 31t-89.5 -28t-34.5 -71q0 -31 21 -54t51.5 -38.5t61 -32t51.5 -44t21 -65.5q0 -52 -37.5 -91.5t-99.5 -50.5l-31 -56q64 -10 64 -53z" />
<glyph unicode="&#x160;" horiz-adv-x="493" d="M503 906l10 -13q-81 -62 -138 -118l-44 -5q-47 70 -99 123l16 13q70 -55 113 -97q69 53 142 97zM417 190q0 -87 -69 -143.5t-177 -56.5q-92 0 -158 35l17 43q60 -40 150 -40q83 0 138 45t55 111q0 28 -9.5 50t-31.5 41t-36.5 28.5t-44.5 27.5l-37.5 22.5t-33.5 24t-31 31 t-18.5 37.5t-8.5 49q0 84 68.5 142t174.5 58q90 0 146 -33l-17 -43q-53 38 -136 38q-82 0 -136.5 -43.5t-54.5 -107.5q0 -33 19 -61t39 -42t59 -37q2 -1 3.5 -2t4 -2.5t4.5 -2.5q27 -16 43.5 -28t37 -33t30.5 -48t10 -60z" />
<glyph unicode="&#x161;" horiz-adv-x="425" d="M379 750l11 -11q-82 -87 -133 -154l-44 -5q-31 79 -78 159l15 11q47 -57 94 -126q56 56 135 126zM376 479l-17 -41q-48 31 -103 31t-89.5 -28t-34.5 -71q0 -31 21 -54t51.5 -38.5t61 -32t51.5 -44t21 -65.5q0 -62 -51.5 -104t-130.5 -42q-73 0 -127 32l17 41 q50 -37 120 -37q53 0 90 29.5t37 72.5q0 30 -21.5 52.5t-51.5 37.5t-60.5 31t-52 43.5t-21.5 65.5q0 64 53.5 105.5t128.5 41.5q58 0 108 -26z" />
<glyph unicode="&#x162;" horiz-adv-x="491" d="M214 0h-1l-34 -62q64 -10 64 -53q0 -37 -45 -63.5t-99 -33.5l-1 22q102 23 102 66q0 27 -55 33l-5 11l43 80h-11l139 650q-95 0 -217 -5l12 40h465l-6 -40q-117 5 -212 5z" />
<glyph unicode="&#x163;" horiz-adv-x="338" d="M204 -115q0 -37 -45 -63.5t-99 -33.5l-1 22q102 23 102 66q0 27 -55 33l-5 11l39 72q-64 11 -64 86q0 28 42 223q20 96 34 161h-76l6 26l77 7l33 112l30 4l4 -5l-27 -111h135l4 -5l-8 -28h-138q-70 -327 -72 -354q-1 -7 -1 -15q0 -67 62 -67q43 0 86 25l2 -33 q-49 -28 -100 -28l-29 -52q64 -10 64 -53z" />
<glyph unicode="&#x164;" horiz-adv-x="491" d="M502 906l10 -13q-81 -62 -138 -118l-44 -5q-47 70 -99 123l16 13q70 -55 113 -97q69 53 142 97zM214 0h-42l139 650q-95 0 -217 -5l12 40h465l-6 -40q-117 5 -212 5z" />
<glyph unicode="&#x165;" horiz-adv-x="338" d="M432 744l5 -6q-29 -102 -109 -212l-15 6q59 122 76 206zM330 462h-138q-70 -327 -72 -354q-1 -7 -1 -15q0 -67 62 -67q43 0 86 25l2 -33q-49 -28 -104 -28q-89 0 -89 88q0 28 42 223q20 96 34 161h-76l6 26l77 7l33 112l30 4l4 -5l-27 -111h135l4 -5z" />
<glyph unicode="&#x166;" horiz-adv-x="491" d="M214 0h-42l70 328h-159l6 30h159l63 292q-95 0 -217 -5l12 40h465l-6 -40q-117 5 -212 5l-63 -292h159l-6 -30h-159z" />
<glyph unicode="&#x167;" horiz-adv-x="338" d="M296 293h-140q-37 -169 -37 -200q0 -67 62 -67q43 0 86 25l2 -33q-49 -28 -104 -28q-89 0 -89 88q0 29 40 215h-72l4 30h75q5 23 15.5 72.5t13.5 66.5h-76l6 26l77 7l33 112l30 4l4 -5l-27 -111h135l4 -5l-8 -28h-138q-25 -114 -30 -139h138z" />
<glyph unicode="&#x168;" horiz-adv-x="634" d="M391 890q29 0 68 -28t61 -28q40 0 82 57l15 -3q-13 -37 -43.5 -64.5t-66.5 -27.5q-30 0 -69 28t-61 28q-40 0 -82 -57l-15 3q13 35 43 63.5t68 28.5zM87 157q0 41 45.5 245.5t50.5 284.5l54 8v-1q-22 -101 -53 -246q-55 -254 -55 -281q0 -66 40.5 -101.5t106.5 -35.5 q78 0 139 49t80 138q12 54 25.5 118t20 95t14.5 69.5t11.5 56t7.5 39t5.5 34.5t3 27t2.5 31l54 8l-101 -475q-24 -110 -100.5 -170t-175.5 -60q-79 0 -127 43t-48 124z" />
<glyph unicode="&#x169;" horiz-adv-x="510" d="M274 710q26 0 62 -28t55 -28q33 0 75 57l15 -3q-14 -36 -42.5 -64t-60.5 -28q-27 0 -63 28t-55 28q-33 0 -75 -57l-15 3q15 35 43 63.5t61 28.5zM76 145l45 214l8 136l49 10q0 -34 -5 -74.5t-10 -68.5t-15.5 -79t-15.5 -75q-9 -50 -12 -79.5t0 -55t17.5 -36.5t40.5 -11 q64 0 114.5 62t81.5 165q29 129 34 191q3 26 3 51l40 10q0 -35 -5.5 -79t-12 -77t-18 -86.5t-16.5 -80.5q-22 -114 -22 -182h-40q0 61 13 137q-33 -71 -83 -109t-101 -38q-56 0 -80.5 42t-9.5 113z" />
<glyph unicode="&#x16a;" horiz-adv-x="634" d="M316 817l8 39h254l-8 -39h-254zM87 157q0 41 45.5 245.5t50.5 284.5l54 8v-1q-22 -101 -53 -246q-55 -254 -55 -281q0 -66 40.5 -101.5t106.5 -35.5q78 0 139 49t80 138q12 54 25.5 118t20 95t14.5 69.5t11.5 56t7.5 39t5.5 34.5t3 27t2.5 31l54 8l-101 -475 q-24 -110 -100.5 -170t-175.5 -60q-79 0 -127 43t-48 124z" />
<glyph unicode="&#x16b;" horiz-adv-x="510" d="M194 646l7 34h264l-7 -34h-264zM76 145l45 214l8 136l49 10q0 -34 -5 -74.5t-10 -68.5t-15.5 -79t-15.5 -75q-9 -50 -12 -79.5t0 -55t17.5 -36.5t40.5 -11q64 0 114.5 62t81.5 165q29 129 34 191q3 26 3 51l40 10q0 -35 -5.5 -79t-12 -77t-18 -86.5t-16.5 -80.5 q-22 -114 -22 -182h-40q0 61 13 137q-33 -71 -83 -109t-101 -38q-56 0 -80.5 42t-9.5 113z" />
<glyph unicode="&#x16c;" horiz-adv-x="634" d="M544 890l22 -3q-22 -48 -60 -75t-84 -27q-45 0 -70.5 27.5t-23.5 74.5l23 3q4 -29 26.5 -45.5t58.5 -16.5q70 0 108 62zM87 157q0 41 45.5 245.5t50.5 284.5l54 8v-1q-22 -101 -53 -246q-55 -254 -55 -281q0 -66 40.5 -101.5t106.5 -35.5q78 0 139 49t80 138 q12 54 25.5 118t20 95t14.5 69.5t11.5 56t7.5 39t5.5 34.5t3 27t2.5 31l54 8l-101 -475q-24 -110 -100.5 -170t-175.5 -60q-79 0 -127 43t-48 124z" />
<glyph unicode="&#x16d;" horiz-adv-x="510" d="M427 727l22 -3q-23 -57 -63 -89.5t-85 -32.5t-69.5 32.5t-20.5 89.5l23 3q2 -39 23.5 -60.5t57.5 -21.5q33 0 62.5 22t49.5 60zM76 145l45 214l8 136l49 10q0 -34 -5 -74.5t-10 -68.5t-15.5 -79t-15.5 -75q-9 -50 -12 -79.5t0 -55t17.5 -36.5t40.5 -11q64 0 114.5 62 t81.5 165q29 129 34 191q3 26 3 51l40 10q0 -35 -5.5 -79t-12 -77t-18 -86.5t-16.5 -80.5q-22 -114 -22 -182h-40q0 61 13 137q-33 -71 -83 -109t-101 -38q-56 0 -80.5 42t-9.5 113z" />
<glyph unicode="&#x16e;" horiz-adv-x="634" d="M527 852q0 -35 -30.5 -63.5t-68.5 -28.5q-26 0 -44 16t-18 40q0 34 31 62t69 28q27 0 44 -15t17 -39zM401 821q0 -16 9.5 -25t25.5 -9q22 0 39 18t17 41q0 33 -35 33q-22 0 -39 -17.5t-17 -40.5zM87 157q0 41 45.5 245.5t50.5 284.5l54 8v-1q-22 -101 -53 -246 q-55 -254 -55 -281q0 -66 40.5 -101.5t106.5 -35.5q78 0 139 49t80 138q12 54 25.5 118t20 95t14.5 69.5t11.5 56t7.5 39t5.5 34.5t3 27t2.5 31l54 8l-101 -475q-24 -110 -100.5 -170t-175.5 -60q-79 0 -127 43t-48 124z" />
<glyph unicode="&#x16f;" horiz-adv-x="510" d="M407 666q0 -35 -30.5 -63.5t-68.5 -28.5q-26 0 -44 16t-18 40q0 34 31 62t69 28q27 0 44 -15t17 -39zM281 635q0 -16 9.5 -25t25.5 -9q22 0 39 18t17 41q0 33 -35 33q-22 0 -39 -17.5t-17 -40.5zM76 145l45 214l8 136l49 10q0 -34 -5 -74.5t-10 -68.5t-15.5 -79 t-15.5 -75q-9 -50 -12 -79.5t0 -55t17.5 -36.5t40.5 -11q64 0 114.5 62t81.5 165q29 129 34 191q3 26 3 51l40 10q0 -35 -5.5 -79t-12 -77t-18 -86.5t-16.5 -80.5q-22 -114 -22 -182h-40q0 61 13 137q-33 -71 -83 -109t-101 -38q-56 0 -80.5 42t-9.5 113z" />
<glyph unicode="&#x170;" horiz-adv-x="634" d="M456 865l-3 -8q-86 -58 -191 -78l-3 17q113 51 173 100zM636 865l-3 -8q-86 -58 -191 -78l-3 17q113 51 173 100zM87 157q0 41 45.5 245.5t50.5 284.5l54 8v-1q-22 -101 -53 -246q-55 -254 -55 -281q0 -66 40.5 -101.5t106.5 -35.5q78 0 139 49t80 138q12 54 25.5 118 t20 95t14.5 69.5t11.5 56t7.5 39t5.5 34.5t3 27t2.5 31l54 8l-101 -475q-24 -110 -100.5 -170t-175.5 -60q-79 0 -127 43t-48 124z" />
<glyph unicode="&#x171;" horiz-adv-x="510" d="M382 742l1 -8q-81 -90 -189 -154l-7 13q103 82 164 162zM496 742l1 -8q-79 -89 -189 -154l-7 13q103 82 164 162zM76 145l45 214l8 136l49 10q0 -34 -5 -74.5t-10 -68.5t-15.5 -79t-15.5 -75q-9 -50 -12 -79.5t0 -55t17.5 -36.5t40.5 -11q64 0 114.5 62t81.5 165 q29 129 34 191q3 26 3 51l40 10q0 -35 -5.5 -79t-12 -77t-18 -86.5t-16.5 -80.5q-22 -114 -22 -182h-40q0 61 13 137q-33 -71 -83 -109t-101 -38q-56 0 -80.5 42t-9.5 113z" />
<glyph unicode="&#x172;" horiz-adv-x="634" d="M87 157q0 41 45.5 245.5t50.5 284.5l54 8v-1q-22 -101 -53 -246q-55 -254 -55 -281q0 -66 40.5 -101.5t106.5 -35.5q78 0 139 49t80 138q12 54 25.5 118t20 95t14.5 69.5t11.5 56t7.5 39t5.5 34.5t3 27t2.5 31l54 8l-101 -475q-17 -78 -61.5 -131.5t-107.5 -78.5 q-145 -72 -145 -148q0 -41 46 -41q24 0 59 12l4 -22q-34 -23 -79 -23q-75 0 -75 60q0 77 114 144q-20 -2 -31 -2q-79 0 -127 43t-48 124z" />
<glyph unicode="&#x173;" horiz-adv-x="510" d="M76 145l45 214l8 136l49 10q0 -34 -5 -74.5t-10 -68.5t-15.5 -79t-15.5 -75q-9 -50 -12 -79.5t0 -55t17.5 -36.5t40.5 -11q64 0 114.5 62t81.5 165q29 129 34 191q3 26 3 51l40 10q0 -35 -5.5 -79t-12 -77t-18 -86.5t-16.5 -80.5q-22 -114 -22 -182q-139 -71 -139 -142 q0 -37 46 -37q24 0 59 12l4 -22q-34 -23 -79 -23q-35 0 -55 14.5t-20 41.5q0 85 144 156q0 50 13 137q-33 -71 -83 -109t-101 -38q-56 0 -80.5 42t-9.5 113z" />
<glyph unicode="&#x174;" horiz-adv-x="956" d="M473 770l-10 13q81 62 138 118l44 5q47 -70 99 -123l-16 -13q-70 55 -113 97q-69 -53 -142 -97zM197 -5l-78 695l41 5l48 -428q17 -141 14 -215q22 57 117 238l215 401l39 4l48 -428q17 -141 14 -215q26 68 116 235l218 408l31 -5l4 -5l-369 -690h-25l-55 492 q-11 105 -13 151h-1q-26 -58 -77 -151l-262 -492h-25z" />
<glyph unicode="&#x175;" horiz-adv-x="606" d="M249 579l-11 11q82 87 133 154l44 5q31 -79 78 -159l-15 -11q-47 57 -94 126q-56 -56 -135 -126zM595 505q18 0 18 -18q0 -70 -64.5 -217t-154.5 -270h-40q4 207 -14 417h-1q-20 -92 -75 -206t-124 -211h-40q5 269 -32 495l41 7q38 -209 33 -447h1q156 242 178 440h44 q36 -206 31 -440h1q72 110 120 228t59 218q9 4 19 4z" />
<glyph unicode="&#x176;" horiz-adv-x="524" d="M257 770l-10 13q81 62 138 118l44 5q47 -70 99 -123l-16 -13q-70 55 -113 97q-69 -53 -142 -97zM243 256l-124 435l43 4l74 -260q2 -9 12 -42.5t15.5 -59t7.5 -48.5h1q16 30 101 152l182 258l33 -5l4 -5l-308 -433l-54 -252h-42z" />
<glyph unicode="&#x177;" horiz-adv-x="398" d="M149 579l-11 11q82 87 133 154l44 5q31 -79 78 -159l-15 -11q-47 57 -94 126q-56 -56 -135 -126zM387 505q18 0 18 -18q0 -61 -59 -185.5t-140.5 -247.5t-176 -216t-157.5 -93q-37 0 -37 27q0 13 8 23q21 -3 37 -3q96 0 246 210q0 261 -58 493l40 10q59 -217 59 -445h1 q180 263 200 441q9 4 19 4z" />
<glyph unicode="&#x178;" horiz-adv-x="524" d="M522 849q0 -22 -15.5 -39.5t-34.5 -17.5q-14 0 -22 8.5t-8 21.5q0 20 16 37.5t35 17.5q29 0 29 -28zM332 849q0 -22 -15.5 -39.5t-34.5 -17.5q-14 0 -22 8.5t-8 21.5q0 20 16 37.5t35 17.5q29 0 29 -28zM243 256l-124 435l43 4l74 -260q2 -9 12 -42.5t15.5 -59t7.5 -48.5 h1q16 30 101 152l182 258l33 -5l4 -5l-308 -433l-54 -252h-42z" />
<glyph unicode="&#x179;" horiz-adv-x="507" d="M503 865l-3 -8q-108 -58 -241 -78l-3 17q144 50 223 100zM-16 0l-1 25l522 625l-379 -3l11 38h417l4 -25l-522 -625l397 4l-11 -39h-438z" />
<glyph unicode="&#x17a;" horiz-adv-x="392" d="M332 736l1 -8q-79 -87 -194 -151l-7 13q114 96 164 162zM-1 -10l-18 23q135 153 208.5 243.5t128.5 174.5q-86 38 -154 38q-57 0 -97 -58l-21 8q23 50 51 68t69 18q71 0 167 -50q25 43 29 50q28 0 28 -17q0 -30 -105 -166.5t-235 -278.5q10 3 25 3q22 0 75.5 -10 t73.5 -10q54 0 101 61l21 -8q-27 -52 -56.5 -70.5t-72.5 -18.5q-31 0 -90.5 10t-82.5 10q-26 0 -45 -20z" />
<glyph unicode="&#x17b;" horiz-adv-x="507" d="M422 857q0 -22 -15 -38t-36 -16q-32 0 -32 29q0 20 16 36.5t36 16.5q31 0 31 -28zM-16 0l-1 25l522 625l-379 -3l11 38h417l4 -25l-522 -625l397 4l-11 -39h-438z" />
<glyph unicode="&#x17c;" horiz-adv-x="392" d="M272 682q0 -24 -15 -42.5t-34 -18.5q-27 0 -27 30q0 23 15.5 41.5t33.5 18.5q27 0 27 -29zM-1 -10l-18 23q135 153 208.5 243.5t128.5 174.5q-86 38 -154 38q-57 0 -97 -58l-21 8q23 50 51 68t69 18q71 0 167 -50q25 43 29 50q28 0 28 -17q0 -30 -105 -166.5t-235 -278.5 q10 3 25 3q22 0 75.5 -10t73.5 -10q54 0 101 61l21 -8q-27 -52 -56.5 -70.5t-72.5 -18.5q-31 0 -90.5 10t-82.5 10q-26 0 -45 -20z" />
<glyph unicode="&#x17d;" horiz-adv-x="507" d="M510 906l10 -13q-81 -62 -138 -118l-44 -5q-47 70 -99 123l16 13q70 -55 113 -97q69 53 142 97zM-16 0l-1 25l522 625l-379 -3l11 38h417l4 -25l-522 -625l397 4l-11 -39h-438z" />
<glyph unicode="&#x17e;" horiz-adv-x="392" d="M351 750l11 -11q-82 -87 -133 -154l-44 -5q-31 79 -78 159l15 11q47 -57 94 -126q56 56 135 126zM-1 -10l-18 23q135 153 208.5 243.5t128.5 174.5q-86 38 -154 38q-57 0 -97 -58l-21 8q23 50 51 68t69 18q71 0 167 -50q25 43 29 50q28 0 28 -17q0 -30 -105 -166.5 t-235 -278.5q10 3 25 3q22 0 75.5 -10t73.5 -10q54 0 101 61l21 -8q-27 -52 -56.5 -70.5t-72.5 -18.5q-31 0 -90.5 10t-82.5 10q-26 0 -45 -20z" />
<glyph unicode="&#x18f;" horiz-adv-x="655" d="M124 366l19 18h401q2 30 2 45q0 228 -169 228q-82 0 -172 -53l4 38q81 53 181 53q97 0 150 -63.5t53 -192.5q0 -184 -98 -316.5t-236 -132.5q-83 0 -128.5 51.5t-45.5 142.5q0 86 39 182zM540 351l-378 -7q-31 -72 -31 -151t36.5 -122t102.5 -43q102 0 178.5 95.5 t93.5 236.5z" />
<glyph unicode="&#x192;" horiz-adv-x="419" d="M176 298l-112 2l7 27l113 7h1l22 100q28 127 74 194t131 67q56 0 97 -26l-22 -40q-36 30 -78 30q-61 0 -97 -50.5t-66 -184.5l-20 -90h181l4 -5l-12 -31h-181l-78 -352q-7 -30 -12.5 -49.5t-19.5 -51t-31.5 -51t-47.5 -34.5t-67 -15q-55 0 -93 26l22 40q32 -30 81 -30 q25 0 45 10.5t32 25t22.5 39.5t15 43t11.5 48l79 351h-1z" />
<glyph unicode="&#x19d;" horiz-adv-x="698" d="M-67 -182l-9 26q103 51 134 199l106 495q16 67 24 147l48 10q64 -149 129 -311q13 -31 38.5 -92t37 -89.5t26.5 -71.5t25 -80h1q15 87 99 485q18 83 25 149l46 10l4 -5l-147 -690h-45q-14 35 -40.5 99t-48 116t-40.5 97q-9 21 -30.5 72.5t-29 70.5t-21.5 55t-23.5 64.5 t-18.5 59.5h-1q-14 -84 -50 -252l-72 -339q-37 -168 -167 -225z" />
<glyph unicode="&#x1cd;" horiz-adv-x="589" d="M551 906l10 -13q-81 -62 -138 -118l-44 -5q-47 70 -99 123l16 13q70 -55 113 -97q69 53 142 97zM13 0h-41l344 592q37 64 56 100l28 3l4 -5l107 -690h-44l-35 222h-290zM267 437l-104 -179h264l-28 179q-21 139 -22 200h-1q-23 -51 -109 -200z" />
<glyph unicode="&#x1ce;" horiz-adv-x="506" d="M472 750l11 -11q-82 -87 -133 -154l-44 -5q-31 79 -78 159l15 11q47 -57 94 -126q56 56 135 126zM52 132q0 91 39.5 176.5t112 141t156.5 55.5q53 0 103 -15l-42 -173q-17 -72 -25 -108.5t-15.5 -95t-7.5 -113.5h-40q0 101 29 232q-112 -242 -219 -242q-40 0 -65.5 35.5 t-25.5 106.5zM95 137q0 -52 15.5 -81.5t44.5 -29.5q45 0 100.5 74.5t93 158.5t52.5 143q3 10 7.5 29.5t6.5 25.5q-42 12 -78 12q-94 0 -168 -104.5t-74 -227.5z" />
<glyph unicode="&#x1cf;" horiz-adv-x="299" d="M406 906l10 -13q-81 -62 -138 -118l-44 -5q-47 70 -99 123l16 13q70 -55 113 -97q69 53 142 97zM121 0h-42l114 538q18 80 25 147l46 10l4 -5z" />
<glyph unicode="&#x1d0;" horiz-adv-x="241" d="M289 755l8 -10q-62 -86 -103 -154l-44 -5q-25 91 -48 159l12 10q33 -52 67 -121q78 91 108 121zM111 0h-40q0 96 37 267l20 92l8 136l49 10q0 -73 -37 -248t-37 -257z" />
<glyph unicode="&#x1d1;" horiz-adv-x="689" d="M608 906l10 -13q-81 -62 -138 -118l-44 -5q-47 70 -99 123l16 13q70 -55 113 -97q69 53 142 97zM630 448q0 -111 -42.5 -215.5t-122 -173.5t-174.5 -69q-90 0 -141.5 62.5t-51.5 178.5q0 111 43.5 217t123.5 176.5t174 70.5q89 0 140 -64.5t51 -182.5zM143 240 q0 -100 41 -156t118 -56q83 0 149.5 64t100 158.5t33.5 193.5q0 101 -39 157t-115 56q-82 0 -150 -65t-103 -160t-35 -192z" />
<glyph unicode="&#x1d2;" horiz-adv-x="494" d="M450 750l11 -11q-82 -87 -133 -154l-44 -5q-31 79 -78 159l15 11q47 -57 94 -126q56 56 135 126zM436 337q0 -82 -30 -160.5t-88.5 -132.5t-129.5 -54q-62 0 -95.5 43t-33.5 126t30.5 162t88.5 131.5t128 52.5q62 0 96 -42.5t34 -125.5zM102 164q0 -138 97 -138 q57 0 103 48.5t68.5 117.5t22.5 139q0 138 -97 138q-57 0 -103 -48.5t-68.5 -117.5t-22.5 -139z" />
<glyph unicode="&#x1d3;" horiz-adv-x="634" d="M578 906l10 -13q-81 -62 -138 -118l-44 -5q-47 70 -99 123l16 13q70 -55 113 -97q69 53 142 97zM87 157q0 41 45.5 245.5t50.5 284.5l54 8v-1q-22 -101 -53 -246q-55 -254 -55 -281q0 -66 40.5 -101.5t106.5 -35.5q78 0 139 49t80 138q12 54 25.5 118t20 95t14.5 69.5 t11.5 56t7.5 39t5.5 34.5t3 27t2.5 31l54 8l-101 -475q-24 -110 -100.5 -170t-175.5 -60q-79 0 -127 43t-48 124z" />
<glyph unicode="&#x1d4;" horiz-adv-x="510" d="M447 750l11 -11q-82 -87 -133 -154l-44 -5q-31 79 -78 159l15 11q47 -57 94 -126q56 56 135 126zM76 145l45 214l8 136l49 10q0 -34 -5 -74.5t-10 -68.5t-15.5 -79t-15.5 -75q-9 -50 -12 -79.5t0 -55t17.5 -36.5t40.5 -11q64 0 114.5 62t81.5 165q29 129 34 191 q3 26 3 51l40 10q0 -35 -5.5 -79t-12 -77t-18 -86.5t-16.5 -80.5q-22 -114 -22 -182h-40q0 61 13 137q-33 -71 -83 -109t-101 -38q-56 0 -80.5 42t-9.5 113z" />
<glyph unicode="&#x1d5;" horiz-adv-x="634" d="M357 1009l8 39h254l-8 -39h-254zM582 849q0 -22 -15.5 -39.5t-34.5 -17.5q-14 0 -22 8.5t-8 21.5q0 20 16 37.5t35 17.5q29 0 29 -28zM392 849q0 -22 -15.5 -39.5t-34.5 -17.5q-14 0 -22 8.5t-8 21.5q0 20 16 37.5t35 17.5q29 0 29 -28zM87 157q0 41 45.5 245.5 t50.5 284.5l54 8v-1q-22 -101 -53 -246q-55 -254 -55 -281q0 -66 40.5 -101.5t106.5 -35.5q78 0 139 49t80 138q12 54 25.5 118t20 95t14.5 69.5t11.5 56t7.5 39t5.5 34.5t3 27t2.5 31l54 8l-101 -475q-24 -110 -100.5 -170t-175.5 -60q-79 0 -127 43t-48 124z" />
<glyph unicode="&#x1d6;" horiz-adv-x="510" d="M240 859l7 34h264l-7 -34h-264zM273 680q0 -24 -14.5 -43t-33.5 -19q-26 0 -26 30q0 22 15.5 41t33.5 19q25 0 25 -28zM461 680q0 -24 -14.5 -43t-33.5 -19q-26 0 -26 30q0 22 15.5 41t33.5 19q25 0 25 -28zM76 145l45 214l8 136l49 10q0 -34 -5 -74.5t-10 -68.5 t-15.5 -79t-15.5 -75q-9 -50 -12 -79.5t0 -55t17.5 -36.5t40.5 -11q64 0 114.5 62t81.5 165q29 129 34 191q3 26 3 51l40 10q0 -35 -5.5 -79t-12 -77t-18 -86.5t-16.5 -80.5q-22 -114 -22 -182h-40q0 61 13 137q-33 -71 -83 -109t-101 -38q-56 0 -80.5 42t-9.5 113z" />
<glyph unicode="&#x1d7;" horiz-adv-x="634" d="M612 1057l-3 -8q-108 -58 -241 -78l-3 17q144 50 223 100zM582 849q0 -22 -15.5 -39.5t-34.5 -17.5q-14 0 -22 8.5t-8 21.5q0 20 16 37.5t35 17.5q29 0 29 -28zM392 849q0 -22 -15.5 -39.5t-34.5 -17.5q-14 0 -22 8.5t-8 21.5q0 20 16 37.5t35 17.5q29 0 29 -28zM87 157 q0 41 45.5 245.5t50.5 284.5l54 8v-1q-22 -101 -53 -246q-55 -254 -55 -281q0 -66 40.5 -101.5t106.5 -35.5q78 0 139 49t80 138q12 54 25.5 118t20 95t14.5 69.5t11.5 56t7.5 39t5.5 34.5t3 27t2.5 31l54 8l-101 -475q-24 -110 -100.5 -170t-175.5 -60q-79 0 -127 43 t-48 124z" />
<glyph unicode="&#x1d8;" horiz-adv-x="510" d="M474 949l1 -8q-79 -87 -194 -151l-7 13q114 96 164 162zM273 680q0 -24 -14.5 -43t-33.5 -19q-26 0 -26 30q0 22 15.5 41t33.5 19q25 0 25 -28zM461 680q0 -24 -14.5 -43t-33.5 -19q-26 0 -26 30q0 22 15.5 41t33.5 19q25 0 25 -28zM76 145l45 214l8 136l49 10 q0 -34 -5 -74.5t-10 -68.5t-15.5 -79t-15.5 -75q-9 -50 -12 -79.5t0 -55t17.5 -36.5t40.5 -11q64 0 114.5 62t81.5 165q29 129 34 191q3 26 3 51l40 10q0 -35 -5.5 -79t-12 -77t-18 -86.5t-16.5 -80.5q-22 -114 -22 -182h-40q0 61 13 137q-33 -71 -83 -109t-101 -38 q-56 0 -80.5 42t-9.5 113z" />
<glyph unicode="&#x1d9;" horiz-adv-x="634" d="M609 1132l11 -11q-82 -87 -133 -154l-44 -5q-31 79 -78 159l15 11q47 -57 94 -126q56 56 135 126zM582 849q0 -22 -15.5 -39.5t-34.5 -17.5q-14 0 -22 8.5t-8 21.5q0 20 16 37.5t35 17.5q29 0 29 -28zM392 849q0 -22 -15.5 -39.5t-34.5 -17.5q-14 0 -22 8.5t-8 21.5 q0 20 16 37.5t35 17.5q29 0 29 -28zM87 157q0 41 45.5 245.5t50.5 284.5l54 8v-1q-22 -101 -53 -246q-55 -254 -55 -281q0 -66 40.5 -101.5t106.5 -35.5q78 0 139 49t80 138q12 54 25.5 118t20 95t14.5 69.5t11.5 56t7.5 39t5.5 34.5t3 27t2.5 31l54 8l-101 -475 q-24 -110 -100.5 -170t-175.5 -60q-79 0 -127 43t-48 124z" />
<glyph unicode="&#x1da;" horiz-adv-x="510" d="M493 963l11 -11q-82 -87 -133 -154l-44 -5q-31 79 -78 159l15 11q47 -57 94 -126q56 56 135 126zM273 680q0 -24 -14.5 -43t-33.5 -19q-26 0 -26 30q0 22 15.5 41t33.5 19q25 0 25 -28zM461 680q0 -24 -14.5 -43t-33.5 -19q-26 0 -26 30q0 22 15.5 41t33.5 19 q25 0 25 -28zM76 145l45 214l8 136l49 10q0 -34 -5 -74.5t-10 -68.5t-15.5 -79t-15.5 -75q-9 -50 -12 -79.5t0 -55t17.5 -36.5t40.5 -11q64 0 114.5 62t81.5 165q29 129 34 191q3 26 3 51l40 10q0 -35 -5.5 -79t-12 -77t-18 -86.5t-16.5 -80.5q-22 -114 -22 -182h-40 q0 61 13 137q-33 -71 -83 -109t-101 -38q-56 0 -80.5 42t-9.5 113z" />
<glyph unicode="&#x1db;" horiz-adv-x="634" d="M586 971q-126 20 -207 78l1 8l36 31q64 -54 181 -100zM582 849q0 -22 -15.5 -39.5t-34.5 -17.5q-14 0 -22 8.5t-8 21.5q0 20 16 37.5t35 17.5q29 0 29 -28zM392 849q0 -22 -15.5 -39.5t-34.5 -17.5q-14 0 -22 8.5t-8 21.5q0 20 16 37.5t35 17.5q29 0 29 -28zM87 157 q0 41 45.5 245.5t50.5 284.5l54 8v-1q-22 -101 -53 -246q-55 -254 -55 -281q0 -66 40.5 -101.5t106.5 -35.5q78 0 139 49t80 138q12 54 25.5 118t20 95t14.5 69.5t11.5 56t7.5 39t5.5 34.5t3 27t2.5 31l54 8l-101 -475q-24 -110 -100.5 -170t-175.5 -60q-79 0 -127 43 t-48 124z" />
<glyph unicode="&#x1dc;" horiz-adv-x="510" d="M434 793q-91 66 -130 151l5 8l42 16q26 -71 96 -162zM273 680q0 -24 -14.5 -43t-33.5 -19q-26 0 -26 30q0 22 15.5 41t33.5 19q25 0 25 -28zM461 680q0 -24 -14.5 -43t-33.5 -19q-26 0 -26 30q0 22 15.5 41t33.5 19q25 0 25 -28zM76 145l45 214l8 136l49 10 q0 -34 -5 -74.5t-10 -68.5t-15.5 -79t-15.5 -75q-9 -50 -12 -79.5t0 -55t17.5 -36.5t40.5 -11q64 0 114.5 62t81.5 165q29 129 34 191q3 26 3 51l40 10q0 -35 -5.5 -79t-12 -77t-18 -86.5t-16.5 -80.5q-22 -114 -22 -182h-40q0 61 13 137q-33 -71 -83 -109t-101 -38 q-56 0 -80.5 42t-9.5 113z" />
<glyph unicode="&#x1e6;" horiz-adv-x="639" d="M586 906l10 -13q-81 -62 -138 -118l-44 -5q-47 70 -99 123l16 13q70 -55 113 -97q69 53 142 97zM563 288l4 -5l-53 -242q-77 -51 -193 -51q-106 0 -163.5 62.5t-57.5 187.5q0 114 44.5 218t127.5 170.5t182 66.5q94 0 158 -45l-18 -42q-56 49 -147 49q-88 0 -159 -62 t-107 -155t-36 -193q0 -219 191 -219q72 0 140 30l15 73q17 83 24 147z" />
<glyph unicode="&#x1e7;" horiz-adv-x="415" d="M414 750l11 -11q-82 -87 -133 -154l-44 -5q-31 79 -78 159l15 11q47 -57 94 -126q56 56 135 126zM120 -255q-76 0 -117.5 32.5t-41.5 85.5q0 69 78 118l14 -16q-49 -47 -49 -94q0 -39 33 -64.5t91 -25.5q69 0 113 32.5t44 74.5q0 25 -19.5 44.5t-65.5 42.5q-3 2 -14 7 t-14.5 7t-12.5 6.5t-12.5 7l-10.5 7.5t-9.5 8.5t-6 8.5t-5 10.5t-1.5 11.5q0 39 82 101v1q-8 -1 -9 -1q-58 0 -87.5 35t-29.5 94q0 91 58.5 158.5t142.5 67.5q107 0 151 10q5 -8 5 -21q0 -26 -37 -26q-23 0 -73 12v-1q48 -31 48 -105q0 -53 -21.5 -99.5t-52 -77.5t-61 -56 t-52 -45t-21.5 -35q0 -4 1 -7.5t4 -7t5.5 -6.5t7 -6l7.5 -5t8.5 -5t7.5 -4l8 -4t7 -3q61 -29 88 -56t27 -61q0 -57 -56.5 -104t-151.5 -47zM325 370q0 47 -20 74t-55 27q-53 0 -96.5 -59.5t-43.5 -129.5q0 -47 21 -72t57 -25q57 0 97 58t40 127z" />
<glyph unicode="&#x1ea;" horiz-adv-x="689" d="M630 448q0 -134 -62 -256.5t-162 -173.5q-147 -79 -147 -155q0 -42 46 -42q24 0 59 12l4 -22q-34 -23 -82 -23q-72 0 -72 64q0 71 105 140q-18 -2 -28 -2q-90 0 -141.5 62.5t-51.5 178.5q0 111 43.5 217t123.5 176.5t174 70.5q89 0 140 -64.5t51 -182.5zM143 240 q0 -100 41 -156t118 -56q83 0 149.5 64t100 158.5t33.5 193.5q0 101 -39 157t-115 56q-82 0 -150 -65t-103 -160t-35 -192z" />
<glyph unicode="&#x1eb;" horiz-adv-x="494" d="M289 21q-140 -106 -140 -161q0 -39 46 -39q24 0 59 12l4 -22q-34 -23 -80 -23q-34 0 -54 15.5t-20 41.5q0 64 109 147q-16 -2 -25 -2q-62 0 -95.5 43t-33.5 126t30.5 162t88.5 131.5t128 52.5q62 0 96 -42.5t34 -125.5q0 -93 -40.5 -182.5t-106.5 -133.5zM102 164 q0 -138 97 -138q57 0 103 48.5t68.5 117.5t22.5 139q0 138 -97 138q-57 0 -103 -48.5t-68.5 -117.5t-22.5 -139z" />
<glyph unicode="&#x1f4;" horiz-adv-x="639" d="M579 865l-3 -8q-108 -58 -241 -78l-3 17q144 50 223 100zM563 288l4 -5l-53 -242q-77 -51 -193 -51q-106 0 -163.5 62.5t-57.5 187.5q0 114 44.5 218t127.5 170.5t182 66.5q94 0 158 -45l-18 -42q-56 49 -147 49q-88 0 -159 -62t-107 -155t-36 -193q0 -219 191 -219 q72 0 140 30l15 73q17 83 24 147z" />
<glyph unicode="&#x1f5;" horiz-adv-x="415" d="M395 736l1 -8q-79 -87 -194 -151l-7 13q114 96 164 162zM120 -255q-76 0 -117.5 32.5t-41.5 85.5q0 69 78 118l14 -16q-49 -47 -49 -94q0 -39 33 -64.5t91 -25.5q69 0 113 32.5t44 74.5q0 25 -19.5 44.5t-65.5 42.5q-3 2 -14 7t-14.5 7t-12.5 6.5t-12.5 7l-10.5 7.5 t-9.5 8.5t-6 8.5t-5 10.5t-1.5 11.5q0 39 82 101v1q-8 -1 -9 -1q-58 0 -87.5 35t-29.5 94q0 91 58.5 158.5t142.5 67.5q107 0 151 10q5 -8 5 -21q0 -26 -37 -26q-23 0 -73 12v-1q48 -31 48 -105q0 -53 -21.5 -99.5t-52 -77.5t-61 -56t-52 -45t-21.5 -35q0 -4 1 -7.5t4 -7 t5.5 -6.5t7 -6l7.5 -5t8.5 -5t7.5 -4l8 -4t7 -3q61 -29 88 -56t27 -61q0 -57 -56.5 -104t-151.5 -47zM325 370q0 47 -20 74t-55 27q-53 0 -96.5 -59.5t-43.5 -129.5q0 -47 21 -72t57 -25q57 0 97 58t40 127z" />
<glyph unicode="&#x1fa;" horiz-adv-x="589" d="M591 1086l-3 -8q-108 -58 -241 -78l-3 17q144 50 223 100zM500 852q0 -35 -30.5 -63.5t-68.5 -28.5q-26 0 -44 16t-18 40q0 34 31 62t69 28q27 0 44 -15t17 -39zM374 821q0 -16 9.5 -25t25.5 -9q22 0 39 18t17 41q0 33 -35 33q-22 0 -39 -17.5t-17 -40.5zM13 0h-41 l344 592q37 64 56 100l28 3l4 -5l107 -690h-44l-35 222h-290zM267 437l-104 -179h264l-28 179q-21 139 -22 200h-1q-23 -51 -109 -200z" />
<glyph unicode="&#x1fb;" horiz-adv-x="506" d="M501 961l1 -8q-79 -87 -194 -151l-7 13q114 96 164 162zM432 666q0 -35 -30.5 -63.5t-68.5 -28.5q-26 0 -44 16t-18 40q0 34 31 62t69 28q27 0 44 -15t17 -39zM306 635q0 -16 9.5 -25t25.5 -9q22 0 39 18t17 41q0 33 -35 33q-22 0 -39 -17.5t-17 -40.5zM52 132 q0 91 39.5 176.5t112 141t156.5 55.5q53 0 103 -15l-42 -173q-17 -72 -25 -108.5t-15.5 -95t-7.5 -113.5h-40q0 101 29 232q-112 -242 -219 -242q-40 0 -65.5 35.5t-25.5 106.5zM95 137q0 -52 15.5 -81.5t44.5 -29.5q45 0 100.5 74.5t93 158.5t52.5 143q3 10 7.5 29.5 t6.5 25.5q-42 12 -78 12q-94 0 -168 -104.5t-74 -227.5z" />
<glyph unicode="&#x1fc;" horiz-adv-x="833" d="M661 865l-3 -8q-108 -58 -241 -78l-3 17q144 50 223 100zM13 0h-41l438 592q2 3 15.5 21.5t51.5 71.5h304l4 -5l-8 -34l-268 4l-26 -292l232 2l-9 -39l-226 2l-26 -288l284 4l-8 -39h-323l23 222h-253zM336 437l-132 -179h230l19 179q17 159 24 200h-1q-43 -69 -140 -200 z" />
<glyph unicode="&#x1fd;" horiz-adv-x="730" d="M563 736l1 -8q-79 -87 -194 -151l-7 13q114 96 164 162zM52 133q0 91 39 175.5t114 140.5t168 56q61 0 127 -27q44 27 90 27q47 0 76 -27.5t29 -74.5q0 -70 -71 -120t-234 -58q-5 -30 -5 -53q0 -66 29 -106t80 -40q78 0 153 93l18 -13q-30 -54 -79 -85t-100 -31 q-64 0 -104 47.5t-40 131.5q0 16 1 24q-103 -203 -200 -203q-40 0 -65.5 35.5t-25.5 107.5zM95 137q0 -111 59 -111q36 0 78.5 47.5t75.5 107t62 128.5q31 82 88 136q-48 24 -103 24q-111 0 -185.5 -102.5t-74.5 -229.5zM581 469q-60 0 -111.5 -64.5t-73.5 -150.5 q140 9 198 53t58 95q0 30 -19.5 48.5t-51.5 18.5z" />
<glyph unicode="&#x1fe;" horiz-adv-x="689" d="M601 865l-3 -8q-108 -58 -241 -78l-3 17q144 50 223 100zM630 448q0 -111 -42.5 -215.5t-122 -173.5t-174.5 -69q-119 0 -167 103l-101 -93l-20 22l110 101q-15 47 -15 108q0 111 43.5 217t123.5 176.5t174 70.5q122 0 168 -114l114 105l22 -21l-125 -116q12 -44 12 -101 zM143 240q0 -43 8 -81l420 389q-33 109 -140 109q-82 0 -150 -65t-103 -160t-35 -192zM585 444q0 38 -6 70l-418 -387q38 -99 141 -99q83 0 149.5 64t100 158.5t33.5 193.5z" />
<glyph unicode="&#x1ff;" horiz-adv-x="494" d="M431 736l1 -8q-79 -87 -194 -151l-7 13q114 96 164 162zM436 337q0 -82 -30 -160.5t-88.5 -132.5t-129.5 -54q-88 0 -117 84l-82 -72l-18 22l92 81q-4 21 -4 54q0 83 30.5 162t88.5 131.5t128 52.5q89 0 118 -86l86 75l19 -22l-97 -84q4 -21 4 -51zM102 164q0 -17 1 -25 l285 248q-18 82 -92 82q-57 0 -103 -48.5t-68.5 -117.5t-22.5 -139zM393 331q0 15 -1 22l-284 -248q17 -79 91 -79q57 0 103 48.5t68.5 117.5t22.5 139z" />
<glyph unicode="&#x218;" horiz-adv-x="493" d="M417 190q0 -87 -69 -143.5t-177 -56.5q-92 0 -158 35l17 43q60 -40 150 -40q83 0 138 45t55 111q0 28 -9.5 50t-31.5 41t-36.5 28.5t-44.5 27.5l-37.5 22.5t-33.5 24t-31 31t-18.5 37.5t-8.5 49q0 84 68.5 142t174.5 58q90 0 146 -33l-17 -43q-53 38 -136 38 q-82 0 -136.5 -43.5t-54.5 -107.5q0 -33 19 -61t39 -42t59 -37q2 -1 3.5 -2t4 -2.5t4.5 -2.5q27 -16 43.5 -28t37 -33t30.5 -48t10 -60zM100 -306q37 53 54 94h-2q-28 0 -28 32q0 21 14.5 40t37.5 19q30 0 30 -32q0 -65 -89 -164z" />
<glyph unicode="&#x219;" horiz-adv-x="425" d="M376 479l-17 -41q-48 31 -103 31t-89.5 -28t-34.5 -71q0 -31 21 -54t51.5 -38.5t61 -32t51.5 -44t21 -65.5q0 -62 -51.5 -104t-130.5 -42q-73 0 -127 32l17 41q50 -37 120 -37q53 0 90 29.5t37 72.5q0 30 -21.5 52.5t-51.5 37.5t-60.5 31t-52 43.5t-21.5 65.5 q0 64 53.5 105.5t128.5 41.5q58 0 108 -26zM84 -306q37 53 54 94h-2q-28 0 -28 32q0 21 14.5 40t37.5 19q30 0 30 -32q0 -65 -89 -164z" />
<glyph unicode="&#x21a;" horiz-adv-x="491" d="M214 0h-42l139 650q-95 0 -217 -5l12 40h465l-6 -40q-117 5 -212 5zM93 -306q37 53 54 94h-2q-28 0 -28 32q0 21 14.5 40t37.5 19q30 0 30 -32q0 -65 -89 -164z" />
<glyph unicode="&#x21b;" horiz-adv-x="338" d="M330 462h-138q-70 -327 -72 -354q-1 -7 -1 -15q0 -67 62 -67q43 0 86 25l2 -33q-49 -28 -104 -28q-89 0 -89 88q0 28 42 223q20 96 34 161h-76l6 26l77 7l33 112l30 4l4 -5l-27 -111h135l4 -5zM54 -306q37 53 54 94h-2q-28 0 -28 32q0 21 14.5 40t37.5 19q30 0 30 -32 q0 -65 -89 -164z" />
<glyph unicode="&#x232;" horiz-adv-x="524" d="M256 817l8 39h254l-8 -39h-254zM243 256l-124 435l43 4l74 -260q2 -9 12 -42.5t15.5 -59t7.5 -48.5h1q16 30 101 152l182 258l33 -5l4 -5l-308 -433l-54 -252h-42z" />
<glyph unicode="&#x233;" horiz-adv-x="398" d="M130 646l7 34h264l-7 -34h-264zM387 505q18 0 18 -18q0 -61 -59 -185.5t-140.5 -247.5t-176 -216t-157.5 -93q-37 0 -37 27q0 13 8 23q21 -3 37 -3q96 0 246 210q0 261 -58 493l40 10q59 -217 59 -445h1q180 263 200 441q9 4 19 4z" />
<glyph unicode="&#x237;" horiz-adv-x="218" d="M-70 -255l-15 21q91 52 119 182l88 411l8 136l49 10q0 -19 -1 -36.5t-5.5 -45.5t-8.5 -50.5t-14 -72t-18 -87t-25.5 -119t-31.5 -146.5q-29 -132 -145 -203z" />
<glyph unicode="&#x259;" horiz-adv-x="435" d="M76 417l4 40q67 48 147 48q68 0 108.5 -47t40.5 -131q0 -79 -33.5 -156.5t-91.5 -129t-123 -51.5q-47 0 -76 27.5t-29 74.5q0 70 71 120t234 58q5 32 5 54q0 65 -29.5 105t-85.5 40q-60 0 -142 -52zM66 93q0 -30 19.5 -48.5t51.5 -18.5q60 0 111.5 64t73.5 151 q-140 -9 -198 -53t-58 -95z" />
<glyph unicode="&#x272;" horiz-adv-x="564" d="M7 -203l-15 21q67 76 90 182l77 359l8 136l49 10q0 -67 -22 -160h2q36 78 91.5 119t111.5 41q57 0 80 -41.5t8 -113.5l-42 -199q-13 -59 -13 -151h-40q0 80 42 287q21 96 11 139t-59 43q-78 0 -139 -88.5t-88 -225.5q-17 -78 -33 -155q-24 -115 -119 -203z" />
<glyph unicode="&#x2c6;" horiz-adv-x="355" d="M134 579l-11 11q82 87 133 154l44 5q31 -79 78 -159l-15 -11q-47 57 -94 126q-56 -56 -135 -126z" />
<glyph unicode="&#x2c7;" horiz-adv-x="355" d="M401 762l11 -11q-82 -87 -133 -154l-44 -5q-31 79 -78 159l15 11q47 -57 94 -126q56 56 135 126z" />
<glyph unicode="&#x2d8;" horiz-adv-x="338" d="M368 730l22 -3q-23 -57 -63 -89.5t-85 -32.5t-69.5 32.5t-20.5 89.5l23 3q2 -39 23.5 -60.5t57.5 -21.5q33 0 62.5 22t49.5 60z" />
<glyph unicode="&#x2d9;" horiz-adv-x="172" d="M212 679q0 -24 -15 -42.5t-34 -18.5q-27 0 -27 30q0 23 15.5 41.5t33.5 18.5q27 0 27 -29z" />
<glyph unicode="&#x2da;" horiz-adv-x="256" d="M297 682q0 -35 -30.5 -63.5t-68.5 -28.5q-26 0 -44 16t-18 40q0 34 31 62t69 28q27 0 44 -15t17 -39zM171 651q0 -16 9.5 -25t25.5 -9q22 0 39 18t17 41q0 33 -35 33q-22 0 -39 -17.5t-17 -40.5z" />
<glyph unicode="&#x2db;" horiz-adv-x="365" d="M215 0q-139 -71 -139 -142q0 -37 46 -37q24 0 59 12l4 -22q-34 -23 -79 -23q-35 0 -55 14.5t-20 41.5q0 91 166 167z" />
<glyph unicode="&#x2dc;" horiz-adv-x="402" d="M233 710q26 0 62 -28t55 -28q33 0 75 57l15 -3q-14 -36 -42.5 -64t-60.5 -28q-27 0 -63 28t-55 28q-33 0 -75 -57l-15 3q15 35 43 63.5t61 28.5z" />
<glyph unicode="&#x2dd;" horiz-adv-x="364" d="M318 742l1 -8q-81 -90 -189 -154l-7 13q103 82 164 162zM432 742l1 -8q-79 -89 -189 -154l-7 13q103 82 164 162z" />
<glyph unicode="&#x394;" horiz-adv-x="570" d="M362 690h35l100 -670l-6 -20h-516l2 20zM22 33h431l-92 583z" />
<glyph unicode="&#x3a9;" horiz-adv-x="728" d="M244 0h-242l3 36l6 5l200 -16q-44 41 -71 114.5t-27 158.5q0 167 98.5 282t236.5 115q101 0 160.5 -65.5t59.5 -172.5q0 -119 -71 -243t-173 -189l205 16l4 -5l-13 -36h-242l2 23q105 73 173 190.5t68 231.5q0 96 -49 154t-132 58q-116 0 -200 -106t-84 -257 q0 -81 25.5 -154t70.5 -117z" />
<glyph unicode="&#x3bc;" horiz-adv-x="510" d="M337 0q0 61 13 137q-33 -71 -83 -109t-101 -38q-61 0 -85 52q-3 -42 -16 -142.5t-13 -144.5h-40q0 91 61 375l49 229l8 136l48 10q0 -34 -5 -74.5t-10 -68.5t-15.5 -79t-15.5 -75q-9 -50 -12 -79.5t0 -55t17.5 -36.5t40.5 -11q64 0 114.5 62t81.5 165q29 129 34 191 q3 26 3 51l40 10q0 -35 -5.5 -79t-12 -77t-18 -86.5t-16.5 -80.5q-22 -114 -22 -182h-40z" />
<glyph unicode="&#x3c0;" horiz-adv-x="620" d="M78 471l16 30l556 4l4 -5l-11 -25l-118 -1q-70 -299 -80 -408q-1 -11 -0.5 -20t6.5 -14.5t19 -5.5q17 0 45 7l-8 -33q-28 -10 -53 -10q-29 0 -41 16t-10 52q4 68 79 416l-234 -2q-4 -16 -22 -95.5t-24.5 -109.5t-18 -89t-15.5 -100.5t-4 -77.5h-40q0 100 61 380l20 92z " />
<glyph unicode="&#x1e0c;" horiz-adv-x="689" d="M629 433q0 -81 -29.5 -158.5t-82 -138.5t-131 -98.5t-169.5 -37.5h-138l115 538q17 83 24 147h147q125 0 194.5 -63t69.5 -189zM351 649h-92l-130 -613h94q84 0 154 34t114.5 89.5t68.5 125.5t24 144q0 110 -56.5 165t-176.5 55zM296 -145q0 -24 -15 -42.5t-34 -18.5 q-27 0 -27 30q0 23 15.5 41.5t33.5 18.5q27 0 27 -29z" />
<glyph unicode="&#x1e0d;" horiz-adv-x="509" d="M376 0h-40q0 77 32 238q-106 -248 -225 -248q-40 0 -65.5 35.5t-25.5 106.5q0 91 39.5 176.5t112 141t156.5 55.5q27 0 63 -6l23 110l8 136l49 10q0 -94 -63.5 -371t-63.5 -384zM95 137q0 -52 15.5 -81.5t44.5 -29.5q44 0 99.5 71.5t93.5 155.5t52 143l14 61 q-42 12 -77 12q-94 0 -168 -104.5t-74 -227.5zM207 -145q0 -24 -15 -42.5t-34 -18.5q-27 0 -27 30q0 23 15.5 41.5t33.5 18.5q27 0 27 -29z" />
<glyph unicode="&#x1e24;" horiz-adv-x="713" d="M121 0h-42l114 538q19 93 25 147l46 10l4 -5l-71 -331h372l38 179q18 80 25 147l46 10l4 -5l-147 -690h-42l68 323h-371zM308 -145q0 -24 -15 -42.5t-34 -18.5q-27 0 -27 30q0 23 15.5 41.5t33.5 18.5q27 0 27 -29z" />
<glyph unicode="&#x1e25;" horiz-adv-x="537" d="M111 0h-40q0 96 61 380l49 229l8 136l49 10q0 -98 -65 -381q-5 -19 -7 -29h2q35 78 89.5 119t110.5 41q45 0 69.5 -25.5t24.5 -70.5q0 -26 -4.5 -50.5t-29.5 -140.5q-27 -127 -27 -218h-40q0 86 34 238q27 124 27 162q0 69 -65 69q-68 0 -124 -66t-87.5 -172.5 t-34.5 -230.5zM267 -145q0 -24 -15 -42.5t-34 -18.5q-27 0 -27 30q0 23 15.5 41.5t33.5 18.5q27 0 27 -29z" />
<glyph unicode="&#x1e44;" horiz-adv-x="728" d="M524 857q0 -22 -15 -38t-36 -16q-32 0 -32 29q0 20 16 36.5t36 16.5q31 0 31 -28zM395 384q14 -34 38.5 -91.5t36.5 -87t27 -72.5t25 -82h1q16 95 99 487q18 80 25 147l46 10l4 -5l-147 -690h-45q-22 52 -65 155.5t-64 155.5q-10 24 -30.5 73.5t-29 70t-22 56t-23 64 t-18.5 59.5h-1q-18 -108 -50 -252l-81 -382h-42l114 538q18 80 25 147l48 10q35 -83 129 -311z" />
<glyph unicode="&#x1e45;" horiz-adv-x="537" d="M387 682q0 -24 -15 -42.5t-34 -18.5q-27 0 -27 30q0 23 15.5 41.5t33.5 18.5q27 0 27 -29zM111 0h-40q0 22 1.5 45.5t3.5 41.5t6.5 45.5t6.5 41t9 46.5t9 43t10.5 49t10.5 47l8 136l49 10q0 -67 -22 -160h2q36 78 91.5 119t112.5 41q45 0 69 -25t24 -69q0 -41 -32 -185 q-18 -82 -23.5 -124.5t-5.5 -101.5h-40q0 73 34 245q22 112 22 150q0 74 -63 74q-64 0 -119 -64t-88 -172t-36 -233z" />
<glyph unicode="&#x1e5a;" horiz-adv-x="571" d="M121 0h-42l115 538q17 83 24 147h140q91 0 142.5 -42.5t51.5 -115.5q0 -85 -54.5 -146.5t-143.5 -82.5l134 -298l-41 -10q-23 49 -67 148t-67 149h-131zM348 650h-88l-70 -328h85q104 0 167.5 54.5t63.5 146.5q0 58 -39 92.5t-119 34.5zM252 -145q0 -24 -15 -42.5 t-34 -18.5q-27 0 -27 30q0 23 15.5 41.5t33.5 18.5q27 0 27 -29z" />
<glyph unicode="&#x1e5b;" horiz-adv-x="368" d="M111 0h-40q0 96 37 267l20 92l8 136l49 10q0 -67 -25 -180h2q36 92 84 136t101 44q38 0 62 -19l-25 -34q-23 14 -49 14q-58 0 -110.5 -74.5t-82 -181.5t-31.5 -210zM100 -145q0 -24 -15 -42.5t-34 -18.5q-27 0 -27 30q0 23 15.5 41.5t33.5 18.5q27 0 27 -29z" />
<glyph unicode="&#x1e62;" horiz-adv-x="493" d="M417 190q0 -87 -69 -143.5t-177 -56.5q-92 0 -158 35l17 43q60 -40 150 -40q83 0 138 45t55 111q0 28 -9.5 50t-31.5 41t-36.5 28.5t-44.5 27.5l-37.5 22.5t-33.5 24t-31 31t-18.5 37.5t-8.5 49q0 84 68.5 142t174.5 58q90 0 146 -33l-17 -43q-53 38 -136 38 q-82 0 -136.5 -43.5t-54.5 -107.5q0 -33 19 -61t39 -42t59 -37q2 -1 3.5 -2t4 -2.5t4.5 -2.5q27 -16 43.5 -28t37 -33t30.5 -48t10 -60zM204 -145q0 -24 -15 -42.5t-34 -18.5q-27 0 -27 30q0 23 15.5 41.5t33.5 18.5q27 0 27 -29z" />
<glyph unicode="&#x1e63;" horiz-adv-x="425" d="M376 479l-17 -41q-48 31 -103 31t-89.5 -28t-34.5 -71q0 -31 21 -54t51.5 -38.5t61 -32t51.5 -44t21 -65.5q0 -62 -51.5 -104t-130.5 -42q-73 0 -127 32l17 41q50 -37 120 -37q53 0 90 29.5t37 72.5q0 30 -21.5 52.5t-51.5 37.5t-60.5 31t-52 43.5t-21.5 65.5 q0 64 53.5 105.5t128.5 41.5q58 0 108 -26zM188 -145q0 -24 -15 -42.5t-34 -18.5q-27 0 -27 30q0 23 15.5 41.5t33.5 18.5q27 0 27 -29z" />
<glyph unicode="&#x1e6c;" horiz-adv-x="491" d="M214 0h-42l139 650q-95 0 -217 -5l12 40h465l-6 -40q-117 5 -212 5zM197 -145q0 -24 -15 -42.5t-34 -18.5q-27 0 -27 30q0 23 15.5 41.5t33.5 18.5q27 0 27 -29z" />
<glyph unicode="&#x1e6d;" horiz-adv-x="338" d="M330 462h-138q-70 -327 -72 -354q-1 -7 -1 -15q0 -67 62 -67q43 0 86 25l2 -33q-49 -28 -104 -28q-89 0 -89 88q0 28 42 223q20 96 34 161h-76l6 26l77 7l33 112l30 4l4 -5l-27 -111h135l4 -5zM158 -145q0 -24 -15 -42.5t-34 -18.5q-27 0 -27 30q0 23 15.5 41.5 t33.5 18.5q27 0 27 -29z" />
<glyph unicode="&#x1e80;" horiz-adv-x="956" d="M701 779q-126 20 -207 78l1 8l36 31q64 -54 181 -100zM197 -5l-78 695l41 5l48 -428q17 -141 14 -215q22 57 117 238l215 401l39 4l48 -428q17 -141 14 -215q26 68 116 235l218 408l31 -5l4 -5l-369 -690h-25l-55 492q-11 105 -13 151h-1q-26 -58 -77 -151l-262 -492h-25 z" />
<glyph unicode="&#x1e81;" horiz-adv-x="606" d="M424 580q-91 66 -130 151l5 8l42 16q26 -71 96 -162zM595 505q18 0 18 -18q0 -70 -64.5 -217t-154.5 -270h-40q4 207 -14 417h-1q-20 -92 -75 -206t-124 -211h-40q5 269 -32 495l41 7q38 -209 33 -447h1q156 242 178 440h44q36 -206 31 -440h1q72 110 120 228t59 218 q9 4 19 4z" />
<glyph unicode="&#x1e82;" horiz-adv-x="956" d="M727 865l-3 -8q-108 -58 -241 -78l-3 17q144 50 223 100zM197 -5l-78 695l41 5l48 -428q17 -141 14 -215q22 57 117 238l215 401l39 4l48 -428q17 -141 14 -215q26 68 116 235l218 408l31 -5l4 -5l-369 -690h-25l-55 492q-11 105 -13 151h-1q-26 -58 -77 -151l-262 -492 h-25z" />
<glyph unicode="&#x1e83;" horiz-adv-x="606" d="M464 736l1 -8q-79 -87 -194 -151l-7 13q114 96 164 162zM595 505q18 0 18 -18q0 -70 -64.5 -217t-154.5 -270h-40q4 207 -14 417h-1q-20 -92 -75 -206t-124 -211h-40q5 269 -32 495l41 7q38 -209 33 -447h1q156 242 178 440h44q36 -206 31 -440h1q72 110 120 228t59 218 q9 4 19 4z" />
<glyph unicode="&#x1e84;" horiz-adv-x="956" d="M738 849q0 -22 -15.5 -39.5t-34.5 -17.5q-14 0 -22 8.5t-8 21.5q0 20 16 37.5t35 17.5q29 0 29 -28zM548 849q0 -22 -15.5 -39.5t-34.5 -17.5q-14 0 -22 8.5t-8 21.5q0 20 16 37.5t35 17.5q29 0 29 -28zM197 -5l-78 695l41 5l48 -428q17 -141 14 -215q22 57 117 238 l215 401l39 4l48 -428q17 -141 14 -215q26 68 116 235l218 408l31 -5l4 -5l-369 -690h-25l-55 492q-11 105 -13 151h-1q-26 -58 -77 -151l-262 -492h-25z" />
<glyph unicode="&#x1e85;" horiz-adv-x="606" d="M309 680q0 -24 -14.5 -43t-33.5 -19q-26 0 -26 30q0 22 15.5 41t33.5 19q25 0 25 -28zM497 680q0 -24 -14.5 -43t-33.5 -19q-26 0 -26 30q0 22 15.5 41t33.5 19q25 0 25 -28zM595 505q18 0 18 -18q0 -70 -64.5 -217t-154.5 -270h-40q4 207 -14 417h-1q-20 -92 -75 -206 t-124 -211h-40q5 269 -32 495l41 7q38 -209 33 -447h1q156 242 178 440h44q36 -206 31 -440h1q72 110 120 228t59 218q9 4 19 4z" />
<glyph unicode="&#x1e92;" horiz-adv-x="507" d="M-16 0l-1 25l522 625l-379 -3l11 38h417l4 -25l-522 -625l397 4l-11 -39h-438zM197 -145q0 -24 -15 -42.5t-34 -18.5q-27 0 -27 30q0 23 15.5 41.5t33.5 18.5q27 0 27 -29z" />
<glyph unicode="&#x1e93;" horiz-adv-x="392" d="M-1 -10l-18 23q135 153 208.5 243.5t128.5 174.5q-86 38 -154 38q-57 0 -97 -58l-21 8q23 50 51 68t69 18q71 0 167 -50q25 43 29 50q28 0 28 -17q0 -30 -105 -166.5t-235 -278.5q10 3 25 3q22 0 75.5 -10t73.5 -10q54 0 101 61l21 -8q-27 -52 -56.5 -70.5t-72.5 -18.5 q-31 0 -90.5 10t-82.5 10q-26 0 -45 -20zM138 -145q0 -24 -15 -42.5t-34 -18.5q-27 0 -27 30q0 23 15.5 41.5t33.5 18.5q27 0 27 -29z" />
<glyph unicode="&#x1e9e;" horiz-adv-x="602" d="M65 77l83 388q24 111 98.5 170.5t171.5 59.5q57 0 100 -23.5t62 -66.5l-227 -216q81 -37 126.5 -82t45.5 -117q0 -84 -61 -142t-163 -58q-68 0 -117 25l9 43q46 -30 119 -30q81 0 125 44t44 110q0 67 -46 108.5t-134 72.5l5 23l220 212q-32 59 -111 59q-84 0 -145 -52 t-79 -137l-83 -390q-12 -53 -33 -88l-38 10q21 45 28 77z" />
<glyph unicode="&#x1ea0;" horiz-adv-x="589" d="M13 0h-41l344 592q37 64 56 100l28 3l4 -5l107 -690h-44l-35 222h-290zM267 437l-104 -179h264l-28 179q-21 139 -22 200h-1q-23 -51 -109 -200zM260 -145q0 -24 -15 -42.5t-34 -18.5q-27 0 -27 30q0 23 15.5 41.5t33.5 18.5q27 0 27 -29z" />
<glyph unicode="&#x1ea1;" horiz-adv-x="506" d="M52 132q0 91 39.5 176.5t112 141t156.5 55.5q53 0 103 -15l-42 -173q-17 -72 -25 -108.5t-15.5 -95t-7.5 -113.5h-40q0 101 29 232q-112 -242 -219 -242q-40 0 -65.5 35.5t-25.5 106.5zM95 137q0 -52 15.5 -81.5t44.5 -29.5q45 0 100.5 74.5t93 158.5t52.5 143 q3 10 7.5 29.5t6.5 25.5q-42 12 -78 12q-94 0 -168 -104.5t-74 -227.5zM227 -145q0 -24 -15 -42.5t-34 -18.5q-27 0 -27 30q0 23 15.5 41.5t33.5 18.5q27 0 27 -29z" />
<glyph unicode="&#x1eb8;" horiz-adv-x="532" d="M437 39l-8 -39h-350l115 538q17 83 24 147h342l4 -5l-7 -34l-297 4l-63 -292l257 2l-9 -39l-255 2l-62 -288zM261 -145q0 -24 -15 -42.5t-34 -18.5q-27 0 -27 30q0 23 15.5 41.5t33.5 18.5q27 0 27 -29z" />
<glyph unicode="&#x1eb9;" horiz-adv-x="447" d="M364 119l18 -13q-30 -54 -79 -85t-100 -31q-64 0 -104 47.5t-40 131.5q0 78 33.5 156t91.5 129t123 51q47 0 76 -27.5t29 -74.5q0 -70 -71 -120t-234 -58q-5 -30 -5 -53q0 -66 29 -106t80 -40q78 0 153 93zM298 469q-60 0 -111.5 -64.5t-73.5 -150.5q140 9 198 53t58 95 q0 30 -19.5 48.5t-51.5 18.5zM188 -145q0 -24 -15 -42.5t-34 -18.5q-27 0 -27 30q0 23 15.5 41.5t33.5 18.5q27 0 27 -29z" />
<glyph unicode="&#x1ebc;" horiz-adv-x="532" d="M369 890q29 0 68 -28t61 -28q40 0 82 57l15 -3q-13 -37 -43.5 -64.5t-66.5 -27.5q-30 0 -69 28t-61 28q-40 0 -82 -57l-15 3q13 35 43 63.5t68 28.5zM437 39l-8 -39h-350l115 538q17 83 24 147h342l4 -5l-7 -34l-297 4l-63 -292l257 2l-9 -39l-255 2l-62 -288z" />
<glyph unicode="&#x1ebd;" horiz-adv-x="447" d="M253 710q26 0 62 -28t55 -28q33 0 75 57l15 -3q-14 -36 -42.5 -64t-60.5 -28q-27 0 -63 28t-55 28q-33 0 -75 -57l-15 3q15 35 43 63.5t61 28.5zM364 119l18 -13q-30 -54 -79 -85t-100 -31q-64 0 -104 47.5t-40 131.5q0 78 33.5 156t91.5 129t123 51q47 0 76 -27.5 t29 -74.5q0 -70 -71 -120t-234 -58q-5 -30 -5 -53q0 -66 29 -106t80 -40q78 0 153 93zM298 469q-60 0 -111.5 -64.5t-73.5 -150.5q140 9 198 53t58 95q0 30 -19.5 48.5t-51.5 18.5z" />
<glyph unicode="&#x1eca;" horiz-adv-x="299" d="M121 0h-42l114 538q18 80 25 147l46 10l4 -5zM101 -145q0 -24 -15 -42.5t-34 -18.5q-27 0 -27 30q0 23 15.5 41.5t33.5 18.5q27 0 27 -29z" />
<glyph unicode="&#x1ecb;" horiz-adv-x="241" d="M227 682q0 -24 -15 -42.5t-34 -18.5q-27 0 -27 30q0 23 15.5 41.5t33.5 18.5q27 0 27 -29zM111 0h-40q0 96 37 267l20 92l8 136l49 10q0 -73 -37 -248t-37 -257zM110 -145q0 -24 -15 -42.5t-34 -18.5q-27 0 -27 30q0 23 15.5 41.5t33.5 18.5q27 0 27 -29z" />
<glyph unicode="&#x1ecc;" horiz-adv-x="689" d="M630 448q0 -111 -42.5 -215.5t-122 -173.5t-174.5 -69q-90 0 -141.5 62.5t-51.5 178.5q0 111 43.5 217t123.5 176.5t174 70.5q89 0 140 -64.5t51 -182.5zM143 240q0 -100 41 -156t118 -56q83 0 149.5 64t100 158.5t33.5 193.5q0 101 -39 157t-115 56q-82 0 -150 -65 t-103 -160t-35 -192zM294 -145q0 -24 -15 -42.5t-34 -18.5q-27 0 -27 30q0 23 15.5 41.5t33.5 18.5q27 0 27 -29z" />
<glyph unicode="&#x1ecd;" horiz-adv-x="494" d="M436 337q0 -82 -30 -160.5t-88.5 -132.5t-129.5 -54q-62 0 -95.5 43t-33.5 126t30.5 162t88.5 131.5t128 52.5q62 0 96 -42.5t34 -125.5zM102 164q0 -138 97 -138q57 0 103 48.5t68.5 117.5t22.5 139q0 138 -97 138q-57 0 -103 -48.5t-68.5 -117.5t-22.5 -139zM203 -145 q0 -24 -15 -42.5t-34 -18.5q-27 0 -27 30q0 23 15.5 41.5t33.5 18.5q27 0 27 -29z" />
<glyph unicode="&#x1ee4;" horiz-adv-x="634" d="M87 157q0 41 45.5 245.5t50.5 284.5l54 8v-1q-22 -101 -53 -246q-55 -254 -55 -281q0 -66 40.5 -101.5t106.5 -35.5q78 0 139 49t80 138q12 54 25.5 118t20 95t14.5 69.5t11.5 56t7.5 39t5.5 34.5t3 27t2.5 31l54 8l-101 -475q-24 -110 -100.5 -170t-175.5 -60 q-79 0 -127 43t-48 124zM273 -145q0 -24 -15 -42.5t-34 -18.5q-27 0 -27 30q0 23 15.5 41.5t33.5 18.5q27 0 27 -29z" />
<glyph unicode="&#x1ee5;" horiz-adv-x="510" d="M76 145l45 214l8 136l49 10q0 -34 -5 -74.5t-10 -68.5t-15.5 -79t-15.5 -75q-9 -50 -12 -79.5t0 -55t17.5 -36.5t40.5 -11q64 0 114.5 62t81.5 165q29 129 34 191q3 26 3 51l40 10q0 -35 -5.5 -79t-12 -77t-18 -86.5t-16.5 -80.5q-22 -114 -22 -182h-40q0 61 13 137 q-33 -71 -83 -109t-101 -38q-56 0 -80.5 42t-9.5 113zM256 -145q0 -24 -15 -42.5t-34 -18.5q-27 0 -27 30q0 23 15.5 41.5t33.5 18.5q27 0 27 -29z" />
<glyph unicode="&#x1ef2;" horiz-adv-x="524" d="M485 779q-126 20 -207 78l1 8l36 31q64 -54 181 -100zM243 256l-124 435l43 4l74 -260q2 -9 12 -42.5t15.5 -59t7.5 -48.5h1q16 30 101 152l182 258l33 -5l4 -5l-308 -433l-54 -252h-42z" />
<glyph unicode="&#x1ef3;" horiz-adv-x="398" d="M324 580q-91 66 -130 151l5 8l42 16q26 -71 96 -162zM387 505q18 0 18 -18q0 -61 -59 -185.5t-140.5 -247.5t-176 -216t-157.5 -93q-37 0 -37 27q0 13 8 23q21 -3 37 -3q96 0 246 210q0 261 -58 493l40 10q59 -217 59 -445h1q180 263 200 441q9 4 19 4z" />
<glyph unicode="&#x1ef8;" horiz-adv-x="524" d="M331 890q29 0 68 -28t61 -28q40 0 82 57l15 -3q-13 -37 -43.5 -64.5t-66.5 -27.5q-30 0 -69 28t-61 28q-40 0 -82 -57l-15 3q13 35 43 63.5t68 28.5zM243 256l-124 435l43 4l74 -260q2 -9 12 -42.5t15.5 -59t7.5 -48.5h1q16 30 101 152l182 258l33 -5l4 -5l-308 -433 l-54 -252h-42z" />
<glyph unicode="&#x1ef9;" horiz-adv-x="398" d="M210 710q26 0 62 -28t55 -28q33 0 75 57l15 -3q-14 -36 -42.5 -64t-60.5 -28q-27 0 -63 28t-55 28q-33 0 -75 -57l-15 3q15 35 43 63.5t61 28.5zM387 505q18 0 18 -18q0 -61 -59 -185.5t-140.5 -247.5t-176 -216t-157.5 -93q-37 0 -37 27q0 13 8 23q21 -3 37 -3 q96 0 246 210q0 261 -58 493l40 10q59 -217 59 -445h1q180 263 200 441q9 4 19 4z" />
<glyph unicode="&#x2007;" />
<glyph unicode="&#x2013;" horiz-adv-x="494" d="M40 279l4 35h431l-5 -35h-430z" />
<glyph unicode="&#x2014;" horiz-adv-x="754" d="M37 279l7 35h694l-7 -35h-694z" />
<glyph unicode="&#x2018;" horiz-adv-x="207" d="M263 744q-57 -87 -84 -167q14 0 22.5 -9t8.5 -23q0 -23 -17 -40.5t-39 -17.5q-30 0 -30 33q0 36 39.5 109t83.5 125z" />
<glyph unicode="&#x2019;" horiz-adv-x="207" d="M104 500q57 87 84 167q-14 0 -22.5 9t-8.5 23q0 23 17 40.5t39 17.5q30 0 30 -33q0 -36 -39.5 -109t-83.5 -125z" />
<glyph unicode="&#x201a;" horiz-adv-x="207" d="M-40 -177q57 87 84 167q-14 0 -22.5 9t-8.5 23q0 23 17 40.5t39 17.5q30 0 30 -33q0 -36 -39.5 -109t-83.5 -125z" />
<glyph unicode="&#x201c;" horiz-adv-x="364" d="M263 744q-57 -87 -84 -167q14 0 22.5 -9t8.5 -23q0 -23 -17 -40.5t-39 -17.5q-30 0 -30 33q0 36 39.5 109t83.5 125zM420 744q-57 -87 -84 -167q14 0 22.5 -9t8.5 -23q0 -23 -17 -40.5t-39 -17.5q-30 0 -30 33q0 36 39.5 109t83.5 125z" />
<glyph unicode="&#x201d;" horiz-adv-x="364" d="M261 501q57 87 84 167q-14 0 -22.5 9t-8.5 23q0 23 17 40.5t39 17.5q30 0 30 -33q0 -36 -39.5 -109t-83.5 -125zM104 501q57 87 84 167q-14 0 -22.5 9t-8.5 23q0 23 17 40.5t39 17.5q30 0 30 -33q0 -36 -39.5 -109t-83.5 -125z" />
<glyph unicode="&#x201e;" horiz-adv-x="364" d="M-40 -177q57 87 84 167q-14 0 -22.5 9t-8.5 23q0 23 17 40.5t39 17.5q30 0 30 -33q0 -36 -39.5 -109t-83.5 -125zM117 -177q57 87 84 167q-14 0 -22.5 9t-8.5 23q0 23 17 40.5t39 17.5q30 0 30 -33q0 -36 -39.5 -109t-83.5 -125z" />
<glyph unicode="&#x2020;" horiz-adv-x="504" d="M209 0l-17 -3l-6 7l27 168l71 298l-168 -5l-2 3q0 14 3 28l8 7l165 -5l35 191l4 3q20 3 31 3l6 -7l-46 -190l168 5l3 -3q0 -14 -3 -28l-9 -7l-166 5l-55 -298l-45 -169z" />
<glyph unicode="&#x2021;" horiz-adv-x="504" d="M183 -3l-6 7l49 192l-167 -7l-6 7q4 19 10 32l4 3l164 -9q16 115 19 129q3 13 35 120l-169 -7l-2 3q0 14 4 32l8 7l165 -9l32 192l4 3q23 3 35 3l6 -7l-48 -191l169 9l2 -3q0 -5 -3 -32l-9 -7l-164 7l-18 -120q-3 -14 -35 -129l168 9l5 -7q-4 -19 -10 -32l-3 -3l-166 7 l-34 -193l-4 -3q-6 0 -17.5 -1t-17.5 -2z" />
<glyph unicode="&#x2022;" horiz-adv-x="394" d="M182 190q-36 0 -56 21t-20 54q0 53 41 96t91 43q34 0 52.5 -20t18.5 -52q0 -55 -38.5 -98.5t-88.5 -43.5z" />
<glyph unicode="&#x2026;" horiz-adv-x="553" d="M104 48q0 -22 -17 -40t-37 -18q-14 0 -23.5 9t-9.5 24q0 22 17.5 39.5t37.5 17.5q14 0 23 -9t9 -23zM275 48q0 -22 -17 -40t-37 -18q-14 0 -23.5 9t-9.5 24q0 22 17.5 39.5t37.5 17.5q14 0 23 -9t9 -23zM446 48q0 -22 -17 -40t-37 -18q-14 0 -23.5 9t-9.5 24 q0 22 17.5 39.5t37.5 17.5q14 0 23 -9t9 -23z" />
<glyph unicode="&#x2030;" horiz-adv-x="1333" d="M436 558q0 -99 -59 -181.5t-149 -82.5q-55 0 -84.5 36t-29.5 103q0 100 59 181.5t148 81.5q56 0 85.5 -35.5t29.5 -102.5zM734 695l-422 -705h-40l421 705h41zM152 436q0 -112 85 -112q72 0 116.5 73t44.5 158q0 111 -85 111q-72 0 -116.5 -73t-44.5 -157zM848 186 q0 -99 -59 -181.5t-149 -82.5q-55 0 -84.5 36t-29.5 103q0 100 59 181.5t148 81.5q56 0 85.5 -35.5t29.5 -102.5zM1245 186q0 -99 -59 -181.5t-149 -82.5q-55 0 -84.5 36t-29.5 103q0 100 59 181.5t148 81.5q56 0 85.5 -35.5t29.5 -102.5zM564 64q0 -112 85 -112 q72 0 116.5 73t44.5 158q0 111 -85 111q-72 0 -116.5 -73t-44.5 -157zM961 64q0 -112 85 -112q72 0 116.5 73t44.5 158q0 111 -85 111q-72 0 -116.5 -73t-44.5 -157z" />
<glyph unicode="&#x2039;" horiz-adv-x="279" d="M68 286l3 12q82 65 208 197l11 -8q-75 -107 -165 -195q54 -93 82 -195l-14 -8q-77 142 -125 197z" />
<glyph unicode="&#x203a;" horiz-adv-x="279" d="M230 298l-3 -12q-82 -65 -208 -197l-11 8q75 107 165 195q-54 93 -82 195l14 8q77 -142 125 -197z" />
<glyph unicode="&#x2044;" horiz-adv-x="520" d="M616 700l-576 -710h-45l575 710h46z" />
<glyph unicode="&#x2070;" horiz-adv-x="470" d="M526 617q0 -108 -66.5 -190.5t-156.5 -82.5q-58 0 -90.5 37.5t-32.5 109.5q0 108 67 191.5t156 83.5q57 0 90 -38.5t33 -110.5zM220 494q0 -59 23 -90.5t67 -31.5q71 0 123 74t52 170q0 122 -88 122q-71 0 -124 -74t-53 -170z" />
<glyph unicode="&#x2074;" horiz-adv-x="391" d="M145 494l247 266l41 6l3 -4l-56 -266q46 2 68 5l-15 -36h-60l-24 -113h-37l25 113h-192v29zM180 495v-1q49 1 142 1h20h1l29 133q5 24 11 53t10 44h-1z" />
<glyph unicode="&#x2075;" horiz-adv-x="366" d="M131 358l11 30q42 -15 92 -15q61 0 103 32t42 79q0 39 -27.5 60t-70.5 21q-50 0 -84 -13l-6 6l42 200h128q64 0 105 6l-11 -38h-195l-29 -140q29 7 67 7q53 0 87.5 -26t34.5 -75q0 -62 -55.5 -105t-136.5 -43q-48 0 -97 14z" />
<glyph unicode="&#x2076;" horiz-adv-x="406" d="M297 344q-121 0 -121 133q0 113 79 201t184 88q36 0 51 -9l-10 -30q-18 9 -47 9q-69 0 -126 -48.5t-81 -142.5h1q48 41 116 41q53 0 84.5 -26.5t31.5 -72.5q0 -59 -47.5 -101t-114.5 -42zM335 559q-32 0 -65 -14.5t-50 -38.5q-3 -18 -3 -35q0 -97 87 -97q48 0 81.5 32 t33.5 77q0 34 -21.5 55t-62.5 21z" />
<glyph unicode="&#x2077;" horiz-adv-x="345" d="M193 719l15 39h258l4 -5l-5 -23q-90 -81 -165 -182t-101 -196h-40q26 92 105 196.5t160 176.5v1h-121q-61 0 -110 -7z" />
<glyph unicode="&#x2078;" horiz-adv-x="385" d="M272 344q-59 0 -94.5 23.5t-35.5 61.5q0 37 35 71t99 55v1q-73 43 -73 99q0 47 44 79t103 32q50 0 82.5 -24t32.5 -62q0 -36 -32.5 -70t-86.5 -54v-1q86 -43 86 -105q0 -45 -46 -75.5t-114 -30.5zM342 738q-41 0 -70.5 -21.5t-29.5 -56.5q0 -54 75 -89q50 18 80 46.5 t30 58.5q0 28 -24 45t-61 17zM300 540q-47 -16 -83 -44t-36 -62q0 -28 25.5 -45.5t70.5 -17.5q52 0 84 22.5t32 53.5q0 47 -93 93z" />
<glyph unicode="&#x2079;" horiz-adv-x="406" d="M290 512q-51 0 -80 26t-29 71q0 63 47.5 110t115.5 47q56 0 89.5 -36.5t33.5 -106.5q0 -112 -79.5 -195.5t-180.5 -83.5q-38 0 -51 5l6 29q24 -4 46 -4q74 0 135.5 56t74.5 135q-47 -53 -128 -53zM340 737q-49 0 -83 -36t-34 -84q0 -35 20.5 -56t59.5 -21q79 0 119 57 q3 21 3 37q0 47 -22 75t-63 28zM438 628l-2 -6q1 4 2 6z" />
<glyph unicode="&#x207f;" horiz-adv-x="449" d="M185 560q27 57 73.5 90.5t94.5 33.5q40 0 63 -23t23 -63q0 -22 -29 -150q-20 -88 -17 -158h-35q-1 67 23 183q19 89 19 119q0 60 -58 60q-82 0 -139.5 -104.5t-58.5 -257.5h-35q-1 47 7.5 100t35.5 180l4 106l43 8q1 -51 -16 -124h2z" />
<glyph unicode="&#x2080;" horiz-adv-x="470" d="M436 193q0 -108 -66.5 -190.5t-156.5 -82.5q-58 0 -90.5 37.5t-32.5 109.5q0 108 67 191.5t156 83.5q57 0 90 -38.5t33 -110.5zM130 70q0 -59 23 -90.5t67 -31.5q71 0 123 74t52 170q0 122 -88 122q-71 0 -124 -74t-53 -170z" />
<glyph unicode="&#x2081;" horiz-adv-x="227" d="M164 300h-1l-81 -17l-2 22l126 39l3 -4l-87 -410h-38l60 283q9 44 20 87z" />
<glyph unicode="&#x2082;" horiz-adv-x="359" d="M25 -70l2 33q68 41 109 68.5t87.5 65t68.5 73t22 70.5t-22.5 54.5t-61.5 19.5q-66 0 -134 -45l3 31q27 20 67.5 32t76.5 12q50 0 81.5 -25.5t31.5 -69.5q0 -40 -25 -80.5t-71 -78.5t-89.5 -66.5t-101.5 -61.5h135q54 0 105 6l-14 -38h-270z" />
<glyph unicode="&#x2083;" horiz-adv-x="346" d="M115 309q56 33 127 33q44 0 72 -19t28 -52q0 -43 -42.5 -79.5t-107.5 -55.5q57 0 90.5 -22t33.5 -62q0 -55 -55 -93.5t-135 -38.5q-54 0 -100 14l10 29q46 -14 94 -14q61 0 103 28t42 68q0 69 -114 69q-25 0 -45 -4l7 29q81 16 129 49t48 74q0 23 -19 36.5t-54 13.5 q-57 0 -114 -32z" />
<glyph unicode="&#x2084;" horiz-adv-x="391" d="M55 72l247 266l41 6l3 -4l-56 -266q46 2 68 5l-15 -36h-60l-24 -113h-37l25 113h-192v29zM90 73v-1q49 1 142 1h20h1l29 133q5 24 11 53t10 44h-1z" />
<glyph unicode="&#x2085;" horiz-adv-x="366" d="M41 -66l11 30q42 -15 92 -15q61 0 103 32t42 79q0 39 -27.5 60t-70.5 21q-50 0 -84 -13l-6 6l42 200h128q64 0 105 6l-11 -38h-195l-29 -140q29 7 67 7q53 0 87.5 -26t34.5 -75q0 -62 -55.5 -105t-136.5 -43q-48 0 -97 14z" />
<glyph unicode="&#x2086;" horiz-adv-x="406" d="M207 -80q-121 0 -121 133q0 113 79 201t184 88q36 0 51 -9l-10 -30q-18 9 -47 9q-69 0 -126 -48.5t-81 -142.5h1q48 41 116 41q53 0 84.5 -26.5t31.5 -72.5q0 -59 -47.5 -101t-114.5 -42zM245 135q-32 0 -65 -14.5t-50 -38.5q-3 -18 -3 -35q0 -97 87 -97q48 0 81.5 32 t33.5 77q0 34 -21.5 55t-62.5 21z" />
<glyph unicode="&#x2087;" horiz-adv-x="345" d="M103 297l15 39h258l4 -5l-5 -23q-90 -81 -165 -182t-101 -196h-40q26 92 105 196.5t160 176.5v1h-121q-61 0 -110 -7z" />
<glyph unicode="&#x2088;" horiz-adv-x="385" d="M182 -80q-59 0 -94.5 23.5t-35.5 61.5q0 37 35 71t99 55v1q-73 43 -73 99q0 47 44 79t103 32q50 0 82.5 -24t32.5 -62q0 -36 -32.5 -70t-86.5 -54v-1q86 -43 86 -105q0 -45 -46 -75.5t-114 -30.5zM252 314q-41 0 -70.5 -21.5t-29.5 -56.5q0 -54 75 -89q50 18 80 46.5 t30 58.5q0 28 -24 45t-61 17zM210 116q-47 -16 -83 -44t-36 -62q0 -28 25.5 -45.5t70.5 -17.5q52 0 84 22.5t32 53.5q0 47 -93 93z" />
<glyph unicode="&#x2089;" horiz-adv-x="406" d="M200 88q-51 0 -80 26t-29 71q0 63 47.5 110t115.5 47q56 0 89.5 -36.5t33.5 -106.5q0 -112 -79.5 -195.5t-180.5 -83.5q-38 0 -51 5l6 29q24 -4 46 -4q74 0 135.5 56t74.5 135q-47 -53 -128 -53zM250 313q-49 0 -83 -36t-34 -84q0 -35 20.5 -56t59.5 -21q79 0 119 57 q3 21 3 37q0 47 -22 75t-63 28zM348 204l-2 -6q1 4 2 6z" />
<glyph unicode="&#x20ac;" horiz-adv-x="611" d="M71 250l10 30h83q5 50 22 108h-70l11 30h70q45 121 131 199t184 78q87 0 138 -45l-17 -42q-20 22 -55.5 35.5t-72.5 13.5q-81 0 -153 -67t-111 -172h249l-10 -30h-249q-17 -60 -21 -108h234l-9 -30h-227v-15q0 -101 39.5 -154t114.5 -53q89 0 169 58l-2 -38 q-78 -58 -182 -58q-88 0 -137 58.5t-49 174.5q0 18 1 27h-91z" />
<glyph unicode="&#x2122;" horiz-adv-x="597" d="M576 688l3 -3l-21 -225h-28l9 87q9 89 11 104h-1q-47 -94 -53 -105l-47 -86h-32l-10 86q-7 61 -9 106h-1q-11 -38 -34 -106l-29 -86h-25l77 226l35 2l14 -114q5 -38 5 -86h1q38 79 42 86l61 112zM214 460h-30l43 203q-25 0 -69 -2l7 24h164l-3 -24q-42 2 -69 2z" />
<glyph unicode="&#x2202;" horiz-adv-x="598" d="M388 755q193 0 193 -272q0 -132 -41 -243.5t-120 -180.5t-180 -69q-81 0 -122.5 43.5t-41.5 119.5q0 117 86 200.5t210 83.5q88 0 158 -49q5 45 5 83q0 122 -39 185t-111 63q-35 0 -76 -13t-70 -33l-13 32q74 50 162 50zM120 162q0 -136 129 -136q107 0 179 91t96 230 q-63 54 -152 54q-112 0 -182 -68t-70 -171z" />
<glyph unicode="&#x220f;" horiz-adv-x="733" d="M812 680l-11 -35h-130l-167 -785h-40l167 785h-259l-167 -785h-40l167 785h-130l7 35l599 5z" />
<glyph unicode="&#x2211;" horiz-adv-x="557" d="M47 -87l343 373l-184 374l15 25h442l4 -5l-10 -33l-408 5l181 -358l-3 -15l-333 -358l410 5l-10 -38h-442z" />
<glyph unicode="&#x2212;" d="M521 328h-450l7 35q172 5 451 5l3 -5z" />
<glyph unicode="&#x221a;" horiz-adv-x="584" d="M715 745l-387 -745h-51l-80 462h-79l7 33h108l78 -456l369 716l31 -5z" />
<glyph unicode="&#x221e;" horiz-adv-x="818" d="M773 377q0 -78 -57.5 -136.5t-138.5 -58.5q-34 0 -60.5 11t-45 32t-29 38.5t-21.5 43.5q-98 -125 -202 -125q-59 0 -95.5 36t-36.5 97q0 78 54.5 135.5t130.5 57.5q60 0 97 -36t66 -95q99 131 207 131q59 0 95 -35t36 -96zM632 472q-92 0 -183 -127q14 -32 23.5 -49.5 t25.5 -38.5t36 -30t47 -9q60 0 105 46t45 107q0 46 -27 73.5t-72 27.5zM129 325q0 -49 28 -77.5t73 -28.5q90 0 178 119q-27 62 -59 98t-85 36q-58 0 -96.5 -44.5t-38.5 -102.5z" />
<glyph unicode="&#x222b;" horiz-adv-x="493" d="M137 -255q-60 0 -114 32l17 41q49 -37 103 -37q45 0 73.5 23t42 70t18 95.5t4.5 122.5q0 27 -1 110t-1 141q0 70 1.5 114t7.5 97t18 85t32 61t51.5 42t74.5 13q59 0 113 -32l-17 -41q-49 37 -103 37q-30 0 -53 -10.5t-37.5 -31.5t-24.5 -46.5t-14.5 -61.5t-6.5 -69.5 t-2 -77.5q0 -22 1 -107t1 -149q0 -63 -1 -104t-5 -89.5t-11.5 -79t-21 -62t-33 -48t-47.5 -27.5t-65 -11z" />
<glyph unicode="&#x2248;" d="M450 367q-26 0 -127.5 38t-111.5 38q-18 0 -86 -75q-9 -9 -13 -14l-22 18q86 111 131 111q25 0 126 -38t112 -38q3 0 7 1.5t9 4.5t9 6.5t10.5 9t11.5 10t12.5 12.5t12.5 13.5t14 15t15 15.5l21 -17q-86 -111 -131 -111zM408 174q-26 0 -127 38t-112 38q-18 0 -86 -75 q-3 -3 -4.5 -5t-4 -4.5l-4.5 -4.5l-22 18q86 111 131 111q25 0 126.5 -38t111.5 -38q3 0 7 1.5t9 4.5t9 6.5t10.5 9t11.5 10t12.5 12.5t12.5 13.5t14 15t15 15.5l21 -17q-86 -111 -131 -111z" />
<glyph unicode="&#x2260;" d="M116 120l85 123h-149l7 35q46 1 168 3l101 146h-237l8 35q55 2 256 4l92 133l7 2l24 -14l-84 -121q61 1 155 1l4 -5l-12 -35h-174l-101 -146q184 2 244 2l3 -5l-11 -35h-262l-93 -134l-8 -2z" />
<glyph unicode="&#x2264;" d="M152 438l358 -145l-9 -40l-410 171l5 26l6 6q202 72 475 155l-9 -40zM477 103h-450l7 35q172 5 451 5l3 -5z" />
<glyph unicode="&#x2265;" d="M61 253l9 40l422 146l-362 132l8 40q272 -97 409 -155l3 -6l-6 -30zM473 103h-450l7 35q172 5 451 5l3 -5z" />
<glyph unicode="&#x25ca;" horiz-adv-x="600" d="M74 330l5 25l288 335l50 10l149 -345l-5 -27l-289 -328l-49 -10zM381 655l-263 -313l133 -306l8 1l265 305l-134 313h-9z" />
<glyph unicode="&#x25fc;" horiz-adv-x="505" d="M0 505h505v-505h-505v505z" />
<glyph unicode="&#xfb00;" horiz-adv-x="573" d="M-12 -203l-15 21q67 76 90 182l98 462l-75 2l5 24l77 7q2 9 6.5 38t7.5 42q18 84 69 122t119 38t122 -34q46 54 124 54q56 0 99 -26l-21 -40q-36 30 -89 30q-52 0 -81 -32t-43 -96q-10 -53 -18 -96h136l4 -5l-9 -31l-137 3l-98 -462q-24 -116 -115 -203l-15 21 q67 76 90 182l98 462h-216l-98 -462q-24 -116 -115 -203zM221 573q-3 -12 -7 -38t-7 -40h217q3 14 7 37t6.5 38.5t4.5 23.5q9 42 25 72q-51 33 -108 33q-56 0 -90 -29.5t-48 -96.5z" />
<glyph unicode="&#xfb01;" horiz-adv-x="501" d="M-12 -203l-15 21q67 76 90 182l98 462l-75 2l5 24l77 7q5 23 11 59t7 40q15 75 65 118t125 43q79 0 131 -46l-30 -34q-46 44 -113 44q-111 0 -138 -126q-6 -29 -19 -98h189l49 10q0 -73 -37 -248t-37 -257h-40q0 96 37 267l20 92l6 100l-193 3l-98 -462 q-24 -116 -115 -203z" />
<glyph unicode="&#xfb02;" horiz-adv-x="508" d="M-12 -203l-15 21q67 76 90 182l98 462l-75 2l5 24l77 7q5 23 11 59t7 40q15 75 65 118t125 43q44 0 81 -15v5l49 10q0 -94 -63.5 -371t-63.5 -384h-40q0 96 61 380l17 79l-216 3l-98 -462q-24 -116 -115 -203zM226 593q-6 -29 -19 -98h216l1 -2l25 116l5 84 q-36 26 -90 26q-111 0 -138 -126z" />
<glyph unicode="&#xfb03;" horiz-adv-x="751" d="M-12 -203l-15 21q67 76 90 182l98 462l-75 2l5 24l77 7q2 9 6.5 38t7.5 42q18 84 69 122t119 38q67 0 121 -33q51 53 135 53q79 0 131 -46l-30 -34q-46 44 -113 44q-111 0 -138 -126q-6 -29 -19 -98h189l49 10q0 -73 -37 -248t-37 -257h-40q0 96 37 267l20 92l6 100 l-193 3l-98 -462q-24 -116 -115 -203l-15 21q67 76 90 182l98 462h-210l-98 -462q-24 -116 -115 -203zM221 573q-3 -12 -7 -38t-7 -40h211q5 23 11 59t7 40q9 44 28 74q-49 31 -105 31t-90 -29.5t-48 -96.5z" />
<glyph unicode="&#xfb04;" horiz-adv-x="764" d="M-12 -203l-15 21q67 76 90 182l98 462l-75 2l5 24l77 7q2 9 6.5 38t7.5 42q19 84 69.5 122t118.5 38t124 -35q53 55 138 55q44 0 81 -15v5l49 10q0 -94 -63.5 -371t-63.5 -384h-40q0 96 61 380l17 79l-216 3l-98 -462q-24 -116 -115 -203l-15 21q67 76 90 182l98 462 h-216l-98 -462q-24 -116 -115 -203zM482 593q-6 -29 -19 -98h216l1 -2l25 116l5 84q-36 26 -90 26q-111 0 -138 -126zM221 573q-3 -12 -7 -38t-7 -40h217q5 23 11 59t7 40q7 38 26 71q-50 34 -109 34q-56 0 -89.5 -29.5t-48.5 -96.5z" />
<glyph unicode="&#xfb06;" horiz-adv-x="728" d="M376 479l-17 -41q-48 31 -103 31t-89.5 -28t-34.5 -71q0 -31 21 -54t51.5 -38.5t61 -32t51.5 -44t21 -65.5q0 -62 -51.5 -104t-130.5 -42q-73 0 -127 32l17 41q50 -37 120 -37q53 0 90 29.5t37 72.5q0 30 -21.5 52.5t-51.5 37.5t-60.5 31t-52 43.5t-21.5 65.5 q0 64 53.5 105.5t128.5 41.5q31 0 60 -8q-15 29 -15 68q0 76 57 128t133 52q59 0 94 -32t35 -82q0 -39 -20.5 -76t-54.5 -60h167l4 -5l-8 -28h-138q-71 -330 -73 -355v-11q0 -38 15.5 -54t46.5 -16q43 0 86 25l2 -33q-49 -28 -104 -28q-89 0 -89 90q0 26 42 223 q21 95 34 159h-76l6 23q54 17 87 57t33 86q0 39 -25.5 60t-67.5 21q-61 0 -103.5 -43t-42.5 -107q0 -43 23 -80z" />
<glyph horiz-adv-x="269" d="M369 865l-3 -8q-108 -58 -241 -78l-3 17q144 50 223 100zM-66 -182l-10 26q104 51 135 199l105 495q17 80 24 147l46 10l4 -5l-137 -647q-35 -166 -167 -225z" />
<glyph horiz-adv-x="218" d="M279 736l1 -8q-79 -87 -194 -151l-7 13q114 96 164 162zM-70 -255l-15 21q91 52 119 182l88 411l8 136l49 10q0 -19 -1 -36.5t-5.5 -45.5t-8.5 -50.5t-14 -72t-18 -87t-25.5 -119t-31.5 -146.5q-29 -132 -145 -203z" />
<glyph horiz-adv-x="419" d="M16 37q0 109 73.5 198t178.5 89q45 0 87 -13l-32 -135q-15 -64 -20 -88t-11 -70t-6 -88h-35q-1 72 20 174q-89 -182 -177 -182q-34 0 -56 29t-22 86zM54 42q0 -88 50 -88q37 0 81.5 56t75 121t43.5 114q6 26 9 40q-30 9 -61 9q-78 0 -138 -79.5t-60 -172.5z" />
<glyph horiz-adv-x="429" d="M116 405l4 106l43 8q2 -88 -69 -378q84 183 184 183q37 0 60 -29t23 -86q0 -108 -74.5 -197.5t-183.5 -89.5q-52 0 -92 13q42 173 67 291zM61 0v2q-3 -14 -9 -40q27 -10 61 -10q86 0 148 78.5t62 172.5q0 42 -14 65.5t-39 23.5q-39 0 -86.5 -55.5t-79.5 -122t-43 -114.5z " />
<glyph horiz-adv-x="375" d="M271 24l15 -12q-26 -40 -69 -65t-86 -25q-52 0 -82 37.5t-30 101.5q0 102 69 182.5t158 80.5q44 0 79 -20l-14 -35q-36 25 -72 25q-72 0 -127 -74.5t-55 -159.5q0 -48 21.5 -77.5t61.5 -29.5q69 0 131 71z" />
<glyph horiz-adv-x="429" d="M297 -70h-35q-1 58 23 186q-37 -82 -86 -138t-105 -56q-34 0 -56.5 29.5t-22.5 87.5q0 109 78.5 197t190.5 88q23 0 44 -4l18 85l4 106l43 8q1 -73 -48.5 -289.5t-47.5 -299.5zM53 44q0 -42 14 -66t39 -24q39 0 85.5 56t78.5 122t41 111v-2l10 44q-24 9 -52 9 q-89 0 -152.5 -78t-63.5 -172z" />
<glyph horiz-adv-x="379" d="M284 24l16 -12q-26 -42 -69 -66t-87 -24q-56 0 -90 39.5t-34 105.5q0 98 68 177.5t149 79.5q39 0 61.5 -20t22.5 -54q0 -55 -63 -98t-197 -50q-3 -18 -3 -34q0 -52 25 -83.5t67 -31.5q70 0 134 71zM231 294q-52 0 -100 -50.5t-66 -118.5q63 5 108.5 18.5t68 32.5t32 36.5 t9.5 35.5q0 21 -13.5 33.5t-38.5 12.5z" />
<glyph horiz-adv-x="252" d="M-41 -230l-14 18q57 64 74 144l76 356l-65 2l4 20l67 6q3 16 7.5 42t6.5 34q12 60 49.5 93.5t97.5 33.5q49 0 86 -20l-17 -34q-33 23 -77 23q-83 0 -104 -96q-8 -40 -14 -76h116l4 -5l-7 -25l-118 2h-1l-75 -354q-21 -96 -96 -164z" />
<glyph horiz-adv-x="358" d="M86 -269q-66 0 -103 26t-37 68q0 53 65 90l13 -13q-40 -35 -40 -70q0 -31 28.5 -51t79.5 -20q55 0 93.5 23.5t38.5 57.5q0 19 -17 34.5t-58 33.5q-40 17 -57 29t-17 30q0 32 69 77v1q-5 -1 -14 -1q-43 0 -70 28t-27 75q0 70 50 122.5t121 52.5q91 0 128 8q5 -7 5 -17 q0 -21 -31 -21q-20 0 -63 9h-1q44 -23 44 -88q0 -40 -18 -75t-43.5 -58.5t-51 -42t-43.5 -34t-18 -26.5q0 -19 50 -38q100 -39 100 -95q0 -43 -48 -79t-128 -36zM251 215q0 37 -18 59t-48 22q-45 0 -81 -44.5t-36 -98.5q0 -38 19 -58t49 -20q48 0 81.5 44.5t33.5 95.5z" />
<glyph horiz-adv-x="449" d="M67 -70h-35q-2 68 46 296l38 179l5 106l43 8q0 -14 -0.5 -28.5t-3 -32.5t-4 -31.5t-6 -37t-7 -34.5t-8.5 -39t-8 -37l-9 -40.5t-9 -38.5h1q30 58 76.5 91t96.5 33q38 0 58.5 -22t20.5 -60q0 -19 -27 -145q-18 -87 -18 -167h-36q-1 71 28 204q14 63 14 93q0 35 -12.5 50 t-40.5 15q-85 0 -143.5 -108t-59.5 -254z" />
<glyph horiz-adv-x="202" d="M152 495q0 -18 -11.5 -33.5t-29.5 -15.5q-23 0 -23 25q0 18 13 33.5t28 15.5q23 0 23 -25zM68 -70h-35q-3 69 27 208l16 72l4 106l43 8q1 -57 -27.5 -193.5t-27.5 -200.5z" />
<glyph horiz-adv-x="188" d="M153 495q0 -18 -11.5 -33.5t-29.5 -15.5q-23 0 -23 25q0 18 13 33.5t28 15.5q23 0 23 -25zM-53 -271l-14 18q57 66 74 144l69 319l5 106l43 8q0 -16 -0.5 -30.5t-4 -36.5t-6.5 -40t-11 -55t-14.5 -66.5t-20 -90.5t-24.5 -112q-21 -95 -96 -164z" />
<glyph horiz-adv-x="401" d="M351 262q0 -46 -48.5 -91.5t-116.5 -76.5q67 -103 131 -164h-46q-69 74 -127 174q169 81 169 151q0 39 -41 39q-49 0 -97 -57.5t-77.5 -142t-30.5 -164.5h-35q-2 68 46 296l38 179l5 106l43 8q1 -32 -6 -81t-14 -81.5t-23.5 -105t-21.5 -95.5q31 80 81.5 124t103.5 44 q32 0 49.5 -17t17.5 -45z" />
<glyph horiz-adv-x="200" d="M67 -70h-35q-2 68 46 296l38 179l5 106l43 8q1 -74 -49 -290t-48 -299z" />
<glyph horiz-adv-x="682" d="M109 200q26 56 72.5 90t92.5 34q38 0 59.5 -22.5t21.5 -61.5q0 -17 -4 -36q28 56 72 88t89 32q40 0 61.5 -22t21.5 -62q0 -30 -25 -137q-22 -94 -20 -173h-35q-2 68 21 176q20 96 20 127q0 59 -53 59q-77 0 -136 -101t-58 -261h-35q-1 67 23 183q18 88 18 116 q0 63 -54 63q-77 0 -134.5 -106t-58.5 -256h-35q-1 47 7.5 100t35.5 180l4 106l43 8q1 -51 -16 -124h2z" />
<glyph horiz-adv-x="449" d="M109 200q27 57 73.5 90.5t94.5 33.5q40 0 63 -23t23 -63q0 -22 -29 -150q-20 -88 -17 -158h-35q-1 67 23 183q19 89 19 119q0 60 -58 60q-82 0 -139.5 -104.5t-58.5 -257.5h-35q-1 47 7.5 100t35.5 180l4 106l43 8q1 -51 -16 -124h2z" />
<glyph horiz-adv-x="415" d="M342 186q0 -99 -59 -181.5t-149 -82.5q-55 0 -84.5 36t-29.5 103q0 100 59 181.5t148 81.5q56 0 85.5 -35.5t29.5 -102.5zM58 64q0 -112 85 -112q72 0 116.5 73t44.5 158q0 111 -85 111q-72 0 -116.5 -73t-44.5 -157z" />
<glyph horiz-adv-x="434" d="M105 -78q-23 0 -53 5q-25 -126 -24 -188h-35q-1 69 46 292l38 179l5 106l43 8q1 -61 -23 -175q83 175 179 175q37 0 60.5 -29t23.5 -87q0 -109 -76 -197.5t-184 -88.5zM274 292q-38 0 -82.5 -51t-76 -115.5t-45.5 -118.5q-2 -8 -5.5 -23.5t-5.5 -23.5q29 -8 59 -8 q85 0 147 78.5t62 172.5q0 42 -14 65.5t-39 23.5z" />
<glyph horiz-adv-x="426" d="M99 -78q-36 0 -59.5 29t-23.5 88q0 110 76 197.5t189 87.5q40 0 83 -13l-79 -344q-34 -148 -33 -228h-35q-3 81 49 304l13 54q-36 -72 -82.5 -123.5t-97.5 -51.5zM54 43q0 -42 14 -65.5t39 -23.5q39 0 83.5 50.5t76 113.5t44.5 116l12 51q-31 9 -59 9q-86 0 -148 -78 t-62 -173z" />
<glyph horiz-adv-x="312" d="M68 -70h-35q-1 79 27 208l16 72l4 106l43 8q1 -54 -18 -140h2q57 140 155 140q32 0 54 -15l-21 -31q-20 11 -42 11q-50 0 -94 -57.5t-68 -140t-23 -161.5z" />
<glyph horiz-adv-x="365" d="M293 304l-14 -35q-43 25 -92 25q-47 0 -74 -21t-27 -53q0 -29 28 -51t62 -34t62 -37.5t28 -62.5q0 -48 -43.5 -80.5t-110.5 -32.5q-63 0 -110 25l14 35q44 -29 104 -29q45 0 76 21.5t31 53.5q0 28 -28.5 49t-62.5 33t-62.5 38t-28.5 63q0 50 43 81.5t108 31.5 q55 0 97 -20z" />
<glyph horiz-adv-x="293" d="M255 289h-119q-56 -259 -56 -281q0 -55 55 -55q35 0 73 19l2 -28q-44 -22 -89 -22q-79 0 -79 74q0 5 0.5 9t1.5 11l2 14t4 20.5t5.5 26.5t7.5 36t10 45.5l13 58.5l16 72h-66l5 21l66 6l27 88l26 3l3 -4l-21 -87h116l4 -4z" />
<glyph horiz-adv-x="434" d="M36 8q0 19 39 202l5 106l42 8q1 -22 0 -41t-4.5 -40.5t-5 -31t-7.5 -36.5t-7 -32q-22 -101 -22 -133q0 -56 55 -56q56 0 102 56t68.5 137t20.5 162v7l35 8q1 -27 -3 -60.5t-9 -59t-14 -68t-13 -65.5q-17 -91 -16 -141h-35q-1 43 10 108q-27 -56 -70 -86t-87 -30 q-39 0 -61.5 22.5t-22.5 63.5z" />
<glyph horiz-adv-x="344" d="M86 -70q-4 205 -58 386l35 8q54 -163 58 -346h1q150 206 163 340q7 6 18 6q16 0 16 -20q0 -51 -60 -166t-139 -208h-34z" />
<glyph horiz-adv-x="525" d="M483 324q16 0 16 -20q0 -52 -53.5 -166t-127.5 -208h-35q0 165 -19 322h-1q-16 -71 -60.5 -158t-103.5 -164h-35q0 209 -36 386l36 6q36 -162 36 -347h1q129 187 145 341h39q34 -157 34 -341h1q60 86 99 177t46 166q7 6 18 6z" />
<glyph horiz-adv-x="306" d="M-44 -70q57 114 151 199q-35 127 -75 187l36 8q39 -57 73 -174q84 72 109 169q5 5 17 5q16 0 16 -17q0 -28 -41 -84t-93 -99q37 -134 76 -194h-40q-37 56 -69 169q-74 -64 -125 -169h-35z" />
<glyph horiz-adv-x="345" d="M304 324q16 0 16 -18q0 -64 -79 -202.5t-187.5 -255.5t-178.5 -117q-34 0 -34 24q0 11 7 19q18 -3 32 -3q85 0 207 160q-6 210 -58 385l35 8q54 -167 58 -346h1q150 207 163 340q8 6 18 6z" />
<glyph horiz-adv-x="370" d="M-19 -78l-16 20q130 125 199 196.5t120 140.5q-30 2 -89.5 8t-77.5 6q-48 0 -85 -36l-18 7q19 34 43.5 47t64.5 13q21 0 48.5 -3.5t66 -9t64.5 -8.5q3 4 7 11t7 10q24 0 24 -14q0 -23 -98.5 -130.5t-213.5 -212.5q14 2 21 2q21 0 78.5 -7.5t76.5 -7.5q48 0 87 47l18 -7 q-22 -42 -47.5 -57t-64.5 -15q-29 0 -91.5 8t-83.5 8q-24 0 -40 -16z" />
<glyph horiz-adv-x="419" d="M92 397q0 109 73.5 198t178.5 89q45 0 87 -13l-32 -135q-15 -64 -20 -88t-11 -70t-6 -88h-35q-1 72 20 174q-89 -182 -177 -182q-34 0 -56 29t-22 86zM130 402q0 -88 50 -88q37 0 81.5 56t75 121t43.5 114q6 26 9 40q-30 9 -61 9q-78 0 -138 -79.5t-60 -172.5z" />
<glyph horiz-adv-x="430" d="M355 684q37 0 60 -29t23 -86q0 -108 -74.5 -197.5t-183.5 -89.5q-52 0 -92 13q42 173 67 291l38 179l4 106l43 8q2 -88 -69 -378q84 183 184 183zM138 360v2q-3 -14 -9 -40q27 -10 61 -10q86 0 148 78.5t62 172.5q0 42 -14 65.5t-39 23.5q-39 0 -86.5 -55.5t-79.5 -122 t-43 -114.5z" />
<glyph horiz-adv-x="376" d="M348 384l15 -12q-26 -40 -69 -65t-86 -25q-52 0 -82 37.5t-30 101.5q0 102 69 182.5t158 80.5q44 0 79 -20l-14 -35q-36 25 -72 25q-72 0 -127 -74.5t-55 -159.5q0 -48 21.5 -77.5t61.5 -29.5q69 0 131 71z" />
<glyph horiz-adv-x="429" d="M373 290h-35q-1 58 23 186q-37 -82 -86 -138t-105 -56q-34 0 -56.5 29.5t-22.5 87.5q0 109 78.5 197t190.5 88q23 0 44 -4l18 85l4 106l43 8q1 -73 -48.5 -289.5t-47.5 -299.5zM129 404q0 -42 14 -66t39 -24q39 0 85.5 56t78.5 122t41 111v-2l10 44q-24 9 -52 9 q-89 0 -152.5 -78t-63.5 -172z" />
<glyph horiz-adv-x="380" d="M361 384l16 -12q-26 -42 -69 -66t-87 -24q-56 0 -90 39.5t-34 105.5q0 98 68 177.5t149 79.5q39 0 61.5 -20t22.5 -54q0 -55 -63 -98t-197 -50q-3 -18 -3 -34q0 -52 25 -83.5t67 -31.5q70 0 134 71zM308 654q-52 0 -100 -50.5t-66 -118.5q63 5 108.5 18.5t68 32.5 t32 36.5t9.5 35.5q0 21 -13.5 33.5t-38.5 12.5z" />
<glyph horiz-adv-x="252" d="M36 130l-14 18q57 64 74 144l76 356l-65 2l4 20l67 6q3 16 7.5 42t6.5 34q12 60 49.5 93.5t97.5 33.5q49 0 86 -20l-17 -34q-33 23 -77 23q-83 0 -104 -96q-8 -40 -14 -76h116l4 -5l-7 -25l-118 2h-1l-75 -354q-21 -96 -96 -164z" />
<glyph horiz-adv-x="358" d="M163 91q-66 0 -103 26t-37 68q0 53 65 90l13 -13q-40 -35 -40 -70q0 -31 28.5 -51t79.5 -20q55 0 93.5 23.5t38.5 57.5q0 19 -17 34.5t-58 33.5q-40 17 -57 29t-17 30q0 32 69 77v1q-5 -1 -14 -1q-43 0 -70 28t-27 75q0 70 50 122.5t121 52.5q91 0 128 8q5 -7 5 -17 q0 -21 -31 -21q-20 0 -63 9h-1q44 -23 44 -88q0 -40 -18 -75t-43.5 -58.5t-51 -42t-43.5 -34t-18 -26.5q0 -19 50 -38q100 -39 100 -95q0 -43 -48 -79t-128 -36zM328 575q0 37 -18 59t-48 22q-45 0 -81 -44.5t-36 -98.5q0 -38 19 -58t49 -20q49 0 82 44.5t33 95.5z" />
<glyph horiz-adv-x="450" d="M144 290h-35q-2 68 46 296l38 179l5 106l43 8q0 -14 -0.5 -28.5t-3 -32.5t-4 -31.5t-6 -37t-7 -34.5t-8.5 -39t-8 -37l-9 -40.5t-9 -38.5h1q30 58 76.5 91t96.5 33q38 0 58.5 -22t20.5 -60q0 -19 -27 -145q-18 -87 -18 -167h-36q-1 71 28 204q14 63 14 93q0 35 -12.5 50 t-40.5 15q-85 0 -143.5 -108t-59.5 -254z" />
<glyph horiz-adv-x="203" d="M229 855q0 -18 -11.5 -33.5t-29.5 -15.5q-23 0 -23 25q0 18 13 33.5t28 15.5q23 0 23 -25zM145 290h-35q-3 69 27 208l16 72l4 106l43 8q1 -57 -27.5 -193.5t-27.5 -200.5z" />
<glyph horiz-adv-x="187" d="M229 855q0 -18 -11.5 -33.5t-29.5 -15.5q-23 0 -23 25q0 18 13 33.5t28 15.5q23 0 23 -25zM23 89l-14 18q57 66 74 144l69 319l5 106l43 8q0 -16 -0.5 -30.5t-4 -36.5t-6.5 -40t-11 -55t-14.5 -66.5t-20 -90.5t-24.5 -112q-21 -95 -96 -164z" />
<glyph horiz-adv-x="402" d="M428 622q0 -46 -48.5 -91.5t-116.5 -76.5q67 -103 131 -164h-46q-69 74 -127 174q169 81 169 151q0 39 -41 39q-49 0 -97 -57.5t-77.5 -142t-30.5 -164.5h-35q-2 68 46 296l38 179l5 106l43 8q1 -32 -6 -81t-14 -81.5t-23.5 -105t-21.5 -95.5q31 80 81.5 124t103.5 44 q33 0 50 -17t17 -45z" />
<glyph horiz-adv-x="201" d="M144 290h-35q-2 68 46 296l38 179l5 106l43 8q1 -74 -49 -290t-48 -299z" />
<glyph horiz-adv-x="682" d="M185 560q26 56 72.5 90t92.5 34q38 0 59.5 -22.5t21.5 -61.5q0 -17 -4 -36q28 56 72 88t89 32q40 0 61.5 -22t21.5 -62q0 -30 -25 -137q-22 -94 -20 -173h-35q-2 68 21 176q20 96 20 127q0 59 -53 59q-77 0 -136 -101t-58 -261h-35q-1 67 23 183q18 88 18 116 q0 63 -54 63q-77 0 -134.5 -106t-58.5 -256h-35q-1 47 7.5 100t35.5 180l4 106l43 8q1 -51 -16 -124h2z" />
<glyph horiz-adv-x="415" d="M419 546q0 -99 -59 -181.5t-149 -82.5q-55 0 -84.5 36t-29.5 103q0 100 59 181.5t148 81.5q56 0 85.5 -35.5t29.5 -102.5zM135 424q0 -112 85 -112q72 0 116.5 73t44.5 158q0 111 -85 111q-72 0 -116.5 -73t-44.5 -157z" />
<glyph horiz-adv-x="433" d="M104 99h-35q-1 69 46 292l38 179l5 106l43 8q1 -61 -23 -175q83 175 179 175q37 0 60.5 -29t23.5 -87q0 -109 -76 -197.5t-184 -88.5q-23 0 -53 5q-25 -126 -24 -188zM350 652q-38 0 -82.5 -51t-76 -115.5t-45.5 -118.5q-2 -8 -5.5 -23.5t-5.5 -23.5q29 -8 59 -8 q85 0 147 78.5t62 172.5q0 42 -14 65.5t-39 23.5z" />
<glyph horiz-adv-x="426" d="M175 282q-36 0 -59.5 29t-23.5 88q0 110 76 197.5t189 87.5q40 0 83 -13l-79 -344q-34 -148 -33 -228h-35q-3 81 49 304l13 54q-36 -72 -82.5 -123.5t-97.5 -51.5zM130 403q0 -42 14 -65.5t39 -23.5q39 0 83.5 50.5t76 113.5t44.5 116l12 51q-31 9 -59 9q-86 0 -148 -78 t-62 -173z" />
<glyph horiz-adv-x="311" d="M144 290h-35q-1 79 27 208l16 72l4 106l43 8q1 -54 -18 -140h2q57 140 155 140q32 0 54 -15l-21 -31q-20 11 -42 11q-50 0 -94 -57.5t-68 -140t-23 -161.5z" />
<glyph horiz-adv-x="366" d="M370 664l-14 -35q-43 25 -92 25q-47 0 -74 -21t-27 -53q0 -29 28 -51t62 -34t62 -37.5t28 -62.5q0 -48 -43.5 -80.5t-110.5 -32.5q-63 0 -110 25l14 35q43 -29 104 -29q45 0 76 21.5t31 53.5q0 28 -28.5 49t-62.5 33t-62.5 38t-28.5 63q0 50 43 81.5t108 31.5 q55 0 97 -20z" />
<glyph horiz-adv-x="292" d="M331 649h-119q-56 -259 -56 -281q0 -55 55 -55q35 0 73 19l2 -28q-44 -22 -89 -22q-79 0 -79 74q0 5 0.5 9t1.5 11l2 14t4 20.5t5.5 26.5t7.5 36t10 45.5l13 58.5l16 72h-66l5 21l66 6l27 88l26 3l3 -4l-21 -87h116l4 -4z" />
<glyph horiz-adv-x="434" d="M112 368q0 19 39 202l5 106l42 8q1 -22 0 -41t-4.5 -40.5t-5 -31t-7.5 -36.5t-7 -32q-22 -101 -22 -133q0 -56 55 -56q56 0 102 56t68.5 137t20.5 162v7l35 8q1 -27 -3 -60.5t-9 -59t-14 -68t-13 -65.5q-17 -91 -16 -141h-35q-1 43 10 108q-27 -56 -70 -86t-87 -30 q-39 0 -61.5 22.5t-22.5 63.5z" />
<glyph horiz-adv-x="344" d="M162 290q-4 205 -58 386l35 8q54 -163 58 -346h1q150 206 163 340q7 6 18 6q16 0 16 -20q0 -51 -60 -166t-139 -208h-34z" />
<glyph horiz-adv-x="524" d="M559 684q16 0 16 -20q0 -52 -53.5 -166t-127.5 -208h-35q0 165 -19 322h-1q-16 -71 -60.5 -158t-103.5 -164h-35q0 209 -36 386l36 6q36 -162 36 -347h1q129 187 145 341h39q34 -157 34 -341h1q60 86 99 177t46 166q7 6 18 6z" />
<glyph horiz-adv-x="306" d="M32 290q57 114 151 199q-35 127 -75 187l36 8q39 -57 73 -174q84 72 109 169q5 5 17 5q16 0 16 -17q0 -28 -41 -84t-93 -99q37 -134 76 -194h-40q-37 56 -69 169q-74 -64 -125 -169h-35z" />
<glyph horiz-adv-x="345" d="M380 684q16 0 16 -18q0 -64 -79 -202.5t-187.5 -255.5t-178.5 -117q-34 0 -34 24q0 11 7 19q18 -3 32 -3q85 0 207 160q-6 210 -58 385l35 8q54 -167 58 -346h1q150 207 163 340q8 6 18 6z" />
<glyph horiz-adv-x="369" d="M57 282l-16 20q130 125 199 196.5t120 140.5q-30 2 -89.5 8t-77.5 6q-48 0 -85 -36l-18 7q19 34 43.5 47t64.5 13q21 0 48.5 -3.5t66 -9t64.5 -8.5q3 3 7.5 10t6.5 11q24 0 24 -14q0 -23 -98.5 -130.5t-213.5 -212.5q14 2 21 2q21 0 78.5 -7.5t76.5 -7.5q48 0 87 47 l18 -7q-22 -42 -47.5 -57t-64.5 -15q-29 0 -91.5 8t-83.5 8q-24 0 -40 -16z" />
<glyph horiz-adv-x="974" d="M366 119l18 -13q-74 -116 -181 -116q-66 0 -105 47t-39 131q0 130 82 233.5t185 103.5q22 0 35 -4q-19 33 -19 71q0 79 76.5 131t192.5 52q27 0 64 -5q0 -93 -65 -375q-5 -20 -7 -30h2q35 78 90 119t112 41q44 0 68 -26t24 -75q0 -13 -2.5 -30t-5 -31t-11.5 -54t-15 -71 q-27 -131 -27 -218h-40q0 86 34 238q27 124 27 162q0 69 -65 69q-68 0 -124 -66t-87.5 -172.5t-34.5 -230.5h-40q0 95 61 380l39 182q15 71 18 155q-24 2 -34 2q-80 0 -143.5 -38.5t-63.5 -108.5q0 -59 43 -109l-17 -41q-40 47 -94 47q-81 0 -148 -93.5t-67 -203.5 q0 -66 28.5 -106t82.5 -40q79 0 153 93z" />
<glyph horiz-adv-x="780" d="M366 119l18 -13q-74 -116 -181 -116q-66 0 -105 47t-39 131q0 130 82 233.5t186 103.5q25 0 49 -8q-11 28 -11 68q0 76 57 128t133 52q59 0 94 -32t35 -82q0 -39 -20.5 -76t-54.5 -60h167l4 -5l-8 -28h-138q-71 -330 -73 -355v-11q0 -38 15.5 -54t46.5 -16q43 0 86 25 l2 -33q-49 -28 -104 -28q-89 0 -89 90q0 26 42 223q21 95 34 159h-76l6 23q54 17 87 57t33 86q0 39 -25.5 60t-67.5 21q-61 0 -103.5 -43t-42.5 -107q0 -53 23 -96l-17 -41q-40 47 -94 47q-81 0 -148 -93.5t-67 -203.5q0 -66 28.5 -106t82.5 -40q79 0 153 93z" />
<glyph horiz-adv-x="926" d="M500 0h-40q0 94 61 380l39 182q15 71 18 155q-24 2 -34 2q-80 0 -143.5 -38.5t-63.5 -108.5q0 -50 39 -93l-17 -41q-48 31 -103 31t-89.5 -28t-34.5 -71q0 -31 21 -54t51.5 -38.5t61 -32t51.5 -44t21 -65.5q0 -62 -51.5 -104t-130.5 -42q-73 0 -127 32l17 41 q50 -37 120 -37q53 0 90 29.5t37 72.5q0 30 -21.5 52.5t-51.5 37.5t-60.5 31t-52 43.5t-21.5 65.5q0 64 53.5 105.5t128.5 41.5q28 0 52 -6q-26 33 -26 73q0 79 76.5 131t192.5 52q27 0 64 -5q0 -93 -65 -375q-5 -20 -7 -30h2q35 78 90 119t112 41q44 0 68 -26t24 -75 q0 -13 -2.5 -30t-5 -31t-11.5 -54t-15 -71q-27 -131 -27 -218h-40q0 86 34 238q27 124 27 162q0 69 -65 69q-68 0 -124 -66t-87.5 -172.5t-34.5 -230.5z" />
<glyph horiz-adv-x="571" d="M41 0h-39l282 465q42 70 47 79l29 3l4 -5l99 -542h-42l-31 169h-246zM246 336l-81 -133h219l-25 133q-20 106 -22 159h-1q-24 -51 -90 -159z" />
<glyph horiz-adv-x="571" d="M480 771l1 -8q-79 -87 -194 -151l-7 13q114 96 164 162zM41 0h-39l282 465q42 70 47 79l29 3l4 -5l99 -542h-42l-31 169h-246zM246 336l-81 -133h219l-25 133q-20 106 -22 159h-1q-24 -51 -90 -159z" />
<glyph horiz-adv-x="571" d="M479 762l22 -3q-23 -57 -63 -89.5t-85 -32.5t-69.5 32.5t-20.5 89.5l23 3q2 -39 23.5 -60.5t57.5 -21.5q33 0 62.5 22t49.5 60zM41 0h-39l282 465q42 70 47 79l29 3l4 -5l99 -542h-42l-31 169h-246zM246 336l-81 -133h219l-25 133q-20 106 -22 159h-1q-24 -51 -90 -159z " />
<glyph horiz-adv-x="600" d="M492 762l11 -11q-82 -87 -133 -154l-44 -5q-31 79 -78 159l15 11q47 -57 94 -126q56 56 135 126zM41 0h-39l282 465q42 70 47 79l29 3l4 -5l99 -542h-42l-31 169h-246zM246 336l-81 -133h219l-25 133q-20 106 -22 159h-1q-24 -51 -90 -159z" />
<glyph horiz-adv-x="571" d="M265 614l-11 11q82 87 133 154l44 5q31 -79 78 -159l-15 -11q-47 57 -94 126q-56 -56 -135 -126zM41 0h-39l282 465q42 70 47 79l29 3l4 -5l99 -542h-42l-31 169h-246zM246 336l-81 -133h219l-25 133q-20 106 -22 159h-1q-24 -51 -90 -159z" />
<glyph horiz-adv-x="571" d="M325 715q0 -24 -14.5 -43t-33.5 -19q-26 0 -26 30q0 22 15.5 41t33.5 19q25 0 25 -28zM513 715q0 -24 -14.5 -43t-33.5 -19q-26 0 -26 30q0 22 15.5 41t33.5 19q25 0 25 -28zM41 0h-39l282 465q42 70 47 79l29 3l4 -5l99 -542h-42l-31 169h-246zM246 336l-81 -133h219 l-25 133q-20 106 -22 159h-1q-24 -51 -90 -159z" />
<glyph horiz-adv-x="571" d="M41 0h-39l282 465q42 70 47 79l29 3l4 -5l99 -542h-42l-31 169h-246zM246 336l-81 -133h219l-25 133q-20 106 -22 159h-1q-24 -51 -90 -159zM249 -130q0 -24 -15 -42.5t-34 -18.5q-27 0 -27 30q0 23 15.5 41.5t33.5 18.5q27 0 27 -29z" />
<glyph horiz-adv-x="571" d="M440 615q-91 66 -130 151l5 8l42 16q26 -71 96 -162zM41 0h-39l282 465q42 70 47 79l29 3l4 -5l99 -542h-42l-31 169h-246zM246 336l-81 -133h219l-25 133q-20 106 -22 159h-1q-24 -51 -90 -159z" />
<glyph horiz-adv-x="571" d="M246 681l7 34h264l-7 -34h-264zM41 0h-39l282 465q42 70 47 79l29 3l4 -5l99 -542h-42l-31 169h-246zM246 336l-81 -133h219l-25 133q-20 106 -22 159h-1q-24 -51 -90 -159z" />
<glyph horiz-adv-x="571" d="M41 0h-39l282 465q42 70 47 79l29 3l4 -5l99 -542q-139 -71 -139 -142q0 -37 46 -37q24 0 59 12l4 -22q-34 -23 -79 -23q-35 0 -55 14.5t-20 41.5q0 83 143 156h-1l-31 169h-246zM246 336l-81 -133h219l-25 133q-20 106 -22 159h-1q-24 -51 -90 -159z" />
<glyph horiz-adv-x="571" d="M459 701q0 -35 -30.5 -63.5t-68.5 -28.5q-26 0 -44 16t-18 40q0 34 31 62t69 28q27 0 44 -15t17 -39zM333 670q0 -16 9.5 -25t25.5 -9q22 0 39 18t17 41q0 33 -35 33q-22 0 -39 -17.5t-17 -40.5zM41 0h-39l282 465q42 70 47 79l29 3l4 -5l99 -542h-42l-31 169h-246z M246 336l-81 -133h219l-25 133q-20 106 -22 159h-1q-24 -51 -90 -159z" />
<glyph horiz-adv-x="571" d="M528 996l1 -8q-79 -87 -194 -151l-7 13q114 96 164 162zM459 701q0 -35 -30.5 -63.5t-68.5 -28.5q-26 0 -44 16t-18 40q0 34 31 62t69 28q27 0 44 -15t17 -39zM333 670q0 -16 9.5 -25t25.5 -9q22 0 39 18t17 41q0 33 -35 33q-22 0 -39 -17.5t-17 -40.5zM41 0h-39l282 465 q42 70 47 79l29 3l4 -5l99 -542h-42l-31 169h-246zM246 336l-81 -133h219l-25 133q-20 106 -22 159h-1q-24 -51 -90 -159z" />
<glyph horiz-adv-x="571" d="M326 745q26 0 62 -28t55 -28q33 0 75 57l15 -3q-14 -36 -42.5 -64t-60.5 -28q-27 0 -63 28t-55 28q-33 0 -75 -57l-15 3q15 35 43 63.5t61 28.5zM41 0h-39l282 465q42 70 47 79l29 3l4 -5l99 -542h-42l-31 169h-246zM246 336l-81 -133h219l-25 133q-20 106 -22 159h-1 q-24 -51 -90 -159z" />
<glyph horiz-adv-x="708" d="M41 0h-39l316 465q34 52 47 74h297l4 -5l-8 -32l-243 4l-17 -222l198 2l-8 -36l-193 2l-16 -219l229 4l-8 -37h-266l13 169h-191q-10 -15 -115 -169zM373 495q-36 -61 -194 -292h171q21 257 26 292h-3z" />
<glyph horiz-adv-x="708" d="M555 771l1 -8q-79 -87 -194 -151l-7 13q114 96 164 162zM41 0h-39l316 465q34 52 47 74h297l4 -5l-8 -32l-243 4l-17 -222l198 2l-8 -36l-193 2l-16 -219l229 4l-8 -37h-266l13 169h-191q-10 -15 -115 -169zM373 495q-36 -61 -194 -292h171q21 257 26 292h-3z" />
<glyph horiz-adv-x="513" d="M172 0h-119l90 422q12 56 19 117h128q76 0 119 -29.5t43 -80.5q0 -50 -35 -91t-93 -58q100 -21 100 -104q0 -78 -70 -127t-182 -49zM280 506h-79l-45 -212h75q82 0 130 34t48 93q0 39 -32.5 62t-96.5 23zM228 261h-79l-49 -228h84q91 0 144.5 37.5t53.5 101.5 q0 89 -154 89z" />
<glyph horiz-adv-x="543" d="M430 73l-2 -36q-70 -45 -169 -45q-86 0 -135 49t-49 139q0 148 92.5 257.5t217.5 109.5q86 0 138 -35l-17 -40q-43 38 -126 38q-107 0 -184 -93.5t-77 -223.5q0 -76 39.5 -120t115.5 -44q83 0 156 44z" />
<glyph horiz-adv-x="543" d="M492 771l1 -8q-79 -87 -194 -151l-7 13q114 96 164 162zM430 73l-2 -36q-70 -45 -169 -45q-86 0 -135 49t-49 139q0 148 92.5 257.5t217.5 109.5q86 0 138 -35l-17 -40q-43 38 -126 38q-107 0 -184 -93.5t-77 -223.5q0 -76 39.5 -120t115.5 -44q83 0 156 44z" />
<glyph horiz-adv-x="543" d="M511 785l11 -11q-82 -87 -133 -154l-44 -5q-31 79 -78 159l15 11q47 -57 94 -126q56 56 135 126zM430 73l-2 -36q-70 -45 -169 -45q-86 0 -135 49t-49 139q0 148 92.5 257.5t217.5 109.5q86 0 138 -35l-17 -40q-43 38 -126 38q-107 0 -184 -93.5t-77 -223.5 q0 -76 39.5 -120t115.5 -44q83 0 156 44z" />
<glyph horiz-adv-x="543" d="M321 -100q0 -37 -45 -63.5t-99 -33.5l-1 22q102 23 102 66q0 27 -55 33l-5 11l31 57q-81 3 -127.5 52t-46.5 136q0 148 92.5 257.5t217.5 109.5q86 0 138 -35l-17 -40q-43 38 -126 38q-107 0 -184 -93.5t-77 -223.5q0 -76 39.5 -120t115.5 -44q83 0 156 44l-2 -36 q-60 -39 -149 -44l-22 -40q64 -10 64 -53z" />
<glyph horiz-adv-x="543" d="M277 614l-11 11q82 87 133 154l44 5q31 -79 78 -159l-15 -11q-47 57 -94 126q-56 -56 -135 -126zM430 73l-2 -36q-70 -45 -169 -45q-86 0 -135 49t-49 139q0 148 92.5 257.5t217.5 109.5q86 0 138 -35l-17 -40q-43 38 -126 38q-107 0 -184 -93.5t-77 -223.5 q0 -76 39.5 -120t115.5 -44q83 0 156 44z" />
<glyph horiz-adv-x="543" d="M432 717q0 -24 -15 -42.5t-34 -18.5q-27 0 -27 30q0 23 15.5 41.5t33.5 18.5q27 0 27 -29zM430 73l-2 -36q-70 -45 -169 -45q-86 0 -135 49t-49 139q0 148 92.5 257.5t217.5 109.5q86 0 138 -35l-17 -40q-43 38 -126 38q-107 0 -184 -93.5t-77 -223.5q0 -76 39.5 -120 t115.5 -44q83 0 156 44z" />
<glyph horiz-adv-x="593" d="M524 335q0 -137 -102 -236t-244 -99h-125l90 422q12 56 19 117h134q100 0 164 -54.5t64 -149.5zM282 505h-81l-101 -471h84q125 0 210.5 85.5t85.5 210.5q0 82 -52.5 128.5t-145.5 46.5z" />
<glyph horiz-adv-x="593" d="M524 335q0 -137 -102 -236t-244 -99h-125l53 249h-73l5 30h75l30 143q12 56 19 117h134q100 0 164 -54.5t64 -149.5zM339 249h-193l-46 -215h84q125 0 210.5 85.5t85.5 210.5q0 82 -52.5 128.5t-145.5 46.5h-81l-48 -226h191z" />
<glyph horiz-adv-x="593" d="M510 785l11 -11q-82 -87 -133 -154l-44 -5q-31 79 -78 159l15 11q47 -57 94 -126q56 56 135 126zM524 335q0 -137 -102 -236t-244 -99h-125l90 422q12 56 19 117h134q100 0 164 -54.5t64 -149.5zM282 505h-81l-101 -471h84q125 0 210.5 85.5t85.5 210.5q0 82 -52.5 128.5 t-145.5 46.5z" />
<glyph horiz-adv-x="593" d="M524 335q0 -137 -102 -236t-244 -99h-125l53 249h-73l5 30h75l30 143q12 56 19 117h134q100 0 164 -54.5t64 -149.5zM339 249h-193l-46 -215h84q125 0 210.5 85.5t85.5 210.5q0 82 -52.5 128.5t-145.5 46.5h-81l-48 -226h191z" />
<glyph horiz-adv-x="593" d="M524 335q0 -137 -102 -236t-244 -99h-125l90 422q12 56 19 117h134q100 0 164 -54.5t64 -149.5zM282 505h-81l-101 -471h84q125 0 210.5 85.5t85.5 210.5q0 82 -52.5 128.5t-145.5 46.5zM241 -130q0 -24 -15 -42.5t-34 -18.5q-27 0 -27 30q0 23 15.5 41.5t33.5 18.5 q27 0 27 -29z" />
<glyph horiz-adv-x="462" d="M362 37l-8 -37h-301l90 422q12 56 19 117h294l4 -5l-8 -32l-251 4l-47 -222l216 2l-8 -36l-215 2l-47 -219z" />
<glyph horiz-adv-x="462" d="M442 771l1 -8q-79 -87 -194 -151l-7 13q114 96 164 162zM362 37l-8 -37h-301l90 422q12 56 19 117h294l4 -5l-8 -32l-251 4l-47 -222l216 2l-8 -36l-215 2l-47 -219z" />
<glyph horiz-adv-x="462" d="M441 762l22 -3q-23 -57 -63 -89.5t-85 -32.5t-69.5 32.5t-20.5 89.5l23 3q2 -39 23.5 -60.5t57.5 -21.5q33 0 62.5 22t49.5 60zM362 37l-8 -37h-301l90 422q12 56 19 117h294l4 -5l-8 -32l-251 4l-47 -222l216 2l-8 -36l-215 2l-47 -219z" />
<glyph horiz-adv-x="462" d="M461 785l11 -11q-82 -87 -133 -154l-44 -5q-31 79 -78 159l15 11q47 -57 94 -126q56 56 135 126zM362 37l-8 -37h-301l90 422q12 56 19 117h294l4 -5l-8 -32l-251 4l-47 -222l216 2l-8 -36l-215 2l-47 -219z" />
<glyph horiz-adv-x="462" d="M227 614l-11 11q82 87 133 154l44 5q31 -79 78 -159l-15 -11q-47 57 -94 126q-56 -56 -135 -126zM362 37l-8 -37h-301l90 422q12 56 19 117h294l4 -5l-8 -32l-251 4l-47 -222l216 2l-8 -36l-215 2l-47 -219z" />
<glyph horiz-adv-x="462" d="M287 715q0 -24 -14.5 -43t-33.5 -19q-26 0 -26 30q0 22 15.5 41t33.5 19q25 0 25 -28zM475 715q0 -24 -14.5 -43t-33.5 -19q-26 0 -26 30q0 22 15.5 41t33.5 19q25 0 25 -28zM362 37l-8 -37h-301l90 422q12 56 19 117h294l4 -5l-8 -32l-251 4l-47 -222l216 2l-8 -36 l-215 2l-47 -219z" />
<glyph horiz-adv-x="462" d="M382 717q0 -24 -15 -42.5t-34 -18.5q-27 0 -27 30q0 23 15.5 41.5t33.5 18.5q27 0 27 -29zM362 37l-8 -37h-301l90 422q12 56 19 117h294l4 -5l-8 -32l-251 4l-47 -222l216 2l-8 -36l-215 2l-47 -219z" />
<glyph horiz-adv-x="462" d="M362 37l-8 -37h-301l90 422q12 56 19 117h294l4 -5l-8 -32l-251 4l-47 -222l216 2l-8 -36l-215 2l-47 -219zM233 -130q0 -24 -15 -42.5t-34 -18.5q-27 0 -27 30q0 23 15.5 41.5t33.5 18.5q27 0 27 -29z" />
<glyph horiz-adv-x="462" d="M402 615q-91 66 -130 151l5 8l42 16q26 -71 96 -162zM362 37l-8 -37h-301l90 422q12 56 19 117h294l4 -5l-8 -32l-251 4l-47 -222l216 2l-8 -36l-215 2l-47 -219z" />
<glyph horiz-adv-x="462" d="M208 681l7 34h264l-7 -34h-264zM362 37l-8 -37h-301l90 422q12 56 19 117h294l4 -5l-8 -32l-251 4l-47 -222l216 2l-8 -36l-215 2l-47 -219z" />
<glyph horiz-adv-x="462" d="M354 0q-139 -71 -139 -142q0 -37 46 -37q24 0 59 12l4 -22q-34 -23 -79 -23q-35 0 -55 14.5t-20 41.5q0 83 143 156h-260l90 422q12 56 19 117h294l4 -5l-8 -32l-251 4l-47 -222l216 2l-8 -36l-215 2l-47 -219l262 4z" />
<glyph horiz-adv-x="462" d="M288 745q26 0 62 -28t55 -28q33 0 75 57l15 -3q-14 -36 -42.5 -64t-60.5 -28q-27 0 -63 28t-55 28q-33 0 -75 -57l-15 3q15 35 43 63.5t61 28.5zM362 37l-8 -37h-301l90 422q12 56 19 117h294l4 -5l-8 -32l-251 4l-47 -222l216 2l-8 -36l-215 2l-47 -219z" />
<glyph horiz-adv-x="582" d="M80 234l18 15h362q12 45 12 95q0 81 -45 124t-123 43q-80 0 -165 -47l3 36q78 47 175 47q94 0 146.5 -51t52.5 -143q0 -147 -93.5 -255t-220.5 -108q-68 0 -105.5 33.5t-37.5 101.5q0 22 7.5 58.5t13.5 50.5zM102 134q0 -53 29 -80.5t82 -27.5q78 0 142.5 53.5 t94.5 139.5l-335 -7q-13 -41 -13 -78z" />
<glyph horiz-adv-x="426" d="M76 0h-40l90 422q12 56 19 117h46zM438 539l4 -5l-7 -32l-251 4l7 33h247zM351 277l-8 -36l-215 2l7 33z" />
<glyph horiz-adv-x="572" d="M485 229l2 -5l-41 -192q-80 -40 -183 -40q-88 0 -138 49t-50 138q0 154 95 261t232 107q80 0 129 -30l-17 -40q-45 34 -118 34q-117 0 -197 -92.5t-80 -226.5q0 -76 40 -120t119 -44q62 0 132 24l10 49q14 67 20 120z" />
<glyph horiz-adv-x="572" d="M479 771l1 -8q-79 -87 -194 -151l-7 13q114 96 164 162zM485 229l2 -5l-41 -192q-80 -40 -183 -40q-88 0 -138 49t-50 138q0 154 95 261t232 107q80 0 129 -30l-17 -40q-45 34 -118 34q-117 0 -197 -92.5t-80 -226.5q0 -76 40 -120t119 -44q62 0 132 24l10 49 q14 67 20 120z" />
<glyph horiz-adv-x="572" d="M478 762l22 -3q-23 -57 -63 -89.5t-85 -32.5t-69.5 32.5t-20.5 89.5l23 3q2 -39 23.5 -60.5t57.5 -21.5q33 0 62.5 22t49.5 60zM485 229l2 -5l-41 -192q-80 -40 -183 -40q-88 0 -138 49t-50 138q0 154 95 261t232 107q80 0 129 -30l-17 -40q-45 34 -118 34 q-117 0 -197 -92.5t-80 -226.5q0 -76 40 -120t119 -44q62 0 132 24l10 49q14 67 20 120z" />
<glyph horiz-adv-x="572" d="M498 785l11 -11q-82 -87 -133 -154l-44 -5q-31 79 -78 159l15 11q47 -57 94 -126q56 56 135 126zM485 229l2 -5l-41 -192q-80 -40 -183 -40q-88 0 -138 49t-50 138q0 154 95 261t232 107q80 0 129 -30l-17 -40q-45 34 -118 34q-117 0 -197 -92.5t-80 -226.5 q0 -76 40 -120t119 -44q62 0 132 24l10 49q14 67 20 120z" />
<glyph horiz-adv-x="572" d="M264 614l-11 11q82 87 133 154l44 5q31 -79 78 -159l-15 -11q-47 57 -94 126q-56 -56 -135 -126zM485 229l2 -5l-41 -192q-80 -40 -183 -40q-88 0 -138 49t-50 138q0 154 95 261t232 107q80 0 129 -30l-17 -40q-45 34 -118 34q-117 0 -197 -92.5t-80 -226.5 q0 -76 40 -120t119 -44q62 0 132 24l10 49q14 67 20 120z" />
<glyph horiz-adv-x="572" d="M485 229l2 -5l-41 -192q-80 -40 -183 -40q-88 0 -138 49t-50 138q0 154 95 261t232 107q80 0 129 -30l-17 -40q-45 34 -118 34q-117 0 -197 -92.5t-80 -226.5q0 -76 40 -120t119 -44q62 0 132 24l10 49q14 67 20 120zM194 -291q37 53 54 94h-2q-28 0 -28 32q0 21 14.5 40 t37.5 19q30 0 30 -32q0 -65 -89 -164z" />
<glyph horiz-adv-x="572" d="M419 717q0 -24 -15 -42.5t-34 -18.5q-27 0 -27 30q0 23 15.5 41.5t33.5 18.5q27 0 27 -29zM485 229l2 -5l-41 -192q-80 -40 -183 -40q-88 0 -138 49t-50 138q0 154 95 261t232 107q80 0 129 -30l-17 -40q-45 34 -118 34q-117 0 -197 -92.5t-80 -226.5q0 -76 40 -120 t119 -44q62 0 132 24l10 49q14 67 20 120z" />
<glyph horiz-adv-x="610" d="M93 0h-40l89 421q14 67 20 118l42 8l4 -5l-55 -257h324l29 136q11 51 20 118l42 8l4 -5l-115 -542h-40l53 251h-324z" />
<glyph horiz-adv-x="610" d="M93 0h-40l86 408h-84l6 30h85q12 64 16 101l42 8l4 -5l-22 -104h324q3 18 16 101l42 8l4 -5l-22 -104h69l-6 -30h-69l-87 -408h-40l53 251h-324zM153 285h324l26 123h-323z" />
<glyph horiz-adv-x="610" d="M287 614l-11 11q82 87 133 154l44 5q31 -79 78 -159l-15 -11q-47 57 -94 126q-56 -56 -135 -126zM93 0h-40l89 421q14 67 20 118l42 8l4 -5l-55 -257h324l29 136q11 51 20 118l42 8l4 -5l-115 -542h-40l53 251h-324z" />
<glyph horiz-adv-x="610" d="M93 0h-40l89 421q14 67 20 118l42 8l4 -5l-55 -257h324l29 136q11 51 20 118l42 8l4 -5l-115 -542h-40l53 251h-324zM262 -130q0 -24 -15 -42.5t-34 -18.5q-27 0 -27 30q0 23 15.5 41.5t33.5 18.5q27 0 27 -29z" />
<glyph horiz-adv-x="246" d="M93 0h-40l89 421q14 67 20 118l42 8l4 -5z" />
<glyph horiz-adv-x="246" d="M93 0h-40l89 421q14 67 20 118l42 8l4 -5z" />
<glyph horiz-adv-x="246" d="M317 771l1 -8q-79 -87 -194 -151l-7 13q114 96 164 162zM93 0h-40l89 421q14 67 20 118l42 8l4 -5z" />
<glyph horiz-adv-x="246" d="M316 762l22 -3q-23 -57 -63 -89.5t-85 -32.5t-69.5 32.5t-20.5 89.5l23 3q2 -39 23.5 -60.5t57.5 -21.5q33 0 62.5 22t49.5 60zM93 0h-40l89 421q14 67 20 118l42 8l4 -5z" />
<glyph horiz-adv-x="246" d="M336 785l11 -11q-82 -87 -133 -154l-44 -5q-31 79 -78 159l15 11q47 -57 94 -126q56 56 135 126zM93 0h-40l89 421q14 67 20 118l42 8l4 -5z" />
<glyph horiz-adv-x="246" d="M102 614l-11 11q82 87 133 154l44 5q31 -79 78 -159l-15 -11q-47 57 -94 126q-56 -56 -135 -126zM93 0h-40l89 421q14 67 20 118l42 8l4 -5z" />
<glyph horiz-adv-x="246" d="M162 715q0 -24 -14.5 -43t-33.5 -19q-26 0 -26 30q0 22 15.5 41t33.5 19q25 0 25 -28zM350 715q0 -24 -14.5 -43t-33.5 -19q-26 0 -26 30q0 22 15.5 41t33.5 19q25 0 25 -28zM93 0h-40l89 421q14 67 20 118l42 8l4 -5z" />
<glyph horiz-adv-x="246" d="M257 717q0 -24 -15 -42.5t-34 -18.5q-27 0 -27 30q0 23 15.5 41.5t33.5 18.5q27 0 27 -29zM93 0h-40l89 421q14 67 20 118l42 8l4 -5z" />
<glyph horiz-adv-x="246" d="M93 0h-40l89 421q14 67 20 118l42 8l4 -5zM77 -130q0 -24 -15 -42.5t-34 -18.5q-27 0 -27 30q0 23 15.5 41.5t33.5 18.5q27 0 27 -29z" />
<glyph horiz-adv-x="246" d="M277 615q-91 66 -130 151l5 8l42 16q26 -71 96 -162zM93 0h-40l89 421q14 67 20 118l42 8l4 -5z" />
<glyph horiz-adv-x="491" d="M93 0h-40l89 421q14 67 20 118l42 8l4 -5zM204 -144l-9 22q87 44 112 162l81 381q15 70 18 118l44 8l4 -5l-107 -502q-16 -73 -50.5 -116t-92.5 -68z" />
<glyph horiz-adv-x="246" d="M83 681l7 34h264l-7 -34h-264zM93 0h-40l89 421q14 67 20 118l42 8l4 -5z" />
<glyph horiz-adv-x="247" d="M94 0q-81 -73 -81 -130q0 -49 47 -49q23 0 58 12l4 -22q-34 -23 -79 -23q-36 0 -55.5 17.5t-19.5 50.5q0 71 93 144h-7l89 421q14 67 20 118l42 8l4 -5z" />
<glyph horiz-adv-x="246" d="M163 745q26 0 62 -28t55 -28q33 0 75 57l15 -3q-14 -36 -42.5 -64t-60.5 -28q-27 0 -63 28t-55 28q-33 0 -75 -57l-15 3q15 35 43 63.5t61 28.5zM93 0h-40l89 421q14 67 20 118l42 8l4 -5z" />
<glyph horiz-adv-x="245" d="M-42 -144l-9 22q87 44 112 162l81 381q15 70 18 118l44 8l4 -5l-107 -502q-16 -73 -50.5 -116t-92.5 -68z" />
<glyph horiz-adv-x="245" d="M-42 -144l-9 22q87 44 112 162l81 381q15 70 18 118l44 8l4 -5l-107 -502q-16 -73 -50.5 -116t-92.5 -68z" />
<glyph horiz-adv-x="245" d="M319 771l1 -8q-79 -87 -194 -151l-7 13q114 96 164 162zM-42 -144l-9 22q87 44 112 162l81 381q15 70 18 118l44 8l4 -5l-107 -502q-16 -73 -50.5 -116t-92.5 -68z" />
<glyph horiz-adv-x="245" d="M104 614l-11 11q82 87 133 154l44 5q31 -79 78 -159l-15 -11q-47 57 -94 126q-56 -56 -135 -126zM-42 -144l-9 22q87 44 112 162l81 381q15 70 18 118l44 8l4 -5l-107 -502q-16 -73 -50.5 -116t-92.5 -68z" />
<glyph horiz-adv-x="505" d="M142 421q16 82 20 118l41 8l3 -5l-55 -258h91q171 176 255 263l26 -10l4 -5l-253 -259l158 -273l-42 -8q-11 18 -45 76t-107 182h-94l-53 -250h-38z" />
<glyph horiz-adv-x="505" d="M142 421q16 82 20 118l41 8l3 -5l-55 -258h91q171 176 255 263l26 -10l4 -5l-253 -259l158 -273l-42 -8q-11 18 -45 76t-107 182h-94l-53 -250h-38zM108 -291q37 53 54 94h-2q-28 0 -28 32q0 21 14.5 40t37.5 19q30 0 30 -32q0 -65 -89 -164z" />
<glyph horiz-adv-x="505" d="M142 421q16 82 20 118l41 8l3 -5l-55 -258h91q171 176 255 263l26 -10l4 -5l-253 -259l158 -273l-42 -8q-11 18 -45 76t-107 182h-94l-53 -250h-38z" />
<glyph horiz-adv-x="455" d="M355 37l-8 -37h-294l90 422q13 65 19 117l42 8l4 -5l-108 -509z" />
<glyph horiz-adv-x="455" d="M356 771l1 -8q-79 -87 -194 -151l-7 13q114 96 164 162zM355 37l-8 -37h-294l90 422q13 65 19 117l42 8l4 -5l-108 -509z" />
<glyph horiz-adv-x="455" d="M416 580l5 -6q-29 -102 -109 -212l-15 6q59 122 76 206zM355 37l-8 -37h-294l90 422q13 65 19 117l42 8l4 -5l-108 -509z" />
<glyph horiz-adv-x="455" d="M355 37l-8 -37h-294l90 422q13 65 19 117l42 8l4 -5l-108 -509zM124 -291q37 53 54 94h-2q-28 0 -28 32q0 21 14.5 40t37.5 19q30 0 30 -32q0 -65 -89 -164z" />
<glyph horiz-adv-x="399" d="M355 37l-8 -37h-294l90 422q13 65 19 117l42 8l4 -5l-108 -509zM351 266q0 -24 -15 -42.5t-34 -18.5q-27 0 -27 30q0 23 15.5 41.5t33.5 18.5q27 0 27 -29z" />
<glyph horiz-adv-x="455" d="M355 37l-8 -37h-294l45 212l-98 -49l-10 29l116 58l37 172q13 65 19 117l42 8l4 -5l-57 -270l175 87l11 -29l-194 -96l-43 -201z" />
<glyph horiz-adv-x="744" d="M656 547l4 -5l-39 -542h-40l15 211q14 195 23 265h-1q-42 -80 -152 -265l-125 -211h-44l-35 211q-31 184 -40 265h-1q-21 -65 -91 -265l-75 -211h-38l193 543l37 4l56 -319q19 -116 25 -188h1q40 78 105 188l188 315z" />
<glyph horiz-adv-x="610" d="M320 304q17 -36 38.5 -80.5t31 -64.5t21 -48.5t20.5 -58.5h1q17 98 74 366q13 59 20 121l42 8l4 -5l-115 -542h-43q-18 39 -113 242q-5 11 -27.5 57.5t-31 65t-23 54.5t-25.5 68h-1q-11 -67 -38 -195l-62 -292h-40l90 422q13 62 19 117l44 8q16 -33 114 -243z" />
<glyph horiz-adv-x="610" d="M502 771l1 -8q-79 -87 -194 -151l-7 13q114 96 164 162zM320 304q17 -36 38.5 -80.5t31 -64.5t21 -48.5t20.5 -58.5h1q17 98 74 366q13 59 20 121l42 8l4 -5l-115 -542h-43q-18 39 -113 242q-5 11 -27.5 57.5t-31 65t-23 54.5t-25.5 68h-1q-11 -67 -38 -195l-62 -292h-40 l90 422q13 62 19 117l44 8q16 -33 114 -243z" />
<glyph horiz-adv-x="610" d="M521 785l11 -11q-82 -87 -133 -154l-44 -5q-31 79 -78 159l15 11q47 -57 94 -126q56 56 135 126zM320 304q17 -36 38.5 -80.5t31 -64.5t21 -48.5t20.5 -58.5h1q17 98 74 366q13 59 20 121l42 8l4 -5l-115 -542h-43q-18 39 -113 242q-5 11 -27.5 57.5t-31 65t-23 54.5 t-25.5 68h-1q-11 -67 -38 -195l-62 -292h-40l90 422q13 62 19 117l44 8q16 -33 114 -243z" />
<glyph horiz-adv-x="610" d="M320 304q17 -36 38.5 -80.5t31 -64.5t21 -48.5t20.5 -58.5h1q17 98 74 366q13 59 20 121l42 8l4 -5l-115 -542h-43q-18 39 -113 242q-5 11 -27.5 57.5t-31 65t-23 54.5t-25.5 68h-1q-11 -67 -38 -195l-62 -292h-40l90 422q13 62 19 117l44 8q16 -33 114 -243zM168 -291 q37 53 54 94h-2q-28 0 -28 32q0 21 14.5 40t37.5 19q30 0 30 -32q0 -65 -89 -164z" />
<glyph horiz-adv-x="610" d="M442 717q0 -24 -15 -42.5t-34 -18.5q-27 0 -27 30q0 23 15.5 41.5t33.5 18.5q27 0 27 -29zM320 304q17 -36 38.5 -80.5t31 -64.5t21 -48.5t20.5 -58.5h1q17 98 74 366q13 59 20 121l42 8l4 -5l-115 -542h-43q-18 39 -113 242q-5 11 -27.5 57.5t-31 65t-23 54.5t-25.5 68 h-1q-11 -67 -38 -195l-62 -292h-40l90 422q13 62 19 117l44 8q16 -33 114 -243z" />
<glyph horiz-adv-x="610" d="M322 -144l-9 22q71 38 102 123l-1 -1q-18 39 -113 242q-5 11 -27.5 57.5t-31 65t-23 54.5t-25.5 68h-1q-11 -67 -38 -195l-62 -292h-40l90 422q13 62 19 117l44 8q16 -33 114 -243q17 -36 38.5 -80.5t31 -64.5t21 -48.5t20.5 -58.5h1q17 98 74 366q13 59 20 121l42 8 l4 -5l-106 -502q-28 -135 -144 -184z" />
<glyph horiz-adv-x="610" d="M-42 -144l-9 22q88 45 112 162l82 382q14 66 18 117l45 8q14 -29 33 -70.5t80 -171.5q12 -26 39.5 -81.5t43 -92.5t29.5 -79h1q16 95 74 367q15 68 19 120l43 8l4 -5l-115 -542h-43q-48 104 -113 241q-85 179 -108 246h-1q-7 -49 -37 -195l-54 -252q-30 -136 -143 -184z " />
<glyph horiz-adv-x="610" d="M348 745q26 0 62 -28t55 -28q33 0 75 57l15 -3q-14 -36 -42.5 -64t-60.5 -28q-27 0 -63 28t-55 28q-33 0 -75 -57l-15 3q15 35 43 63.5t61 28.5zM320 304q17 -36 38.5 -80.5t31 -64.5t21 -48.5t20.5 -58.5h1q17 98 74 366q13 59 20 121l42 8l4 -5l-115 -542h-43 q-18 39 -113 242q-5 11 -27.5 57.5t-31 65t-23 54.5t-25.5 68h-1q-11 -67 -38 -195l-62 -292h-40l90 422q13 62 19 117l44 8q16 -33 114 -243z" />
<glyph horiz-adv-x="629" d="M562 351q0 -147 -90.5 -254t-215.5 -107q-83 0 -132.5 49.5t-49.5 139.5q0 146 93 256t217 110q81 0 129.5 -51.5t48.5 -142.5zM118 190q0 -77 38.5 -120.5t109.5 -43.5q105 0 179 94t74 226q0 76 -37 119.5t-106 43.5q-105 0 -181.5 -95t-76.5 -224z" />
<glyph horiz-adv-x="629" d="M479 771l1 -8q-79 -87 -194 -151l-7 13q114 96 164 162zM562 351q0 -147 -90.5 -254t-215.5 -107q-83 0 -132.5 49.5t-49.5 139.5q0 146 93 256t217 110q81 0 129.5 -51.5t48.5 -142.5zM118 190q0 -77 38.5 -120.5t109.5 -43.5q105 0 179 94t74 226q0 76 -37 119.5 t-106 43.5q-105 0 -181.5 -95t-76.5 -224z" />
<glyph horiz-adv-x="629" d="M478 762l22 -3q-23 -57 -63 -89.5t-85 -32.5t-69.5 32.5t-20.5 89.5l23 3q2 -39 23.5 -60.5t57.5 -21.5q33 0 62.5 22t49.5 60zM562 351q0 -147 -90.5 -254t-215.5 -107q-83 0 -132.5 49.5t-49.5 139.5q0 146 93 256t217 110q81 0 129.5 -51.5t48.5 -142.5zM118 190 q0 -77 38.5 -120.5t109.5 -43.5q105 0 179 94t74 226q0 76 -37 119.5t-106 43.5q-105 0 -181.5 -95t-76.5 -224z" />
<glyph horiz-adv-x="629" d="M498 785l11 -11q-82 -87 -133 -154l-44 -5q-31 79 -78 159l15 11q47 -57 94 -126q56 56 135 126zM562 351q0 -147 -90.5 -254t-215.5 -107q-83 0 -132.5 49.5t-49.5 139.5q0 146 93 256t217 110q81 0 129.5 -51.5t48.5 -142.5zM118 190q0 -77 38.5 -120.5t109.5 -43.5 q105 0 179 94t74 226q0 76 -37 119.5t-106 43.5q-105 0 -181.5 -95t-76.5 -224z" />
<glyph horiz-adv-x="629" d="M264 614l-11 11q82 87 133 154l44 5q31 -79 78 -159l-15 -11q-47 57 -94 126q-56 -56 -135 -126zM562 351q0 -147 -90.5 -254t-215.5 -107q-83 0 -132.5 49.5t-49.5 139.5q0 146 93 256t217 110q81 0 129.5 -51.5t48.5 -142.5zM118 190q0 -77 38.5 -120.5t109.5 -43.5 q105 0 179 94t74 226q0 76 -37 119.5t-106 43.5q-105 0 -181.5 -95t-76.5 -224z" />
<glyph horiz-adv-x="629" d="M324 715q0 -24 -14.5 -43t-33.5 -19q-26 0 -26 30q0 22 15.5 41t33.5 19q25 0 25 -28zM512 715q0 -24 -14.5 -43t-33.5 -19q-26 0 -26 30q0 22 15.5 41t33.5 19q25 0 25 -28zM562 351q0 -147 -90.5 -254t-215.5 -107q-83 0 -132.5 49.5t-49.5 139.5q0 146 93 256t217 110 q81 0 129.5 -51.5t48.5 -142.5zM118 190q0 -77 38.5 -120.5t109.5 -43.5q105 0 179 94t74 226q0 76 -37 119.5t-106 43.5q-105 0 -181.5 -95t-76.5 -224z" />
<glyph horiz-adv-x="629" d="M562 351q0 -147 -90.5 -254t-215.5 -107q-83 0 -132.5 49.5t-49.5 139.5q0 146 93 256t217 110q81 0 129.5 -51.5t48.5 -142.5zM118 190q0 -77 38.5 -120.5t109.5 -43.5q105 0 179 94t74 226q0 76 -37 119.5t-106 43.5q-105 0 -181.5 -95t-76.5 -224zM267 -130 q0 -24 -15 -42.5t-34 -18.5q-27 0 -27 30q0 23 15.5 41.5t33.5 18.5q27 0 27 -29z" />
<glyph horiz-adv-x="629" d="M439 615q-91 66 -130 151l5 8l42 16q26 -71 96 -162zM562 351q0 -147 -90.5 -254t-215.5 -107q-83 0 -132.5 49.5t-49.5 139.5q0 146 93 256t217 110q81 0 129.5 -51.5t48.5 -142.5zM118 190q0 -77 38.5 -120.5t109.5 -43.5q105 0 179 94t74 226q0 76 -37 119.5 t-106 43.5q-105 0 -181.5 -95t-76.5 -224z" />
<glyph horiz-adv-x="629" d="M433 777l1 -8q-81 -90 -189 -154l-7 13q103 82 164 162zM547 777l1 -8q-79 -89 -189 -154l-7 13q103 82 164 162zM562 351q0 -147 -90.5 -254t-215.5 -107q-83 0 -132.5 49.5t-49.5 139.5q0 146 93 256t217 110q81 0 129.5 -51.5t48.5 -142.5zM118 190q0 -77 38.5 -120.5 t109.5 -43.5q105 0 179 94t74 226q0 76 -37 119.5t-106 43.5q-105 0 -181.5 -95t-76.5 -224z" />
<glyph horiz-adv-x="629" d="M245 681l7 34h264l-7 -34h-264zM562 351q0 -147 -90.5 -254t-215.5 -107q-83 0 -132.5 49.5t-49.5 139.5q0 146 93 256t217 110q81 0 129.5 -51.5t48.5 -142.5zM118 190q0 -77 38.5 -120.5t109.5 -43.5q105 0 179 94t74 226q0 76 -37 119.5t-106 43.5q-105 0 -181.5 -95 t-76.5 -224z" />
<glyph horiz-adv-x="630" d="M562 351q0 -115 -58 -209t-149 -132q-55 -32 -89.5 -71t-34.5 -74q0 -20 12 -32t34 -12q24 0 59 12l4 -22q-34 -23 -80 -23q-34 0 -54 17.5t-20 47.5q0 32 27 69t74 70q-20 -2 -31 -2q-83 0 -132.5 49.5t-49.5 139.5q0 146 93 256t217 110q81 0 129.5 -51.5t48.5 -142.5z M118 190q0 -77 38.5 -120.5t109.5 -43.5q105 0 179 94t74 226q0 76 -37 119.5t-106 43.5q-105 0 -181.5 -95t-76.5 -224z" />
<glyph horiz-adv-x="629" d="M562 351q0 -147 -90.5 -254t-215.5 -107q-83 0 -132.5 49.5t-49.5 139.5q0 146 93 256t217 110q81 0 129.5 -51.5t48.5 -142.5zM118 190q0 -77 38.5 -120.5t109.5 -43.5q105 0 179 94t74 226q0 76 -37 119.5t-106 43.5q-105 0 -181.5 -95t-76.5 -224z" />
<glyph horiz-adv-x="629" d="M479 771l1 -8q-79 -87 -194 -151l-7 13q114 96 164 162zM562 351q0 -147 -90.5 -254t-215.5 -107q-83 0 -132.5 49.5t-49.5 139.5q0 146 93 256t217 110q81 0 129.5 -51.5t48.5 -142.5zM118 190q0 -77 38.5 -120.5t109.5 -43.5q105 0 179 94t74 226q0 76 -37 119.5 t-106 43.5q-105 0 -181.5 -95t-76.5 -224z" />
<glyph horiz-adv-x="629" d="M325 745q26 0 62 -28t55 -28q33 0 75 57l15 -3q-14 -36 -42.5 -64t-60.5 -28q-27 0 -63 28t-55 28q-33 0 -75 -57l-15 3q15 35 43 63.5t61 28.5zM562 351q0 -147 -90.5 -254t-215.5 -107q-83 0 -132.5 49.5t-49.5 139.5q0 146 93 256t217 110q81 0 129.5 -51.5 t48.5 -142.5zM118 190q0 -77 38.5 -120.5t109.5 -43.5q105 0 179 94t74 226q0 76 -37 119.5t-106 43.5q-105 0 -181.5 -95t-76.5 -224z" />
<glyph horiz-adv-x="795" d="M563 353q0 -35 -6 -69l145 2l-7 -36l-145 2q-18 -70 -58 -127t-94 -91l296 3l-7 -37h-361v2q-31 -10 -69 -10q-83 0 -132.5 49.5t-49.5 139.5q0 146 93 256t217 110q29 0 58 -8h345l4 -5l-8 -32l-279 3q58 -52 58 -152zM119 192q0 -77 38.5 -120.5t109.5 -43.5 q105 0 179 94t74 226q0 76 -37 119.5t-106 43.5q-105 0 -181.5 -95t-76.5 -224z" />
<glyph horiz-adv-x="474" d="M93 0h-40l90 422q12 56 19 117h135q78 0 122.5 -34t44.5 -94q0 -89 -71 -147t-180 -58h-76zM287 506h-86l-57 -266h83q86 0 139.5 46t53.5 121q0 46 -33 72.5t-100 26.5z" />
<glyph horiz-adv-x="473" d="M93 0h-40l90 422q12 56 19 117h46l-20 -96h88q78 0 122.5 -34t44.5 -94q0 -89 -71 -147t-180 -58h-76zM266 410h-86l-59 -279l3 13h83q86 0 139.5 46t53.5 121q0 46 -33.5 72.5t-100.5 26.5z" />
<glyph horiz-adv-x="629" d="M386 545q81 0 128.5 -52t47.5 -150q0 -131 -80 -233.5t-195 -117.5q62 -47 156 -81t187 -34q39 0 78 10q6 -6 6 -17q0 -38 -89 -38q-98 0 -202 43.5t-187 115.5q-74 5 -118 55.5t-44 140.5q0 139 93.5 248.5t218.5 109.5zM378 509q-105 0 -182.5 -94t-77.5 -218 q0 -82 38 -126.5t108 -44.5q105 0 180 93.5t75 218.5q0 83 -36.5 127t-104.5 44z" />
<glyph horiz-adv-x="530" d="M93 0h-40l90 422q12 56 19 117h134q78 0 123 -34.5t45 -92.5q0 -65 -44 -113.5t-120 -66.5l117 -232l-40 -8l-115 230h-122zM287 506h-86l-54 -251h83q86 0 138.5 42t52.5 111q0 44 -33.5 71t-100.5 27z" />
<glyph horiz-adv-x="530" d="M459 771l1 -8q-79 -87 -194 -151l-7 13q114 96 164 162zM93 0h-40l90 422q12 56 19 117h134q78 0 123 -34.5t45 -92.5q0 -65 -44 -113.5t-120 -66.5l117 -232l-40 -8l-115 230h-122zM287 506h-86l-54 -251h83q86 0 138.5 42t52.5 111q0 44 -33.5 71t-100.5 27z" />
<glyph horiz-adv-x="530" d="M478 785l11 -11q-82 -87 -133 -154l-44 -5q-31 79 -78 159l15 11q47 -57 94 -126q56 56 135 126zM93 0h-40l90 422q12 56 19 117h134q78 0 123 -34.5t45 -92.5q0 -65 -44 -113.5t-120 -66.5l117 -232l-40 -8l-115 230h-122zM287 506h-86l-54 -251h83q86 0 138.5 42 t52.5 111q0 44 -33.5 71t-100.5 27z" />
<glyph horiz-adv-x="530" d="M93 0h-40l90 422q12 56 19 117h134q78 0 123 -34.5t45 -92.5q0 -65 -44 -113.5t-120 -66.5l117 -232l-40 -8l-115 230h-122zM287 506h-86l-54 -251h83q86 0 138.5 42t52.5 111q0 44 -33.5 71t-100.5 27zM128 -291q37 53 54 94h-2q-28 0 -28 32q0 21 14.5 40t37.5 19 q30 0 30 -32q0 -65 -89 -164z" />
<glyph horiz-adv-x="530" d="M93 0h-40l90 422q12 56 19 117h134q78 0 123 -34.5t45 -92.5q0 -65 -44 -113.5t-120 -66.5l117 -232l-40 -8l-115 230h-122zM287 506h-86l-54 -251h83q86 0 138.5 42t52.5 111q0 44 -33.5 71t-100.5 27zM232 -130q0 -24 -15 -42.5t-34 -18.5q-27 0 -27 30q0 23 15.5 41.5 t33.5 18.5q27 0 27 -29z" />
<glyph horiz-adv-x="459" d="M367 156q0 -69 -61.5 -116.5t-150.5 -47.5q-74 0 -133 28l16 40q52 -32 130 -32q68 0 112.5 33t44.5 85q0 30 -22.5 54t-54.5 41t-63.5 34.5t-54 44.5t-22.5 62q0 69 60.5 117t148.5 48q74 0 123 -26l-16 -40q-47 30 -116 30q-68 0 -113 -33.5t-45 -84.5q0 -30 22.5 -54 t54 -41.5t63.5 -35.5t54.5 -45t22.5 -61z" />
<glyph horiz-adv-x="459" d="M424 771l1 -8q-79 -87 -194 -151l-7 13q114 96 164 162zM367 156q0 -69 -61.5 -116.5t-150.5 -47.5q-74 0 -133 28l16 40q52 -32 130 -32q68 0 112.5 33t44.5 85q0 30 -22.5 54t-54.5 41t-63.5 34.5t-54 44.5t-22.5 62q0 69 60.5 117t148.5 48q74 0 123 -26l-16 -40 q-47 30 -116 30q-68 0 -113 -33.5t-45 -84.5q0 -30 22.5 -54t54 -41.5t63.5 -35.5t54.5 -45t22.5 -61z" />
<glyph horiz-adv-x="459" d="M443 785l11 -11q-82 -87 -133 -154l-44 -5q-31 79 -78 159l15 11q47 -57 94 -126q56 56 135 126zM367 156q0 -69 -61.5 -116.5t-150.5 -47.5q-74 0 -133 28l16 40q52 -32 130 -32q68 0 112.5 33t44.5 85q0 30 -22.5 54t-54.5 41t-63.5 34.5t-54 44.5t-22.5 62 q0 69 60.5 117t148.5 48q74 0 123 -26l-16 -40q-47 30 -116 30q-68 0 -113 -33.5t-45 -84.5q0 -30 22.5 -54t54 -41.5t63.5 -35.5t54.5 -45t22.5 -61z" />
<glyph horiz-adv-x="459" d="M248 -100q0 -37 -45 -63.5t-99 -33.5l-1 22q102 23 102 66q0 27 -55 33l-5 11l31 58q-7 -1 -21 -1q-74 0 -133 28l16 40q52 -32 130 -32q68 0 112.5 33t44.5 85q0 30 -22.5 54t-54.5 41t-63.5 34.5t-54 44.5t-22.5 62q0 69 60.5 117t148.5 48q74 0 123 -26l-16 -40 q-47 30 -116 30q-68 0 -113 -33.5t-45 -84.5q0 -30 22.5 -54t54 -41.5t63.5 -35.5t54.5 -45t22.5 -61q0 -58 -44.5 -101.5t-114.5 -57.5l-24 -44q64 -10 64 -53z" />
<glyph horiz-adv-x="459" d="M209 614l-11 11q82 87 133 154l44 5q31 -79 78 -159l-15 -11q-47 57 -94 126q-56 -56 -135 -126zM367 156q0 -69 -61.5 -116.5t-150.5 -47.5q-74 0 -133 28l16 40q52 -32 130 -32q68 0 112.5 33t44.5 85q0 30 -22.5 54t-54.5 41t-63.5 34.5t-54 44.5t-22.5 62 q0 69 60.5 117t148.5 48q74 0 123 -26l-16 -40q-47 30 -116 30q-68 0 -113 -33.5t-45 -84.5q0 -30 22.5 -54t54 -41.5t63.5 -35.5t54.5 -45t22.5 -61z" />
<glyph horiz-adv-x="459" d="M367 156q0 -69 -61.5 -116.5t-150.5 -47.5q-74 0 -133 28l16 40q52 -32 130 -32q68 0 112.5 33t44.5 85q0 30 -22.5 54t-54.5 41t-63.5 34.5t-54 44.5t-22.5 62q0 69 60.5 117t148.5 48q74 0 123 -26l-16 -40q-47 30 -116 30q-68 0 -113 -33.5t-45 -84.5q0 -30 22.5 -54 t54 -41.5t63.5 -35.5t54.5 -45t22.5 -61zM98 -291q37 53 54 94h-2q-28 0 -28 32q0 21 14.5 40t37.5 19q30 0 30 -32q0 -65 -89 -164z" />
<glyph horiz-adv-x="459" d="M367 156q0 -69 -61.5 -116.5t-150.5 -47.5q-74 0 -133 28l16 40q52 -32 130 -32q68 0 112.5 33t44.5 85q0 30 -22.5 54t-54.5 41t-63.5 34.5t-54 44.5t-22.5 62q0 69 60.5 117t148.5 48q74 0 123 -26l-16 -40q-47 30 -116 30q-68 0 -113 -33.5t-45 -84.5q0 -30 22.5 -54 t54 -41.5t63.5 -35.5t54.5 -45t22.5 -61zM202 -130q0 -24 -15 -42.5t-34 -18.5q-27 0 -27 30q0 23 15.5 41.5t33.5 18.5q27 0 27 -29z" />
<glyph horiz-adv-x="557" d="M75 -10l-38 10q33 49 54 138l49 227q19 87 77.5 134.5t132.5 47.5q64 0 105.5 -30.5t38.5 -86.5l-188 -145q77 -15 126.5 -50.5t49.5 -90.5q0 -64 -53 -108t-131 -44q-63 0 -98 19l9 40q40 -23 102 -23q56 0 92.5 30t36.5 77t-51 79t-136 46l6 27l190 149q-7 35 -36 54 t-70 19q-56 0 -102.5 -38t-60.5 -105l-52 -242q-17 -81 -53 -134z" />
<glyph horiz-adv-x="513" d="M225 0h-40l107 506q-81 0 -183 -5l11 38h397l-5 -38q-100 5 -180 5z" />
<glyph horiz-adv-x="513" d="M225 0h-40l56 263h-160l6 30h160l45 213q-81 0 -183 -5l11 38h397l-5 -38q-100 5 -180 5l-45 -213h160l-6 -30h-160z" />
<glyph horiz-adv-x="513" d="M470 785l11 -11q-82 -87 -133 -154l-44 -5q-31 79 -78 159l15 11q47 -57 94 -126q56 56 135 126zM225 0h-40l107 506q-81 0 -183 -5l11 38h397l-5 -38q-100 5 -180 5z" />
<glyph horiz-adv-x="513" d="M225 0h-5l-26 -47q64 -10 64 -53q0 -37 -45 -63.5t-99 -33.5l-1 22q102 23 102 66q0 27 -55 33l-5 11l35 65h-5l107 506q-81 0 -183 -5l11 38h397l-5 -38q-100 5 -180 5z" />
<glyph horiz-adv-x="513" d="M225 0h-40l107 506q-81 0 -183 -5l11 38h397l-5 -38q-100 5 -180 5zM108 -291q37 53 54 94h-2q-28 0 -28 32q0 21 14.5 40t37.5 19q30 0 30 -32q0 -65 -89 -164z" />
<glyph horiz-adv-x="513" d="M225 0h-40l107 506q-81 0 -183 -5l11 38h397l-5 -38q-100 5 -180 5zM212 -130q0 -24 -15 -42.5t-34 -18.5q-27 0 -27 30q0 23 15.5 41.5t33.5 18.5q27 0 27 -29z" />
<glyph horiz-adv-x="570" d="M136 423q13 69 16 118l49 6l1 -2l-79 -372q-14 -68 20 -105.5t99 -37.5q66 0 117 37.5t65 105.5l53 252q15 72 17 116l49 6l-79 -373q-19 -87 -84 -134.5t-150 -47.5q-82 0 -123.5 48t-23.5 134z" />
<glyph horiz-adv-x="570" d="M485 771l1 -8q-79 -87 -194 -151l-7 13q114 96 164 162zM136 423q13 69 16 118l49 6l1 -2l-79 -372q-14 -68 20 -105.5t99 -37.5q66 0 117 37.5t65 105.5l53 252q15 72 17 116l49 6l-79 -373q-19 -87 -84 -134.5t-150 -47.5q-82 0 -123.5 48t-23.5 134z" />
<glyph horiz-adv-x="570" d="M484 762l22 -3q-23 -57 -63 -89.5t-85 -32.5t-69.5 32.5t-20.5 89.5l23 3q2 -39 23.5 -60.5t57.5 -21.5q33 0 62.5 22t49.5 60zM136 423q13 69 16 118l49 6l1 -2l-79 -372q-14 -68 20 -105.5t99 -37.5q66 0 117 37.5t65 105.5l53 252q15 72 17 116l49 6l-79 -373 q-19 -87 -84 -134.5t-150 -47.5q-82 0 -123.5 48t-23.5 134z" />
<glyph horiz-adv-x="570" d="M504 785l11 -11q-82 -87 -133 -154l-44 -5q-31 79 -78 159l15 11q47 -57 94 -126q56 56 135 126zM136 423q13 69 16 118l49 6l1 -2l-79 -372q-14 -68 20 -105.5t99 -37.5q66 0 117 37.5t65 105.5l53 252q15 72 17 116l49 6l-79 -373q-19 -87 -84 -134.5t-150 -47.5 q-82 0 -123.5 48t-23.5 134z" />
<glyph horiz-adv-x="570" d="M270 614l-11 11q82 87 133 154l44 5q31 -79 78 -159l-15 -11q-47 57 -94 126q-56 -56 -135 -126zM136 423q13 69 16 118l49 6l1 -2l-79 -372q-14 -68 20 -105.5t99 -37.5q66 0 117 37.5t65 105.5l53 252q15 72 17 116l49 6l-79 -373q-19 -87 -84 -134.5t-150 -47.5 q-82 0 -123.5 48t-23.5 134z" />
<glyph horiz-adv-x="570" d="M330 715q0 -24 -14.5 -43t-33.5 -19q-26 0 -26 30q0 22 15.5 41t33.5 19q25 0 25 -28zM518 715q0 -24 -14.5 -43t-33.5 -19q-26 0 -26 30q0 22 15.5 41t33.5 19q25 0 25 -28zM136 423q13 69 16 118l49 6l1 -2l-79 -372q-14 -68 20 -105.5t99 -37.5q66 0 117 37.5 t65 105.5l53 252q15 72 17 116l49 6l-79 -373q-19 -87 -84 -134.5t-150 -47.5q-82 0 -123.5 48t-23.5 134z" />
</font>
</defs>
</svg>
