<?xml version="1.0" standalone="no"?>
<!DOCTYPE svg PUBLIC "-//W3C//DTD SVG 1.1//EN" "http://www.w3.org/Graphics/SVG/1.1/DTD/svg11.dtd" >
<svg xmlns="http://www.w3.org/2000/svg" xmlns:xlink="http://www.w3.org/1999/xlink" version="1.1">
<metadata></metadata>
<defs>
<font id="indivisa_display_sansHvIt" horiz-adv-x="617" >
<font-face units-per-em="1000" ascent="815" descent="-185" />
<missing-glyph horiz-adv-x="210" />
<glyph unicode="&#x2f;symbol&#x33;&#x2f;" horiz-adv-x="957" d="M505 638l68 -270h270l-203 -135l136 -270l-271 135l-270 -270l135 405l-270 203l338 -68zM814 87q18 0 30.5 -12.5t12.5 -31.5q0 -18 -12.5 -30.5t-30.5 -12.5t-30.5 12.5t-12.5 30.5q0 19 12.5 31.5t30.5 12.5zM854 43q0 17 -11.5 29t-28.5 12t-28.5 -12t-11.5 -29 t12 -28.5t28 -11.5t28 11.5t12 28.5zM796 68h18q8 0 11 -2q6 -3 6 -10q0 -5 -4 -9q-3 -3 -6 -3q7 -3 8 -10q2 -14 3 -16h-7q-1 2 -2 7.5t-1 6.5q0 9 -10 9h-9v-23h-7v50zM803 47h10q5 0 7 1q3 3 3 6q0 9 -10 9h-10v-16z" />
<glyph unicode="&#x2f;symbol&#x32;&#x2f;" horiz-adv-x="932" d="M494 570l52 -90l-137 -240h-103l137 240l-52 90h103zM357 570l52 -90l-138 -240h-103l138 240l-52 90h103zM752 120h-103l-137 240l51 90l137 -240h103zM683 0h-103l-137 240l51 90l138 -240h103zM100 120l51 90h275l51 -90h-274l-52 -90zM168 0l52 90h274l52 -90h-275 l-51 -90zM789 88q18 0 30.5 -13t12.5 -31t-12.5 -31t-30.5 -13t-30.5 13t-12.5 31t12.5 31t30.5 13zM829 44q0 16 -11.5 28t-28.5 12t-28.5 -12t-11.5 -28t11.5 -28t28.5 -12t28.5 12t11.5 28zM771 69h18q7 0 11 -2q5 -4 5 -11q0 -5 -3 -8q-1 -2 -6 -4q7 -1 8 -9q0 -8 3 -16 h-8q-1 2 -1.5 6.5t-0.5 6.5q-1 10 -11 10h-8v-23h-7v50zM778 47h10q5 0 7 1q3 3 3 7q0 8 -10 8h-10v-16z" />
<glyph unicode="&#x2f;symbol&#x31;&#x2f;" horiz-adv-x="5534" d="M1865 412q-25 0 -40.5 14.5t-15.5 37.5q0 35 32.5 64t70.5 29q24 0 39 -13.5t15 -37.5q0 -36 -31 -65t-70 -29zM1284 412q-26 0 -41.5 14.5t-15.5 37.5q0 35 33 64t71 29q24 0 38.5 -13.5t14.5 -37.5q0 -36 -31 -65t-69 -29zM959 0q0 42 11 108q-16 -50 -51.5 -82.5 t-78.5 -32.5q-41 0 -63 29.5t-22 82.5q0 62 27 121t84 101t132 42q17 0 25 -1l16 73l6 102l136 7q0 -67 -46 -273t-46 -277h-130zM100 0l78 364q17 86 21 136l128 7l11 -15l-104 -492h-134zM3503 492l-57 -492h-131l20 175q5 50 33 215h-3q-31 -102 -81 -215l-76 -175h-149 l-2 175q-2 121 9 215h-2q-32 -130 -59 -215l-53 -175h-109l154 500l184 6l1 -137q2 -134 -15 -259h2q39 126 94 259l56 131l169 7zM5316 300q-37 -177 -37 -183q0 -34 36 -34q25 0 59 18l-9 -79q-52 -29 -114 -29q-105 0 -105 100q0 20 40 210l-47 1l9 44l54 14l53 95l81 6 l13 -15l-20 -86h99l6 -14l-17 -51zM336 0q0 79 41 260l6 102l137 7q0 -31 -7 -89h2q52 89 134 89q34 0 53 -19.5t19 -51.5q0 -27 -26 -147q-18 -85 -18 -151h-131q0 55 19 150q15 78 15 87q0 24 -17 24q-34 0 -64 -82.5t-32 -178.5h-131zM1170 0q0 72 27 193l14 67l6 102 l137 7q0 -46 -27 -177t-27 -192h-130zM1399 362l140 7q13 -129 -5 -289h2q76 151 91 284q22 5 50 5q32 0 48.5 -8.5t16.5 -33.5q0 -46 -51 -147.5t-116 -179.5h-149q-5 228 -27 362zM1752 0q0 69 26 193l15 67l6 102l137 7q0 -46 -27 -177t-27 -192h-130zM4716 0 q0 79 41 260l6 102l137 7q0 -12 -7 -89h2q52 89 134 89q34 0 53 -19.5t19 -51.5q0 -27 -26 -147q-19 -90 -19 -151h-130q0 55 19 150q15 78 15 87q0 24 -17 24q-35 0 -65 -82t-32 -179h-130zM2245 256q-52 30 -97 30q-18 0 -30 -7t-12 -19q0 -14 20 -26.5t44 -22t44 -33 t20 -56.5q0 -57 -53 -93t-128 -36q-78 0 -118 28l27 93q57 -38 111 -38q19 0 29.5 7.5t10.5 18.5q0 13 -20 26t-44 23t-44 33t-20 55q0 56 54.5 93t128.5 37q58 0 104 -18zM2525 369q88 0 146 -32l-29 -128q-31 -145 -31 -209h-130q0 37 12 112q-15 -52 -51 -85.5t-81 -33.5 q-41 0 -62.5 29.5t-21.5 83.5q0 62 26.5 120.5t85 100.5t136.5 42zM4653 51q-67 -58 -159 -58q-65 0 -103.5 35t-38.5 102q0 94 68.5 166.5t167.5 72.5q54 0 86.5 -23.5t32.5 -64.5q0 -57 -60 -96.5t-161 -43.5v-1q0 -64 63 -64q42 0 90 28zM3936 0q0 74 42 260l5 102l137 7 q0 -31 -7 -89h2q53 89 134 89q34 0 53 -19.5t19 -51.5q0 -27 -26 -147q-18 -85 -18 -151h-131q0 55 19 150q15 71 15 87q0 24 -17 24q-34 0 -64 -82.5t-32 -178.5h-131zM3768 369q87 0 145 -32l-28 -128q-31 -145 -31 -209h-130q0 45 12 112q-15 -52 -51 -85.5t-81 -33.5 q-41 0 -63 29.5t-22 83.5q0 46 16 91.5t46 84t79 63t108 24.5zM4490 177q47 10 73 34t26 59q0 31 -22 31q-28 0 -48.5 -38.5t-28.5 -85.5zM3677 101q23 0 47 43t38 101q1 8 4.5 24.5t4.5 19.5q-16 8 -27 8q-34 0 -62.5 -54.5t-28.5 -101.5q0 -40 24 -40zM913 101 q22 0 44.5 39.5t37.5 94.5q1 9 8 40l3 14q-14 8 -27 8q-33 0 -61.5 -54.5t-28.5 -101.5q0 -40 24 -40zM2435 101q23 0 47 43.5t37 100.5q3 14 9 44q-14 8 -27 8q-34 0 -62 -54.5t-28 -101.5q0 -40 24 -40z" />
<glyph unicode="&#x2f;symbol&#x35;&#x2f;" horiz-adv-x="705" d="M232 -6l-132 136l124 234l129 -136zM474 -6l-121 234l128 136l124 -234z" />
<glyph unicode="&#x2f;symbol&#x34;&#x2f;" horiz-adv-x="2607" d="M1684 406q0 65 -11 128l126 14l15 -15v-533h-130v406zM1889 406q0 62 -10 128l126 14l14 -15v-533h-130v406zM427 101v-101h-320v362q0 80 -7 135l126 7l14 -14v-396zM925 21l7 109q62 -36 144 -36q50 0 50 36q0 20 -31.5 41.5t-69 40.5t-69 57t-31.5 88q0 69 55 108 t138 39q80 0 127 -18l-14 -111q-56 29 -111 29q-27 0 -42.5 -11t-15.5 -29q0 -20 20.5 -38t50 -34t59.5 -35t50.5 -51t20.5 -72q0 -66 -53.5 -103.5t-139.5 -37.5q-41 0 -83.5 8t-61.5 20zM795 0l-106 -7q-11 16 -21 49h-4q-34 -49 -104 -49q-43 0 -70 23t-27 66 q0 113 191 118v20q0 54 -58 54q-55 0 -108 -29l-8 97q72 26 150 26q154 0 154 -135q0 -25 -2 -69t-2 -70q0 -51 15 -94zM1626 0l-107 -7q-12 20 -21 49h-3q-34 -49 -105 -49q-43 0 -69.5 23t-26.5 66q0 113 191 118v20q0 54 -58 54q-54 0 -109 -29l-7 97q72 26 150 26 q153 0 153 -135q0 -25 -1.5 -69.5t-1.5 -69.5q0 -51 15 -94zM2405 213q0 -24 -1 -36l-11 -11h-191q14 -83 98 -83q44 0 84 21l7 -81q-46 -30 -127 -30q-90 0 -144 47.5t-54 134.5q0 85 52 139t132 54q72 0 113.5 -43t41.5 -112zM2199 207l78 4q2 14 2 26q0 59 -34 59 q-44 0 -46 -89zM654 74v88q-29 -3 -47 -18t-18 -39q0 -18 10 -29t27 -11q16 0 28 9zM1485 74v88q-29 -3 -47 -18t-18 -39q0 -18 10 -29t27 -11q16 0 28 9zM2464 85q18 0 30.5 -13t12.5 -31t-12.5 -31t-30.5 -13t-31 13t-13 31t13 31t31 13zM2504 41q0 17 -12 28.5t-28 11.5 t-28 -11.5t-12 -28.5t12 -28.5t28 -11.5t28 11.5t12 28.5zM2446 66h18q7 0 11 -3q5 -3 5 -10q0 -5 -3 -9q-3 -3 -6 -3q7 -1 8 -10q0 -7 3 -15h-8q-1 2 -1.5 6.5t-0.5 6.5q-1 9 -11 9h-8v-22h-7v50zM2453 44h10q5 0 7 1q3 3 3 7q0 8 -10 8h-10v-16z" />
<glyph unicode=" "  horiz-adv-x="210" />
<glyph unicode="&#x09;" horiz-adv-x="210" />
<glyph unicode="&#xa0;" horiz-adv-x="210" />
<glyph unicode="!" horiz-adv-x="316" d="M220 204h-140q44 276 59 481l218 10q-8 -57 -20 -110q-48 -218 -117 -381zM219 104q0 -41 -41.5 -74t-94.5 -33q-34 0 -55 15.5t-21 42.5q0 41 41.5 75t95.5 34q34 0 54.5 -15.5t20.5 -44.5z" />
<glyph unicode="&#x22;" horiz-adv-x="438" d="M283 695l-110 -317h-59l26 317h143zM488 695l-110 -317h-59l26 317h143z" />
<glyph unicode="#" horiz-adv-x="771" d="M562 164h-113l-80 -174l-88 16l-5 6l70 152h-111l-80 -174l-88 16l-5 6l70 152h-104l-5 6l31 84h119l66 142h-109l-5 6l31 84h124l80 174l88 -16l4 -6l-70 -152h112l80 174l88 -16l4 -6l-70 -152h94l5 -6l-31 -84h-109l-65 -142h98l5 -6zM276 254h111l66 142h-112z" />
<glyph unicode="$" horiz-adv-x="534" d="M135 -123l24 114q-113 4 -173 26l67 186q35 -32 77.5 -52.5t75.5 -20.5q27 0 42.5 11t15.5 29t-19.5 36t-46.5 37t-54.5 42t-47 59.5t-19.5 81.5q0 86 66.5 147t176.5 80l25 117l70 3l-24 -113h15q87 0 159 -23l-71 -177q-70 60 -133 60q-28 0 -43.5 -12t-15.5 -31 q0 -17 14 -34t34.5 -30.5t44.5 -32.5t44.5 -39.5t34.5 -52.5t14 -70q0 -93 -74.5 -153t-184.5 -72l-24 -113z" />
<glyph unicode="%" horiz-adv-x="978" d="M293 -10h-115l542 670h116zM473 509q0 -91 -67.5 -156.5t-176.5 -65.5q-74 0 -112.5 36t-38.5 105q0 92 68.5 159.5t176.5 67.5q72 0 111 -38t39 -108zM226 397q0 -38 24 -38q32 0 53.5 65.5t21.5 122.5q0 36 -22 36q-34 0 -55.5 -66t-21.5 -120zM931 217 q0 -91 -67.5 -156.5t-176.5 -65.5q-74 0 -112.5 36t-38.5 105q0 92 68.5 159.5t176.5 67.5q72 0 111 -38t39 -108zM684 105q0 -38 24 -38q32 0 53.5 65.5t21.5 122.5q0 36 -22 36q-34 0 -55.5 -66t-21.5 -120z" />
<glyph unicode="&#x26;" horiz-adv-x="860" d="M755 98q0 -48 -34.5 -76t-89.5 -32l-7 7q5 10 5 23q0 42 -86 91q-138 -121 -311 -121q-102 0 -157.5 42t-55.5 106q0 63 52.5 116t132.5 72q-41 56 -41 117q0 97 87 157t217 60q88 0 142 -28t54 -79q0 -44 -40.5 -68.5t-104.5 -30.5q234 6 296 13q0 -65 -22 -147 q-49 5 -98 15q-17 -48 -40 -88q101 -73 101 -149zM378 486q0 -25 15 -49.5t41 -45.5t57.5 -41.5t67.5 -41.5q2 -1 3.5 -2t3.5 -2l4 -2q7 34 8 69q-60 24 -110 55v21q15 32 15 57q0 46 -44 46q-27 0 -44 -18t-17 -46zM234 199q0 -52 35 -80.5t93 -28.5q76 0 128 49 q-10 5 -38.5 19t-42.5 21t-39.5 21t-42 24t-37 24t-36.5 27q-20 -35 -20 -76z" />
<glyph unicode="'" horiz-adv-x="233" d="M283 695l-110 -317h-59l26 317h143z" />
<glyph unicode="(" horiz-adv-x="414" d="M49 201q0 155 108.5 293t268.5 201l36 -76q-90 -82 -144 -206.5t-54 -248.5q0 -127 57 -211l-69 -76q-96 46 -149.5 132.5t-53.5 191.5z" />
<glyph unicode=")" horiz-adv-x="413" d="M380 371q0 -155 -108.5 -293t-268.5 -201l-36 76q90 82 144 206.5t54 248.5q0 127 -57 211l69 76q96 -46 149.5 -132.5t53.5 -191.5z" />
<glyph unicode="*" horiz-adv-x="442" d="M219 411l41 111l-101 -71l-23 62l114 40l-97 40l49 62l72 -70l6 110h72l-42 -112l102 72l23 -62l-114 -40l97 -40l-49 -62l-72 72l-6 -112h-72z" />
<glyph unicode="+" horiz-adv-x="591" d="M511 256h-143l-30 -144h-147l29 144h-139l28 132q102 3 139 3l30 148h150l-31 -146q56 1 145 1z" />
<glyph unicode="," horiz-adv-x="296" d="M195 95q0 -69 -71.5 -147t-149.5 -107l-23 38q70 50 106 114q-46 12 -46 61q0 43 34 76.5t80 33.5q33 0 51.5 -19t18.5 -50z" />
<glyph unicode="-" horiz-adv-x="388" d="M29 241l6 60h328l-6 -60h-328z" />
<glyph unicode="." horiz-adv-x="311" d="M96 -10q-31 0 -50.5 18t-19.5 48q0 42 36 75t83 33q31 0 49.5 -16t18.5 -44q0 -44 -35.5 -79t-81.5 -35z" />
<glyph unicode="/" horiz-adv-x="369" d="M310 703l109 -28l-322 -697l-109 28z" />
<glyph unicode="0" horiz-adv-x="657" d="M648 421q0 -109 -46.5 -206.5t-137 -161t-203.5 -63.5q-102 0 -161.5 57t-59.5 177q0 109 47.5 208t138 163.5t202.5 64.5q105 0 162.5 -60.5t57.5 -178.5zM260 183q0 -83 38 -83q36 0 67 68.5t47 153t16 150.5q0 78 -35 78q-29 0 -55 -41t-42.5 -100t-26 -120t-9.5 -106 z" />
<glyph unicode="1" horiz-adv-x="440" d="M282 0h-210l111 525l-104 -45l-5 93l336 87l10 -10z" />
<glyph unicode="2" horiz-adv-x="573" d="M441 0h-439l10 118q96 61 204.5 170.5t108.5 178.5q0 27 -19 42.5t-54 15.5q-74 0 -149 -62l13 142q116 55 237 55q93 0 145 -38t52 -105q0 -53 -34 -106.5t-92 -98.5t-123.5 -81.5t-139.5 -66.5h126q103 0 201 15z" />
<glyph unicode="3" horiz-adv-x="520" d="M456 200q0 -94 -93 -152t-220 -58q-96 0 -163 23l40 114q43 -27 101 -27q50 0 82.5 32t32.5 72q0 35 -25.5 51.5t-63.5 16.5q-29 0 -61 -6l15 67q81 26 135.5 65t54.5 81q0 22 -18.5 34t-49.5 12q-61 0 -129 -35l19 121q100 49 216 49q87 0 134.5 -34t47.5 -91 q0 -69 -65.5 -117.5t-167.5 -74.5q81 -6 129.5 -41.5t48.5 -101.5z" />
<glyph unicode="4" horiz-adv-x="633" d="M436 0h-210l21 97h-256l10 86l425 477l148 -10l-84 -394q53 5 86 10l-45 -169h-74zM328 479l-211 -228h162z" />
<glyph unicode="5" horiz-adv-x="564" d="M506 234q0 -112 -99 -178t-242 -66q-94 0 -165 23l39 110q53 -23 120 -23q57 0 92 35t35 83q0 70 -79 70q-27 0 -109 -18l-12 9l79 371h238q99 0 182 10l-46 -174h-308l-27 -129q70 21 135 21q81 0 124 -36.5t43 -107.5z" />
<glyph unicode="6" horiz-adv-x="602" d="M580 263q0 -110 -92.5 -191.5t-227.5 -81.5q-101 0 -163 53.5t-62 166.5q0 86 37.5 168t100.5 144t150.5 100t181.5 38q77 0 100 -10l-39 -111q-31 11 -65 11q-58 0 -115.5 -52t-93.5 -154q59 61 150 61q66 0 102 -38t36 -104zM255 154q0 -30 7 -42t23 -12 q37 0 58.5 47.5t21.5 103.5q0 65 -36 65q-23 0 -50 -16q-24 -83 -24 -146z" />
<glyph unicode="7" horiz-adv-x="547" d="M264 0h-235q39 139 143.5 270.5t256.5 215.5h-146q-103 0 -201 -15l47 179h450l10 -10l-15 -100q-239 -230 -310 -540z" />
<glyph unicode="8" horiz-adv-x="626" d="M11 125q0 58 55.5 105t145.5 69q-107 67 -107 156q0 87 88 146t217 59q97 0 153.5 -35.5t56.5 -97.5q0 -58 -48.5 -101t-127.5 -63q133 -60 133 -162q0 -88 -97 -149.5t-238 -61.5q-106 0 -168.5 37t-62.5 98zM311 492q0 -45 57 -87q48 49 48 105q0 24 -11 37t-30 13 q-25 0 -44.5 -19t-19.5 -49zM221 149q0 -26 16 -42.5t47 -16.5q35 0 60 20.5t25 56.5q0 29 -20 49t-63 40q-65 -51 -65 -107z" />
<glyph unicode="9" horiz-adv-x="601" d="M598 441q0 -86 -38.5 -168.5t-102.5 -144.5t-154 -100t-187 -38q-60 0 -83 10l38 111q33 -11 66 -11q57 0 111.5 44.5t88.5 133.5q-61 -53 -141 -53q-63 0 -103 41t-40 115q0 116 94.5 197.5t227.5 81.5q101 0 162 -53.5t61 -165.5zM268 386q0 -72 41 -72q24 0 46 19 q23 82 23 155q0 62 -30 62q-36 0 -58 -54t-22 -110z" />
<glyph unicode=":" horiz-adv-x="311" d="M162 300q-31 0 -50.5 18t-19.5 48q0 42 36 75t83 33q31 0 49.5 -16t18.5 -44q0 -44 -35.5 -79t-81.5 -35zM96 -10q-31 0 -50.5 18t-19.5 48q0 42 36 75t83 33q31 0 49.5 -16t18.5 -44q0 -44 -35.5 -79t-81.5 -35z" />
<glyph unicode=";" horiz-adv-x="311" d="M159 300q-31 0 -50.5 18t-19.5 48q0 42 36 75t83 33q31 0 49.5 -16t18.5 -44q0 -44 -35.5 -79t-81.5 -35zM210 95q0 -69 -71.5 -147t-149.5 -107l-23 38q70 50 106 114q-46 12 -46 61q0 43 34 76.5t80 33.5q33 0 51.5 -19t18.5 -50z" />
<glyph unicode="&#x3c;" horiz-adv-x="595" d="M582 563l-34 -160l-261 -81l227 -77l-35 -160q-61 22 -192 80.5t-204 96.5l26 124z" />
<glyph unicode="=" horiz-adv-x="592" d="M534 363h-430l28 132q147 6 433 6zM489 149h-430l28 132q147 6 433 6z" />
<glyph unicode="&#x3e;" horiz-adv-x="595" d="M45 85l34 160l261 81l-227 77l35 160q61 -22 192 -80.5t204 -96.5l-26 -124z" />
<glyph unicode="?" horiz-adv-x="530" d="M294 204h-140q-10 27 -2 61q7 31 26 59.5t42 49t45.5 38.5t39 35t19.5 32q3 16 -9 23.5t-32 7.5q-65 0 -141 -56l-54 115q128 91 262 91q99 0 152 -50.5t37 -128.5q-9 -42 -36 -75.5t-59.5 -54.5t-64 -39t-54.5 -39t-26 -45q-1 -12 -5 -24zM290 102q0 -41 -41.5 -74 t-94.5 -33q-34 0 -55 15.5t-21 42.5q0 41 41.5 75t95.5 34q34 0 54.5 -15.5t20.5 -44.5z" />
<glyph unicode="@" horiz-adv-x="1103" d="M783 -124q-54 -31 -132.5 -51t-161.5 -20q-188 0 -303.5 103.5t-115.5 270.5q0 136 77 255t208 190t281 71q177 0 289.5 -97.5t112.5 -256.5q0 -137 -79.5 -244t-192.5 -107q-80 0 -123.5 52.5t-37.5 117.5h-2q-22 -65 -80 -117.5t-130 -52.5q-65 0 -104 45.5t-39 122.5 q0 63 27.5 125.5t75.5 113t120 82t154 31.5q51 0 115.5 -11.5t110.5 -32.5l-56 -265q-14 -70 -3.5 -103.5t41.5 -33.5q54 0 103.5 87t49.5 189q0 137 -97.5 223.5t-253.5 86.5q-131 0 -249.5 -60.5t-193 -168.5t-74.5 -235q0 -151 104 -243.5t274 -92.5q121 0 266 62z M497 140q33 0 65 52t47 123l16 77q-21 8 -34 8q-48 0 -87.5 -71.5t-39.5 -134.5q0 -54 33 -54z" />
<glyph unicode="A" horiz-adv-x="647" d="M152 0h-195l264 520l61 131l264 9l38 -660h-206l-1 125h-170zM372 503l-122 -278h126l-2 278h-2z" />
<glyph unicode="B" horiz-adv-x="646" d="M329 0h-297l110 520l18 130h296q87 0 134 -37.5t47 -103.5q0 -57 -34 -104.5t-91 -75.5q88 -32 88 -115q0 -87 -78.5 -150.5t-192.5 -63.5zM372 540h-15l-35 -165h15q46 0 72 30t26 73q0 62 -63 62zM328 265h-30l-33 -155h30q44 0 71.5 31t27.5 70q0 54 -66 54z" />
<glyph unicode="C" horiz-adv-x="574" d="M504 172l-10 -150q-93 -32 -189 -32q-263 0 -263 246q0 175 121.5 299.5t294.5 124.5q92 0 167 -28l-55 -167q-22 22 -57 38.5t-71 16.5q-77 0 -121 -78.5t-44 -177.5q0 -62 23.5 -94.5t80.5 -32.5q68 0 123 35z" />
<glyph unicode="D" horiz-adv-x="694" d="M142 520l18 130h268q125 0 189.5 -61.5t64.5 -181.5q0 -108 -46.5 -199.5t-139.5 -149.5t-214 -58h-250zM454 416q0 67 -25 87.5t-76 21.5l-84 -400h12q42 0 76.5 30t55 76t31 94t10.5 91z" />
<glyph unicode="E" horiz-adv-x="550" d="M457 0h-425l108 511l20 139h420l-38 -130l-187 10l-32 -150l171 5l-36 -120l-159 5l-32 -150l217 10z" />
<glyph unicode="F" horiz-adv-x="525" d="M242 0h-210l108 511l20 139h420l-38 -130l-187 10l-41 -193l5 25l171 5l-36 -120l-159 5z" />
<glyph unicode="G" horiz-adv-x="627" d="M534 22q-110 -32 -217 -32q-276 0 -276 245q0 173 125 299t310 126q94 0 171 -28l-55 -167q-22 22 -57.5 38.5t-73.5 16.5q-87 0 -137 -79t-50 -184q0 -132 99 -144l15 72l18 130l192 10z" />
<glyph unicode="H" horiz-adv-x="725" d="M242 0h-210l110 520l18 130l222 10l-64 -303h145l34 163l18 130l222 11l-140 -661h-210l53 252h-145z" />
<glyph unicode="I" horiz-adv-x="370" d="M242 0h-210l110 520l18 130l222 10z" />
<glyph unicode="J" horiz-adv-x="370" d="M-81 -109q48 14 78.5 53t41.5 92l103 484l18 130l222 10l-107 -504q-9 -44 -17 -74t-22.5 -68.5t-31 -64t-43.5 -53t-60.5 -45t-80.5 -30t-105 -16.5z" />
<glyph unicode="K" horiz-adv-x="659" d="M142 520l18 130l222 10l-62 -292h52l164 292l193 -10l-205 -330l77 -320l-221 -10l-32 273h-50l-56 -263h-210z" />
<glyph unicode="L" horiz-adv-x="515" d="M452 0h-420l110 520l18 130l222 10l-115 -540l215 20z" />
<glyph unicode="M" horiz-adv-x="939" d="M297 471h-1l-144 -471h-165l222 650l281 10l-39 -505h2l170 495l285 10l-57 -660h-215l60 471h-1l-183 -471h-236z" />
<glyph unicode="N" horiz-adv-x="705" d="M142 520l18 130l161 10l165 -372h2l62 362l167 10l-140 -660h-170l-150 342h-2l-58 -342h-165z" />
<glyph unicode="O" horiz-adv-x="678" d="M670 425q0 -111 -49 -210t-142.5 -162t-210.5 -63q-110 0 -169.5 58t-59.5 174q0 83 29.5 162t81.5 140t128.5 98.5t164.5 37.5q110 0 168.5 -59.5t58.5 -175.5zM269 192q0 -92 43 -92q35 0 66 68t46.5 151.5t15.5 145.5q0 85 -39 85q-37 0 -68.5 -66t-47.5 -147 t-16 -145z" />
<glyph unicode="P" horiz-adv-x="635" d="M242 0h-210l110 520l18 130h238q28 0 44 -0.5t46.5 -4t49.5 -10.5t43 -21t37.5 -33.5t23.5 -50.5t10 -71q0 -131 -96 -214t-263 -83h-17zM362 535h-6l-55 -259h13q59 0 91 58t32 122q0 28 -6.5 45.5t-20 24t-23 8t-25.5 1.5z" />
<glyph unicode="Q" horiz-adv-x="657" d="M702 -68q0 -59 -53.5 -93t-134.5 -34q-100 0 -189 52.5t-132 139.5q-153 37 -153 227q0 109 47.5 208t138 163.5t202.5 64.5q105 0 162.5 -60.5t57.5 -178.5q0 -154 -92 -279t-239 -148q85 -38 187 -38q55 0 104 10.5t72 20.5q22 -20 22 -55zM298 100q36 0 67 68.5 t47 153t16 150.5q0 78 -35 78q-29 0 -55 -41t-42.5 -100t-26 -120t-9.5 -106q0 -83 38 -83z" />
<glyph unicode="R" horiz-adv-x="646" d="M242 0h-210l110 520l18 130h265q230 0 230 -173q0 -76 -42.5 -135.5t-116.5 -95.5l77 -246l-225 -10l-28 213q-9 -1 -28 -1h-7zM359 535h-3l-47 -219h12q57 0 87.5 46t30.5 101q0 25 -7 41t-21 22t-24 7.5t-28 1.5z" />
<glyph unicode="S" horiz-adv-x="547" d="M501 218q0 -69 -45 -122t-116 -79.5t-153 -26.5q-46 0 -108 8t-94 19l69 186q36 -32 79.5 -52.5t77.5 -20.5q27 0 43.5 11t16.5 29t-20 36t-48 37t-56 42t-48 59.5t-20 81.5q0 103 95 168.5t242 65.5q88 0 164 -23l-73 -177q-72 60 -137 60q-29 0 -44.5 -12t-15.5 -31 q0 -17 14 -34t35.5 -30.5t46 -32.5t46 -39.5t35.5 -52.5t14 -70z" />
<glyph unicode="T" horiz-adv-x="548" d="M326 0h-210l109 515l-161 -10l40 145h510l-22 -145l-157 10z" />
<glyph unicode="U" horiz-adv-x="705" d="M328 110q31 0 53.5 28t32.5 77l63 305l18 130l222 10l-93 -436q-24 -111 -117.5 -172.5t-214.5 -61.5q-103 0 -161 46t-58 134q0 7 0.5 14t1.5 14.5t3.5 21.5t5.5 28.5t9 42t12 55.5t16.5 76.5t20.5 97.5l18 130l222 9q-21 -98 -50 -235q-49 -228 -49 -259 q0 -23 11.5 -39t33.5 -16z" />
<glyph unicode="V" horiz-adv-x="628" d="M515 660l193 -10l-306 -650h-295l-12 650l208 10l-4 -508h2z" />
<glyph unicode="W" horiz-adv-x="955" d="M70 0l25 650l208 10l-37 -508h2l178 498h264l-39 -498h2l181 508l181 -10l-279 -650h-288l52 468h-2l-160 -468h-288z" />
<glyph unicode="X" horiz-adv-x="627" d="M-43 0l251 315l-109 330l233 15l37 -210l156 210l176 -15l-244 -303l112 -342h-230l-50 200l-148 -200h-184z" />
<glyph unicode="Y" horiz-adv-x="602" d="M356 0h-210l43 202l-94 448l208 10l29 -292h2l155 292l193 -10l-283 -448z" />
<glyph unicode="Z" horiz-adv-x="538" d="M445 0h-443l-2 107l318 399q-148 -6 -225 -8l42 152h423l2 -106l-319 -400q42 3 124.5 8t123.5 8z" />
<glyph unicode="[" horiz-adv-x="444" d="M34 -3l125 583h-1l25 115h300l-25 -115h-103l-125 -583h104l-24 -115h-300z" />
<glyph unicode="\" horiz-adv-x="454" d="M156 -22l-26 697l121 28l26 -697z" />
<glyph unicode="]" horiz-adv-x="445" d="M278 -118h-300l25 115h103l125 583h-104l24 115h300l-24 -115l-125 -583h1z" />
<glyph unicode="^" horiz-adv-x="625" d="M229 200h-200l258 340h175l112 -340h-199l-41 154z" />
<glyph unicode="_" horiz-adv-x="470" d="M-92 -185l27 130h470l-27 -130h-470z" />
<glyph unicode="`" horiz-adv-x="351" d="M398 611l-31 -62q-129 28 -252 103l91 124q74 -75 192 -165z" />
<glyph unicode="a" horiz-adv-x="621" d="M11 128q0 49 15.5 101.5t47 102.5t75.5 90t106.5 64t133.5 24q112 0 212 -44l-38 -178q-28 -128 -28 -206q0 -45 8 -82h-210q-8 42 -8 78q0 43 10 102q-38 -82 -100.5 -136t-122.5 -54q-47 0 -74 36.5t-27 101.5zM226 176q0 -47 22 -47q30 0 68 82.5t64 199.5 q-16 4 -22 4q-48 0 -90 -84t-42 -155z" />
<glyph unicode="b" horiz-adv-x="607" d="M596 372q0 -49 -15.5 -101.5t-47 -102.5t-75.5 -90t-106.5 -64t-133.5 -24q-112 0 -212 44l108 510l8 141l230 10q-8 -69 -75 -366q39 79 99.5 130t118.5 51q47 0 74 -36.5t27 -101.5zM359 371q-30 0 -68.5 -82.5t-63.5 -199.5q12 -4 22 -4q48 0 90 84t42 155 q0 47 -22 47z" />
<glyph unicode="c" horiz-adv-x="483" d="M422 160l-8 -115q-80 -55 -193 -55q-92 0 -146 46t-54 139q0 135 104.5 235t253.5 100q73 0 129 -24l-52 -165q-51 79 -103 79q-46 0 -81.5 -65.5t-35.5 -130.5q0 -94 64 -94q54 0 122 50z" />
<glyph unicode="d" horiz-adv-x="616" d="M11 128q0 49 15.5 101.5t47 102.5t75.5 90t106.5 64t133.5 24h13q4 22 7 34l8 141l230 10q-6 -54 -46 -229q-66 -298 -66 -384q0 -45 8 -82h-210q-8 42 -8 82t10 98q-38 -82 -100.5 -136t-122.5 -54q-47 0 -74 36.5t-27 101.5zM226 176q0 -47 22 -47q30 0 68 82.5 t64 199.5q-16 4 -22 4q-48 0 -90 -84t-42 -155z" />
<glyph unicode="e" horiz-adv-x="519" d="M458 160l-8 -115q-33 -21 -102 -38t-129 -17q-92 0 -145.5 45t-53.5 137q0 130 98 234t235 104q75 0 120 -32.5t45 -88.5q0 -76 -77 -132t-170 -56q-18 0 -36 3v-4q0 -90 77 -90q73 0 146 50zM320 415q-26 0 -50 -55.5t-32 -118.5q42 21 71 65t29 81q0 28 -18 28z" />
<glyph unicode="f" horiz-adv-x="396" d="M406 379l-96 3l-71 -338q-48 -225 -300 -239l-29 70q33 15 55 34.5t35 46.5t18 44.5t12 50.5l71 336l-54 2l11 53l60 20v2q-7 42 -7 61q0 80 58.5 125t146.5 45q95 0 171 -41l-47 -125q-42 47 -91 47q-29 0 -47 -18t-18 -44q0 -29 16 -52h132z" />
<glyph unicode="g" horiz-adv-x="561" d="M474 -46q0 -73 -79 -111t-217 -38q-238 0 -238 108q0 35 26 60.5t72 36.5l13 -10q0 -58 37 -100q41 -46 101 -46q29 0 46.5 12t17.5 29q0 20 -31.5 36t-69.5 27t-69.5 35.5t-31.5 59.5q0 46 50 80t133 37v4q-98 0 -150.5 36t-52.5 103q0 83 75.5 140t225.5 57 q160 0 243 10q29 -23 29 -58q0 -26 -16.5 -45t-42.5 -19q-17 0 -35 9t-46.5 26.5t-55.5 28.5l-2 -5q61 -27 94.5 -56.5t33.5 -75.5q0 -53 -46 -92t-114 -55q-108 -26 -108 -51q0 -14 32.5 -28t71.5 -26.5t71.5 -43.5t32.5 -75zM236 279q0 -46 26 -46q30 0 48.5 50.5 t18.5 97.5q0 43 -26 43q-33 0 -50 -49.5t-17 -95.5z" />
<glyph unicode="h" d="M544 0h-210q-8 45 -8 90q0 31 21 130.5t21 114.5q0 25 -18 25q-26 0 -53.5 -46.5t-43.5 -115.5q-13 -80 -13 -122q0 -39 8 -76h-210q-8 38 -8 76q0 74 51 313l33 155l8 141l230 10q-4 -34 -15 -88.5t-30.5 -143.5t-28.5 -131q35 79 92.5 128.5t119.5 49.5 q46 0 73.5 -25.5t27.5 -75.5q0 -25 -27.5 -151.5t-27.5 -181.5q0 -39 8 -76z" />
<glyph unicode="i" horiz-adv-x="327" d="M365 690q0 -47 -46 -83t-105 -36q-38 0 -61.5 17t-23.5 47q0 45 46.5 83t106.5 38q38 0 60.5 -17t22.5 -49zM313 509q-3 -34 -37.5 -202t-34.5 -230q0 -40 8 -77h-210q-8 39 -8 82q0 69 11 121l33 155l8 141z" />
<glyph unicode="j" horiz-adv-x="323" d="M370 690q0 -47 -46 -83t-105 -36q-38 0 -61.5 17t-23.5 47q0 45 46.5 83t106.5 38q38 0 60.5 -17t22.5 -49zM318 509q-6 -50 -94 -465q-48 -225 -300 -239l-29 70q33 15 55 34.5t35 46.5t18 44.5t12 50.5l65 307l8 141z" />
<glyph unicode="k" horiz-adv-x="622" d="M248 0h-210q-8 40 -8 75q0 76 51 314l33 155l8 141l230 10q-4 -35 -16.5 -94.5t-32.5 -147t-30 -137.5h5q46 81 116.5 137.5t141.5 56.5q44 0 69 -23t25 -65q0 -97 -160 -198q36 -112 109 -224l-231 -10q-57 96 -70 185q133 103 133 169q0 31 -26 31q-45 0 -94 -93.5 t-51 -196.5v-1v-6q0 -41 8 -78z" />
<glyph unicode="l" horiz-adv-x="326" d="M352 695q-5 -40 -58.5 -284.5t-53.5 -332.5q0 -41 8 -78h-210q-8 40 -8 75q0 76 51 314l33 155l8 141z" />
<glyph unicode="m" horiz-adv-x="885" d="M248 0h-210q-8 42 -8 75q0 80 45 284l8 141l230 10q-2 -16 -37 -183q32 81 89 132t116 51q53 0 79.5 -37t11.5 -108q-2 -8 -2 -11q33 70 86 113t107 43q53 0 79.5 -37t11.5 -108q-4 -17 -15.5 -71t-15 -70t-9.5 -50.5t-8 -55.5t-2 -41q0 -40 8 -77h-210q-8 37 -8 73 q0 59 39 241q10 46 -8 46q-19 0 -45.5 -47.5t-43.5 -115.5q-14 -79 -14 -116v-1v-3q0 -40 8 -77h-210q-8 37 -8 73q0 59 39 241q10 46 -8 46q-25 0 -59 -73.5t-42 -163.5q-2 -32 -2 -47q0 -40 8 -76z" />
<glyph unicode="n" d="M248 0h-210q-8 42 -8 75q0 80 45 284l8 141l230 10q-2 -12 -37 -184q35 82 92.5 133t121.5 51q55 0 83 -37t13 -108q-4 -18 -11.5 -53t-11 -51t-9 -43t-8 -42.5t-5.5 -35t-4 -35t-1 -29.5q0 -39 8 -76h-210q-8 45 -8 90q0 31 39 222q10 48 -15 48q-29 0 -59.5 -57.5 t-43.5 -138.5q-7 -43 -7 -88q0 -40 8 -76z" />
<glyph unicode="o" horiz-adv-x="607" d="M584 314q0 -130 -100 -227t-246 -97q-98 0 -157 48.5t-59 142.5q0 129 101.5 229t246.5 100q99 0 156.5 -51t57.5 -145zM237 156q0 -71 32 -71q44 0 72 89t28 172q0 69 -33 69q-44 0 -71.5 -87t-27.5 -172z" />
<glyph unicode="p" horiz-adv-x="607" d="M313 510q-7 -59 -35 -177q40 77 100 127t117 50q47 0 74 -36.5t27 -101.5q0 -49 -15.5 -101.5t-47 -102.5t-75.5 -90t-106.5 -64t-133.5 -24h-9q-8 -56 -8 -93q0 -45 8 -82h-210q-8 42 -8 82q0 69 51 307l33 155l8 141zM359 371q-31 0 -69.5 -81.5t-62.5 -197.5 q-1 -1 -1 -3q18 -4 23 -4q48 0 90 84t42 155q0 47 -22 47z" />
<glyph unicode="q" horiz-adv-x="606" d="M11 128q0 49 15.5 101.5t47 102.5t75.5 90t106.5 64t133.5 24q112 0 212 -44q-68 -322 -86.5 -420.5t-18.5 -149.5q0 -44 8 -81h-210q-8 42 -8 78q0 73 42 274q-39 -77 -99 -127t-117 -50q-47 0 -74 36.5t-27 101.5zM226 176q0 -47 22 -47q29 0 66 78.5t64 193.5 q2 6 2 10q-11 4 -22 4q-48 0 -90 -84t-42 -155z" />
<glyph unicode="r" horiz-adv-x="456" d="M248 0h-210q-8 42 -8 75q0 80 45 284l8 141l230 10q-2 -14 -42 -207q73 207 163 207q44 0 69 -37l-85 -166q-26 11 -55 11q-54 0 -87.5 -75.5t-35.5 -176.5q2 -37 8 -66z" />
<glyph unicode="s" horiz-adv-x="486" d="M441 173q0 -82 -80 -132.5t-204 -50.5q-104 0 -173 21l44 157q34 -20 81.5 -32.5t82.5 -12.5q43 0 43 22q0 13 -10.5 21.5t-39 20.5t-43.5 20q-81 43 -81 115q0 82 82 135t209 53q80 0 143 -19l-44 -158q-82 44 -143 44q-40 0 -40 -25q0 -7 4 -13.5t14.5 -13t16 -9.5 t22 -10.5t19.5 -8.5q45 -21 71 -48.5t26 -75.5z" />
<glyph unicode="t" horiz-adv-x="421" d="M367 45q-74 -55 -180 -55q-74 0 -114 32t-40 95q0 10 1 20.5t3.5 27t5 30.5t8 41t10 47.5t13 61t14.5 71.5l-53 1l12 53l79 20l76 119l141 9q-25 -115 -28 -128h129l-26 -83l-121 3q-50 -232 -50 -256q0 -32 38 -32q16 0 31.5 5.5t25.5 11.5t33 21z" />
<glyph unicode="u" d="M75 358l8 141l230 10q-8 -67 -24.5 -148t-29 -135.5t-12.5 -68.5q0 -17 11 -17t27.5 19t38 66.5t37.5 112.5q2 12 4 20q10 44 10 97q0 14 -2 44l230 10q-3 -34 -37.5 -202t-34.5 -230q0 -40 8 -77h-210q-8 39 -8 82q0 47 2 67q-36 -76 -94 -117.5t-113 -41.5 q-88 0 -88 112q0 39 38 214q6 27 9 42z" />
<glyph unicode="v" horiz-adv-x="548" d="M67 236q0 169 -19 264l215 10q11 -51 11 -124q0 -139 -32 -310h3q55 102 86.5 217t33.5 207q54 10 94 10q48 0 73.5 -17t25.5 -61q0 -37 -21 -91.5t-60 -116t-105.5 -125t-146.5 -109.5l-169 10q11 99 11 236z" />
<glyph unicode="w" horiz-adv-x="850" d="M67 236q0 169 -19 264l215 10q11 -51 11 -124q0 -139 -32 -310h3q55 102 86.5 217t33.5 207l200 10q11 -51 11 -124q0 -139 -32 -310h3q55 102 86.5 217t33.5 207q54 10 94 10q48 0 73.5 -17t25.5 -61q0 -37 -21 -91.5t-60 -116t-105.5 -125t-146.5 -109.5l-154 10 q22 121 30 325q-32 -95 -81.5 -191.5t-96.5 -143.5l-169 10q11 99 11 236z" />
<glyph unicode="x" horiz-adv-x="532" d="M-27 58q0 46 56 95.5t144 67.5q-16 58 -28.5 95t-37 89t-54.5 95l215 10q44 -67 81 -197q29 80 29 177q38 20 90 20q42 0 67 -19.5t25 -49.5q0 -44 -55.5 -92t-145.5 -69q17 -59 29 -96t36.5 -89t54.5 -95l-215 -10q-42 65 -81 195q-28 -82 -28 -175q-38 -20 -90 -20 q-43 0 -67.5 19t-24.5 49z" />
<glyph unicode="y" horiz-adv-x="558" d="M356 14q-171 -209 -361 -209q-117 0 -117 79q0 26 11.5 51.5t31.5 38.5q59 -18 126 -18q59 0 111 19t68 50l-160 9q11 85 11 205q0 166 -19 261l215 10q11 -51 11 -124q0 -125 -32 -276h3q55 94 86.5 200t33.5 190q54 10 94 10q99 0 99 -76q0 -69 -65.5 -194.5 t-146.5 -225.5z" />
<glyph unicode="z" horiz-adv-x="502" d="M3 -10l-33 48q174 151 296 286q-47 20 -102 20q-67 0 -101 -46l-28 10q24 202 144 202q81 0 174 -84q31 37 64 84q33 0 57.5 -14.5t24.5 -47.5q0 -34 -27.5 -73t-74 -76t-93.5 -67t-99 -58q14 -1 54 -9.5t67 -8.5q94 0 132 58l28 -10q-28 -123 -75 -168.5t-118 -45.5 q-40 0 -97.5 15t-83.5 15q-50 0 -109 -30z" />
<glyph unicode="{" horiz-adv-x="464" d="M132 179q0 43 -66 51l21 100q51 8 74 31t23 71q0 14 -3 40t-3 41q0 54 24.5 91t71.5 56t102 27t130 8l-19 -100q-106 0 -106 -96q0 -9 1.5 -31.5t1.5 -31.5q0 -67 -48.5 -106t-124.5 -50q57 -9 89 -34.5t32 -64.5q0 -30 -28 -85.5t-28 -78.5q0 -52 77 -52l-24 -100 q-139 0 -202.5 27.5t-63.5 87.5q0 39 34.5 106.5t34.5 92.5z" />
<glyph unicode="|" horiz-adv-x="320" d="M124 -202l-121 -3l191 897l121 3z" />
<glyph unicode="}" horiz-adv-x="463" d="M344 381q0 -43 66 -51l-21 -100q-51 -8 -74 -31t-23 -71q0 -14 3 -40t3 -41q0 -54 -24.5 -91t-71.5 -56t-102 -27t-130 -8l19 100q106 0 106 96q0 9 -1.5 31.5t-1.5 31.5q0 67 48.5 106t124.5 50q-57 9 -89 34.5t-32 64.5q0 30 28 85.5t28 78.5q0 52 -77 52l24 100 q139 0 202.5 -27.5t63.5 -87.5q0 -39 -34.5 -106.5t-34.5 -92.5z" />
<glyph unicode="~" horiz-adv-x="644" d="M198 217q-12 0 -63 -49l-65 34q104 155 164 155q31 0 118.5 -22t99.5 -22q11 0 65 49l64 -34q-21 -31 -37 -52.5t-39.5 -48t-46 -40.5t-41.5 -14q-31 0 -119 22t-100 22z" />
<glyph unicode="&#xa1;" horiz-adv-x="315" d="M97 398q0 41 41.5 74t94.5 33q34 0 55 -15.5t21 -42.5q0 -41 -41.5 -75t-95.5 -34q-34 0 -54.5 15.5t-20.5 44.5zM96 298h140q-44 -276 -59 -481l-218 -10q8 57 20 110q48 218 117 381z" />
<glyph unicode="&#xa2;" horiz-adv-x="483" d="M185 -123l24 113q-87 3 -137.5 49t-50.5 136q0 125 91.5 222t226.5 111l24 112l50 3l-24 -113q68 -2 119 -24l-52 -165q-51 79 -103 79q-46 0 -81.5 -65.5t-35.5 -130.5q0 -94 64 -94q54 0 122 50l-8 -115q-63 -43 -155 -53l-24 -112z" />
<glyph unicode="&#xa3;" horiz-adv-x="609" d="M510 252l-135 3q-57 -131 -143 -199q115 -66 225 -66q45 0 87 10l-89 -154q-16 -6 -42 -6q-20 0 -39.5 3t-35 7t-34.5 13t-30.5 14.5t-30 19.5t-25.5 19t-25.5 22t-22.5 20.5t-22.5 22.5t-19.5 20q-41 -11 -82 -11q-55 0 -74.5 18t-12.5 51q7 34 34.5 54t64.5 20t81 -23 q9 34 19 77l16 73l-95 2l21 53l91 20q37 156 125.5 240.5t228.5 84.5q91 0 145 -29l-76 -132q-45 51 -87 51q-33 0 -62 -48t-60 -167h141z" />
<glyph unicode="&#xa4;" horiz-adv-x="470" d="M359 67l-48 65q-58 -37 -122 -37q-56 0 -90 28l-68 -56l-31 40l67 55q-15 30 -15 68q0 87 67 152l-44 59l43 36q4 -5 13.5 -16t18 -22t16.5 -21q53 31 112 31q60 0 96 -33l74 61l32 -40l-76 -62q12 -29 12 -62q0 -78 -58 -142q9 -12 26.5 -33t24.5 -30zM144 249 q0 -32 17.5 -53.5t52.5 -21.5q47 0 78.5 37.5t31.5 82.5q0 32 -17.5 51t-52.5 19q-47 0 -78.5 -34.5t-31.5 -80.5z" />
<glyph unicode="&#xa5;" horiz-adv-x="602" d="M52 88l13 61h113l11 53h-113l13 61h87l-81 387l208 10l29 -292h2l155 292l193 -10l-244 -387h87l-13 -61h-113l-11 -53h113l-13 -61h-113l-19 -88h-210l19 88h-113z" />
<glyph unicode="&#xa6;" horiz-adv-x="320" d="M241 349l-121 -5l74 348l121 3zM124 -202l-121 -3l75 352l121 5z" />
<glyph unicode="&#xa7;" horiz-adv-x="606" d="M535 109q0 -126 -103 -202.5t-256 -76.5q-55 0 -116 9.5t-95 25.5l48 160q27 -15 70.5 -27.5t70.5 -12.5q31 0 48 19t17 46q0 24 -16 51.5t-38 54t-44.5 56.5t-38.5 71.5t-16 86.5q0 124 105.5 207t263.5 83q119 0 188 -30l-64 -155q-58 30 -110 30q-33 0 -49.5 -20.5 t-16.5 -49.5q0 -27 15.5 -55t38 -54.5t45 -56.5t38 -71.5t15.5 -88.5zM204 -83l-1 -6q103 5 162.5 52.5t59.5 128.5q0 41 -16.5 78t-40.5 64.5t-48 53.5t-40.5 58t-16.5 67q0 59 42.5 102.5t97.5 57.5l1 6q-96 -5 -157.5 -58t-61.5 -137q0 -39 15 -75t36 -63.5t42 -53.5 t36 -57t15 -63q0 -60 -42.5 -101.5t-82.5 -53.5z" />
<glyph unicode="&#xa8;" horiz-adv-x="548" d="M333 685q0 -45 -43 -81t-98 -35q-36 1 -57.5 17.5t-21.5 45.5q0 43 43.5 79.5t99.5 37.5q35 1 56 -16t21 -48zM605 685q0 -45 -43 -81t-98 -35q-36 1 -57.5 17.5t-21.5 45.5q0 43 43.5 79.5t99.5 37.5q35 1 56 -16t21 -48z" />
<glyph unicode="&#xa9;" horiz-adv-x="700" d="M43 184q0 141 114 253.5t258 112.5q106 0 174 -65t68 -171q0 -91 -52 -175.5t-139 -136.5t-183 -52q-107 0 -173.5 65.5t-66.5 168.5zM295 0q122 0 216.5 94t94.5 208q0 85 -57 141.5t-146 56.5q-119 0 -214 -93t-95 -211q0 -87 55.5 -141.5t145.5 -54.5zM439 185l-4 -85 q-49 -16 -105 -16q-153 0 -153 128q0 87 65 150.5t160 63.5q54 0 100 -19l-35 -90q-32 17 -66 17q-41 0 -62.5 -30t-21.5 -70q0 -28 13.5 -41t47.5 -13q11 0 25.5 1t24.5 3z" />
<glyph unicode="&#xaa;" horiz-adv-x="523" d="M88 469q0 44 19.5 90.5t55 87t94 66.5t127.5 26q88 0 170 -34l-27 -128q-19 -88 -19 -134q0 -39 8 -71h-168q-8 36 -8 67q0 24 4 48q-30 -53 -78 -87.5t-95 -34.5q-38 0 -60.5 27.5t-22.5 76.5zM259 506q0 -30 18 -30q22 0 48.5 45t45.5 113l6 27q-9 3 -16 3 q-38 0 -70 -56t-32 -102z" />
<glyph unicode="&#xab;" horiz-adv-x="586" d="M288 253l11 54q141 93 267 203l34 -22q-51 -92 -147 -208q47 -116 58 -208l-43 -22q-80 112 -180 203zM38 253l11 54q141 93 267 203l34 -22q-51 -92 -147 -208q47 -116 58 -208l-43 -22q-80 112 -180 203z" />
<glyph unicode="&#xac;" horiz-adv-x="619" d="M558 433l-58 -271h-145l29 133h-294l28 132q146 6 440 6z" />
<glyph unicode="&#xae;" horiz-adv-x="700" d="M43 184q0 141 114 253.5t258 112.5q106 0 174 -65t68 -171q0 -91 -52 -175.5t-139 -136.5t-183 -52q-107 0 -173.5 65.5t-66.5 168.5zM295 0q122 0 216.5 94t94.5 208q0 85 -57 141.5t-146 56.5q-119 0 -214 -93t-95 -211q0 -87 55.5 -141.5t145.5 -54.5zM301 89h-125 l56 264l8 68h154q132 0 132 -96q0 -79 -83 -117l43 -119l-134 -5l-15 101h-2h-14zM398 321q0 32 -41 32l-22 -101q31 1 47 22.5t16 46.5z" />
<glyph unicode="&#xaf;" horiz-adv-x="351" d="M105 602l26 120h290l-26 -120h-290z" />
<glyph unicode="&#xb0;" horiz-adv-x="363" d="M365 475q0 -71 -54.5 -125.5t-130.5 -54.5q-53 0 -83.5 29t-30.5 80q0 72 54 126t130 54q53 0 84 -29t31 -80zM144 419q0 -24 15 -39t40 -15q36 0 62.5 28.5t26.5 64.5q0 26 -14.5 41t-40.5 15q-37 0 -63 -29.5t-26 -65.5z" />
<glyph unicode="&#xb1;" horiz-adv-x="592" d="M528 332h-141l-24 -114h-147l23 114h-141l28 132q105 3 141 3l24 118h150l-25 -116q55 1 143 1zM460 15h-430l28 132q147 6 433 6z" />
<glyph unicode="&#xb2;" horiz-adv-x="452" d="M386 372h-287l4 79q51 18 123 76t72 92q0 27 -48 27q-50 0 -95 -35l5 94q75 30 154 30q61 0 96.5 -22.5t35.5 -61.5q0 -52 -66.5 -97.5t-158.5 -72.5h62q67 0 130 9z" />
<glyph unicode="&#xb3;" horiz-adv-x="419" d="M395 478q0 -51 -59.5 -81t-141.5 -30q-64 0 -107 12l24 75q28 -15 66 -15q31 0 51 14t20 31q0 32 -58 32q-13 0 -40 -3l8 43q51 14 85.5 33t34.5 37q0 20 -44 20q-40 0 -83 -18l10 80q63 27 140 27q57 0 89.5 -20.5t32.5 -53.5q0 -36 -39 -61.5t-100 -37.5 q111 -11 111 -84z" />
<glyph unicode="&#xb4;" horiz-adv-x="335" d="M390 652q-123 -75 -252 -103l-31 62q118 90 192 165z" />
<glyph unicode="&#xb6;" horiz-adv-x="662" d="M184 -70q41 0 73 15t49.5 33.5t31.5 49.5t18 46.5t10 41.5l93 437v2h-69l-82 -385h-32q-103 0 -164.5 50.5t-61.5 143.5q0 122 102 204t245 82h243l-21 -97l-86 -408q-32 -154 -122.5 -234.5t-231.5 -80.5q-86 0 -172 26l31 105q85 -31 146 -31z" />
<glyph unicode="&#xb7;" horiz-adv-x="310" d="M135 177q-31 0 -50.5 18t-19.5 48q0 42 36 75t83 33q31 0 49.5 -16t18.5 -44q0 -44 -35.5 -79t-81.5 -35z" />
<glyph unicode="&#xb8;" horiz-adv-x="278" d="M25 -124q3 12 -7 22t-33 16l50 86h57l-20 -35q58 -6 86 -28.5t21 -56.5q-23 -102 -248 -102l5 54q80 8 89 44z" />
<glyph unicode="&#xb9;" horiz-adv-x="369" d="M287 372h-140l61 275l-66 -23l-6 60l220 51l7 -7z" />
<glyph unicode="&#xba;" horiz-adv-x="514" d="M545 590q0 -92 -78.5 -159t-193.5 -67q-80 0 -128 37.5t-48 109.5q0 91 79 160t194 69q82 0 128.5 -40t46.5 -110zM269 491q0 -51 27 -51q35 0 55.5 59.5t20.5 116.5q0 48 -27 48q-34 0 -55 -57.5t-21 -115.5z" />
<glyph unicode="&#xbb;" horiz-adv-x="586" d="M311 307l-11 -54q-141 -93 -267 -203l-34 22q51 92 147 208q-47 116 -58 208l43 22q80 -112 180 -203zM561 307l-11 -54q-141 -93 -267 -203l-34 22q51 92 147 208q-47 116 -58 208l43 22q80 -112 180 -203z" />
<glyph unicode="&#xbc;" horiz-adv-x="932" d="M213 -10h-115l542 670h116zM270 292h-140l61 275l-66 -23l-6 60l220 51l7 -7zM719 0h-140l10 44h-165l5 57l267 262l99 -5l-44 -208q20 1 53 5l-26 -111h-50zM635 247l-125 -100h102z" />
<glyph unicode="&#xbd;" horiz-adv-x="958" d="M234 -10h-115l542 670h116zM270 292h-140l61 275l-66 -23l-6 60l220 51l7 -7zM813 0h-287l4 79q51 18 123 76t72 92q0 27 -48 27q-50 0 -95 -35l5 94q75 30 154 30q61 0 96.5 -22.5t35.5 -61.5q0 -52 -66.5 -97.5t-158.5 -72.5h62q67 0 130 9z" />
<glyph unicode="&#xbe;" horiz-adv-x="970" d="M270 -10h-115l542 670h116zM378 398q0 -51 -59.5 -81t-141.5 -30q-63 0 -107 12l24 75q28 -15 66 -15q31 0 51 14t20 31q0 32 -58 32q-13 0 -40 -3l8 43q51 14 85.5 33t34.5 37q0 20 -44 20q-40 0 -83 -18l10 80q63 27 140 27q57 0 89.5 -20.5t32.5 -53.5 q0 -36 -39 -61.5t-100 -37.5q111 -11 111 -84zM784 0h-140l10 44h-165l5 57l267 262l99 -5l-44 -208q20 1 53 5l-26 -111h-50zM700 247l-125 -100h102z" />
<glyph unicode="&#xbf;" horiz-adv-x="530" d="M240 398q0 41 41.5 74t94.5 33q34 0 55 -15.5t21 -42.5q0 -41 -41.5 -75t-95.5 -34q-34 0 -54.5 15.5t-20.5 44.5zM236 296h140q10 -27 2 -61q-7 -31 -26 -59.5t-42 -49t-45.5 -38.5t-39 -35t-19.5 -32q-3 -16 9 -23.5t32 -7.5q65 0 141 56l54 -115q-128 -91 -262 -91 q-99 0 -152 50.5t-37 128.5q9 42 36 75.5t59.5 54.5t64 39t54.5 39t26 45q1 12 5 24z" />
<glyph unicode="&#xc0;" horiz-adv-x="647" d="M592 751l-27 -55q-133 26 -254 95l88 128q73 -77 193 -168zM152 0h-195l264 520l61 131l264 9l38 -660h-206l-1 125h-170zM372 503l-122 -278h126l-2 278h-2z" />
<glyph unicode="&#xc1;" horiz-adv-x="647" d="M592 792q-121 -69 -254 -95l-27 55q120 91 193 168zM152 0h-195l264 520l61 131l264 9l38 -660h-206l-1 125h-170zM372 503l-122 -278h126l-2 278h-2z" />
<glyph unicode="&#xc2;" horiz-adv-x="647" d="M300 708l-49 24q76 76 136 155l160 10q30 -92 76 -165l-59 -24q-66 38 -116 83q-66 -44 -148 -83zM152 0h-195l264 520l61 131l264 9l38 -660h-206l-1 125h-170zM372 503l-122 -278h126l-2 278h-2z" />
<glyph unicode="&#xc3;" horiz-adv-x="647" d="M401 892q32 0 71 -21t59 -21q19 0 33 10.5t35 36.5l42 -9q-17 -67 -54.5 -114.5t-88.5 -47.5q-28 0 -72 21t-61 21q-32 0 -68 -47l-43 9q17 68 54.5 115t92.5 47zM152 0h-195l264 520l61 131l264 9l38 -660h-206l-1 125h-170zM372 503l-122 -278h126l-2 278h-2z" />
<glyph unicode="&#xc4;" horiz-adv-x="647" d="M434 836q0 -45 -43 -81t-98 -35q-36 1 -57.5 17.5t-21.5 45.5q0 43 43.5 79.5t99.5 37.5q35 1 56 -16t21 -48zM683 836q0 -45 -43 -81t-98 -35q-36 1 -57.5 17.5t-21.5 45.5q0 43 43.5 79.5t99.5 37.5q35 1 56 -16t21 -48zM152 0h-195l264 520l61 131l264 9l38 -660h-206 l-1 125h-170zM372 503l-122 -278h126l-2 278h-2z" />
<glyph unicode="&#xc5;" horiz-adv-x="647" d="M580 840q0 -56 -50 -95.5t-117 -39.5q-47 0 -71.5 21t-24.5 55q0 53 50.5 94t119.5 41q45 0 69 -20t24 -56zM400 801q0 -12 10 -19.5t26 -7.5q24 0 42.5 14.5t18.5 32.5q0 26 -35 26q-23 0 -42.5 -14t-19.5 -32zM152 0h-195l264 520l61 131l264 9l38 -660h-206l-1 125 h-170zM372 503l-122 -278h126l-2 278h-2z" />
<glyph unicode="&#xc6;" horiz-adv-x="897" d="M152 0h-195l342 520l61 130h567l-38 -130l-252 7l-9 -146l213 4l-36 -120l-184 4l-9 -147l219 8l-27 -130h-406l18 125h-185zM468 503l-175 -278h137l40 278h-2z" />
<glyph unicode="&#xc7;" horiz-adv-x="574" d="M241 -124q3 12 -7 22t-33 16l46 79q-205 28 -205 243q0 175 121.5 299.5t294.5 124.5q92 0 167 -28l-55 -167q-22 22 -57 38.5t-71 16.5q-77 0 -121 -78.5t-44 -177.5q0 -62 23.5 -94.5t80.5 -32.5q68 0 123 35l-10 -150q-93 -32 -189 -32h-3l-14 -25q58 -6 86 -28.5 t21 -56.5q-23 -102 -248 -102l5 54q80 8 89 44z" />
<glyph unicode="&#xc8;" horiz-adv-x="550" d="M541 751l-27 -55q-133 26 -254 95l88 128q73 -77 193 -168zM457 0h-425l108 511l20 139h420l-38 -130l-187 10l-32 -150l171 5l-36 -120l-159 5l-32 -150l217 10z" />
<glyph unicode="&#xc9;" horiz-adv-x="550" d="M541 792q-121 -69 -254 -95l-27 55q120 91 193 168zM457 0h-425l108 511l20 139h420l-38 -130l-187 10l-32 -150l171 5l-36 -120l-159 5l-32 -150l217 10z" />
<glyph unicode="&#xca;" horiz-adv-x="550" d="M249 708l-49 24q76 76 136 155l160 10q30 -92 76 -165l-59 -24q-66 38 -116 83q-66 -44 -148 -83zM457 0h-425l108 511l20 139h420l-38 -130l-187 10l-32 -150l171 5l-36 -120l-159 5l-32 -150l217 10z" />
<glyph unicode="&#xcb;" horiz-adv-x="550" d="M383 836q0 -45 -43 -81t-98 -35q-36 1 -57.5 17.5t-21.5 45.5q0 43 43.5 79.5t99.5 37.5q35 1 56 -16t21 -48zM632 836q0 -45 -43 -81t-98 -35q-36 1 -57.5 17.5t-21.5 45.5q0 43 43.5 79.5t99.5 37.5q35 1 56 -16t21 -48zM457 0h-425l108 511l20 139h420l-38 -130 l-187 10l-32 -150l171 5l-36 -120l-159 5l-32 -150l217 10z" />
<glyph unicode="&#xcc;" horiz-adv-x="370" d="M448 751l-27 -55q-133 26 -254 95l88 128q73 -77 193 -168zM242 0h-210l110 520l18 130l222 10z" />
<glyph unicode="&#xcd;" horiz-adv-x="370" d="M448 792q-121 -69 -254 -95l-27 55q120 91 193 168zM242 0h-210l110 520l18 130l222 10z" />
<glyph unicode="&#xce;" horiz-adv-x="370" d="M156 708l-49 24q76 76 136 155l160 10q30 -92 76 -165l-59 -24q-66 38 -116 83q-66 -44 -148 -83zM242 0h-210l110 520l18 130l222 10z" />
<glyph unicode="&#xcf;" horiz-adv-x="475" d="M342 820q0 -45 -39 -81t-89 -35q-32 1 -52 17.5t-20 45.5q0 43 39.5 79.5t90.5 37.5q31 1 50.5 -16t19.5 -48zM564 820q0 -45 -39 -81t-89 -35q-32 1 -52 17.5t-20 45.5q0 43 39.5 79.5t90.5 37.5q31 1 50.5 -16t19.5 -48zM283 0h-210l110 520l18 130l222 10z" />
<glyph unicode="&#xd0;" horiz-adv-x="694" d="M142 520l18 130h268q125 0 189.5 -61.5t64.5 -181.5q0 -108 -46.5 -199.5t-139.5 -149.5t-214 -58h-250l60 285h-53l15 80h55zM386 285h-83l-34 -160h12q42 0 76.5 30t55 76t31 94t10.5 91q0 67 -25 87.5t-76 21.5l-34 -160h83z" />
<glyph unicode="&#xd1;" horiz-adv-x="705" d="M425 892q32 0 71 -21t59 -21q19 0 33 10.5t35 36.5l42 -9q-17 -67 -54.5 -114.5t-88.5 -47.5q-28 0 -72 21t-61 21q-32 0 -68 -47l-43 9q17 68 54.5 115t92.5 47zM142 520l18 130l161 10l165 -372h2l62 362l167 10l-140 -660h-170l-150 342h-2l-58 -342h-165z" />
<glyph unicode="&#xd2;" horiz-adv-x="678" d="M602 751l-27 -55q-133 26 -254 95l88 128q73 -77 193 -168zM670 425q0 -111 -49 -210t-142.5 -162t-210.5 -63q-110 0 -169.5 58t-59.5 174q0 83 29.5 162t81.5 140t128.5 98.5t164.5 37.5q110 0 168.5 -59.5t58.5 -175.5zM269 192q0 -92 43 -92q35 0 66 68t46.5 151.5 t15.5 145.5q0 85 -39 85q-37 0 -68.5 -66t-47.5 -147t-16 -145z" />
<glyph unicode="&#xd3;" horiz-adv-x="678" d="M602 792q-121 -69 -254 -95l-27 55q120 91 193 168zM670 425q0 -111 -49 -210t-142.5 -162t-210.5 -63q-110 0 -169.5 58t-59.5 174q0 83 29.5 162t81.5 140t128.5 98.5t164.5 37.5q110 0 168.5 -59.5t58.5 -175.5zM269 192q0 -92 43 -92q35 0 66 68t46.5 151.5 t15.5 145.5q0 85 -39 85q-37 0 -68.5 -66t-47.5 -147t-16 -145z" />
<glyph unicode="&#xd4;" horiz-adv-x="678" d="M310 708l-49 24q76 76 136 155l160 10q30 -92 76 -165l-59 -24q-66 38 -116 83q-66 -44 -148 -83zM670 425q0 -111 -49 -210t-142.5 -162t-210.5 -63q-110 0 -169.5 58t-59.5 174q0 83 29.5 162t81.5 140t128.5 98.5t164.5 37.5q110 0 168.5 -59.5t58.5 -175.5zM269 192 q0 -92 43 -92q35 0 66 68t46.5 151.5t15.5 145.5q0 85 -39 85q-37 0 -68.5 -66t-47.5 -147t-16 -145z" />
<glyph unicode="&#xd5;" horiz-adv-x="678" d="M411 892q32 0 71 -21t59 -21q19 0 33 10.5t35 36.5l42 -9q-17 -67 -54.5 -114.5t-88.5 -47.5q-28 0 -72 21t-61 21q-32 0 -68 -47l-43 9q17 68 54.5 115t92.5 47zM670 425q0 -111 -49 -210t-142.5 -162t-210.5 -63q-110 0 -169.5 58t-59.5 174q0 83 29.5 162t81.5 140 t128.5 98.5t164.5 37.5q110 0 168.5 -59.5t58.5 -175.5zM269 192q0 -92 43 -92q35 0 66 68t46.5 151.5t15.5 145.5q0 85 -39 85q-37 0 -68.5 -66t-47.5 -147t-16 -145z" />
<glyph unicode="&#xd6;" horiz-adv-x="678" d="M444 836q0 -45 -43 -81t-98 -35q-36 1 -57.5 17.5t-21.5 45.5q0 43 43.5 79.5t99.5 37.5q35 1 56 -16t21 -48zM693 836q0 -45 -43 -81t-98 -35q-36 1 -57.5 17.5t-21.5 45.5q0 43 43.5 79.5t99.5 37.5q35 1 56 -16t21 -48zM670 425q0 -111 -49 -210t-142.5 -162 t-210.5 -63q-110 0 -169.5 58t-59.5 174q0 83 29.5 162t81.5 140t128.5 98.5t164.5 37.5q110 0 168.5 -59.5t58.5 -175.5zM269 192q0 -92 43 -92q35 0 66 68t46.5 151.5t15.5 145.5q0 85 -39 85q-37 0 -68.5 -66t-47.5 -147t-16 -145z" />
<glyph unicode="&#xd7;" horiz-adv-x="587" d="M377 114l-88 113l-139 -114l-77 98l138 115l-90 116l116 96q36 -40 93 -112l135 112l80 -100l-135 -111q18 -22 89 -113l-2 -12z" />
<glyph unicode="&#xd8;" horiz-adv-x="678" d="M670 425q0 -111 -49 -210t-142.5 -162t-210.5 -63q-105 0 -163 52l-83 -77l-53 56l91 84q-21 48 -21 117q0 83 29.5 162t81.5 140t128.5 98.5t164.5 37.5q105 0 161 -52l83 77l54 -55l-92 -85q21 -49 21 -120zM401 550q-40 0 -72 -71.5t-49 -169.5l160 147v9q0 85 -39 85 zM269 192q0 -92 43 -92q37 0 68 71t48 169l-159 -147v-1z" />
<glyph unicode="&#xd9;" horiz-adv-x="705" d="M621 751l-27 -55q-133 26 -254 95l88 128q73 -77 193 -168zM328 110q31 0 53.5 28t32.5 77l63 305l18 130l222 10l-93 -436q-24 -111 -117.5 -172.5t-214.5 -61.5q-103 0 -161 46t-58 134q0 7 0.5 14t1.5 14.5t3.5 21.5t5.5 28.5t9 42t12 55.5t16.5 76.5t20.5 97.5 l18 130l222 9q-21 -98 -50 -235q-49 -228 -49 -259q0 -23 11.5 -39t33.5 -16z" />
<glyph unicode="&#xda;" horiz-adv-x="705" d="M621 792q-121 -69 -254 -95l-27 55q120 91 193 168zM328 110q31 0 53.5 28t32.5 77l63 305l18 130l222 10l-93 -436q-24 -111 -117.5 -172.5t-214.5 -61.5q-103 0 -161 46t-58 134q0 7 0.5 14t1.5 14.5t3.5 21.5t5.5 28.5t9 42t12 55.5t16.5 76.5t20.5 97.5l18 130l222 9 q-21 -98 -50 -235q-49 -228 -49 -259q0 -23 11.5 -39t33.5 -16z" />
<glyph unicode="&#xdb;" horiz-adv-x="705" d="M329 708l-49 24q76 76 136 155l160 10q30 -92 76 -165l-59 -24q-66 38 -116 83q-66 -44 -148 -83zM328 110q31 0 53.5 28t32.5 77l63 305l18 130l222 10l-93 -436q-24 -111 -117.5 -172.5t-214.5 -61.5q-103 0 -161 46t-58 134q0 7 0.5 14t1.5 14.5t3.5 21.5t5.5 28.5 t9 42t12 55.5t16.5 76.5t20.5 97.5l18 130l222 9q-21 -98 -50 -235q-49 -228 -49 -259q0 -23 11.5 -39t33.5 -16z" />
<glyph unicode="&#xdc;" horiz-adv-x="705" d="M463 836q0 -45 -43 -81t-98 -35q-36 1 -57.5 17.5t-21.5 45.5q0 43 43.5 79.5t99.5 37.5q35 1 56 -16t21 -48zM712 836q0 -45 -43 -81t-98 -35q-36 1 -57.5 17.5t-21.5 45.5q0 43 43.5 79.5t99.5 37.5q35 1 56 -16t21 -48zM328 110q31 0 53.5 28t32.5 77l63 305l18 130 l222 10l-93 -436q-24 -111 -117.5 -172.5t-214.5 -61.5q-103 0 -161 46t-58 134q0 7 0.5 14t1.5 14.5t3.5 21.5t5.5 28.5t9 42t12 55.5t16.5 76.5t20.5 97.5l18 130l222 9q-21 -98 -50 -235q-49 -228 -49 -259q0 -23 11.5 -39t33.5 -16z" />
<glyph unicode="&#xdd;" horiz-adv-x="602" d="M567 792q-121 -69 -254 -95l-27 55q120 91 193 168zM356 0h-210l43 202l-94 448l208 10l29 -292h2l155 292l193 -10l-283 -448z" />
<glyph unicode="&#xde;" horiz-adv-x="634" d="M242 0h-210l110 520l18 130h220l-15 -70h18q28 0 44 -0.5t46.5 -4t49.5 -10.5t43 -21t37.5 -33.5t23.5 -50.5t10 -71q0 -131 -96 -214t-263 -83h-16zM347 465h-6l-55 -259h13q59 0 91 58t32 122q0 28 -6.5 45.5t-20 24t-23 8t-25.5 1.5z" />
<glyph unicode="&#xdf;" horiz-adv-x="662" d="M-76 -195l-29 70q33 15 55 34.5t35 46.5t18 44.5t12 50.5l74 349l-70 2l12 53l74 18v1q22 104 105 162.5t202 58.5q95 0 153 -37t58 -105q0 -108 -146 -168q137 -62 137 -195q0 -53 -22 -93t-58.5 -62.5t-77.5 -33.5t-85 -11q-79 0 -117 10l23 110q28 -10 57 -10 q25 0 45 20t20 62q0 41 -19 85t-48 75l14 64q83 53 83 131q0 48 -34 48q-30 0 -49 -27t-28 -67l-94 -447q-48 -225 -300 -239z" />
<glyph unicode="&#xe0;" horiz-adv-x="621" d="M547 611l-31 -62q-129 28 -252 103l91 124q74 -75 192 -165zM11 128q0 49 15.5 101.5t47 102.5t75.5 90t106.5 64t133.5 24q112 0 212 -44l-38 -178q-28 -128 -28 -206q0 -45 8 -82h-210q-8 42 -8 78q0 43 10 102q-38 -82 -100.5 -136t-122.5 -54q-47 0 -74 36.5 t-27 101.5zM226 176q0 -47 22 -47q30 0 68 82.5t64 199.5q-16 4 -22 4q-48 0 -90 -84t-42 -155z" />
<glyph unicode="&#xe1;" horiz-adv-x="621" d="M547 652q-123 -75 -252 -103l-31 62q118 90 192 165zM11 128q0 49 15.5 101.5t47 102.5t75.5 90t106.5 64t133.5 24q112 0 212 -44l-38 -178q-28 -128 -28 -206q0 -45 8 -82h-210q-8 42 -8 78q0 43 10 102q-38 -82 -100.5 -136t-122.5 -54q-47 0 -74 36.5t-27 101.5z M226 176q0 -47 22 -47q30 0 68 82.5t64 199.5q-16 4 -22 4q-48 0 -90 -84t-42 -155z" />
<glyph unicode="&#xe2;" horiz-adv-x="621" d="M308 539l-60 36q72 80 130 160l160 10q25 -101 58 -170l-74 -36q-48 37 -88 91q-64 -54 -126 -91zM11 128q0 49 15.5 101.5t47 102.5t75.5 90t106.5 64t133.5 24q112 0 212 -44l-38 -178q-28 -128 -28 -206q0 -45 8 -82h-210q-8 42 -8 78q0 43 10 102 q-38 -82 -100.5 -136t-122.5 -54q-47 0 -74 36.5t-27 101.5zM226 176q0 -47 22 -47q30 0 68 82.5t64 199.5q-16 4 -22 4q-48 0 -90 -84t-42 -155z" />
<glyph unicode="&#xe3;" horiz-adv-x="621" d="M358 753q33 0 72.5 -26t60.5 -26q16 0 28 11.5t32 40.5l43 -9q-17 -69 -53 -118t-84 -49q-28 0 -73 26t-62 26q-27 0 -60 -52l-43 9q16 70 51.5 118.5t87.5 48.5zM11 128q0 49 15.5 101.5t47 102.5t75.5 90t106.5 64t133.5 24q112 0 212 -44l-38 -178q-28 -128 -28 -206 q0 -45 8 -82h-210q-8 42 -8 78q0 43 10 102q-38 -82 -100.5 -136t-122.5 -54q-47 0 -74 36.5t-27 101.5zM226 176q0 -47 22 -47q30 0 68 82.5t64 199.5q-16 4 -22 4q-48 0 -90 -84t-42 -155z" />
<glyph unicode="&#xe4;" horiz-adv-x="621" d="M379 685q0 -45 -43 -81t-98 -35q-36 1 -57.5 17.5t-21.5 45.5q0 43 43.5 79.5t99.5 37.5q35 1 56 -16t21 -48zM651 685q0 -45 -43 -81t-98 -35q-36 1 -57.5 17.5t-21.5 45.5q0 43 43.5 79.5t99.5 37.5q35 1 56 -16t21 -48zM11 128q0 49 15.5 101.5t47 102.5t75.5 90 t106.5 64t133.5 24q112 0 212 -44l-38 -178q-28 -128 -28 -206q0 -45 8 -82h-210q-8 42 -8 78q0 43 10 102q-38 -82 -100.5 -136t-122.5 -54q-47 0 -74 36.5t-27 101.5zM226 176q0 -47 22 -47q30 0 68 82.5t64 199.5q-16 4 -22 4q-48 0 -90 -84t-42 -155z" />
<glyph unicode="&#xe5;" horiz-adv-x="621" d="M533 696q0 -60 -49 -103.5t-115 -43.5q-51 0 -75.5 27t-14.5 75q11 54 56 91t106 37q43 0 67.5 -21t24.5 -62zM355 646q0 -32 35 -32q27 0 46 19.5t19 46.5q0 34 -35 34q-27 0 -46 -20.5t-19 -47.5zM11 128q0 49 15.5 101.5t47 102.5t75.5 90t106.5 64t133.5 24 q112 0 212 -44l-38 -178q-28 -128 -28 -206q0 -45 8 -82h-210q-8 42 -8 78q0 43 10 102q-38 -82 -100.5 -136t-122.5 -54q-47 0 -74 36.5t-27 101.5zM226 176q0 -47 22 -47q30 0 68 82.5t64 199.5q-16 4 -22 4q-48 0 -90 -84t-42 -155z" />
<glyph unicode="&#xe6;" horiz-adv-x="823" d="M11 128q0 49 15.5 101.5t47 102.5t75.5 90t106.5 64t133.5 24q73 0 152 -23q55 23 116 23q75 0 120 -32.5t45 -88.5q0 -76 -77 -132t-170 -56q-18 0 -36 3v-4q0 -90 77 -90q73 0 146 50l-8 -115q-33 -21 -102 -38t-129 -17q-89 0 -142 42t-57 127q-39 -74 -97.5 -121.5 t-114.5 -47.5q-47 0 -74 36.5t-27 101.5zM226 176q0 -47 22 -47q20 0 45.5 38t42.5 91q24 79 77 138q-33 19 -55 19q-48 0 -90 -84t-42 -155zM624 415q-26 0 -50 -55.5t-32 -118.5q42 21 71 65t29 81q0 28 -18 28z" />
<glyph unicode="&#xe7;" horiz-adv-x="483" d="M173 -124q3 12 -7 22t-33 16l46 79q-73 9 -115.5 55t-42.5 127q0 135 104.5 235t253.5 100q73 0 129 -24l-52 -165q-51 79 -103 79q-46 0 -81.5 -65.5t-35.5 -130.5q0 -94 64 -94q54 0 122 50l-8 -115q-73 -50 -180 -55l-14 -25q58 -6 86 -28.5t21 -56.5 q-23 -102 -248 -102l5 54q80 8 89 44z" />
<glyph unicode="&#xe8;" horiz-adv-x="519" d="M480 611l-31 -62q-129 28 -252 103l91 124q74 -75 192 -165zM458 160l-8 -115q-33 -21 -102 -38t-129 -17q-92 0 -145.5 45t-53.5 137q0 130 98 234t235 104q75 0 120 -32.5t45 -88.5q0 -76 -77 -132t-170 -56q-18 0 -36 3v-4q0 -90 77 -90q73 0 146 50zM320 415 q-26 0 -50 -55.5t-32 -118.5q42 21 71 65t29 81q0 28 -18 28z" />
<glyph unicode="&#xe9;" horiz-adv-x="519" d="M480 652q-123 -75 -252 -103l-31 62q118 90 192 165zM458 160l-8 -115q-33 -21 -102 -38t-129 -17q-92 0 -145.5 45t-53.5 137q0 130 98 234t235 104q75 0 120 -32.5t45 -88.5q0 -76 -77 -132t-170 -56q-18 0 -36 3v-4q0 -90 77 -90q73 0 146 50zM320 415 q-26 0 -50 -55.5t-32 -118.5q42 21 71 65t29 81q0 28 -18 28z" />
<glyph unicode="&#xea;" horiz-adv-x="519" d="M241 539l-60 36q72 80 130 160l160 10q25 -101 58 -170l-74 -36q-48 37 -88 91q-64 -54 -126 -91zM458 160l-8 -115q-33 -21 -102 -38t-129 -17q-92 0 -145.5 45t-53.5 137q0 130 98 234t235 104q75 0 120 -32.5t45 -88.5q0 -76 -77 -132t-170 -56q-18 0 -36 3v-4 q0 -90 77 -90q73 0 146 50zM320 415q-26 0 -50 -55.5t-32 -118.5q42 21 71 65t29 81q0 28 -18 28z" />
<glyph unicode="&#xeb;" horiz-adv-x="519" d="M312 685q0 -45 -43 -81t-98 -35q-36 1 -57.5 17.5t-21.5 45.5q0 43 43.5 79.5t99.5 37.5q35 1 56 -16t21 -48zM584 685q0 -45 -43 -81t-98 -35q-36 1 -57.5 17.5t-21.5 45.5q0 43 43.5 79.5t99.5 37.5q35 1 56 -16t21 -48zM458 160l-8 -115q-33 -21 -102 -38t-129 -17 q-92 0 -145.5 45t-53.5 137q0 130 98 234t235 104q75 0 120 -32.5t45 -88.5q0 -76 -77 -132t-170 -56q-18 0 -36 3v-4q0 -90 77 -90q73 0 146 50zM320 415q-26 0 -50 -55.5t-32 -118.5q42 21 71 65t29 81q0 28 -18 28z" />
<glyph unicode="&#xec;" horiz-adv-x="327" d="M388 611l-31 -62q-129 28 -252 103l91 124q74 -75 192 -165zM313 509q-3 -34 -37.5 -202t-34.5 -230q0 -40 8 -77h-210q-8 39 -8 82q0 69 11 121l33 155l8 141z" />
<glyph unicode="&#xed;" horiz-adv-x="327" d="M388 652q-123 -75 -252 -103l-31 62q118 90 192 165zM313 509q-3 -34 -37.5 -202t-34.5 -230q0 -40 8 -77h-210q-8 39 -8 82q0 69 11 121l33 155l8 141z" />
<glyph unicode="&#xee;" horiz-adv-x="327" d="M127 554l-49 28q48 86 94 185l160 10q4 -118 18 -195l-59 -28q-34 39 -62 102q-57 -66 -102 -102zM313 509q-3 -34 -37.5 -202t-34.5 -230q0 -40 8 -77h-210q-8 39 -8 82q0 69 11 121l33 155l8 141z" />
<glyph unicode="&#xef;" horiz-adv-x="327" d="M235 689q0 -48 -37.5 -81.5t-91.5 -33.5q-72 0 -72 63q0 48 38 82.5t91 34.5q72 0 72 -65zM460 689q0 -48 -37.5 -81.5t-92.5 -33.5q-71 0 -71 62q0 48 38.5 83t91.5 35q71 0 71 -65zM313 509q-3 -34 -37.5 -202t-34.5 -230q0 -40 8 -77h-210q-8 39 -8 82q0 69 11 121 l33 155l8 141z" />
<glyph unicode="&#xf0;" horiz-adv-x="578" d="M559 377q0 -162 -92 -274.5t-246 -112.5q-92 0 -146.5 45t-54.5 137q0 120 86.5 211t210.5 91q12 0 28 -2q-12 42 -34 75l-132 -56l-23 66l109 46q-32 34 -82 61l77 96q99 -28 169 -87l129 55l25 -67l-101 -42q77 -100 77 -242zM229 148q0 -48 24 -48q35 0 60 83.5 t25 142.5q0 38 -22 38q-38 0 -62.5 -77.5t-24.5 -138.5z" />
<glyph unicode="&#xf1;" d="M333 753q33 0 72.5 -26t60.5 -26q16 0 28 11.5t32 40.5l43 -9q-17 -69 -53 -118t-84 -49q-28 0 -73 26t-62 26q-27 0 -60 -52l-43 9q16 70 51.5 118.5t87.5 48.5zM248 0h-210q-8 42 -8 75q0 80 45 284l8 141l230 10q-2 -12 -37 -184q35 82 92.5 133t121.5 51q55 0 83 -37 t13 -108q-4 -18 -11.5 -53t-11 -51t-9 -43t-8 -42.5t-5.5 -35t-4 -35t-1 -29.5q0 -39 8 -76h-210q-8 45 -8 90q0 31 39 222q10 48 -15 48q-29 0 -59.5 -57.5t-43.5 -138.5q-7 -43 -7 -88q0 -40 8 -76z" />
<glyph unicode="&#xf2;" horiz-adv-x="607" d="M516 611l-31 -62q-129 28 -252 103l91 124q74 -75 192 -165zM584 314q0 -130 -100 -227t-246 -97q-98 0 -157 48.5t-59 142.5q0 129 101.5 229t246.5 100q99 0 156.5 -51t57.5 -145zM237 156q0 -71 32 -71q44 0 72 89t28 172q0 69 -33 69q-44 0 -71.5 -87t-27.5 -172z " />
<glyph unicode="&#xf3;" horiz-adv-x="607" d="M516 652q-123 -75 -252 -103l-31 62q118 90 192 165zM584 314q0 -130 -100 -227t-246 -97q-98 0 -157 48.5t-59 142.5q0 129 101.5 229t246.5 100q99 0 156.5 -51t57.5 -145zM237 156q0 -71 32 -71q44 0 72 89t28 172q0 69 -33 69q-44 0 -71.5 -87t-27.5 -172z" />
<glyph unicode="&#xf4;" horiz-adv-x="607" d="M277 539l-60 36q72 80 130 160l160 10q25 -101 58 -170l-74 -36q-48 37 -88 91q-64 -54 -126 -91zM584 314q0 -130 -100 -227t-246 -97q-98 0 -157 48.5t-59 142.5q0 129 101.5 229t246.5 100q99 0 156.5 -51t57.5 -145zM237 156q0 -71 32 -71q44 0 72 89t28 172 q0 69 -33 69q-44 0 -71.5 -87t-27.5 -172z" />
<glyph unicode="&#xf5;" horiz-adv-x="607" d="M327 753q33 0 72.5 -26t60.5 -26q16 0 28 11.5t32 40.5l43 -9q-17 -69 -53 -118t-84 -49q-28 0 -73 26t-62 26q-27 0 -60 -52l-43 9q16 70 51.5 118.5t87.5 48.5zM584 314q0 -130 -100 -227t-246 -97q-98 0 -157 48.5t-59 142.5q0 129 101.5 229t246.5 100 q99 0 156.5 -51t57.5 -145zM237 156q0 -71 32 -71q44 0 72 89t28 172q0 69 -33 69q-44 0 -71.5 -87t-27.5 -172z" />
<glyph unicode="&#xf6;" horiz-adv-x="607" d="M348 685q0 -45 -43 -81t-98 -35q-36 1 -57.5 17.5t-21.5 45.5q0 43 43.5 79.5t99.5 37.5q35 1 56 -16t21 -48zM620 685q0 -45 -43 -81t-98 -35q-36 1 -57.5 17.5t-21.5 45.5q0 43 43.5 79.5t99.5 37.5q35 1 56 -16t21 -48zM584 314q0 -130 -100 -227t-246 -97 q-98 0 -157 48.5t-59 142.5q0 129 101.5 229t246.5 100q99 0 156.5 -51t57.5 -145zM237 156q0 -71 32 -71q44 0 72 89t28 172q0 69 -33 69q-44 0 -71.5 -87t-27.5 -172z" />
<glyph unicode="&#xf7;" horiz-adv-x="591" d="M439 534q-8 -41 -41.5 -68.5t-74.5 -27.5q-33 0 -50.5 22t-10.5 54q8 40 42.5 67.5t75.5 27.5q32 0 49 -21t10 -54zM511 256h-430l28 132q147 6 433 6zM355 137q-9 -41 -42 -68t-74 -27q-33 0 -50.5 22t-10.5 53q9 40 43.5 68t74.5 28q32 0 49 -21.5t10 -54.5z" />
<glyph unicode="&#xf8;" horiz-adv-x="607" d="M584 314q0 -130 -100 -227t-246 -97q-82 0 -136 33l-60 -52l-47 56l55 48q-28 44 -28 106q0 129 101.5 229t246.5 100q83 0 137 -36l63 55l48 -55l-61 -53q27 -43 27 -107zM336 415q-33 0 -56.5 -49.5t-34.5 -120.5l124 108q-1 62 -33 62zM269 85q31 0 54.5 47t36.5 116 l-123 -106q3 -57 32 -57z" />
<glyph unicode="&#xf9;" d="M523 611l-31 -62q-129 28 -252 103l91 124q74 -75 192 -165zM75 358l8 141l230 10q-8 -67 -24.5 -148t-29 -135.5t-12.5 -68.5q0 -17 11 -17t27.5 19t38 66.5t37.5 112.5q2 12 4 20q10 44 10 97q0 14 -2 44l230 10q-3 -34 -37.5 -202t-34.5 -230q0 -40 8 -77h-210 q-8 39 -8 82q0 47 2 67q-36 -76 -94 -117.5t-113 -41.5q-88 0 -88 112q0 39 38 214q6 27 9 42z" />
<glyph unicode="&#xfa;" d="M523 652q-123 -75 -252 -103l-31 62q118 90 192 165zM75 358l8 141l230 10q-8 -67 -24.5 -148t-29 -135.5t-12.5 -68.5q0 -17 11 -17t27.5 19t38 66.5t37.5 112.5q2 12 4 20q10 44 10 97q0 14 -2 44l230 10q-3 -34 -37.5 -202t-34.5 -230q0 -40 8 -77h-210q-8 39 -8 82 q0 47 2 67q-36 -76 -94 -117.5t-113 -41.5q-88 0 -88 112q0 39 38 214q6 27 9 42z" />
<glyph unicode="&#xfb;" d="M284 539l-60 36q72 80 130 160l160 10q25 -101 58 -170l-74 -36q-48 37 -88 91q-64 -54 -126 -91zM75 358l8 141l230 10q-8 -67 -24.5 -148t-29 -135.5t-12.5 -68.5q0 -17 11 -17t27.5 19t38 66.5t37.5 112.5q2 12 4 20q10 44 10 97q0 14 -2 44l230 10q-3 -34 -37.5 -202 t-34.5 -230q0 -40 8 -77h-210q-8 39 -8 82q0 47 2 67q-36 -76 -94 -117.5t-113 -41.5q-88 0 -88 112q0 39 38 214q6 27 9 42z" />
<glyph unicode="&#xfc;" d="M355 685q0 -45 -43 -81t-98 -35q-36 1 -57.5 17.5t-21.5 45.5q0 43 43.5 79.5t99.5 37.5q35 1 56 -16t21 -48zM627 685q0 -45 -43 -81t-98 -35q-36 1 -57.5 17.5t-21.5 45.5q0 43 43.5 79.5t99.5 37.5q35 1 56 -16t21 -48zM75 358l8 141l230 10q-8 -67 -24.5 -148 t-29 -135.5t-12.5 -68.5q0 -17 11 -17t27.5 19t38 66.5t37.5 112.5q2 12 4 20q10 44 10 97q0 14 -2 44l230 10q-3 -34 -37.5 -202t-34.5 -230q0 -40 8 -77h-210q-8 39 -8 82q0 47 2 67q-36 -76 -94 -117.5t-113 -41.5q-88 0 -88 112q0 39 38 214q6 27 9 42z" />
<glyph unicode="&#xfd;" horiz-adv-x="558" d="M492 652q-123 -75 -252 -103l-31 62q118 90 192 165zM356 14q-171 -209 -361 -209q-117 0 -117 79q0 26 11.5 51.5t31.5 38.5q59 -18 126 -18q59 0 111 19t68 50l-160 9q11 85 11 205q0 166 -19 261l215 10q11 -51 11 -124q0 -125 -32 -276h3q55 94 86.5 200t33.5 190 q54 10 94 10q99 0 99 -76q0 -69 -65.5 -194.5t-146.5 -225.5z" />
<glyph unicode="&#xfe;" horiz-adv-x="607" d="M596 372q0 -49 -15.5 -101.5t-47 -102.5t-75.5 -90t-106.5 -64t-133.5 -24h-9q-8 -56 -8 -93q0 -45 8 -82h-210q-8 42 -8 82q0 69 51 307l72 340l8 141l230 10q-6 -58 -58 -290q-15 -71 -16 -74q39 78 99.5 128.5t117.5 50.5q47 0 74 -36.5t27 -101.5zM359 371 q-30 0 -67.5 -78.5t-63.5 -193.5q0 -2 -2 -10q18 -4 23 -4q48 0 90 84t42 155q0 47 -22 47z" />
<glyph unicode="&#xff;" horiz-adv-x="558" d="M324 685q0 -45 -43 -81t-98 -35q-36 1 -57.5 17.5t-21.5 45.5q0 43 43.5 79.5t99.5 37.5q35 1 56 -16t21 -48zM596 685q0 -45 -43 -81t-98 -35q-36 1 -57.5 17.5t-21.5 45.5q0 43 43.5 79.5t99.5 37.5q35 1 56 -16t21 -48zM356 14q-171 -209 -361 -209q-117 0 -117 79 q0 26 11.5 51.5t31.5 38.5q59 -18 126 -18q59 0 111 19t68 50l-160 9q11 85 11 205q0 166 -19 261l215 10q11 -51 11 -124q0 -125 -32 -276h3q55 94 86.5 200t33.5 190q54 10 94 10q99 0 99 -76q0 -69 -65.5 -194.5t-146.5 -225.5z" />
<glyph unicode="&#x100;" horiz-adv-x="647" d="M271 754l23 110h330l-23 -110h-330zM152 0h-195l264 520l61 131l264 9l38 -660h-206l-1 125h-170zM372 503l-122 -278h126l-2 278h-2z" />
<glyph unicode="&#x101;" horiz-adv-x="621" d="M247 602l26 120h290l-26 -120h-290zM11 128q0 49 15.5 101.5t47 102.5t75.5 90t106.5 64t133.5 24q112 0 212 -44l-38 -178q-28 -128 -28 -206q0 -45 8 -82h-210q-8 42 -8 78q0 43 10 102q-38 -82 -100.5 -136t-122.5 -54q-47 0 -74 36.5t-27 101.5zM226 176 q0 -47 22 -47q30 0 68 82.5t64 199.5q-16 4 -22 4q-48 0 -90 -84t-42 -155z" />
<glyph unicode="&#x102;" horiz-adv-x="647" d="M406 713q-67 0 -101.5 47.5t-21.5 126.5l72 10q2 -76 80 -76q77 0 112 75l70 9q-22 -85 -79 -138.5t-132 -53.5zM152 0h-195l264 520l61 131l264 9l38 -660h-206l-1 125h-170zM372 503l-122 -278h126l-2 278h-2z" />
<glyph unicode="&#x103;" horiz-adv-x="621" d="M360 557q-65 0 -96.5 53t-14.5 135l72 10q-2 -35 16.5 -59t50.5 -24t62 24.5t47 57.5l70 9q-25 -88 -81.5 -147t-125.5 -59zM11 128q0 49 15.5 101.5t47 102.5t75.5 90t106.5 64t133.5 24q112 0 212 -44l-38 -178q-28 -128 -28 -206q0 -45 8 -82h-210q-8 42 -8 78 q0 43 10 102q-38 -82 -100.5 -136t-122.5 -54q-47 0 -74 36.5t-27 101.5zM226 176q0 -47 22 -47q30 0 68 82.5t64 199.5q-16 4 -22 4q-48 0 -90 -84t-42 -155z" />
<glyph unicode="&#x104;" horiz-adv-x="647" d="M152 0h-195l264 520l61 131l264 9l38 -660q-49 -19 -82 -49t-33 -56q0 -25 35 -25q19 0 49 9l7 -52q-63 -49 -148 -49q-94 0 -94 62q0 48 44 90.5t120 69.5h-104l-1 125h-170zM372 503l-122 -278h126l-2 278h-2z" />
<glyph unicode="&#x105;" horiz-adv-x="621" d="M11 128q0 49 15.5 101.5t47 102.5t75.5 90t106.5 64t133.5 24q112 0 212 -44l-38 -178q-28 -128 -28 -206q0 -45 8 -82q-49 -19 -82 -49t-33 -56q0 -25 35 -25q19 0 49 9l7 -52q-63 -49 -148 -49q-94 0 -94 62q0 48 44 90.5t120 69.5h-108q-8 42 -8 78q0 43 10 102 q-38 -82 -100.5 -136t-122.5 -54q-47 0 -74 36.5t-27 101.5zM226 176q0 -47 22 -47q30 0 68 82.5t64 199.5q-16 4 -22 4q-48 0 -90 -84t-42 -155z" />
<glyph unicode="&#x106;" horiz-adv-x="574" d="M584 792q-121 -69 -254 -95l-27 55q120 91 193 168zM504 172l-10 -150q-93 -32 -189 -32q-263 0 -263 246q0 175 121.5 299.5t294.5 124.5q92 0 167 -28l-55 -167q-22 22 -57 38.5t-71 16.5q-77 0 -121 -78.5t-44 -177.5q0 -62 23.5 -94.5t80.5 -32.5q68 0 123 35z" />
<glyph unicode="&#x107;" horiz-adv-x="483" d="M492 652q-123 -75 -252 -103l-31 62q118 90 192 165zM422 160l-8 -115q-80 -55 -193 -55q-92 0 -146 46t-54 139q0 135 104.5 235t253.5 100q73 0 129 -24l-52 -165q-51 79 -103 79q-46 0 -81.5 -65.5t-35.5 -130.5q0 -94 64 -94q54 0 122 50z" />
<glyph unicode="&#x108;" horiz-adv-x="574" d="M292 708l-49 24q76 76 136 155l160 10q30 -92 76 -165l-59 -24q-66 38 -116 83q-66 -44 -148 -83zM504 172l-10 -150q-93 -32 -189 -32q-263 0 -263 246q0 175 121.5 299.5t294.5 124.5q92 0 167 -28l-55 -167q-22 22 -57 38.5t-71 16.5q-77 0 -121 -78.5t-44 -177.5 q0 -62 23.5 -94.5t80.5 -32.5q68 0 123 35z" />
<glyph unicode="&#x109;" horiz-adv-x="483" d="M253 539l-60 36q72 80 130 160l160 10q25 -101 58 -170l-74 -36q-48 37 -88 91q-64 -54 -126 -91zM422 160l-8 -115q-80 -55 -193 -55q-92 0 -146 46t-54 139q0 135 104.5 235t253.5 100q73 0 129 -24l-52 -165q-51 79 -103 79q-46 0 -81.5 -65.5t-35.5 -130.5 q0 -94 64 -94q54 0 122 50z" />
<glyph unicode="&#x10a;" horiz-adv-x="574" d="M557 834q0 -47 -46 -83t-105 -36q-38 0 -61.5 17t-23.5 47q0 45 46.5 83t106.5 38q38 0 60.5 -17t22.5 -49zM504 172l-10 -150q-93 -32 -189 -32q-263 0 -263 246q0 175 121.5 299.5t294.5 124.5q92 0 167 -28l-55 -167q-22 22 -57 38.5t-71 16.5q-77 0 -121 -78.5 t-44 -177.5q0 -62 23.5 -94.5t80.5 -32.5q68 0 123 35z" />
<glyph unicode="&#x10b;" horiz-adv-x="483" d="M469 690q0 -47 -46 -83t-105 -36q-38 0 -61.5 17t-23.5 47q0 45 46.5 83t106.5 38q38 0 60.5 -17t22.5 -49zM422 160l-8 -115q-80 -55 -193 -55q-92 0 -146 46t-54 139q0 135 104.5 235t253.5 100q73 0 129 -24l-52 -165q-51 79 -103 79q-46 0 -81.5 -65.5t-35.5 -130.5 q0 -94 64 -94q54 0 122 50z" />
<glyph unicode="&#x10c;" horiz-adv-x="574" d="M579 904l49 -24q-76 -76 -136 -155l-160 -10q-30 92 -76 165l59 24q66 -38 116 -83q66 44 148 83zM504 172l-10 -150q-93 -32 -189 -32q-263 0 -263 246q0 175 121.5 299.5t294.5 124.5q92 0 167 -28l-55 -167q-22 22 -57 38.5t-71 16.5q-77 0 -121 -78.5t-44 -177.5 q0 -62 23.5 -94.5t80.5 -32.5q68 0 123 35z" />
<glyph unicode="&#x10d;" horiz-adv-x="483" d="M462 756l60 -36q-72 -80 -130 -160l-160 -10q-25 101 -58 170l74 36q48 -37 88 -91q64 54 126 91zM422 160l-8 -115q-80 -55 -193 -55q-92 0 -146 46t-54 139q0 135 104.5 235t253.5 100q73 0 129 -24l-52 -165q-51 79 -103 79q-46 0 -81.5 -65.5t-35.5 -130.5 q0 -94 64 -94q54 0 122 50z" />
<glyph unicode="&#x10e;" horiz-adv-x="694" d="M593 904l49 -24q-76 -76 -136 -155l-160 -10q-30 92 -76 165l59 24q66 -38 116 -83q66 44 148 83zM142 520l18 130h268q125 0 189.5 -61.5t64.5 -181.5q0 -108 -46.5 -199.5t-139.5 -149.5t-214 -58h-250zM454 416q0 67 -25 87.5t-76 21.5l-84 -400h12q42 0 76.5 30 t55 76t31 94t10.5 91z" />
<glyph unicode="&#x10f;" horiz-adv-x="616" d="M909 711q-65 -129 -168 -230l-65 13q42 111 70 227zM11 128q0 49 15.5 101.5t47 102.5t75.5 90t106.5 64t133.5 24h13q4 22 7 34l8 141l230 10q-6 -54 -46 -229q-66 -298 -66 -384q0 -45 8 -82h-210q-8 42 -8 82t10 98q-38 -82 -100.5 -136t-122.5 -54q-47 0 -74 36.5 t-27 101.5zM226 176q0 -47 22 -47q30 0 68 82.5t64 199.5q-16 4 -22 4q-48 0 -90 -84t-42 -155z" />
<glyph unicode="&#x110;" horiz-adv-x="694" d="M142 520l18 130h268q125 0 189.5 -61.5t64.5 -181.5q0 -108 -46.5 -199.5t-139.5 -149.5t-214 -58h-250l60 285h-53l15 80h55zM386 285h-83l-34 -160h12q42 0 76.5 30t55 76t31 94t10.5 91q0 67 -25 87.5t-76 21.5l-34 -160h83z" />
<glyph unicode="&#x111;" horiz-adv-x="616" d="M11 128q0 49 15.5 101.5t47 102.5t75.5 90t106.5 64t133.5 24h13q4 22 7 32h-110l17 80h97l4 63l230 10q-1 -8 -12 -73h67l-17 -80h-67q-5 -24 -17 -76q-66 -298 -66 -384q0 -45 8 -82h-210q-8 42 -8 82t10 98q-38 -82 -100.5 -136t-122.5 -54q-47 0 -74 36.5t-27 101.5z M226 176q0 -47 22 -47q30 0 68 82.5t64 199.5q-16 4 -22 4q-48 0 -90 -84t-42 -155z" />
<glyph unicode="&#x112;" horiz-adv-x="550" d="M220 754l23 110h330l-23 -110h-330zM457 0h-425l108 511l20 139h420l-38 -130l-187 10l-32 -150l171 5l-36 -120l-159 5l-32 -150l217 10z" />
<glyph unicode="&#x113;" horiz-adv-x="519" d="M180 602l26 120h290l-26 -120h-290zM458 160l-8 -115q-33 -21 -102 -38t-129 -17q-92 0 -145.5 45t-53.5 137q0 130 98 234t235 104q75 0 120 -32.5t45 -88.5q0 -76 -77 -132t-170 -56q-18 0 -36 3v-4q0 -90 77 -90q73 0 146 50zM320 415q-26 0 -50 -55.5t-32 -118.5 q42 21 71 65t29 81q0 28 -18 28z" />
<glyph unicode="&#x114;" horiz-adv-x="550" d="M355 713q-67 0 -101.5 47.5t-21.5 126.5l72 10q2 -76 80 -76q77 0 112 75l70 9q-22 -85 -79 -138.5t-132 -53.5zM457 0h-425l108 511l20 139h420l-38 -130l-187 10l-32 -150l171 5l-36 -120l-159 5l-32 -150l217 10z" />
<glyph unicode="&#x115;" horiz-adv-x="519" d="M293 557q-65 0 -96.5 53t-14.5 135l72 10q-2 -35 16.5 -59t50.5 -24t62 24.5t47 57.5l70 9q-25 -88 -81.5 -147t-125.5 -59zM458 160l-8 -115q-33 -21 -102 -38t-129 -17q-92 0 -145.5 45t-53.5 137q0 130 98 234t235 104q75 0 120 -32.5t45 -88.5q0 -76 -77 -132 t-170 -56q-18 0 -36 3v-4q0 -90 77 -90q73 0 146 50zM320 415q-26 0 -50 -55.5t-32 -118.5q42 21 71 65t29 81q0 28 -18 28z" />
<glyph unicode="&#x116;" horiz-adv-x="550" d="M514 834q0 -47 -46 -83t-105 -36q-38 0 -61.5 17t-23.5 47q0 45 46.5 83t106.5 38q38 0 60.5 -17t22.5 -49zM457 0h-425l108 511l20 139h420l-38 -130l-187 10l-32 -150l171 5l-36 -120l-159 5l-32 -150l217 10z" />
<glyph unicode="&#x117;" horiz-adv-x="519" d="M457 690q0 -47 -46 -83t-105 -36q-38 0 -61.5 17t-23.5 47q0 45 46.5 83t106.5 38q38 0 60.5 -17t22.5 -49zM458 160l-8 -115q-33 -21 -102 -38t-129 -17q-92 0 -145.5 45t-53.5 137q0 130 98 234t235 104q75 0 120 -32.5t45 -88.5q0 -76 -77 -132t-170 -56q-18 0 -36 3 v-4q0 -90 77 -90q73 0 146 50zM320 415q-26 0 -50 -55.5t-32 -118.5q42 21 71 65t29 81q0 28 -18 28z" />
<glyph unicode="&#x118;" horiz-adv-x="550" d="M440 0q-49 -19 -82 -49t-33 -56q0 -25 35 -25q19 0 49 9l7 -52q-63 -49 -148 -49q-94 0 -94 62q0 48 44 90.5t120 69.5h-306l108 511l20 139h420l-38 -130l-187 10l-32 -150l171 5l-36 -120l-159 5l-32 -150l217 10l-27 -130h-17z" />
<glyph unicode="&#x119;" horiz-adv-x="523" d="M458 160l-8 -115q-16 -10 -44 -21q-55 -23 -84.5 -58.5t-29.5 -65.5t35 -30q19 0 49 9l7 -52q-63 -49 -148 -49q-94 0 -94 62q0 85 104 151q-9 -1 -26 -1q-92 0 -145.5 45t-53.5 137q0 130 98 234t235 104q75 0 120 -32.5t45 -88.5q0 -76 -77 -132t-170 -56q-18 0 -36 3 v-4q0 -90 77 -90q73 0 146 50zM320 415q-26 0 -50 -55.5t-32 -118.5q42 21 71 65t29 81q0 28 -18 28z" />
<glyph unicode="&#x11a;" horiz-adv-x="550" d="M536 904l49 -24q-76 -76 -136 -155l-160 -10q-30 92 -76 165l59 24q66 -38 116 -83q66 44 148 83zM457 0h-425l108 511l20 139h420l-38 -130l-187 10l-32 -150l171 5l-36 -120l-159 5l-32 -150l217 10z" />
<glyph unicode="&#x11b;" horiz-adv-x="519" d="M450 756l60 -36q-72 -80 -130 -160l-160 -10q-25 101 -58 170l74 36q48 -37 88 -91q64 54 126 91zM458 160l-8 -115q-33 -21 -102 -38t-129 -17q-92 0 -145.5 45t-53.5 137q0 130 98 234t235 104q75 0 120 -32.5t45 -88.5q0 -76 -77 -132t-170 -56q-18 0 -36 3v-4 q0 -90 77 -90q73 0 146 50zM320 415q-26 0 -50 -55.5t-32 -118.5q42 21 71 65t29 81q0 28 -18 28z" />
<glyph unicode="&#x11c;" horiz-adv-x="627" d="M316 708l-49 24q76 76 136 155l160 10q30 -92 76 -165l-59 -24q-66 38 -116 83q-66 -44 -148 -83zM534 22q-110 -32 -217 -32q-276 0 -276 245q0 173 125 299t310 126q94 0 171 -28l-55 -167q-22 22 -57.5 38.5t-73.5 16.5q-87 0 -137 -79t-50 -184q0 -132 99 -144l15 72 l18 130l192 10z" />
<glyph unicode="&#x11d;" horiz-adv-x="561" d="M238 539l-60 36q72 80 130 160l160 10q25 -101 58 -170l-74 -36q-48 37 -88 91q-64 -54 -126 -91zM474 -46q0 -73 -79 -111t-217 -38q-238 0 -238 108q0 35 26 60.5t72 36.5l13 -10q0 -58 37 -100q41 -46 101 -46q29 0 46.5 12t17.5 29q0 20 -31.5 36t-69.5 27 t-69.5 35.5t-31.5 59.5q0 46 50 80t133 37v4q-98 0 -150.5 36t-52.5 103q0 83 75.5 140t225.5 57q160 0 243 10q29 -23 29 -58q0 -26 -16.5 -45t-42.5 -19q-17 0 -35 9t-46.5 26.5t-55.5 28.5l-2 -5q61 -27 94.5 -56.5t33.5 -75.5q0 -53 -46 -92t-114 -55q-108 -26 -108 -51 q0 -14 32.5 -28t71.5 -26.5t71.5 -43.5t32.5 -75zM236 279q0 -46 26 -46q30 0 48.5 50.5t18.5 97.5q0 43 -26 43q-33 0 -50 -49.5t-17 -95.5z" />
<glyph unicode="&#x11e;" horiz-adv-x="627" d="M422 713q-67 0 -101.5 47.5t-21.5 126.5l72 10q2 -76 80 -76q77 0 112 75l70 9q-22 -85 -79 -138.5t-132 -53.5zM534 22q-110 -32 -217 -32q-276 0 -276 245q0 173 125 299t310 126q94 0 171 -28l-55 -167q-22 22 -57.5 38.5t-73.5 16.5q-87 0 -137 -79t-50 -184 q0 -132 99 -144l15 72l18 130l192 10z" />
<glyph unicode="&#x11f;" horiz-adv-x="561" d="M327 557q-65 0 -96.5 53t-14.5 135l72 10q-2 -35 16.5 -59t50.5 -24t62 24.5t47 57.5l70 9q-25 -88 -81.5 -147t-125.5 -59zM474 -46q0 -73 -79 -111t-217 -38q-238 0 -238 108q0 35 26 60.5t72 36.5l13 -10q0 -58 37 -100q41 -46 101 -46q29 0 46.5 12t17.5 29 q0 20 -31.5 36t-69.5 27t-69.5 35.5t-31.5 59.5q0 46 50 80t133 37v4q-98 0 -150.5 36t-52.5 103q0 83 75.5 140t225.5 57q160 0 243 10q29 -23 29 -58q0 -26 -16.5 -45t-42.5 -19q-17 0 -35 9t-46.5 26.5t-55.5 28.5l-2 -5q61 -27 94.5 -56.5t33.5 -75.5q0 -53 -46 -92 t-114 -55q-108 -26 -108 -51q0 -14 32.5 -28t71.5 -26.5t71.5 -43.5t32.5 -75zM236 279q0 -46 26 -46q30 0 48.5 50.5t18.5 97.5q0 43 -26 43q-33 0 -50 -49.5t-17 -95.5z" />
<glyph unicode="&#x120;" horiz-adv-x="627" d="M581 834q0 -47 -46 -83t-105 -36q-38 0 -61.5 17t-23.5 47q0 45 46.5 83t106.5 38q38 0 60.5 -17t22.5 -49zM534 22q-110 -32 -217 -32q-276 0 -276 245q0 173 125 299t310 126q94 0 171 -28l-55 -167q-22 22 -57.5 38.5t-73.5 16.5q-87 0 -137 -79t-50 -184 q0 -132 99 -144l15 72l18 130l192 10z" />
<glyph unicode="&#x121;" horiz-adv-x="561" d="M466 690q0 -47 -46 -83t-105 -36q-38 0 -61.5 17t-23.5 47q0 45 46.5 83t106.5 38q38 0 60.5 -17t22.5 -49zM474 -46q0 -73 -79 -111t-217 -38q-238 0 -238 108q0 35 26 60.5t72 36.5l13 -10q0 -58 37 -100q41 -46 101 -46q29 0 46.5 12t17.5 29q0 20 -31.5 36t-69.5 27 t-69.5 35.5t-31.5 59.5q0 46 50 80t133 37v4q-98 0 -150.5 36t-52.5 103q0 83 75.5 140t225.5 57q160 0 243 10q29 -23 29 -58q0 -26 -16.5 -45t-42.5 -19q-17 0 -35 9t-46.5 26.5t-55.5 28.5l-2 -5q61 -27 94.5 -56.5t33.5 -75.5q0 -53 -46 -92t-114 -55q-108 -26 -108 -51 q0 -14 32.5 -28t71.5 -26.5t71.5 -43.5t32.5 -75zM236 279q0 -46 26 -46q30 0 48.5 50.5t18.5 97.5q0 43 -26 43q-33 0 -50 -49.5t-17 -95.5z" />
<glyph unicode="&#x122;" horiz-adv-x="627" d="M534 22q-110 -32 -217 -32q-276 0 -276 245q0 173 125 299t310 126q94 0 171 -28l-55 -167q-22 22 -57.5 38.5t-73.5 16.5q-87 0 -137 -79t-50 -184q0 -132 99 -144l15 72l18 130l192 10zM404 -123q0 -56 -47.5 -115t-101.5 -93l-43 34q34 36 55 73q-47 10 -47 61 q0 44 34.5 77t79.5 33q33 0 51.5 -19t18.5 -51z" />
<glyph unicode="&#x123;" horiz-adv-x="561" d="M249 625q0 56 47.5 115t101.5 93l43 -34q-34 -36 -55 -73q47 -10 47 -61q0 -44 -34.5 -77t-79.5 -33q-33 0 -51.5 19t-18.5 51zM474 -46q0 -73 -79 -111t-217 -38q-238 0 -238 108q0 35 26 60.5t72 36.5l13 -10q0 -58 37 -100q41 -46 101 -46q29 0 46.5 12t17.5 29 q0 20 -31.5 36t-69.5 27t-69.5 35.5t-31.5 59.5q0 46 50 80t133 37v4q-98 0 -150.5 36t-52.5 103q0 83 75.5 140t225.5 57q160 0 243 10q29 -23 29 -58q0 -26 -16.5 -45t-42.5 -19q-17 0 -35 9t-46.5 26.5t-55.5 28.5l-2 -5q61 -27 94.5 -56.5t33.5 -75.5q0 -53 -46 -92 t-114 -55q-108 -26 -108 -51q0 -14 32.5 -28t71.5 -26.5t71.5 -43.5t32.5 -75zM236 279q0 -46 26 -46q30 0 48.5 50.5t18.5 97.5q0 43 -26 43q-33 0 -50 -49.5t-17 -95.5z" />
<glyph unicode="&#x124;" horiz-adv-x="725" d="M334 708l-49 24q76 76 136 155l160 10q30 -92 76 -165l-59 -24q-66 38 -116 83q-66 -44 -148 -83zM242 0h-210l110 520l18 130l222 10l-64 -303h145l34 163l18 130l222 11l-140 -661h-210l53 252h-145z" />
<glyph unicode="&#x125;" d="M103 709l-49 24q76 76 136 155l160 10q30 -92 76 -165l-59 -24q-66 38 -116 83q-66 -44 -148 -83zM544 0h-210q-8 45 -8 90q0 31 21 130.5t21 114.5q0 25 -18 25q-26 0 -53.5 -46.5t-43.5 -115.5q-13 -80 -13 -122q0 -39 8 -76h-210q-8 38 -8 76q0 74 51 313l33 155 l8 141l230 10q-4 -34 -15 -88.5t-30.5 -143.5t-28.5 -131q35 79 92.5 128.5t119.5 49.5q46 0 73.5 -25.5t27.5 -75.5q0 -25 -27.5 -151.5t-27.5 -181.5q0 -39 8 -76z" />
<glyph unicode="&#x126;" horiz-adv-x="725" d="M242 0h-210l95 449h-56l17 90h57l15 111l222 10l-26 -121h144l15 111l222 11l-26 -122h47l-18 -90h-48l-95 -449h-210l53 252h-145zM318 357h145l19 92h-145z" />
<glyph unicode="&#x127;" d="M544 0h-210q-8 45 -8 90q0 31 21 130.5t21 114.5q0 25 -18 25q-26 0 -53.5 -46.5t-43.5 -115.5q-13 -80 -13 -122q0 -39 8 -76h-210q-8 38 -8 76q0 74 51 313l33 155v5h-61l17 80h49l3 56l230 10q-3 -25 -11 -66h115l-17 -80h-114q-6 -30 -14 -66t-17.5 -80.5 t-15.5 -70.5q35 79 92.5 128.5t119.5 49.5q46 0 73.5 -25.5t27.5 -75.5q0 -25 -27.5 -151.5t-27.5 -181.5q0 -39 8 -76z" />
<glyph unicode="&#x128;" horiz-adv-x="370" d="M257 892q32 0 71 -21t59 -21q19 0 33 10.5t35 36.5l42 -9q-17 -67 -54.5 -114.5t-88.5 -47.5q-28 0 -72 21t-61 21q-32 0 -68 -47l-43 9q17 68 54.5 115t92.5 47zM242 0h-210l110 520l18 130l222 10z" />
<glyph unicode="&#x129;" horiz-adv-x="327" d="M217 756q26 0 51 -23.5t37 -23.5q28 0 54 48l52 -9q-19 -78 -53.5 -127t-78.5 -49q-26 0 -52.5 23.5t-38.5 23.5q-28 0 -54 -48l-52 9q19 77 55 126.5t80 49.5zM313 509q-3 -34 -37.5 -202t-34.5 -230q0 -40 8 -77h-210q-8 39 -8 82q0 69 11 121l33 155l8 141z" />
<glyph unicode="&#x12a;" horiz-adv-x="370" d="M141 754l21 110h297l-21 -110h-297zM242 0h-210l110 520l18 130l222 10z" />
<glyph unicode="&#x12b;" horiz-adv-x="327" d="M120 602l22 120h247l-22 -120h-247zM313 509q-3 -34 -37.5 -202t-34.5 -230q0 -40 8 -77h-210q-8 39 -8 82q0 69 11 121l33 155l8 141z" />
<glyph unicode="&#x12c;" horiz-adv-x="370" d="M262 713q-67 0 -101.5 47.5t-21.5 126.5l72 10q2 -76 80 -76q77 0 112 75l70 9q-22 -85 -79 -138.5t-132 -53.5zM242 0h-210l110 520l18 130l222 10z" />
<glyph unicode="&#x12d;" horiz-adv-x="327" d="M203 554q-61 0 -86 55t-5 148l74 10q-4 -40 8.5 -63.5t38.5 -23.5t49.5 24.5t35.5 61.5l72 9q-21 -98 -71.5 -159.5t-115.5 -61.5zM313 509q-3 -34 -37.5 -202t-34.5 -230q0 -40 8 -77h-210q-8 39 -8 82q0 69 11 121l33 155l8 141z" />
<glyph unicode="&#x12e;" horiz-adv-x="330" d="M242 0q-45 -18 -77 -45t-37 -52q-3 -15 5 -24t29 -9q19 0 49 9l7 -52q-63 -49 -148 -49q-50 0 -75.5 20t-16.5 60q9 43 51.5 80t110.5 62h-108l110 520l18 130l222 10z" />
<glyph unicode="&#x12f;" horiz-adv-x="327" d="M365 690q0 -47 -46 -83t-105 -36q-38 0 -61.5 17t-23.5 47q0 45 46.5 83t106.5 38q38 0 60.5 -17t22.5 -49zM249 0q-49 -19 -82 -49t-33 -56q0 -25 35 -25q19 0 49 9l7 -52q-63 -49 -148 -49q-94 0 -94 62q0 48 44 90.5t120 69.5h-108q-8 39 -8 82q0 69 11 121l33 155 l8 141l230 10q-3 -34 -37.5 -202t-34.5 -230q0 -40 8 -77z" />
<glyph unicode="&#x130;" horiz-adv-x="370" d="M421 834q0 -47 -46 -83t-105 -36q-38 0 -61.5 17t-23.5 47q0 45 46.5 83t106.5 38q38 0 60.5 -17t22.5 -49zM242 0h-210l110 520l18 130l222 10z" />
<glyph unicode="&#x131;" horiz-adv-x="327" d="M313 509q-3 -34 -37.5 -202t-34.5 -230q0 -40 8 -77h-210q-8 39 -8 82q0 69 11 121l33 155l8 141z" />
<glyph unicode="&#x132;" horiz-adv-x="740" d="M242 0h-210l110 520l18 130l222 10zM289 -109q48 14 78.5 53t41.5 92l103 484l18 130l222 10l-107 -504q-9 -44 -17 -74t-22.5 -68.5t-31 -64t-43.5 -53t-60.5 -45t-80.5 -30t-105 -16.5z" />
<glyph unicode="&#x133;" horiz-adv-x="650" d="M365 690q0 -47 -46 -83t-105 -36q-38 0 -61.5 17t-23.5 47q0 45 46.5 83t106.5 38q38 0 60.5 -17t22.5 -49zM697 690q0 -47 -46 -83t-105 -36q-38 0 -61.5 17t-23.5 47q0 45 46.5 83t106.5 38q38 0 60.5 -17t22.5 -49zM313 509q-3 -34 -37.5 -202t-34.5 -230q0 -40 8 -77 h-210q-8 39 -8 82q0 69 11 121l33 155l8 141zM645 509q-6 -50 -94 -465q-48 -225 -300 -239l-29 70q33 15 55 34.5t35 46.5t18 44.5t12 50.5l65 307l8 141z" />
<glyph unicode="&#x134;" horiz-adv-x="370" d="M148 708l-49 24q76 76 136 155l160 10q30 -92 76 -165l-59 -24q-66 38 -116 83q-66 -44 -148 -83zM-81 -109q48 14 78.5 53t41.5 92l103 484l18 130l222 10l-107 -504q-9 -44 -17 -74t-22.5 -68.5t-31 -64t-43.5 -53t-60.5 -45t-80.5 -30t-105 -16.5z" />
<glyph unicode="&#x135;" horiz-adv-x="323" d="M132 554l-49 28q48 86 94 185l160 10q4 -118 18 -195l-59 -28q-34 39 -62 102q-57 -66 -102 -102zM318 509q-6 -50 -94 -465q-48 -225 -300 -239l-29 70q33 15 55 34.5t35 46.5t18 44.5t12 50.5l65 307l8 141z" />
<glyph unicode="&#x136;" horiz-adv-x="659" d="M142 520l18 130l222 10l-62 -292h52l164 292l193 -10l-205 -330l77 -320l-221 -10l-32 273h-50l-56 -263h-210zM349 -123q0 -56 -47.5 -115t-101.5 -93l-43 34q34 36 55 73q-47 10 -47 61q0 44 34.5 77t79.5 33q33 0 51.5 -19t18.5 -51z" />
<glyph unicode="&#x137;" horiz-adv-x="622" d="M248 0h-210q-8 40 -8 75q0 76 51 314l33 155l8 141l230 10q-4 -35 -16.5 -94.5t-32.5 -147t-30 -137.5h5q46 81 116.5 137.5t141.5 56.5q44 0 69 -23t25 -65q0 -97 -160 -198q36 -112 109 -224l-231 -10q-57 96 -70 185q133 103 133 169q0 31 -26 31q-45 0 -94 -93.5 t-51 -196.5v-1v-6q0 -41 8 -78zM368 -123q0 -56 -47.5 -115t-101.5 -93l-43 34q34 36 55 73q-47 10 -47 61q0 44 34.5 77t79.5 33q33 0 51.5 -19t18.5 -51z" />
<glyph unicode="&#x138;" horiz-adv-x="629" d="M248 0h-210q-8 42 -8 75q0 80 45 284l8 141l230 10q-4 -31 -25.5 -129t-30.5 -152h1q131 281 269 281q64 0 95 -29l-89 -174q-45 22 -87 22h-9q21 -156 140 -329l-231 -10q-55 89 -75 212q-31 -57 -31 -126q0 -40 8 -76z" />
<glyph unicode="&#x139;" horiz-adv-x="515" d="M450 792q-121 -69 -254 -95l-27 55q120 91 193 168zM452 0h-420l110 520l18 130l222 10l-115 -540l215 20z" />
<glyph unicode="&#x13a;" horiz-adv-x="326" d="M419 818q-121 -69 -254 -95l-27 55q120 91 193 168zM352 695q-5 -40 -58.5 -284.5t-53.5 -332.5q0 -41 8 -78h-210q-8 40 -8 75q0 76 51 314l33 155l8 141z" />
<glyph unicode="&#x13b;" horiz-adv-x="515" d="M452 0h-420l110 520l18 130l222 10l-115 -540l215 20zM284 -123q0 -56 -47.5 -115t-101.5 -93l-43 34q34 36 55 73q-47 10 -47 61q0 44 34.5 77t79.5 33q33 0 51.5 -19t18.5 -51z" />
<glyph unicode="&#x13c;" horiz-adv-x="326" d="M352 695q-5 -40 -58.5 -284.5t-53.5 -332.5q0 -41 8 -78h-210q-8 40 -8 75q0 76 51 314l33 155l8 141zM160 -123q0 -56 -47.5 -115t-101.5 -93l-43 34q34 36 55 73q-47 10 -47 61q0 44 34.5 77t79.5 33q33 0 51.5 -19t18.5 -51z" />
<glyph unicode="&#x13d;" horiz-adv-x="515" d="M654 708q-65 -129 -168 -230l-65 13q42 111 70 227zM452 0h-420l110 520l18 130l222 10l-115 -540l215 20z" />
<glyph unicode="&#x13e;" horiz-adv-x="326" d="M603 705q-65 -129 -168 -230l-65 13q42 111 70 227zM352 695q-5 -40 -58.5 -284.5t-53.5 -332.5q0 -41 8 -78h-210q-8 40 -8 75q0 76 51 314l33 155l8 141z" />
<glyph unicode="&#x13f;" horiz-adv-x="601" d="M452 0h-420l110 520l18 130l222 10l-115 -540l215 20zM474 251q-31 0 -50.5 18t-19.5 48q0 42 36 75t83 33q31 0 49.5 -16t18.5 -44q0 -44 -35.5 -79t-81.5 -35z" />
<glyph unicode="&#x140;" horiz-adv-x="604" d="M352 695q-5 -40 -58.5 -284.5t-53.5 -332.5q0 -41 8 -78h-210q-8 40 -8 75q0 76 51 314l33 155l8 141zM433 196q-31 0 -50.5 18t-19.5 48q0 42 36 75t83 33q31 0 49.5 -16t18.5 -44q0 -44 -35.5 -79t-81.5 -35z" />
<glyph unicode="&#x141;" horiz-adv-x="515" d="M452 0h-420l45 210l-68 -33l-24 74l112 55l45 214l18 130l222 10l-50 -237l99 49l25 -74l-145 -72l-44 -206l215 20z" />
<glyph unicode="&#x142;" horiz-adv-x="326" d="M427 493l-129 -64q-58 -258 -58 -351q0 -41 8 -78h-210q-8 40 -8 75q0 60 35 239l-85 -42l-24 74l130 64l28 134l8 141l230 10q-6 -51 -32 -169l82 41z" />
<glyph unicode="&#x143;" horiz-adv-x="705" d="M616 792q-121 -69 -254 -95l-27 55q120 91 193 168zM142 520l18 130l161 10l165 -372h2l62 362l167 10l-140 -660h-170l-150 342h-2l-58 -342h-165z" />
<glyph unicode="&#x144;" d="M522 652q-123 -75 -252 -103l-31 62q118 90 192 165zM248 0h-210q-8 42 -8 75q0 80 45 284l8 141l230 10q-2 -12 -37 -184q35 82 92.5 133t121.5 51q55 0 83 -37t13 -108q-4 -18 -11.5 -53t-11 -51t-9 -43t-8 -42.5t-5.5 -35t-4 -35t-1 -29.5q0 -39 8 -76h-210 q-8 45 -8 90q0 31 39 222q10 48 -15 48q-29 0 -59.5 -57.5t-43.5 -138.5q-7 -43 -7 -88q0 -40 8 -76z" />
<glyph unicode="&#x145;" horiz-adv-x="705" d="M142 520l18 130l161 10l165 -372h2l62 362l167 10l-140 -660h-170l-150 342h-2l-58 -342h-165zM397 -123q0 -56 -47.5 -115t-101.5 -93l-43 34q34 36 55 73q-47 10 -47 61q0 44 34.5 77t79.5 33q33 0 51.5 -19t18.5 -51z" />
<glyph unicode="&#x146;" d="M248 0h-210q-8 42 -8 75q0 80 45 284l8 141l230 10q-2 -12 -37 -184q35 82 92.5 133t121.5 51q55 0 83 -37t13 -108q-4 -18 -11.5 -53t-11 -51t-9 -43t-8 -42.5t-5.5 -35t-4 -35t-1 -29.5q0 -39 8 -76h-210q-8 45 -8 90q0 31 39 222q10 48 -15 48q-29 0 -59.5 -57.5 t-43.5 -138.5q-7 -43 -7 -88q0 -40 8 -76zM313 -123q0 -56 -47.5 -115t-101.5 -93l-43 34q34 36 55 73q-47 10 -47 61q0 44 34.5 77t79.5 33q33 0 51.5 -19t18.5 -51z" />
<glyph unicode="&#x147;" horiz-adv-x="705" d="M611 904l49 -24q-76 -76 -136 -155l-160 -10q-30 92 -76 165l59 24q66 -38 116 -83q66 44 148 83zM142 520l18 130l161 10l165 -372h2l62 362l167 10l-140 -660h-170l-150 342h-2l-58 -342h-165z" />
<glyph unicode="&#x148;" d="M492 756l60 -36q-72 -80 -130 -160l-160 -10q-25 101 -58 170l74 36q48 -37 88 -91q64 54 126 91zM248 0h-210q-8 42 -8 75q0 80 45 284l8 141l230 10q-2 -12 -37 -184q35 82 92.5 133t121.5 51q55 0 83 -37t13 -108q-4 -18 -11.5 -53t-11 -51t-9 -43t-8 -42.5t-5.5 -35 t-4 -35t-1 -29.5q0 -39 8 -76h-210q-8 45 -8 90q0 31 39 222q10 48 -15 48q-29 0 -59.5 -57.5t-43.5 -138.5q-7 -43 -7 -88q0 -40 8 -76z" />
<glyph unicode="&#x149;" horiz-adv-x="869" d="M343 627q0 -69 -71.5 -147t-149.5 -107l-23 38q70 50 106 114q-46 12 -46 61q0 43 34 76.5t80 33.5q33 0 51.5 -19t18.5 -50zM500 0h-210q-8 42 -8 75q0 80 45 284l8 141l230 10q-2 -12 -37 -184q35 82 92.5 133t121.5 51q55 0 83 -37t13 -108q-4 -18 -11.5 -53t-11 -51 t-9 -43t-8 -42.5t-5.5 -35t-4 -35t-1 -29.5q0 -39 8 -76h-210q-8 45 -8 90q0 31 39 222q10 48 -15 48q-29 0 -59.5 -57.5t-43.5 -138.5q-7 -43 -7 -88q0 -40 8 -76z" />
<glyph unicode="&#x14a;" horiz-adv-x="705" d="M254 -109q48 14 78.5 53t41.5 92l6 26l-123 280h-2l-58 -342h-165l110 520l18 130l161 10l165 -372h2l62 362l167 10l-93 -440l-14 -64q-10 -45 -17.5 -74t-22 -68t-31 -64t-43.5 -53t-60.5 -45t-80.5 -30t-105 -17z" />
<glyph unicode="&#x14b;" horiz-adv-x="584" d="M248 0h-210q-8 42 -8 75q0 80 45 284l8 141l230 10q-2 -12 -37 -184q35 81 92.5 132.5t119.5 51.5q49 0 76 -26.5t27 -70.5q0 -43 -72 -370q-48 -224 -300 -238l-29 70q33 15 55 34.5t35 46.5t18 44.5t12 50.5q58 271 58 287q0 22 -19 22q-28 0 -59 -58t-44 -139 q-6 -47 -6 -87t8 -76z" />
<glyph unicode="&#x14c;" horiz-adv-x="678" d="M281 754l23 110h330l-23 -110h-330zM670 425q0 -111 -49 -210t-142.5 -162t-210.5 -63q-110 0 -169.5 58t-59.5 174q0 83 29.5 162t81.5 140t128.5 98.5t164.5 37.5q110 0 168.5 -59.5t58.5 -175.5zM269 192q0 -92 43 -92q35 0 66 68t46.5 151.5t15.5 145.5q0 85 -39 85 q-37 0 -68.5 -66t-47.5 -147t-16 -145z" />
<glyph unicode="&#x14d;" horiz-adv-x="607" d="M216 602l26 120h290l-26 -120h-290zM584 314q0 -130 -100 -227t-246 -97q-98 0 -157 48.5t-59 142.5q0 129 101.5 229t246.5 100q99 0 156.5 -51t57.5 -145zM237 156q0 -71 32 -71q44 0 72 89t28 172q0 69 -33 69q-44 0 -71.5 -87t-27.5 -172z" />
<glyph unicode="&#x14e;" horiz-adv-x="678" d="M416 713q-67 0 -101.5 47.5t-21.5 126.5l72 10q2 -76 80 -76q77 0 112 75l70 9q-22 -85 -79 -138.5t-132 -53.5zM670 425q0 -111 -49 -210t-142.5 -162t-210.5 -63q-110 0 -169.5 58t-59.5 174q0 83 29.5 162t81.5 140t128.5 98.5t164.5 37.5q110 0 168.5 -59.5 t58.5 -175.5zM269 192q0 -92 43 -92q35 0 66 68t46.5 151.5t15.5 145.5q0 85 -39 85q-37 0 -68.5 -66t-47.5 -147t-16 -145z" />
<glyph unicode="&#x14f;" horiz-adv-x="607" d="M329 557q-65 0 -96.5 53t-14.5 135l72 10q-2 -35 16.5 -59t50.5 -24t62 24.5t47 57.5l70 9q-25 -88 -81.5 -147t-125.5 -59zM584 314q0 -130 -100 -227t-246 -97q-98 0 -157 48.5t-59 142.5q0 129 101.5 229t246.5 100q99 0 156.5 -51t57.5 -145zM237 156q0 -71 32 -71 q44 0 72 89t28 172q0 69 -33 69q-44 0 -71.5 -87t-27.5 -172z" />
<glyph unicode="&#x150;" horiz-adv-x="678" d="M465 807q-118 -79 -245 -108l-27 55q120 91 193 168zM724 807q-118 -79 -245 -108l-27 55q120 91 193 168zM670 425q0 -111 -49 -210t-142.5 -162t-210.5 -63q-110 0 -169.5 58t-59.5 174q0 83 29.5 162t81.5 140t128.5 98.5t164.5 37.5q110 0 168.5 -59.5t58.5 -175.5z M269 192q0 -92 43 -92q35 0 66 68t46.5 151.5t15.5 145.5q0 85 -39 85q-37 0 -68.5 -66t-47.5 -147t-16 -145z" />
<glyph unicode="&#x151;" horiz-adv-x="607" d="M402 748q-68 -108 -180 -197l-56 19q81 139 113 206zM583 748q-68 -108 -180 -197l-56 19q81 139 113 206zM584 314q0 -130 -100 -227t-246 -97q-98 0 -157 48.5t-59 142.5q0 129 101.5 229t246.5 100q99 0 156.5 -51t57.5 -145zM237 156q0 -71 32 -71q44 0 72 89t28 172 q0 69 -33 69q-44 0 -71.5 -87t-27.5 -172z" />
<glyph unicode="&#x152;" horiz-adv-x="868" d="M775 0h-419q-40 -10 -87 -10q-110 0 -169 60.5t-59 177.5q0 111 49 209t140.5 160.5t204.5 62.5q46 0 80 -10h383l-38 -130l-214 6q16 -45 16 -107q0 -14 -2 -38l152 4l-36 -120l-139 4q-28 -82 -82 -145l247 6zM268 198q0 -88 41 -88q35 0 66 65t46.5 144.5t15.5 139.5 q0 81 -39 81q-36 0 -67.5 -63t-47 -140.5t-15.5 -138.5z" />
<glyph unicode="&#x153;" horiz-adv-x="857" d="M796 160l-8 -115q-30 -20 -101 -37.5t-127 -17.5q-96 0 -141 57q-81 -57 -185 -57q-95 0 -153.5 49t-58.5 143q0 130 103 229t239 99q104 0 154 -62q82 62 177 62q72 0 116.5 -33t44.5 -89q0 -76 -77 -131.5t-170 -55.5q-18 0 -36 3v-4q0 -90 77 -90q73 0 146 50z M237 155q0 -70 32 -70q44 0 72 89t28 172q0 69 -33 69q-44 0 -71.5 -87t-27.5 -173zM658 415q-26 0 -50 -55.5t-32 -118.5q42 21 71 65t29 81q0 28 -18 28z" />
<glyph unicode="&#x154;" horiz-adv-x="646" d="M599 792q-121 -69 -254 -95l-27 55q120 91 193 168zM242 0h-210l110 520l18 130h265q230 0 230 -173q0 -76 -42.5 -135.5t-116.5 -95.5l77 -246l-225 -10l-28 213q-9 -1 -28 -1h-7zM359 535h-3l-47 -219h12q57 0 87.5 46t30.5 101q0 25 -7 41t-21 22t-24 7.5t-28 1.5z " />
<glyph unicode="&#x155;" horiz-adv-x="456" d="M457 652q-123 -75 -252 -103l-31 62q118 90 192 165zM248 0h-210q-8 42 -8 75q0 80 45 284l8 141l230 10q-2 -14 -42 -207q73 207 163 207q44 0 69 -37l-85 -166q-26 11 -55 11q-54 0 -87.5 -75.5t-35.5 -176.5q2 -37 8 -66z" />
<glyph unicode="&#x156;" horiz-adv-x="646" d="M242 0h-210l110 520l18 130h265q230 0 230 -173q0 -76 -42.5 -135.5t-116.5 -95.5l77 -246l-225 -10l-28 213q-9 -1 -28 -1h-7zM359 535h-3l-47 -219h12q57 0 87.5 46t30.5 101q0 25 -7 41t-21 22t-24 7.5t-28 1.5zM358 -123q0 -56 -47.5 -115t-101.5 -93l-43 34 q34 36 55 73q-47 10 -47 61q0 44 34.5 77t79.5 33q33 0 51.5 -19t18.5 -51z" />
<glyph unicode="&#x157;" horiz-adv-x="456" d="M248 0h-210q-8 42 -8 75q0 80 45 284l8 141l230 10q-2 -14 -42 -207q73 207 163 207q44 0 69 -37l-85 -166q-26 11 -55 11q-54 0 -87.5 -75.5t-35.5 -176.5q2 -37 8 -66zM204 -123q0 -56 -47.5 -115t-101.5 -93l-43 34q34 36 55 73q-47 10 -47 61q0 44 34.5 77t79.5 33 q33 0 51.5 -19t18.5 -51z" />
<glyph unicode="&#x158;" horiz-adv-x="646" d="M594 904l49 -24q-76 -76 -136 -155l-160 -10q-30 92 -76 165l59 24q66 -38 116 -83q66 44 148 83zM242 0h-210l110 520l18 130h265q230 0 230 -173q0 -76 -42.5 -135.5t-116.5 -95.5l77 -246l-225 -10l-28 213q-9 -1 -28 -1h-7zM359 535h-3l-47 -219h12q57 0 87.5 46 t30.5 101q0 25 -7 41t-21 22t-24 7.5t-28 1.5z" />
<glyph unicode="&#x159;" horiz-adv-x="456" d="M427 756l60 -36q-72 -80 -130 -160l-160 -10q-25 101 -58 170l74 36q48 -37 88 -91q64 54 126 91zM248 0h-210q-8 42 -8 75q0 80 45 284l8 141l230 10q-2 -14 -42 -207q73 207 163 207q44 0 69 -37l-85 -166q-26 11 -55 11q-54 0 -87.5 -75.5t-35.5 -176.5q2 -37 8 -66z " />
<glyph unicode="&#x15a;" horiz-adv-x="547" d="M557 792q-121 -69 -254 -95l-27 55q120 91 193 168zM501 218q0 -69 -45 -122t-116 -79.5t-153 -26.5q-46 0 -108 8t-94 19l69 186q36 -32 79.5 -52.5t77.5 -20.5q27 0 43.5 11t16.5 29t-20 36t-48 37t-56 42t-48 59.5t-20 81.5q0 103 95 168.5t242 65.5q88 0 164 -23 l-73 -177q-72 60 -137 60q-29 0 -44.5 -12t-15.5 -31q0 -17 14 -34t35.5 -30.5t46 -32.5t46 -39.5t35.5 -52.5t14 -70z" />
<glyph unicode="&#x15b;" horiz-adv-x="486" d="M477 652q-123 -75 -252 -103l-31 62q118 90 192 165zM441 173q0 -82 -80 -132.5t-204 -50.5q-104 0 -173 21l44 157q34 -20 81.5 -32.5t82.5 -12.5q43 0 43 22q0 13 -10.5 21.5t-39 20.5t-43.5 20q-81 43 -81 115q0 82 82 135t209 53q80 0 143 -19l-44 -158 q-82 44 -143 44q-40 0 -40 -25q0 -7 4 -13.5t14.5 -13t16 -9.5t22 -10.5t19.5 -8.5q45 -21 71 -48.5t26 -75.5z" />
<glyph unicode="&#x15c;" horiz-adv-x="547" d="M265 708l-49 24q76 76 136 155l160 10q30 -92 76 -165l-59 -24q-66 38 -116 83q-66 -44 -148 -83zM501 218q0 -69 -45 -122t-116 -79.5t-153 -26.5q-46 0 -108 8t-94 19l69 186q36 -32 79.5 -52.5t77.5 -20.5q27 0 43.5 11t16.5 29t-20 36t-48 37t-56 42t-48 59.5 t-20 81.5q0 103 95 168.5t242 65.5q88 0 164 -23l-73 -177q-72 60 -137 60q-29 0 -44.5 -12t-15.5 -31q0 -17 14 -34t35.5 -30.5t46 -32.5t46 -39.5t35.5 -52.5t14 -70z" />
<glyph unicode="&#x15d;" horiz-adv-x="486" d="M238 539l-60 36q72 80 130 160l160 10q25 -101 58 -170l-74 -36q-48 37 -88 91q-64 -54 -126 -91zM441 173q0 -82 -80 -132.5t-204 -50.5q-104 0 -173 21l44 157q34 -20 81.5 -32.5t82.5 -12.5q43 0 43 22q0 13 -10.5 21.5t-39 20.5t-43.5 20q-81 43 -81 115q0 82 82 135 t209 53q80 0 143 -19l-44 -158q-82 44 -143 44q-40 0 -40 -25q0 -7 4 -13.5t14.5 -13t16 -9.5t22 -10.5t19.5 -8.5q45 -21 71 -48.5t26 -75.5z" />
<glyph unicode="&#x15e;" horiz-adv-x="547" d="M178 -124q3 12 -7 22t-33 16l44 76q-129 2 -197 27l69 186q36 -32 79.5 -52.5t77.5 -20.5q27 0 43.5 11t16.5 29t-20 36t-48 37t-56 42t-48 59.5t-20 81.5q0 103 95 168.5t242 65.5q88 0 164 -23l-73 -177q-72 60 -137 60q-29 0 -44.5 -12t-15.5 -31q0 -17 14 -34 t35.5 -30.5t46 -32.5t46 -39.5t35.5 -52.5t14 -70q0 -92 -74.5 -152t-185.5 -73l-16 -28q58 -6 86 -28.5t21 -56.5q-23 -102 -248 -102l5 54q80 8 89 44z" />
<glyph unicode="&#x15f;" horiz-adv-x="486" d="M146 -124q3 12 -7 22t-33 16l44 76q-101 2 -166 21l44 157q34 -20 81.5 -32.5t82.5 -12.5q43 0 43 22q0 13 -10.5 21.5t-39 20.5t-43.5 20q-81 43 -81 115q0 82 82 135t209 53q80 0 143 -19l-44 -158q-82 44 -143 44q-40 0 -40 -25q0 -7 4 -13.5t14.5 -13t16 -9.5 t22 -10.5t19.5 -8.5q45 -21 71 -48.5t26 -75.5q0 -73 -64 -121.5t-168 -59.5l-16 -27q58 -6 86 -28.5t21 -56.5q-23 -102 -248 -102l5 54q80 8 89 44z" />
<glyph unicode="&#x160;" horiz-adv-x="547" d="M552 904l49 -24q-76 -76 -136 -155l-160 -10q-30 92 -76 165l59 24q66 -38 116 -83q66 44 148 83zM501 218q0 -69 -45 -122t-116 -79.5t-153 -26.5q-46 0 -108 8t-94 19l69 186q36 -32 79.5 -52.5t77.5 -20.5q27 0 43.5 11t16.5 29t-20 36t-48 37t-56 42t-48 59.5 t-20 81.5q0 103 95 168.5t242 65.5q88 0 164 -23l-73 -177q-72 60 -137 60q-29 0 -44.5 -12t-15.5 -31q0 -17 14 -34t35.5 -30.5t46 -32.5t46 -39.5t35.5 -52.5t14 -70z" />
<glyph unicode="&#x161;" horiz-adv-x="486" d="M447 756l60 -36q-72 -80 -130 -160l-160 -10q-25 101 -58 170l74 36q48 -37 88 -91q64 54 126 91zM441 173q0 -82 -80 -132.5t-204 -50.5q-104 0 -173 21l44 157q34 -20 81.5 -32.5t82.5 -12.5q43 0 43 22q0 13 -10.5 21.5t-39 20.5t-43.5 20q-81 43 -81 115q0 82 82 135 t209 53q80 0 143 -19l-44 -158q-82 44 -143 44q-40 0 -40 -25q0 -7 4 -13.5t14.5 -13t16 -9.5t22 -10.5t19.5 -8.5q45 -21 71 -48.5t26 -75.5z" />
<glyph unicode="&#x162;" horiz-adv-x="548" d="M183 -124q3 12 -7 22t-33 16l50 86h-77l109 515l-161 -10l40 145h510l-22 -145l-157 10l-109 -515h-76l-20 -35q58 -6 86 -28.5t21 -56.5q-23 -102 -248 -102l5 54q80 8 89 44z" />
<glyph unicode="&#x163;" horiz-adv-x="421" d="M120 -124q3 12 -7 22t-33 16l48 82q-95 23 -95 121q0 10 1 20.5t3.5 27t5 30.5t8 41t10 47.5t13 61t14.5 71.5l-53 1l12 53l79 20l76 119l141 9q-25 -115 -28 -128h129l-26 -83l-121 3q-50 -232 -50 -256q0 -32 38 -32q16 0 31.5 5.5t25.5 11.5t33 21l-8 -115 q-74 -55 -180 -55h-6l-14 -25q58 -6 86 -28.5t21 -56.5q-23 -102 -248 -102l5 54q80 8 89 44z" />
<glyph unicode="&#x164;" horiz-adv-x="548" d="M532 904l49 -24q-76 -76 -136 -155l-160 -10q-30 92 -76 165l59 24q66 -38 116 -83q66 44 148 83zM326 0h-210l109 515l-161 -10l40 145h510l-22 -145l-157 10z" />
<glyph unicode="&#x165;" horiz-adv-x="421" d="M598 753q-65 -129 -168 -230l-65 13q42 111 70 227zM367 45q-74 -55 -180 -55q-74 0 -114 32t-40 95q0 10 1 20.5t3.5 27t5 30.5t8 41t10 47.5t13 61t14.5 71.5l-53 1l12 53l79 20l76 119l141 9q-25 -115 -28 -128h129l-26 -83l-121 3q-50 -232 -50 -256q0 -32 38 -32 q16 0 31.5 5.5t25.5 11.5t33 21z" />
<glyph unicode="&#x166;" horiz-adv-x="548" d="M326 0h-210l61 285h-89l17 80h88l32 150l-161 -10l40 145h510l-22 -145l-157 10l-32 -150h88l-17 -80h-87z" />
<glyph unicode="&#x167;" horiz-adv-x="421" d="M367 45q-74 -55 -180 -55q-74 0 -114 32t-40 95q0 32 16 111h-53l17 80h52q4 18 12 57t11 51l-53 1l12 53l79 20l76 119l141 9q-25 -115 -28 -128h129l-26 -83l-121 3q-17 -79 -22 -102h124l-17 -80h-124q-11 -58 -11 -74q0 -32 38 -32q16 0 31.5 5.5t25.5 11.5t33 21z " />
<glyph unicode="&#x168;" horiz-adv-x="705" d="M430 892q32 0 71 -21t59 -21q19 0 33 10.5t35 36.5l42 -9q-17 -67 -54.5 -114.5t-88.5 -47.5q-28 0 -72 21t-61 21q-32 0 -68 -47l-43 9q17 68 54.5 115t92.5 47zM328 110q31 0 53.5 28t32.5 77l63 305l18 130l222 10l-93 -436q-24 -111 -117.5 -172.5t-214.5 -61.5 q-103 0 -161 46t-58 134q0 7 0.5 14t1.5 14.5t3.5 21.5t5.5 28.5t9 42t12 55.5t16.5 76.5t20.5 97.5l18 130l222 9q-21 -98 -50 -235q-49 -228 -49 -259q0 -23 11.5 -39t33.5 -16z" />
<glyph unicode="&#x169;" d="M334 753q33 0 72.5 -26t60.5 -26q16 0 28 11.5t32 40.5l43 -9q-17 -69 -53 -118t-84 -49q-28 0 -73 26t-62 26q-27 0 -60 -52l-43 9q16 70 51.5 118.5t87.5 48.5zM75 358l8 141l230 10q-8 -67 -24.5 -148t-29 -135.5t-12.5 -68.5q0 -17 11 -17t27.5 19t38 66.5 t37.5 112.5q2 12 4 20q10 44 10 97q0 14 -2 44l230 10q-3 -34 -37.5 -202t-34.5 -230q0 -40 8 -77h-210q-8 39 -8 82q0 47 2 67q-36 -76 -94 -117.5t-113 -41.5q-88 0 -88 112q0 39 38 214q6 27 9 42z" />
<glyph unicode="&#x16a;" horiz-adv-x="705" d="M300 754l23 110h330l-23 -110h-330zM328 110q31 0 53.5 28t32.5 77l63 305l18 130l222 10l-93 -436q-24 -111 -117.5 -172.5t-214.5 -61.5q-103 0 -161 46t-58 134q0 7 0.5 14t1.5 14.5t3.5 21.5t5.5 28.5t9 42t12 55.5t16.5 76.5t20.5 97.5l18 130l222 9 q-21 -98 -50 -235q-49 -228 -49 -259q0 -23 11.5 -39t33.5 -16z" />
<glyph unicode="&#x16b;" d="M223 602l26 120h290l-26 -120h-290zM75 358l8 141l230 10q-8 -67 -24.5 -148t-29 -135.5t-12.5 -68.5q0 -17 11 -17t27.5 19t38 66.5t37.5 112.5q2 12 4 20q10 44 10 97q0 14 -2 44l230 10q-3 -34 -37.5 -202t-34.5 -230q0 -40 8 -77h-210q-8 39 -8 82q0 47 2 67 q-36 -76 -94 -117.5t-113 -41.5q-88 0 -88 112q0 39 38 214q6 27 9 42z" />
<glyph unicode="&#x16c;" horiz-adv-x="705" d="M435 713q-67 0 -101.5 47.5t-21.5 126.5l72 10q2 -76 80 -76q77 0 112 75l70 9q-22 -85 -79 -138.5t-132 -53.5zM328 110q31 0 53.5 28t32.5 77l63 305l18 130l222 10l-93 -436q-24 -111 -117.5 -172.5t-214.5 -61.5q-103 0 -161 46t-58 134q0 7 0.5 14t1.5 14.5 t3.5 21.5t5.5 28.5t9 42t12 55.5t16.5 76.5t20.5 97.5l18 130l222 9q-21 -98 -50 -235q-49 -228 -49 -259q0 -23 11.5 -39t33.5 -16z" />
<glyph unicode="&#x16d;" d="M336 557q-65 0 -96.5 53t-14.5 135l72 10q-2 -35 16.5 -59t50.5 -24t62 24.5t47 57.5l70 9q-25 -88 -81.5 -147t-125.5 -59zM75 358l8 141l230 10q-8 -67 -24.5 -148t-29 -135.5t-12.5 -68.5q0 -17 11 -17t27.5 19t38 66.5t37.5 112.5q2 12 4 20q10 44 10 97q0 14 -2 44 l230 10q-3 -34 -37.5 -202t-34.5 -230q0 -40 8 -77h-210q-8 39 -8 82q0 47 2 67q-36 -76 -94 -117.5t-113 -41.5q-88 0 -88 112q0 39 38 214q6 27 9 42z" />
<glyph unicode="&#x16e;" horiz-adv-x="705" d="M609 840q0 -56 -50 -95.5t-117 -39.5q-47 0 -71.5 21t-24.5 55q0 53 50.5 94t119.5 41q45 0 69 -20t24 -56zM429 801q0 -12 10 -19.5t26 -7.5q24 0 42.5 14.5t18.5 32.5q0 26 -35 26q-23 0 -42.5 -14t-19.5 -32zM328 110q31 0 53.5 28t32.5 77l63 305l18 130l222 10 l-93 -436q-24 -111 -117.5 -172.5t-214.5 -61.5q-103 0 -161 46t-58 134q0 7 0.5 14t1.5 14.5t3.5 21.5t5.5 28.5t9 42t12 55.5t16.5 76.5t20.5 97.5l18 130l222 9q-21 -98 -50 -235q-49 -228 -49 -259q0 -23 11.5 -39t33.5 -16z" />
<glyph unicode="&#x16f;" d="M509 696q0 -60 -49 -103.5t-115 -43.5q-51 0 -75.5 27t-14.5 75q11 54 56 91t106 37q43 0 67.5 -21t24.5 -62zM331 646q0 -32 35 -32q27 0 46 19.5t19 46.5q0 34 -35 34q-27 0 -46 -20.5t-19 -47.5zM75 358l8 141l230 10q-8 -67 -24.5 -148t-29 -135.5t-12.5 -68.5 q0 -17 11 -17t27.5 19t38 66.5t37.5 112.5q2 12 4 20q10 44 10 97q0 14 -2 44l230 10q-3 -34 -37.5 -202t-34.5 -230q0 -40 8 -77h-210q-8 39 -8 82q0 47 2 67q-36 -76 -94 -117.5t-113 -41.5q-88 0 -88 112q0 39 38 214q6 27 9 42z" />
<glyph unicode="&#x170;" horiz-adv-x="705" d="M484 807q-118 -79 -245 -108l-27 55q120 91 193 168zM743 807q-118 -79 -245 -108l-27 55q120 91 193 168zM328 110q31 0 53.5 28t32.5 77l63 305l18 130l222 10l-93 -436q-24 -111 -117.5 -172.5t-214.5 -61.5q-103 0 -161 46t-58 134q0 7 0.5 14t1.5 14.5t3.5 21.5 t5.5 28.5t9 42t12 55.5t16.5 76.5t20.5 97.5l18 130l222 9q-21 -98 -50 -235q-49 -228 -49 -259q0 -23 11.5 -39t33.5 -16z" />
<glyph unicode="&#x171;" d="M409 748q-68 -108 -180 -197l-56 19q81 139 113 206zM590 748q-68 -108 -180 -197l-56 19q81 139 113 206zM75 358l8 141l230 10q-8 -67 -24.5 -148t-29 -135.5t-12.5 -68.5q0 -17 11 -17t27.5 19t38 66.5t37.5 112.5q2 12 4 20q10 44 10 97q0 14 -2 44l230 10 q-3 -34 -37.5 -202t-34.5 -230q0 -40 8 -77h-210q-8 39 -8 82q0 47 2 67q-36 -76 -94 -117.5t-113 -41.5q-88 0 -88 112q0 39 38 214q6 27 9 42z" />
<glyph unicode="&#x172;" horiz-adv-x="655" d="M328 110q31 0 53.5 28t32.5 77l63 305l18 130l222 10l-93 -436q-24 -115 -128 -179q-123 -84 -123 -147q0 -28 34 -28q20 0 50 9l7 -52q-63 -49 -147 -49q-95 0 -95 71q0 78 105 142q-12 -1 -35 -1q-103 0 -161 46t-58 134q0 7 0.5 14t1.5 14.5t3.5 21.5t5.5 28.5t9 42 t12 55.5t16.5 76.5t20.5 97.5l18 130l222 9q-21 -98 -50 -235q-49 -228 -49 -259q0 -23 11.5 -39t33.5 -16z" />
<glyph unicode="&#x173;" d="M75 358l8 141l230 10q-8 -67 -24.5 -148t-29 -135.5t-12.5 -68.5q0 -17 11 -17t27.5 19t38 66.5t37.5 112.5q2 12 4 20q10 44 10 97q0 14 -2 44l230 10q-3 -34 -37.5 -202t-34.5 -230q0 -40 8 -77q-49 -19 -82 -49t-33 -56q0 -25 35 -25q19 0 49 9l7 -52 q-63 -49 -148 -49q-94 0 -94 62q0 48 44 90.5t120 69.5h-108q-8 39 -8 82q0 47 2 67q-36 -76 -94 -117.5t-113 -41.5q-88 0 -88 112q0 39 38 214q6 27 9 42z" />
<glyph unicode="&#x174;" horiz-adv-x="955" d="M456 708l-49 24q76 76 136 155l160 10q30 -92 76 -165l-59 -24q-66 38 -116 83q-66 -44 -148 -83zM70 0l25 650l208 10l-37 -508h2l178 498h264l-39 -498h2l181 508l181 -10l-279 -650h-288l52 468h-2l-160 -468h-288z" />
<glyph unicode="&#x175;" horiz-adv-x="850" d="M387 539l-60 36q72 80 130 160l160 10q25 -101 58 -170l-74 -36q-48 37 -88 91q-64 -54 -126 -91zM67 236q0 169 -19 264l215 10q11 -51 11 -124q0 -139 -32 -310h3q55 102 86.5 217t33.5 207l200 10q11 -51 11 -124q0 -139 -32 -310h3q55 102 86.5 217t33.5 207 q54 10 94 10q48 0 73.5 -17t25.5 -61q0 -37 -21 -91.5t-60 -116t-105.5 -125t-146.5 -109.5l-154 10q22 121 30 325q-32 -95 -81.5 -191.5t-96.5 -143.5l-169 10q11 99 11 236z" />
<glyph unicode="&#x176;" horiz-adv-x="602" d="M275 708l-49 24q76 76 136 155l160 10q30 -92 76 -165l-59 -24q-66 38 -116 83q-66 -44 -148 -83zM356 0h-210l43 202l-94 448l208 10l29 -292h2l155 292l193 -10l-283 -448z" />
<glyph unicode="&#x177;" horiz-adv-x="558" d="M253 539l-60 36q72 80 130 160l160 10q25 -101 58 -170l-74 -36q-48 37 -88 91q-64 -54 -126 -91zM356 14q-171 -209 -361 -209q-117 0 -117 79q0 26 11.5 51.5t31.5 38.5q59 -18 126 -18q59 0 111 19t68 50l-160 9q11 85 11 205q0 166 -19 261l215 10q11 -51 11 -124 q0 -125 -32 -276h3q55 94 86.5 200t33.5 190q54 10 94 10q99 0 99 -76q0 -69 -65.5 -194.5t-146.5 -225.5z" />
<glyph unicode="&#x178;" horiz-adv-x="602" d="M409 836q0 -45 -43 -81t-98 -35q-36 1 -57.5 17.5t-21.5 45.5q0 43 43.5 79.5t99.5 37.5q35 1 56 -16t21 -48zM658 836q0 -45 -43 -81t-98 -35q-36 1 -57.5 17.5t-21.5 45.5q0 43 43.5 79.5t99.5 37.5q35 1 56 -16t21 -48zM356 0h-210l43 202l-94 448l208 10l29 -292h2 l155 292l193 -10l-283 -448z" />
<glyph unicode="&#x179;" horiz-adv-x="538" d="M532 792q-121 -69 -254 -95l-27 55q120 91 193 168zM445 0h-443l-2 107l318 399q-148 -6 -225 -8l42 152h423l2 -106l-319 -400q42 3 124.5 8t123.5 8z" />
<glyph unicode="&#x17a;" horiz-adv-x="502" d="M480 652q-123 -75 -252 -103l-31 62q118 90 192 165zM3 -10l-33 48q174 151 296 286q-47 20 -102 20q-67 0 -101 -46l-28 10q24 202 144 202q81 0 174 -84q31 37 64 84q33 0 57.5 -14.5t24.5 -47.5q0 -34 -27.5 -73t-74 -76t-93.5 -67t-99 -58q14 -1 54 -9.5t67 -8.5 q94 0 132 58l28 -10q-28 -123 -75 -168.5t-118 -45.5q-40 0 -97.5 15t-83.5 15q-50 0 -109 -30z" />
<glyph unicode="&#x17b;" horiz-adv-x="538" d="M505 834q0 -47 -46 -83t-105 -36q-38 0 -61.5 17t-23.5 47q0 45 46.5 83t106.5 38q38 0 60.5 -17t22.5 -49zM445 0h-443l-2 107l318 399q-148 -6 -225 -8l42 152h423l2 -106l-319 -400q42 3 124.5 8t123.5 8z" />
<glyph unicode="&#x17c;" horiz-adv-x="502" d="M457 690q0 -47 -46 -83t-105 -36q-38 0 -61.5 17t-23.5 47q0 45 46.5 83t106.5 38q38 0 60.5 -17t22.5 -49zM3 -10l-33 48q174 151 296 286q-47 20 -102 20q-67 0 -101 -46l-28 10q24 202 144 202q81 0 174 -84q31 37 64 84q33 0 57.5 -14.5t24.5 -47.5q0 -34 -27.5 -73 t-74 -76t-93.5 -67t-99 -58q14 -1 54 -9.5t67 -8.5q94 0 132 58l28 -10q-28 -123 -75 -168.5t-118 -45.5q-40 0 -97.5 15t-83.5 15q-50 0 -109 -30z" />
<glyph unicode="&#x17d;" horiz-adv-x="538" d="M527 904l49 -24q-76 -76 -136 -155l-160 -10q-30 92 -76 165l59 24q66 -38 116 -83q66 44 148 83zM445 0h-443l-2 107l318 399q-148 -6 -225 -8l42 152h423l2 -106l-319 -400q42 3 124.5 8t123.5 8z" />
<glyph unicode="&#x17e;" horiz-adv-x="502" d="M450 756l60 -36q-72 -80 -130 -160l-160 -10q-25 101 -58 170l74 36q48 -37 88 -91q64 54 126 91zM3 -10l-33 48q174 151 296 286q-47 20 -102 20q-67 0 -101 -46l-28 10q24 202 144 202q81 0 174 -84q31 37 64 84q33 0 57.5 -14.5t24.5 -47.5q0 -34 -27.5 -73t-74 -76 t-93.5 -67t-99 -58q14 -1 54 -9.5t67 -8.5q94 0 132 58l28 -10q-28 -123 -75 -168.5t-118 -45.5q-40 0 -97.5 15t-83.5 15q-50 0 -109 -30z" />
<glyph unicode="&#x18f;" horiz-adv-x="633" d="M86 445l11 144q45 29 119.5 50t151.5 21q121 0 189 -59.5t68 -178.5q0 -110 -55.5 -210t-149 -161t-198.5 -61q-86 0 -135.5 42t-49.5 114q0 104 97.5 173t219.5 69q24 0 46 -3v2q0 123 -126 123q-95 0 -188 -65zM247 136q0 -36 24 -36q40 0 77.5 79.5t48.5 165.5 q-62 -22 -106 -87t-44 -122z" />
<glyph unicode="&#x192;" horiz-adv-x="594" d="M477 247l-138 3l-56 -171q-7 -20 -11.5 -33t-18 -40.5t-27.5 -47t-39 -44t-53 -39.5t-69 -25.5t-88 -10.5q-54 0 -106 14l63 111q39 -15 63 -15q63 0 86 94l50 212l-91 2l21 53l88 20q19 80 35 118q89 212 325 212q94 0 139 -29l-76 -133q-13 19 -38 35.5t-47 16.5 q-56 0 -91 -108q-36 -109 -36 -112h149z" />
<glyph unicode="&#x19d;" horiz-adv-x="705" d="M-85 -195l4 86q48 14 78.5 53t41.5 92l103 484l18 130l161 10l165 -372h2l62 362l167 10l-140 -660h-170l-150 342h-2q-35 -204 -43 -241q-30 -141 -97.5 -213t-199.5 -83z" />
<glyph unicode="&#x1cd;" horiz-adv-x="647" d="M587 904l49 -24q-76 -76 -136 -155l-160 -10q-30 92 -76 165l59 24q66 -38 116 -83q66 44 148 83zM152 0h-195l264 520l61 131l264 9l38 -660h-206l-1 125h-170zM372 503l-122 -278h126l-2 278h-2z" />
<glyph unicode="&#x1ce;" horiz-adv-x="621" d="M517 756l60 -36q-72 -80 -130 -160l-160 -10q-25 101 -58 170l74 36q48 -37 88 -91q64 54 126 91zM11 128q0 49 15.5 101.5t47 102.5t75.5 90t106.5 64t133.5 24q112 0 212 -44l-38 -178q-28 -128 -28 -206q0 -45 8 -82h-210q-8 42 -8 78q0 43 10 102 q-38 -82 -100.5 -136t-122.5 -54q-47 0 -74 36.5t-27 101.5zM226 176q0 -47 22 -47q30 0 68 82.5t64 199.5q-16 4 -22 4q-48 0 -90 -84t-42 -155z" />
<glyph unicode="&#x1cf;" horiz-adv-x="370" d="M443 904l49 -24q-76 -76 -136 -155l-160 -10q-30 92 -76 165l59 24q66 -38 116 -83q66 44 148 83zM242 0h-210l110 520l18 130l222 10z" />
<glyph unicode="&#x1d0;" horiz-adv-x="327" d="M344 777l49 -28q-48 -86 -94 -185l-160 -10q-4 118 -18 195l59 28q34 -39 62 -102q57 66 102 102zM313 509q-3 -34 -37.5 -202t-34.5 -230q0 -40 8 -77h-210q-8 39 -8 82q0 69 11 121l33 155l8 141z" />
<glyph unicode="&#x1d1;" horiz-adv-x="678" d="M597 904l49 -24q-76 -76 -136 -155l-160 -10q-30 92 -76 165l59 24q66 -38 116 -83q66 44 148 83zM670 425q0 -111 -49 -210t-142.5 -162t-210.5 -63q-110 0 -169.5 58t-59.5 174q0 83 29.5 162t81.5 140t128.5 98.5t164.5 37.5q110 0 168.5 -59.5t58.5 -175.5zM269 192 q0 -92 43 -92q35 0 66 68t46.5 151.5t15.5 145.5q0 85 -39 85q-37 0 -68.5 -66t-47.5 -147t-16 -145z" />
<glyph unicode="&#x1d2;" horiz-adv-x="607" d="M486 756l60 -36q-72 -80 -130 -160l-160 -10q-25 101 -58 170l74 36q48 -37 88 -91q64 54 126 91zM584 314q0 -130 -100 -227t-246 -97q-98 0 -157 48.5t-59 142.5q0 129 101.5 229t246.5 100q99 0 156.5 -51t57.5 -145zM237 156q0 -71 32 -71q44 0 72 89t28 172 q0 69 -33 69q-44 0 -71.5 -87t-27.5 -172z" />
<glyph unicode="&#x1d3;" horiz-adv-x="705" d="M616 904l49 -24q-76 -76 -136 -155l-160 -10q-30 92 -76 165l59 24q66 -38 116 -83q66 44 148 83zM328 110q31 0 53.5 28t32.5 77l63 305l18 130l222 10l-93 -436q-24 -111 -117.5 -172.5t-214.5 -61.5q-103 0 -161 46t-58 134q0 7 0.5 14t1.5 14.5t3.5 21.5t5.5 28.5 t9 42t12 55.5t16.5 76.5t20.5 97.5l18 130l222 9q-21 -98 -50 -235q-49 -228 -49 -259q0 -23 11.5 -39t33.5 -16z" />
<glyph unicode="&#x1d4;" d="M493 756l60 -36q-72 -80 -130 -160l-160 -10q-25 101 -58 170l74 36q48 -37 88 -91q64 54 126 91zM75 358l8 141l230 10q-8 -67 -24.5 -148t-29 -135.5t-12.5 -68.5q0 -17 11 -17t27.5 19t38 66.5t37.5 112.5q2 12 4 20q10 44 10 97q0 14 -2 44l230 10q-3 -34 -37.5 -202 t-34.5 -230q0 -40 8 -77h-210q-8 39 -8 82q0 47 2 67q-36 -76 -94 -117.5t-113 -41.5q-88 0 -88 112q0 39 38 214q6 27 9 42z" />
<glyph unicode="&#x1d5;" horiz-adv-x="705" d="M354 1004l23 110h330l-23 -110h-330zM463 836q0 -45 -43 -81t-98 -35q-36 1 -57.5 17.5t-21.5 45.5q0 43 43.5 79.5t99.5 37.5q35 1 56 -16t21 -48zM712 836q0 -45 -43 -81t-98 -35q-36 1 -57.5 17.5t-21.5 45.5q0 43 43.5 79.5t99.5 37.5q35 1 56 -16t21 -48zM328 110 q31 0 53.5 28t32.5 77l63 305l18 130l222 10l-93 -436q-24 -111 -117.5 -172.5t-214.5 -61.5q-103 0 -161 46t-58 134q0 7 0.5 14t1.5 14.5t3.5 21.5t5.5 28.5t9 42t12 55.5t16.5 76.5t20.5 97.5l18 130l222 9q-21 -98 -50 -235q-49 -228 -49 -259q0 -23 11.5 -39t33.5 -16z " />
<glyph unicode="&#x1d6;" d="M276 851l26 120h290l-26 -120h-290zM355 685q0 -45 -43 -81t-98 -35q-36 1 -57.5 17.5t-21.5 45.5q0 43 43.5 79.5t99.5 37.5q35 1 56 -16t21 -48zM627 685q0 -45 -43 -81t-98 -35q-36 1 -57.5 17.5t-21.5 45.5q0 43 43.5 79.5t99.5 37.5q35 1 56 -16t21 -48zM75 358 l8 141l230 10q-8 -67 -24.5 -148t-29 -135.5t-12.5 -68.5q0 -17 11 -17t27.5 19t38 66.5t37.5 112.5q2 12 4 20q10 44 10 97q0 14 -2 44l230 10q-3 -34 -37.5 -202t-34.5 -230q0 -40 8 -77h-210q-8 39 -8 82q0 47 2 67q-36 -76 -94 -117.5t-113 -41.5q-88 0 -88 112 q0 39 38 214q6 27 9 42z" />
<glyph unicode="&#x1d7;" horiz-adv-x="705" d="M675 1042q-121 -69 -254 -95l-27 55q120 91 193 168zM463 836q0 -45 -43 -81t-98 -35q-36 1 -57.5 17.5t-21.5 45.5q0 43 43.5 79.5t99.5 37.5q35 1 56 -16t21 -48zM712 836q0 -45 -43 -81t-98 -35q-36 1 -57.5 17.5t-21.5 45.5q0 43 43.5 79.5t99.5 37.5q35 1 56 -16 t21 -48zM328 110q31 0 53.5 28t32.5 77l63 305l18 130l222 10l-93 -436q-24 -111 -117.5 -172.5t-214.5 -61.5q-103 0 -161 46t-58 134q0 7 0.5 14t1.5 14.5t3.5 21.5t5.5 28.5t9 42t12 55.5t16.5 76.5t20.5 97.5l18 130l222 9q-21 -98 -50 -235q-49 -228 -49 -259 q0 -23 11.5 -39t33.5 -16z" />
<glyph unicode="&#x1d8;" d="M576 901q-123 -75 -252 -103l-31 62q118 90 192 165zM355 685q0 -45 -43 -81t-98 -35q-36 1 -57.5 17.5t-21.5 45.5q0 43 43.5 79.5t99.5 37.5q35 1 56 -16t21 -48zM627 685q0 -45 -43 -81t-98 -35q-36 1 -57.5 17.5t-21.5 45.5q0 43 43.5 79.5t99.5 37.5q35 1 56 -16 t21 -48zM75 358l8 141l230 10q-8 -67 -24.5 -148t-29 -135.5t-12.5 -68.5q0 -17 11 -17t27.5 19t38 66.5t37.5 112.5q2 12 4 20q10 44 10 97q0 14 -2 44l230 10q-3 -34 -37.5 -202t-34.5 -230q0 -40 8 -77h-210q-8 39 -8 82q0 47 2 67q-36 -76 -94 -117.5t-113 -41.5 q-88 0 -88 112q0 39 38 214q6 27 9 42z" />
<glyph unicode="&#x1d9;" horiz-adv-x="705" d="M670 1154l49 -24q-76 -76 -136 -155l-160 -10q-30 92 -76 165l59 24q66 -38 116 -83q66 44 148 83zM463 836q0 -45 -43 -81t-98 -35q-36 1 -57.5 17.5t-21.5 45.5q0 43 43.5 79.5t99.5 37.5q35 1 56 -16t21 -48zM712 836q0 -45 -43 -81t-98 -35q-36 1 -57.5 17.5 t-21.5 45.5q0 43 43.5 79.5t99.5 37.5q35 1 56 -16t21 -48zM328 110q31 0 53.5 28t32.5 77l63 305l18 130l222 10l-93 -436q-24 -111 -117.5 -172.5t-214.5 -61.5q-103 0 -161 46t-58 134q0 7 0.5 14t1.5 14.5t3.5 21.5t5.5 28.5t9 42t12 55.5t16.5 76.5t20.5 97.5l18 130 l222 9q-21 -98 -50 -235q-49 -228 -49 -259q0 -23 11.5 -39t33.5 -16z" />
<glyph unicode="&#x1da;" d="M546 1005l60 -36q-72 -80 -130 -160l-160 -10q-25 101 -58 170l74 36q48 -37 88 -91q64 54 126 91zM355 685q0 -45 -43 -81t-98 -35q-36 1 -57.5 17.5t-21.5 45.5q0 43 43.5 79.5t99.5 37.5q35 1 56 -16t21 -48zM627 685q0 -45 -43 -81t-98 -35q-36 1 -57.5 17.5 t-21.5 45.5q0 43 43.5 79.5t99.5 37.5q35 1 56 -16t21 -48zM75 358l8 141l230 10q-8 -67 -24.5 -148t-29 -135.5t-12.5 -68.5q0 -17 11 -17t27.5 19t38 66.5t37.5 112.5q2 12 4 20q10 44 10 97q0 14 -2 44l230 10q-3 -34 -37.5 -202t-34.5 -230q0 -40 8 -77h-210 q-8 39 -8 82q0 47 2 67q-36 -76 -94 -117.5t-113 -41.5q-88 0 -88 112q0 39 38 214q6 27 9 42z" />
<glyph unicode="&#x1db;" horiz-adv-x="705" d="M675 1001l-27 -55q-133 26 -254 95l88 128q73 -77 193 -168zM463 836q0 -45 -43 -81t-98 -35q-36 1 -57.5 17.5t-21.5 45.5q0 43 43.5 79.5t99.5 37.5q35 1 56 -16t21 -48zM712 836q0 -45 -43 -81t-98 -35q-36 1 -57.5 17.5t-21.5 45.5q0 43 43.5 79.5t99.5 37.5 q35 1 56 -16t21 -48zM328 110q31 0 53.5 28t32.5 77l63 305l18 130l222 10l-93 -436q-24 -111 -117.5 -172.5t-214.5 -61.5q-103 0 -161 46t-58 134q0 7 0.5 14t1.5 14.5t3.5 21.5t5.5 28.5t9 42t12 55.5t16.5 76.5t20.5 97.5l18 130l222 9q-21 -98 -50 -235 q-49 -228 -49 -259q0 -23 11.5 -39t33.5 -16z" />
<glyph unicode="&#x1dc;" d="M576 860l-31 -62q-129 28 -252 103l91 124q74 -75 192 -165zM355 685q0 -45 -43 -81t-98 -35q-36 1 -57.5 17.5t-21.5 45.5q0 43 43.5 79.5t99.5 37.5q35 1 56 -16t21 -48zM627 685q0 -45 -43 -81t-98 -35q-36 1 -57.5 17.5t-21.5 45.5q0 43 43.5 79.5t99.5 37.5 q35 1 56 -16t21 -48zM75 358l8 141l230 10q-8 -67 -24.5 -148t-29 -135.5t-12.5 -68.5q0 -17 11 -17t27.5 19t38 66.5t37.5 112.5q2 12 4 20q10 44 10 97q0 14 -2 44l230 10q-3 -34 -37.5 -202t-34.5 -230q0 -40 8 -77h-210q-8 39 -8 82q0 47 2 67q-36 -76 -94 -117.5 t-113 -41.5q-88 0 -88 112q0 39 38 214q6 27 9 42z" />
<glyph unicode="&#x1e6;" horiz-adv-x="627" d="M603 904l49 -24q-76 -76 -136 -155l-160 -10q-30 92 -76 165l59 24q66 -38 116 -83q66 44 148 83zM534 22q-110 -32 -217 -32q-276 0 -276 245q0 173 125 299t310 126q94 0 171 -28l-55 -167q-22 22 -57.5 38.5t-73.5 16.5q-87 0 -137 -79t-50 -184q0 -132 99 -144l15 72 l18 130l192 10z" />
<glyph unicode="&#x1e7;" horiz-adv-x="561" d="M493 756l60 -36q-72 -80 -130 -160l-160 -10q-25 101 -58 170l74 36q48 -37 88 -91q64 54 126 91zM474 -46q0 -73 -79 -111t-217 -38q-238 0 -238 108q0 35 26 60.5t72 36.5l13 -10q0 -58 37 -100q41 -46 101 -46q29 0 46.5 12t17.5 29q0 20 -31.5 36t-69.5 27 t-69.5 35.5t-31.5 59.5q0 46 50 80t133 37v4q-98 0 -150.5 36t-52.5 103q0 83 75.5 140t225.5 57q160 0 243 10q29 -23 29 -58q0 -26 -16.5 -45t-42.5 -19q-17 0 -35 9t-46.5 26.5t-55.5 28.5l-2 -5q61 -27 94.5 -56.5t33.5 -75.5q0 -53 -46 -92t-114 -55q-108 -26 -108 -51 q0 -14 32.5 -28t71.5 -26.5t71.5 -43.5t32.5 -75zM236 279q0 -46 26 -46q30 0 48.5 50.5t18.5 97.5q0 43 -26 43q-33 0 -50 -49.5t-17 -95.5z" />
<glyph unicode="&#x1ea;" horiz-adv-x="655" d="M670 425q0 -121 -60 -228t-162 -162q-50 -29 -80.5 -67t-30.5 -69q0 -29 34 -29q20 0 50 9l7 -52q-63 -49 -146 -49q-96 0 -96 74q0 79 101 138h-19q-110 0 -169.5 58t-59.5 174q0 83 29.5 162t81.5 140t128.5 98.5t164.5 37.5q110 0 168.5 -59.5t58.5 -175.5zM269 192 q0 -92 43 -92q35 0 66 68t46.5 151.5t15.5 145.5q0 85 -39 85q-37 0 -68.5 -66t-47.5 -147t-16 -145z" />
<glyph unicode="&#x1eb;" horiz-adv-x="607" d="M584 314q0 -84 -45 -158.5t-122 -118.5q-48 -29 -79 -68t-31 -70q0 -29 34 -29q20 0 50 9l7 -52q-63 -49 -149 -49q-93 0 -93 67q0 39 28.5 77.5t79.5 68.5q-9 -1 -26 -1q-98 0 -157 48.5t-59 142.5q0 129 101.5 229t246.5 100q99 0 156.5 -51t57.5 -145zM237 156 q0 -71 32 -71q44 0 72 89t28 172q0 69 -33 69q-44 0 -71.5 -87t-27.5 -172z" />
<glyph unicode="&#x1f4;" horiz-adv-x="627" d="M608 792q-121 -69 -254 -95l-27 55q120 91 193 168zM534 22q-110 -32 -217 -32q-276 0 -276 245q0 173 125 299t310 126q94 0 171 -28l-55 -167q-22 22 -57.5 38.5t-73.5 16.5q-87 0 -137 -79t-50 -184q0 -132 99 -144l15 72l18 130l192 10z" />
<glyph unicode="&#x1f5;" horiz-adv-x="561" d="M523 652q-123 -75 -252 -103l-31 62q118 90 192 165zM474 -46q0 -73 -79 -111t-217 -38q-238 0 -238 108q0 35 26 60.5t72 36.5l13 -10q0 -58 37 -100q41 -46 101 -46q29 0 46.5 12t17.5 29q0 20 -31.5 36t-69.5 27t-69.5 35.5t-31.5 59.5q0 46 50 80t133 37v4 q-98 0 -150.5 36t-52.5 103q0 83 75.5 140t225.5 57q160 0 243 10q29 -23 29 -58q0 -26 -16.5 -45t-42.5 -19q-17 0 -35 9t-46.5 26.5t-55.5 28.5l-2 -5q61 -27 94.5 -56.5t33.5 -75.5q0 -53 -46 -92t-114 -55q-108 -26 -108 -51q0 -14 32.5 -28t71.5 -26.5t71.5 -43.5 t32.5 -75zM236 279q0 -46 26 -46q30 0 48.5 50.5t18.5 97.5q0 43 -26 43q-33 0 -50 -49.5t-17 -95.5z" />
<glyph unicode="&#x1fa;" horiz-adv-x="647" d="M649 1058q-121 -69 -254 -95l-27 55q120 91 193 168zM580 840q0 -56 -50 -95.5t-117 -39.5q-47 0 -71.5 21t-24.5 55q0 53 50.5 94t119.5 41q45 0 69 -20t24 -56zM400 801q0 -12 10 -19.5t26 -7.5q24 0 42.5 14.5t18.5 32.5q0 26 -35 26q-23 0 -42.5 -14t-19.5 -32z M152 0h-195l264 520l61 131l264 9l38 -660h-206l-1 125h-170zM372 503l-122 -278h126l-2 278h-2z" />
<glyph unicode="&#x1fb;" horiz-adv-x="621" d="M602 914q-123 -75 -252 -103l-31 62q118 90 192 165zM533 696q0 -60 -49 -103.5t-115 -43.5q-51 0 -75.5 27t-14.5 75q11 54 56 91t106 37q43 0 67.5 -21t24.5 -62zM355 646q0 -32 35 -32q27 0 46 19.5t19 46.5q0 34 -35 34q-27 0 -46 -20.5t-19 -47.5zM11 128 q0 49 15.5 101.5t47 102.5t75.5 90t106.5 64t133.5 24q112 0 212 -44l-38 -178q-28 -128 -28 -206q0 -45 8 -82h-210q-8 42 -8 78q0 43 10 102q-38 -82 -100.5 -136t-122.5 -54q-47 0 -74 36.5t-27 101.5zM226 176q0 -47 22 -47q30 0 68 82.5t64 199.5q-16 4 -22 4 q-48 0 -90 -84t-42 -155z" />
<glyph unicode="&#x1fc;" horiz-adv-x="897" d="M757 792q-121 -69 -254 -95l-27 55q120 91 193 168zM152 0h-195l342 520l61 130h567l-38 -130l-252 7l-9 -146l213 4l-36 -120l-184 4l-9 -147l219 8l-27 -130h-406l18 125h-185zM468 503l-175 -278h137l40 278h-2z" />
<glyph unicode="&#x1fd;" horiz-adv-x="823" d="M627 652q-123 -75 -252 -103l-31 62q118 90 192 165zM11 128q0 49 15.5 101.5t47 102.5t75.5 90t106.5 64t133.5 24q73 0 152 -23q55 23 116 23q75 0 120 -32.5t45 -88.5q0 -76 -77 -132t-170 -56q-18 0 -36 3v-4q0 -90 77 -90q73 0 146 50l-8 -115q-33 -21 -102 -38 t-129 -17q-89 0 -142 42t-57 127q-39 -74 -97.5 -121.5t-114.5 -47.5q-47 0 -74 36.5t-27 101.5zM226 176q0 -47 22 -47q20 0 45.5 38t42.5 91q24 79 77 138q-33 19 -55 19q-48 0 -90 -84t-42 -155zM624 415q-26 0 -50 -55.5t-32 -118.5q42 21 71 65t29 81q0 28 -18 28z" />
<glyph unicode="&#x1fe;" horiz-adv-x="678" d="M602 792q-121 -69 -254 -95l-27 55q120 91 193 168zM670 425q0 -111 -49 -210t-142.5 -162t-210.5 -63q-105 0 -163 52l-83 -77l-53 56l91 84q-21 48 -21 117q0 83 29.5 162t81.5 140t128.5 98.5t164.5 37.5q105 0 161 -52l83 77l54 -55l-92 -85q21 -49 21 -120zM401 550 q-40 0 -72 -71.5t-49 -169.5l160 147v9q0 85 -39 85zM269 192q0 -92 43 -92q37 0 68 71t48 169l-159 -147v-1z" />
<glyph unicode="&#x1ff;" horiz-adv-x="607" d="M516 652q-123 -75 -252 -103l-31 62q118 90 192 165zM584 314q0 -130 -100 -227t-246 -97q-82 0 -136 33l-60 -52l-47 56l55 48q-28 44 -28 106q0 129 101.5 229t246.5 100q83 0 137 -36l63 55l48 -55l-61 -53q27 -43 27 -107zM336 415q-33 0 -56.5 -49.5t-34.5 -120.5 l124 108q-1 62 -33 62zM269 85q31 0 54.5 47t36.5 116l-123 -106q3 -57 32 -57z" />
<glyph unicode="&#x218;" horiz-adv-x="547" d="M501 218q0 -69 -45 -122t-116 -79.5t-153 -26.5q-46 0 -108 8t-94 19l69 186q36 -32 79.5 -52.5t77.5 -20.5q27 0 43.5 11t16.5 29t-20 36t-48 37t-56 42t-48 59.5t-20 81.5q0 103 95 168.5t242 65.5q88 0 164 -23l-73 -177q-72 60 -137 60q-29 0 -44.5 -12t-15.5 -31 q0 -17 14 -34t35.5 -30.5t46 -32.5t46 -39.5t35.5 -52.5t14 -70zM284 -123q0 -56 -47.5 -115t-101.5 -93l-43 34q34 36 55 73q-47 10 -47 61q0 44 34.5 77t79.5 33q33 0 51.5 -19t18.5 -51z" />
<glyph unicode="&#x219;" horiz-adv-x="486" d="M441 173q0 -82 -80 -132.5t-204 -50.5q-104 0 -173 21l44 157q34 -20 81.5 -32.5t82.5 -12.5q43 0 43 22q0 13 -10.5 21.5t-39 20.5t-43.5 20q-81 43 -81 115q0 82 82 135t209 53q80 0 143 -19l-44 -158q-82 44 -143 44q-40 0 -40 -25q0 -7 4 -13.5t14.5 -13t16 -9.5 t22 -10.5t19.5 -8.5q45 -21 71 -48.5t26 -75.5zM252 -123q0 -56 -47.5 -115t-101.5 -93l-43 34q34 36 55 73q-47 10 -47 61q0 44 34.5 77t79.5 33q33 0 51.5 -19t18.5 -51z" />
<glyph unicode="&#x21a;" horiz-adv-x="548" d="M326 0h-210l109 515l-161 -10l40 145h510l-22 -145l-157 10zM278 -123q0 -56 -47.5 -115t-101.5 -93l-43 34q34 36 55 73q-47 10 -47 61q0 44 34.5 77t79.5 33q33 0 51.5 -19t18.5 -51z" />
<glyph unicode="&#x21b;" horiz-adv-x="421" d="M367 45q-74 -55 -180 -55q-74 0 -114 32t-40 95q0 10 1 20.5t3.5 27t5 30.5t8 41t10 47.5t13 61t14.5 71.5l-53 1l12 53l79 20l76 119l141 9q-25 -115 -28 -128h129l-26 -83l-121 3q-50 -232 -50 -256q0 -32 38 -32q16 0 31.5 5.5t25.5 11.5t33 21zM226 -123 q0 -56 -47.5 -115t-101.5 -93l-43 34q34 36 55 73q-47 10 -47 61q0 44 34.5 77t79.5 33q33 0 51.5 -19t18.5 -51z" />
<glyph unicode="&#x232;" horiz-adv-x="602" d="M246 754l23 110h330l-23 -110h-330zM356 0h-210l43 202l-94 448l208 10l29 -292h2l155 292l193 -10l-283 -448z" />
<glyph unicode="&#x233;" horiz-adv-x="558" d="M192 602l26 120h290l-26 -120h-290zM356 14q-171 -209 -361 -209q-117 0 -117 79q0 26 11.5 51.5t31.5 38.5q59 -18 126 -18q59 0 111 19t68 50l-160 9q11 85 11 205q0 166 -19 261l215 10q11 -51 11 -124q0 -125 -32 -276h3q55 94 86.5 200t33.5 190q54 10 94 10 q99 0 99 -76q0 -69 -65.5 -194.5t-146.5 -225.5z" />
<glyph unicode="&#x237;" horiz-adv-x="323" d="M318 509q-6 -50 -94 -465q-48 -225 -300 -239l-29 70q33 15 55 34.5t35 46.5t18 44.5t12 50.5l65 307l8 141z" />
<glyph unicode="&#x259;" horiz-adv-x="519" d="M61 340l8 115q33 21 102 38t129 17q92 0 145.5 -45t53.5 -137q0 -130 -98 -234t-235 -104q-75 0 -120 32.5t-45 88.5q0 76 77 132t170 56q18 0 36 -3v4q0 90 -77 90q-73 0 -146 -50zM181 113q0 -28 18 -28q26 0 50 55.5t32 118.5q-42 -21 -71 -65t-29 -81z" />
<glyph unicode="&#x272;" horiz-adv-x="625" d="M552 0h-210q-8 45 -8 90t39 222q10 48 -15 48q-64 0 -121 -257q-1 -7 -6 -27t-7 -32q-48 -225 -300 -239l-29 70q33 15 55 34.5t35 46.5t18 44.5t12 50.5l65 307l8 141l230 10q-7 -48 -35 -184q36 82 93.5 133.5t121.5 51.5q55 0 83 -37t13 -108q-4 -18 -11.5 -53 t-11 -51t-9 -43t-8 -42.5t-5.5 -35t-4 -35t-1 -29.5q0 -39 8 -76z" />
<glyph unicode="&#x2c6;" horiz-adv-x="408" d="M163 539l-60 36q72 80 130 160l160 10q25 -101 58 -170l-74 -36q-48 37 -88 91q-64 -54 -126 -91z" />
<glyph unicode="&#x2c7;" horiz-adv-x="408" d="M418 756l60 -36q-72 -80 -130 -160l-160 -10q-25 101 -58 170l74 36q48 -37 88 -91q64 54 126 91z" />
<glyph unicode="&#x2d8;" horiz-adv-x="374" d="M249 557q-65 0 -96.5 53t-14.5 135l72 10q-2 -35 16.5 -59t50.5 -24t62 24.5t47 57.5l70 9q-25 -88 -81.5 -147t-125.5 -59z" />
<glyph unicode="&#x2d9;" horiz-adv-x="300" d="M350 690q0 -47 -46 -83t-105 -36q-38 0 -61.5 17t-23.5 47q0 45 46.5 83t106.5 38q38 0 60.5 -17t22.5 -49z" />
<glyph unicode="&#x2da;" horiz-adv-x="307" d="M369 696q0 -60 -49 -103.5t-115 -43.5q-51 0 -75.5 27t-14.5 75q11 54 56 91t106 37q43 0 67.5 -21t24.5 -62zM191 646q0 -32 35 -32q27 0 46 19.5t19 46.5q0 34 -35 34q-27 0 -46 -20.5t-19 -47.5z" />
<glyph unicode="&#x2db;" horiz-adv-x="327" d="M221 0q-49 -19 -82 -49t-33 -56q0 -25 35 -25q19 0 49 9l7 -52q-63 -49 -148 -49q-94 0 -94 62q0 58 63 106.5t164 72.5z" />
<glyph unicode="&#x2dc;" horiz-adv-x="401" d="M240 753q33 0 72.5 -26t60.5 -26q16 0 28 11.5t32 40.5l43 -9q-17 -69 -53 -118t-84 -49q-28 0 -73 26t-62 26q-27 0 -60 -52l-43 9q16 70 51.5 118.5t87.5 48.5z" />
<glyph unicode="&#x2dd;" horiz-adv-x="437" d="M314 748q-68 -108 -180 -197l-56 19q81 139 113 206zM495 748q-68 -108 -180 -197l-56 19q81 139 113 206z" />
<glyph unicode="&#x1e0c;" horiz-adv-x="694" d="M142 520l18 130h268q125 0 189.5 -61.5t64.5 -181.5q0 -108 -46.5 -199.5t-139.5 -149.5t-214 -58h-250zM454 416q0 67 -25 87.5t-76 21.5l-84 -400h12q42 0 76.5 30t55 76t31 94t10.5 91zM362 -123q0 -47 -46 -83t-105 -36q-38 0 -61.5 17t-23.5 47q0 45 46.5 83 t106.5 38q38 0 60.5 -17t22.5 -49z" />
<glyph unicode="&#x1e0d;" horiz-adv-x="616" d="M11 128q0 49 15.5 101.5t47 102.5t75.5 90t106.5 64t133.5 24h13q4 22 7 34l8 141l230 10q-6 -54 -46 -229q-66 -298 -66 -384q0 -45 8 -82h-210q-8 42 -8 82t10 98q-38 -82 -100.5 -136t-122.5 -54q-47 0 -74 36.5t-27 101.5zM226 176q0 -47 22 -47q30 0 68 82.5 t64 199.5q-16 4 -22 4q-48 0 -90 -84t-42 -155zM335 -123q0 -47 -46 -83t-105 -36q-38 0 -61.5 17t-23.5 47q0 45 46.5 83t106.5 38q38 0 60.5 -17t22.5 -49z" />
<glyph unicode="&#x1e24;" horiz-adv-x="725" d="M242 0h-210l110 520l18 130l222 10l-64 -303h145l34 163l18 130l222 11l-140 -661h-210l53 252h-145zM390 -123q0 -47 -46 -83t-105 -36q-38 0 -61.5 17t-23.5 47q0 45 46.5 83t106.5 38q38 0 60.5 -17t22.5 -49z" />
<glyph unicode="&#x1e25;" d="M544 0h-210q-8 45 -8 90q0 31 21 130.5t21 114.5q0 25 -18 25q-26 0 -53.5 -46.5t-43.5 -115.5q-13 -80 -13 -122q0 -39 8 -76h-210q-8 38 -8 76q0 74 51 313l33 155l8 141l230 10q-4 -34 -15 -88.5t-30.5 -143.5t-28.5 -131q35 79 92.5 128.5t119.5 49.5 q46 0 73.5 -25.5t27.5 -75.5q0 -25 -27.5 -151.5t-27.5 -181.5q0 -39 8 -76zM336 -123q0 -47 -46 -83t-105 -36q-38 0 -61.5 17t-23.5 47q0 45 46.5 83t106.5 38q38 0 60.5 -17t22.5 -49z" />
<glyph unicode="&#x1e44;" horiz-adv-x="705" d="M589 834q0 -47 -46 -83t-105 -36q-38 0 -61.5 17t-23.5 47q0 45 46.5 83t106.5 38q38 0 60.5 -17t22.5 -49zM142 520l18 130l161 10l165 -372h2l62 362l167 10l-140 -660h-170l-150 342h-2l-58 -342h-165z" />
<glyph unicode="&#x1e45;" d="M499 690q0 -47 -46 -83t-105 -36q-38 0 -61.5 17t-23.5 47q0 45 46.5 83t106.5 38q38 0 60.5 -17t22.5 -49zM248 0h-210q-8 42 -8 75q0 80 45 284l8 141l230 10q-2 -12 -37 -184q35 82 92.5 133t121.5 51q55 0 83 -37t13 -108q-4 -18 -11.5 -53t-11 -51t-9 -43t-8 -42.5 t-5.5 -35t-4 -35t-1 -29.5q0 -39 8 -76h-210q-8 45 -8 90q0 31 39 222q10 48 -15 48q-29 0 -59.5 -57.5t-43.5 -138.5q-7 -43 -7 -88q0 -40 8 -76z" />
<glyph unicode="&#x1e5a;" horiz-adv-x="646" d="M242 0h-210l110 520l18 130h265q230 0 230 -173q0 -76 -42.5 -135.5t-116.5 -95.5l77 -246l-225 -10l-28 213q-9 -1 -28 -1h-7zM359 535h-3l-47 -219h12q57 0 87.5 46t30.5 101q0 25 -7 41t-21 22t-24 7.5t-28 1.5zM381 -123q0 -47 -46 -83t-105 -36q-38 0 -61.5 17 t-23.5 47q0 45 46.5 83t106.5 38q38 0 60.5 -17t22.5 -49z" />
<glyph unicode="&#x1e5b;" horiz-adv-x="456" d="M248 0h-210q-8 42 -8 75q0 80 45 284l8 141l230 10q-2 -14 -42 -207q73 207 163 207q44 0 69 -37l-85 -166q-26 11 -55 11q-54 0 -87.5 -75.5t-35.5 -176.5q2 -37 8 -66zM227 -123q0 -47 -46 -83t-105 -36q-38 0 -61.5 17t-23.5 47q0 45 46.5 83t106.5 38q38 0 60.5 -17 t22.5 -49z" />
<glyph unicode="&#x1e62;" horiz-adv-x="547" d="M501 218q0 -69 -45 -122t-116 -79.5t-153 -26.5q-46 0 -108 8t-94 19l69 186q36 -32 79.5 -52.5t77.5 -20.5q27 0 43.5 11t16.5 29t-20 36t-48 37t-56 42t-48 59.5t-20 81.5q0 103 95 168.5t242 65.5q88 0 164 -23l-73 -177q-72 60 -137 60q-29 0 -44.5 -12t-15.5 -31 q0 -17 14 -34t35.5 -30.5t46 -32.5t46 -39.5t35.5 -52.5t14 -70zM307 -123q0 -47 -46 -83t-105 -36q-38 0 -61.5 17t-23.5 47q0 45 46.5 83t106.5 38q38 0 60.5 -17t22.5 -49z" />
<glyph unicode="&#x1e63;" horiz-adv-x="486" d="M441 173q0 -82 -80 -132.5t-204 -50.5q-104 0 -173 21l44 157q34 -20 81.5 -32.5t82.5 -12.5q43 0 43 22q0 13 -10.5 21.5t-39 20.5t-43.5 20q-81 43 -81 115q0 82 82 135t209 53q80 0 143 -19l-44 -158q-82 44 -143 44q-40 0 -40 -25q0 -7 4 -13.5t14.5 -13t16 -9.5 t22 -10.5t19.5 -8.5q45 -21 71 -48.5t26 -75.5zM275 -123q0 -47 -46 -83t-105 -36q-38 0 -61.5 17t-23.5 47q0 45 46.5 83t106.5 38q38 0 60.5 -17t22.5 -49z" />
<glyph unicode="&#x1e6c;" horiz-adv-x="548" d="M326 0h-210l109 515l-161 -10l40 145h510l-22 -145l-157 10zM301 -123q0 -47 -46 -83t-105 -36q-38 0 -61.5 17t-23.5 47q0 45 46.5 83t106.5 38q38 0 60.5 -17t22.5 -49z" />
<glyph unicode="&#x1e6d;" horiz-adv-x="421" d="M367 45q-74 -55 -180 -55q-74 0 -114 32t-40 95q0 10 1 20.5t3.5 27t5 30.5t8 41t10 47.5t13 61t14.5 71.5l-53 1l12 53l79 20l76 119l141 9q-25 -115 -28 -128h129l-26 -83l-121 3q-50 -232 -50 -256q0 -32 38 -32q16 0 31.5 5.5t25.5 11.5t33 21zM249 -123 q0 -47 -46 -83t-105 -36q-38 0 -61.5 17t-23.5 47q0 45 46.5 83t106.5 38q38 0 60.5 -17t22.5 -49z" />
<glyph unicode="&#x1e80;" horiz-adv-x="955" d="M748 751l-27 -55q-133 26 -254 95l88 128q73 -77 193 -168zM70 0l25 650l208 10l-37 -508h2l178 498h264l-39 -498h2l181 508l181 -10l-279 -650h-288l52 468h-2l-160 -468h-288z" />
<glyph unicode="&#x1e81;" horiz-adv-x="850" d="M626 611l-31 -62q-129 28 -252 103l91 124q74 -75 192 -165zM67 236q0 169 -19 264l215 10q11 -51 11 -124q0 -139 -32 -310h3q55 102 86.5 217t33.5 207l200 10q11 -51 11 -124q0 -139 -32 -310h3q55 102 86.5 217t33.5 207q54 10 94 10q48 0 73.5 -17t25.5 -61 q0 -37 -21 -91.5t-60 -116t-105.5 -125t-146.5 -109.5l-154 10q22 121 30 325q-32 -95 -81.5 -191.5t-96.5 -143.5l-169 10q11 99 11 236z" />
<glyph unicode="&#x1e82;" horiz-adv-x="955" d="M748 792q-121 -69 -254 -95l-27 55q120 91 193 168zM70 0l25 650l208 10l-37 -508h2l178 498h264l-39 -498h2l181 508l181 -10l-279 -650h-288l52 468h-2l-160 -468h-288z" />
<glyph unicode="&#x1e83;" horiz-adv-x="850" d="M626 652q-123 -75 -252 -103l-31 62q118 90 192 165zM67 236q0 169 -19 264l215 10q11 -51 11 -124q0 -139 -32 -310h3q55 102 86.5 217t33.5 207l200 10q11 -51 11 -124q0 -139 -32 -310h3q55 102 86.5 217t33.5 207q54 10 94 10q48 0 73.5 -17t25.5 -61 q0 -37 -21 -91.5t-60 -116t-105.5 -125t-146.5 -109.5l-154 10q22 121 30 325q-32 -95 -81.5 -191.5t-96.5 -143.5l-169 10q11 99 11 236z" />
<glyph unicode="&#x1e84;" horiz-adv-x="955" d="M590 836q0 -45 -43 -81t-98 -35q-36 1 -57.5 17.5t-21.5 45.5q0 43 43.5 79.5t99.5 37.5q35 1 56 -16t21 -48zM839 836q0 -45 -43 -81t-98 -35q-36 1 -57.5 17.5t-21.5 45.5q0 43 43.5 79.5t99.5 37.5q35 1 56 -16t21 -48zM70 0l25 650l208 10l-37 -508h2l178 498h264 l-39 -498h2l181 508l181 -10l-279 -650h-288l52 468h-2l-160 -468h-288z" />
<glyph unicode="&#x1e85;" horiz-adv-x="850" d="M458 685q0 -45 -43 -81t-98 -35q-36 1 -57.5 17.5t-21.5 45.5q0 43 43.5 79.5t99.5 37.5q35 1 56 -16t21 -48zM730 685q0 -45 -43 -81t-98 -35q-36 1 -57.5 17.5t-21.5 45.5q0 43 43.5 79.5t99.5 37.5q35 1 56 -16t21 -48zM67 236q0 169 -19 264l215 10q11 -51 11 -124 q0 -139 -32 -310h3q55 102 86.5 217t33.5 207l200 10q11 -51 11 -124q0 -139 -32 -310h3q55 102 86.5 217t33.5 207q54 10 94 10q48 0 73.5 -17t25.5 -61q0 -37 -21 -91.5t-60 -116t-105.5 -125t-146.5 -109.5l-154 10q22 121 30 325q-32 -95 -81.5 -191.5t-96.5 -143.5 l-169 10q11 99 11 236z" />
<glyph unicode="&#x1e92;" horiz-adv-x="538" d="M445 0h-443l-2 107l318 399q-148 -6 -225 -8l42 152h423l2 -106l-319 -400q42 3 124.5 8t123.5 8zM296 -123q0 -47 -46 -83t-105 -36q-38 0 -61.5 17t-23.5 47q0 45 46.5 83t106.5 38q38 0 60.5 -17t22.5 -49z" />
<glyph unicode="&#x1e93;" horiz-adv-x="502" d="M3 -10l-33 48q174 151 296 286q-47 20 -102 20q-67 0 -101 -46l-28 10q24 202 144 202q81 0 174 -84q31 37 64 84q33 0 57.5 -14.5t24.5 -47.5q0 -34 -27.5 -73t-74 -76t-93.5 -67t-99 -58q14 -1 54 -9.5t67 -8.5q94 0 132 58l28 -10q-28 -123 -75 -168.5t-118 -45.5 q-40 0 -97.5 15t-83.5 15q-50 0 -109 -30zM278 -123q0 -47 -46 -83t-105 -36q-38 0 -61.5 17t-23.5 47q0 45 46.5 83t106.5 38q38 0 60.5 -17t22.5 -49z" />
<glyph unicode="&#x1e9e;" horiz-adv-x="742" d="M84 187l45 213q26 124 123.5 192t228.5 68q109 0 172 -46.5t62 -130.5l-136 -107q56 -36 84.5 -75.5t28.5 -103.5q0 -89 -74 -148t-179 -59q-82 0 -129 25l29 135q27 -25 62 -25q26 0 44.5 21.5t18.5 50.5q0 61 -94 102l9 39l134 118q-1 31 -19.5 50t-48.5 19 q-78 0 -107 -131l-59 -276q-8 -38 -25.5 -76t-39.5 -52l-192 10q38 72 62 187z" />
<glyph unicode="&#x1ea0;" horiz-adv-x="647" d="M152 0h-195l264 520l61 131l264 9l38 -660h-206l-1 125h-170zM372 503l-122 -278h126l-2 278h-2zM356 -123q0 -47 -46 -83t-105 -36q-38 0 -61.5 17t-23.5 47q0 45 46.5 83t106.5 38q38 0 60.5 -17t22.5 -49z" />
<glyph unicode="&#x1ea1;" horiz-adv-x="621" d="M11 128q0 49 15.5 101.5t47 102.5t75.5 90t106.5 64t133.5 24q112 0 212 -44l-38 -178q-28 -128 -28 -206q0 -45 8 -82h-210q-8 42 -8 78q0 43 10 102q-38 -82 -100.5 -136t-122.5 -54q-47 0 -74 36.5t-27 101.5zM226 176q0 -47 22 -47q30 0 68 82.5t64 199.5 q-16 4 -22 4q-48 0 -90 -84t-42 -155zM335 -123q0 -47 -46 -83t-105 -36q-38 0 -61.5 17t-23.5 47q0 45 46.5 83t106.5 38q38 0 60.5 -17t22.5 -49z" />
<glyph unicode="&#x1eb8;" horiz-adv-x="550" d="M457 0h-425l108 511l20 139h420l-38 -130l-187 10l-32 -150l171 5l-36 -120l-159 5l-32 -150l217 10zM335 -123q0 -47 -46 -83t-105 -36q-38 0 -61.5 17t-23.5 47q0 45 46.5 83t106.5 38q38 0 60.5 -17t22.5 -49z" />
<glyph unicode="&#x1eb9;" horiz-adv-x="519" d="M458 160l-8 -115q-33 -21 -102 -38t-129 -17q-92 0 -145.5 45t-53.5 137q0 130 98 234t235 104q75 0 120 -32.5t45 -88.5q0 -76 -77 -132t-170 -56q-18 0 -36 3v-4q0 -90 77 -90q73 0 146 50zM320 415q-26 0 -50 -55.5t-32 -118.5q42 21 71 65t29 81q0 28 -18 28z M309 -123q0 -47 -46 -83t-105 -36q-38 0 -61.5 17t-23.5 47q0 45 46.5 83t106.5 38q38 0 60.5 -17t22.5 -49z" />
<glyph unicode="&#x1ebc;" horiz-adv-x="550" d="M350 892q32 0 71 -21t59 -21q19 0 33 10.5t35 36.5l42 -9q-17 -67 -54.5 -114.5t-88.5 -47.5q-28 0 -72 21t-61 21q-32 0 -68 -47l-43 9q17 68 54.5 115t92.5 47zM457 0h-425l108 511l20 139h420l-38 -130l-187 10l-32 -150l171 5l-36 -120l-159 5l-32 -150l217 10z" />
<glyph unicode="&#x1ebd;" horiz-adv-x="519" d="M291 753q33 0 72.5 -26t60.5 -26q16 0 28 11.5t32 40.5l43 -9q-17 -69 -53 -118t-84 -49q-28 0 -73 26t-62 26q-27 0 -60 -52l-43 9q16 70 51.5 118.5t87.5 48.5zM458 160l-8 -115q-33 -21 -102 -38t-129 -17q-92 0 -145.5 45t-53.5 137q0 130 98 234t235 104 q75 0 120 -32.5t45 -88.5q0 -76 -77 -132t-170 -56q-18 0 -36 3v-4q0 -90 77 -90q73 0 146 50zM320 415q-26 0 -50 -55.5t-32 -118.5q42 21 71 65t29 81q0 28 -18 28z" />
<glyph unicode="&#x1eca;" horiz-adv-x="370" d="M242 0h-210l110 520l18 130l222 10zM212 -123q0 -47 -46 -83t-105 -36q-38 0 -61.5 17t-23.5 47q0 45 46.5 83t106.5 38q38 0 60.5 -17t22.5 -49z" />
<glyph unicode="&#x1ecb;" horiz-adv-x="327" d="M365 690q0 -47 -46 -83t-105 -36q-38 0 -61.5 17t-23.5 47q0 45 46.5 83t106.5 38q38 0 60.5 -17t22.5 -49zM313 509q-3 -34 -37.5 -202t-34.5 -230q0 -40 8 -77h-210q-8 39 -8 82q0 69 11 121l33 155l8 141zM207 -123q0 -47 -46 -83t-105 -36q-38 0 -61.5 17t-23.5 47 q0 45 46.5 83t106.5 38q38 0 60.5 -17t22.5 -49z" />
<glyph unicode="&#x1ecc;" horiz-adv-x="678" d="M670 425q0 -111 -49 -210t-142.5 -162t-210.5 -63q-110 0 -169.5 58t-59.5 174q0 83 29.5 162t81.5 140t128.5 98.5t164.5 37.5q110 0 168.5 -59.5t58.5 -175.5zM269 192q0 -92 43 -92q35 0 66 68t46.5 151.5t15.5 145.5q0 85 -39 85q-37 0 -68.5 -66t-47.5 -147 t-16 -145zM366 -123q0 -47 -46 -83t-105 -36q-38 0 -61.5 17t-23.5 47q0 45 46.5 83t106.5 38q38 0 60.5 -17t22.5 -49z" />
<glyph unicode="&#x1ecd;" horiz-adv-x="607" d="M584 314q0 -130 -100 -227t-246 -97q-98 0 -157 48.5t-59 142.5q0 129 101.5 229t246.5 100q99 0 156.5 -51t57.5 -145zM237 156q0 -71 32 -71q44 0 72 89t28 172q0 69 -33 69q-44 0 -71.5 -87t-27.5 -172zM336 -123q0 -47 -46 -83t-105 -36q-38 0 -61.5 17t-23.5 47 q0 45 46.5 83t106.5 38q38 0 60.5 -17t22.5 -49z" />
<glyph unicode="&#x1ee4;" horiz-adv-x="705" d="M328 110q31 0 53.5 28t32.5 77l63 305l18 130l222 10l-93 -436q-24 -111 -117.5 -172.5t-214.5 -61.5q-103 0 -161 46t-58 134q0 7 0.5 14t1.5 14.5t3.5 21.5t5.5 28.5t9 42t12 55.5t16.5 76.5t20.5 97.5l18 130l222 9q-21 -98 -50 -235q-49 -228 -49 -259 q0 -23 11.5 -39t33.5 -16zM385 -123q0 -47 -46 -83t-105 -36q-38 0 -61.5 17t-23.5 47q0 45 46.5 83t106.5 38q38 0 60.5 -17t22.5 -49z" />
<glyph unicode="&#x1ee5;" d="M75 358l8 141l230 10q-8 -67 -24.5 -148t-29 -135.5t-12.5 -68.5q0 -17 11 -17t27.5 19t38 66.5t37.5 112.5q2 12 4 20q10 44 10 97q0 14 -2 44l230 10q-3 -34 -37.5 -202t-34.5 -230q0 -40 8 -77h-210q-8 39 -8 82q0 47 2 67q-36 -76 -94 -117.5t-113 -41.5 q-88 0 -88 112q0 39 38 214q6 27 9 42zM336 -123q0 -47 -46 -83t-105 -36q-38 0 -61.5 17t-23.5 47q0 45 46.5 83t106.5 38q38 0 60.5 -17t22.5 -49z" />
<glyph unicode="&#x1ef2;" horiz-adv-x="602" d="M567 751l-27 -55q-133 26 -254 95l88 128q73 -77 193 -168zM356 0h-210l43 202l-94 448l208 10l29 -292h2l155 292l193 -10l-283 -448z" />
<glyph unicode="&#x1ef3;" horiz-adv-x="558" d="M492 611l-31 -62q-129 28 -252 103l91 124q74 -75 192 -165zM356 14q-171 -209 -361 -209q-117 0 -117 79q0 26 11.5 51.5t31.5 38.5q59 -18 126 -18q59 0 111 19t68 50l-160 9q11 85 11 205q0 166 -19 261l215 10q11 -51 11 -124q0 -125 -32 -276h3q55 94 86.5 200 t33.5 190q54 10 94 10q99 0 99 -76q0 -69 -65.5 -194.5t-146.5 -225.5z" />
<glyph unicode="&#x1ef8;" horiz-adv-x="602" d="M376 892q32 0 71 -21t59 -21q19 0 33 10.5t35 36.5l42 -9q-17 -67 -54.5 -114.5t-88.5 -47.5q-28 0 -72 21t-61 21q-32 0 -68 -47l-43 9q17 68 54.5 115t92.5 47zM356 0h-210l43 202l-94 448l208 10l29 -292h2l155 292l193 -10l-283 -448z" />
<glyph unicode="&#x1ef9;" horiz-adv-x="558" d="M303 753q33 0 72.5 -26t60.5 -26q16 0 28 11.5t32 40.5l43 -9q-17 -69 -53 -118t-84 -49q-28 0 -73 26t-62 26q-27 0 -60 -52l-43 9q16 70 51.5 118.5t87.5 48.5zM356 14q-171 -209 -361 -209q-117 0 -117 79q0 26 11.5 51.5t31.5 38.5q59 -18 126 -18q59 0 111 19t68 50 l-160 9q11 85 11 205q0 166 -19 261l215 10q11 -51 11 -124q0 -125 -32 -276h3q55 94 86.5 200t33.5 190q54 10 94 10q99 0 99 -76q0 -69 -65.5 -194.5t-146.5 -225.5z" />
<glyph unicode="&#x2013;" horiz-adv-x="556" d="M28 241l8 60h496l-8 -60h-496z" />
<glyph unicode="&#x2014;" horiz-adv-x="945" d="M28 241l13 60h800l-13 -60h-800z" />
<glyph unicode="&#x2018;" horiz-adv-x="330" d="M108 441q0 69 71.5 147t149.5 107l23 -38q-70 -50 -106 -114q46 -12 46 -61q0 -43 -34 -76.5t-80 -33.5q-33 0 -51.5 19t-18.5 50z" />
<glyph unicode="&#x2019;" horiz-adv-x="331" d="M343 627q0 -69 -71.5 -147t-149.5 -107l-23 38q70 50 106 114q-46 12 -46 61q0 43 34 76.5t80 33.5q33 0 51.5 -19t18.5 -50z" />
<glyph unicode="&#x201a;" horiz-adv-x="296" d="M195 95q0 -69 -71.5 -147t-149.5 -107l-23 38q70 50 106 114q-46 12 -46 61q0 43 34 76.5t80 33.5q33 0 51.5 -19t18.5 -50z" />
<glyph unicode="&#x201c;" horiz-adv-x="601" d="M108 440q0 69 71.5 147t149.5 107l23 -38q-70 -50 -106 -114q46 -12 46 -61q0 -43 -34 -76.5t-80 -33.5q-33 0 -51.5 19t-18.5 50zM378 440q0 69 71.5 147t149.5 107l23 -38q-70 -50 -106 -114q46 -12 46 -61q0 -43 -34 -76.5t-80 -33.5q-33 0 -51.5 19t-18.5 50z" />
<glyph unicode="&#x201d;" horiz-adv-x="601" d="M613 626q0 -69 -71.5 -147t-149.5 -107l-23 38q70 50 106 114q-46 12 -46 61q0 43 34 76.5t80 33.5q33 0 51.5 -19t18.5 -50zM343 626q0 -69 -71.5 -147t-149.5 -107l-23 38q70 50 106 114q-46 12 -46 61q0 43 34 76.5t80 33.5q33 0 51.5 -19t18.5 -50z" />
<glyph unicode="&#x201e;" horiz-adv-x="553" d="M195 95q0 -69 -71.5 -147t-149.5 -107l-23 38q70 50 106 114q-46 12 -46 61q0 43 34 76.5t80 33.5q33 0 51.5 -19t18.5 -50zM452 95q0 -69 -71.5 -147t-149.5 -107l-23 38q70 50 106 114q-46 12 -46 61q0 43 34 76.5t80 33.5q33 0 51.5 -19t18.5 -50z" />
<glyph unicode="&#x2020;" horiz-adv-x="524" d="M308 -5l-201 -5l94 364l-131 -8l36 154l121 -8l21 163l201 5l-50 -168l128 8l-36 -154l-124 8z" />
<glyph unicode="&#x2021;" horiz-adv-x="524" d="M308 -5l-201 -5l50 139l-135 -11l36 154l129 -11l7 68l17 51l-136 -11l36 154l127 -11l10 143l201 5l-52 -148l135 11l-36 -154l-128 11l-4 -50l-22 -69l137 11l-36 -154l-126 11z" />
<glyph unicode="&#x2022;" horiz-adv-x="481" d="M409 307q0 -79 -64.5 -140t-149.5 -61q-54 0 -86.5 28t-32.5 81q0 78 65.5 139.5t149.5 61.5q54 0 86 -28t32 -81z" />
<glyph unicode="&#x2026;" horiz-adv-x="897" d="M682 -10q-31 0 -50.5 18t-19.5 48q0 42 36 75t83 33q31 0 49.5 -16t18.5 -44q0 -44 -35.5 -79t-81.5 -35zM389 -10q-31 0 -50.5 18t-19.5 48q0 42 36 75t83 33q31 0 49.5 -16t18.5 -44q0 -44 -35.5 -79t-81.5 -35zM96 -10q-31 0 -50.5 18t-19.5 48q0 42 36 75t83 33 q31 0 49.5 -16t18.5 -44q0 -44 -35.5 -79t-81.5 -35z" />
<glyph unicode="&#x2030;" horiz-adv-x="1421" d="M293 -10h-115l542 670h116zM473 509q0 -91 -67.5 -156.5t-176.5 -65.5q-74 0 -112.5 36t-38.5 105q0 92 68.5 159.5t176.5 67.5q72 0 111 -38t39 -108zM226 397q0 -38 24 -38q32 0 53.5 65.5t21.5 122.5q0 36 -22 36q-34 0 -55.5 -66t-21.5 -120zM931 217 q0 -91 -67.5 -156.5t-176.5 -65.5q-74 0 -112.5 36t-38.5 105q0 92 68.5 159.5t176.5 67.5q72 0 111 -38t39 -108zM1374 217q0 -91 -67.5 -156.5t-176.5 -65.5q-74 0 -112.5 36t-38.5 105q0 92 68.5 159.5t176.5 67.5q72 0 111 -38t39 -108zM684 105q0 -38 24 -38 q32 0 53.5 65.5t21.5 122.5q0 36 -22 36q-34 0 -55.5 -66t-21.5 -120zM1127 105q0 -38 24 -38q32 0 53.5 65.5t21.5 122.5q0 36 -22 36q-34 0 -55.5 -66t-21.5 -120z" />
<glyph unicode="&#x2039;" horiz-adv-x="336" d="M38 253l11 54q141 93 267 203l34 -22q-51 -92 -147 -208q47 -116 58 -208l-43 -22q-80 112 -180 203z" />
<glyph unicode="&#x203a;" horiz-adv-x="336" d="M311 307l-11 -54q-141 -93 -267 -203l-34 22q51 92 147 208q-47 116 -58 208l43 22q80 -112 180 -203z" />
<glyph unicode="&#x2044;" horiz-adv-x="656" d="M45 -10h-115l542 670h116z" />
<glyph unicode="&#x2070;" horiz-adv-x="458" d="M490 589q0 -91 -67.5 -156.5t-176.5 -65.5q-74 0 -112.5 36t-38.5 105q0 92 68.5 159.5t176.5 67.5q72 0 111 -38t39 -108zM243 477q0 -38 24 -38q32 0 53.5 65.5t21.5 122.5q0 36 -22 36q-34 0 -55.5 -66t-21.5 -120z" />
<glyph unicode="&#x2074;" horiz-adv-x="494" d="M387 372h-140l10 44h-165l5 57l267 262l99 -5l-44 -208q20 1 53 5l-26 -111h-50zM303 619l-125 -100h102z" />
<glyph unicode="&#x2075;" horiz-adv-x="449" d="M427 496q0 -62 -62.5 -95.5t-155.5 -33.5q-66 0 -109 12l23 72q34 -12 79 -12q35 0 57 14.5t22 35.5q0 33 -52 33q-1 0 -71 -10l-8 5l44 213h156q70 0 119 5l-26 -115h-201l-14 -52q43 12 87 12q112 0 112 -84z" />
<glyph unicode="&#x2076;" horiz-adv-x="448" d="M449 516q0 -61 -58.5 -105t-145.5 -44q-73 0 -113 34t-40 97q0 98 88 167.5t213 69.5q48 0 63 -5l-23 -73q-22 6 -42 6q-36 0 -71.5 -22.5t-57.5 -67.5q42 26 94 26q43 0 68 -22.5t25 -60.5zM240 481q0 -42 24 -42q17 0 29.5 18.5t12.5 42.5q0 42 -42 42q-9 0 -15 -2 q-9 -32 -9 -59z" />
<glyph unicode="&#x2077;" horiz-adv-x="438" d="M276 372h-157q22 71 85.5 137.5t158.5 110.5h-89q-68 0 -130 -8l27 118h295l6 -7l-7 -67q-80 -68 -125 -135t-64 -149z" />
<glyph unicode="&#x2078;" horiz-adv-x="433" d="M77 444q0 30 34 54.5t90 35.5q-70 37 -70 87q0 49 56.5 81.5t139.5 32.5q65 0 103 -21t38 -57q0 -30 -28.5 -51.5t-75.5 -30.5q83 -34 83 -89q0 -50 -62 -84.5t-153 -34.5q-71 0 -113 21t-42 56zM268 644q0 -21 39 -43q26 23 26 46t-27 23q-15 0 -26.5 -7t-11.5 -19z M216 459q0 -11 10.5 -19t30.5 -8q21 0 36.5 8.5t15.5 24.5q0 15 -13.5 24t-43.5 18q-36 -24 -36 -48z" />
<glyph unicode="&#x2079;" horiz-adv-x="447" d="M126 582q0 64 58 108.5t145 44.5q74 0 114 -34t40 -97q0 -98 -88 -167.5t-213 -69.5q-48 0 -63 5l23 73q22 -6 42 -6q36 0 72 20t58 59q-40 -27 -90 -27q-46 0 -72 25t-26 66zM335 623q0 40 -23 40q-16 0 -29 -22t-13 -51q0 -42 42 -42q8 0 13 2q10 46 10 73z" />
<glyph unicode="&#x207f;" horiz-adv-x="521" d="M281 372h-168q-8 36 -8 63q0 35 11 101t20 92l4 104l184 7q-2 -9 -12 -52.5t-16 -73.5q27 55 72.5 90.5t97.5 35.5q44 0 67 -28t12 -82q-4 -22 -12.5 -60t-12 -56.5t-7 -41t-3.5 -36.5q0 -31 8 -63h-168q-8 37 -8 72q0 2 2 11q9 44 25 128q7 36 -12 36q-26 0 -52 -45.5 t-31 -107.5q-1 -9 -1 -27q0 -37 8 -67z" />
<glyph unicode="&#x2080;" horiz-adv-x="458" d="M376 52q0 -91 -67.5 -156.5t-176.5 -65.5q-74 0 -112.5 36t-38.5 105q0 92 68.5 159.5t176.5 67.5q72 0 111 -38t39 -108zM129 -60q0 -38 24 -38q32 0 53.5 65.5t21.5 122.5q0 36 -22 36q-34 0 -55.5 -66t-21.5 -120z" />
<glyph unicode="&#x2081;" horiz-adv-x="327" d="M133 -168h-140l61 275l-66 -23l-6 60l220 51l7 -7z" />
<glyph unicode="&#x2082;" horiz-adv-x="412" d="M251 -168h-287l4 79q51 18 123 76t72 92q0 27 -48 27q-50 0 -95 -35l5 94q75 30 154 30q61 0 96.5 -22.5t35.5 -61.5q0 -52 -66.5 -97.5t-158.5 -72.5h62q67 0 130 9z" />
<glyph unicode="&#x2083;" horiz-adv-x="368" d="M251 -59q0 -51 -59.5 -81t-141.5 -30q-63 0 -107 12l24 75q28 -15 66 -15q31 0 51 14t20 31q0 32 -58 32q-13 0 -40 -3l8 43q51 14 85.5 33t34.5 37q0 20 -44 20q-40 0 -83 -18l10 80q63 27 140 27q57 0 89.5 -20.5t32.5 -53.5q0 -36 -39 -61.5t-100 -37.5 q111 -11 111 -84z" />
<glyph unicode="&#x2084;" horiz-adv-x="439" d="M238 -168h-140l10 44h-165l5 57l267 262l99 -5l-44 -208q20 1 53 5l-26 -111h-50zM154 79l-125 -100h102z" />
<glyph unicode="&#x2085;" horiz-adv-x="404" d="M290 -41q0 -62 -63 -95.5t-155 -33.5q-66 0 -109 12l23 72q34 -12 79 -12q35 0 57 14.5t22 35.5q0 33 -52 33q-1 0 -71 -10l-8 5l44 213h156q70 0 119 5l-26 -115h-201l-14 -52q43 12 87 12q112 0 112 -84z" />
<glyph unicode="&#x2086;" horiz-adv-x="415" d="M335 -21q0 -61 -58.5 -105t-145.5 -44q-73 0 -113 34t-40 97q0 98 88 167.5t213 69.5q48 0 63 -5l-23 -73q-22 6 -42 6q-36 0 -71.5 -22.5t-57.5 -67.5q42 26 94 26q43 0 68 -22.5t25 -60.5zM126 -56q0 -42 24 -42q17 0 29.5 18.5t12.5 42.5q0 42 -42 42q-9 0 -15 -2 q-9 -32 -9 -59z" />
<glyph unicode="&#x2087;" horiz-adv-x="381" d="M129 -168h-157q22 71 85.5 137.5t158.5 110.5h-89q-68 0 -130 -8l27 118h295l6 -7l-7 -67q-80 -68 -125 -135t-64 -149z" />
<glyph unicode="&#x2088;" horiz-adv-x="434" d="M-37 -93q0 30 34 54.5t90 35.5q-70 37 -70 87q0 49 56.5 81.5t139.5 32.5q65 0 103 -21t38 -57q0 -30 -28.5 -51.5t-75.5 -30.5q83 -34 83 -89q0 -50 -62 -84.5t-153 -34.5q-71 0 -113 21t-42 56zM154 107q0 -21 39 -43q26 23 26 46t-27 23q-15 0 -26.5 -7t-11.5 -19z M102 -78q0 -11 10.5 -19t30.5 -8q21 0 36.5 8.5t15.5 24.5q0 15 -13.5 24t-43.5 18q-36 -24 -36 -48z" />
<glyph unicode="&#x2089;" horiz-adv-x="414" d="M-21 45q0 64 58 108.5t145 44.5q74 0 114 -34t40 -97q0 -98 -88 -167.5t-213 -69.5q-48 0 -63 5l23 73q22 -6 42 -6q36 0 72 20t58 59q-41 -27 -90 -27q-46 0 -72 25t-26 66zM188 86q0 40 -23 40q-16 0 -29 -22t-13 -51q0 -42 42 -42q8 0 13 2q10 46 10 73z" />
<glyph unicode="&#x20ac;" horiz-adv-x="585" d="M13 239l18 61h42q2 20 10 53h-37l18 61h41q48 111 146 178.5t218 67.5q92 0 167 -28l-55 -167q-19 20 -55 37.5t-71 17.5q-82 0 -125 -106h152l-18 -61h-152q-6 -34 -7 -53h144l-18 -61h-127q6 -102 91 -102q65 0 120 35l-10 -150q-93 -32 -189 -32q-248 0 -248 246v3 h-55z" />
<glyph unicode="&#x2122;" horiz-adv-x="647" d="M408 567h-1l-44 -142h-75l80 225l128 3l-20 -156h1l45 153l130 3l-18 -228h-97l18 142h-1l-51 -142h-107zM220 425h-95l35 163l-59 -4l18 66h149zM268 650h55l-11 -66l-57 4z" />
<glyph unicode="&#x2212;" horiz-adv-x="591" d="M511 256h-430l28 132q147 6 433 6z" />
<glyph unicode="&#x221e;" horiz-adv-x="885" d="M826 373q0 -95 -69 -169t-164 -74q-99 0 -157 95q-87 -95 -200 -95q-69 0 -107 39.5t-38 106.5q0 96 68.5 170t164.5 74q97 0 157 -95q85 95 199 95q69 0 107.5 -39.5t38.5 -107.5zM629 401q-53 0 -104 -57q22 -47 40.5 -69.5t44.5 -22.5q29 0 51 29t22 63q0 27 -15 42 t-39 15zM234 306q0 -27 15 -42t39 -15q54 0 104 58q-24 47 -42 69t-43 22q-30 0 -51.5 -29t-21.5 -63z" />
<glyph unicode="&#x2248;" horiz-adv-x="645" d="M235 388q-12 0 -63 -49l-65 34q104 155 164 155q31 0 118.5 -22t99.5 -22q11 0 65 49l64 -34q-21 -31 -37 -52.5t-39.5 -48t-46 -40.5t-41.5 -14q-30 0 -118 22t-101 22zM187 164q-12 0 -63 -49l-65 34q104 155 164 155q31 0 118.5 -22t99.5 -22q11 0 65 49l64 -34 q-21 -31 -37 -52.5t-39.5 -48t-46 -40.5t-41.5 -14q-30 0 -118 22t-101 22z" />
<glyph unicode="&#x2260;" horiz-adv-x="592" d="M125 23l-61 39l65 87h-70l28 132q135 4 143 4l58 78h-184l28 132q97 3 258 5l93 125l11 3l61 -39l-66 -88h76l-31 -138h-147l-58 -77q73 1 191 1l-31 -138h-261l-92 -123z" />
<glyph unicode="&#x2264;" horiz-adv-x="605" d="M598 615l-32 -147l-238 -53l215 -50l-32 -152q-70 19 -204 65t-201 73l27 125zM472 36h-430l28 132q147 6 433 6z" />
<glyph unicode="&#x2265;" horiz-adv-x="605" d="M77 213l31 147l239 52l-216 51l33 152q70 -19 204 -65t200 -73l-26 -125zM470 36h-430l28 132q147 6 433 6z" />
<glyph unicode="&#x25fc;" horiz-adv-x="510" d="M0 510h510v-510h-510v510z" />
<glyph unicode="&#xfb00;" horiz-adv-x="746" d="M756 379l-96 3l-71 -338q-48 -225 -300 -239l-29 70q33 15 55 34.5t35 46.5t18 44.5t12 50.5l69 328l-139 4l-71 -339q-48 -225 -300 -239l-29 70q33 15 55 34.5t35 46.5t18 44.5t12 50.5l71 337l-54 1l11 53l60 20v2q-7 35 -7 53q0 74 60 119t159 45q100 0 180 -40 q57 54 156 54q95 0 171 -41l-47 -125q-42 47 -91 47q-29 0 -47 -18t-18 -44q0 -29 16 -52h132zM284 502q0 -21 16 -40h168v2q-7 42 -7 60q-46 38 -102 38q-33 0 -54 -16t-21 -44z" />
<glyph unicode="&#xfb01;" horiz-adv-x="669" d="M653 500q-3 -31 -36.5 -196t-33.5 -227q0 -40 8 -77h-210q-8 53 -8 87q0 61 11 116l37 175l-111 3l-71 -337q-48 -225 -300 -239l-29 70q33 15 55 34.5t35 46.5t18 44.5t12 50.5l71 336l-54 2l11 53l60 20v2q-7 42 -7 59q0 81 78 126.5t196 45.5q89 0 192 -28l-47 -130 q-80 39 -143 39q-45 0 -74 -18.5t-29 -46.5q0 -27 16 -49h123l211 42z" />
<glyph unicode="&#xfb02;" horiz-adv-x="681" d="M388 379l-78 2l-71 -337q-48 -225 -300 -239l-29 70q33 15 55 34.5t35 46.5t18 44.5t12 50.5l71 336l-54 2l11 53l60 20v2q-7 42 -7 61q0 81 64.5 125.5t170.5 44.5q93 0 177 -20l184 20q-5 -40 -58.5 -284.5t-53.5 -332.5q0 -41 8 -78h-210q-8 40 -8 75q0 76 51 314 l35 164q-48 23 -98 23q-42 0 -65.5 -18t-23.5 -45q0 -28 16 -51h109z" />
<glyph unicode="&#xfb03;" horiz-adv-x="1019" d="M1003 500q-3 -31 -36.5 -196t-33.5 -227q0 -40 8 -77h-210q-8 53 -8 87q0 61 11 116l37 175l-111 3l-71 -337q-48 -225 -300 -239l-29 70q33 15 55 34.5t35 46.5t18 44.5t12 50.5l69 328l-139 4l-71 -339q-48 -225 -300 -239l-29 70q33 15 55 34.5t35 46.5t18 44.5 t12 50.5l71 337l-54 1l11 53l60 20v2q-7 35 -7 53q0 74 60 119t159 45q51 0 104 -13t85 -32q77 59 216 59q89 0 192 -28l-47 -130q-80 39 -143 39q-45 0 -74 -18.5t-29 -46.5q0 -27 16 -49h123l211 42zM284 502q0 -21 16 -40h168v2q-7 42 -7 59v1q-46 38 -102 38 q-33 0 -54 -16t-21 -44z" />
<glyph unicode="&#xfb04;" horiz-adv-x="1031" d="M738 379l-78 2l-71 -337q-48 -225 -300 -239l-29 70q33 15 55 34.5t35 46.5t18 44.5t12 50.5l69 328l-139 4l-71 -339q-48 -225 -300 -239l-29 70q33 15 55 34.5t35 46.5t18 44.5t12 50.5l71 337l-54 1l11 53l60 20v2q-7 35 -7 53q0 74 60 119t159 45q102 0 182 -41 q64 55 184 55q93 0 177 -20l184 20q-5 -40 -58.5 -284.5t-53.5 -332.5q0 -41 8 -78h-210q-8 40 -8 75q0 76 51 314l35 164q-48 23 -98 23q-42 0 -65.5 -18t-23.5 -45q0 -28 16 -51h109zM284 502q0 -21 16 -40h168v2q-7 42 -7 60q-46 38 -102 38q-33 0 -54 -16t-21 -44z" />
<glyph unicode="&#xfb06;" horiz-adv-x="907" d="M441 173q0 -82 -80 -132.5t-204 -50.5q-104 0 -173 21l44 157q34 -20 81.5 -32.5t82.5 -12.5q43 0 43 22q0 13 -10.5 21.5t-39 20.5t-43.5 20q-81 43 -81 115q0 82 81.5 135t203.5 53q34 0 71 -5q-8 16 -8 36q0 70 79 120.5t185 50.5q76 0 120 -29t44 -79 q0 -33 -16.5 -64t-38.5 -50h148l-26 -83l-120 3q-51 -230 -51 -256q0 -32 38 -32q16 0 31.5 5.5t25.5 11.5t33 21l-8 -115q-74 -55 -180 -55q-74 0 -114 32t-40 95q0 10 1 20.5t3.5 27t5 30.5t8 41t10 47.5t13 61t14.5 71.5l-53 1l12 53l79 20q24 24 24 60q0 48 -57 48 q-39 0 -68.5 -22t-29.5 -55q0 -21 13 -38l-43 -150q-82 44 -143 44q-40 0 -40 -25q0 -7 4 -13.5t14.5 -13t16 -9.5t22 -10.5t19.5 -8.5q97 -42 97 -124z" />
<glyph horiz-adv-x="370" d="M440 792q-121 -69 -254 -95l-27 55q120 91 193 168zM-81 -109q48 14 78.5 53t41.5 92l103 484l18 130l222 10l-107 -504q-9 -44 -17 -74t-22.5 -68.5t-31 -64t-43.5 -53t-60.5 -45t-80.5 -30t-105 -16.5z" />
<glyph horiz-adv-x="524" d="M12 109q0 44 19.5 90.5t55 87t94 66.5t127.5 26q88 0 170 -34l-27 -128q-19 -88 -19 -134q0 -39 8 -71h-168q-8 36 -8 67q0 24 4 48q-30 -53 -78 -87.5t-95 -34.5q-38 0 -60.5 27.5t-22.5 76.5zM183 146q0 -30 18 -30q22 0 48.5 45t45.5 113l6 27q-9 3 -16 3 q-38 0 -70 -56t-32 -102z" />
<glyph horiz-adv-x="512" d="M476 275q0 -44 -19.5 -90.5t-55 -87t-93.5 -66.5t-128 -26q-88 0 -170 34l78 363l4 103l184 7q-3 -16 -11.5 -55t-22.5 -100t-23 -104q30 55 78.5 90.5t95.5 35.5q39 0 61 -28t22 -76zM287 268q-24 0 -53.5 -54t-47.5 -131q9 -3 17 -3q38 0 70 56t32 102q0 30 -18 30z " />
<glyph horiz-adv-x="414" d="M340 131l-4 -92q-62 -34 -154 -34q-73 0 -118 34.5t-45 105.5q0 96 81 165t200 69q61 0 103 -16l-38 -131q-42 60 -84 60q-36 0 -63.5 -42.5t-27.5 -83.5q0 -31 13.5 -48.5t39.5 -17.5q45 0 97 31z" />
<glyph horiz-adv-x="529" d="M12 109q0 44 19.5 90.5t55 87t94 66.5t127.5 26h10q1 4 2.5 11.5t2.5 10.5l4 104l184 7q-2 -12 -37 -165l4 -2l-4 -2q-42 -186 -42 -261q0 -38 8 -70h-168q-8 40 -8 71q0 18 4 45q-30 -53 -78 -88t-95 -35q-38 0 -60.5 27.5t-22.5 76.5zM183 146q0 -30 18 -30q22 0 49 47 t47 116q1 4 2 11t2 11q-9 3 -16 3q-38 0 -70 -56t-32 -102z" />
<glyph horiz-adv-x="443" d="M369 131l-5 -92q-25 -13 -80 -23.5t-104 -10.5q-78 0 -120 35t-42 102q0 93 76.5 165t184.5 72q60 0 97 -25t37 -67q0 -55 -59.5 -94.5t-134.5 -38.5q-10 0 -30 2q4 -56 64 -56t116 31zM254 304q-21 0 -39.5 -39t-23.5 -81q33 15 55.5 46t22.5 57q0 17 -15 17z" />
<glyph horiz-adv-x="336" d="M316 278l-78 2l-50 -231q-17 -78 -69.5 -126.5t-166.5 -50.5l-25 55q26 11 43.5 25.5t27 34t13.5 31.5t9 36l50 231l-42 1l8 42l48 15v2q-7 14 -7 43q0 58 46 91t115 33q78 0 138 -32l-36 -99q-34 37 -73 37q-22 0 -36.5 -12.5t-14.5 -28.5q0 -18 13 -34h106z" />
<glyph horiz-adv-x="477" d="M387 -22q0 -53 -62.5 -79.5t-172.5 -26.5q-192 0 -192 80q0 49 77 67l10 -8q1 -45 32 -72q33 -30 81 -30q23 0 37 7t14 16q0 14 -25.5 25t-56.5 19t-56.5 26.5t-25.5 45.5q0 35 39.5 60.5t104.5 26.5v3q-79 0 -122 27.5t-43 78.5q0 57 59.5 96t177.5 39q128 0 195 8 q24 -19 24 -48q0 -20 -13 -34t-33 -14q-17 0 -52.5 20.5t-58.5 29.5l-1 -4q49 -21 76.5 -43t27.5 -57q0 -37 -36 -62t-89 -33q-86 -13 -86 -35q0 -10 26.5 -20t58.5 -19.5t58.5 -33t26.5 -56.5zM191 216q0 -32 21 -32q24 0 37.5 33.5t13.5 64.5q0 29 -21 29q-25 0 -38 -32 t-13 -63z" />
<glyph horiz-adv-x="522" d="M442 12h-168q-8 37 -8 72q0 18 14.5 84t14.5 77q0 14 -14 14q-23 0 -47 -37.5t-33 -91.5q-4 -28 -4 -53q0 -35 8 -65h-168q-8 30 -8 62q0 61 36 225l23 102l4 104l184 7q-2 -10 -22 -101.5t-32 -153.5q26 54 71.5 88t96.5 34q38 0 60 -20t22 -55q0 -18 -19 -105t-19 -123 q0 -34 8 -64z" />
<glyph horiz-adv-x="290" d="M283 496q0 -35 -36 -62.5t-82 -27.5q-31 0 -50 13.5t-19 37.5q0 34 36.5 63t83.5 29q31 0 49 -14t18 -39zM248 378q-2 -14 -15.5 -75.5t-24.5 -125t-11 -100.5q0 -31 8 -65h-168q-8 37 -8 82q0 19 7 54l24 120l4 103z" />
<glyph horiz-adv-x="281" d="M282 496q0 -35 -36 -62.5t-82 -27.5q-31 0 -50.5 13.5t-19.5 37.5q0 34 37 63t84 29q30 0 48.5 -13.5t18.5 -39.5zM247 378q-9 -28 -68 -329q-34 -171 -235 -177l-25 55q34 14 54.5 38.5t26 41t12.5 48.5l47 212l4 104z" />
<glyph horiz-adv-x="534" d="M205 12h-168q-8 34 -8 62q0 79 35 226l24 101l4 104l184 7q-3 -17 -25 -112t-33 -155h5q38 55 93 94.5t111 39.5q36 0 56 -17.5t20 -48.5q0 -66 -122 -142q34 -85 89 -159l-185 -7q-48 69 -59 128q104 78 104 118q0 21 -22 21q-35 0 -72.5 -61.5t-38.5 -129.5v-2 q0 -35 8 -67z" />
<glyph horiz-adv-x="289" d="M276 512q-3 -16 -24 -106.5t-38 -182.5t-17 -144q0 -35 8 -67h-168q-8 36 -8 63q0 78 35 225l24 101l4 104z" />
<glyph horiz-adv-x="736" d="M205 12h-168q-8 36 -8 63q0 35 11 101t20 92l4 104l184 7q-2 -10 -6 -28t-10.5 -46.5t-11.5 -49.5q23 54 68.5 89t94.5 35q39 0 61 -24.5t16 -71.5q27 43 67 69.5t81 26.5q43 0 64.5 -29t11.5 -78q-5 -26 -13.5 -64.5t-12.5 -56.5t-7 -39.5t-3 -35.5q0 -30 8 -64h-168 q-8 34 -8 59q0 19 28 157q8 31 -7 31q-14 0 -34 -28t-32 -69q-12 -62 -12 -86q0 -32 7 -64h-168q-7 33 -7 59q0 24 27 156q7 32 -7 32q-21 0 -48.5 -53t-29.5 -118v-9q0 -37 8 -67z" />
<glyph horiz-adv-x="522" d="M205 12h-168q-8 36 -8 63q0 35 11 101t20 92l4 104l184 7q-2 -9 -12 -52.5t-16 -73.5q27 55 72.5 90.5t97.5 35.5q44 0 67 -28t12 -82q-4 -22 -12.5 -60t-12 -56.5t-7 -41t-3.5 -36.5q0 -31 8 -63h-168q-8 37 -8 72q0 2 2 11q9 44 25 128q7 36 -12 36q-26 0 -52 -45.5 t-31 -107.5q-1 -9 -1 -27q0 -37 8 -67z" />
<glyph horiz-adv-x="513" d="M468 230q0 -92 -78.5 -159t-193.5 -67q-80 0 -128 37.5t-48 109.5q0 91 79 160t194 69q82 0 128.5 -40t46.5 -110zM192 131q0 -51 27 -51q35 0 55.5 59.5t20.5 116.5q0 48 -27 48q-34 0 -55 -57.5t-21 -115.5z" />
<glyph horiz-adv-x="513" d="M248 379q-4 -19 -28 -124q30 54 78.5 89t95.5 35q38 0 60.5 -27.5t22.5 -76.5q0 -44 -19.5 -90.5t-55 -87t-94 -66.5t-127.5 -26h-8q-4 -28 -4 -56q0 -36 8 -70h-168q-8 34 -8 66q0 57 37 221l23 102l3 104zM288 268q-25 0 -54.5 -53.5t-47.5 -131.5q10 -3 18 -3 q38 0 70 56t32 102q0 30 -18 30zM186 83v4l-1 -4h1z" />
<glyph horiz-adv-x="512" d="M12 109q0 44 19.5 90.5t55 87t94 66.5t127.5 26q88 0 170 -34q-47 -220 -60.5 -292.5t-13.5 -105.5q0 -36 8 -68h-168q-8 32 -8 67q0 51 24 168q-31 -48 -76 -78.5t-89 -30.5q-38 0 -60.5 27.5t-22.5 76.5zM183 146q0 -30 18 -30q21 0 45.5 40t43.5 102q4 14 10 44 q-12 2 -15 2q-38 0 -70 -56t-32 -102z" />
<glyph horiz-adv-x="394" d="M205 12h-168q-8 36 -8 63q0 35 11 101t20 92l4 104l184 7q-2 -9 -12 -52.5t-16 -74.5q54 127 125 127q35 0 56 -29l-65 -132q-21 7 -44 7q-41 0 -67 -45.5t-28 -108.5q1 -31 8 -59z" />
<glyph horiz-adv-x="416" d="M355 138q0 -60 -62.5 -96.5t-161.5 -36.5q-85 0 -139 15l32 124q59 -33 132 -33q34 0 34 7q0 9 -8 14t-30.5 12.5t-36.5 13.5q-67 31 -67 84q0 61 64.5 99t165.5 38q65 0 115 -14l-33 -125q-63 33 -115 33q-32 0 -32 -9q0 -5 3.5 -9.5t11 -8t13.5 -6t17.5 -6.5t15.5 -5 q81 -29 81 -91z" />
<glyph horiz-adv-x="366" d="M299 39q-57 -34 -143 -34q-61 0 -93.5 25.5t-32.5 73.5q0 35 39 204l-42 1l9 41l61 16l1 1l59 81l113 7q-1 -6 -9 -39t-12 -50h104l-19 -65l-100 3q-33 -146 -33 -172q0 -22 31 -22q27 0 71 21z" />
<glyph horiz-adv-x="518" d="M51 267l4 104l184 7q-7 -56 -27 -145.5t-20 -100.5q0 -7 9 -7q10 0 23.5 11.5t30.5 46t28 85.5q7 27 7 63q0 11 -3 40l184 7q-2 -14 -15 -75.5t-24 -125t-11 -100.5q0 -33 8 -65h-168q-9 37 -9 88v9q-27 -51 -71.5 -77.5t-90.5 -26.5q-72 0 -72 87q0 28 33 175z" />
<glyph horiz-adv-x="467" d="M56 136q0 158 -20 236l172 7q11 -38 11 -96q0 -97 -21 -212h3q89 156 89 301q42 7 75 7q80 0 80 -64q0 -62 -69 -156t-190 -154l-135 7q5 50 5 124z" />
<glyph horiz-adv-x="709" d="M56 137q0 155 -20 235l172 7q11 -38 11 -96q0 -97 -21 -212h3q89 156 89 301l159 7q11 -36 11 -96q0 -102 -20 -212h2q42 74 66 155.5t23 145.5q42 7 75 7q39 0 60 -14t21 -50q0 -38 -26.5 -91.5t-88.5 -115.5t-144 -103l-123 7q16 89 18 225q-25 -69 -62.5 -135.5 t-74.5 -96.5l-135 7q5 52 5 125z" />
<glyph horiz-adv-x="455" d="M-16 60q0 33 44 66t114 42q-15 45 -25 70t-30.5 64t-45.5 70l171 7q35 -46 69 -140q21 56 20 125q30 15 71 15q34 0 54.5 -16t20.5 -40q0 -32 -44 -63.5t-115 -43.5q17 -48 26 -71t30 -62.5t46 -70.5l-172 -7q-37 50 -67 139q-23 -57 -20 -124q-32 -15 -72 -15 q-34 0 -54.5 15.5t-20.5 39.5z" />
<glyph horiz-adv-x="474" d="M291 24q-135 -152 -286 -152q-95 0 -95 64q0 48 33 69q47 -14 101 -14q48 0 89 11t53 30l-128 7q6 47 6 110q0 141 -20 223l172 7q10 -37 10 -92q0 -90 -21 -188h3q41 65 65 139t24 134q43 7 75 7q81 0 81 -62q0 -50 -47.5 -134t-114.5 -159z" />
<glyph horiz-adv-x="429" d="M8 5l-27 38q121 95 219 190q-60 14 -81 14q-44 0 -68 -33l-22 8q15 157 111 157q27 0 83 -16.5t81 -16.5l27 33q26 0 46 -12t20 -38q0 -34 -37 -70t-82.5 -61.5t-101.5 -48.5q6 -1 36.5 -6.5t51.5 -5.5q74 0 104 41l23 -8q-20 -94 -57 -129.5t-94 -35.5q-32 0 -78 11 t-67 11q-40 0 -87 -22z" />
<glyph horiz-adv-x="523" d="M88 469q0 44 19.5 90.5t55 87t94 66.5t127.5 26q88 0 170 -34l-27 -128q-19 -88 -19 -134q0 -39 8 -71h-168q-8 36 -8 67q0 24 4 48q-30 -53 -78 -87.5t-95 -34.5q-38 0 -60.5 27.5t-22.5 76.5zM259 506q0 -30 18 -30q22 0 48.5 45t45.5 113l6 27q-9 3 -16 3 q-38 0 -70 -56t-32 -102z" />
<glyph horiz-adv-x="513" d="M553 635q0 -44 -19.5 -90.5t-55 -87t-93.5 -66.5t-128 -26q-88 0 -170 34l78 363l4 103l184 7q-3 -16 -11.5 -55t-22.5 -100t-23 -104q30 55 78.5 90.5t95.5 35.5q39 0 61 -28t22 -76zM364 628q-24 0 -53.5 -54t-47.5 -131q9 -3 17 -3q38 0 70 56t32 102q0 30 -18 30z " />
<glyph horiz-adv-x="414" d="M417 491l-4 -92q-62 -34 -154 -34q-73 0 -118 34.5t-45 105.5q0 96 81 165t200 69q61 0 103 -16l-38 -131q-42 60 -84 60q-36 0 -63.5 -42.5t-27.5 -83.5q0 -31 13.5 -48.5t39.5 -17.5q45 0 97 31z" />
<glyph horiz-adv-x="528" d="M88 469q0 44 19.5 90.5t55 87t94 66.5t127.5 26h10q1 4 2.5 11.5t2.5 10.5l4 104l184 7q-2 -12 -37 -165l4 -2l-4 -2q-42 -186 -42 -261q0 -38 8 -70h-168q-8 40 -8 71q0 18 4 45q-30 -53 -78 -88t-95 -35q-38 0 -60.5 27.5t-22.5 76.5zM259 506q0 -30 18 -30q22 0 49 47 t47 116q1 3 2 10.5t2 11.5q-9 3 -16 3q-38 0 -70 -56t-32 -102z" />
<glyph horiz-adv-x="443" d="M446 491l-5 -92q-25 -13 -80 -23.5t-104 -10.5q-78 0 -120 35t-42 102q0 93 76.5 165t184.5 72q60 0 97 -25t37 -67q0 -55 -59.5 -94.5t-134.5 -38.5q-10 0 -30 2q4 -56 64 -56t116 31zM331 664q-21 0 -39.5 -39t-23.5 -81q33 15 55.5 46t22.5 57q0 17 -15 17z" />
<glyph horiz-adv-x="337" d="M393 638l-78 2l-50 -231q-17 -78 -69.5 -126.5t-166.5 -50.5l-25 55q26 11 43.5 25.5t27 34t13.5 31.5t9 36l50 231l-42 1l8 42l48 15v2q-7 14 -7 43q0 58 46 91t115 33q78 0 138 -32l-36 -99q-34 37 -73 37q-22 0 -36.5 -12.5t-14.5 -28.5q0 -18 13 -34h106z" />
<glyph horiz-adv-x="477" d="M463 338q0 -53 -62.5 -79.5t-172.5 -26.5q-192 0 -192 80q0 49 77 67l10 -8q1 -45 32 -72q33 -30 81 -30q23 0 37 7t14 16q0 14 -25.5 25t-56.5 19t-56.5 26.5t-25.5 45.5q0 35 39.5 60.5t104.5 26.5v3q-79 0 -122 27.5t-43 78.5q0 57 59.5 96t177.5 39q128 0 195 8 q24 -19 24 -48q0 -20 -13 -34t-33 -14q-17 0 -52.5 20.5t-58.5 29.5l-1 -4q49 -21 76.5 -43t27.5 -57q0 -37 -36 -62t-89 -33q-86 -13 -86 -35q0 -10 26.5 -20t58.5 -19.5t58.5 -33t26.5 -56.5zM267 576q0 -32 21 -32q24 0 37.5 33.5t13.5 64.5q0 29 -21 29q-25 0 -38 -32 t-13 -63z" />
<glyph horiz-adv-x="522" d="M519 372h-168q-8 37 -8 72q0 18 14.5 84t14.5 77q0 14 -14 14q-23 0 -47 -37.5t-33 -91.5q-4 -28 -4 -53q0 -35 8 -65h-168q-8 30 -8 62q0 61 36 225l23 102l4 104l184 7q-2 -10 -22 -101.5t-32 -153.5q26 54 71.5 88t96.5 34q38 0 60 -20t22 -55q0 -18 -19 -105.5 t-19 -122.5q0 -34 8 -64z" />
<glyph horiz-adv-x="289" d="M359 856q0 -35 -36 -62.5t-82 -27.5q-31 0 -50 13.5t-19 37.5q0 34 36.5 63t83.5 29q31 0 49 -14t18 -39zM324 738q-2 -14 -15.5 -75.5t-24.5 -125t-11 -100.5q0 -31 8 -65h-168q-8 37 -8 82q0 19 7 54l24 120l4 103z" />
<glyph horiz-adv-x="282" d="M359 856q0 -35 -36 -62.5t-82 -27.5q-31 0 -50.5 13.5t-19.5 37.5q0 34 37 63t84 29q30 0 48.5 -13.5t18.5 -39.5zM324 738q-9 -28 -68 -329q-34 -171 -235 -177l-25 55q34 14 54.5 38.5t26 41t12.5 48.5l47 212l4 104z" />
<glyph horiz-adv-x="534" d="M282 372h-168q-8 34 -8 62q0 79 35 226l24 101l4 104l184 7q-3 -17 -25 -112t-33 -155h5q38 55 93 94.5t111 39.5q36 0 56 -17.5t20 -48.5q0 -66 -122 -142q34 -85 89 -159l-185 -7q-48 69 -59 128q104 78 104 118q0 21 -22 21q-35 0 -72.5 -61.5t-38.5 -129.5v-2 q0 -35 8 -67z" />
<glyph horiz-adv-x="289" d="M353 872q-3 -16 -24 -106.5t-38 -182.5t-17 -144q0 -35 8 -67h-168q-8 36 -8 63q0 78 35 225l24 101l4 104z" />
<glyph horiz-adv-x="735" d="M281 372h-168q-8 36 -8 63q0 35 11 101t20 92l4 104l184 7q-2 -10 -6 -28t-10.5 -46.5t-11.5 -49.5q23 54 68.5 89t94.5 35q39 0 61 -24.5t16 -71.5q27 43 67 69.5t81 26.5q43 0 64.5 -29t11.5 -78q-5 -26 -13.5 -64.5t-12.5 -56.5t-7 -39.5t-3 -35.5q0 -30 8 -64h-168 q-8 34 -8 59q0 19 28 157q8 31 -7 31q-14 0 -34 -28t-32 -69q-12 -62 -12 -86q0 -32 7 -64h-168q-7 33 -7 59q0 24 27 156q7 32 -7 32q-21 0 -48.5 -53t-29.5 -118v-9q0 -37 8 -67z" />
<glyph horiz-adv-x="514" d="M545 590q0 -92 -78.5 -159t-193.5 -67q-80 0 -128 37.5t-48 109.5q0 91 79 160t194 69q82 0 128.5 -40t46.5 -110zM269 491q0 -51 27 -51q35 0 55.5 59.5t20.5 116.5q0 48 -27 48q-34 0 -55 -57.5t-21 -115.5z" />
<glyph horiz-adv-x="513" d="M324 739q-4 -19 -28 -124q30 54 78.5 89t95.5 35q38 0 60.5 -27.5t22.5 -76.5q0 -44 -19.5 -90.5t-55 -87t-94 -66.5t-127.5 -26h-8q-4 -28 -4 -56q0 -36 8 -70h-168q-8 34 -8 66q0 57 37 221l23 102l3 104zM364 628q-25 0 -54.5 -53.5t-47.5 -131.5q10 -3 18 -3 q38 0 70 56t32 102q0 30 -18 30zM262 443v4l-1 -4h1z" />
<glyph horiz-adv-x="511" d="M88 469q0 44 19.5 90.5t55 87t94 66.5t127.5 26q88 0 170 -34q-47 -220 -60.5 -292.5t-13.5 -105.5q0 -36 8 -68h-168q-8 32 -8 67q0 51 24 168q-31 -48 -76 -78.5t-89 -30.5q-38 0 -60.5 27.5t-22.5 76.5zM259 506q0 -30 18 -30q21 0 45.5 40t43.5 102q4 14 10 44 q-12 2 -15 2q-38 0 -70 -56t-32 -102z" />
<glyph horiz-adv-x="393" d="M281 372h-168q-8 36 -8 63q0 35 11 101t20 92l4 104l184 7q-2 -9 -12 -52.5t-16 -74.5q54 127 125 127q35 0 56 -29l-65 -132q-21 7 -44 7q-41 0 -67 -45.5t-28 -108.5q1 -31 8 -59z" />
<glyph horiz-adv-x="417" d="M432 498q0 -60 -62.5 -96.5t-161.5 -36.5q-85 0 -139 15l32 124q59 -33 132 -33q34 0 34 7q0 9 -8 14t-30.5 12.5t-36.5 13.5q-67 31 -67 84q0 61 64.5 99t165.5 38q65 0 115 -14l-33 -125q-63 33 -115 33q-32 0 -32 -9q0 -5 3.5 -9.5t11 -8t13.5 -6t17.5 -6.5t15.5 -5 q81 -29 81 -91z" />
<glyph horiz-adv-x="365" d="M375 399q-57 -34 -143 -34q-61 0 -93.5 25.5t-32.5 73.5q0 35 39 204l-42 1l9 41l61 16l1 1l59 81l113 7q-1 -6 -9 -39t-12 -50h104l-19 -65l-100 3q-33 -146 -33 -172q0 -22 31 -22q27 0 71 21z" />
<glyph horiz-adv-x="517" d="M505 372h-168q-9 37 -9 88v9q-27 -51 -71.5 -77.5t-90.5 -26.5q-72 0 -72 87q0 28 33 175l4 104l184 7q-7 -56 -27 -145.5t-20 -100.5q0 -7 9 -7q10 0 23.5 11.5t30.5 46t28 85.5q7 27 7 63q0 11 -3 40l184 7q-2 -14 -15 -75.5t-24 -125t-11 -100.5q0 -33 8 -65z" />
<glyph horiz-adv-x="466" d="M132 496q0 158 -20 236l172 7q11 -38 11 -96q0 -97 -21 -212h3q89 156 89 301q42 7 75 7q80 0 80 -64q0 -62 -69 -156t-190 -154l-135 7q5 50 5 124z" />
<glyph horiz-adv-x="708" d="M132 497q0 155 -20 235l172 7q11 -38 11 -96q0 -97 -21 -212h3q89 156 89 301l159 7q11 -36 11 -96q0 -102 -20 -212h2q42 74 66 155.5t23 145.5q42 7 75 7q39 0 60 -14t21 -50q0 -38 -26.5 -91.5t-88.5 -115.5t-144 -103l-123 7q16 89 18 225q-25 -69 -62.5 -135.5 t-74.5 -96.5l-135 7q5 52 5 125z" />
<glyph horiz-adv-x="454" d="M60 420q0 33 44 66t114 42q-15 45 -25 70t-30.5 64t-45.5 70l171 7q35 -46 69 -140q21 56 20 125q30 15 71 15q34 0 54.5 -16t20.5 -40q0 -32 -44 -63.5t-115 -43.5q17 -48 26 -71t30 -62.5t46 -70.5l-172 -7q-37 50 -67 139q-23 -57 -20 -124q-32 -15 -72 -15 q-34 0 -54.5 15.5t-20.5 39.5z" />
<glyph horiz-adv-x="475" d="M368 384q-135 -152 -286 -152q-95 0 -95 64q0 48 33 69q47 -14 101 -14q48 0 89 11t53 30l-128 7q6 47 6 110q0 141 -20 223l172 7q10 -37 10 -92q0 -90 -21 -188h3q41 65 65 139t24 134q43 7 75 7q81 0 81 -62q0 -50 -47.5 -134t-114.5 -159z" />
<glyph horiz-adv-x="429" d="M85 365l-27 38q121 95 219 190q-60 14 -81 14q-44 0 -68 -33l-22 8q15 157 111 157q27 0 83 -16.5t81 -16.5l27 33q26 0 46 -12t20 -38q0 -34 -37 -70t-82.5 -61.5t-101.5 -48.5q6 -1 36.5 -6.5t51.5 -5.5q74 0 104 41l23 -8q-20 -94 -57 -129.5t-94 -35.5q-32 0 -78 11 t-67 11q-40 0 -87 -22z" />
<glyph horiz-adv-x="323" d="M393 652q-123 -75 -252 -103l-31 62q118 90 192 165zM318 509q-6 -50 -94 -465q-48 -225 -300 -239l-29 70q33 15 55 34.5t35 46.5t18 44.5t12 50.5l65 307l8 141z" />
<glyph horiz-adv-x="1100" d="M422 160l-8 -115q-80 -55 -193 -55q-92 0 -146 46t-54 139q0 135 104.5 235t253.5 100q25 0 49 -3q-7 18 -7 39q0 70 82 118t196 48q75 0 136 -17q-4 -34 -15 -88.5t-30.5 -143.5t-28.5 -131q35 79 92.5 128.5t119.5 49.5q46 0 73.5 -25.5t27.5 -75.5q0 -25 -27.5 -151.5 t-27.5 -181.5q0 -39 8 -76h-210q-8 45 -8 90q0 31 21 130.5t21 114.5q0 25 -18 25q-26 0 -53.5 -46.5t-43.5 -115.5q-13 -80 -13 -122q0 -39 8 -76h-210q-8 38 -8 76q0 74 51 313l33 155l1 24q-4 1 -13 1q-36 0 -59.5 -14.5t-23.5 -41.5q0 -15 6 -27l-52 -165 q-51 79 -103 79q-46 0 -81.5 -65.5t-35.5 -130.5q0 -94 64 -94q54 0 122 50z" />
<glyph horiz-adv-x="904" d="M422 160l-8 -115q-80 -55 -193 -55q-92 0 -146 46t-54 139q0 134 104 234.5t246 100.5q25 0 50 -6q-3 10 -3 24q0 73 68.5 128.5t174.5 55.5q75 0 119.5 -29t44.5 -79q0 -34 -16.5 -64.5t-38.5 -49.5h157l-26 -83l-120 3q-51 -230 -51 -256q0 -32 38 -32q16 0 31.5 5.5 t25.5 11.5t33 21l-8 -115q-74 -55 -180 -55q-74 0 -114 32t-40 95q0 10 1 20.5t3.5 27t5 30.5t8 41t10 47.5t13 61t14.5 71.5l-53 1l12 53l79 20q15 22 15 57q0 51 -52 51q-35 0 -58.5 -24t-23.5 -57q0 -24 13 -47l-47 -149q-51 79 -103 79q-46 0 -81.5 -65.5t-35.5 -134.5 q0 -90 64 -90q54 0 122 50z" />
<glyph horiz-adv-x="1103" d="M441 173q0 -82 -80 -132.5t-204 -50.5q-104 0 -173 21l44 157q34 -20 81.5 -32.5t82.5 -12.5q43 0 43 22q0 13 -10.5 21.5t-39 20.5t-43.5 20q-81 43 -81 115q0 82 82 135t209 53q37 0 65 -4q-8 21 -8 40q0 70 83.5 118t200.5 48q78 0 142 -17h3q-4 -34 -15 -88.5 t-30.5 -143.5t-28.5 -131q35 79 92.5 128.5t119.5 49.5q46 0 73.5 -25.5t27.5 -75.5q0 -25 -27.5 -151.5t-27.5 -181.5q0 -39 8 -76h-210q-8 45 -8 90q0 31 21 130.5t21 114.5q0 25 -18 25q-26 0 -53.5 -46.5t-43.5 -115.5q-13 -80 -13 -122q0 -39 8 -76h-210q-8 38 -8 76 q0 74 51 313l33 155l1 24q-6 1 -22 1q-39 0 -64.5 -13t-25.5 -38q0 -15 6 -27l-44 -158q-82 44 -143 44q-40 0 -40 -25q0 -7 4 -13.5t14.5 -13t16 -9.5t22 -10.5t19.5 -8.5q45 -21 71 -48.5t26 -75.5z" />
<glyph horiz-adv-x="458" d="M411 217q0 -91 -67.5 -156.5t-176.5 -65.5q-74 0 -112.5 36t-38.5 105q0 92 68.5 159.5t176.5 67.5q72 0 111 -38t39 -108zM164 105q0 -38 24 -38q32 0 53.5 65.5t21.5 122.5q0 36 -22 36q-34 0 -55.5 -66t-21.5 -120z" />
<glyph horiz-adv-x="369" d="M208 0h-140l61 275l-66 -23l-6 60l220 51l7 -7z" />
<glyph horiz-adv-x="452" d="M307 0h-287l4 79q51 18 123 76t72 92q0 27 -48 27q-50 0 -95 -35l5 94q75 30 154 30q61 0 96.5 -22.5t35.5 -61.5q0 -52 -66.5 -97.5t-158.5 -72.5h62q67 0 130 9z" />
<glyph horiz-adv-x="419" d="M316 106q0 -51 -59.5 -81t-141.5 -30q-63 0 -107 12l24 75q28 -15 66 -15q31 0 51 14t20 31q0 32 -58 32q-13 0 -40 -3l8 43q51 14 85.5 33t34.5 37q0 20 -44 20q-40 0 -83 -18l10 80q63 27 140 27q57 0 89.5 -20.5t32.5 -53.5q0 -36 -39 -61.5t-100 -37.5 q111 -11 111 -84z" />
<glyph horiz-adv-x="494" d="M308 0h-140l10 44h-165l5 57l267 262l99 -5l-44 -208q20 1 53 5l-26 -111h-50zM224 247l-125 -100h102z" />
<glyph horiz-adv-x="449" d="M348 124q0 -62 -63 -95.5t-155 -33.5q-66 0 -109 12l23 72q34 -12 79 -12q35 0 57 14.5t22 35.5q0 33 -52 33q-1 0 -71 -10l-8 5l44 213h156q70 0 119 5l-26 -115h-201l-14 -52q43 12 87 12q112 0 112 -84z" />
<glyph horiz-adv-x="448" d="M370 144q0 -61 -58.5 -105t-145.5 -44q-73 0 -113 34t-40 97q0 98 88 167.5t213 69.5q48 0 63 -5l-23 -73q-22 6 -42 6q-36 0 -71.5 -22.5t-57.5 -67.5q42 26 94 26q43 0 68 -22.5t25 -60.5zM161 109q0 -42 24 -42q17 0 29.5 18.5t12.5 42.5q0 42 -42 42q-9 0 -15 -2 q-9 -32 -9 -59z" />
<glyph horiz-adv-x="438" d="M197 0h-157q22 71 85.5 137.5t158.5 110.5h-89q-68 0 -130 -8l27 118h295l6 -7l-7 -67q-80 -68 -125 -135t-64 -149z" />
<glyph horiz-adv-x="433" d="M-2 72q0 30 34 54.5t90 35.5q-70 37 -70 87q0 49 56.5 81.5t139.5 32.5q65 0 103 -21t38 -57q0 -30 -28.5 -51.5t-75.5 -30.5q83 -34 83 -89q0 -50 -62 -84.5t-153 -34.5q-71 0 -113 21t-42 56zM189 272q0 -21 39 -43q26 23 26 46t-27 23q-15 0 -26.5 -7t-11.5 -19z M137 87q0 -11 10.5 -19t30.5 -8q21 0 36.5 8.5t15.5 24.5q0 15 -13.5 24t-43.5 18q-36 -24 -36 -48z" />
<glyph horiz-adv-x="447" d="M47 210q0 64 58 108.5t145 44.5q74 0 114 -34t40 -97q0 -98 -88 -167.5t-213 -69.5q-48 0 -63 5l23 73q22 -6 42 -6q36 0 72 20t58 59q-41 -27 -90 -27q-46 0 -72 25t-26 66zM256 251q0 40 -23 40q-16 0 -29 -22t-13 -51q0 -42 42 -42q8 0 13 2q10 46 10 73z" />
<glyph horiz-adv-x="657" d="M648 421q0 -109 -46.5 -206.5t-137 -161t-203.5 -63.5q-102 0 -161.5 57t-59.5 177q0 109 47.5 208t138 163.5t202.5 64.5q105 0 162.5 -60.5t57.5 -178.5zM260 183q0 -83 38 -83q36 0 67 68.5t47 153t16 150.5q0 78 -35 78q-29 0 -55 -41t-42.5 -100t-26 -120t-9.5 -106 z" />
<glyph horiz-adv-x="440" d="M282 0h-210l111 525l-104 -45l-5 93l336 87l10 -10z" />
<glyph horiz-adv-x="573" d="M441 0h-439l10 118q96 61 204.5 170.5t108.5 178.5q0 27 -19 42.5t-54 15.5q-74 0 -149 -62l13 142q116 55 237 55q93 0 145 -38t52 -105q0 -53 -34 -106.5t-92 -98.5t-123.5 -81.5t-139.5 -66.5h126q103 0 201 15z" />
<glyph horiz-adv-x="520" d="M456 200q0 -94 -93 -152t-220 -58q-96 0 -163 23l40 114q43 -27 101 -27q50 0 82.5 32t32.5 72q0 35 -25.5 51.5t-63.5 16.5q-29 0 -61 -6l15 67q81 26 135.5 65t54.5 81q0 22 -18.5 34t-49.5 12q-61 0 -129 -35l19 121q100 49 216 49q87 0 134.5 -34t47.5 -91 q0 -69 -65.5 -117.5t-167.5 -74.5q81 -6 129.5 -41.5t48.5 -101.5z" />
<glyph horiz-adv-x="633" d="M436 0h-210l21 97h-256l10 86l425 477l148 -10l-84 -394q53 5 86 10l-45 -169h-74zM328 479l-211 -228h162z" />
<glyph horiz-adv-x="564" d="M506 234q0 -112 -99 -178t-242 -66q-94 0 -165 23l39 110q53 -23 120 -23q57 0 92 35t35 83q0 70 -79 70q-27 0 -109 -18l-12 9l79 371h238q99 0 182 10l-46 -174h-308l-27 -129q70 21 135 21q81 0 124 -36.5t43 -107.5z" />
<glyph horiz-adv-x="602" d="M580 263q0 -110 -92.5 -191.5t-227.5 -81.5q-101 0 -163 53.5t-62 166.5q0 86 37.5 168t100.5 144t150.5 100t181.5 38q77 0 100 -10l-39 -111q-31 11 -65 11q-58 0 -115.5 -52t-93.5 -154q59 61 150 61q66 0 102 -38t36 -104zM255 154q0 -30 7 -42t23 -12 q37 0 58.5 47.5t21.5 103.5q0 65 -36 65q-23 0 -50 -16q-24 -83 -24 -146z" />
<glyph horiz-adv-x="547" d="M264 0h-235q39 139 143.5 270.5t256.5 215.5h-146q-103 0 -201 -15l47 179h450l10 -10l-15 -100q-239 -230 -310 -540z" />
<glyph horiz-adv-x="626" d="M11 125q0 58 55.5 105t145.5 69q-107 67 -107 156q0 87 88 146t217 59q97 0 153.5 -35.5t56.5 -97.5q0 -58 -48.5 -101t-127.5 -63q133 -60 133 -162q0 -88 -97 -149.5t-238 -61.5q-106 0 -168.5 37t-62.5 98zM311 492q0 -45 57 -87q48 49 48 105q0 24 -11 37t-30 13 q-25 0 -44.5 -19t-19.5 -49zM221 149q0 -26 16 -42.5t47 -16.5q35 0 60 20.5t25 56.5q0 29 -20 49t-63 40q-65 -51 -65 -107z" />
<glyph horiz-adv-x="601" d="M598 441q0 -86 -38.5 -168.5t-102.5 -144.5t-154 -100t-187 -38q-60 0 -83 10l38 111q33 -11 66 -11q57 0 111.5 44.5t88.5 133.5q-61 -53 -141 -53q-63 0 -103 41t-40 115q0 116 94.5 197.5t227.5 81.5q101 0 162 -53.5t61 -165.5zM268 386q0 -72 41 -72q24 0 46 19 q23 82 23 155q0 62 -30 62q-36 0 -58 -54t-22 -110z" />
<glyph horiz-adv-x="458" d="M473 509q0 -91 -67.5 -156.5t-176.5 -65.5q-74 0 -112.5 36t-38.5 105q0 92 68.5 159.5t176.5 67.5q72 0 111 -38t39 -108zM226 397q0 -38 24 -38q32 0 53.5 65.5t21.5 122.5q0 36 -22 36q-34 0 -55.5 -66t-21.5 -120z" />
<glyph horiz-adv-x="369" d="M270 292h-140l61 275l-66 -23l-6 60l220 51l7 -7z" />
<glyph horiz-adv-x="452" d="M369 292h-287l4 79q51 18 123 76t72 92q0 27 -48 27q-50 0 -95 -35l5 94q75 30 154 30q61 0 96.5 -22.5t35.5 -61.5q0 -52 -66.5 -97.5t-158.5 -72.5h62q67 0 130 9z" />
<glyph horiz-adv-x="419" d="M378 398q0 -51 -59.5 -81t-141.5 -30q-63 0 -107 12l24 75q28 -15 66 -15q31 0 51 14t20 31q0 32 -58 32q-13 0 -40 -3l8 43q51 14 85.5 33t34.5 37q0 20 -44 20q-40 0 -83 -18l10 80q63 27 140 27q57 0 89.5 -20.5t32.5 -53.5q0 -36 -39 -61.5t-100 -37.5 q111 -11 111 -84z" />
<glyph horiz-adv-x="494" d="M370 292h-140l10 44h-165l5 57l267 262l99 -5l-44 -208q20 1 53 5l-26 -111h-50zM286 539l-125 -100h102z" />
<glyph horiz-adv-x="449" d="M410 416q0 -62 -63 -95.5t-155 -33.5q-66 0 -109 12l23 72q34 -12 79 -12q35 0 57 14.5t22 35.5q0 33 -52 33q-1 0 -71 -10l-8 5l44 213h156q70 0 119 5l-26 -115h-201l-14 -52q43 12 87 12q112 0 112 -84z" />
<glyph horiz-adv-x="448" d="M432 436q0 -61 -58.5 -105t-145.5 -44q-73 0 -113 34t-40 97q0 98 88 167.5t213 69.5q48 0 63 -5l-23 -73q-22 6 -42 6q-36 0 -71.5 -22.5t-57.5 -67.5q42 26 94 26q43 0 68 -22.5t25 -60.5zM223 401q0 -42 24 -42q17 0 29.5 18.5t12.5 42.5q0 42 -42 42q-9 0 -15 -2 q-9 -32 -9 -59z" />
<glyph horiz-adv-x="438" d="M259 292h-157q22 71 85.5 137.5t158.5 110.5h-89q-68 0 -130 -8l27 118h295l6 -7l-7 -67q-80 -68 -125 -135t-64 -149z" />
<glyph horiz-adv-x="433" d="M60 364q0 30 34 54.5t90 35.5q-70 37 -70 87q0 49 56.5 81.5t139.5 32.5q65 0 103 -21t38 -57q0 -30 -28.5 -51.5t-75.5 -30.5q83 -34 83 -89q0 -50 -62 -84.5t-153 -34.5q-71 0 -113 21t-42 56zM251 564q0 -21 39 -43q26 23 26 46t-27 23q-15 0 -26.5 -7t-11.5 -19z M199 379q0 -11 10.5 -19t30.5 -8q21 0 36.5 8.5t15.5 24.5q0 15 -13.5 24t-43.5 18q-36 -24 -36 -48z" />
<glyph horiz-adv-x="447" d="M109 502q0 64 58 108.5t145 44.5q74 0 114 -34t40 -97q0 -98 -88 -167.5t-213 -69.5q-48 0 -63 5l23 73q22 -6 42 -6q36 0 72 20t58 59q-41 -27 -90 -27q-46 0 -72 25t-26 66zM318 543q0 40 -23 40q-16 0 -29 -22t-13 -51q0 -42 42 -42q8 0 13 2q10 46 10 73z" />
<glyph horiz-adv-x="618" d="M589 312q0 -135 -99 -228.5t-248 -93.5q-99 0 -156.5 47t-57.5 146q0 135 100 231t248 96q102 0 157.5 -50t55.5 -148zM243 163q0 -63 33 -63q23 0 42.5 25.5t31 63.5t18 77.5t6.5 70.5q0 63 -33 63q-43 0 -70.5 -82t-27.5 -155z" />
<glyph horiz-adv-x="440" d="M282 0h-210l80 375l-105 -45l-5 93l336 87l10 -10z" />
<glyph horiz-adv-x="563" d="M431 0h-429l7 105q50 23 106 56.5t109.5 82.5t53.5 87q0 44 -57 44q-30 0 -72 -17t-78 -45l14 142q46 22 119 38.5t138 16.5q161 0 161 -105q0 -44 -30 -85t-82 -73.5t-107 -57t-119 -45.5h107q105 0 202 15z" />
<glyph horiz-adv-x="529" d="M433 51q0 -92 -93.5 -151.5t-229.5 -59.5q-90 0 -163 21l40 116q43 -27 99 -27q52 0 87 32.5t35 75.5q0 64 -91 64q-32 0 -64 -6l15 67q79 26 132 65t53 80q0 47 -67 47q-58 0 -125 -35l19 125q111 45 215 45q87 0 135 -34t48 -92q0 -67 -64 -116.5t-170 -74.5 q90 -6 139.5 -41.5t49.5 -100.5z" />
<glyph horiz-adv-x="636" d="M401 -185h-210l37 175h-259l9 86l420 434l148 -10l-74 -351q54 5 85 10l-44 -169h-75zM306 358l-207 -214h162z" />
<glyph horiz-adv-x="564" d="M474 84q0 -112 -99 -178t-242 -66q-94 0 -165 23l39 110q53 -23 120 -23q57 0 92 35t35 83q0 70 -79 70q-27 0 -109 -18l-12 9l79 371h238q99 0 182 10l-46 -174h-308l-27 -129q70 21 135 21q81 0 124 -36.5t43 -107.5z" />
<glyph horiz-adv-x="602" d="M580 263q0 -110 -92.5 -191.5t-227.5 -81.5q-101 0 -163 53.5t-62 166.5q0 86 37.5 168t100.5 144t150.5 100t181.5 38q77 0 100 -10l-39 -111q-31 11 -65 11q-58 0 -115.5 -52t-93.5 -154q59 61 150 61q66 0 102 -38t36 -104zM255 154q0 -30 7 -42t23 -12 q37 0 58.5 47.5t21.5 103.5q0 65 -36 65q-23 0 -50 -16q-24 -83 -24 -146z" />
<glyph horiz-adv-x="547" d="M232 -150h-235q39 139 143.5 270.5t256.5 215.5h-146q-103 0 -201 -15l47 179h450l10 -10l-15 -100q-239 -230 -310 -540z" />
<glyph horiz-adv-x="626" d="M11 125q0 58 55.5 105t145.5 69q-107 67 -107 156q0 87 88 146t217 59q97 0 153.5 -35.5t56.5 -97.5q0 -58 -48.5 -101t-127.5 -63q133 -60 133 -162q0 -88 -97 -149.5t-238 -61.5q-106 0 -168.5 37t-62.5 98zM311 492q0 -45 57 -87q48 49 48 105q0 24 -11 37t-30 13 q-25 0 -44.5 -19t-19.5 -49zM221 149q0 -26 16 -42.5t47 -16.5q35 0 60 20.5t25 56.5q0 29 -20 49t-63 40q-65 -51 -65 -107z" />
<glyph horiz-adv-x="601" d="M566 291q0 -86 -38.5 -168.5t-102.5 -144.5t-154 -100t-187 -38q-60 0 -83 10l38 111q33 -11 66 -11q57 0 111.5 44.5t88.5 133.5q-61 -53 -141 -53q-63 0 -103 41t-40 115q0 116 94.5 197.5t227.5 81.5q101 0 162 -53.5t61 -165.5zM236 236q0 -72 41 -72q24 0 46 19 q23 82 23 155q0 62 -30 62q-36 0 -58 -54t-22 -110z" />
<glyph horiz-adv-x="319" d="M223 204h-140q39 257 52 446l217 10q-2 -22 -14 -83q-16 -82 -49 -188.5t-66 -184.5zM214 88q0 -41 -41.5 -74t-94.5 -33q-34 0 -55 15.5t-21 42.5q0 41 41.5 75t95.5 34q34 0 54.5 -15.5t20.5 -44.5z" />
<glyph horiz-adv-x="319" d="M97 546q0 41 41.5 74t94.5 33q34 0 55 -15.5t21 -42.5q0 -41 -41.5 -75t-95.5 -34q-34 0 -54.5 15.5t-20.5 44.5zM96 446h140q-44 -276 -59 -481l-218 -10q8 57 20 110q48 218 117 381z" />
<glyph horiz-adv-x="532" d="M293 197h-140q-5 17 -5 36q0 36 18 70t44.5 59.5t52.5 47t44 41t18 34.5q0 25 -42 25q-65 0 -141 -56l-54 115q128 91 263 91q87 0 139.5 -40t52.5 -111q0 -46 -24.5 -84t-59.5 -63t-70.5 -46.5t-62.5 -44.5t-30 -47q-3 -22 -3 -27zM285 88q0 -41 -41.5 -74t-94.5 -33 q-34 0 -55 15.5t-21 42.5q0 41 41.5 75t95.5 34q34 0 54.5 -15.5t20.5 -44.5z" />
<glyph horiz-adv-x="532" d="M279 562q0 41 41.5 74t94.5 33q34 0 55 -15.5t21 -42.5q0 -41 -41.5 -75t-95.5 -34q-34 0 -54.5 15.5t-20.5 44.5zM271 453h140q5 -17 5 -36q0 -36 -18 -70t-44 -59.5t-52.5 -47t-44.5 -41t-18 -34.5q0 -25 42 -25q65 0 141 56l54 -115q-128 -91 -263 -91 q-87 0 -139.5 40t-52.5 111q0 46 24.5 84t59.5 63t70.5 46.5t62.5 44.5t30 47q3 23 3 27z" />
<glyph horiz-adv-x="340" d="M150 177q-31 0 -50.5 18t-19.5 48q0 42 36 75t83 33q31 0 49.5 -16t18.5 -44q0 -44 -35.5 -79t-81.5 -35z" />
<glyph horiz-adv-x="479" d="M409 307q0 -79 -64.5 -140t-149.5 -61q-54 0 -86.5 28t-32.5 81q0 78 65.5 139.5t149.5 61.5q54 0 86 -28t32 -81z" />
<glyph horiz-adv-x="442" d="M211 376l41 111l-101 -71l-23 62l114 40l-97 40l49 62l72 -70l6 110h72l-42 -112l102 72l23 -62l-114 -40l97 -40l-49 -62l-72 72l-6 -112h-72z" />
<glyph horiz-adv-x="438" d="M126 -10l-79 20l-2 7l299 643l79 -20l1 -7z" />
<glyph horiz-adv-x="551" d="M390 -10l-298 643l1 7l79 20l299 -643l-2 -7z" />
<glyph horiz-adv-x="771" d="M562 164h-113l-80 -174l-88 16l-5 6l70 152h-111l-80 -174l-88 16l-5 6l70 152h-104l-5 6l31 84h119l66 142h-109l-5 6l31 84h124l80 174l88 -16l4 -6l-70 -152h112l80 174l88 -16l4 -6l-70 -152h94l5 -6l-31 -84h-109l-65 -142h98l5 -6zM276 254h111l66 142h-112z" />
<glyph horiz-adv-x="765" d="M549 104h-119l-52 -114l-88 16l-5 6l42 92h-111l-52 -114l-88 16l-5 6l42 92h-98l-5 6l31 84h114l51 112h-101l-5 6l31 84h117l52 114l88 -16l5 -6l-42 -92h111l52 114l88 -16l5 -6l-42 -92h100l5 -6l-31 -84h-116l-51 -112h103l5 -6zM258 194h111l51 112h-111z" />
<glyph horiz-adv-x="414" d="M58 254q0 140 107.5 262.5t260.5 178.5l38 -69q-86 -73 -138 -181t-52 -221q0 -125 61 -204l-68 -69q-98 42 -153.5 123.5t-55.5 179.5z" />
<glyph horiz-adv-x="414" d="M387 392q0 -140 -107.5 -262.5t-260.5 -178.5l-38 69q86 73 138 181t52 221q0 125 -61 204l68 69q98 -42 153.5 -123.5t55.5 -179.5z" />
<glyph horiz-adv-x="465" d="M143 224q0 39 -68 46l21 100q49 6 72 24.5t23 58.5q0 14 -4 39t-4 41q0 40 18 69t46.5 46.5t72 28.5t88 14.5t99.5 3.5l-19 -100q-49 0 -76.5 -19.5t-27.5 -56.5q0 -9 3 -31.5t3 -33.5q0 -54 -46 -88.5t-122 -45.5q56 -9 88.5 -32.5t32.5 -59.5q0 -27 -25 -72.5 t-25 -64.5q0 -46 78 -46l-24 -100q-139 0 -203.5 25.5t-64.5 80.5q0 34 32 92t32 81z" />
<glyph horiz-adv-x="464" d="M351 416q0 -39 68 -46l-21 -100q-49 -6 -72 -24.5t-23 -58.5q0 -14 4 -39t4 -41q0 -40 -18 -69t-46.5 -46.5t-72 -28.5t-88 -14.5t-99.5 -3.5l19 100q49 0 76.5 19.5t27.5 56.5q0 9 -3 31.5t-3 33.5q0 54 46 88.5t122 45.5q-56 9 -88.5 32.5t-32.5 59.5q0 27 25 72.5 t25 64.5q0 46 -78 46l24 100q139 0 203.5 -25.5t64.5 -80.5q0 -34 -32 -92t-32 -81z" />
<glyph horiz-adv-x="444" d="M183 695h300l-25 -115h-104l-108 -511h104l-25 -115h-300l133 626z" />
<glyph horiz-adv-x="444" d="M293 -46h-300l25 115h104l108 511h-104l25 115h300l-133 -626z" />
<glyph horiz-adv-x="395" d="M46 294l6 60h328l-6 -60h-328z" />
<glyph horiz-adv-x="561" d="M44 294l8 60h496l-8 -60h-496z" />
<glyph horiz-adv-x="860" d="M39 294l13 60h800l-13 -60h-800z" />
<glyph horiz-adv-x="296" d="M195 95q0 -69 -71.5 -147t-149.5 -107l-23 38q70 50 106 114q-46 12 -46 61q0 43 34 76.5t80 33.5q33 0 51.5 -19t18.5 -50z" />
<glyph horiz-adv-x="553" d="M195 95q0 -69 -71.5 -147t-149.5 -107l-23 38q70 50 106 114q-46 12 -46 61q0 43 34 76.5t80 33.5q33 0 51.5 -19t18.5 -50zM452 95q0 -69 -71.5 -147t-149.5 -107l-23 38q70 50 106 114q-46 12 -46 61q0 43 34 76.5t80 33.5q33 0 51.5 -19t18.5 -50z" />
<glyph horiz-adv-x="566" d="M101 405q0 69 71.5 147t149.5 107l23 -38q-70 -50 -106 -114q46 -12 46 -61q0 -43 -34 -76.5t-80 -33.5q-33 0 -51.5 19t-18.5 50zM371 405q0 69 71.5 147t149.5 107l23 -38q-70 -50 -106 -114q46 -12 46 -61q0 -43 -34 -76.5t-80 -33.5q-33 0 -51.5 19t-18.5 50z" />
<glyph horiz-adv-x="566" d="M571 592q0 -69 -71.5 -147t-149.5 -107l-23 38q70 50 106 114q-46 12 -46 61q0 43 34 76.5t80 33.5q33 0 51.5 -19t18.5 -50zM301 592q0 -69 -71.5 -147t-149.5 -107l-23 38q70 50 106 114q-46 12 -46 61q0 43 34 76.5t80 33.5q33 0 51.5 -19t18.5 -50z" />
<glyph horiz-adv-x="296" d="M101 406q0 69 71.5 147t149.5 107l23 -38q-70 -50 -106 -114q46 -12 46 -61q0 -43 -34 -76.5t-80 -33.5q-33 0 -51.5 19t-18.5 50z" />
<glyph horiz-adv-x="296" d="M301 591q0 -69 -71.5 -147t-149.5 -107l-23 38q70 50 106 114q-46 12 -46 61q0 43 34 76.5t80 33.5q33 0 51.5 -19t18.5 -50z" />
<glyph horiz-adv-x="587" d="M304 327l11 54q141 93 267 203l34 -22q-51 -92 -147 -208q47 -116 58 -208l-43 -22q-80 112 -180 203zM54 327l11 54q141 93 267 203l34 -22q-51 -92 -147 -208q47 -116 58 -208l-43 -22q-80 112 -180 203z" />
<glyph horiz-adv-x="587" d="M327 381l-11 -54q-141 -93 -267 -203l-34 22q51 92 147 208q-47 116 -58 208l43 22q80 -112 180 -203zM577 381l-11 -54q-141 -93 -267 -203l-34 22q51 92 147 208q-47 116 -58 208l43 22q80 -112 180 -203z" />
<glyph horiz-adv-x="336" d="M53 324l11 54q141 93 267 203l34 -22q-51 -92 -147 -208q47 -116 58 -208l-43 -22q-80 112 -180 203z" />
<glyph horiz-adv-x="336" d="M326 378l-11 -54q-141 -93 -267 -203l-34 22q51 92 147 208q-47 116 -58 208l43 22q80 -112 180 -203z" />
<glyph horiz-adv-x="430" d="M275 660l-110 -317h-59l26 317h143zM480 660l-110 -317h-59l26 317h143z" />
<glyph horiz-adv-x="233" d="M275 660l-110 -317h-59l26 317h143z" />
<glyph horiz-adv-x="483" d="M185 -123l24 113q-87 3 -137.5 49t-50.5 136q0 125 91.5 222t226.5 111l24 112l50 3l-24 -113q68 -2 119 -24l-52 -165q-51 79 -103 79q-46 0 -81.5 -65.5t-35.5 -130.5q0 -94 64 -94q54 0 122 50l-8 -115q-63 -43 -155 -53l-24 -112z" />
<glyph horiz-adv-x="470" d="M359 67l-48 65q-58 -37 -122 -37q-56 0 -90 28l-68 -56l-31 40l67 55q-15 30 -15 68q0 87 67 152l-44 59l43 36q4 -5 13.5 -16t18 -22t16.5 -21q53 31 112 31q60 0 96 -33l74 61l32 -40l-76 -62q12 -29 12 -62q0 -78 -58 -142q9 -12 26.5 -33t24.5 -30zM144 249 q0 -32 17.5 -53.5t52.5 -21.5q47 0 78.5 37.5t31.5 82.5q0 32 -17.5 51t-52.5 19q-47 0 -78.5 -34.5t-31.5 -80.5z" />
<glyph horiz-adv-x="534" d="M135 -123l24 114q-113 4 -173 26l67 186q35 -32 77.5 -52.5t75.5 -20.5q27 0 42.5 11t15.5 29t-19.5 36t-46.5 37t-54.5 42t-47 59.5t-19.5 81.5q0 86 66.5 147t176.5 80l25 117l70 3l-24 -113h15q87 0 159 -23l-71 -177q-70 60 -133 60q-28 0 -43.5 -12t-15.5 -31 q0 -17 14 -34t34.5 -30.5t44.5 -32.5t44.5 -39.5t34.5 -52.5t14 -70q0 -93 -74.5 -153t-184.5 -72l-24 -113z" />
<glyph horiz-adv-x="585" d="M13 239l18 61h42q2 20 10 53h-37l18 61h41q48 111 146 178.5t218 67.5q92 0 167 -28l-55 -167q-19 20 -55 37.5t-71 17.5q-82 0 -125 -106h152l-18 -61h-152q-6 -34 -7 -53h144l-18 -61h-127q6 -102 91 -102q65 0 120 35l-10 -150q-93 -32 -189 -32q-248 0 -248 246v3 h-55z" />
<glyph horiz-adv-x="594" d="M477 247l-138 3l-56 -171q-7 -20 -11.5 -33t-18 -40.5t-27.5 -47t-39 -44t-53 -39.5t-69 -25.5t-88 -10.5q-54 0 -106 14l63 111q39 -15 63 -15q63 0 86 94l50 212l-91 2l21 53l88 20q19 80 35 118q89 212 325 212q94 0 139 -29l-76 -133q-13 19 -38 35.5t-47 16.5 q-56 0 -91 -108q-36 -109 -36 -112h149z" />
<glyph horiz-adv-x="629" d="M520 252l-135 3q-57 -131 -143 -199q115 -66 225 -66q44 0 87 10l-89 -154q-16 -6 -42 -6q-20 0 -39.5 3t-35 7t-34.5 13t-30.5 14.5t-30 19.5t-25.5 19t-25.5 22t-22.5 20.5t-22.5 22.5t-19.5 20q-41 -11 -82 -11q-55 0 -74.5 18t-12.5 51q7 34 34.5 54t64.5 20t81 -23 q9 34 19 77l16 73l-95 2l21 53l91 20q37 156 125.5 240.5t228.5 84.5q91 0 145 -29l-76 -132q-45 51 -87 51q-33 0 -62 -48t-60 -167h141z" />
<glyph horiz-adv-x="602" d="M52 88l13 61h113l11 53h-113l13 61h87l-81 387l208 10l29 -292h2l155 292l193 -10l-244 -387h87l-13 -61h-113l-11 -53h113l-13 -61h-113l-19 -88h-210l19 88h-113z" />
<glyph horiz-adv-x="483" d="M185 -123l24 113q-87 3 -137.5 49t-50.5 136q0 125 91.5 222t226.5 111l24 112l50 3l-24 -113q68 -2 119 -24l-52 -165q-51 79 -103 79q-46 0 -81.5 -65.5t-35.5 -130.5q0 -94 64 -94q54 0 122 50l-8 -115q-63 -43 -155 -53l-24 -112z" />
<glyph horiz-adv-x="470" d="M353 42l-48 65q-58 -37 -122 -37q-56 0 -90 28l-68 -56l-31 40l67 55q-15 30 -15 68q0 87 67 152l-44 59l43 36q4 -5 13.5 -16t18 -22t16.5 -21q53 31 112 31q60 0 96 -33l74 61l32 -40l-76 -62q12 -28 12 -62q0 -78 -58 -142q9 -12 26.5 -33t24.5 -30zM138 224 q0 -32 17.5 -53.5t52.5 -21.5q47 0 78.5 37.5t31.5 82.5q0 32 -17.5 51t-52.5 19q-47 0 -78.5 -34.5t-31.5 -80.5z" />
<glyph horiz-adv-x="486" d="M128 -123l24 113q-107 2 -168 21l44 157q34 -20 81.5 -32.5t82.5 -12.5q43 0 43 22q0 13 -10.5 21.5t-39 20.5t-43.5 20q-81 43 -81 115q0 70 60.5 119.5t159.5 63.5l25 115l50 3l-24 -113h20q80 0 143 -19l-44 -158q-82 44 -143 44q-40 0 -40 -25q0 -7 4 -13.5t14.5 -13 t16 -9.5t22 -10.5t19.5 -8.5q45 -21 71 -48.5t26 -75.5q0 -75 -66 -123.5t-173 -57.5l-24 -112z" />
<glyph horiz-adv-x="532" d="M395 189h-110q7 -79 64 -79q54 0 122 50l-8 -115q-80 -55 -193 -55q-92 0 -146 46t-54 139v14h-73l15 45h64q2 12 8 34h-59l14 45h63q43 88 130.5 142.5t195.5 54.5q74 0 129 -24l-52 -165q-51 79 -103 79q-54 0 -92 -87h127l-14 -45h-129q-2 -9 -7 -34h123z" />
<glyph horiz-adv-x="598" d="M460 173l-144 3l-37 -93q-10 -28 -19 -47.5t-34 -55t-54.5 -58.5t-79.5 -41t-110 -18q-53 0 -106 14l63 111q39 -15 63 -15q27 0 50.5 20t31.5 54l31 134l-90 2l20 53l88 20q8 32 29 81q78 173 311 173q98 0 143 -29l-76 -133q-14 20 -38.5 36t-48.5 16q-49 0 -83 -78 q-21 -51 -26 -66h149z" />
<glyph d="M491 184l-137 3q-44 -84 -107 -133q112 -64 220 -64q44 0 87 10l-89 -154q-16 -6 -42 -6q-44 0 -84 12.5t-77 39t-57 44t-53 51.5l-13 13q-40 -10 -79 -10q-93 0 -93 56q0 36 29.5 61.5t72.5 25.5q35 0 79 -22q8 23 20 76l1 4l-110 3l21 53l107 20q28 116 108 179.5 t210 63.5q94 0 148 -29l-76 -132q-43 51 -91 51q-62 0 -100 -133h141z" />
<glyph horiz-adv-x="594" d="M43 70l9 45h120l10 45h-120l9 45h119l-127 295l198 10l62 -193h2l134 193l183 -10l-239 -295h118l-9 -45h-120l-10 -45h120l-9 -45h-120l-15 -70h-210l15 70h-120z" />
<glyph horiz-adv-x="620" d="M525 256h-143l-30 -144h-147l29 144h-139l28 132q102 3 139 3l30 148h150l-31 -146q56 1 145 1z" />
<glyph horiz-adv-x="620" d="M525 256h-430l28 132q147 6 433 6z" />
<glyph horiz-adv-x="587" d="M377 114l-88 113l-139 -114l-77 98l138 115l-90 116l116 96q36 -40 93 -112l135 112l80 -100l-135 -111q18 -22 89 -113l-2 -12z" />
<glyph horiz-adv-x="620" d="M454 534q-8 -41 -41.5 -68.5t-74.5 -27.5q-33 0 -50.5 22t-10.5 54q8 40 42.5 67.5t75.5 27.5q32 0 49 -21t10 -54zM526 256h-430l28 132q147 6 433 6zM370 137q-9 -41 -42 -68t-74 -27q-33 0 -50.5 22t-10.5 53q9 40 43.5 68t74.5 28q32 0 49 -21.5t10 -54.5z" />
<glyph horiz-adv-x="620" d="M548 363h-430l28 132q147 6 433 6zM503 149h-430l28 132q147 6 433 6z" />
<glyph horiz-adv-x="620" d="M139 23l-61 39l65 87h-70l28 132q135 4 143 4l58 78h-184l28 132q97 3 258 5l93 125l11 3l61 -39l-66 -88h76l-31 -138h-147l-58 -77q73 1 191 1l-31 -138h-261l-92 -123z" />
<glyph horiz-adv-x="620" d="M58 85l34 160l261 81l-227 77l35 160q61 -22 192 -80.5t204 -96.5l-26 -124z" />
<glyph horiz-adv-x="620" d="M595 563l-34 -160l-261 -81l227 -77l-35 -160q-61 22 -192 80.5t-204 96.5l26 124z" />
<glyph horiz-adv-x="620" d="M84 213l31 147l239 52l-216 51l33 152q70 -19 204 -65t200 -73l-26 -125zM477 36h-430l28 132q147 6 433 6z" />
<glyph horiz-adv-x="620" d="M606 615l-32 -147l-238 -53l215 -50l-32 -152q-70 19 -204 65t-201 73l27 125zM480 36h-430l28 132q147 6 433 6z" />
<glyph horiz-adv-x="620" d="M532 332h-141l-24 -114h-147l23 114h-141l28 132q105 3 141 3l24 118h150l-25 -116q55 1 143 1zM464 15h-430l28 132q147 6 433 6z" />
<glyph horiz-adv-x="620" d="M223 388q-12 0 -63 -49l-65 34q104 155 164 155q31 0 118.5 -22t99.5 -22q11 0 65 49l64 -34q-21 -31 -37 -52.5t-39.5 -48t-46 -40.5t-41.5 -14q-30 0 -118 22t-101 22zM175 164q-12 0 -63 -49l-65 34q104 155 164 155q31 0 118.5 -22t99.5 -22q11 0 65 49l64 -34 q-21 -31 -37 -52.5t-39.5 -48t-46 -40.5t-41.5 -14q-30 0 -118 22t-101 22z" />
<glyph horiz-adv-x="620" d="M554 433l-58 -271h-145l29 133h-294l28 132q146 6 440 6z" />
<glyph horiz-adv-x="840" d="M804 373q0 -95 -69 -169t-164 -74q-99 0 -157 95q-87 -95 -200 -95q-69 0 -107 39.5t-38 106.5q0 96 68.5 170t164.5 74q97 0 157 -95q85 95 199 95q69 0 107.5 -39.5t38.5 -107.5zM607 401q-53 0 -104 -57q22 -47 40.5 -69.5t44.5 -22.5q29 0 51 29t22 63q0 27 -15 42 t-39 15zM212 306q0 -27 15 -42t39 -15q54 0 104 58q-24 47 -42 69t-43 22q-30 0 -51.5 -29t-21.5 -63z" />
<glyph horiz-adv-x="978" d="M293 -10h-115l542 670h116zM473 509q0 -91 -67.5 -156.5t-176.5 -65.5q-74 0 -112.5 36t-38.5 105q0 92 68.5 159.5t176.5 67.5q72 0 111 -38t39 -108zM226 397q0 -38 24 -38q32 0 53.5 65.5t21.5 122.5q0 36 -22 36q-34 0 -55.5 -66t-21.5 -120zM931 217 q0 -91 -67.5 -156.5t-176.5 -65.5q-74 0 -112.5 36t-38.5 105q0 92 68.5 159.5t176.5 67.5q72 0 111 -38t39 -108zM684 105q0 -38 24 -38q32 0 53.5 65.5t21.5 122.5q0 36 -22 36q-34 0 -55.5 -66t-21.5 -120z" />
<glyph horiz-adv-x="1421" d="M293 -10h-115l542 670h116zM473 509q0 -91 -67.5 -156.5t-176.5 -65.5q-74 0 -112.5 36t-38.5 105q0 92 68.5 159.5t176.5 67.5q72 0 111 -38t39 -108zM226 397q0 -38 24 -38q32 0 53.5 65.5t21.5 122.5q0 36 -22 36q-34 0 -55.5 -66t-21.5 -120zM931 217 q0 -91 -67.5 -156.5t-176.5 -65.5q-74 0 -112.5 36t-38.5 105q0 92 68.5 159.5t176.5 67.5q72 0 111 -38t39 -108zM1374 217q0 -91 -67.5 -156.5t-176.5 -65.5q-74 0 -112.5 36t-38.5 105q0 92 68.5 159.5t176.5 67.5q72 0 111 -38t39 -108zM684 105q0 -38 24 -38 q32 0 53.5 65.5t21.5 122.5q0 36 -22 36q-34 0 -55.5 -66t-21.5 -120zM1127 105q0 -38 24 -38q32 0 53.5 65.5t21.5 122.5q0 36 -22 36q-34 0 -55.5 -66t-21.5 -120z" />
<glyph horiz-adv-x="620" d="M509 181h-143l-30 -144h-147l29 144h-139l28 132q102 3 139 3l30 148h150l-31 -146q56 1 145 1z" />
<glyph horiz-adv-x="620" d="M509 181h-430l28 132q147 6 433 6z" />
<glyph horiz-adv-x="616" d="M375 39l-88 113l-139 -114l-77 98l138 115l-90 116l116 96q36 -40 93 -112l135 112l80 -100l-135 -111q17 -22 89 -113l-2 -12z" />
<glyph horiz-adv-x="620" d="M438 459q-8 -41 -41.5 -68.5t-74.5 -27.5q-33 0 -50.5 22t-10.5 54q8 40 42.5 67.5t75.5 27.5q32 0 49 -21t10 -54zM510 181h-430l28 132q147 6 433 6zM354 62q-9 -41 -42 -68t-74 -27q-33 0 -50.5 22t-10.5 53q9 40 43.5 68t74.5 28q32 0 49 -21.5t10 -54.5z" />
<glyph horiz-adv-x="620" d="M532 288h-430l28 132q147 6 433 6zM487 74h-430l28 132q147 6 433 6z" />
<glyph horiz-adv-x="620" d="M123 -52l-61 39l65 87h-70l28 132q135 4 143 4l58 78h-184l28 132q97 3 258 5l93 125l11 3l61 -39l-66 -88h76l-31 -138h-147l-58 -77q73 1 191 1l-31 -138h-261l-92 -123z" />
<glyph horiz-adv-x="620" d="M41 9l34 160l261 81l-227 77l35 160q61 -22 192 -80.5t204 -96.5l-26 -124z" />
<glyph horiz-adv-x="621" d="M579 487l-34 -160l-261 -81l227 -77l-35 -160q-61 22 -192 80.5t-204 96.5l26 124z" />
<glyph horiz-adv-x="620" d="M72 157l28 132l246 44l-226 44l28 133q161 -42 409 -118l-24 -116zM469 0h-430l26 122q147 6 434 6z" />
<glyph horiz-adv-x="620" d="M582 510l-28 -133l-245 -44l227 -44l-28 -132l-409 119l24 116q285 77 459 118zM470 0h-430l26 122q147 6 434 6z" />
<glyph horiz-adv-x="621" d="M519 271h-140l-23 -110h-147l22 110h-142l26 122q137 4 142 4l23 113h150l-24 -112q55 1 142 1zM461 0h-430l26 122q147 6 434 6z" />
<glyph horiz-adv-x="620" d="M207 313q-12 0 -63 -49l-65 34q104 155 164 155q31 0 118.5 -22t99.5 -22q11 0 65 49l64 -34q-21 -31 -37 -52.5t-39.5 -48t-46 -40.5t-41.5 -14q-30 0 -118 22t-101 22zM159 89q-12 0 -63 -49l-65 34q104 155 164 155q31 0 118.5 -22t99.5 -22q11 0 65 49l64 -34 q-21 -31 -37 -52.5t-39.5 -48t-46 -40.5t-41.5 -14q-30 0 -118 22t-101 22z" />
<glyph horiz-adv-x="619" d="M553 432l-58 -271h-145l29 133h-294l28 132q145 6 440 6z" />
<glyph horiz-adv-x="839" d="M800 357q0 -95 -69 -169t-164 -74q-99 0 -157 95q-87 -95 -200 -95q-69 0 -107 39.5t-38 106.5q0 96 68.5 170t164.5 74q97 0 157 -95q85 95 199 95q69 0 107.5 -39.5t38.5 -107.5zM603 385q-53 0 -104 -57q22 -47 40.5 -69.5t44.5 -22.5q29 0 51 29t22 63q0 27 -15 42 t-39 15zM208 290q0 -27 15 -42t39 -15q54 0 104 58q-24 47 -42 69t-43 22q-30 0 -51.5 -29t-21.5 -63z" />
<glyph horiz-adv-x="965" d="M439 398q0 -73 -67 -116.5t-162 -43.5q-69 0 -110.5 26t-41.5 82q0 71 66.5 117.5t162.5 46.5q72 0 112 -28.5t40 -83.5zM666 510h101l-468 -520h-103zM202 348q0 -45 33 -45q29 0 44.5 30.5t15.5 65.5q0 46 -32 46q-29 0 -45 -31.5t-16 -65.5zM906 150 q0 -73 -66.5 -116.5t-161.5 -43.5q-70 0 -111.5 26.5t-41.5 81.5q0 72 67 118t163 46q71 0 111 -28.5t40 -83.5zM669 101q0 -46 34 -46q29 0 44.5 30.5t15.5 65.5q0 46 -32 46q-29 0 -45.5 -31.5t-16.5 -64.5z" />
<glyph horiz-adv-x="1391" d="M439 398q0 -73 -67 -116.5t-162 -43.5q-69 0 -110.5 26t-41.5 82q0 71 66.5 117.5t162.5 46.5q72 0 112 -28.5t40 -83.5zM666 510h101l-468 -520h-103zM202 348q0 -45 33 -45q29 0 44.5 30.5t15.5 65.5q0 46 -32 46q-29 0 -45 -31.5t-16 -65.5zM1332 150 q0 -73 -66.5 -116.5t-161.5 -43.5q-70 0 -111.5 26.5t-41.5 81.5q0 72 67 118t163 46q71 0 111 -28.5t40 -83.5zM906 150q0 -73 -66.5 -116.5t-161.5 -43.5q-70 0 -111.5 26.5t-41.5 81.5q0 72 67 118t163 46q71 0 111 -28.5t40 -83.5zM1095 101q0 -46 34 -46 q29 0 44.5 30.5t15.5 65.5q0 46 -32 46q-29 0 -45.5 -31.5t-16.5 -64.5zM669 101q0 -46 34 -46q29 0 44.5 30.5t15.5 65.5q0 46 -32 46q-29 0 -45.5 -31.5t-16.5 -64.5z" />
<glyph horiz-adv-x="860" d="M755 98q0 -48 -34.5 -76t-89.5 -32l-7 7q5 10 5 23q0 42 -86 91q-138 -121 -311 -121q-102 0 -157.5 42t-55.5 106q0 63 52.5 116t132.5 72q-41 56 -41 117q0 97 87 157t217 60q88 0 142 -28t54 -79q0 -44 -40.5 -68.5t-104.5 -30.5q234 6 296 13q0 -65 -22 -147 q-49 5 -98 15q-17 -48 -40 -88q101 -73 101 -149zM378 486q0 -25 15 -49.5t41 -45.5t57.5 -41.5t67.5 -41.5q2 -1 3.5 -2t3.5 -2l4 -2q7 34 8 69q-60 24 -110 55v21q15 32 15 57q0 46 -44 46q-27 0 -44 -18t-17 -46zM234 199q0 -52 35 -80.5t93 -28.5q76 0 128 49 q-10 5 -38.5 19t-42.5 21t-39.5 21t-42 24t-37 24t-36.5 27q-20 -35 -20 -76z" />
<glyph horiz-adv-x="371" d="M369 475q0 -71 -54.5 -125.5t-130.5 -54.5q-53 0 -83.5 29t-30.5 80q0 72 54 126t130 54q53 0 84 -29t31 -80zM148 419q0 -24 15 -39t40 -15q36 0 62.5 28.5t26.5 64.5q0 26 -14.5 41t-40.5 15q-37 0 -63 -29.5t-26 -65.5z" />
<glyph horiz-adv-x="389" d="M385 325q0 -71 -54.5 -125.5t-130.5 -54.5q-53 0 -83.5 29t-30.5 80q0 72 54 126t130 54q53 0 84 -29t31 -80zM164 269q0 -24 15 -39t40 -15q36 0 62.5 28.5t26.5 64.5q0 26 -14.5 41t-40.5 15q-37 0 -63 -29.5t-26 -65.5z" />
<glyph horiz-adv-x="740" d="M448 792q-121 -69 -254 -95l-27 55q120 91 193 168zM810 792q-121 -69 -254 -95l-27 55q120 91 193 168zM242 0h-210l110 520l18 130l222 10zM289 -109q48 14 78.5 53t41.5 92l103 484l18 130l222 10l-107 -504q-9 -44 -17 -74t-22.5 -68.5t-31 -64t-43.5 -53t-60.5 -45 t-80.5 -30t-105 -16.5z" />
<glyph horiz-adv-x="650" d="M388 652q-123 -75 -252 -103l-31 62q118 90 192 165zM720 652q-123 -75 -252 -103l-31 62q118 90 192 165zM313 509q-3 -34 -37.5 -202t-34.5 -230q0 -40 8 -77h-210q-8 39 -8 82q0 69 11 121l33 155l8 141zM645 509q-6 -50 -94 -465q-48 -225 -300 -239l-29 70 q33 15 55 34.5t35 46.5t18 44.5t12 50.5l65 307l8 141z" />
</font>
</defs>
</svg>
