<?xml version="1.0" standalone="no"?>
<!DOCTYPE svg PUBLIC "-//W3C//DTD SVG 1.1//EN" "http://www.w3.org/Graphics/SVG/1.1/DTD/svg11.dtd" >
<svg xmlns="http://www.w3.org/2000/svg" xmlns:xlink="http://www.w3.org/1999/xlink" version="1.1">
<metadata></metadata>
<defs>
<font id="indivisa_text_sansblack" horiz-adv-x="620" >
<font-face units-per-em="1000" ascent="750" descent="-250" />
<missing-glyph horiz-adv-x="250" />
<glyph unicode="&#x2f;symbol&#x33;&#x2f;" horiz-adv-x="957" d="M505 638l68 -270h270l-203 -135l136 -270l-271 135l-270 -270l135 405l-270 203l338 -68zM814 87q18 0 30.5 -12.5t12.5 -31.5q0 -18 -12.5 -30.5t-30.5 -12.5t-30.5 12.5t-12.5 30.5q0 19 12.5 31.5t30.5 12.5zM854 43q0 17 -11.5 29t-28.5 12t-28.5 -12t-11.5 -29 t12 -28.5t28 -11.5t28 11.5t12 28.5zM796 68h18q8 0 11 -2q6 -3 6 -10q0 -5 -4 -9q-3 -3 -6 -3q7 -3 8 -10q2 -14 3 -16h-7q-1 2 -2 7.5t-1 6.5q0 9 -10 9h-9v-23h-7v50zM803 47h10q5 0 7 1q3 3 3 6q0 9 -10 9h-10v-16z" />
<glyph unicode="&#x2f;symbol&#x32;&#x2f;" horiz-adv-x="932" d="M494 570l52 -90l-137 -240h-103l137 240l-52 90h103zM357 570l52 -90l-138 -240h-103l138 240l-52 90h103zM752 120h-103l-137 240l51 90l137 -240h103zM683 0h-103l-137 240l51 90l138 -240h103zM100 120l51 90h275l51 -90h-274l-52 -90zM168 0l52 90h274l52 -90h-275 l-51 -90zM789 88q18 0 30.5 -13t12.5 -31t-12.5 -31t-30.5 -13t-30.5 13t-12.5 31t12.5 31t30.5 13zM829 44q0 16 -11.5 28t-28.5 12t-28.5 -12t-11.5 -28t11.5 -28t28.5 -12t28.5 12t11.5 28zM771 69h18q7 0 11 -2q5 -4 5 -11q0 -5 -3 -8q-1 -2 -6 -4q7 -1 8 -9q0 -8 3 -16 h-8q-1 2 -1.5 6.5t-0.5 6.5q-1 10 -11 10h-8v-23h-7v50zM778 47h10q5 0 7 1q3 3 3 7q0 8 -10 8h-10v-16z" />
<glyph unicode="&#x2f;symbol&#x35;&#x2f;" horiz-adv-x="705" d="M232 -6l-132 136l124 234l129 -136zM474 -6l-121 234l128 136l124 -234z" />
<glyph unicode="&#x2f;symbol&#x31;&#x2f;" horiz-adv-x="5534" d="M1865 412q-25 0 -40.5 14.5t-15.5 37.5q0 35 32.5 64t70.5 29q24 0 39 -13.5t15 -37.5q0 -36 -31 -65t-70 -29zM1284 412q-26 0 -41.5 14.5t-15.5 37.5q0 35 33 64t71 29q24 0 38.5 -13.5t14.5 -37.5q0 -36 -31 -65t-69 -29zM959 0q0 42 11 108q-16 -50 -51.5 -82.5 t-78.5 -32.5q-41 0 -63 29.5t-22 82.5q0 62 27 121t84 101t132 42q17 0 25 -1l16 73l6 102l136 7q0 -67 -46 -273t-46 -277h-130zM100 0l78 364q17 86 21 136l128 7l11 -15l-104 -492h-134zM3503 492l-57 -492h-131l20 175q5 50 33 215h-3q-31 -102 -81 -215l-76 -175h-149 l-2 175q-2 121 9 215h-2q-32 -130 -59 -215l-53 -175h-109l154 500l184 6l1 -137q2 -134 -15 -259h2q39 126 94 259l56 131l169 7zM5316 300q-37 -177 -37 -183q0 -34 36 -34q25 0 59 18l-9 -79q-52 -29 -114 -29q-105 0 -105 100q0 20 40 210l-47 1l9 44l54 14l53 95l81 6 l13 -15l-20 -86h99l6 -14l-17 -51zM336 0q0 79 41 260l6 102l137 7q0 -31 -7 -89h2q52 89 134 89q34 0 53 -19.5t19 -51.5q0 -27 -26 -147q-18 -85 -18 -151h-131q0 55 19 150q15 78 15 87q0 24 -17 24q-34 0 -64 -82.5t-32 -178.5h-131zM1170 0q0 72 27 193l14 67l6 102 l137 7q0 -46 -27 -177t-27 -192h-130zM1399 362l140 7q13 -129 -5 -289h2q76 151 91 284q22 5 50 5q32 0 48.5 -8.5t16.5 -33.5q0 -46 -51 -147.5t-116 -179.5h-149q-5 228 -27 362zM1752 0q0 69 26 193l15 67l6 102l137 7q0 -46 -27 -177t-27 -192h-130zM4716 0 q0 79 41 260l6 102l137 7q0 -12 -7 -89h2q52 89 134 89q34 0 53 -19.5t19 -51.5q0 -27 -26 -147q-19 -90 -19 -151h-130q0 55 19 150q15 78 15 87q0 24 -17 24q-35 0 -65 -82t-32 -179h-130zM2245 256q-52 30 -97 30q-18 0 -30 -7t-12 -19q0 -14 20 -26.5t44 -22t44 -33 t20 -56.5q0 -57 -53 -93t-128 -36q-78 0 -118 28l27 93q57 -38 111 -38q19 0 29.5 7.5t10.5 18.5q0 13 -20 26t-44 23t-44 33t-20 55q0 56 54.5 93t128.5 37q58 0 104 -18zM2525 369q88 0 146 -32l-29 -128q-31 -145 -31 -209h-130q0 37 12 112q-15 -52 -51 -85.5t-81 -33.5 q-41 0 -62.5 29.5t-21.5 83.5q0 62 26.5 120.5t85 100.5t136.5 42zM4653 51q-67 -58 -159 -58q-65 0 -103.5 35t-38.5 102q0 94 68.5 166.5t167.5 72.5q54 0 86.5 -23.5t32.5 -64.5q0 -57 -60 -96.5t-161 -43.5v-1q0 -64 63 -64q42 0 90 28zM3936 0q0 74 42 260l5 102l137 7 q0 -31 -7 -89h2q53 89 134 89q34 0 53 -19.5t19 -51.5q0 -27 -26 -147q-18 -85 -18 -151h-131q0 55 19 150q15 71 15 87q0 24 -17 24q-34 0 -64 -82.5t-32 -178.5h-131zM3768 369q87 0 145 -32l-28 -128q-31 -145 -31 -209h-130q0 45 12 112q-15 -52 -51 -85.5t-81 -33.5 q-41 0 -63 29.5t-22 83.5q0 46 16 91.5t46 84t79 63t108 24.5zM4490 177q47 10 73 34t26 59q0 31 -22 31q-28 0 -48.5 -38.5t-28.5 -85.5zM3677 101q23 0 47 43t38 101q1 8 4.5 24.5t4.5 19.5q-16 8 -27 8q-34 0 -62.5 -54.5t-28.5 -101.5q0 -40 24 -40zM913 101 q22 0 44.5 39.5t37.5 94.5q1 9 8 40l3 14q-14 8 -27 8q-33 0 -61.5 -54.5t-28.5 -101.5q0 -40 24 -40zM2435 101q23 0 47 43.5t37 100.5q3 14 9 44q-14 8 -27 8q-34 0 -62 -54.5t-28 -101.5q0 -40 24 -40z" />
<glyph unicode="&#x2f;symbol&#x34;&#x2f;" horiz-adv-x="2607" d="M1684 406q0 65 -11 128l126 14l15 -15v-533h-130v406zM1889 406q0 62 -10 128l126 14l14 -15v-533h-130v406zM427 101v-101h-320v362q0 80 -7 135l126 7l14 -14v-396zM925 21l7 109q62 -36 144 -36q50 0 50 36q0 20 -31.5 41.5t-69 40.5t-69 57t-31.5 88q0 69 55 108 t138 39q80 0 127 -18l-14 -111q-56 29 -111 29q-27 0 -42.5 -11t-15.5 -29q0 -20 20.5 -38t50 -34t59.5 -35t50.5 -51t20.5 -72q0 -66 -53.5 -103.5t-139.5 -37.5q-41 0 -83.5 8t-61.5 20zM795 0l-106 -7q-11 16 -21 49h-4q-34 -49 -104 -49q-43 0 -70 23t-27 66 q0 113 191 118v20q0 54 -58 54q-55 0 -108 -29l-8 97q72 26 150 26q154 0 154 -135q0 -25 -2 -69t-2 -70q0 -51 15 -94zM1626 0l-107 -7q-12 20 -21 49h-3q-34 -49 -105 -49q-43 0 -69.5 23t-26.5 66q0 113 191 118v20q0 54 -58 54q-54 0 -109 -29l-7 97q72 26 150 26 q153 0 153 -135q0 -25 -1.5 -69.5t-1.5 -69.5q0 -51 15 -94zM2405 213q0 -24 -1 -36l-11 -11h-191q14 -83 98 -83q44 0 84 21l7 -81q-46 -30 -127 -30q-90 0 -144 47.5t-54 134.5q0 85 52 139t132 54q72 0 113.5 -43t41.5 -112zM2199 207l78 4q2 14 2 26q0 59 -34 59 q-44 0 -46 -89zM654 74v88q-29 -3 -47 -18t-18 -39q0 -18 10 -29t27 -11q16 0 28 9zM1485 74v88q-29 -3 -47 -18t-18 -39q0 -18 10 -29t27 -11q16 0 28 9zM2464 85q18 0 30.5 -13t12.5 -31t-12.5 -31t-30.5 -13t-31 13t-13 31t13 31t31 13zM2504 41q0 17 -12 28.5t-28 11.5 t-28 -11.5t-12 -28.5t12 -28.5t28 -11.5t28 11.5t12 28.5zM2446 66h18q7 0 11 -3q5 -3 5 -10q0 -5 -3 -9q-3 -3 -6 -3q7 -1 8 -10q0 -7 3 -15h-8q-1 2 -1.5 6.5t-0.5 6.5q-1 9 -11 9h-8v-22h-7v50zM2453 44h10q5 0 7 1q3 3 3 7q0 8 -10 8h-10v-16z" />
<glyph unicode=" "  horiz-adv-x="250" />
<glyph unicode="&#x09;" horiz-adv-x="250" />
<glyph unicode="&#xa0;" horiz-adv-x="250" />
<glyph unicode="!" horiz-adv-x="350" d="M232 232h-109q-24 280 -43 458l170 10l20 -20q-4 -208 -38 -448zM269 90q0 -41 -29.5 -70.5t-72.5 -29.5q-38 0 -62.5 23.5t-24.5 57.5q0 40 32 69.5t75 29.5q36 0 59 -22t23 -58z" />
<glyph unicode="&#x22;" horiz-adv-x="427" d="M192 760l10 -30l-46 -287h-59l-42 317h137zM382 760l10 -30l-46 -287h-59l-42 317h137z" />
<glyph unicode="#" horiz-adv-x="716" d="M52 215h130l28 110h-119l-8 8l12 82h137l34 135l82 -15l8 -8l-28 -112h135l34 135l82 -15l8 -8l-28 -112h109l8 -8l-12 -82h-127l-28 -110h121l8 -8l-12 -82h-139l-34 -135l-82 15l-8 8l28 112h-135l-34 -135l-82 15l-8 8l28 112h-112l-8 8zM278 215h135l28 110h-135z " />
<glyph unicode="$" horiz-adv-x="516" d="M221 -140l-8 8v122q-128 4 -173 39l9 151q32 -21 86 -35.5t93 -14.5q58 0 58 54q0 14 -6 27t-12 21.5t-22 20t-24 16.5t-31 17.5t-30 16.5q-56 32 -88.5 74t-32.5 113q0 84 52.5 136.5t140.5 68.5v132l62 3l8 -8v-122q91 0 148 -25l-19 -155q-66 40 -134 40t-68 -58 q0 -13 5.5 -25t11.5 -20t20.5 -18.5t23.5 -15.5t29.5 -16.5t29.5 -16.5q58 -32 92 -75.5t34 -117.5q0 -87 -52 -139t-141 -64v-131z" />
<glyph unicode="%" horiz-adv-x="956" d="M738 700l-425 -710h-65l424 710h66zM445 499q0 -97 -61 -151t-150 -54q-88 0 -143.5 51.5t-55.5 143.5q0 96 60 153.5t152 57.5q89 0 143.5 -54.5t54.5 -146.5zM189 501q0 -63 12 -95t41 -32t39 29.5t10 87.5q0 66 -11.5 97.5t-40.5 31.5q-28 0 -39 -28t-11 -91zM921 127 q0 -97 -61 -151t-150 -54q-88 0 -143.5 51.5t-55.5 143.5q0 96 60 153.5t152 57.5q89 0 143.5 -54.5t54.5 -146.5zM665 129q0 -63 12 -95t41 -32t39 29.5t10 87.5q0 66 -11.5 97.5t-40.5 31.5q-28 0 -39 -28t-11 -91z" />
<glyph unicode="&#x26;" horiz-adv-x="802" d="M372 570q-48 0 -48 -41q0 -43 71 -129l123 -149q7 42 7 79q0 49 -8 94l175 19l20 -20q-17 -160 -107 -274q37 -36 82 -36q29 0 55 10l10 -107q-46 -26 -116 -26q-78 0 -150 55q-95 -55 -206 -55q-104 0 -162 48t-58 128q0 71 43.5 120t108.5 66l-11 13q-65 80 -65 153 q0 76 62 129t172 53q131 0 204 -71l-82 -139q-68 80 -120 80zM238 211q0 -50 33.5 -85.5t86.5 -35.5q33 0 63 15q-44 51 -61 71l-99 117q-23 -35 -23 -82z" />
<glyph unicode="'" horiz-adv-x="237" d="M182 760l10 -30l-46 -287h-59l-42 317h137z" />
<glyph unicode="(" horiz-adv-x="459" d="M375 -198q-142 78 -218.5 200t-76.5 279t76.5 279t218.5 200l64 -90q-173 -153 -173 -389t173 -389z" />
<glyph unicode=")" horiz-adv-x="459" d="M379 281q0 -157 -76.5 -279t-218.5 -200l-64 90q173 153 173 389t-173 389l64 90q142 -78 218.5 -200t76.5 -279z" />
<glyph unicode="*" horiz-adv-x="505" d="M202 337l-7 24l35 149l-132 -117l-55 94l18 18l150 44l-171 56l54 94l24 -6l113 -106l-36 174h108l7 -24l-36 -152l133 120l55 -94l-18 -18l-147 -45l168 -55l-54 -94l-24 6l-114 108l37 -176h-108z" />
<glyph unicode="+" d="M530 303h-175v-178h-88l-1 178h-186v85q47 1 186 3l-1 174h90v-173q69 1 177 1l8 -8z" />
<glyph unicode="," horiz-adv-x="298" d="M35 -148q65 71 84 140q-32 6 -53 31.5t-21 60.5q0 44 31.5 76.5t76.5 32.5q43 0 71.5 -28t28.5 -81q0 -74 -53 -151.5t-114 -127.5z" />
<glyph unicode="-" horiz-adv-x="415" d="M30 251v50h355v-50h-355z" />
<glyph unicode="." horiz-adv-x="300" d="M254 93q0 -44 -30.5 -73.5t-75.5 -29.5t-73.5 29t-28.5 70q0 43 32.5 73.5t77.5 30.5q42 0 70 -27.5t28 -72.5z" />
<glyph unicode="/" horiz-adv-x="366" d="M330 745l8 -8l-187 -747l-82 15l-8 8l187 747z" />
<glyph unicode="0" horiz-adv-x="665" d="M620 348q0 -170 -85 -264t-210 -94q-123 0 -201.5 91.5t-78.5 253.5q0 167 84 266t212 99q125 0 202 -96t77 -256zM230 350q0 -124 23.5 -187t81.5 -63t79 61t21 180q0 125 -23 187t-81 62q-55 0 -78 -57.5t-23 -182.5z" />
<glyph unicode="1" horiz-adv-x="395" d="M138 519h-3l-95 -10l-25 110l280 80l20 -20v-679h-180v384q0 97 3 135z" />
<glyph unicode="2" horiz-adv-x="630" d="M106 0l-20 125q52 33 110.5 84.5t110.5 125.5t52 134q0 44 -24.5 72.5t-69.5 28.5q-71 0 -161 -67l-17 142q104 55 222 55q104 0 169.5 -52.5t65.5 -136.5q0 -98 -86 -200.5t-202 -170.5h118q87 0 160 10l-10 -150h-418z" />
<glyph unicode="3" horiz-adv-x="536" d="M41 647q39 22 99.5 37.5t115.5 15.5q91 0 150.5 -43.5t59.5 -110.5q0 -54 -38.5 -102.5t-101.5 -68.5q80 -14 127.5 -61t47.5 -116q0 -92 -81.5 -150t-211.5 -58q-95 0 -173 23l16 120q67 -23 149 -23q51 0 83.5 21t32.5 61q0 79 -142 79q-43 0 -86 -7v120q81 8 137 38.5 t56 82.5q0 29 -20 47t-59 18q-74 0 -154 -45z" />
<glyph unicode="4" horiz-adv-x="645" d="M25 264l270 424l198 11l20 -20v-398q68 4 102 9l-10 -139h-92v-151h-170v151h-298zM170 281v-3q54 2 173 2v95q0 133 7 193h-3z" />
<glyph unicode="5" horiz-adv-x="571" d="M65 13l16 125q67 -23 145 -23q52 0 84.5 25t32.5 74q0 91 -104 91q-61 0 -131 -28l-25 15v398h259q87 0 160 10l-10 -150h-264v-129q43 9 83 9q96 0 156.5 -53t60.5 -150q0 -113 -83.5 -175t-214.5 -62q-87 0 -165 23z" />
<glyph unicode="6" horiz-adv-x="603" d="M316 -10q-116 0 -191 77t-75 226q0 176 103.5 291.5t277.5 115.5q60 0 85 -10l-15 -131q-35 11 -71 11q-67 0 -122.5 -46t-69.5 -133h3q51 24 119 24q93 0 148 -52t55 -145q0 -107 -71 -167.5t-176 -60.5zM304 305q-43 0 -69 -24q0 -102 14.5 -141.5t55.5 -39.5 q73 0 73 101q0 104 -74 104z" />
<glyph unicode="7" horiz-adv-x="545" d="M25 530l13 160h455l22 -20v-100q-122 -125 -181 -264.5t-64 -305.5h-185q9 156 83.5 303.5t183.5 243.5v3h-116q-124 0 -211 -20z" />
<glyph unicode="8" horiz-adv-x="624" d="M303 -10q-119 0 -188.5 50.5t-69.5 132.5q0 68 46 116.5t108 65.5v3q-56 33 -90 71t-34 93q0 76 67.5 127t176.5 51q112 0 171 -51.5t59 -117.5q0 -48 -33.5 -91t-87.5 -70v-3q151 -66 151 -177q0 -82 -72.5 -141t-203.5 -59zM313 600q-31 0 -52 -18.5t-21 -49.5 q0 -63 88 -105q56 46 56 104q0 31 -20 50t-51 19zM297 284q-37 -16 -59.5 -45t-22.5 -64q0 -37 25.5 -61t69.5 -24q42 0 70.5 21.5t28.5 59.5q0 70 -112 113z" />
<glyph unicode="9" horiz-adv-x="603" d="M250 258q-95 0 -152.5 54.5t-57.5 151.5q0 110 71.5 173t179.5 63q114 0 188 -75.5t74 -222.5q0 -110 -41 -202t-127 -151t-204 -59q-46 0 -78 8l-2 128q36 -6 68 -6q87 0 134.5 41t63.5 124h-3q-44 -27 -114 -27zM291 580q-32 0 -49 -29t-17 -76q0 -52 20.5 -80 t59.5 -28q31 0 63 15q0 198 -77 198z" />
<glyph unicode=":" horiz-adv-x="300" d="M254 410q0 -44 -30.5 -73.5t-75.5 -29.5t-73.5 29t-28.5 70q0 43 32.5 73.5t77.5 30.5q42 0 70 -28t28 -72zM254 93q0 -44 -30.5 -73.5t-75.5 -29.5t-73.5 29t-28.5 70q0 43 32.5 73.5t77.5 30.5q42 0 70 -27.5t28 -72.5z" />
<glyph unicode=";" horiz-adv-x="298" d="M253 410q0 -44 -30.5 -73.5t-75.5 -29.5t-73.5 29t-28.5 70q0 43 32.5 73.5t77.5 30.5q43 0 70.5 -28t27.5 -72zM35 -148q65 71 84 140q-32 6 -53 31.5t-21 60.5q0 44 31.5 76.5t76.5 32.5q43 0 71.5 -28t28.5 -81q0 -74 -53 -151.5t-114 -127.5z" />
<glyph unicode="&#x3c;" d="M530 93l-455 222v55l4 11q81 42 229.5 112t220.5 98v-95l-311 -148l312 -160v-95z" />
<glyph unicode="=" d="M530 403h-450v85q170 5 452 5l8 -8zM530 203h-450v85q170 5 452 5l8 -8z" />
<glyph unicode="&#x3e;" d="M90 93v95l312 160l-311 148v95q72 -28 220.5 -98t229.5 -112l4 -11v-55z" />
<glyph unicode="?" horiz-adv-x="526" d="M267 226l-101 -5q-18 33 -18 66q0 29 15 54.5t37 44t44 36.5t37 39.5t15 45.5q0 29 -21.5 47t-56.5 18q-33 0 -71 -18t-64 -49l-63 96q90 99 236 99q104 0 164.5 -47.5t60.5 -122.5q0 -42 -21 -78.5t-51.5 -60.5t-61 -43.5t-51.5 -38t-21 -33.5v-42zM318 90 q0 -41 -29.5 -70.5t-72.5 -29.5q-38 0 -62.5 23.5t-24.5 57.5q0 40 32 69.5t75 29.5q36 0 59 -22t23 -58z" />
<glyph unicode="@" horiz-adv-x="1138" d="M803 -160q-124 -100 -304 -100q-193 0 -316 122t-123 316q0 157 84 292.5t220.5 212.5t289.5 77q187 0 305.5 -116t118.5 -288q0 -153 -92.5 -259.5t-230.5 -106.5q-44 0 -75.5 12.5t-47 32t-22.5 45t-5.5 49t7.5 47.5h-6q-19 -68 -72.5 -127t-117.5 -59q-54 0 -85.5 45 t-31.5 122q0 50 13.5 100t41.5 95.5t68 80.5t96 56t122 21q121 0 203 -44l-39 -178q-8 -36 -12 -57t-8 -50.5t-2.5 -46t6.5 -33.5t18 -24.5t32 -7.5q65 0 125 82t60 202q0 156 -105 256.5t-266 100.5q-95 0 -190.5 -39t-172.5 -106t-125.5 -167t-48.5 -213 q0 -172 109 -283.5t287 -111.5q81 0 143 21.5t130 60.5zM517 140q33 0 67 62.5t51 142.5l11 54q-20 11 -37 11q-46 0 -85.5 -75t-39.5 -140q0 -55 33 -55z" />
<glyph unicode="A" horiz-adv-x="650" d="M180 0h-175l166 580q20 67 27 110l224 9l30 -25l193 -674h-185l-35 130h-210zM262 305l-12 -45h140l-12 44q-38 145 -55 238h-5q-25 -124 -56 -237z" />
<glyph unicode="B" horiz-adv-x="643" d="M346 0h-281v511q0 116 -10 179h297q107 0 171 -52t64 -133q0 -100 -105 -145q131 -43 131 -170q0 -86 -75.5 -138t-191.5 -52zM250 560v-154h70q40 0 61 21t21 55q0 37 -21 57.5t-61 20.5h-70zM250 286v-156h79q44 0 69 21t25 55q0 36 -24 58t-70 22h-79z" />
<glyph unicode="C" horiz-adv-x="574" d="M538 178l21 -148q-80 -40 -193 -40q-158 0 -247 92t-89 255q0 160 96 261.5t248 101.5q109 0 181 -40l-35 -155q-79 45 -144 45q-71 0 -113.5 -57t-42.5 -152q0 -94 45.5 -147.5t125.5 -53.5q78 0 147 38z" />
<glyph unicode="D" horiz-adv-x="692" d="M662 351q0 -165 -102.5 -258t-258.5 -93h-236v511q0 116 -10 179h266q160 0 250.5 -90.5t90.5 -248.5zM311 560h-61v-430h67q155 0 155 212q0 96 -38.5 157t-122.5 61z" />
<glyph unicode="E" horiz-adv-x="555" d="M530 140v-140h-465v511q0 116 -10 179h449l20 -20l-4 -120l-270 10v-161l220 5l-5 -127l-215 7v-154z" />
<glyph unicode="F" horiz-adv-x="515" d="M250 0h-185v511q0 116 -10 179h429l20 -20l-4 -120l-250 10v-181l200 5l-5 -127l-195 7v-264z" />
<glyph unicode="G" horiz-adv-x="637" d="M582 333l20 -20l-3 -283q-104 -40 -219 -40q-168 0 -259 90t-91 245q0 167 100 271t266 104q111 0 194 -40l-30 -155q-75 50 -155 50q-84 0 -134.5 -56.5t-50.5 -161.5q0 -97 45.5 -152t132.5 -55q19 0 30 1q-1 93 -15 192z" />
<glyph unicode="H" horiz-adv-x="715" d="M250 0h-185v503q0 110 -10 187l175 10l20 -20v-273h215v96q0 110 -10 187l175 10l20 -20v-680h-185v277h-215v-277z" />
<glyph unicode="I" horiz-adv-x="315" d="M250 0h-185v503q0 110 -10 187l175 10l20 -20v-680z" />
<glyph unicode="J" horiz-adv-x="315" d="M50 -225l-57 75q72 108 72 290v363q0 91 -15 178l181 19l19 -19v-541q0 -140 -41 -218.5t-159 -146.5z" />
<glyph unicode="K" horiz-adv-x="663" d="M65 503q0 103 -10 187l175 10l20 -20v-297h60q79 177 136 317l175 -10l10 -19l-173 -308l197 -363l-214 -5q-64 113 -131 258h-60v-253h-185v503z" />
<glyph unicode="L" horiz-adv-x="520" d="M510 140v-140h-445v503q0 110 -10 187l175 10l20 -20v-550z" />
<glyph unicode="M" horiz-adv-x="902" d="M777 700l25 -20l65 -680h-181l-23 242q-7 71 -18 282h-3q-13 -123 -49 -282l-54 -242h-206l-54 242q-36 160 -49 283h-3q-8 -176 -19 -283l-23 -242h-150l66 690l252 8l42 -188q39 -174 55 -341h3q17 176 54 341l39 180z" />
<glyph unicode="N" horiz-adv-x="710" d="M384 441q55 -93 96 -195h3q-13 104 -13 200q0 140 -10 244l165 8l20 -20v-678h-175q-32 54 -79 138t-66 115q-59 99 -95 182h-3q13 -83 13 -192v-243h-175v511q0 102 -10 179l185 7q111 -200 144 -256z" />
<glyph unicode="O" horiz-adv-x="715" d="M685 347q0 -168 -95 -262.5t-241 -94.5q-143 0 -231 92t-88 252q0 166 94 266t243 100q147 0 232.5 -96.5t85.5 -256.5zM220 350q0 -98 34.5 -161.5t104.5 -63.5q136 0 136 220t-135 220q-70 0 -105 -58.5t-35 -156.5z" />
<glyph unicode="P" horiz-adv-x="607" d="M250 0h-185v511q0 116 -10 179h274q121 0 192 -64.5t71 -172.5q0 -116 -79.5 -181t-202.5 -65h-60v-207zM288 560h-38v-223h38q62 0 88 28t26 81q0 114 -114 114z" />
<glyph unicode="Q" horiz-adv-x="695" d="M685 347q0 -144 -71.5 -235t-187.5 -114q102 -46 327 -46l-20 -156q-124 0 -240.5 58.5t-192.5 138.5q-123 16 -196.5 106t-73.5 235q0 166 94 266t243 100q147 0 232.5 -96.5t85.5 -256.5zM220 350q0 -98 34.5 -161.5t104.5 -63.5q136 0 136 220t-135 220 q-70 0 -105 -58.5t-35 -156.5z" />
<glyph unicode="R" horiz-adv-x="627" d="M250 0h-185v511q0 116 -10 179h246q141 0 216 -59t75 -164q0 -69 -31 -117.5t-82 -74.5l148 -275l-215 -5q-52 114 -95 232h-67v-227zM288 560h-38v-208h38q62 0 88 27t26 77q0 51 -26.5 77.5t-87.5 26.5z" />
<glyph unicode="S" horiz-adv-x="550" d="M510 197q0 -100 -73 -153.5t-195 -53.5q-58 0 -117 11t-85 28l10 151q36 -22 94 -36t100 -14q76 0 76 54q0 15 -6.5 28t-13.5 21.5t-25 19.5t-27.5 16.5t-34.5 17t-34 16.5q-64 33 -101 74.5t-37 112.5q0 100 77 155t202 55q101 0 165 -25l-20 -155q-74 40 -148 40 q-86 0 -86 -58q0 -16 6 -28.5t23.5 -25t28 -19t40.5 -20.5t39 -19q66 -33 104 -76t38 -117z" />
<glyph unicode="T" horiz-adv-x="585" d="M385 0h-185v554q-60 -2 -190 -8l10 144h545l10 -144q-130 6 -190 8v-554z" />
<glyph unicode="U" horiz-adv-x="680" d="M55 503q0 105 -10 187l175 10l20 -20v-424q0 -127 106 -127q104 0 104 127v287q0 80 -10 147l185 8v-458q0 -120 -82 -185t-207 -65q-124 0 -202.5 65t-78.5 185v263z" />
<glyph unicode="V" horiz-adv-x="641" d="M218 0l-215 681l198 19l101 -368q28 -100 36 -146q13 67 36 144l106 370l148 -10l10 -19l-215 -671h-205z" />
<glyph unicode="W" horiz-adv-x="960" d="M174 0l-171 681l198 19l70 -348q5 -26 10.5 -58.5l11 -65t7.5 -45.5q5 24 36 167l74 340l178 10l73 -348q11 -50 35 -169q20 118 31 171l72 346l148 -10l10 -19l-171 -671h-205l-53 223q-9 39 -23.5 112.5t-21.5 104.5h-3q-31 -152 -48 -220l-53 -220h-205z" />
<glyph unicode="X" horiz-adv-x="606" d="M14 0l-11 20l185 305l-185 360l199 15l118 -258h3l111 258l158 -12l11 -20l-181 -332l181 -336h-206l-107 219h-2l-113 -219h-161z" />
<glyph unicode="Y" horiz-adv-x="584" d="M199 216l-196 465l198 19l61 -194q42 -130 47 -151h3q5 16 23.5 70.5t26.5 78.5l61 196l148 -10l10 -19l-197 -455v-216h-185v216z" />
<glyph unicode="Z" horiz-adv-x="584" d="M60 0l-30 120l311 419l-296 -9l10 160h447l47 -120l-307 -418l300 8l-10 -160h-472z" />
<glyph unicode="[" horiz-adv-x="444" d="M120 760h274v-134h-104v-690h104v-134h-274v958z" />
<glyph unicode="\" horiz-adv-x="397" d="M247 -10l-187 747l8 8l82 15l187 -747l-8 -8z" />
<glyph unicode="]" horiz-adv-x="444" d="M324 760v-958h-274v134h104v690h-104v134h274z" />
<glyph unicode="^" horiz-adv-x="526" d="M175 210h-95l150 340h66l150 -340h-95l-90 208z" />
<glyph unicode="_" horiz-adv-x="470" d="M0 -240v50h470v-50h-470z" />
<glyph unicode="`" horiz-adv-x="276" d="M201 566q-94 73 -156 170l10 30l160 8q18 -90 56 -198z" />
<glyph unicode="a" horiz-adv-x="526" d="M304 58q-21 -31 -59.5 -49.5t-85.5 -18.5q-60 0 -97 31.5t-37 91.5q0 157 265 164v28q0 75 -80 75q-76 0 -151 -40l-10 135q103 35 208 35q213 0 213 -187q0 -35 -2.5 -96t-2.5 -97q0 -69 21 -130l-148 -10q-16 26 -29 68h-5zM200 145q0 -25 14 -40t37 -15t39 12v123 q-40 -5 -65 -25.5t-25 -54.5z" />
<glyph unicode="b" horiz-adv-x="575" d="M540 255q0 -126 -61 -195.5t-174 -69.5q-61 0 -112 15l-143 -15v573q0 87 -15 178l175 19l20 -20v-271q55 41 120 41q90 0 140 -69.5t50 -185.5zM271 400q-23 0 -41 -9v-306q18 -5 35 -5q90 0 90 165q0 81 -20 118t-64 37z" />
<glyph unicode="c" horiz-adv-x="492" d="M467 468l-38 -134q-63 46 -119 46q-41 0 -65.5 -32.5t-24.5 -87.5q0 -69 33.5 -107t93.5 -38q40 0 100 29l10 -113q-62 -41 -160 -41q-119 1 -190.5 70.5t-71.5 184.5q0 116 75 190.5t192 74.5q99 0 165 -42z" />
<glyph unicode="d" horiz-adv-x="587" d="M361 56q-51 -66 -135 -66q-87 0 -139 63.5t-52 174.5q0 133 75.5 207.5t200.5 74.5q13 0 35 -2v55q0 91 -14 178l174 19l20 -20v-610q0 -67 21 -130l-152 -10q-12 18 -30 66h-4zM220 253q0 -73 22.5 -118t64.5 -45q22 0 39 11v319h-8q-118 0 -118 -167z" />
<glyph unicode="e" horiz-adv-x="536" d="M505 245l-15 -15h-266q19 -115 136 -115q62 0 117 29l10 -113q-66 -41 -177 -41q-126 0 -200.5 66t-74.5 186q0 119 72.5 193.5t183.5 74.5q99 0 157 -59.5t58 -154.5q0 -34 -1 -51zM284 410q-31 0 -47.5 -34.5t-16.5 -88.5l109 6q2 18 2 36q0 81 -47 81z" />
<glyph unicode="f" horiz-adv-x="397" d="M265 0h-180v395l-70 5v60l70 20q-3 38 -3 67q0 102 63 157.5t175 55.5q92 0 147 -34l-35 -131q-61 35 -107 35q-32 0 -49 -18t-17 -51q0 -21 3 -81h123l12 -18l-5 -72l-127 4v-394z" />
<glyph unicode="g" horiz-adv-x="539" d="M93 50q0 57 66 97q-59 20 -93.5 62.5t-34.5 101.5q0 83 64.5 141t167.5 58q83 0 132 -35q16 39 49.5 58.5t73.5 19.5l21 -18l-5 -106h-102l-2 -4q50 -38 50 -110q0 -79 -63 -131t-163 -52q-19 0 -29 1q-1 -4 -1 -12q0 -20 10.5 -26.5t33.5 -8.5l96 -6q76 -5 122 -40.5 t46 -100.5q0 -88 -81.5 -143.5t-214.5 -55.5q-106 0 -171 35t-65 90q0 35 26.5 60t64.5 33l60 -25q-1 -4 -1 -12q0 -42 30.5 -71.5t80.5 -29.5q39 0 65 19t26 52q0 56 -79 65l-87 10q-44 5 -68.5 26.5t-24.5 57.5zM310 322q0 103 -52 103q-57 0 -57 -105q0 -103 56 -103 q53 0 53 105z" />
<glyph unicode="h" horiz-adv-x="580" d="M230 0h-180v563q0 91 -15 178l175 19l20 -20v-293q71 63 150 63q65 0 102.5 -43t37.5 -117v-350h-180v317q0 73 -57 73q-25 0 -53 -16v-374z" />
<glyph unicode="i" horiz-adv-x="295" d="M253 675q0 -46 -33.5 -78.5t-80.5 -32.5q-43 0 -69.5 26t-26.5 64q0 45 35.5 77.5t82.5 32.5q40 0 66 -24.5t26 -64.5zM55 0v313q0 91 -15 178l175 19l20 -20v-490h-180z" />
<glyph unicode="j" horiz-adv-x="298" d="M252 675q0 -46 -33.5 -78.5t-80.5 -32.5q-43 0 -69.5 26t-26.5 64q0 45 35.5 77.5t82.5 32.5q40 0 66 -24.5t26 -64.5zM70 -260l-70 60q58 95 58 245v268q0 91 -15 178l175 19l20 -20v-440q0 -117 -35.5 -185.5t-132.5 -124.5z" />
<glyph unicode="k" horiz-adv-x="559" d="M50 563q0 91 -15 178l175 19l20 -20v-457h30q51 99 105 227l152 -10l10 -20l-118 -181q52 -114 150 -299l-206 -10q-52 110 -88 203h-35v-193h-180v563z" />
<glyph unicode="l" horiz-adv-x="295" d="M235 0h-180v563q0 91 -15 178l175 19l20 -20v-740z" />
<glyph unicode="m" horiz-adv-x="875" d="M235 0h-180v313q0 74 -20 168l170 29q12 -32 22 -70q73 70 158 70q91 0 124 -77q77 77 166 77q65 0 102.5 -43t37.5 -117v-350h-180v317q0 73 -57 73q-27 0 -54 -17q1 -7 1 -23v-350h-180v317q0 73 -57 73q-25 0 -53 -16v-374z" />
<glyph unicode="n" horiz-adv-x="585" d="M235 0h-180v313q0 74 -20 168l170 29q12 -32 22 -70q73 70 158 70q65 0 102.5 -43t37.5 -117v-350h-180v317q0 73 -57 73q-25 0 -53 -16v-374z" />
<glyph unicode="o" horiz-adv-x="568" d="M533 253q0 -125 -74 -194t-182 -69q-106 0 -174 66t-68 184q0 123 73 196.5t184 73.5q109 0 175 -70t66 -187zM220 255q0 -82 15 -123.5t51 -41.5t49 39t13 114q0 85 -14.5 126t-50.5 41q-34 0 -48.5 -37t-14.5 -118z" />
<glyph unicode="p" horiz-adv-x="581" d="M55 -240v553q0 71 -20 168l170 29q11 -28 17 -53q58 53 136 53q88 0 138 -69.5t50 -185.5q0 -127 -61 -196t-176 -69q-40 0 -74 7v-60q0 -88 14 -178l-174 -19zM277 400q-24 0 -42 -9v-306q18 -5 35 -5q47 0 69 40.5t22 124.5q0 81 -20 118t-64 37z" />
<glyph unicode="q" horiz-adv-x="586" d="M346 -240v279q-49 -49 -119 -49q-87 0 -139.5 67.5t-52.5 178.5q0 126 69.5 200t184.5 74q50 0 106 -14l131 14v-573q0 -88 14 -178l-174 -19zM220 250q0 -75 22 -117.5t63 -42.5q22 0 41 11v319h-9q-117 0 -117 -170z" />
<glyph unicode="r" horiz-adv-x="416" d="M235 0h-180v313q0 74 -20 168l170 29q24 -65 30 -120q22 58 50 89t71 31q32 0 50 -15l-12 -171q-35 8 -68 8q-55 0 -91 -20v-312z" />
<glyph unicode="s" horiz-adv-x="452" d="M410 485l-10 -132q-82 42 -148 42q-52 0 -52 -31q0 -18 23.5 -32t57 -27.5t66.5 -30.5t56.5 -50t23.5 -77q0 -73 -59 -115t-161 -42q-117 0 -182 39l10 129q43 -24 91.5 -38.5t81.5 -14.5q49 0 49 30q0 18 -23.5 32.5t-56.5 28t-66.5 31t-57 49.5t-23.5 75q0 73 61 116 t162 43q83 0 157 -25z" />
<glyph unicode="t" horiz-adv-x="419" d="M391 410l-141 4v-223q0 -76 61 -76q36 0 78 24l10 -108q-64 -41 -148 -41q-86 0 -133.5 51.5t-47.5 148.5v228l-65 2v60l70 20l45 131l110 8l22 -21l-2 -118h137l12 -20z" />
<glyph unicode="u" horiz-adv-x="580" d="M55 312q0 91 -14 178l174 20l20 -20v-299q0 -68 54 -68q26 0 51 13v364l180 10v-380q0 -62 16 -130l-148 -10q-18 32 -29 73h-6q-68 -73 -156 -73q-64 0 -103 39.5t-39 104.5v178z" />
<glyph unicode="v" horiz-adv-x="507" d="M502 480l-144 -480h-210l-143 495l190 15l55 -263q18 -84 22 -137h3q4 38 25 137l54 263l138 -10z" />
<glyph unicode="w" horiz-adv-x="816" d="M121 0l-116 495l185 15l44 -253q18 -111 19 -117h3q2 19 9 60.5t9 56.5l37 243h229l39 -243q18 -111 19 -117h3q4 31 18 117l42 253l140 -10l10 -20l-116 -480h-230l-35 204q-20 114 -23 156h-3q-3 -39 -23 -157l-35 -203h-225z" />
<glyph unicode="x" horiz-adv-x="501" d="M306 0l-81 162l-70 -162h-140l-10 20l134 230l-134 245l185 15l83 -183l73 183l140 -10l10 -20l-136 -231l136 -249h-190z" />
<glyph unicode="y" horiz-adv-x="507" d="M502 480l-125 -427q-16 -56 -31.5 -95.5t-42.5 -83.5t-59.5 -71t-83.5 -45t-114 -18l-25 150q166 0 212 110h-85l-143 495l190 15l55 -263q18 -84 22 -137h3q3 29 25 137l54 263l138 -10z" />
<glyph unicode="z" horiz-adv-x="460" d="M23 355l10 145h377l20 -115l-211 -245h61q87 0 160 10l-10 -150h-390l-20 115l220 244z" />
<glyph unicode="{" horiz-adv-x="469" d="M182 122q0 49 -23.5 75t-78.5 33v100q55 7 78.5 32.5t23.5 75.5q0 30 -15.5 90.5t-15.5 90.5q0 76 62 108.5t203 32.5l3 -100q-43 0 -66.5 -22.5t-23.5 -61.5q0 -27 12.5 -79t12.5 -78q0 -54 -34 -90t-92 -49q58 -13 92 -49t34 -90q0 -22 -12.5 -76t-12.5 -81 q0 -39 23.5 -61.5t66.5 -22.5l-3 -100q-141 0 -203 32.5t-62 108.5q0 31 15.5 94.5t15.5 86.5z" />
<glyph unicode="|" horiz-adv-x="325" d="M128 -260l-8 8v1009l77 3l8 -8v-1009z" />
<glyph unicode="}" horiz-adv-x="469" d="M389 230l-102 -108q0 -23 15.5 -86.5t15.5 -94.5q0 -76 -62 -108.5t-203 -32.5l-3 100q43 0 66.5 22.5t23.5 61.5q0 27 -12.5 81t-12.5 76q0 54 34 90t92 49q-58 13 -92 49t-34 90q0 26 12.5 78t12.5 79q0 39 -23.5 61.5t-66.5 22.5l3 100q141 0 203 -32.5t62 -108.5 q0 -30 -15.5 -90.5t-15.5 -90.5q0 -50 23.5 -75.5t78.5 -32.5v-100z" />
<glyph unicode="~" d="M441 212q-25 0 -139 25t-129 25q-10 0 -49 -47q-5 -7 -8 -10l-51 34q18 34 31.5 54.5t37 42.5t45.5 22q25 0 139.5 -25t128.5 -25q10 0 49 47q5 7 8 10l51 -34q-18 -34 -31.5 -54.5t-37 -42.5t-45.5 -22z" />
<glyph unicode="&#xa1;" horiz-adv-x="350" d="M81 410q0 41 29.5 70.5t72.5 29.5q38 0 62.5 -23.5t24.5 -57.5q0 -40 -32 -69.5t-75 -29.5q-36 0 -59 22t-23 58zM118 268h109q24 -280 43 -458l-170 -10l-20 20q4 208 38 448z" />
<glyph unicode="&#xa2;" horiz-adv-x="492" d="M248 -140l-8 8v127q-95 18 -150 90t-55 180q0 113 62 190t163 91v131l62 3l8 -8v-124q81 -6 137 -41l-38 -134q-63 46 -119 46q-41 0 -65.5 -37.5t-24.5 -101.5q0 -79 33.5 -122t93.5 -43q40 0 100 29l10 -113q-56 -38 -147 -41v-127z" />
<glyph unicode="&#xa3;" horiz-adv-x="617" d="M153 278l-116 5l13 60l107 20q7 159 77 248t206 89q114 0 177 -54l-56 -131q-68 55 -119 55q-49 0 -76 -48t-36 -159h178l8 -18l-19 -67h-179q-27 -154 -98 -228q47 -28 81 -44t91.5 -31.5t115.5 -15.5q56 0 109 11l-40 -149q-27 -8 -73 -8q-57 0 -110 17t-101 51.5 t-75 58t-67 63.5q-30 -13 -70 -13q-44 0 -67.5 17t-23.5 45t20.5 44.5t53.5 16.5t72 -18q12 60 15 137z" />
<glyph unicode="&#xa4;" horiz-adv-x="550" d="M449 30l-69 72q-48 -32 -113 -32q-58 0 -103 25l-65 -65l-64 64l63 63q-29 47 -29 106q0 67 35 120l-65 67l60 60q38 -36 68 -67q46 27 106 27q62 0 108 -30l70 70l64 -64l-71 -71q25 -47 25 -101q0 -57 -28 -107q28 -29 74 -75v-11zM269 380q-49 0 -77 -32.5t-28 -78.5 q0 -43 28.5 -76t77.5 -33q52 0 78 32t26 79q0 44 -28 76.5t-77 32.5z" />
<glyph unicode="&#xa5;" horiz-adv-x="555" d="M59 92v60h130v70h-130v60h130l-186 399l188 19l51 -140q34 -98 52 -163h2q16 61 50 153l58 150l138 -10l10 -19l-187 -389h130v-60h-130v-70h130v-60h-130v-92h-176v92h-130z" />
<glyph unicode="&#xa6;" horiz-adv-x="325" d="M205 348l-77 -3l-8 8v404l77 3l8 -8v-404zM205 -257l-77 -3l-8 8v400l77 3l8 -8v-400z" />
<glyph unicode="&#xa7;" horiz-adv-x="583" d="M366 560q-29 0 -44.5 -14t-15.5 -34q0 -23 24.5 -59t59 -78t69.5 -89t59.5 -104.5t24.5 -112.5q0 -104 -82 -172t-216 -68q-98 0 -162 25l20 155q59 -40 114 -40q29 0 44.5 14t15.5 34q0 23 -24.5 59t-59.5 78t-69.5 89t-59 104.5t-24.5 112.5q0 104 82 172t216 68 q98 0 162 -25l-20 -155q-59 40 -114 40zM334 -78q57 17 89 56t32 92q0 44 -24.5 92.5t-59.5 91.5t-69.5 85.5t-59 88.5t-24.5 85q0 56 38 83l-7 11q-57 -17 -89 -56t-32 -92q0 -44 24.5 -92.5t59.5 -91.5t69.5 -85.5t59 -88.5t24.5 -85q0 -56 -38 -83z" />
<glyph unicode="&#xa8;" horiz-adv-x="519" d="M235 676q0 -42 -30 -72t-73 -30q-39 0 -63 24t-24 59q0 41 32 71.5t75 30.5q36 0 59.5 -23t23.5 -60zM474 676q0 -42 -30 -72t-73 -30q-39 0 -63 24t-24 59q0 41 32 71.5t75 30.5q36 0 59.5 -23t23.5 -60z" />
<glyph unicode="&#xa9;" horiz-adv-x="680" d="M340 -50q-128 0 -214 86t-86 214q0 124 88 212t212 88q127 0 213.5 -87.5t86.5 -212.5q0 -124 -88 -212t-212 -88zM340 0q103 0 176.5 73.5t73.5 176.5q0 104 -73 177t-177 73q-103 0 -176.5 -73.5t-73.5 -176.5q0 -106 72 -178t178 -72zM474 394l-26 -89q-42 30 -81 30 q-27 0 -43 -20t-16 -54q0 -43 22.5 -67t63.5 -24q27 0 66 18l7 -75q-42 -26 -108 -26q-80 0 -128.5 45t-48.5 119q0 75 50.5 122.5t130.5 47.5q64 0 111 -27z" />
<glyph unicode="&#xaa;" horiz-adv-x="440" d="M252 335q-38 -53 -118 -53q-49 0 -79.5 24.5t-30.5 71.5q0 123 217 128v20q0 57 -65 57q-62 0 -124 -30l-8 108q85 27 171 27q176 0 176 -148q0 -27 -2 -74t-2 -75q0 -56 17 -101l-123 -8q-13 20 -24 53h-5zM170 404q0 -19 11 -30.5t30 -11.5q16 0 30 8v95 q-31 -3 -51 -19t-20 -42z" />
<glyph unicode="&#xab;" horiz-adv-x="514" d="M37 269v48q88 71 173 183l46 -18q-21 -95 -86 -189q65 -94 86 -189l-46 -18q-85 112 -173 183zM256 269v48q88 71 173 183l46 -18q-21 -95 -86 -189q65 -94 86 -189l-46 -18q-85 112 -173 183z" />
<glyph unicode="&#xac;" d="M525 339v-253h-90v171h-370v85q170 5 452 5z" />
<glyph unicode="&#xae;" horiz-adv-x="680" d="M340 -50q-128 0 -214 86t-86 214q0 124 88 212t212 88q127 0 213.5 -87.5t86.5 -212.5q0 -124 -88 -212t-212 -88zM340 0q103 0 176.5 73.5t73.5 176.5q0 104 -73 177t-177 73q-103 0 -176.5 -73.5t-73.5 -176.5q0 -106 72 -178t178 -72zM314 92h-101v210q0 76 -10 119 h116q176 0 176 -121q0 -68 -61 -102l63 -106l-105 -5q-5 8 -42 83l-2 -1h-34v-77zM326 336h-12v-82h12q63 0 63 41t-63 41z" />
<glyph unicode="&#xaf;" horiz-adv-x="410" d="M45 618v96h298v-96h-298z" />
<glyph unicode="&#xb0;" horiz-adv-x="345" d="M169 295q-56 0 -90 34t-34 89q0 58 36.5 95t95.5 37q54 0 88.5 -34t34.5 -88q0 -58 -36.5 -95.5t-94.5 -37.5zM173 500q-33 0 -53 -22.5t-20 -57.5q0 -32 20.5 -53.5t51.5 -21.5q33 0 53 23t20 58q0 32 -20 53t-52 21z" />
<glyph unicode="&#xb1;" d="M510 398h-155v-143h-88l-1 143h-166v85q46 1 166 3l-1 139h90v-138q61 1 157 1l8 -8zM530 75h-450v85q170 5 452 5l8 -8z" />
<glyph unicode="&#xb2;" horiz-adv-x="389" d="M55 352l-15 83q45 20 105.5 78t60.5 109q0 25 -13.5 40.5t-38.5 15.5q-44 0 -101 -41l-12 96q70 33 146 33q69 0 113 -32t44 -83q0 -56 -53 -113.5t-124 -91.5h62q54 0 105 6l-7 -100h-272z" />
<glyph unicode="&#xb3;" horiz-adv-x="391" d="M43 734q66 32 143 32q62 0 102 -26.5t40 -66.5q0 -31 -23.5 -59t-61.5 -40q49 -9 78.5 -37.5t29.5 -67.5q0 -55 -55 -90t-141 -35q-66 0 -115 14l12 80q42 -14 96 -14q29 0 47.5 10.5t18.5 30.5q0 40 -85 40q-16 0 -58 -4v80q47 2 83.5 17.5t36.5 45.5q0 34 -46 34 q-47 0 -97 -25z" />
<glyph unicode="&#xb4;" horiz-adv-x="276" d="M261 766l10 -30q-62 -97 -156 -170l-70 10q38 108 56 198z" />
<glyph unicode="&#xb6;" horiz-adv-x="600" d="M228 -80q155 0 155 196v519h-70v-425h-22q-118 0 -194.5 65.5t-76.5 174.5q0 112 82 176t208 64h183v-585q0 -124 -71.5 -199.5t-193.5 -75.5q-69 0 -137 26l8 95q74 -31 129 -31z" />
<glyph unicode="&#xb7;" horiz-adv-x="330" d="M269 270q0 -44 -30.5 -73.5t-75.5 -29.5t-73.5 29t-28.5 70q0 43 32.5 73.5t77.5 30.5q43 0 70.5 -28t27.5 -72z" />
<glyph unicode="&#xb8;" horiz-adv-x="304" d="M264 -144q0 -34 -21 -57.5t-57 -36t-74 -17.5t-82 -5l5 60q105 6 105 54q0 36 -76 36l-19 30l36 123h93l-30 -92q120 -15 120 -95z" />
<glyph unicode="&#xb9;" horiz-adv-x="306" d="M109 646h-2l-59 -4l-18 75l196 49l15 -14v-400h-134v215q0 56 2 79z" />
<glyph unicode="&#xba;" horiz-adv-x="474" d="M442 487q0 -97 -61 -151t-150 -54q-88 0 -143.5 51.5t-55.5 143.5q0 96 60 153.5t152 57.5q89 0 143.5 -54.5t54.5 -146.5zM186 489q0 -63 12 -95t41 -32t39 29.5t10 87.5q0 66 -11.5 97.5t-40.5 31.5q-28 0 -39 -28t-11 -91z" />
<glyph unicode="&#xbb;" horiz-adv-x="514" d="M477 269q-88 -71 -173 -183l-46 18q21 95 86 189q-65 94 -86 189l46 18q85 -112 173 -183v-48zM258 269q-88 -71 -173 -183l-46 18q21 95 86 189q-65 94 -86 189l46 18q85 -112 173 -183v-48z" />
<glyph unicode="&#xbc;" horiz-adv-x="900" d="M139 586h-2l-59 -4l-18 75l196 49l15 -14v-400h-134v215q0 56 2 79zM660 700l-425 -710h-65l424 710h66zM468 150l151 248l148 6l15 -13v-229q20 1 53 5l-7 -93h-46v-84h-126v84h-174zM575 162v-2h11.5t28 0.5t40.5 0.5v40q0 81 6 119h-2z" />
<glyph unicode="&#xbd;" horiz-adv-x="911" d="M139 586h-2l-59 -4l-18 75l196 49l15 -14v-400h-134v215q0 56 2 79zM660 700l-425 -710h-65l424 710h66zM547 -10l-15 83q45 20 105.5 78t60.5 109q0 25 -13.5 40.5t-38.5 15.5q-44 0 -101 -41l-12 96q70 33 146 33q69 0 113 -32t44 -83q0 -56 -53 -113.5t-124 -91.5h62 q54 0 105 6l-7 -100h-272z" />
<glyph unicode="&#xbe;" horiz-adv-x="954" d="M73 672q66 32 143 32q62 0 102 -26.5t40 -66.5q0 -31 -23.5 -59t-61.5 -40q49 -9 78.5 -37.5t29.5 -67.5q0 -55 -55 -90t-141 -35q-66 0 -115 14l12 80q42 -14 96 -14q29 0 47.5 10.5t18.5 30.5q0 40 -85 40q-16 0 -58 -4v80q47 2 83.5 17.5t36.5 45.5q0 34 -46 34 q-47 0 -97 -25zM714 700l-425 -710h-65l424 710h66zM522 150l151 248l148 6l15 -13v-229q20 1 53 5l-7 -93h-46v-84h-126v84h-174zM629 162v-2h11.5t28 0.5t40.5 0.5v40q0 81 6 119h-2z" />
<glyph unicode="&#xbf;" horiz-adv-x="526" d="M208 410q0 41 29.5 70.5t72.5 29.5q38 0 62.5 -23.5t24.5 -57.5q0 -40 -32 -69.5t-75 -29.5q-36 0 -59 22t-23 58zM259 274l101 5q18 -33 18 -66q0 -29 -15 -54.5t-37 -44t-44 -36.5t-37 -39.5t-15 -45.5q0 -29 21.5 -47t56.5 -18q33 0 71 18t64 49l63 -96 q-90 -99 -236 -99q-104 0 -164.5 47.5t-60.5 122.5q0 42 21 78.5t51.5 60.5t61 43.5t51.5 38t21 33.5v42z" />
<glyph unicode="&#xc0;" horiz-adv-x="650" d="M472 771q-169 2 -296 63l-10 29l107 91q93 -74 211 -142zM180 0h-175l166 580q20 67 27 110l224 9l30 -25l193 -674h-185l-35 130h-210zM262 305l-12 -45h140l-12 44q-38 145 -55 238h-5q-25 -124 -56 -237z" />
<glyph unicode="&#xc1;" horiz-adv-x="650" d="M484 863l-10 -29q-127 -61 -296 -63l-12 41q118 68 211 142zM180 0h-175l166 580q20 67 27 110l224 9l30 -25l193 -674h-185l-35 130h-210zM262 305l-12 -45h140l-12 44q-38 145 -55 238h-5q-25 -124 -56 -237z" />
<glyph unicode="&#xc2;" horiz-adv-x="650" d="M191 772l-47 40q54 47 122 121l117 10q60 -71 122 -131l-47 -40q-42 15 -133 60q-96 -47 -134 -60zM180 0h-175l166 580q20 67 27 110l224 9l30 -25l193 -674h-185l-35 130h-210zM262 305l-12 -45h140l-12 44q-38 145 -55 238h-5q-25 -124 -56 -237z" />
<glyph unicode="&#xc3;" horiz-adv-x="650" d="M251 943q35 0 83.5 -28.5t72.5 -28.5q19 0 30.5 10t26.5 33l44 -7q0 -62 -27 -106.5t-79 -44.5q-32 0 -86.5 28.5t-75.5 28.5q-30 0 -55 -43l-44 7q0 63 26 107t84 44zM180 0h-175l166 580q20 67 27 110l224 9l30 -25l193 -674h-185l-35 130h-210zM262 305l-12 -45h140 l-12 44q-38 145 -55 238h-5q-25 -124 -56 -237z" />
<glyph unicode="&#xc4;" horiz-adv-x="650" d="M536 868q0 -39 -28.5 -65t-71.5 -26q-35 0 -58 20.5t-23 50.5q0 37 30 64t72 27q33 0 56 -20t23 -51zM295 868q0 -39 -28.5 -65t-71.5 -26q-35 0 -58 20.5t-23 50.5q0 37 30 64t72 27q33 0 56 -20t23 -51zM180 0h-175l166 580q20 67 27 110l224 9l30 -25l193 -674h-185 l-35 130h-210zM262 305l-12 -45h140l-12 44q-38 145 -55 238h-5q-25 -124 -56 -237z" />
<glyph unicode="&#xc5;" horiz-adv-x="650" d="M452 876q0 -51 -40 -87.5t-97 -36.5q-52 0 -84.5 29.5t-32.5 71.5q0 50 42.5 87t99.5 37q49 0 80.5 -28t31.5 -73zM269 859q0 -22 14 -36.5t37 -14.5q25 0 43 18.5t18 43.5q0 24 -13 37.5t-34 13.5q-26 0 -45.5 -18.5t-19.5 -43.5zM180 0h-175l166 580q20 67 27 110 l224 9l30 -25l193 -674h-185l-35 130h-210zM262 305l-12 -45h140l-12 44q-38 145 -55 238h-5q-25 -124 -56 -237z" />
<glyph unicode="&#xc6;" horiz-adv-x="909" d="M180 0h-175l242 580q36 87 44 110h511l20 -20l-4 -120l-263 8l19 -159l220 5l-5 -127l-202 6l18 -153l279 10v-140h-449l-13 130h-191zM300 305l-18 -45h127l-4 44q-10 103 -13 238h-5q-56 -158 -87 -237z" />
<glyph unicode="&#xc7;" horiz-adv-x="574" d="M491 -151q0 -34 -21 -57.5t-57 -36t-74 -17.5t-82 -5l5 60q105 6 105 54q0 36 -76 36l-19 30l24 82q-126 20 -196 109t-70 233q0 160 96 261.5t248 101.5q109 0 181 -40l-35 -155q-79 45 -144 45q-71 0 -113.5 -57t-42.5 -152q0 -94 45.5 -147.5t125.5 -53.5q78 0 147 38 l21 -148q-73 -37 -173 -40l-15 -46q120 -15 120 -95z" />
<glyph unicode="&#xc8;" horiz-adv-x="555" d="M446 771q-169 2 -296 63l-10 29l107 91q93 -74 211 -142zM530 140v-140h-465v511q0 116 -10 179h449l20 -20l-4 -120l-270 10v-161l220 5l-5 -127l-215 7v-154z" />
<glyph unicode="&#xc9;" horiz-adv-x="555" d="M458 863l-10 -29q-127 -61 -296 -63l-12 41q118 68 211 142zM530 140v-140h-465v511q0 116 -10 179h449l20 -20l-4 -120l-270 10v-161l220 5l-5 -127l-215 7v-154z" />
<glyph unicode="&#xca;" horiz-adv-x="555" d="M165 772l-47 40q54 47 122 121l117 10q60 -71 122 -131l-47 -40q-42 15 -133 60q-96 -47 -134 -60zM530 140v-140h-465v511q0 116 -10 179h449l20 -20l-4 -120l-270 10v-161l220 5l-5 -127l-215 7v-154z" />
<glyph unicode="&#xcb;" horiz-adv-x="555" d="M510 868q0 -39 -28.5 -65t-71.5 -26q-35 0 -58 20.5t-23 50.5q0 37 30 64t72 27q33 0 56 -20t23 -51zM269 868q0 -39 -28.5 -65t-71.5 -26q-35 0 -58 20.5t-23 50.5q0 37 30 64t72 27q33 0 56 -20t23 -51zM530 140v-140h-465v511q0 116 -10 179h449l20 -20l-4 -120 l-270 10v-161l220 5l-5 -127l-215 7v-154z" />
<glyph unicode="&#xcc;" horiz-adv-x="315" d="M297 771q-169 2 -296 63l-10 29l107 91q93 -74 211 -142zM250 0h-185v503q0 110 -10 187l175 10l20 -20v-680z" />
<glyph unicode="&#xcd;" horiz-adv-x="315" d="M309 863l-10 -29q-127 -61 -296 -63l-12 41q118 68 211 142zM250 0h-185v503q0 110 -10 187l175 10l20 -20v-680z" />
<glyph unicode="&#xce;" horiz-adv-x="315" d="M16 772l-47 40q54 47 122 121l117 10q60 -71 122 -131l-47 -40q-42 15 -133 60q-96 -47 -134 -60zM250 0h-185v503q0 110 -10 187l175 10l20 -20v-680z" />
<glyph unicode="&#xcf;" horiz-adv-x="315" d="M361 868q0 -39 -28.5 -65t-71.5 -26q-35 0 -58 20.5t-23 50.5q0 37 30 64t72 27q33 0 56 -20t23 -51zM120 868q0 -39 -28.5 -65t-71.5 -26q-35 0 -58 20.5t-23 50.5q0 37 30 64t72 27q33 0 56 -20t23 -51zM250 0h-185v503q0 110 -10 187l175 10l20 -20v-680z" />
<glyph unicode="&#xd0;" horiz-adv-x="692" d="M662 351q0 -165 -102.5 -258t-258.5 -93h-236v300h-65v90h65v121q0 116 -10 179h266q160 0 250.5 -90.5t90.5 -248.5zM386 300h-136v-170h67q155 0 155 212q0 96 -38.5 157t-122.5 61h-61v-170h136v-90z" />
<glyph unicode="&#xd1;" horiz-adv-x="710" d="M266 943q35 0 83.5 -28.5t72.5 -28.5q19 0 30.5 10t26.5 33l44 -7q0 -62 -27 -106.5t-79 -44.5q-32 0 -86.5 28.5t-75.5 28.5q-30 0 -55 -43l-44 7q0 63 26 107t84 44zM384 441q55 -93 96 -195h3q-13 104 -13 200q0 140 -10 244l165 8l20 -20v-678h-175q-32 54 -79 138 t-66 115q-59 99 -95 182h-3q13 -83 13 -192v-243h-175v511q0 102 -10 179l185 7q111 -200 144 -256z" />
<glyph unicode="&#xd2;" horiz-adv-x="715" d="M507 761q-169 2 -296 63l-10 29l107 91q93 -74 211 -142zM685 347q0 -168 -95 -262.5t-241 -94.5q-143 0 -231 92t-88 252q0 166 94 266t243 100q147 0 232.5 -96.5t85.5 -256.5zM220 350q0 -98 34.5 -161.5t104.5 -63.5q136 0 136 220t-135 220q-70 0 -105 -58.5 t-35 -156.5z" />
<glyph unicode="&#xd3;" horiz-adv-x="715" d="M519 853l-10 -29q-127 -61 -296 -63l-12 41q118 68 211 142zM685 347q0 -168 -95 -262.5t-241 -94.5q-143 0 -231 92t-88 252q0 166 94 266t243 100q147 0 232.5 -96.5t85.5 -256.5zM220 350q0 -98 34.5 -161.5t104.5 -63.5q136 0 136 220t-135 220q-70 0 -105 -58.5 t-35 -156.5z" />
<glyph unicode="&#xd4;" horiz-adv-x="715" d="M226 762l-47 40q54 47 122 121l117 10q60 -71 122 -131l-47 -40q-42 15 -133 60q-96 -47 -134 -60zM685 347q0 -168 -95 -262.5t-241 -94.5q-143 0 -231 92t-88 252q0 166 94 266t243 100q147 0 232.5 -96.5t85.5 -256.5zM220 350q0 -98 34.5 -161.5t104.5 -63.5 q136 0 136 220t-135 220q-70 0 -105 -58.5t-35 -156.5z" />
<glyph unicode="&#xd5;" horiz-adv-x="715" d="M286 933q35 0 83.5 -28.5t72.5 -28.5q19 0 30.5 10t26.5 33l44 -7q0 -62 -27 -106.5t-79 -44.5q-32 0 -86.5 28.5t-75.5 28.5q-30 0 -55 -43l-44 7q0 63 26 107t84 44zM685 347q0 -168 -95 -262.5t-241 -94.5q-143 0 -231 92t-88 252q0 166 94 266t243 100 q147 0 232.5 -96.5t85.5 -256.5zM220 350q0 -98 34.5 -161.5t104.5 -63.5q136 0 136 220t-135 220q-70 0 -105 -58.5t-35 -156.5z" />
<glyph unicode="&#xd6;" horiz-adv-x="715" d="M571 858q0 -39 -28.5 -65t-71.5 -26q-35 0 -58 20.5t-23 50.5q0 37 30 64t72 27q33 0 56 -20t23 -51zM330 858q0 -39 -28.5 -65t-71.5 -26q-35 0 -58 20.5t-23 50.5q0 37 30 64t72 27q33 0 56 -20t23 -51zM685 347q0 -168 -95 -262.5t-241 -94.5q-143 0 -231 92t-88 252 q0 166 94 266t243 100q147 0 232.5 -96.5t85.5 -256.5zM220 350q0 -98 34.5 -161.5t104.5 -63.5q136 0 136 220t-135 220q-70 0 -105 -58.5t-35 -156.5z" />
<glyph unicode="&#xd7;" d="M459 130l-148 152l-152 -152l-64 64l153 153l-149 153l60 60q57 -54 151 -151l151 151l64 -64l-151 -151q118 -120 151 -153v-11z" />
<glyph unicode="&#xd8;" horiz-adv-x="715" d="M685 347q0 -168 -95 -262.5t-241 -94.5q-117 0 -198 63l-59 -68l-65 56l64 74q-61 88 -61 219q0 166 94 266t243 100q109 0 185 -55l52 60l66 -55l-56 -65q71 -93 71 -238zM220 350q0 -45 7 -79l222 255q-33 39 -89 39q-70 0 -105 -58.5t-35 -156.5zM495 345q0 57 -8 94 l-227 -260q37 -54 99 -54q136 0 136 220z" />
<glyph unicode="&#xd9;" horiz-adv-x="680" d="M487 761q-169 2 -296 63l-10 29l107 91q93 -74 211 -142zM55 503q0 105 -10 187l175 10l20 -20v-424q0 -127 106 -127q104 0 104 127v287q0 80 -10 147l185 8v-458q0 -120 -82 -185t-207 -65q-124 0 -202.5 65t-78.5 185v263z" />
<glyph unicode="&#xda;" horiz-adv-x="680" d="M499 853l-10 -29q-127 -61 -296 -63l-12 41q118 68 211 142zM55 503q0 105 -10 187l175 10l20 -20v-424q0 -127 106 -127q104 0 104 127v287q0 80 -10 147l185 8v-458q0 -120 -82 -185t-207 -65q-124 0 -202.5 65t-78.5 185v263z" />
<glyph unicode="&#xdb;" horiz-adv-x="680" d="M206 762l-47 40q54 47 122 121l117 10q60 -71 122 -131l-47 -40q-42 15 -133 60q-96 -47 -134 -60zM55 503q0 105 -10 187l175 10l20 -20v-424q0 -127 106 -127q104 0 104 127v287q0 80 -10 147l185 8v-458q0 -120 -82 -185t-207 -65q-124 0 -202.5 65t-78.5 185v263z " />
<glyph unicode="&#xdc;" horiz-adv-x="680" d="M551 858q0 -39 -28.5 -65t-71.5 -26q-35 0 -58 20.5t-23 50.5q0 37 30 64t72 27q33 0 56 -20t23 -51zM310 858q0 -39 -28.5 -65t-71.5 -26q-35 0 -58 20.5t-23 50.5q0 37 30 64t72 27q33 0 56 -20t23 -51zM55 503q0 105 -10 187l175 10l20 -20v-424q0 -127 106 -127 q104 0 104 127v287q0 80 -10 147l185 8v-458q0 -120 -82 -185t-207 -65q-124 0 -202.5 65t-78.5 185v263z" />
<glyph unicode="&#xdd;" horiz-adv-x="584" d="M474 853l-10 -29q-127 -61 -296 -63l-12 41q118 68 211 142zM199 216l-196 465l198 19l61 -194q42 -130 47 -151h3q5 16 23.5 70.5t26.5 78.5l61 196l148 -10l10 -19l-197 -455v-216h-185v216z" />
<glyph unicode="&#xde;" horiz-adv-x="607" d="M250 0h-185v511q0 116 -10 179h195v-93h79q121 0 192 -64.5t71 -172.5q0 -116 -79.5 -181t-202.5 -65h-60v-114zM288 467h-38v-223h38q62 0 88 28t26 81q0 114 -114 114z" />
<glyph unicode="&#xdf;" horiz-adv-x="690" d="M85 415l-70 5v60l70 20v7q0 122 69.5 187.5t195.5 65.5q108 0 171 -47t63 -124q0 -52 -29 -93.5t-76 -66.5q83 -29 129.5 -89t46.5 -141q0 -94 -59.5 -151.5t-162.5 -57.5q-73 0 -113 17v110q43 -17 78 -17q44 0 65.5 28.5t21.5 70.5q0 56 -39.5 104.5t-120.5 76.5v74 q94 51 94 125q0 34 -18.5 57.5t-55.5 23.5q-80 0 -80 -119v-541h-180v415z" />
<glyph unicode="&#xe0;" horiz-adv-x="526" d="M302 566q-94 73 -156 170l10 30l160 8q18 -90 56 -198zM304 58q-21 -31 -59.5 -49.5t-85.5 -18.5q-60 0 -97 31.5t-37 91.5q0 157 265 164v28q0 75 -80 75q-76 0 -151 -40l-10 135q103 35 208 35q213 0 213 -187q0 -35 -2.5 -96t-2.5 -97q0 -69 21 -130l-148 -10 q-16 26 -29 68h-5zM200 145q0 -25 14 -40t37 -15t39 12v123q-40 -5 -65 -25.5t-25 -54.5z" />
<glyph unicode="&#xe1;" horiz-adv-x="526" d="M362 766l10 -30q-62 -97 -156 -170l-70 10q38 108 56 198zM304 58q-21 -31 -59.5 -49.5t-85.5 -18.5q-60 0 -97 31.5t-37 91.5q0 157 265 164v28q0 75 -80 75q-76 0 -151 -40l-10 135q103 35 208 35q213 0 213 -187q0 -35 -2.5 -96t-2.5 -97q0 -69 21 -130l-148 -10 q-16 26 -29 68h-5zM200 145q0 -25 14 -40t37 -15t39 12v123q-40 -5 -65 -25.5t-25 -54.5z" />
<glyph unicode="&#xe2;" horiz-adv-x="526" d="M149 552l-57 40q52 66 115 164l117 10q56 -95 115 -174l-57 -40q-42 26 -117 93q-70 -64 -116 -93zM304 58q-21 -31 -59.5 -49.5t-85.5 -18.5q-60 0 -97 31.5t-37 91.5q0 157 265 164v28q0 75 -80 75q-76 0 -151 -40l-10 135q103 35 208 35q213 0 213 -187 q0 -35 -2.5 -96t-2.5 -97q0 -69 21 -130l-148 -10q-16 26 -29 68h-5zM200 145q0 -25 14 -40t37 -15t39 12v123q-40 -5 -65 -25.5t-25 -54.5z" />
<glyph unicode="&#xe3;" horiz-adv-x="526" d="M183 762q36 0 86.5 -28.5t73.5 -28.5q18 0 28.5 10t23.5 33l49 -7q0 -70 -27 -120.5t-79 -50.5q-32 0 -89.5 28.5t-76.5 28.5q-28 0 -50 -43l-48 7q0 71 26 121t83 50zM304 58q-21 -31 -59.5 -49.5t-85.5 -18.5q-60 0 -97 31.5t-37 91.5q0 157 265 164v28q0 75 -80 75 q-76 0 -151 -40l-10 135q103 35 208 35q213 0 213 -187q0 -35 -2.5 -96t-2.5 -97q0 -69 21 -130l-148 -10q-16 26 -29 68h-5zM200 145q0 -25 14 -40t37 -15t39 12v123q-40 -5 -65 -25.5t-25 -54.5z" />
<glyph unicode="&#xe4;" horiz-adv-x="526" d="M234 676q0 -42 -30 -72t-73 -30q-39 0 -63 24t-24 59q0 41 32 71.5t75 30.5q36 0 59.5 -23t23.5 -60zM473 676q0 -42 -30 -72t-73 -30q-39 0 -63 24t-24 59q0 41 32 71.5t75 30.5q36 0 59.5 -23t23.5 -60zM304 58q-21 -31 -59.5 -49.5t-85.5 -18.5q-60 0 -97 31.5 t-37 91.5q0 157 265 164v28q0 75 -80 75q-76 0 -151 -40l-10 135q103 35 208 35q213 0 213 -187q0 -35 -2.5 -96t-2.5 -97q0 -69 21 -130l-148 -10q-16 26 -29 68h-5zM200 145q0 -25 14 -40t37 -15t39 12v123q-40 -5 -65 -25.5t-25 -54.5z" />
<glyph unicode="&#xe5;" horiz-adv-x="526" d="M403 691q0 -51 -40 -87.5t-97 -36.5q-52 0 -84.5 29.5t-32.5 71.5q0 50 42.5 87t99.5 37q49 0 80.5 -28t31.5 -73zM220 674q0 -22 14 -36.5t37 -14.5q25 0 43 18.5t18 43.5q0 24 -13 37.5t-34 13.5q-26 0 -45.5 -18.5t-19.5 -43.5zM304 58q-21 -31 -59.5 -49.5 t-85.5 -18.5q-60 0 -97 31.5t-37 91.5q0 157 265 164v28q0 75 -80 75q-76 0 -151 -40l-10 135q103 35 208 35q213 0 213 -187q0 -35 -2.5 -96t-2.5 -97q0 -69 21 -130l-148 -10q-16 26 -29 68h-5zM200 145q0 -25 14 -40t37 -15t39 12v123q-40 -5 -65 -25.5t-25 -54.5z" />
<glyph unicode="&#xe6;" horiz-adv-x="790" d="M759 245l-15 -15h-266q19 -115 136 -115q62 0 117 29l10 -113q-66 -41 -175 -41q-157 0 -229 96q-29 -44 -76 -70t-102 -26q-60 0 -97 31.5t-37 91.5q0 157 265 164v28q0 12 -1.5 21t-8.5 23.5t-26 22.5t-48 8q-72 0 -147 -40l-10 135q103 35 210 35q97 0 147 -38 q63 38 139 38q99 0 157 -59.5t58 -154.5q0 -34 -1 -51zM538 410q-31 0 -47.5 -34.5t-16.5 -88.5l109 6q2 20 2 32q0 85 -47 85zM200 145q0 -25 14 -40t37 -15q34 0 62 34q-21 43 -24 101q-39 -5 -64 -25.5t-25 -54.5z" />
<glyph unicode="&#xe7;" horiz-adv-x="492" d="M427 -151q0 -34 -21 -57.5t-57 -36t-74 -17.5t-82 -5l5 60q105 6 105 54q0 36 -76 36l-19 30l24 83q-91 19 -144 85t-53 164q0 116 75 190.5t192 74.5q99 0 165 -42l-38 -134q-63 46 -119 46q-41 0 -65.5 -32.5t-24.5 -87.5q0 -69 33.5 -107t93.5 -38q40 0 100 29 l10 -113q-55 -36 -135 -40l-15 -47q120 -15 120 -95z" />
<glyph unicode="&#xe8;" horiz-adv-x="536" d="M311 566q-94 73 -156 170l10 30l160 8q18 -90 56 -198zM505 245l-15 -15h-266q19 -115 136 -115q62 0 117 29l10 -113q-66 -41 -177 -41q-126 0 -200.5 66t-74.5 186q0 119 72.5 193.5t183.5 74.5q99 0 157 -59.5t58 -154.5q0 -34 -1 -51zM284 410q-31 0 -47.5 -34.5 t-16.5 -88.5l109 6q2 18 2 36q0 81 -47 81z" />
<glyph unicode="&#xe9;" horiz-adv-x="536" d="M371 766l10 -30q-62 -97 -156 -170l-70 10q38 108 56 198zM505 245l-15 -15h-266q19 -115 136 -115q62 0 117 29l10 -113q-66 -41 -177 -41q-126 0 -200.5 66t-74.5 186q0 119 72.5 193.5t183.5 74.5q99 0 157 -59.5t58 -154.5q0 -34 -1 -51zM284 410q-31 0 -47.5 -34.5 t-16.5 -88.5l109 6q2 18 2 36q0 81 -47 81z" />
<glyph unicode="&#xea;" horiz-adv-x="536" d="M158 552l-57 40q52 66 115 164l117 10q56 -95 115 -174l-57 -40q-42 26 -117 93q-70 -64 -116 -93zM505 245l-15 -15h-266q19 -115 136 -115q62 0 117 29l10 -113q-66 -41 -177 -41q-126 0 -200.5 66t-74.5 186q0 119 72.5 193.5t183.5 74.5q99 0 157 -59.5t58 -154.5 q0 -34 -1 -51zM284 410q-31 0 -47.5 -34.5t-16.5 -88.5l109 6q2 18 2 36q0 81 -47 81z" />
<glyph unicode="&#xeb;" horiz-adv-x="536" d="M243 676q0 -42 -30 -72t-73 -30q-39 0 -63 24t-24 59q0 41 32 71.5t75 30.5q36 0 59.5 -23t23.5 -60zM482 676q0 -42 -30 -72t-73 -30q-39 0 -63 24t-24 59q0 41 32 71.5t75 30.5q36 0 59.5 -23t23.5 -60zM505 245l-15 -15h-266q19 -115 136 -115q62 0 117 29l10 -113 q-66 -41 -177 -41q-126 0 -200.5 66t-74.5 186q0 119 72.5 193.5t183.5 74.5q99 0 157 -59.5t58 -154.5q0 -34 -1 -51zM284 410q-31 0 -47.5 -34.5t-16.5 -88.5l109 6q2 18 2 36q0 81 -47 81z" />
<glyph unicode="&#xec;" horiz-adv-x="295" d="M191 566q-94 73 -156 170l10 30l160 8q18 -90 56 -198zM55 0v313q0 91 -15 178l175 19l20 -20v-490h-180z" />
<glyph unicode="&#xed;" horiz-adv-x="295" d="M251 766l10 -30q-62 -97 -156 -170l-70 10q38 108 56 198zM55 0v313q0 91 -15 178l175 19l20 -20v-490h-180z" />
<glyph unicode="&#xee;" horiz-adv-x="295" d="M71 561l-64 24q29 74 57 176l167 10q26 -103 57 -186l-64 -24q-39 38 -76 100q-40 -64 -77 -100zM55 0v313q0 91 -15 178l175 19l20 -20v-490h-180z" />
<glyph unicode="&#xef;" horiz-adv-x="295" d="M137 677q0 -42 -27 -72t-65 -30q-35 0 -57.5 24t-22.5 59q0 41 29.5 71.5t68.5 30.5q32 0 53 -23t21 -60zM330 677q0 -42 -27.5 -72t-65.5 -30q-34 0 -55.5 24t-21.5 59q0 41 28.5 71.5t66.5 30.5q33 0 54 -23t21 -60zM55 0v313q0 91 -15 178l175 19l20 -20v-490h-180z " />
<glyph unicode="&#xf0;" horiz-adv-x="597" d="M295 -10q-106 0 -175.5 67.5t-69.5 187.5q0 105 55 166t146 61q68 0 107 -35q-23 68 -72 123l-79 -52l-46 71l62 41q-26 20 -62 43l58 97q63 -23 120 -63l96 63l47 -71l-74 -49q149 -144 149 -353q0 -146 -74 -221.5t-188 -75.5zM303 363q-68 0 -68 -127q0 -126 68 -126 t68 126q0 127 -68 127z" />
<glyph unicode="&#xf1;" horiz-adv-x="585" d="M210 762q36 0 86.5 -28.5t73.5 -28.5q18 0 28.5 10t23.5 33l49 -7q0 -70 -27 -120.5t-79 -50.5q-32 0 -89.5 28.5t-76.5 28.5q-28 0 -50 -43l-48 7q0 71 26 121t83 50zM235 0h-180v313q0 74 -20 168l170 29q12 -32 22 -70q73 70 158 70q65 0 102.5 -43t37.5 -117v-350 h-180v317q0 73 -57 73q-25 0 -53 -16v-374z" />
<glyph unicode="&#xf2;" horiz-adv-x="568" d="M327 566q-94 73 -156 170l10 30l160 8q18 -90 56 -198zM533 253q0 -125 -74 -194t-182 -69q-106 0 -174 66t-68 184q0 123 73 196.5t184 73.5q109 0 175 -70t66 -187zM220 255q0 -82 15 -123.5t51 -41.5t49 39t13 114q0 85 -14.5 126t-50.5 41q-34 0 -48.5 -37 t-14.5 -118z" />
<glyph unicode="&#xf3;" horiz-adv-x="568" d="M387 766l10 -30q-62 -97 -156 -170l-70 10q38 108 56 198zM533 253q0 -125 -74 -194t-182 -69q-106 0 -174 66t-68 184q0 123 73 196.5t184 73.5q109 0 175 -70t66 -187zM220 255q0 -82 15 -123.5t51 -41.5t49 39t13 114q0 85 -14.5 126t-50.5 41q-34 0 -48.5 -37 t-14.5 -118z" />
<glyph unicode="&#xf4;" horiz-adv-x="568" d="M174 552l-57 40q52 66 115 164l117 10q56 -95 115 -174l-57 -40q-42 26 -117 93q-70 -64 -116 -93zM533 253q0 -125 -74 -194t-182 -69q-106 0 -174 66t-68 184q0 123 73 196.5t184 73.5q109 0 175 -70t66 -187zM220 255q0 -82 15 -123.5t51 -41.5t49 39t13 114 q0 85 -14.5 126t-50.5 41q-34 0 -48.5 -37t-14.5 -118z" />
<glyph unicode="&#xf5;" horiz-adv-x="568" d="M208 762q36 0 86.5 -28.5t73.5 -28.5q18 0 28.5 10t23.5 33l49 -7q0 -70 -27 -120.5t-79 -50.5q-32 0 -89.5 28.5t-76.5 28.5q-28 0 -50 -43l-48 7q0 71 26 121t83 50zM533 253q0 -125 -74 -194t-182 -69q-106 0 -174 66t-68 184q0 123 73 196.5t184 73.5q109 0 175 -70 t66 -187zM220 255q0 -82 15 -123.5t51 -41.5t49 39t13 114q0 85 -14.5 126t-50.5 41q-34 0 -48.5 -37t-14.5 -118z" />
<glyph unicode="&#xf6;" horiz-adv-x="568" d="M259 676q0 -42 -30 -72t-73 -30q-39 0 -63 24t-24 59q0 41 32 71.5t75 30.5q36 0 59.5 -23t23.5 -60zM498 676q0 -42 -30 -72t-73 -30q-39 0 -63 24t-24 59q0 41 32 71.5t75 30.5q36 0 59.5 -23t23.5 -60zM533 253q0 -125 -74 -194t-182 -69q-106 0 -174 66t-68 184 q0 123 73 196.5t184 73.5q109 0 175 -70t66 -187zM220 255q0 -82 15 -123.5t51 -41.5t49 39t13 114q0 85 -14.5 126t-50.5 41q-34 0 -48.5 -37t-14.5 -118z" />
<glyph unicode="&#xf7;" d="M388 543q0 -37 -25 -62t-62 -25q-30 0 -50 20t-20 49q0 36 26 61.5t63 25.5q29 0 48.5 -19.5t19.5 -49.5zM530 303h-450v85q170 5 452 5l8 -8zM389 171q0 -37 -25 -62t-62 -25q-30 0 -50 20t-20 49q0 36 26 61.5t63 25.5q29 0 48.5 -19.5t19.5 -49.5z" />
<glyph unicode="&#xf8;" horiz-adv-x="568" d="M533 253q0 -125 -74 -194t-182 -69q-81 0 -143 40l-55 -59l-59 56l57 61q-42 61 -42 152q0 123 73 196.5t184 73.5q82 0 140 -41l56 60l60 -55l-58 -63q43 -65 43 -158zM220 255v-13l115 123q-16 45 -52 45q-34 0 -48.5 -37t-14.5 -118zM348 243v16l-115 -123 q16 -46 53 -46q36 0 49 39t13 114z" />
<glyph unicode="&#xf9;" horiz-adv-x="580" d="M335 566q-94 73 -156 170l10 30l160 8q18 -90 56 -198zM55 312q0 91 -14 178l174 20l20 -20v-299q0 -68 54 -68q26 0 51 13v364l180 10v-380q0 -62 16 -130l-148 -10q-18 32 -29 73h-6q-68 -73 -156 -73q-64 0 -103 39.5t-39 104.5v178z" />
<glyph unicode="&#xfa;" horiz-adv-x="580" d="M395 766l10 -30q-62 -97 -156 -170l-70 10q38 108 56 198zM55 312q0 91 -14 178l174 20l20 -20v-299q0 -68 54 -68q26 0 51 13v364l180 10v-380q0 -62 16 -130l-148 -10q-18 32 -29 73h-6q-68 -73 -156 -73q-64 0 -103 39.5t-39 104.5v178z" />
<glyph unicode="&#xfb;" horiz-adv-x="580" d="M182 552l-57 40q52 66 115 164l117 10q56 -95 115 -174l-57 -40q-42 26 -117 93q-70 -64 -116 -93zM55 312q0 91 -14 178l174 20l20 -20v-299q0 -68 54 -68q26 0 51 13v364l180 10v-380q0 -62 16 -130l-148 -10q-18 32 -29 73h-6q-68 -73 -156 -73q-64 0 -103 39.5 t-39 104.5v178z" />
<glyph unicode="&#xfc;" horiz-adv-x="580" d="M267 676q0 -42 -30 -72t-73 -30q-39 0 -63 24t-24 59q0 41 32 71.5t75 30.5q36 0 59.5 -23t23.5 -60zM506 676q0 -42 -30 -72t-73 -30q-39 0 -63 24t-24 59q0 41 32 71.5t75 30.5q36 0 59.5 -23t23.5 -60zM55 312q0 91 -14 178l174 20l20 -20v-299q0 -68 54 -68 q26 0 51 13v364l180 10v-380q0 -62 16 -130l-148 -10q-18 32 -29 73h-6q-68 -73 -156 -73q-64 0 -103 39.5t-39 104.5v178z" />
<glyph unicode="&#xfd;" horiz-adv-x="507" d="M367 766l10 -30q-62 -97 -156 -170l-70 10q38 108 56 198zM502 480l-125 -427q-16 -56 -31.5 -95.5t-42.5 -83.5t-59.5 -71t-83.5 -45t-114 -18l-25 150q166 0 212 110h-85l-143 495l190 15l55 -263q18 -84 22 -137h3q3 29 25 137l54 263l138 -10z" />
<glyph unicode="&#xfe;" horiz-adv-x="576" d="M50 563q0 87 -15 178l175 19l20 -20v-272q54 42 123 42q88 0 138 -69.5t50 -185.5q0 -127 -61 -196t-176 -69q-40 0 -74 7v-50q0 -88 14 -178l-174 -19l-20 20v793zM272 400q-24 0 -42 -9v-306q18 -5 35 -5q47 0 69 40.5t22 124.5q0 81 -20 118t-64 37z" />
<glyph unicode="&#xff;" horiz-adv-x="507" d="M239 676q0 -42 -30 -72t-73 -30q-39 0 -63 24t-24 59q0 41 32 71.5t75 30.5q36 0 59.5 -23t23.5 -60zM478 676q0 -42 -30 -72t-73 -30q-39 0 -63 24t-24 59q0 41 32 71.5t75 30.5q36 0 59.5 -23t23.5 -60zM502 480l-125 -427q-16 -56 -31.5 -95.5t-42.5 -83.5t-59.5 -71 t-83.5 -45t-114 -18l-25 150q166 0 212 110h-85l-143 495l190 15l55 -263q18 -84 22 -137h3q3 29 25 137l54 263l138 -10z" />
<glyph unicode="&#x100;" horiz-adv-x="650" d="M176 809v96h298v-96h-298zM180 0h-175l166 580q20 67 27 110l224 9l30 -25l193 -674h-185l-35 130h-210zM262 305l-12 -45h140l-12 44q-38 145 -55 238h-5q-25 -124 -56 -237z" />
<glyph unicode="&#x101;" horiz-adv-x="526" d="M110 618v96h298v-96h-298zM304 58q-21 -31 -59.5 -49.5t-85.5 -18.5q-60 0 -97 31.5t-37 91.5q0 157 265 164v28q0 75 -80 75q-76 0 -151 -40l-10 135q103 35 208 35q213 0 213 -187q0 -35 -2.5 -96t-2.5 -97q0 -69 21 -130l-148 -10q-16 26 -29 68h-5zM200 145 q0 -25 14 -40t37 -15t39 12v123q-40 -5 -65 -25.5t-25 -54.5z" />
<glyph unicode="&#x102;" horiz-adv-x="650" d="M413 933l69 9q-4 -74 -47.5 -120.5t-115.5 -46.5q-64 0 -106 40.5t-46 108.5l70 10q7 -22 31.5 -35.5t56.5 -13.5q33 0 57 13.5t31 34.5zM180 0h-175l166 580q20 67 27 110l224 9l30 -25l193 -674h-185l-35 130h-210zM262 305l-12 -45h140l-12 44q-38 145 -55 238h-5 q-25 -124 -56 -237z" />
<glyph unicode="&#x103;" horiz-adv-x="526" d="M345 765l69 9q-4 -87 -47.5 -142t-115.5 -55q-64 0 -106 49t-46 130l70 10q7 -36 31 -57.5t57 -21.5t57 22t31 56zM304 58q-21 -31 -59.5 -49.5t-85.5 -18.5q-60 0 -97 31.5t-37 91.5q0 157 265 164v28q0 75 -80 75q-76 0 -151 -40l-10 135q103 35 208 35q213 0 213 -187 q0 -35 -2.5 -96t-2.5 -97q0 -69 21 -130l-148 -10q-16 26 -29 68h-5zM200 145q0 -25 14 -40t37 -15t39 12v123q-40 -5 -65 -25.5t-25 -54.5z" />
<glyph unicode="&#x104;" horiz-adv-x="650" d="M180 0h-175l166 580q20 67 27 110l224 9l30 -25l193 -674q-54 -25 -84.5 -57.5t-30.5 -63.5q0 -41 43 -41q25 0 54 13l25 -59q-65 -58 -145 -58q-52 0 -86 29.5t-34 77.5q0 46 37.5 88t103.5 71h-68l-35 130h-210zM262 305l-12 -45h140l-12 44q-38 145 -55 238h-5 q-25 -124 -56 -237z" />
<glyph unicode="&#x105;" horiz-adv-x="526" d="M304 58q-21 -31 -59.5 -49.5t-85.5 -18.5q-60 0 -97 31.5t-37 91.5q0 157 265 164v28q0 75 -80 75q-76 0 -151 -40l-10 135q103 35 208 35q213 0 213 -187q0 -35 -2.5 -96t-2.5 -97q0 -69 21 -130q-54 -25 -84.5 -57.5t-30.5 -63.5q0 -41 43 -41q25 0 54 13l25 -59 q-65 -58 -145 -58q-52 0 -86 29.5t-34 77.5q0 42 32.5 81.5t89.5 68.5l-12 -1q-16 26 -29 68h-5zM200 145q0 -25 14 -40t37 -15t39 12v123q-40 -5 -65 -25.5t-25 -54.5z" />
<glyph unicode="&#x106;" horiz-adv-x="574" d="M496 863l-10 -29q-127 -61 -296 -63l-12 41q118 68 211 142zM538 178l21 -148q-80 -40 -193 -40q-158 0 -247 92t-89 255q0 160 96 261.5t248 101.5q109 0 181 -40l-35 -155q-79 45 -144 45q-71 0 -113.5 -57t-42.5 -152q0 -94 45.5 -147.5t125.5 -53.5q78 0 147 38z" />
<glyph unicode="&#x107;" horiz-adv-x="492" d="M376 766l10 -30q-62 -97 -156 -170l-70 10q38 108 56 198zM467 468l-38 -134q-63 46 -119 46q-41 0 -65.5 -32.5t-24.5 -87.5q0 -69 33.5 -107t93.5 -38q40 0 100 29l10 -113q-62 -41 -160 -41q-119 1 -190.5 70.5t-71.5 184.5q0 116 75 190.5t192 74.5q99 0 165 -42z " />
<glyph unicode="&#x108;" horiz-adv-x="574" d="M203 772l-47 40q54 47 122 121l117 10q60 -71 122 -131l-47 -40q-42 15 -133 60q-96 -47 -134 -60zM538 178l21 -148q-80 -40 -193 -40q-158 0 -247 92t-89 255q0 160 96 261.5t248 101.5q109 0 181 -40l-35 -155q-79 45 -144 45q-71 0 -113.5 -57t-42.5 -152 q0 -94 45.5 -147.5t125.5 -53.5q78 0 147 38z" />
<glyph unicode="&#x109;" horiz-adv-x="492" d="M163 552l-57 40q52 66 115 164l117 10q56 -95 115 -174l-57 -40q-42 26 -117 93q-70 -64 -116 -93zM467 468l-38 -134q-63 46 -119 46q-41 0 -65.5 -32.5t-24.5 -87.5q0 -69 33.5 -107t93.5 -38q40 0 100 29l10 -113q-62 -41 -160 -41q-119 1 -190.5 70.5t-71.5 184.5 q0 116 75 190.5t192 74.5q99 0 165 -42z" />
<glyph unicode="&#x10a;" horiz-adv-x="574" d="M440 870q0 -45 -32 -74.5t-80 -29.5q-40 0 -67 23.5t-27 58.5q0 41 35 71t82 30q38 0 63.5 -22t25.5 -57zM538 178l21 -148q-80 -40 -193 -40q-158 0 -247 92t-89 255q0 160 96 261.5t248 101.5q109 0 181 -40l-35 -155q-79 45 -144 45q-71 0 -113.5 -57t-42.5 -152 q0 -94 45.5 -147.5t125.5 -53.5q78 0 147 38z" />
<glyph unicode="&#x10b;" horiz-adv-x="492" d="M378 675q0 -46 -33.5 -78.5t-80.5 -32.5q-43 0 -69.5 26t-26.5 64q0 45 35.5 77.5t82.5 32.5q40 0 66 -24.5t26 -64.5zM467 468l-38 -134q-63 46 -119 46q-41 0 -65.5 -32.5t-24.5 -87.5q0 -69 33.5 -107t93.5 -38q40 0 100 29l10 -113q-62 -41 -160 -41 q-119 1 -190.5 70.5t-71.5 184.5q0 116 75 190.5t192 74.5q99 0 165 -42z" />
<glyph unicode="&#x10c;" horiz-adv-x="574" d="M470 947l47 -40q-54 -47 -122 -121l-117 -10q-60 71 -122 131l47 40q42 -15 133 -60q96 47 134 60zM538 178l21 -148q-80 -40 -193 -40q-158 0 -247 92t-89 255q0 160 96 261.5t248 101.5q109 0 181 -40l-35 -155q-79 45 -144 45q-71 0 -113.5 -57t-42.5 -152 q0 -94 45.5 -147.5t125.5 -53.5q78 0 147 38z" />
<glyph unicode="&#x10d;" horiz-adv-x="492" d="M396 784l57 -40q-52 -66 -115 -164l-117 -10q-56 95 -115 174l57 40q42 -26 117 -93q70 64 116 93zM467 468l-38 -134q-63 46 -119 46q-41 0 -65.5 -32.5t-24.5 -87.5q0 -69 33.5 -107t93.5 -38q40 0 100 29l10 -113q-62 -41 -160 -41q-119 1 -190.5 70.5t-71.5 184.5 q0 116 75 190.5t192 74.5q99 0 165 -42z" />
<glyph unicode="&#x10e;" horiz-adv-x="692" d="M465 947l47 -40q-54 -47 -122 -121l-117 -10q-60 71 -122 131l47 40q42 -15 133 -60q96 47 134 60zM662 351q0 -165 -102.5 -258t-258.5 -93h-236v511q0 116 -10 179h266q160 0 250.5 -90.5t90.5 -248.5zM311 560h-61v-430h67q155 0 155 212q0 96 -38.5 157t-122.5 61z " />
<glyph unicode="&#x10f;" horiz-adv-x="587" d="M361 56q-51 -66 -135 -66q-87 0 -139 63.5t-52 174.5q0 133 75.5 207.5t200.5 74.5q13 0 35 -2v55q0 91 -14 178l174 19l20 -20v-610q0 -67 21 -130l-152 -10q-12 18 -30 66h-4zM757 760l10 -30q-38 -102 -110 -210h-59q15 152 22 240h137zM220 253q0 -73 22.5 -118 t64.5 -45q22 0 39 11v319h-8q-118 0 -118 -167z" />
<glyph unicode="&#x110;" horiz-adv-x="692" d="M662 351q0 -165 -102.5 -258t-258.5 -93h-236v300h-65v90h65v121q0 116 -10 179h266q160 0 250.5 -90.5t90.5 -248.5zM386 300h-136v-170h67q155 0 155 212q0 96 -38.5 157t-122.5 61h-61v-170h136v-90z" />
<glyph unicode="&#x111;" horiz-adv-x="587" d="M361 56q-51 -66 -135 -66q-87 0 -139 63.5t-52 174.5q0 133 75.5 207.5t200.5 74.5q13 0 35 -2v55v3h-125v90h121q-3 44 -10 85l174 19l20 -20v-84h81v-90h-81v-436q0 -67 21 -130l-152 -10q-12 18 -30 66h-4zM220 253q0 -73 22.5 -118t64.5 -45q22 0 39 11v319h-8 q-118 0 -118 -167z" />
<glyph unicode="&#x112;" horiz-adv-x="555" d="M150 809v96h298v-96h-298zM530 140v-140h-465v511q0 116 -10 179h449l20 -20l-4 -120l-270 10v-161l220 5l-5 -127l-215 7v-154z" />
<glyph unicode="&#x113;" horiz-adv-x="536" d="M119 618v96h298v-96h-298zM505 245l-15 -15h-266q19 -115 136 -115q62 0 117 29l10 -113q-66 -41 -177 -41q-126 0 -200.5 66t-74.5 186q0 119 72.5 193.5t183.5 74.5q99 0 157 -59.5t58 -154.5q0 -34 -1 -51zM284 410q-31 0 -47.5 -34.5t-16.5 -88.5l109 6q2 18 2 36 q0 81 -47 81z" />
<glyph unicode="&#x114;" horiz-adv-x="555" d="M387 933l69 9q-4 -74 -47.5 -120.5t-115.5 -46.5q-64 0 -106 40.5t-46 108.5l70 10q7 -22 31.5 -35.5t56.5 -13.5q33 0 57 13.5t31 34.5zM530 140v-140h-465v511q0 116 -10 179h449l20 -20l-4 -120l-270 10v-161l220 5l-5 -127l-215 7v-154z" />
<glyph unicode="&#x115;" horiz-adv-x="536" d="M354 765l69 9q-4 -87 -47.5 -142t-115.5 -55q-64 0 -106 49t-46 130l70 10q7 -36 31 -57.5t57 -21.5t57 22t31 56zM505 245l-15 -15h-266q19 -115 136 -115q62 0 117 29l10 -113q-66 -41 -177 -41q-126 0 -200.5 66t-74.5 186q0 119 72.5 193.5t183.5 74.5 q99 0 157 -59.5t58 -154.5q0 -34 -1 -51zM284 410q-31 0 -47.5 -34.5t-16.5 -88.5l109 6q2 18 2 36q0 81 -47 81z" />
<glyph unicode="&#x116;" horiz-adv-x="555" d="M402 870q0 -45 -32 -74.5t-80 -29.5q-40 0 -67 23.5t-27 58.5q0 41 35 71t82 30q38 0 63.5 -22t25.5 -57zM530 140v-140h-465v511q0 116 -10 179h449l20 -20l-4 -120l-270 10v-161l220 5l-5 -127l-215 7v-154z" />
<glyph unicode="&#x117;" horiz-adv-x="536" d="M373 675q0 -46 -33.5 -78.5t-80.5 -32.5q-43 0 -69.5 26t-26.5 64q0 45 35.5 77.5t82.5 32.5q40 0 66 -24.5t26 -64.5zM505 245l-15 -15h-266q19 -115 136 -115q62 0 117 29l10 -113q-66 -41 -177 -41q-126 0 -200.5 66t-74.5 186q0 119 72.5 193.5t183.5 74.5 q99 0 157 -59.5t58 -154.5q0 -34 -1 -51zM284 410q-31 0 -47.5 -34.5t-16.5 -88.5l109 6q2 18 2 36q0 81 -47 81z" />
<glyph unicode="&#x118;" horiz-adv-x="555" d="M530 0q-54 -25 -84.5 -57.5t-30.5 -63.5q0 -41 43 -41q25 0 54 13l25 -59q-65 -58 -145 -58q-52 0 -86 29.5t-34 77.5q0 46 37.5 88t103.5 71h-348v511q0 116 -10 179h449l20 -20l-4 -120l-270 10v-161l220 5l-5 -127l-215 7v-154l280 10v-140z" />
<glyph unicode="&#x119;" horiz-adv-x="536" d="M505 245l-15 -15h-266q19 -115 136 -115q62 0 117 29l10 -113l-2 -2t-2 -1q-138 -82 -138 -146q0 -38 43 -38q25 0 54 13l25 -59q-65 -58 -145 -58q-52 0 -86 28t-34 73q0 77 131 150q-8 -1 -23 -1q-126 0 -200.5 66t-74.5 186q0 119 72.5 193.5t183.5 74.5 q99 0 157 -59.5t58 -154.5q0 -34 -1 -51zM284 410q-31 0 -47.5 -34.5t-16.5 -88.5l109 6q2 18 2 36q0 81 -47 81z" />
<glyph unicode="&#x11a;" horiz-adv-x="555" d="M432 947l47 -40q-54 -47 -122 -121l-117 -10q-60 71 -122 131l47 40q42 -15 133 -60q96 47 134 60zM530 140v-140h-465v511q0 116 -10 179h449l20 -20l-4 -120l-270 10v-161l220 5l-5 -127l-215 7v-154z" />
<glyph unicode="&#x11b;" horiz-adv-x="536" d="M391 784l57 -40q-52 -66 -115 -164l-117 -10q-56 95 -115 174l57 40q42 -26 117 -93q70 64 116 93zM505 245l-15 -15h-266q19 -115 136 -115q62 0 117 29l10 -113q-66 -41 -177 -41q-126 0 -200.5 66t-74.5 186q0 119 72.5 193.5t183.5 74.5q99 0 157 -59.5t58 -154.5 q0 -34 -1 -51zM284 410q-31 0 -47.5 -34.5t-16.5 -88.5l109 6q2 18 2 36q0 81 -47 81z" />
<glyph unicode="&#x11c;" horiz-adv-x="637" d="M213 772l-47 40q54 47 122 121l117 10q60 -71 122 -131l-47 -40q-42 15 -133 60q-96 -47 -134 -60zM582 333l20 -20l-3 -283q-104 -40 -219 -40q-168 0 -259 90t-91 245q0 167 100 271t266 104q111 0 194 -40l-30 -155q-75 50 -155 50q-84 0 -134.5 -56.5t-50.5 -161.5 q0 -97 45.5 -152t132.5 -55q19 0 30 1q-1 93 -15 192z" />
<glyph unicode="&#x11d;" horiz-adv-x="539" d="M149 552l-57 40q52 66 115 164l117 10q56 -95 115 -174l-57 -40q-42 26 -117 93q-70 -64 -116 -93zM93 50q0 57 66 97q-59 20 -93.5 62.5t-34.5 101.5q0 83 64.5 141t167.5 58q83 0 132 -35q16 39 49.5 58.5t73.5 19.5l21 -18l-5 -106h-102l-2 -4q50 -38 50 -110 q0 -79 -63 -131t-163 -52q-19 0 -29 1q-1 -4 -1 -12q0 -20 10.5 -26.5t33.5 -8.5l96 -6q76 -5 122 -40.5t46 -100.5q0 -88 -81.5 -143.5t-214.5 -55.5q-106 0 -171 35t-65 90q0 35 26.5 60t64.5 33l60 -25q-1 -4 -1 -12q0 -42 30.5 -71.5t80.5 -29.5q39 0 65 19t26 52 q0 56 -79 65l-87 10q-44 5 -68.5 26.5t-24.5 57.5zM310 322q0 103 -52 103q-57 0 -57 -105q0 -103 56 -103q53 0 53 105z" />
<glyph unicode="&#x11e;" horiz-adv-x="637" d="M435 933l69 9q-4 -74 -47.5 -120.5t-115.5 -46.5q-64 0 -106 40.5t-46 108.5l70 10q7 -22 31.5 -35.5t56.5 -13.5q33 0 57 13.5t31 34.5zM582 333l20 -20l-3 -283q-104 -40 -219 -40q-168 0 -259 90t-91 245q0 167 100 271t266 104q111 0 194 -40l-30 -155 q-75 50 -155 50q-84 0 -134.5 -56.5t-50.5 -161.5q0 -97 45.5 -152t132.5 -55q19 0 30 1q-1 93 -15 192z" />
<glyph unicode="&#x11f;" horiz-adv-x="539" d="M345 765l69 9q-4 -87 -47.5 -142t-115.5 -55q-64 0 -106 49t-46 130l70 10q7 -36 31 -57.5t57 -21.5t57 22t31 56zM93 50q0 57 66 97q-59 20 -93.5 62.5t-34.5 101.5q0 83 64.5 141t167.5 58q83 0 132 -35q16 39 49.5 58.5t73.5 19.5l21 -18l-5 -106h-102l-2 -4 q50 -38 50 -110q0 -79 -63 -131t-163 -52q-19 0 -29 1q-1 -4 -1 -12q0 -20 10.5 -26.5t33.5 -8.5l96 -6q76 -5 122 -40.5t46 -100.5q0 -88 -81.5 -143.5t-214.5 -55.5q-106 0 -171 35t-65 90q0 35 26.5 60t64.5 33l60 -25q-1 -4 -1 -12q0 -42 30.5 -71.5t80.5 -29.5 q39 0 65 19t26 52q0 56 -79 65l-87 10q-44 5 -68.5 26.5t-24.5 57.5zM310 322q0 103 -52 103q-57 0 -57 -105q0 -103 56 -103q53 0 53 105z" />
<glyph unicode="&#x120;" horiz-adv-x="637" d="M450 870q0 -45 -32 -74.5t-80 -29.5q-40 0 -67 23.5t-27 58.5q0 41 35 71t82 30q38 0 63.5 -22t25.5 -57zM582 333l20 -20l-3 -283q-104 -40 -219 -40q-168 0 -259 90t-91 245q0 167 100 271t266 104q111 0 194 -40l-30 -155q-75 50 -155 50q-84 0 -134.5 -56.5 t-50.5 -161.5q0 -97 45.5 -152t132.5 -55q19 0 30 1q-1 93 -15 192z" />
<glyph unicode="&#x121;" horiz-adv-x="539" d="M364 675q0 -46 -33.5 -78.5t-80.5 -32.5q-43 0 -69.5 26t-26.5 64q0 45 35.5 77.5t82.5 32.5q40 0 66 -24.5t26 -64.5zM93 50q0 57 66 97q-59 20 -93.5 62.5t-34.5 101.5q0 83 64.5 141t167.5 58q83 0 132 -35q16 39 49.5 58.5t73.5 19.5l21 -18l-5 -106h-102l-2 -4 q50 -38 50 -110q0 -79 -63 -131t-163 -52q-19 0 -29 1q-1 -4 -1 -12q0 -20 10.5 -26.5t33.5 -8.5l96 -6q76 -5 122 -40.5t46 -100.5q0 -88 -81.5 -143.5t-214.5 -55.5q-106 0 -171 35t-65 90q0 35 26.5 60t64.5 33l60 -25q-1 -4 -1 -12q0 -42 30.5 -71.5t80.5 -29.5 q39 0 65 19t26 52q0 56 -79 65l-87 10q-44 5 -68.5 26.5t-24.5 57.5zM310 322q0 103 -52 103q-57 0 -57 -105q0 -103 56 -103q53 0 53 105z" />
<glyph unicode="&#x122;" horiz-adv-x="637" d="M582 333l20 -20l-3 -283q-104 -40 -219 -40q-168 0 -259 90t-91 245q0 167 100 271t266 104q111 0 194 -40l-30 -155q-75 50 -155 50q-84 0 -134.5 -56.5t-50.5 -161.5q0 -97 45.5 -152t132.5 -55q19 0 30 1q-1 93 -15 192zM278 -325q44 46 61 95q-27 5 -44.5 26 t-17.5 50q0 35 26 61t64 26q35 0 60 -24.5t25 -70.5q0 -100 -123 -208z" />
<glyph unicode="&#x123;" horiz-adv-x="539" d="M340 829q-44 -46 -61 -95q27 -5 44.5 -26t17.5 -50q0 -35 -26 -61t-64 -26q-35 0 -60 24.5t-25 70.5q0 100 123 208zM93 50q0 57 66 97q-59 20 -93.5 62.5t-34.5 101.5q0 83 64.5 141t167.5 58q83 0 132 -35q16 39 49.5 58.5t73.5 19.5l21 -18l-5 -106h-102l-2 -4 q50 -38 50 -110q0 -79 -63 -131t-163 -52q-19 0 -29 1q-1 -4 -1 -12q0 -20 10.5 -26.5t33.5 -8.5l96 -6q76 -5 122 -40.5t46 -100.5q0 -88 -81.5 -143.5t-214.5 -55.5q-106 0 -171 35t-65 90q0 35 26.5 60t64.5 33l60 -25q-1 -4 -1 -12q0 -42 30.5 -71.5t80.5 -29.5 q39 0 65 19t26 52q0 56 -79 65l-87 10q-44 5 -68.5 26.5t-24.5 57.5zM310 322q0 103 -52 103q-57 0 -57 -105q0 -103 56 -103q53 0 53 105z" />
<glyph unicode="&#x124;" horiz-adv-x="715" d="M224 772l-47 40q54 47 122 121l117 10q60 -71 122 -131l-47 -40q-42 15 -133 60q-96 -47 -134 -60zM250 0h-185v503q0 110 -10 187l175 10l20 -20v-273h215v96q0 110 -10 187l175 10l20 -20v-680h-185v277h-215v-277z" />
<glyph unicode="&#x125;" horiz-adv-x="580" d="M-1 817l-47 40q54 47 122 121l117 10q60 -71 122 -131l-47 -40q-42 15 -133 60q-96 -47 -134 -60zM230 0h-180v563q0 91 -15 178l175 19l20 -20v-293q71 63 150 63q65 0 102.5 -43t37.5 -117v-350h-180v317q0 73 -57 73q-25 0 -53 -16v-374z" />
<glyph unicode="&#x126;" horiz-adv-x="715" d="M250 0h-185v490h-67v90h66q-3 61 -9 110l175 10l20 -20v-100h214q-3 61 -9 110l175 10l20 -20v-100h68v-90h-68v-490h-185v277h-215v-277zM250 407h215v83h-215v-83z" />
<glyph unicode="&#x127;" horiz-adv-x="580" d="M230 0h-180v562h-81v90h77q-3 36 -11 89l175 19l20 -20v-88h125v-90h-125v-115q71 63 150 63q65 0 102.5 -43t37.5 -117v-350h-180v317q0 73 -57 73q-25 0 -53 -16v-374z" />
<glyph unicode="&#x128;" horiz-adv-x="315" d="M76 943q35 0 83.5 -28.5t72.5 -28.5q19 0 30.5 10t26.5 33l44 -7q0 -62 -27 -106.5t-79 -44.5q-32 0 -86.5 28.5t-75.5 28.5q-30 0 -55 -43l-44 7q0 63 26 107t84 44zM250 0h-185v503q0 110 -10 187l175 10l20 -20v-680z" />
<glyph unicode="&#x129;" horiz-adv-x="295" d="M85 763q28 0 71 -28.5t58 -28.5q27 0 42 43l44 -7q0 -71 -21.5 -121t-68.5 -50q-26 0 -73 28.5t-56 28.5q-27 0 -42 -43l-44 7q0 71 21.5 121t68.5 50zM55 0v313q0 91 -15 178l175 19l20 -20v-490h-180z" />
<glyph unicode="&#x12a;" horiz-adv-x="315" d="M1 809v96h298v-96h-298zM250 0h-185v503q0 110 -10 187l175 10l20 -20v-680z" />
<glyph unicode="&#x12b;" horiz-adv-x="295" d="M13 618v96h269v-96h-269zM55 0v313q0 91 -15 178l175 19l20 -20v-490h-180z" />
<glyph unicode="&#x12c;" horiz-adv-x="315" d="M238 933l69 9q-4 -74 -47.5 -120.5t-115.5 -46.5q-64 0 -106 40.5t-46 108.5l70 10q7 -22 31.5 -35.5t56.5 -13.5q33 0 57 13.5t31 34.5zM250 0h-185v503q0 110 -10 187l175 10l20 -20v-680z" />
<glyph unicode="&#x12d;" horiz-adv-x="295" d="M218 753l69 9q-3 -87 -42 -142t-103 -55q-56 0 -93.5 49t-40.5 130l70 10q3 -36 22 -57.5t48 -21.5t48.5 22t21.5 56zM55 0v313q0 91 -15 178l175 19l20 -20v-490h-180z" />
<glyph unicode="&#x12e;" horiz-adv-x="315" d="M250 0q-34 -25 -53.5 -57t-19.5 -61q0 -44 43 -44q25 0 54 13l25 -59q-67 -58 -145 -58q-52 0 -86 30t-34 80q0 43 29.5 85t78.5 71h-77v503q0 110 -10 187l175 10l20 -20v-680z" />
<glyph unicode="&#x12f;" horiz-adv-x="295" d="M253 675q0 -46 -33.5 -78.5t-80.5 -32.5q-43 0 -69.5 26t-26.5 64q0 45 35.5 77.5t82.5 32.5q40 0 66 -24.5t26 -64.5zM55 0v313q0 91 -15 178l175 19l20 -20v-490q-36 -23 -57 -53t-21 -59q0 -20 12.5 -32t35.5 -12q26 0 49 13l25 -59q-67 -58 -145 -58q-52 0 -86 28 t-34 75q0 44 30.5 86t81.5 71h-71z" />
<glyph unicode="&#x130;" horiz-adv-x="315" d="M253 870q0 -45 -32 -74.5t-80 -29.5q-40 0 -67 23.5t-27 58.5q0 41 35 71t82 30q38 0 63.5 -22t25.5 -57zM250 0h-185v503q0 110 -10 187l175 10l20 -20v-680z" />
<glyph unicode="&#x131;" horiz-adv-x="295" d="M55 0v313q0 91 -15 178l175 19l20 -20v-490h-180z" />
<glyph unicode="&#x132;" horiz-adv-x="630" d="M250 0h-185v503q0 110 -10 187l175 10l20 -20v-680zM365 -225l-57 75q72 108 72 290v363q0 91 -15 178l181 19l19 -19v-541q0 -140 -41 -218.5t-159 -146.5z" />
<glyph unicode="&#x133;" horiz-adv-x="593" d="M253 675q0 -46 -33.5 -78.5t-80.5 -32.5q-43 0 -69.5 26t-26.5 64q0 45 35.5 77.5t82.5 32.5q40 0 66 -24.5t26 -64.5zM547 675q0 -46 -33.5 -78.5t-80.5 -32.5q-43 0 -69.5 26t-26.5 64q0 45 35.5 77.5t82.5 32.5q40 0 66 -24.5t26 -64.5zM55 0v313q0 91 -15 178l175 19 l20 -20v-490h-180zM365 -260l-70 60q58 95 58 245v268q0 91 -15 178l175 19l20 -20v-440q0 -117 -35.5 -185.5t-132.5 -124.5z" />
<glyph unicode="&#x134;" horiz-adv-x="315" d="M24 772l-47 40q54 47 122 121l117 10q60 -71 122 -131l-47 -40q-42 15 -133 60q-96 -47 -134 -60zM50 -225l-57 75q72 108 72 290v363q0 91 -15 178l181 19l19 -19v-541q0 -140 -41 -218.5t-159 -146.5z" />
<glyph unicode="&#x135;" horiz-adv-x="298" d="M70 561l-64 24q29 74 57 176l167 10q26 -103 57 -186l-64 -24q-39 38 -76 100q-40 -64 -77 -100zM70 -260l-70 60q58 95 58 245v268q0 91 -15 178l175 19l20 -20v-440q0 -117 -35.5 -185.5t-132.5 -124.5z" />
<glyph unicode="&#x136;" horiz-adv-x="663" d="M65 503q0 103 -10 187l175 10l20 -20v-297h60q79 177 136 317l175 -10l10 -19l-173 -308l197 -363l-214 -5q-64 113 -131 258h-60v-253h-185v503zM245 -325q44 46 61 95q-27 5 -44.5 26t-17.5 50q0 35 26 61t64 26q36 0 60.5 -24.5t24.5 -70.5q0 -100 -123 -208z" />
<glyph unicode="&#x137;" horiz-adv-x="559" d="M50 563q0 91 -15 178l175 19l20 -20v-457h30q51 99 105 227l152 -10l10 -20l-118 -181q52 -114 150 -299l-206 -10q-52 110 -88 203h-35v-193h-180v563zM193 -325q44 46 61 95q-27 5 -44.5 26t-17.5 50q0 35 26 61t64 26q36 0 60.5 -24.5t24.5 -70.5q0 -100 -123 -208z " />
<glyph unicode="&#x138;" horiz-adv-x="559" d="M50 313q0 91 -15 178l175 19l20 -20v-207h30q51 99 105 227l152 -10l10 -20l-118 -181q52 -114 150 -299l-206 -10q-52 110 -88 203h-35v-193h-180v313z" />
<glyph unicode="&#x139;" horiz-adv-x="520" d="M386 863l-10 -29q-127 -61 -296 -63l-12 41q118 68 211 142zM510 140v-140h-445v503q0 110 -10 187l175 10l20 -20v-550z" />
<glyph unicode="&#x13a;" horiz-adv-x="295" d="M307 922l-10 -29q-127 -61 -296 -63l-12 41q118 68 211 142zM235 0h-180v563q0 91 -15 178l175 19l20 -20v-740z" />
<glyph unicode="&#x13b;" horiz-adv-x="520" d="M510 140v-140h-445v503q0 110 -10 187l175 10l20 -20v-550zM207 -325q44 46 61 95q-27 5 -44.5 26t-17.5 50q0 35 26 61t64 26q36 0 60.5 -24.5t24.5 -70.5q0 -100 -123 -208z" />
<glyph unicode="&#x13c;" horiz-adv-x="295" d="M235 0h-180v563q0 91 -15 178l175 19l20 -20v-740zM61 -325q44 46 61 95q-27 5 -44.5 26t-17.5 50q0 35 26 61t64 26q36 0 60.5 -24.5t24.5 -70.5q0 -100 -123 -208z" />
<glyph unicode="&#x13d;" horiz-adv-x="520" d="M489 786l10 -30q-38 -102 -110 -210h-59q15 152 22 240h137zM510 140v-140h-445v503q0 110 -10 187l175 10l20 -20v-550z" />
<glyph unicode="&#x13e;" horiz-adv-x="295" d="M457 786l10 -30q-38 -102 -110 -210h-59q15 152 22 240h137zM235 0h-180v563q0 91 -15 178l175 19l20 -20v-740z" />
<glyph unicode="&#x13f;" horiz-adv-x="520" d="M505 380q0 -44 -30.5 -73.5t-75.5 -29.5t-73.5 29t-28.5 70q0 43 32.5 73.5t77.5 30.5q43 0 70.5 -28t27.5 -72zM510 140v-140h-445v503q0 110 -10 187l175 10l20 -20v-550z" />
<glyph unicode="&#x140;" horiz-adv-x="562" d="M235 0h-180v563q0 91 -15 178l175 19l20 -20v-740zM527 324q0 -44 -30.5 -73.5t-75.5 -29.5t-73.5 29t-28.5 70q0 43 32.5 73.5t77.5 30.5q43 0 70.5 -28t27.5 -72z" />
<glyph unicode="&#x141;" horiz-adv-x="520" d="M510 140v-140h-445v246l-78 -43l-40 74l118 65v161q0 110 -10 187l175 10l20 -20v-235l96 53l41 -74l-137 -76v-218z" />
<glyph unicode="&#x142;" horiz-adv-x="295" d="M235 0h-180v328l-90 -50l-40 74l130 72v139q0 91 -15 178l175 19l20 -20v-216l89 49l41 -74l-130 -72v-427z" />
<glyph unicode="&#x143;" horiz-adv-x="710" d="M499 863l-10 -29q-127 -61 -296 -63l-12 41q118 68 211 142zM384 441q55 -93 96 -195h3q-13 104 -13 200q0 140 -10 244l165 8l20 -20v-678h-175q-32 54 -79 138t-66 115q-59 99 -95 182h-3q13 -83 13 -192v-243h-175v511q0 102 -10 179l185 7q111 -200 144 -256z" />
<glyph unicode="&#x144;" horiz-adv-x="585" d="M389 766l10 -30q-62 -97 -156 -170l-70 10q38 108 56 198zM235 0h-180v313q0 74 -20 168l170 29q12 -32 22 -70q73 70 158 70q65 0 102.5 -43t37.5 -117v-350h-180v317q0 73 -57 73q-25 0 -53 -16v-374z" />
<glyph unicode="&#x145;" horiz-adv-x="710" d="M384 441q55 -93 96 -195h3q-13 104 -13 200q0 140 -10 244l165 8l20 -20v-678h-175q-32 54 -79 138t-66 115q-59 99 -95 182h-3q13 -83 13 -192v-243h-175v511q0 102 -10 179l185 7q111 -200 144 -256zM277 -325q44 46 61 95q-27 5 -44.5 26t-17.5 50q0 35 26 61t64 26 q36 0 60.5 -24.5t24.5 -70.5q0 -100 -123 -208z" />
<glyph unicode="&#x146;" horiz-adv-x="585" d="M235 0h-180v313q0 74 -20 168l170 29q12 -32 22 -70q73 70 158 70q65 0 102.5 -43t37.5 -117v-350h-180v317q0 73 -57 73q-25 0 -53 -16v-374zM199 -325q44 46 61 95q-27 5 -44.5 26t-17.5 50q0 35 26 61t64 26q36 0 60.5 -24.5t24.5 -70.5q0 -100 -123 -208z" />
<glyph unicode="&#x147;" horiz-adv-x="710" d="M473 947l47 -40q-54 -47 -122 -121l-117 -10q-60 71 -122 131l47 40q42 -15 133 -60q96 47 134 60zM384 441q55 -93 96 -195h3q-13 104 -13 200q0 140 -10 244l165 8l20 -20v-678h-175q-32 54 -79 138t-66 115q-59 99 -95 182h-3q13 -83 13 -192v-243h-175v511 q0 102 -10 179l185 7q111 -200 144 -256z" />
<glyph unicode="&#x148;" horiz-adv-x="585" d="M409 784l57 -40q-52 -66 -115 -164l-117 -10q-56 95 -115 174l57 40q42 -26 117 -93q70 64 116 93zM235 0h-180v313q0 74 -20 168l170 29q12 -32 22 -70q73 70 158 70q65 0 102.5 -43t37.5 -117v-350h-180v317q0 73 -57 73q-25 0 -53 -16v-374z" />
<glyph unicode="&#x149;" horiz-adv-x="788" d="M35 419q65 71 84 140q-32 6 -53 31.5t-21 60.5q0 44 31.5 76.5t76.5 32.5q43 0 71.5 -28t28.5 -81q0 -74 -53 -151.5t-114 -127.5zM438 0h-180v313q0 74 -20 168l170 29q12 -32 22 -70q73 70 158 70q65 0 102.5 -43t37.5 -117v-350h-180v317q0 73 -57 73q-25 0 -53 -16 v-374z" />
<glyph unicode="&#x14a;" horiz-adv-x="710" d="M439 -202l-51 62q34 44 50 78.5t20 80.5q-27 46 -70 123.5t-63 110.5q-59 99 -95 182h-3q13 -83 13 -192v-243h-175v511q0 102 -10 179l185 7q111 -200 144 -256q55 -93 96 -195h3q-13 104 -13 200q0 140 -10 244l165 8l20 -20v-538q0 -135 -42 -209t-164 -133z" />
<glyph unicode="&#x14b;" horiz-adv-x="585" d="M235 0h-180v313q0 74 -20 168l170 29q12 -32 22 -70q73 70 158 70q65 0 102.5 -43t37.5 -117v-290q0 -114 -33 -179.5t-124 -130.5l-70 60q47 108 47 250v257q0 73 -57 73q-25 0 -53 -16v-374z" />
<glyph unicode="&#x14c;" horiz-adv-x="715" d="M211 799v96h298v-96h-298zM685 347q0 -168 -95 -262.5t-241 -94.5q-143 0 -231 92t-88 252q0 166 94 266t243 100q147 0 232.5 -96.5t85.5 -256.5zM220 350q0 -98 34.5 -161.5t104.5 -63.5q136 0 136 220t-135 220q-70 0 -105 -58.5t-35 -156.5z" />
<glyph unicode="&#x14d;" horiz-adv-x="568" d="M135 618v96h298v-96h-298zM533 253q0 -125 -74 -194t-182 -69q-106 0 -174 66t-68 184q0 123 73 196.5t184 73.5q109 0 175 -70t66 -187zM220 255q0 -82 15 -123.5t51 -41.5t49 39t13 114q0 85 -14.5 126t-50.5 41q-34 0 -48.5 -37t-14.5 -118z" />
<glyph unicode="&#x14e;" horiz-adv-x="715" d="M448 923l69 9q-4 -74 -47.5 -120.5t-115.5 -46.5q-64 0 -106 40.5t-46 108.5l70 10q7 -22 31.5 -35.5t56.5 -13.5q33 0 57 13.5t31 34.5zM685 347q0 -168 -95 -262.5t-241 -94.5q-143 0 -231 92t-88 252q0 166 94 266t243 100q147 0 232.5 -96.5t85.5 -256.5zM220 350 q0 -98 34.5 -161.5t104.5 -63.5q136 0 136 220t-135 220q-70 0 -105 -58.5t-35 -156.5z" />
<glyph unicode="&#x14f;" horiz-adv-x="568" d="M370 765l69 9q-4 -87 -47.5 -142t-115.5 -55q-64 0 -106 49t-46 130l70 10q7 -36 31 -57.5t57 -21.5t57 22t31 56zM533 253q0 -125 -74 -194t-182 -69q-106 0 -174 66t-68 184q0 123 73 196.5t184 73.5q109 0 175 -70t66 -187zM220 255q0 -82 15 -123.5t51 -41.5t49 39 t13 114q0 85 -14.5 126t-50.5 41q-34 0 -48.5 -37t-14.5 -118z" />
<glyph unicode="&#x150;" horiz-adv-x="715" d="M360 856l-10 -29q-100 -64 -239 -66l-12 41q101 69 179 142zM620 856l-10 -29q-100 -64 -239 -66l-12 41q101 69 179 142zM685 347q0 -168 -95 -262.5t-241 -94.5q-143 0 -231 92t-88 252q0 166 94 266t243 100q147 0 232.5 -96.5t85.5 -256.5zM220 350 q0 -98 34.5 -161.5t104.5 -63.5q136 0 136 220t-135 220q-70 0 -105 -58.5t-35 -156.5z" />
<glyph unicode="&#x151;" horiz-adv-x="568" d="M274 766l10 -30q-48 -95 -124 -170l-70 10q38 108 56 198zM467 766l10 -30q-48 -95 -124 -170l-70 10q38 108 56 198zM533 253q0 -125 -74 -194t-182 -69q-106 0 -174 66t-68 184q0 123 73 196.5t184 73.5q109 0 175 -70t66 -187zM220 255q0 -82 15 -123.5t51 -41.5 t49 39t13 114q0 85 -14.5 126t-50.5 41q-34 0 -48.5 -37t-14.5 -118z" />
<glyph unicode="&#x152;" horiz-adv-x="978" d="M953 140v-140h-516q-40 -10 -88 -10q-143 0 -231 92t-88 252q0 166 94 266t243 100q47 0 86 -10h474l20 -20l-4 -120l-310 8q40 -70 49 -159l211 5l-5 -127l-207 6q-12 -87 -53 -151zM220 350q0 -98 34.5 -161.5t104.5 -63.5q136 0 136 220t-135 220q-70 0 -105 -58.5 t-35 -156.5z" />
<glyph unicode="&#x153;" horiz-adv-x="849" d="M818 245l-15 -15h-266q19 -115 136 -115q62 0 117 29l10 -113q-26 -17 -73.5 -29t-97.5 -12q-115 0 -189 68q-71 -68 -171 -68q-99 0 -166.5 66.5t-67.5 183.5q0 122 72.5 196t177.5 74q98 0 163 -68q70 68 164 68q91 0 149 -60.5t58 -153.5q0 -34 -1 -51zM220 255 q0 -82 15 -123.5t51 -41.5t49 39.5t13 115.5q0 83 -14.5 124t-50.5 41q-34 0 -48.5 -37t-14.5 -118zM597 410q-31 0 -47.5 -34.5t-16.5 -88.5l109 6q2 20 2 32q0 85 -47 85z" />
<glyph unicode="&#x154;" horiz-adv-x="627" d="M479 853l-10 -29q-127 -61 -296 -63l-12 41q118 68 211 142zM250 0h-185v511q0 116 -10 179h246q141 0 216 -59t75 -164q0 -69 -31 -117.5t-82 -74.5l148 -275l-215 -5q-52 114 -95 232h-67v-227zM288 560h-38v-208h38q62 0 88 27t26 77q0 51 -26.5 77.5t-87.5 26.5z" />
<glyph unicode="&#x155;" horiz-adv-x="416" d="M311 766l10 -30q-62 -97 -156 -170l-70 10q38 108 56 198zM235 0h-180v313q0 74 -20 168l170 29q24 -65 30 -120q22 58 50 89t71 31q32 0 50 -15l-12 -171q-35 8 -68 8q-55 0 -91 -20v-312z" />
<glyph unicode="&#x156;" horiz-adv-x="627" d="M250 0h-185v511q0 116 -10 179h246q141 0 216 -59t75 -164q0 -69 -31 -117.5t-82 -74.5l148 -275l-215 -5q-52 114 -95 232h-67v-227zM288 560h-38v-208h38q62 0 88 27t26 77q0 51 -26.5 77.5t-87.5 26.5zM233 -325q44 46 61 95q-27 5 -44.5 26t-17.5 50q0 35 26 61 t64 26q36 0 60.5 -24.5t24.5 -70.5q0 -100 -123 -208z" />
<glyph unicode="&#x157;" horiz-adv-x="416" d="M235 0h-180v313q0 74 -20 168l170 29q24 -65 30 -120q22 58 50 89t71 31q32 0 50 -15l-12 -171q-35 8 -68 8q-55 0 -91 -20v-312zM60 -325q44 46 61 95q-27 5 -44.5 26t-17.5 50q0 35 26 61t64 26q35 0 60 -24.5t25 -70.5q0 -100 -123 -208z" />
<glyph unicode="&#x158;" horiz-adv-x="627" d="M453 937l47 -40q-54 -47 -122 -121l-117 -10q-60 71 -122 131l47 40q42 -15 133 -60q96 47 134 60zM250 0h-185v511q0 116 -10 179h246q141 0 216 -59t75 -164q0 -69 -31 -117.5t-82 -74.5l148 -275l-215 -5q-52 114 -95 232h-67v-227zM288 560h-38v-208h38q62 0 88 27 t26 77q0 51 -26.5 77.5t-87.5 26.5z" />
<glyph unicode="&#x159;" horiz-adv-x="416" d="M331 784l57 -40q-52 -66 -115 -164l-117 -10q-56 95 -115 174l57 40q42 -26 117 -93q70 64 116 93zM235 0h-180v313q0 74 -20 168l170 29q24 -65 30 -120q22 58 50 89t71 31q32 0 50 -15l-12 -171q-35 8 -68 8q-55 0 -91 -20v-312z" />
<glyph unicode="&#x15a;" horiz-adv-x="550" d="M446 853l-10 -29q-127 -61 -296 -63l-12 41q118 68 211 142zM510 197q0 -100 -73 -153.5t-195 -53.5q-58 0 -117 11t-85 28l10 151q36 -22 94 -36t100 -14q76 0 76 54q0 15 -6.5 28t-13.5 21.5t-25 19.5t-27.5 16.5t-34.5 17t-34 16.5q-64 33 -101 74.5t-37 112.5 q0 100 77 155t202 55q101 0 165 -25l-20 -155q-74 40 -148 40q-86 0 -86 -58q0 -16 6 -28.5t23.5 -25t28 -19t40.5 -20.5t39 -19q66 -33 104 -76t38 -117z" />
<glyph unicode="&#x15b;" horiz-adv-x="452" d="M332 766l10 -30q-62 -97 -156 -170l-70 10q38 108 56 198zM410 485l-10 -132q-82 42 -148 42q-52 0 -52 -31q0 -18 23.5 -32t57 -27.5t66.5 -30.5t56.5 -50t23.5 -77q0 -73 -59 -115t-161 -42q-117 0 -182 39l10 129q43 -24 91.5 -38.5t81.5 -14.5q49 0 49 30 q0 18 -23.5 32.5t-56.5 28t-66.5 31t-57 49.5t-23.5 75q0 73 61 116t162 43q83 0 157 -25z" />
<glyph unicode="&#x15c;" horiz-adv-x="550" d="M153 762l-47 40q54 47 122 121l117 10q60 -71 122 -131l-47 -40q-42 15 -133 60q-96 -47 -134 -60zM510 197q0 -100 -73 -153.5t-195 -53.5q-58 0 -117 11t-85 28l10 151q36 -22 94 -36t100 -14q76 0 76 54q0 15 -6.5 28t-13.5 21.5t-25 19.5t-27.5 16.5t-34.5 17 t-34 16.5q-64 33 -101 74.5t-37 112.5q0 100 77 155t202 55q101 0 165 -25l-20 -155q-74 40 -148 40q-86 0 -86 -58q0 -16 6 -28.5t23.5 -25t28 -19t40.5 -20.5t39 -19q66 -33 104 -76t38 -117z" />
<glyph unicode="&#x15d;" horiz-adv-x="452" d="M119 552l-57 40q52 66 115 164l117 10q56 -95 115 -174l-57 -40q-42 26 -117 93q-70 -64 -116 -93zM410 485l-10 -132q-82 42 -148 42q-52 0 -52 -31q0 -18 23.5 -32t57 -27.5t66.5 -30.5t56.5 -50t23.5 -77q0 -73 -59 -115t-161 -42q-117 0 -182 39l10 129 q43 -24 91.5 -38.5t81.5 -14.5q49 0 49 30q0 18 -23.5 32.5t-56.5 28t-66.5 31t-57 49.5t-23.5 75q0 73 61 116t162 43q83 0 157 -25z" />
<glyph unicode="&#x15e;" horiz-adv-x="550" d="M426 -151q0 -34 -21 -57.5t-57 -36t-74 -17.5t-82 -5l5 60q105 6 105 54q0 36 -76 36l-19 30l23 77q-135 4 -190 39l10 151q36 -22 94 -36t100 -14q76 0 76 54q0 15 -6.5 28t-13.5 21.5t-25 19.5t-27.5 16.5t-34.5 17t-34 16.5q-64 33 -101 74.5t-37 112.5q0 100 77 155 t202 55q101 0 165 -25l-20 -155q-74 40 -148 40q-86 0 -86 -58q0 -16 6 -28.5t23.5 -25t28 -19t40.5 -20.5t39 -19q66 -33 104 -76t38 -117q0 -82 -50 -133t-137 -67l-17 -53q120 -15 120 -95z" />
<glyph unicode="&#x15f;" horiz-adv-x="452" d="M370 -151q0 -34 -21 -57.5t-57 -36t-74 -17.5t-82 -5l5 60q105 6 105 54q0 36 -76 36l-19 30l23 78q-96 7 -149 38l10 129q43 -24 91.5 -38.5t81.5 -14.5q49 0 49 30q0 18 -23.5 32.5t-56.5 28t-66.5 31t-57 49.5t-23.5 75q0 73 61 116t162 43q83 0 157 -25l-10 -132 q-82 42 -148 42q-52 0 -52 -31q0 -18 23.5 -32t57 -27.5t66.5 -30.5t56.5 -50t23.5 -77q0 -62 -42.5 -102t-118.5 -51l-16 -50q120 -15 120 -95z" />
<glyph unicode="&#x160;" horiz-adv-x="550" d="M420 937l47 -40q-54 -47 -122 -121l-117 -10q-60 71 -122 131l47 40q42 -15 133 -60q96 47 134 60zM510 197q0 -100 -73 -153.5t-195 -53.5q-58 0 -117 11t-85 28l10 151q36 -22 94 -36t100 -14q76 0 76 54q0 15 -6.5 28t-13.5 21.5t-25 19.5t-27.5 16.5t-34.5 17 t-34 16.5q-64 33 -101 74.5t-37 112.5q0 100 77 155t202 55q101 0 165 -25l-20 -155q-74 40 -148 40q-86 0 -86 -58q0 -16 6 -28.5t23.5 -25t28 -19t40.5 -20.5t39 -19q66 -33 104 -76t38 -117z" />
<glyph unicode="&#x161;" horiz-adv-x="452" d="M352 784l57 -40q-52 -66 -115 -164l-117 -10q-56 95 -115 174l57 40q42 -26 117 -93q70 64 116 93zM410 485l-10 -132q-82 42 -148 42q-52 0 -52 -31q0 -18 23.5 -32t57 -27.5t66.5 -30.5t56.5 -50t23.5 -77q0 -73 -59 -115t-161 -42q-117 0 -182 39l10 129 q43 -24 91.5 -38.5t81.5 -14.5q49 0 49 30q0 18 -23.5 32.5t-56.5 28t-66.5 31t-57 49.5t-23.5 75q0 73 61 116t162 43q83 0 157 -25z" />
<glyph unicode="&#x162;" horiz-adv-x="585" d="M385 0h-57l-18 -56q120 -15 120 -95q0 -34 -21 -57.5t-57 -36t-74 -17.5t-82 -5l5 60q105 6 105 54q0 36 -76 36l-19 30l25 87h-36v554q-60 -2 -190 -8l10 144h545l10 -144q-130 6 -190 8v-554z" />
<glyph unicode="&#x163;" horiz-adv-x="419" d="M356 -151q0 -34 -21 -57.5t-57 -36t-74 -17.5t-82 -5l5 60q105 6 105 54q0 36 -76 36l-19 30l28 94q-95 44 -95 183v228l-65 2v60l70 20l45 131l110 8l22 -21l-2 -118h137l12 -20l-8 -70l-141 4v-223q0 -76 61 -76q36 0 78 24l10 -108q-64 -41 -148 -41l-15 -46 q120 -15 120 -95z" />
<glyph unicode="&#x164;" horiz-adv-x="585" d="M426 937l47 -40q-54 -47 -122 -121l-117 -10q-60 71 -122 131l47 40q42 -15 133 -60q96 47 134 60zM385 0h-185v554q-60 -2 -190 -8l10 144h545l10 -144q-130 6 -190 8v-554z" />
<glyph unicode="&#x165;" horiz-adv-x="419" d="M467 786l10 -30q-38 -102 -110 -210h-59q15 152 22 240h137zM391 410l-141 4v-223q0 -76 61 -76q36 0 78 24l10 -108q-64 -41 -148 -41q-86 0 -133.5 51.5t-47.5 148.5v228l-65 2v60l70 20l45 131l110 8l22 -21l-2 -118h137l12 -20z" />
<glyph unicode="&#x166;" horiz-adv-x="585" d="M385 0h-185v300h-100v90h100v164q-60 -2 -190 -8l10 144h545l10 -144q-130 6 -190 8v-164h101v-90h-101v-300z" />
<glyph unicode="&#x167;" horiz-adv-x="419" d="M395 248h-145v-57q0 -76 61 -76q36 0 78 24l10 -108q-64 -41 -148 -41q-86 0 -133.5 51.5t-47.5 148.5v58h-61v90h61v80l-65 2v60l70 20l45 131l110 8l22 -21l-2 -118h137l12 -20l-8 -70l-141 4v-76h145v-90z" />
<glyph unicode="&#x168;" horiz-adv-x="680" d="M266 933q35 0 83.5 -28.5t72.5 -28.5q19 0 30.5 10t26.5 33l44 -7q0 -62 -27 -106.5t-79 -44.5q-32 0 -86.5 28.5t-75.5 28.5q-30 0 -55 -43l-44 7q0 63 26 107t84 44zM55 503q0 105 -10 187l175 10l20 -20v-424q0 -127 106 -127q104 0 104 127v287q0 80 -10 147l185 8 v-458q0 -120 -82 -185t-207 -65q-124 0 -202.5 65t-78.5 185v263z" />
<glyph unicode="&#x169;" horiz-adv-x="580" d="M216 762q36 0 86.5 -28.5t73.5 -28.5q18 0 28.5 10t23.5 33l49 -7q0 -70 -27 -120.5t-79 -50.5q-32 0 -89.5 28.5t-76.5 28.5q-28 0 -50 -43l-48 7q0 71 26 121t83 50zM55 312q0 91 -14 178l174 20l20 -20v-299q0 -68 54 -68q26 0 51 13v364l180 10v-380q0 -62 16 -130 l-148 -10q-18 32 -29 73h-6q-68 -73 -156 -73q-64 0 -103 39.5t-39 104.5v178z" />
<glyph unicode="&#x16a;" horiz-adv-x="680" d="M191 799v96h298v-96h-298zM55 503q0 105 -10 187l175 10l20 -20v-424q0 -127 106 -127q104 0 104 127v287q0 80 -10 147l185 8v-458q0 -120 -82 -185t-207 -65q-124 0 -202.5 65t-78.5 185v263z" />
<glyph unicode="&#x16b;" horiz-adv-x="580" d="M143 618v96h298v-96h-298zM55 312q0 91 -14 178l174 20l20 -20v-299q0 -68 54 -68q26 0 51 13v364l180 10v-380q0 -62 16 -130l-148 -10q-18 32 -29 73h-6q-68 -73 -156 -73q-64 0 -103 39.5t-39 104.5v178z" />
<glyph unicode="&#x16c;" horiz-adv-x="680" d="M428 923l69 9q-4 -74 -47.5 -120.5t-115.5 -46.5q-64 0 -106 40.5t-46 108.5l70 10q7 -22 31.5 -35.5t56.5 -13.5q33 0 57 13.5t31 34.5zM55 503q0 105 -10 187l175 10l20 -20v-424q0 -127 106 -127q104 0 104 127v287q0 80 -10 147l185 8v-458q0 -120 -82 -185t-207 -65 q-124 0 -202.5 65t-78.5 185v263z" />
<glyph unicode="&#x16d;" horiz-adv-x="580" d="M378 765l69 9q-4 -87 -47.5 -142t-115.5 -55q-64 0 -106 49t-46 130l70 10q7 -36 31 -57.5t57 -21.5t57 22t31 56zM55 312q0 91 -14 178l174 20l20 -20v-299q0 -68 54 -68q26 0 51 13v364l180 10v-380q0 -62 16 -130l-148 -10q-18 32 -29 73h-6q-68 -73 -156 -73 q-64 0 -103 39.5t-39 104.5v178z" />
<glyph unicode="&#x16e;" horiz-adv-x="680" d="M484 881q0 -51 -40 -87.5t-97 -36.5q-52 0 -84.5 29.5t-32.5 71.5q0 50 42.5 87t99.5 37q49 0 80.5 -28t31.5 -73zM301 864q0 -22 14 -36.5t37 -14.5q25 0 43 18.5t18 43.5q0 24 -13 37.5t-34 13.5q-26 0 -45.5 -18.5t-19.5 -43.5zM55 503q0 105 -10 187l175 10l20 -20 v-424q0 -127 106 -127q104 0 104 127v287q0 80 -10 147l185 8v-458q0 -120 -82 -185t-207 -65q-124 0 -202.5 65t-78.5 185v263z" />
<glyph unicode="&#x16f;" horiz-adv-x="580" d="M436 691q0 -51 -40 -87.5t-97 -36.5q-52 0 -84.5 29.5t-32.5 71.5q0 50 42.5 87t99.5 37q49 0 80.5 -28t31.5 -73zM253 674q0 -22 14 -36.5t37 -14.5q25 0 43 18.5t18 43.5q0 24 -13 37.5t-34 13.5q-26 0 -45.5 -18.5t-19.5 -43.5zM55 312q0 91 -14 178l174 20l20 -20 v-299q0 -68 54 -68q26 0 51 13v364l180 10v-380q0 -62 16 -130l-148 -10q-18 32 -29 73h-6q-68 -73 -156 -73q-64 0 -103 39.5t-39 104.5v178z" />
<glyph unicode="&#x170;" horiz-adv-x="680" d="M340 856l-10 -29q-100 -64 -239 -66l-12 41q101 69 179 142zM600 856l-10 -29q-100 -64 -239 -66l-12 41q101 69 179 142zM55 503q0 105 -10 187l175 10l20 -20v-424q0 -127 106 -127q104 0 104 127v287q0 80 -10 147l185 8v-458q0 -120 -82 -185t-207 -65 q-124 0 -202.5 65t-78.5 185v263z" />
<glyph unicode="&#x171;" horiz-adv-x="580" d="M282 766l10 -30q-48 -95 -124 -170l-70 10q38 108 56 198zM475 766l10 -30q-48 -95 -124 -170l-70 10q38 108 56 198zM55 312q0 91 -14 178l174 20l20 -20v-299q0 -68 54 -68q26 0 51 13v364l180 10v-380q0 -62 16 -130l-148 -10q-18 32 -29 73h-6q-68 -73 -156 -73 q-64 0 -103 39.5t-39 104.5v178z" />
<glyph unicode="&#x172;" horiz-adv-x="680" d="M55 503q0 105 -10 187l175 10l20 -20v-424q0 -127 106 -127q104 0 104 127v287q0 80 -10 147l185 8v-458q0 -144 -120 -211q-52 -33 -79 -72.5t-27 -72.5q0 -46 41 -46q27 0 56 13l25 -59q-67 -58 -145 -58q-52 0 -86 29.5t-34 77.5q0 82 94 149h-14q-124 0 -202.5 65 t-78.5 185v263z" />
<glyph unicode="&#x173;" horiz-adv-x="580" d="M55 312q0 91 -14 178l174 20l20 -20v-299q0 -68 54 -68q26 0 51 13v364l180 10v-380q0 -62 16 -130q-54 -25 -84.5 -57.5t-30.5 -63.5q0 -41 43 -41q25 0 54 13l25 -59q-65 -58 -145 -58q-52 0 -86 29.5t-34 77.5q0 42 32.5 81.5t89.5 68.5l-12 -1q-18 32 -29 73h-6 q-68 -73 -156 -73q-64 0 -103 39.5t-39 104.5v178z" />
<glyph unicode="&#x174;" horiz-adv-x="960" d="M346 762l-47 40q54 47 122 121l117 10q60 -71 122 -131l-47 -40q-42 15 -133 60q-96 -47 -134 -60zM174 0l-171 681l198 19l70 -348q5 -26 10.5 -58.5l11 -65t7.5 -45.5q5 24 36 167l74 340l178 10l73 -348q11 -50 35 -169q20 118 31 171l72 346l148 -10l10 -19 l-171 -671h-205l-53 223q-9 39 -23.5 112.5t-21.5 104.5h-3q-31 -152 -48 -220l-53 -220h-205z" />
<glyph unicode="&#x175;" horiz-adv-x="816" d="M312 552l-57 40q52 66 115 164l117 10q56 -95 115 -174l-57 -40q-42 26 -117 93q-70 -64 -116 -93zM121 0l-116 495l185 15l44 -253q18 -111 19 -117h3q2 19 9 60.5t9 56.5l37 243h229l39 -243q18 -111 19 -117h3q4 31 18 117l42 253l140 -10l10 -20l-116 -480h-230 l-35 204q-20 114 -23 156h-3q-3 -39 -23 -157l-35 -203h-225z" />
<glyph unicode="&#x176;" horiz-adv-x="584" d="M181 762l-47 40q54 47 122 121l117 10q60 -71 122 -131l-47 -40q-42 15 -133 60q-96 -47 -134 -60zM199 216l-196 465l198 19l61 -194q42 -130 47 -151h3q5 16 23.5 70.5t26.5 78.5l61 196l148 -10l10 -19l-197 -455v-216h-185v216z" />
<glyph unicode="&#x177;" horiz-adv-x="507" d="M154 552l-57 40q52 66 115 164l117 10q56 -95 115 -174l-57 -40q-42 26 -117 93q-70 -64 -116 -93zM502 480l-125 -427q-16 -56 -31.5 -95.5t-42.5 -83.5t-59.5 -71t-83.5 -45t-114 -18l-25 150q166 0 212 110h-85l-143 495l190 15l55 -263q18 -84 22 -137h3q3 29 25 137 l54 263l138 -10z" />
<glyph unicode="&#x178;" horiz-adv-x="584" d="M526 858q0 -39 -28.5 -65t-71.5 -26q-35 0 -58 20.5t-23 50.5q0 37 30 64t72 27q33 0 56 -20t23 -51zM285 858q0 -39 -28.5 -65t-71.5 -26q-35 0 -58 20.5t-23 50.5q0 37 30 64t72 27q33 0 56 -20t23 -51zM199 216l-196 465l198 19l61 -194q42 -130 47 -151h3 q5 16 23.5 70.5t26.5 78.5l61 196l148 -10l10 -19l-197 -455v-216h-185v216z" />
<glyph unicode="&#x179;" horiz-adv-x="584" d="M451 853l-10 -29q-127 -61 -296 -63l-12 41q118 68 211 142zM60 0l-30 120l311 419l-296 -9l10 160h447l47 -120l-307 -418l300 8l-10 -160h-472z" />
<glyph unicode="&#x17a;" horiz-adv-x="460" d="M339 766l10 -30q-62 -97 -156 -170l-70 10q38 108 56 198zM23 355l10 145h377l20 -115l-211 -245h61q87 0 160 10l-10 -150h-390l-20 115l220 244z" />
<glyph unicode="&#x17b;" horiz-adv-x="584" d="M395 860q0 -45 -32 -74.5t-80 -29.5q-40 0 -67 23.5t-27 58.5q0 41 35 71t82 30q38 0 63.5 -22t25.5 -57zM60 0l-30 120l311 419l-296 -9l10 160h447l47 -120l-307 -418l300 8l-10 -160h-472z" />
<glyph unicode="&#x17c;" horiz-adv-x="460" d="M341 675q0 -46 -33.5 -78.5t-80.5 -32.5q-43 0 -69.5 26t-26.5 64q0 45 35.5 77.5t82.5 32.5q40 0 66 -24.5t26 -64.5zM23 355l10 145h377l20 -115l-211 -245h61q87 0 160 10l-10 -150h-390l-20 115l220 244z" />
<glyph unicode="&#x17d;" horiz-adv-x="584" d="M425 937l47 -40q-54 -47 -122 -121l-117 -10q-60 71 -122 131l47 40q42 -15 133 -60q96 47 134 60zM60 0l-30 120l311 419l-296 -9l10 160h447l47 -120l-307 -418l300 8l-10 -160h-472z" />
<glyph unicode="&#x17e;" horiz-adv-x="460" d="M359 784l57 -40q-52 -66 -115 -164l-117 -10q-56 95 -115 174l57 40q42 -26 117 -93q70 64 116 93zM23 355l10 145h377l20 -115l-211 -245h61q87 0 160 10l-10 -150h-390l-20 115l220 244z" />
<glyph unicode="&#x18f;" horiz-adv-x="659" d="M35 384l26 25h368q-34 155 -195 155q-86 0 -166 -45l-3 135q26 16 88.5 31t130.5 15q160 0 252.5 -91.5t92.5 -256.5t-89.5 -263.5t-240.5 -98.5q-125 0 -197 74t-72 227q0 30 5 93zM215 268q0 -152 102 -152q122 0 122 196v4l-223 -17q-1 -11 -1 -31z" />
<glyph unicode="&#x192;" horiz-adv-x="593" d="M150 293l-116 5l13 60l107 20h4l4 42q25 280 268 280q96 0 148 -34l-56 -136q-55 40 -97 40q-24 0 -40.5 -13.5t-24.5 -40.5t-11.5 -45.5t-6.5 -50.5l-4 -42h167l8 -18l-19 -67h-165l-26 -247q-2 -24 -4.5 -39t-8 -45t-14 -51.5t-21.5 -49.5t-32.5 -47.5t-44.5 -37.5 t-60 -27t-76 -9q-51 0 -108 16l23 137q54 -23 85 -23q72 0 81 108l28 315h-1z" />
<glyph unicode="&#x19d;" horiz-adv-x="710" d="M44 -202l-51 62q72 104 72 280v371q0 102 -10 179l185 7q111 -200 144 -256q55 -93 96 -195h3q-13 104 -13 200q0 140 -10 244l165 8l20 -20v-678h-175q-32 54 -79 138t-66 115q-59 99 -95 182h-3q13 -83 13 -192v-103q0 -135 -40 -209t-156 -133z" />
<glyph unicode="&#x1cd;" horiz-adv-x="650" d="M458 947l47 -40q-54 -47 -122 -121l-117 -10q-60 71 -122 131l47 40q42 -15 133 -60q96 47 134 60zM180 0h-175l166 580q20 67 27 110l224 9l30 -25l193 -674h-185l-35 130h-210zM262 305l-12 -45h140l-12 44q-38 145 -55 238h-5q-25 -124 -56 -237z" />
<glyph unicode="&#x1ce;" horiz-adv-x="526" d="M382 784l57 -40q-52 -66 -115 -164l-117 -10q-56 95 -115 174l57 40q42 -26 117 -93q70 64 116 93zM304 58q-21 -31 -59.5 -49.5t-85.5 -18.5q-60 0 -97 31.5t-37 91.5q0 157 265 164v28q0 75 -80 75q-76 0 -151 -40l-10 135q103 35 208 35q213 0 213 -187 q0 -35 -2.5 -96t-2.5 -97q0 -69 21 -130l-148 -10q-16 26 -29 68h-5zM200 145q0 -25 14 -40t37 -15t39 12v123q-40 -5 -65 -25.5t-25 -54.5z" />
<glyph unicode="&#x1cf;" horiz-adv-x="315" d="M283 947l47 -40q-54 -47 -122 -121l-117 -10q-60 71 -122 131l47 40q42 -15 133 -60q96 47 134 60zM250 0h-185v503q0 110 -10 187l175 10l20 -20v-680z" />
<glyph unicode="&#x1d0;" horiz-adv-x="295" d="M224 776l64 -24q-29 -74 -57 -176l-167 -10q-26 103 -57 186l64 24q39 -38 76 -100q40 64 77 100zM55 0v313q0 91 -15 178l175 19l20 -20v-490h-180z" />
<glyph unicode="&#x1d1;" horiz-adv-x="715" d="M493 937l47 -40q-54 -47 -122 -121l-117 -10q-60 71 -122 131l47 40q42 -15 133 -60q96 47 134 60zM685 347q0 -168 -95 -262.5t-241 -94.5q-143 0 -231 92t-88 252q0 166 94 266t243 100q147 0 232.5 -96.5t85.5 -256.5zM220 350q0 -98 34.5 -161.5t104.5 -63.5 q136 0 136 220t-135 220q-70 0 -105 -58.5t-35 -156.5z" />
<glyph unicode="&#x1d2;" horiz-adv-x="568" d="M407 784l57 -40q-52 -66 -115 -164l-117 -10q-56 95 -115 174l57 40q42 -26 117 -93q70 64 116 93zM533 253q0 -125 -74 -194t-182 -69q-106 0 -174 66t-68 184q0 123 73 196.5t184 73.5q109 0 175 -70t66 -187zM220 255q0 -82 15 -123.5t51 -41.5t49 39t13 114 q0 85 -14.5 126t-50.5 41q-34 0 -48.5 -37t-14.5 -118z" />
<glyph unicode="&#x1d3;" horiz-adv-x="680" d="M473 937l47 -40q-54 -47 -122 -121l-117 -10q-60 71 -122 131l47 40q42 -15 133 -60q96 47 134 60zM55 503q0 105 -10 187l175 10l20 -20v-424q0 -127 106 -127q104 0 104 127v287q0 80 -10 147l185 8v-458q0 -120 -82 -185t-207 -65q-124 0 -202.5 65t-78.5 185v263z " />
<glyph unicode="&#x1d4;" horiz-adv-x="580" d="M415 784l57 -40q-52 -66 -115 -164l-117 -10q-56 95 -115 174l57 40q42 -26 117 -93q70 64 116 93zM55 312q0 91 -14 178l174 20l20 -20v-299q0 -68 54 -68q26 0 51 13v364l180 10v-380q0 -62 16 -130l-148 -10q-18 32 -29 73h-6q-68 -73 -156 -73q-64 0 -103 39.5 t-39 104.5v178z" />
<glyph unicode="&#x1d5;" horiz-adv-x="680" d="M191 1038v96h298v-96h-298zM551 858q0 -39 -28.5 -65t-71.5 -26q-35 0 -58 20.5t-23 50.5q0 37 30 64t72 27q33 0 56 -20t23 -51zM310 858q0 -39 -28.5 -65t-71.5 -26q-35 0 -58 20.5t-23 50.5q0 37 30 64t72 27q33 0 56 -20t23 -51zM55 503q0 105 -10 187l175 10l20 -20 v-424q0 -127 106 -127q104 0 104 127v287q0 80 -10 147l185 8v-458q0 -120 -82 -185t-207 -65q-124 0 -202.5 65t-78.5 185v263z" />
<glyph unicode="&#x1d6;" horiz-adv-x="580" d="M143 877v96h298v-96h-298zM267 676q0 -42 -30 -72t-73 -30q-39 0 -63 24t-24 59q0 41 32 71.5t75 30.5q36 0 59.5 -23t23.5 -60zM506 676q0 -42 -30 -72t-73 -30q-39 0 -63 24t-24 59q0 41 32 71.5t75 30.5q36 0 59.5 -23t23.5 -60zM55 312q0 91 -14 178l174 20l20 -20 v-299q0 -68 54 -68q26 0 51 13v364l180 10v-380q0 -62 16 -130l-148 -10q-18 32 -29 73h-6q-68 -73 -156 -73q-64 0 -103 39.5t-39 104.5v178z" />
<glyph unicode="&#x1d7;" horiz-adv-x="680" d="M499 1092l-10 -29q-127 -61 -296 -63l-12 41q118 68 211 142zM551 858q0 -39 -28.5 -65t-71.5 -26q-35 0 -58 20.5t-23 50.5q0 37 30 64t72 27q33 0 56 -20t23 -51zM310 858q0 -39 -28.5 -65t-71.5 -26q-35 0 -58 20.5t-23 50.5q0 37 30 64t72 27q33 0 56 -20t23 -51z M55 503q0 105 -10 187l175 10l20 -20v-424q0 -127 106 -127q104 0 104 127v287q0 80 -10 147l185 8v-458q0 -120 -82 -185t-207 -65q-124 0 -202.5 65t-78.5 185v263z" />
<glyph unicode="&#x1d8;" horiz-adv-x="580" d="M395 1025l10 -30q-62 -97 -156 -170l-70 10q38 108 56 198zM267 676q0 -42 -30 -72t-73 -30q-39 0 -63 24t-24 59q0 41 32 71.5t75 30.5q36 0 59.5 -23t23.5 -60zM506 676q0 -42 -30 -72t-73 -30q-39 0 -63 24t-24 59q0 41 32 71.5t75 30.5q36 0 59.5 -23t23.5 -60z M55 312q0 91 -14 178l174 20l20 -20v-299q0 -68 54 -68q26 0 51 13v364l180 10v-380q0 -62 16 -130l-148 -10q-18 32 -29 73h-6q-68 -73 -156 -73q-64 0 -103 39.5t-39 104.5v178z" />
<glyph unicode="&#x1d9;" horiz-adv-x="680" d="M473 1176l47 -40q-54 -47 -122 -121l-117 -10q-60 71 -122 131l47 40q42 -15 133 -60q96 47 134 60zM551 858q0 -39 -28.5 -65t-71.5 -26q-35 0 -58 20.5t-23 50.5q0 37 30 64t72 27q33 0 56 -20t23 -51zM310 858q0 -39 -28.5 -65t-71.5 -26q-35 0 -58 20.5t-23 50.5 q0 37 30 64t72 27q33 0 56 -20t23 -51zM55 503q0 105 -10 187l175 10l20 -20v-424q0 -127 106 -127q104 0 104 127v287q0 80 -10 147l185 8v-458q0 -120 -82 -185t-207 -65q-124 0 -202.5 65t-78.5 185v263z" />
<glyph unicode="&#x1da;" horiz-adv-x="580" d="M415 1043l57 -40q-52 -66 -115 -164l-117 -10q-56 95 -115 174l57 40q42 -26 117 -93q70 64 116 93zM267 676q0 -42 -30 -72t-73 -30q-39 0 -63 24t-24 59q0 41 32 71.5t75 30.5q36 0 59.5 -23t23.5 -60zM506 676q0 -42 -30 -72t-73 -30q-39 0 -63 24t-24 59 q0 41 32 71.5t75 30.5q36 0 59.5 -23t23.5 -60zM55 312q0 91 -14 178l174 20l20 -20v-299q0 -68 54 -68q26 0 51 13v364l180 10v-380q0 -62 16 -130l-148 -10q-18 32 -29 73h-6q-68 -73 -156 -73q-64 0 -103 39.5t-39 104.5v178z" />
<glyph unicode="&#x1db;" horiz-adv-x="680" d="M487 1000q-169 2 -296 63l-10 29l107 91q93 -74 211 -142zM551 858q0 -39 -28.5 -65t-71.5 -26q-35 0 -58 20.5t-23 50.5q0 37 30 64t72 27q33 0 56 -20t23 -51zM310 858q0 -39 -28.5 -65t-71.5 -26q-35 0 -58 20.5t-23 50.5q0 37 30 64t72 27q33 0 56 -20t23 -51z M55 503q0 105 -10 187l175 10l20 -20v-424q0 -127 106 -127q104 0 104 127v287q0 80 -10 147l185 8v-458q0 -120 -82 -185t-207 -65q-124 0 -202.5 65t-78.5 185v263z" />
<glyph unicode="&#x1dc;" horiz-adv-x="580" d="M335 825q-94 73 -156 170l10 30l160 8q18 -90 56 -198zM267 676q0 -42 -30 -72t-73 -30q-39 0 -63 24t-24 59q0 41 32 71.5t75 30.5q36 0 59.5 -23t23.5 -60zM506 676q0 -42 -30 -72t-73 -30q-39 0 -63 24t-24 59q0 41 32 71.5t75 30.5q36 0 59.5 -23t23.5 -60zM55 312 q0 91 -14 178l174 20l20 -20v-299q0 -68 54 -68q26 0 51 13v364l180 10v-380q0 -62 16 -130l-148 -10q-18 32 -29 73h-6q-68 -73 -156 -73q-64 0 -103 39.5t-39 104.5v178z" />
<glyph unicode="&#x1e6;" horiz-adv-x="637" d="M480 947l47 -40q-54 -47 -122 -121l-117 -10q-60 71 -122 131l47 40q42 -15 133 -60q96 47 134 60zM582 333l20 -20l-3 -283q-104 -40 -219 -40q-168 0 -259 90t-91 245q0 167 100 271t266 104q111 0 194 -40l-30 -155q-75 50 -155 50q-84 0 -134.5 -56.5t-50.5 -161.5 q0 -97 45.5 -152t132.5 -55q19 0 30 1q-1 93 -15 192z" />
<glyph unicode="&#x1e7;" horiz-adv-x="539" d="M382 784l57 -40q-52 -66 -115 -164l-117 -10q-56 95 -115 174l57 40q42 -26 117 -93q70 64 116 93zM93 50q0 57 66 97q-59 20 -93.5 62.5t-34.5 101.5q0 83 64.5 141t167.5 58q83 0 132 -35q16 39 49.5 58.5t73.5 19.5l21 -18l-5 -106h-102l-2 -4q50 -38 50 -110 q0 -79 -63 -131t-163 -52q-19 0 -29 1q-1 -4 -1 -12q0 -20 10.5 -26.5t33.5 -8.5l96 -6q76 -5 122 -40.5t46 -100.5q0 -88 -81.5 -143.5t-214.5 -55.5q-106 0 -171 35t-65 90q0 35 26.5 60t64.5 33l60 -25q-1 -4 -1 -12q0 -42 30.5 -71.5t80.5 -29.5q39 0 65 19t26 52 q0 56 -79 65l-87 10q-44 5 -68.5 26.5t-24.5 57.5zM310 322q0 103 -52 103q-57 0 -57 -105q0 -103 56 -103q53 0 53 105z" />
<glyph unicode="&#x1ea;" horiz-adv-x="715" d="M685 347q0 -111 -43.5 -191.5t-119.5 -123.5q-55 -38 -77.5 -70t-22.5 -66q0 -58 48 -58q22 0 49 13l25 -59q-65 -58 -145 -58q-52 0 -86 29t-34 78q0 40 26.5 79.5t71.5 70.5q-10 -1 -28 -1q-143 0 -231 92t-88 252q0 166 94 266t243 100q147 0 232.5 -96.5t85.5 -256.5 zM220 350q0 -98 34.5 -161.5t104.5 -63.5q136 0 136 220t-135 220q-70 0 -105 -58.5t-35 -156.5z" />
<glyph unicode="&#x1eb;" horiz-adv-x="568" d="M533 253q0 -147 -104 -219q-99 -74 -99 -140q0 -50 43 -50q25 0 54 13l25 -59q-67 -58 -145 -58q-51 0 -85.5 28t-34.5 71q0 76 106 151h-16q-106 0 -174 66t-68 184q0 123 73 196.5t184 73.5q109 0 175 -70t66 -187zM220 255q0 -82 15 -123.5t51 -41.5t49 39t13 114 q0 85 -14.5 126t-50.5 41q-34 0 -48.5 -37t-14.5 -118z" />
<glyph unicode="&#x1f4;" horiz-adv-x="637" d="M506 863l-10 -29q-127 -61 -296 -63l-12 41q118 68 211 142zM582 333l20 -20l-3 -283q-104 -40 -219 -40q-168 0 -259 90t-91 245q0 167 100 271t266 104q111 0 194 -40l-30 -155q-75 50 -155 50q-84 0 -134.5 -56.5t-50.5 -161.5q0 -97 45.5 -152t132.5 -55q19 0 30 1 q-1 93 -15 192z" />
<glyph unicode="&#x1f5;" horiz-adv-x="539" d="M362 766l10 -30q-62 -97 -156 -170l-70 10q38 108 56 198zM93 50q0 57 66 97q-59 20 -93.5 62.5t-34.5 101.5q0 83 64.5 141t167.5 58q83 0 132 -35q16 39 49.5 58.5t73.5 19.5l21 -18l-5 -106h-102l-2 -4q50 -38 50 -110q0 -79 -63 -131t-163 -52q-19 0 -29 1 q-1 -4 -1 -12q0 -20 10.5 -26.5t33.5 -8.5l96 -6q76 -5 122 -40.5t46 -100.5q0 -88 -81.5 -143.5t-214.5 -55.5q-106 0 -171 35t-65 90q0 35 26.5 60t64.5 33l60 -25q-1 -4 -1 -12q0 -42 30.5 -71.5t80.5 -29.5q39 0 65 19t26 52q0 56 -79 65l-87 10q-44 5 -68.5 26.5 t-24.5 57.5zM310 322q0 103 -52 103q-57 0 -57 -105q0 -103 56 -103q53 0 53 105z" />
<glyph unicode="&#x1fa;" horiz-adv-x="650" d="M484 1140l-10 -29q-127 -61 -296 -63l-12 41q118 68 211 142zM452 876q0 -51 -40 -87.5t-97 -36.5q-52 0 -84.5 29.5t-32.5 71.5q0 50 42.5 87t99.5 37q49 0 80.5 -28t31.5 -73zM269 859q0 -22 14 -36.5t37 -14.5q25 0 43 18.5t18 43.5q0 24 -13 37.5t-34 13.5 q-26 0 -45.5 -18.5t-19.5 -43.5zM180 0h-175l166 580q20 67 27 110l224 9l30 -25l193 -674h-185l-35 130h-210zM262 305l-12 -45h140l-12 44q-38 145 -55 238h-5q-25 -124 -56 -237z" />
<glyph unicode="&#x1fb;" horiz-adv-x="526" d="M379 1058l10 -30q-62 -97 -156 -170l-70 10q38 108 56 198zM403 691q0 -51 -40 -87.5t-97 -36.5q-52 0 -84.5 29.5t-32.5 71.5q0 50 42.5 87t99.5 37q49 0 80.5 -28t31.5 -73zM220 674q0 -22 14 -36.5t37 -14.5q25 0 43 18.5t18 43.5q0 24 -13 37.5t-34 13.5 q-26 0 -45.5 -18.5t-19.5 -43.5zM304 58q-21 -31 -59.5 -49.5t-85.5 -18.5q-60 0 -97 31.5t-37 91.5q0 157 265 164v28q0 75 -80 75q-76 0 -151 -40l-10 135q103 35 208 35q213 0 213 -187q0 -35 -2.5 -96t-2.5 -97q0 -69 21 -130l-148 -10q-16 26 -29 68h-5zM200 145 q0 -25 14 -40t37 -15t39 12v123q-40 -5 -65 -25.5t-25 -54.5z" />
<glyph unicode="&#x1fc;" horiz-adv-x="909" d="M688 853l-10 -29q-127 -61 -296 -63l-12 41q118 68 211 142zM180 0h-175l242 580q36 87 44 110h511l20 -20l-4 -120l-263 8l19 -159l220 5l-5 -127l-202 6l18 -153l279 10v-140h-449l-13 130h-191zM300 305l-18 -45h127l-4 44q-10 103 -13 238h-5q-56 -158 -87 -237z" />
<glyph unicode="&#x1fd;" horiz-adv-x="790" d="M509 766l10 -30q-62 -97 -156 -170l-70 10q38 108 56 198zM759 245l-15 -15h-266q19 -115 136 -115q62 0 117 29l10 -113q-66 -41 -175 -41q-157 0 -229 96q-29 -44 -76 -70t-102 -26q-60 0 -97 31.5t-37 91.5q0 157 265 164v28q0 12 -1.5 21t-8.5 23.5t-26 22.5t-48 8 q-72 0 -147 -40l-10 135q103 35 210 35q97 0 147 -38q63 38 139 38q99 0 157 -59.5t58 -154.5q0 -34 -1 -51zM538 410q-31 0 -47.5 -34.5t-16.5 -88.5l109 6q2 20 2 32q0 85 -47 85zM200 145q0 -25 14 -40t37 -15q34 0 62 34q-21 43 -24 101q-39 -5 -64 -25.5t-25 -54.5z " />
<glyph unicode="&#x1fe;" horiz-adv-x="715" d="M519 853l-10 -29q-127 -61 -296 -63l-12 41q118 68 211 142zM685 347q0 -168 -95 -262.5t-241 -94.5q-117 0 -198 63l-59 -68l-65 56l64 74q-61 88 -61 219q0 166 94 266t243 100q109 0 185 -55l52 60l66 -55l-56 -65q71 -93 71 -238zM220 350q0 -45 7 -79l222 255 q-33 39 -89 39q-70 0 -105 -58.5t-35 -156.5zM495 345q0 57 -8 94l-227 -260q37 -54 99 -54q136 0 136 220z" />
<glyph unicode="&#x1ff;" horiz-adv-x="568" d="M387 766l10 -30q-62 -97 -156 -170l-70 10q38 108 56 198zM533 253q0 -125 -74 -194t-182 -69q-81 0 -143 40l-55 -59l-59 56l57 61q-42 61 -42 152q0 123 73 196.5t184 73.5q82 0 140 -41l56 60l60 -55l-58 -63q43 -65 43 -158zM220 255v-13l115 123q-16 45 -52 45 q-34 0 -48.5 -37t-14.5 -118zM348 243v16l-115 -123q16 -46 53 -46q36 0 49 39t13 114z" />
<glyph unicode="&#x218;" horiz-adv-x="550" d="M510 197q0 -100 -73 -153.5t-195 -53.5q-58 0 -117 11t-85 28l10 151q36 -22 94 -36t100 -14q76 0 76 54q0 15 -6.5 28t-13.5 21.5t-25 19.5t-27.5 16.5t-34.5 17t-34 16.5q-64 33 -101 74.5t-37 112.5q0 100 77 155t202 55q101 0 165 -25l-20 -155q-74 40 -148 40 q-86 0 -86 -58q0 -16 6 -28.5t23.5 -25t28 -19t40.5 -20.5t39 -19q66 -33 104 -76t38 -117zM202 -325q44 46 61 95q-27 5 -44.5 26t-17.5 50q0 35 26 61t64 26q35 0 60 -24.5t25 -70.5q0 -100 -123 -208z" />
<glyph unicode="&#x219;" horiz-adv-x="452" d="M410 485l-10 -132q-82 42 -148 42q-52 0 -52 -31q0 -18 23.5 -32t57 -27.5t66.5 -30.5t56.5 -50t23.5 -77q0 -73 -59 -115t-161 -42q-117 0 -182 39l10 129q43 -24 91.5 -38.5t81.5 -14.5q49 0 49 30q0 18 -23.5 32.5t-56.5 28t-66.5 31t-57 49.5t-23.5 75q0 73 61 116 t162 43q83 0 157 -25zM146 -325q44 46 61 95q-27 5 -44.5 26t-17.5 50q0 35 26 61t64 26q35 0 60 -24.5t25 -70.5q0 -100 -123 -208z" />
<glyph unicode="&#x21a;" horiz-adv-x="585" d="M385 0h-185v554q-60 -2 -190 -8l10 144h545l10 -144q-130 6 -190 8v-554zM206 -325q44 46 61 95q-27 5 -44.5 26t-17.5 50q0 35 26 61t64 26q35 0 60 -24.5t25 -70.5q0 -100 -123 -208z" />
<glyph unicode="&#x21b;" horiz-adv-x="419" d="M391 410l-141 4v-223q0 -76 61 -76q36 0 78 24l10 -108q-64 -41 -148 -41q-86 0 -133.5 51.5t-47.5 148.5v228l-65 2v60l70 20l45 131l110 8l22 -21l-2 -118h137l12 -20zM132 -325q44 46 61 95q-27 5 -44.5 26t-17.5 50q0 35 26 61t64 26q35 0 60 -24.5t25 -70.5 q0 -100 -123 -208z" />
<glyph unicode="&#x232;" horiz-adv-x="584" d="M166 799v96h298v-96h-298zM199 216l-196 465l198 19l61 -194q42 -130 47 -151h3q5 16 23.5 70.5t26.5 78.5l61 196l148 -10l10 -19l-197 -455v-216h-185v216z" />
<glyph unicode="&#x233;" horiz-adv-x="507" d="M115 618v96h298v-96h-298zM502 480l-125 -427q-16 -56 -31.5 -95.5t-42.5 -83.5t-59.5 -71t-83.5 -45t-114 -18l-25 150q166 0 212 110h-85l-143 495l190 15l55 -263q18 -84 22 -137h3q3 29 25 137l54 263l138 -10z" />
<glyph unicode="&#x237;" horiz-adv-x="298" d="M70 -260l-70 60q58 95 58 245v268q0 91 -15 178l175 19l20 -20v-440q0 -117 -35.5 -185.5t-132.5 -124.5z" />
<glyph unicode="&#x259;" horiz-adv-x="536" d="M31 255l15 15h268q-6 63 -31.5 86.5t-72.5 23.5q-76 0 -151 -40l-10 126q80 44 205 44q116 0 181.5 -58.5t65.5 -180.5q0 -130 -71.5 -205.5t-183.5 -75.5q-100 0 -158 59.5t-58 154.5q0 34 1 51zM205 175q0 -85 48 -85q58 0 63 123l-109 -6q-2 -14 -2 -32z" />
<glyph unicode="&#x272;" horiz-adv-x="588" d="M70 -260l-70 60q58 95 58 245v268q0 74 -20 168l170 29q12 -32 22 -70q73 70 158 70q65 0 102.5 -43t37.5 -117v-350h-180v317q0 73 -57 73q-25 0 -53 -16v-324q0 -117 -35.5 -185.5t-132.5 -124.5z" />
<glyph unicode="&#x2c6;" horiz-adv-x="437" d="M102 553l-57 40q52 66 115 164l117 10q56 -95 115 -174l-57 -40q-42 26 -117 93q-70 -64 -116 -93z" />
<glyph unicode="&#x2c7;" horiz-adv-x="437" d="M335 779l57 -40q-52 -66 -115 -164l-117 -10q-56 95 -115 174l57 40q42 -26 117 -93q70 64 116 93z" />
<glyph unicode="&#x2d8;" horiz-adv-x="405" d="M291 765l69 9q-4 -87 -47.5 -142t-115.5 -55q-64 0 -106 49t-46 130l70 10q7 -36 31 -57.5t57 -21.5t57 22t31 56z" />
<glyph unicode="&#x2d9;" horiz-adv-x="300" d="M255 677q0 -46 -33.5 -78.5t-80.5 -32.5q-43 0 -69.5 26t-26.5 64q0 45 35.5 77.5t82.5 32.5q40 0 66 -24.5t26 -64.5z" />
<glyph unicode="&#x2da;" horiz-adv-x="344" d="M299 678q0 -51 -40 -87.5t-97 -36.5q-52 0 -84.5 29.5t-32.5 71.5q0 50 42.5 87t99.5 37q49 0 80.5 -28t31.5 -73zM116 661q0 -22 14 -36.5t37 -14.5q25 0 43 18.5t18 43.5q0 24 -13 37.5t-34 13.5q-26 0 -45.5 -18.5t-19.5 -43.5z" />
<glyph unicode="&#x2db;" horiz-adv-x="365" d="M308 0q-54 -25 -84.5 -57.5t-30.5 -63.5q0 -41 43 -41q25 0 54 13l25 -59q-65 -58 -145 -58q-52 0 -86 29.5t-34 77.5q0 52 48 98.5t131 75.5z" />
<glyph unicode="&#x2dc;" horiz-adv-x="427" d="M152 762q36 0 86.5 -28.5t73.5 -28.5q18 0 28.5 10t23.5 33l49 -7q0 -70 -27 -120.5t-79 -50.5q-32 0 -89.5 28.5t-76.5 28.5q-28 0 -50 -43l-48 7q0 71 26 121t83 50z" />
<glyph unicode="&#x2dd;" horiz-adv-x="443" d="M228 766l10 -30q-48 -95 -124 -170l-70 10q38 108 56 198zM421 766l10 -30q-48 -95 -124 -170l-70 10q38 108 56 198z" />
<glyph unicode="&#x394;" horiz-adv-x="650" d="M222 690h210l213 -670l-2 -20h-636l-2 20zM204 134h207l-103 364z" />
<glyph unicode="&#x3a9;" horiz-adv-x="805" d="M342 0h-292l-25 125l20 20l210 -56q-76 41 -123 123t-47 172q0 130 93 223t234 93q139 0 223.5 -91.5t84.5 -221.5q0 -94 -48 -176t-125 -123l213 57l20 -20l-25 -125h-292l-20 77q87 120 87 281q0 56 -11 100.5t-40 75.5t-74 31q-64 0 -97 -58t-33 -150q0 -136 87 -280z " />
<glyph unicode="&#x3bc;" horiz-adv-x="580" d="M55 313q0 90 -14 177l174 20l20 -20v-299q0 -68 54 -68q26 0 51 13v364l180 10v-380q0 -62 16 -130l-148 -10q-18 32 -29 73h-6q-64 -68 -145 -73h-13q17 -31 27 -70t16 -85.5t11 -65.5l-174 -19l-20 20v543z" />
<glyph unicode="&#x3c0;" horiz-adv-x="645" d="M80 0v371l-85 -1l23 130l597 10l10 -20l-33 -110l-52 -1v-164q0 -40 7 -57.5t26 -17.5q17 0 37 10l-10 -150q-53 -10 -100 -10q-64 0 -102 42t-38 128v216l-100 -2v-374h-180z" />
<glyph unicode="&#x1e0c;" horiz-adv-x="692" d="M662 351q0 -165 -102.5 -258t-258.5 -93h-236v511q0 116 -10 179h266q160 0 250.5 -90.5t90.5 -248.5zM311 560h-61v-430h67q155 0 155 212q0 96 -38.5 157t-122.5 61zM466 -155q0 -46 -33.5 -78.5t-80.5 -32.5q-43 0 -69.5 26t-26.5 64q0 45 35.5 77.5t82.5 32.5 q40 0 66 -24.5t26 -64.5z" />
<glyph unicode="&#x1e0d;" horiz-adv-x="587" d="M361 56q-51 -66 -135 -66q-87 0 -139 63.5t-52 174.5q0 133 75.5 207.5t200.5 74.5q13 0 35 -2v55q0 91 -14 178l174 19l20 -20v-610q0 -67 21 -130l-152 -10q-12 18 -30 66h-4zM220 253q0 -73 22.5 -118t64.5 -45q22 0 39 11v319h-8q-118 0 -118 -167zM399 -155 q0 -46 -33.5 -78.5t-80.5 -32.5q-43 0 -69.5 26t-26.5 64q0 45 35.5 77.5t82.5 32.5q40 0 66 -24.5t26 -64.5z" />
<glyph unicode="&#x1e24;" horiz-adv-x="715" d="M250 0h-185v503q0 110 -10 187l175 10l20 -20v-273h215v96q0 110 -10 187l175 10l20 -20v-680h-185v277h-215v-277zM463 -155q0 -46 -33.5 -78.5t-80.5 -32.5q-43 0 -69.5 26t-26.5 64q0 45 35.5 77.5t82.5 32.5q40 0 66 -24.5t26 -64.5z" />
<glyph unicode="&#x1e25;" horiz-adv-x="580" d="M230 0h-180v563q0 91 -15 178l175 19l20 -20v-293q71 63 150 63q65 0 102.5 -43t37.5 -117v-350h-180v317q0 73 -57 73q-25 0 -53 -16v-374zM395 -155q0 -46 -33.5 -78.5t-80.5 -32.5q-43 0 -69.5 26t-26.5 64q0 45 35.5 77.5t82.5 32.5q40 0 66 -24.5t26 -64.5z" />
<glyph unicode="&#x1e44;" horiz-adv-x="710" d="M443 870q0 -45 -32 -74.5t-80 -29.5q-40 0 -67 23.5t-27 58.5q0 41 35 71t82 30q38 0 63.5 -22t25.5 -57zM384 441q55 -93 96 -195h3q-13 104 -13 200q0 140 -10 244l165 8l20 -20v-678h-175q-32 54 -79 138t-66 115q-59 99 -95 182h-3q13 -83 13 -192v-243h-175v511 q0 102 -10 179l185 7q111 -200 144 -256z" />
<glyph unicode="&#x1e45;" horiz-adv-x="585" d="M391 675q0 -46 -33.5 -78.5t-80.5 -32.5q-43 0 -69.5 26t-26.5 64q0 45 35.5 77.5t82.5 32.5q40 0 66 -24.5t26 -64.5zM235 0h-180v313q0 74 -20 168l170 29q12 -32 22 -70q73 70 158 70q65 0 102.5 -43t37.5 -117v-350h-180v317q0 73 -57 73q-25 0 -53 -16v-374z" />
<glyph unicode="&#x1e5a;" horiz-adv-x="627" d="M250 0h-185v511q0 116 -10 179h246q141 0 216 -59t75 -164q0 -69 -31 -117.5t-82 -74.5l148 -275l-215 -5q-52 114 -95 232h-67v-227zM288 560h-38v-208h38q62 0 88 27t26 77q0 51 -26.5 77.5t-87.5 26.5zM425 -155q0 -46 -33.5 -78.5t-80.5 -32.5q-43 0 -69.5 26 t-26.5 64q0 45 35.5 77.5t82.5 32.5q40 0 66 -24.5t26 -64.5z" />
<glyph unicode="&#x1e5b;" horiz-adv-x="416" d="M235 0h-180v313q0 74 -20 168l170 29q24 -65 30 -120q22 58 50 89t71 31q32 0 50 -15l-12 -171q-35 8 -68 8q-55 0 -91 -20v-312zM252 -155q0 -46 -33.5 -78.5t-80.5 -32.5q-43 0 -69.5 26t-26.5 64q0 45 35.5 77.5t82.5 32.5q40 0 66 -24.5t26 -64.5z" />
<glyph unicode="&#x1e62;" horiz-adv-x="550" d="M510 197q0 -100 -73 -153.5t-195 -53.5q-58 0 -117 11t-85 28l10 151q36 -22 94 -36t100 -14q76 0 76 54q0 15 -6.5 28t-13.5 21.5t-25 19.5t-27.5 16.5t-34.5 17t-34 16.5q-64 33 -101 74.5t-37 112.5q0 100 77 155t202 55q101 0 165 -25l-20 -155q-74 40 -148 40 q-86 0 -86 -58q0 -16 6 -28.5t23.5 -25t28 -19t40.5 -20.5t39 -19q66 -33 104 -76t38 -117zM394 -155q0 -46 -33.5 -78.5t-80.5 -32.5q-43 0 -69.5 26t-26.5 64q0 45 35.5 77.5t82.5 32.5q40 0 66 -24.5t26 -64.5z" />
<glyph unicode="&#x1e63;" horiz-adv-x="452" d="M410 485l-10 -132q-82 42 -148 42q-52 0 -52 -31q0 -18 23.5 -32t57 -27.5t66.5 -30.5t56.5 -50t23.5 -77q0 -73 -59 -115t-161 -42q-117 0 -182 39l10 129q43 -24 91.5 -38.5t81.5 -14.5q49 0 49 30q0 18 -23.5 32.5t-56.5 28t-66.5 31t-57 49.5t-23.5 75q0 73 61 116 t162 43q83 0 157 -25zM338 -155q0 -46 -33.5 -78.5t-80.5 -32.5q-43 0 -69.5 26t-26.5 64q0 45 35.5 77.5t82.5 32.5q40 0 66 -24.5t26 -64.5z" />
<glyph unicode="&#x1e6c;" horiz-adv-x="585" d="M385 0h-185v554q-60 -2 -190 -8l10 144h545l10 -144q-130 6 -190 8v-554zM398 -155q0 -46 -33.5 -78.5t-80.5 -32.5q-43 0 -69.5 26t-26.5 64q0 45 35.5 77.5t82.5 32.5q40 0 66 -24.5t26 -64.5z" />
<glyph unicode="&#x1e6d;" horiz-adv-x="419" d="M391 410l-141 4v-223q0 -76 61 -76q36 0 78 24l10 -108q-64 -41 -148 -41q-86 0 -133.5 51.5t-47.5 148.5v228l-65 2v60l70 20l45 131l110 8l22 -21l-2 -118h137l12 -20zM324 -155q0 -46 -33.5 -78.5t-80.5 -32.5q-43 0 -69.5 26t-26.5 64q0 45 35.5 77.5t82.5 32.5 q40 0 66 -24.5t26 -64.5z" />
<glyph unicode="&#x1e80;" horiz-adv-x="960" d="M627 761q-169 2 -296 63l-10 29l107 91q93 -74 211 -142zM174 0l-171 681l198 19l70 -348q5 -26 10.5 -58.5l11 -65t7.5 -45.5q5 24 36 167l74 340l178 10l73 -348q11 -50 35 -169q20 118 31 171l72 346l148 -10l10 -19l-171 -671h-205l-53 223q-9 39 -23.5 112.5 t-21.5 104.5h-3q-31 -152 -48 -220l-53 -220h-205z" />
<glyph unicode="&#x1e81;" horiz-adv-x="816" d="M465 566q-94 73 -156 170l10 30l160 8q18 -90 56 -198zM121 0l-116 495l185 15l44 -253q18 -111 19 -117h3q2 19 9 60.5t9 56.5l37 243h229l39 -243q18 -111 19 -117h3q4 31 18 117l42 253l140 -10l10 -20l-116 -480h-230l-35 204q-20 114 -23 156h-3q-3 -39 -23 -157 l-35 -203h-225z" />
<glyph unicode="&#x1e82;" horiz-adv-x="960" d="M639 853l-10 -29q-127 -61 -296 -63l-12 41q118 68 211 142zM174 0l-171 681l198 19l70 -348q5 -26 10.5 -58.5l11 -65t7.5 -45.5q5 24 36 167l74 340l178 10l73 -348q11 -50 35 -169q20 118 31 171l72 346l148 -10l10 -19l-171 -671h-205l-53 223q-9 39 -23.5 112.5 t-21.5 104.5h-3q-31 -152 -48 -220l-53 -220h-205z" />
<glyph unicode="&#x1e83;" horiz-adv-x="816" d="M525 766l10 -30q-62 -97 -156 -170l-70 10q38 108 56 198zM121 0l-116 495l185 15l44 -253q18 -111 19 -117h3q2 19 9 60.5t9 56.5l37 243h229l39 -243q18 -111 19 -117h3q4 31 18 117l42 253l140 -10l10 -20l-116 -480h-230l-35 204q-20 114 -23 156h-3q-3 -39 -23 -157 l-35 -203h-225z" />
<glyph unicode="&#x1e84;" horiz-adv-x="960" d="M691 858q0 -39 -28.5 -65t-71.5 -26q-35 0 -58 20.5t-23 50.5q0 37 30 64t72 27q33 0 56 -20t23 -51zM450 858q0 -39 -28.5 -65t-71.5 -26q-35 0 -58 20.5t-23 50.5q0 37 30 64t72 27q33 0 56 -20t23 -51zM174 0l-171 681l198 19l70 -348q5 -26 10.5 -58.5l11 -65 t7.5 -45.5q5 24 36 167l74 340l178 10l73 -348q11 -50 35 -169q20 118 31 171l72 346l148 -10l10 -19l-171 -671h-205l-53 223q-9 39 -23.5 112.5t-21.5 104.5h-3q-31 -152 -48 -220l-53 -220h-205z" />
<glyph unicode="&#x1e85;" horiz-adv-x="816" d="M397 676q0 -42 -30 -72t-73 -30q-39 0 -63 24t-24 59q0 41 32 71.5t75 30.5q36 0 59.5 -23t23.5 -60zM636 676q0 -42 -30 -72t-73 -30q-39 0 -63 24t-24 59q0 41 32 71.5t75 30.5q36 0 59.5 -23t23.5 -60zM121 0l-116 495l185 15l44 -253q18 -111 19 -117h3q2 19 9 60.5 t9 56.5l37 243h229l39 -243q18 -111 19 -117h3q4 31 18 117l42 253l140 -10l10 -20l-116 -480h-230l-35 204q-20 114 -23 156h-3q-3 -39 -23 -157l-35 -203h-225z" />
<glyph unicode="&#x1e92;" horiz-adv-x="584" d="M60 0l-30 120l311 419l-296 -9l10 160h447l47 -120l-307 -418l300 8l-10 -160h-472zM397 -155q0 -46 -33.5 -78.5t-80.5 -32.5q-43 0 -69.5 26t-26.5 64q0 45 35.5 77.5t82.5 32.5q40 0 66 -24.5t26 -64.5z" />
<glyph unicode="&#x1e93;" horiz-adv-x="460" d="M23 355l10 145h377l20 -115l-211 -245h61q87 0 160 10l-10 -150h-390l-20 115l220 244zM335 -155q0 -46 -33.5 -78.5t-80.5 -32.5q-43 0 -69.5 26t-26.5 64q0 45 35.5 77.5t82.5 32.5q40 0 66 -24.5t26 -64.5z" />
<glyph unicode="&#x1e9e;" horiz-adv-x="710" d="M67 187v263q0 117 76.5 183.5t204.5 66.5q107 0 179.5 -47t89.5 -135l-124 -137q84 -36 130.5 -85t46.5 -123q0 -89 -60 -136t-153 -47q-90 0 -148 29v151q57 -40 113 -40q58 0 58 47q0 30 -32 57t-139 82v39l117 153q-20 53 -84 53q-42 0 -66 -32.5t-24 -94.5v-316 q0 -38 -9.5 -76t-28.5 -52l-169 10q22 65 22 187z" />
<glyph unicode="&#x1ea0;" horiz-adv-x="650" d="M180 0h-175l166 580q20 67 27 110l224 9l30 -25l193 -674h-185l-35 130h-210zM262 305l-12 -45h140l-12 44q-38 145 -55 238h-5q-25 -124 -56 -237zM430 -155q0 -46 -33.5 -78.5t-80.5 -32.5q-43 0 -69.5 26t-26.5 64q0 45 35.5 77.5t82.5 32.5q40 0 66 -24.5t26 -64.5z " />
<glyph unicode="&#x1ea1;" horiz-adv-x="526" d="M304 58q-21 -31 -59.5 -49.5t-85.5 -18.5q-60 0 -97 31.5t-37 91.5q0 157 265 164v28q0 75 -80 75q-76 0 -151 -40l-10 135q103 35 208 35q213 0 213 -187q0 -35 -2.5 -96t-2.5 -97q0 -69 21 -130l-148 -10q-16 26 -29 68h-5zM200 145q0 -25 14 -40t37 -15t39 12v123 q-40 -5 -65 -25.5t-25 -54.5zM367 -155q0 -46 -33.5 -78.5t-80.5 -32.5q-43 0 -69.5 26t-26.5 64q0 45 35.5 77.5t82.5 32.5q40 0 66 -24.5t26 -64.5z" />
<glyph unicode="&#x1eb8;" horiz-adv-x="555" d="M530 140v-140h-465v511q0 116 -10 179h449l20 -20l-4 -120l-270 10v-161l220 5l-5 -127l-215 7v-154zM423 -155q0 -46 -33.5 -78.5t-80.5 -32.5q-43 0 -69.5 26t-26.5 64q0 45 35.5 77.5t82.5 32.5q40 0 66 -24.5t26 -64.5z" />
<glyph unicode="&#x1eb9;" horiz-adv-x="536" d="M505 245l-15 -15h-266q19 -115 136 -115q62 0 117 29l10 -113q-66 -41 -177 -41q-126 0 -200.5 66t-74.5 186q0 119 72.5 193.5t183.5 74.5q99 0 157 -59.5t58 -154.5q0 -34 -1 -51zM284 410q-31 0 -47.5 -34.5t-16.5 -88.5l109 6q2 18 2 36q0 81 -47 81zM395 -155 q0 -46 -33.5 -78.5t-80.5 -32.5q-43 0 -69.5 26t-26.5 64q0 45 35.5 77.5t82.5 32.5q40 0 66 -24.5t26 -64.5z" />
<glyph unicode="&#x1ebc;" horiz-adv-x="555" d="M225 943q35 0 83.5 -28.5t72.5 -28.5q19 0 30.5 10t26.5 33l44 -7q0 -62 -27 -106.5t-79 -44.5q-32 0 -86.5 28.5t-75.5 28.5q-30 0 -55 -43l-44 7q0 63 26 107t84 44zM530 140v-140h-465v511q0 116 -10 179h449l20 -20l-4 -120l-270 10v-161l220 5l-5 -127l-215 7v-154z " />
<glyph unicode="&#x1ebd;" horiz-adv-x="536" d="M192 762q36 0 86.5 -28.5t73.5 -28.5q18 0 28.5 10t23.5 33l49 -7q0 -70 -27 -120.5t-79 -50.5q-32 0 -89.5 28.5t-76.5 28.5q-28 0 -50 -43l-48 7q0 71 26 121t83 50zM505 245l-15 -15h-266q19 -115 136 -115q62 0 117 29l10 -113q-66 -41 -177 -41q-126 0 -200.5 66 t-74.5 186q0 119 72.5 193.5t183.5 74.5q99 0 157 -59.5t58 -154.5q0 -34 -1 -51zM284 410q-31 0 -47.5 -34.5t-16.5 -88.5l109 6q2 18 2 36q0 81 -47 81z" />
<glyph unicode="&#x1eca;" horiz-adv-x="315" d="M250 0h-185v503q0 110 -10 187l175 10l20 -20v-680zM264 -155q0 -46 -33.5 -78.5t-80.5 -32.5q-43 0 -69.5 26t-26.5 64q0 45 35.5 77.5t82.5 32.5q40 0 66 -24.5t26 -64.5z" />
<glyph unicode="&#x1ecb;" horiz-adv-x="295" d="M253 675q0 -46 -33.5 -78.5t-80.5 -32.5q-43 0 -69.5 26t-26.5 64q0 45 35.5 77.5t82.5 32.5q40 0 66 -24.5t26 -64.5zM55 0v313q0 91 -15 178l175 19l20 -20v-490h-180zM257 -155q0 -46 -33.5 -78.5t-80.5 -32.5q-43 0 -69.5 26t-26.5 64q0 45 35.5 77.5t82.5 32.5 q40 0 66 -24.5t26 -64.5z" />
<glyph unicode="&#x1ecc;" horiz-adv-x="715" d="M685 347q0 -168 -95 -262.5t-241 -94.5q-143 0 -231 92t-88 252q0 166 94 266t243 100q147 0 232.5 -96.5t85.5 -256.5zM220 350q0 -98 34.5 -161.5t104.5 -63.5q136 0 136 220t-135 220q-70 0 -105 -58.5t-35 -156.5zM473 -155q0 -46 -33.5 -78.5t-80.5 -32.5 q-43 0 -69.5 26t-26.5 64q0 45 35.5 77.5t82.5 32.5q40 0 66 -24.5t26 -64.5z" />
<glyph unicode="&#x1ecd;" horiz-adv-x="568" d="M533 253q0 -125 -74 -194t-182 -69q-106 0 -174 66t-68 184q0 123 73 196.5t184 73.5q109 0 175 -70t66 -187zM220 255q0 -82 15 -123.5t51 -41.5t49 39t13 114q0 85 -14.5 126t-50.5 41q-34 0 -48.5 -37t-14.5 -118zM389 -155q0 -46 -33.5 -78.5t-80.5 -32.5 q-43 0 -69.5 26t-26.5 64q0 45 35.5 77.5t82.5 32.5q40 0 66 -24.5t26 -64.5z" />
<glyph unicode="&#x1ee4;" horiz-adv-x="680" d="M55 503q0 105 -10 187l175 10l20 -20v-424q0 -127 106 -127q104 0 104 127v287q0 80 -10 147l185 8v-458q0 -120 -82 -185t-207 -65q-124 0 -202.5 65t-78.5 185v263zM445 -155q0 -46 -33.5 -78.5t-80.5 -32.5q-43 0 -69.5 26t-26.5 64q0 45 35.5 77.5t82.5 32.5 q40 0 66 -24.5t26 -64.5z" />
<glyph unicode="&#x1ee5;" horiz-adv-x="580" d="M55 312q0 91 -14 178l174 20l20 -20v-299q0 -68 54 -68q26 0 51 13v364l180 10v-380q0 -62 16 -130l-148 -10q-18 32 -29 73h-6q-68 -73 -156 -73q-64 0 -103 39.5t-39 104.5v178zM397 -155q0 -46 -33.5 -78.5t-80.5 -32.5q-43 0 -69.5 26t-26.5 64q0 45 35.5 77.5 t82.5 32.5q40 0 66 -24.5t26 -64.5z" />
<glyph unicode="&#x1ef2;" horiz-adv-x="584" d="M462 761q-169 2 -296 63l-10 29l107 91q93 -74 211 -142zM199 216l-196 465l198 19l61 -194q42 -130 47 -151h3q5 16 23.5 70.5t26.5 78.5l61 196l148 -10l10 -19l-197 -455v-216h-185v216z" />
<glyph unicode="&#x1ef3;" horiz-adv-x="507" d="M307 566q-94 73 -156 170l10 30l160 8q18 -90 56 -198zM502 480l-125 -427q-16 -56 -31.5 -95.5t-42.5 -83.5t-59.5 -71t-83.5 -45t-114 -18l-25 150q166 0 212 110h-85l-143 495l190 15l55 -263q18 -84 22 -137h3q3 29 25 137l54 263l138 -10z" />
<glyph unicode="&#x1ef8;" horiz-adv-x="584" d="M241 933q35 0 83.5 -28.5t72.5 -28.5q19 0 30.5 10t26.5 33l44 -7q0 -62 -27 -106.5t-79 -44.5q-32 0 -86.5 28.5t-75.5 28.5q-30 0 -55 -43l-44 7q0 63 26 107t84 44zM199 216l-196 465l198 19l61 -194q42 -130 47 -151h3q5 16 23.5 70.5t26.5 78.5l61 196l148 -10 l10 -19l-197 -455v-216h-185v216z" />
<glyph unicode="&#x1ef9;" horiz-adv-x="507" d="M188 762q36 0 86.5 -28.5t73.5 -28.5q18 0 28.5 10t23.5 33l49 -7q0 -70 -27 -120.5t-79 -50.5q-32 0 -89.5 28.5t-76.5 28.5q-28 0 -50 -43l-48 7q0 71 26 121t83 50zM502 480l-125 -427q-16 -56 -31.5 -95.5t-42.5 -83.5t-59.5 -71t-83.5 -45t-114 -18l-25 150 q166 0 212 110h-85l-143 495l190 15l55 -263q18 -84 22 -137h3q3 29 25 137l54 263l138 -10z" />
<glyph unicode="&#x2007;" />
<glyph unicode="&#x2013;" horiz-adv-x="595" d="M30 251v50h535v-50h-535z" />
<glyph unicode="&#x2014;" horiz-adv-x="924" d="M30 251v50h864v-50h-864z" />
<glyph unicode="&#x2018;" horiz-adv-x="298" d="M263 731q-65 -71 -84 -140q32 -6 53 -31.5t21 -60.5q0 -44 -31.5 -76.5t-76.5 -32.5q-43 0 -71.5 28t-28.5 81q0 74 53 151.5t114 127.5z" />
<glyph unicode="&#x2019;" horiz-adv-x="298" d="M35 419q65 71 84 140q-32 6 -53 31.5t-21 60.5q0 44 31.5 76.5t76.5 32.5q43 0 71.5 -28t28.5 -81q0 -74 -53 -151.5t-114 -127.5z" />
<glyph unicode="&#x201a;" horiz-adv-x="298" d="M35 -148q65 71 84 140q-32 6 -53 31.5t-21 60.5q0 44 31.5 76.5t76.5 32.5q43 0 71.5 -28t28.5 -81q0 -74 -53 -151.5t-114 -127.5z" />
<glyph unicode="&#x201c;" horiz-adv-x="568" d="M263 731q-65 -71 -84 -140q32 -6 53 -31.5t21 -60.5q0 -44 -31.5 -76.5t-76.5 -32.5q-43 0 -71.5 28t-28.5 81q0 74 53 151.5t114 127.5zM533 731q-65 -71 -84 -140q32 -6 53 -31.5t21 -60.5q0 -44 -31.5 -76.5t-76.5 -32.5q-43 0 -71.5 28t-28.5 81q0 74 53 151.5 t114 127.5z" />
<glyph unicode="&#x201d;" horiz-adv-x="568" d="M305 419q65 71 84 140q-32 6 -53 31.5t-21 60.5q0 44 31.5 76.5t76.5 32.5q43 0 71.5 -28t28.5 -81q0 -74 -53 -151.5t-114 -127.5zM35 419q65 71 84 140q-32 6 -53 31.5t-21 60.5q0 44 31.5 76.5t76.5 32.5q43 0 71.5 -28t28.5 -81q0 -74 -53 -151.5t-114 -127.5z" />
<glyph unicode="&#x201e;" horiz-adv-x="562" d="M35 -148q65 71 84 140q-32 6 -53 31.5t-21 60.5q0 44 31.5 76.5t76.5 32.5q43 0 71.5 -28t28.5 -81q0 -74 -53 -151.5t-114 -127.5zM299 -148q65 71 84 140q-32 6 -53 31.5t-21 60.5q0 44 31.5 76.5t76.5 32.5q43 0 71.5 -28t28.5 -81q0 -74 -53 -151.5t-114 -127.5z" />
<glyph unicode="&#x2020;" horiz-adv-x="506" d="M308 14l-8 -14h-94l-8 14l-43 134l55 294l-159 -22l-4 3q-7 54 -7 117l14 8l153 -22l-42 163l3 4q77 7 165 7l8 -8l-42 -166l156 22l4 -3q7 -72 7 -117l-14 -8l-156 22l55 -294z" />
<glyph unicode="&#x2021;" horiz-adv-x="506" d="M167 -10l-8 8l51 169l-156 -35l-14 8q0 83 7 137l4 3l161 -35q-20 80 -20 100t20 100l-161 -35l-4 3q-7 54 -7 137l14 8l156 -35l-51 166l3 4q82 7 177 7l8 -8l-51 -169l159 35l4 -3q7 -72 7 -137l-14 -8l-158 35q20 -80 20 -100t-20 -100l158 35l14 -8q0 -65 -7 -137 l-4 -3l-159 35l51 -166l-3 -4q-82 -7 -177 -7z" />
<glyph unicode="&#x2022;" horiz-adv-x="524" d="M256 88q-66 0 -110 40.5t-46 99.5q-3 69 50.5 121t126.5 52q62 0 103.5 -39t43.5 -101q3 -72 -46 -122.5t-122 -50.5z" />
<glyph unicode="&#x2026;" horiz-adv-x="848" d="M254 93q0 -44 -30.5 -73.5t-75.5 -29.5t-73.5 29t-28.5 70q0 43 32.5 73.5t77.5 30.5q42 0 70 -27.5t28 -72.5zM528 93q0 -44 -30.5 -73.5t-75.5 -29.5t-73.5 29t-28.5 70q0 43 32.5 73.5t77.5 30.5q42 0 70 -27.5t28 -72.5zM802 93q0 -44 -30.5 -73.5t-75.5 -29.5 t-73.5 29t-28.5 70q0 43 32.5 73.5t77.5 30.5q42 0 70 -27.5t28 -72.5z" />
<glyph unicode="&#x2030;" horiz-adv-x="1440" d="M738 700l-425 -710h-65l424 710h66zM445 499q0 -97 -61 -151t-150 -54q-88 0 -143.5 51.5t-55.5 143.5q0 96 60 153.5t152 57.5q89 0 143.5 -54.5t54.5 -146.5zM189 501q0 -63 12 -95t41 -32t39 29.5t10 87.5q0 66 -11.5 97.5t-40.5 31.5q-28 0 -39 -28t-11 -91zM921 127 q0 -97 -61 -151t-150 -54q-88 0 -143.5 51.5t-55.5 143.5q0 96 60 153.5t152 57.5q89 0 143.5 -54.5t54.5 -146.5zM1405 127q0 -97 -61 -151t-150 -54q-88 0 -143.5 51.5t-55.5 143.5q0 96 60 153.5t152 57.5q89 0 143.5 -54.5t54.5 -146.5zM665 129q0 -63 12 -95t41 -32 t39 29.5t10 87.5q0 66 -11.5 97.5t-40.5 31.5q-28 0 -39 -28t-11 -91zM1149 129q0 -63 12 -95t41 -32t39 29.5t10 87.5q0 66 -11.5 97.5t-40.5 31.5q-28 0 -39 -28t-11 -91z" />
<glyph unicode="&#x2039;" horiz-adv-x="295" d="M37 269v48q88 71 173 183l46 -18q-21 -95 -86 -189q65 -94 86 -189l-46 -18q-85 112 -173 183z" />
<glyph unicode="&#x203a;" horiz-adv-x="295" d="M258 269q-88 -71 -173 -183l-46 18q21 95 86 189q-65 94 -86 189l46 18q85 -112 173 -183v-48z" />
<glyph unicode="&#x2044;" horiz-adv-x="630" d="M560 700l-425 -710h-65l424 710h66z" />
<glyph unicode="&#x2070;" horiz-adv-x="454" d="M419 557q0 -101 -57 -157t-140 -56q-82 0 -134.5 54t-52.5 150q0 99 56 158.5t142 59.5q84 0 135 -57t51 -152zM173 558q0 -72 11.5 -106.5t44.5 -34.5q18 0 29 9t16 30.5t6 41t1 54.5q0 74 -11 107t-45 33q-31 0 -41.5 -30.5t-10.5 -103.5z" />
<glyph unicode="&#x2074;" horiz-adv-x="437" d="M35 512l151 248l148 6l15 -13v-229q20 1 53 5l-7 -93h-46v-84h-126v84h-174zM142 524v-2h11.5t28 0.5t40.5 0.5v40q0 81 6 119h-2z" />
<glyph unicode="&#x2075;" horiz-adv-x="414" d="M60 358l11 84q42 -14 94 -14q67 0 67 50q0 46 -58 46q-38 0 -86 -18l-18 10v242h177q64 0 104 6l-7 -101h-167v-60q25 5 51 5q63 0 102 -32t39 -89q0 -69 -56 -106t-144 -37q-61 0 -109 14z" />
<glyph unicode="&#x2076;" horiz-adv-x="419" d="M214 344q-77 0 -128 45t-51 134q0 103 69.5 173t187.5 70q36 0 56 -6l-11 -88q-26 6 -46 6q-38 0 -72 -22.5t-44 -64.5h2q40 7 69 7q61 0 97 -31t36 -86q0 -64 -47 -100.5t-118 -36.5zM203 525q-13 0 -31 -6q-1 -61 5.5 -81.5t27.5 -20.5q37 0 37 53q0 55 -39 55z" />
<glyph unicode="&#x2077;" horiz-adv-x="369" d="M30 651l9 107h304l16 -14v-67q-80 -73 -114.5 -150t-36.5 -175h-138q6 91 51.5 173.5t117.5 135.5v2h-66q-88 0 -143 -12z" />
<glyph unicode="&#x2078;" horiz-adv-x="441" d="M214 344q-81 0 -127.5 30.5t-46.5 80.5q0 41 29.5 70t69.5 37v2q-23 13 -37 23t-27.5 29.5t-13.5 42.5q0 46 45 76.5t119 30.5q77 0 116 -31.5t39 -69.5q0 -27 -20.5 -52.5t-54.5 -40.5v-2q96 -38 96 -104q0 -49 -49 -85.5t-138 -36.5zM221 699q-16 0 -27 -9t-11 -25 q0 -34 49 -55q26 26 26 55q0 15 -10.5 24.5t-26.5 9.5zM210 514q-44 -18 -44 -58q0 -20 14 -33t39 -13q23 0 39.5 11t16.5 32q0 39 -65 61z" />
<glyph unicode="&#x2079;" horiz-adv-x="419" d="M40 625q0 66 47.5 103.5t120.5 37.5q76 0 126 -44t50 -133q0 -101 -65 -173t-185 -72q-31 0 -51 5l-2 86q34 -4 48 -4q51 0 78.5 19t37.5 60q-35 -8 -63 -8q-65 0 -103.5 32t-38.5 91zM177 632q0 -58 44 -58q11 0 24 3q-1 58 -8 83t-28 25q-32 0 -32 -53z" />
<glyph unicode="&#x207f;" horiz-adv-x="488" d="M198 290h-150v243q0 55 -16 132l141 23q14 -36 18 -55q61 55 130 55q53 0 84 -33.5t31 -91.5v-273h-150v246q0 56 -46 56q-20 0 -42 -12v-290z" />
<glyph unicode="&#x2080;" horiz-adv-x="454" d="M419 133q0 -101 -57 -157t-140 -56q-82 0 -134.5 54t-52.5 150q0 99 56 158.5t142 59.5q84 0 135 -57t51 -152zM173 134q0 -72 11.5 -106.5t44.5 -34.5q18 0 29 9t16 30.5t6 41t1 54.5q0 74 -11 107t-45 33q-31 0 -41.5 -30.5t-10.5 -103.5z" />
<glyph unicode="&#x2081;" horiz-adv-x="306" d="M109 224h-2l-59 -4l-18 75l196 49l15 -14v-400h-134v215q0 56 2 79z" />
<glyph unicode="&#x2082;" horiz-adv-x="389" d="M55 -70l-15 83q45 20 105.5 78t60.5 109q0 25 -13.5 40.5t-38.5 15.5q-44 0 -101 -41l-12 96q70 33 146 33q69 0 113 -32t44 -83q0 -56 -53 -113.5t-124 -91.5h62q54 0 105 6l-7 -100h-272z" />
<glyph unicode="&#x2083;" horiz-adv-x="391" d="M43 310q66 32 143 32q62 0 102 -26.5t40 -66.5q0 -31 -23.5 -59t-61.5 -40q49 -9 78.5 -37.5t29.5 -67.5q0 -55 -55 -90t-141 -35q-66 0 -115 14l12 80q42 -14 96 -14q29 0 47.5 10.5t18.5 30.5q0 40 -85 40q-16 0 -58 -4v80q47 2 83.5 17.5t36.5 45.5q0 34 -46 34 q-47 0 -97 -25z" />
<glyph unicode="&#x2084;" horiz-adv-x="437" d="M35 90l151 248l148 6l15 -13v-229q20 1 53 5l-7 -93h-46v-84h-126v84h-174zM142 102v-2h11.5t28 0.5t40.5 0.5v40q0 81 6 119h-2z" />
<glyph unicode="&#x2085;" horiz-adv-x="414" d="M60 -66l11 84q42 -14 94 -14q67 0 67 50q0 46 -58 46q-38 0 -86 -18l-18 10v242h177q64 0 104 6l-7 -101h-167v-60q25 5 51 5q63 0 102 -32t39 -89q0 -69 -56 -106t-144 -37q-61 0 -109 14z" />
<glyph unicode="&#x2086;" horiz-adv-x="419" d="M214 -80q-77 0 -128 45t-51 134q0 103 69.5 173t187.5 70q36 0 56 -6l-11 -88q-26 6 -46 6q-38 0 -72 -22.5t-44 -64.5h2q40 7 69 7q61 0 97 -31t36 -86q0 -64 -47 -100.5t-118 -36.5zM203 101q-13 0 -31 -6q-1 -61 5.5 -81.5t27.5 -20.5q37 0 37 53q0 55 -39 55z" />
<glyph unicode="&#x2087;" horiz-adv-x="369" d="M30 229l9 107h304l16 -14v-67q-80 -73 -114.5 -150t-36.5 -175h-138q6 91 51.5 173.5t117.5 135.5v2h-66q-88 0 -143 -12z" />
<glyph unicode="&#x2088;" horiz-adv-x="441" d="M214 -80q-81 0 -127.5 30.5t-46.5 80.5q0 41 29.5 70t69.5 37v2q-23 13 -37 23t-27.5 29.5t-13.5 42.5q0 46 45 76.5t119 30.5q77 0 116 -31.5t39 -69.5q0 -27 -20.5 -52.5t-54.5 -40.5v-2q96 -38 96 -104q0 -49 -49 -85.5t-138 -36.5zM221 275q-16 0 -27 -9t-11 -25 q0 -34 49 -55q26 26 26 55q0 15 -10.5 24.5t-26.5 9.5zM210 90q-44 -18 -44 -58q0 -20 14 -33t39 -13q23 0 39.5 11t16.5 32q0 39 -65 61z" />
<glyph unicode="&#x2089;" horiz-adv-x="419" d="M40 201q0 66 47.5 103.5t120.5 37.5q76 0 126 -44t50 -133q0 -101 -65 -173t-185 -72q-31 0 -51 5l-2 86q34 -4 48 -4q51 0 78.5 19t37.5 60q-35 -8 -63 -8q-65 0 -103.5 32t-38.5 91zM177 208q0 -58 44 -58q11 0 24 3q-1 58 -8 83t-28 25q-32 0 -32 -53z" />
<glyph unicode="&#x20ac;" horiz-adv-x="570" d="M10 247l5 60h55q-1 8 -1 24t2 46h-50l5 60h54q26 122 109.5 192.5t202.5 70.5q96 0 159 -40l-34 -155q-74 45 -125 45q-44 0 -76 -30t-46 -83h173l-5 -60h-178q-1 -11 -1 -34q0 -14 2 -36h171l-5 -60h-155q33 -107 136 -107q66 0 126 38l21 -148q-74 -40 -170 -40 q-128 0 -208.5 67.5t-100.5 189.5h-66z" />
<glyph unicode="&#x2122;" horiz-adv-x="569" d="M517 692l10 -7l22 -225h-72l-8 78q-3 33 -4 88h-2q-2 -38 -15 -88l-18 -78h-81l-18 78q-12 54 -15 89h-1q-2 -62 -5 -89l-8 -78h-60l23 229l102 3l10 -42q11 -50 19 -123h1q7 83 18 123l10 39zM161 460h-74v175q-21 0 -67 -2l4 56h201l4 -56q-48 2 -68 2v-175z" />
<glyph unicode="&#x2202;" horiz-adv-x="713" d="M340 760q81 0 143 -30t98 -82t54 -116.5t18 -139.5q0 -72 -16.5 -138.5t-52.5 -128t-103.5 -98.5t-159.5 -37q-122 0 -191.5 61.5t-69.5 164.5q0 112 80.5 186.5t220.5 74.5q53 0 97 -13q-13 78 -54.5 119.5t-108.5 41.5q-89 0 -162 -63l-57 113q47 36 117.5 60.5 t146.5 24.5zM250 221q0 -46 22.5 -70.5t61.5 -24.5q57 0 91 52t38 151q-39 12 -77 12q-68 0 -102 -33t-34 -87z" />
<glyph unicode="&#x220f;" horiz-adv-x="769" d="M729 670l-5 -114h-70v-696h-180v696h-179v-696h-180v696h-70l-5 134h669z" />
<glyph unicode="&#x2211;" horiz-adv-x="600" d="M35 -20l219 295l-219 295l30 120h495l20 -20l-4 -120l-346 9l195 -262v-44l-194 -262l349 9v-140h-515z" />
<glyph unicode="&#x2212;" d="M530 303h-450v85q170 5 452 5l8 -8z" />
<glyph unicode="&#x221a;" horiz-adv-x="656" d="M636 731l-208 -731h-189l-126 366h-108v134h237l101 -371l135 631l148 -10z" />
<glyph unicode="&#x221e;" horiz-adv-x="840" d="M780 271q0 -85 -51 -140.5t-133 -55.5q-57 0 -97.5 27t-75.5 75q-75 -102 -186 -102q-78 0 -127.5 54.5t-49.5 139.5t51 140.5t133 55.5q101 0 174 -100q75 100 185 100q78 0 127.5 -54.5t49.5 -139.5zM587 375q-36 0 -69 -24t-54 -61l2 -4q31 -59 62 -90t71 -31 q38 0 62 29t24 78q0 46 -27.5 74.5t-70.5 28.5zM155 272q0 -49 27 -77.5t71 -28.5q35 0 69.5 25.5t53.5 58.5l-2 4q-26 44 -41.5 65t-39.5 38.5t-52 17.5q-38 0 -62 -27.5t-24 -75.5z" />
<glyph unicode="&#x222b;" horiz-adv-x="432" d="M149 -145q19 0 26.5 11.5t7.5 41.5q0 36 -48 328q-41 251 -41 312q0 106 54 159t149 53q73 0 137 -25l-10 -132q-72 42 -125 42q-19 0 -27 -11t-8 -38q0 -21 49 -332q5 -30 13 -80t11.5 -73.5t8 -55.5t6 -54.5t1.5 -43.5q0 -111 -53.5 -164t-149.5 -53q-73 0 -137 25 l10 132q72 -42 126 -42z" />
<glyph unicode="&#x2248;" d="M441 312q-25 0 -139 25t-129 25q-10 0 -49 -47q-5 -7 -8 -10l-51 34q18 34 31.5 54.5t37 42.5t45.5 22q25 0 139.5 -25t128.5 -25q10 0 49 47q5 7 8 10l51 -34q-18 -34 -31.5 -54.5t-37 -42.5t-45.5 -22zM441 88q-25 0 -139 25t-129 25q-10 0 -49 -47q-3 -3 -4.5 -5.5 t-3.5 -4.5l-51 34q18 34 31.5 54.5t37 42.5t45.5 22q25 0 139.5 -25t128.5 -25q10 0 49 47q5 7 8 10l51 -34q-18 -34 -31.5 -54.5t-37 -42.5t-45.5 -22z" />
<glyph unicode="&#x2260;" d="M147 125l37 78h-104v85q43 1 146 3l54 112h-200v85q53 2 242 4l53 110l11 3l73 -40l-35 -72h108l8 -8l-10 -82h-149l-53 -111q79 1 204 1l8 -8l-10 -82h-245l-55 -115l-10 -3z" />
<glyph unicode="&#x2264;" d="M223 431l312 -118v-90l-465 177v55l6 11q239 92 458 168v-90zM525 75h-450v85q170 5 452 5l8 -8z" />
<glyph unicode="&#x2265;" d="M85 223v90l312 118l-311 113v90q219 -76 458 -168l6 -11v-55zM535 75h-450v85q170 5 452 5l8 -8z" />
<glyph unicode="&#x25ca;" horiz-adv-x="643" d="M60 319v46l209 325l97 10l217 -336v-45l-213 -319l-96 -10zM320 62h1l174 280l-175 287h-1l-171 -288z" />
<glyph unicode="&#x25fc;" horiz-adv-x="510" d="M0 510h510v-510h-510v510z" />
<glyph unicode="&#xfb00;" horiz-adv-x="702" d="M265 0h-180v395l-70 5v60l70 20q-3 32 -3 55q0 98 65 151.5t174 53.5q77 0 141 -26q61 46 163 46q92 0 147 -34l-35 -131q-61 35 -107 35q-32 0 -49 -18t-17 -51q0 -21 3 -81h123l12 -18l-5 -72l-127 4v-394h-180v395h-125v-395zM259 534q0 -6 3 -54h128q-3 37 -3 67 q0 34 7 61q-29 17 -65 17q-70 0 -70 -91z" />
<glyph unicode="&#xfb01;" horiz-adv-x="630" d="M265 0h-180v395l-70 5v60l70 20q-3 38 -3 63q0 105 62.5 161t170.5 56q137 0 220 -70l-82 -106q-66 46 -127 46q-35 0 -51 -19.5t-16 -60.5q0 -39 3 -70h113l175 30l20 -20v-490h-180v313q0 39 -3 77l-122 4v-394z" />
<glyph unicode="&#xfb02;" horiz-adv-x="630" d="M265 0h-180v395l-70 5v60l70 20q-3 38 -3 67q0 102 63 157.5t175 55.5q56 0 104 -14l126 14l20 -20v-740h-180v390l-125 4v-394zM259 561q0 -21 3 -81h128v83q0 37 -1 55q-36 12 -64 12q-32 0 -49 -18t-17 -51z" />
<glyph unicode="&#xfb03;" horiz-adv-x="935" d="M265 0h-180v395l-70 5v60l70 20q-3 32 -3 55q0 98 65 151.5t174 53.5q77 0 141 -26q60 46 158 46q137 0 220 -70l-82 -106q-66 46 -127 46q-35 0 -51 -19.5t-16 -60.5q0 -39 3 -70h113l175 30l20 -20v-490h-180v313q0 39 -3 77l-122 4v-394h-180v395h-125v-395zM259 534 q0 -6 3 -54h128q-3 37 -3 63q0 30 4 51q-29 16 -62 16q-70 0 -70 -76z" />
<glyph unicode="&#xfb04;" horiz-adv-x="935" d="M265 0h-180v395l-70 5v60l70 20q-3 32 -3 55q0 98 65 151.5t174 53.5q77 0 141 -26q61 46 163 46q56 0 104 -14l126 14l20 -20v-740h-180v390l-125 4v-394h-180v395h-125v-395zM564 561q0 -21 3 -81h128v83q0 37 -1 55q-36 12 -64 12q-32 0 -49 -18t-17 -51zM259 534 q0 -6 3 -54h128q-3 37 -3 67q0 28 4 47q-29 16 -62 16q-70 0 -70 -76z" />
<glyph unicode="&#xfb06;" horiz-adv-x="856" d="M410 485l-10 -132q-82 42 -148 42q-52 0 -52 -31q0 -18 23.5 -32t57 -27.5t66.5 -30.5t56.5 -50t23.5 -77q0 -73 -59 -115t-161 -42q-117 0 -182 39l10 129q43 -24 91.5 -38.5t81.5 -14.5q49 0 49 30q0 18 -23.5 32.5t-56.5 28t-66.5 31t-57 49.5t-23.5 75q0 73 61 116 t162 43q34 0 67 -4q-14 33 -14 71q0 77 55.5 125t145.5 48q87 0 139 -46t52 -124q0 -38 -11 -80h137l12 -20l-8 -70l-141 4v-223q0 -76 61 -76q36 0 78 24l10 -108q-64 -41 -148 -41q-86 0 -133.5 51.5t-47.5 148.5v229l-55 1v60l60 20q10 50 10 64q0 35 -16 57t-44 22 q-30 0 -50.5 -23.5t-20.5 -59.5q0 -38 19 -75z" />
<glyph horiz-adv-x="315" d="M317 863l-10 -29q-127 -61 -296 -63l-12 41q118 68 211 142zM50 -225l-57 75q72 108 72 290v363q0 91 -15 178l181 19l19 -19v-541q0 -140 -41 -218.5t-159 -146.5z" />
<glyph horiz-adv-x="440" d="M252 -25q-38 -53 -118 -53q-49 0 -79.5 24.5t-30.5 71.5q0 123 217 128v20q0 57 -65 57q-62 0 -124 -30l-8 108q85 27 171 27q176 0 176 -148q0 -27 -2 -74t-2 -75q0 -56 17 -101l-123 -8q-13 20 -24 53h-5zM170 44q0 -19 11 -30.5t30 -11.5q16 0 30 8v95q-31 -3 -51 -19 t-20 -42z" />
<glyph horiz-adv-x="480" d="M448 129q0 -99 -50 -153t-143 -54q-50 0 -92 12l-119 -12v446q0 68 -12 140l145 15l17 -16v-211q44 32 98 32q73 0 114.5 -54t41.5 -145zM226 240q-17 0 -32 -6v-236q12 -4 27 -4q73 0 73 127q0 63 -16.5 91t-51.5 28z" />
<glyph horiz-adv-x="412" d="M388 295l-32 -108q-51 36 -98 36q-33 0 -52.5 -24.5t-19.5 -65.5q0 -52 27 -81t77 -29q34 0 81 22l8 -91q-49 -32 -131 -32q-98 1 -157 55.5t-59 143.5q0 91 61.5 149t158.5 58q80 0 136 -33z" />
<glyph horiz-adv-x="490" d="M299 -27q-42 -51 -111 -51q-71 0 -113.5 49.5t-42.5 135.5q0 104 62 162.5t165 58.5q19 0 28 -1v41q0 67 -12 140l145 15l17 -16v-476q0 -53 17 -101l-127 -8q-12 18 -25 52h-3v-1zM186 128q0 -57 18 -91.5t52 -34.5q17 0 31 8v246h-5q-96 0 -96 -128z" />
<glyph horiz-adv-x="448" d="M419 121l-12 -12h-217q17 -86 110 -86q52 0 96 22l8 -91q-52 -32 -145 -32q-104 0 -165.5 51.5t-61.5 145.5q0 92 60 150.5t151 58.5q81 0 129 -47t48 -121q0 -26 -1 -39zM237 248q-25 0 -38 -26.5t-13 -67.5l87 5q0 3 0.5 12t0.5 16q0 61 -37 61z" />
<glyph horiz-adv-x="360" d="M223 -70h-150v306l-57 4v48l57 16q-2 38 -2 51q0 81 52 124.5t145 43.5q76 0 121 -27l-29 -105q-49 27 -88 27q-54 0 -54 -51q0 -18 3 -63h100l10 -15l-4 -57l-104 3v-305z" />
<glyph horiz-adv-x="451" d="M80 -32q0 45 55 77q-48 15 -77 48t-29 79q0 65 53 110.5t137 45.5q68 0 110 -27q27 62 101 62l18 -15l-4 -84h-83l-3 -4q41 -29 41 -82q0 -64 -51.5 -104.5t-133.5 -40.5q-17 0 -25 1v-9q0 -15 8.5 -20t27.5 -6l78 -5q63 -4 101 -31t38 -76q0 -66 -66.5 -109t-178.5 -43 q-87 0 -140.5 25t-53.5 66q0 26 22 45.5t54 25.5l50 -20q-1 -3 -1 -8q0 -29 25 -49.5t66 -20.5q31 0 52 13.5t21 36.5q0 39 -65 45l-71 8q-76 10 -76 66zM258 181q0 79 -42 79q-46 0 -46 -81q0 -79 45 -79q43 0 43 81z" />
<glyph horiz-adv-x="484" d="M194 -70h-150v438q0 72 -12 140l145 15l17 -16v-228q58 49 123 49q53 0 84 -33.5t31 -91.5v-273h-150v246q0 56 -46 56q-20 0 -42 -12v-290z" />
<glyph horiz-adv-x="251" d="M213 459q0 -37 -27.5 -62.5t-67.5 -25.5q-35 0 -57.5 20.5t-22.5 50.5q0 36 29.5 62t69.5 26q33 0 54.5 -19.5t21.5 -51.5zM48 -70v243q0 72 -12 140l146 15l16 -16v-382h-150z" />
<glyph horiz-adv-x="253" d="M212 459q0 -37 -27.5 -62.5t-67.5 -25.5q-35 0 -57 20.5t-22 50.5q0 36 29 62t69 26q33 0 54.5 -19.5t21.5 -51.5zM70 -267l-58 49q39 86 39 197v194q0 66 -13 140l146 15l17 -16v-333q0 -91 -27 -142.5t-104 -103.5z" />
<glyph horiz-adv-x="468" d="M44 368q0 72 -12 140l145 15l17 -16v-356h23q43 79 86 177l126 -8l9 -16l-96 -140q32 -68 122 -234l-172 -8q-47 98 -70 157h-28v-149h-150v438z" />
<glyph horiz-adv-x="251" d="M198 -70h-150v438q0 72 -12 140l146 15l16 -16v-577z" />
<glyph horiz-adv-x="726" d="M198 -70h-150v243q0 55 -16 132l141 23q14 -36 18 -55q61 55 130 55q74 0 102 -61q63 61 136 61q53 0 84 -34t31 -92v-272h-150v246q0 56 -46 56q-19 0 -43 -12q1 -6 1 -18v-272h-150v246q0 56 -46 56q-20 0 -42 -12v-290z" />
<glyph horiz-adv-x="488" d="M198 -70h-150v243q0 55 -16 132l141 23q14 -36 18 -55q61 55 130 55q53 0 84 -33.5t31 -91.5v-273h-150v246q0 56 -46 56q-20 0 -42 -12v-290z" />
<glyph horiz-adv-x="474" d="M442 127q0 -97 -61 -151t-150 -54q-88 0 -143.5 51.5t-55.5 143.5q0 96 60 153.5t152 57.5q89 0 143.5 -54.5t54.5 -146.5zM186 129q0 -63 12 -95t41 -32t39 29.5t10 87.5q0 66 -11.5 97.5t-40.5 31.5q-28 0 -39 -28t-11 -91z" />
<glyph horiz-adv-x="485" d="M48 -249v422q0 52 -16 132l141 23q9 -19 15 -41q46 41 111 41q72 0 113 -54.5t41 -144.5q0 -100 -50 -153.5t-145 -53.5q-27 0 -60 5v-37q0 -72 12 -140l-145 -15zM231 240q-19 0 -33 -7v-235q12 -4 27 -4q39 0 56.5 31t17.5 96q0 63 -16.5 91t-51.5 28z" />
<glyph horiz-adv-x="489" d="M287 -249v210q-40 -39 -98 -39q-71 0 -114 53t-43 139q0 98 57 156t151 58q40 0 88 -11l109 11v-438q0 -70 11 -140l-145 -15zM186 125q0 -57 18 -90t51 -33q17 0 32 9v245h-6q-95 0 -95 -131z" />
<glyph horiz-adv-x="350" d="M198 -70h-150v243q0 55 -16 132l141 23q20 -50 25 -94v-1q18 46 40.5 70.5t58.5 24.5q26 0 41 -12l-10 -138q-32 7 -56 7q-50 0 -74 -15v-240z" />
<glyph horiz-adv-x="379" d="M341 309l-8 -106q-69 33 -122 33q-42 0 -42 -24q0 -17 29 -32t64 -26.5t64 -40t29 -69.5q0 -56 -48.5 -89t-132.5 -33q-96 0 -150 31l8 103q81 -42 143 -42q39 0 39 23q0 17 -29 32.5t-64 27.5t-64 40t-29 68q0 56 50 89.5t134 33.5q71 0 129 -19z" />
<glyph horiz-adv-x="353" d="M326 248l-115 3v-171q0 -57 49 -57q30 0 64 18l9 -86q-54 -33 -123 -33q-71 0 -110 41t-39 117v175l-53 1v48l57 16l37 103l92 6l18 -17l-1 -92h112l10 -16z" />
<glyph horiz-adv-x="484" d="M48 172q0 73 -11 140l145 16l16 -16v-231q0 -52 44 -52q20 0 40 9v282l150 8v-297q0 -47 13 -101l-123 -8q-17 30 -24 57h-6q-55 -57 -127 -57q-53 0 -85 31t-32 82v137z" />
<glyph horiz-adv-x="425" d="M417 304l-117 -374h-176l-116 386l158 12l45 -206q13 -66 17 -104h2q3 32 20 104l44 206l115 -8z" />
<glyph horiz-adv-x="678" d="M102 -70l-94 386l154 12l35 -198q14 -71 15 -88h3q2 15 7.5 48.5t6.5 39.5l29 190h191l32 -190q2 -11 7.5 -42.5t7.5 -45.5h2q4 35 14 88l34 198l116 -8l9 -16l-94 -374h-193l-27 158q-16 88 -19 120h-2q-2 -31 -18 -121l-28 -157h-188z" />
<glyph horiz-adv-x="420" d="M254 -70l-65 125l-57 -125h-116l-9 16l110 179l-110 191l155 12l66 -141l59 141l117 -8l8 -16l-111 -179l111 -195h-158z" />
<glyph horiz-adv-x="425" d="M417 304l-101 -323q-14 -45 -26.5 -75.5t-35 -65.5t-49 -56t-68.5 -35t-95 -14l-21 121q137 -2 174 73h-71l-116 387l158 12l45 -206q13 -66 17 -104h2q3 32 20 104l44 206l115 -8z" />
<glyph horiz-adv-x="386" d="M23 204l8 116h310l16 -92l-169 -185h46q76 0 132 8l-9 -121h-320l-17 93l178 184z" />
<glyph horiz-adv-x="440" d="M252 335q-38 -53 -118 -53q-49 0 -79.5 24.5t-30.5 71.5q0 123 217 128v20q0 57 -65 57q-62 0 -124 -30l-8 108q85 27 171 27q176 0 176 -148q0 -27 -2 -74t-2 -75q0 -56 17 -101l-123 -8q-13 20 -24 53h-5zM170 404q0 -19 11 -30.5t30 -11.5q16 0 30 8v95 q-31 -3 -51 -19t-20 -42z" />
<glyph horiz-adv-x="480" d="M448 489q0 -99 -50 -153t-143 -54q-50 0 -92 12l-119 -12v446q0 68 -12 140l145 15l17 -16v-211q44 32 98 32q73 0 114.5 -54t41.5 -145zM226 600q-17 0 -32 -6v-236q12 -4 27 -4q73 0 73 127q0 63 -16.5 91t-51.5 28z" />
<glyph horiz-adv-x="412" d="M388 655l-32 -108q-51 36 -98 36q-33 0 -52.5 -24.5t-19.5 -65.5q0 -52 27 -81t77 -29q34 0 81 22l8 -91q-49 -32 -131 -32q-98 1 -157 55.5t-59 143.5q0 91 61.5 149t158.5 58q80 0 136 -33z" />
<glyph horiz-adv-x="490" d="M299 333q-42 -51 -111 -51q-71 0 -113.5 49.5t-42.5 135.5q0 104 62 162.5t165 58.5q19 0 28 -1v41q0 66 -12 140l145 15l17 -16v-476q0 -53 17 -101l-127 -8q-12 18 -25 52h-3v-1zM186 488q0 -57 18 -91.5t52 -34.5q17 0 31 8v246h-5q-96 0 -96 -128z" />
<glyph horiz-adv-x="448" d="M419 481l-12 -12h-217q17 -86 110 -86q52 0 96 22l8 -91q-52 -32 -145 -32q-104 0 -165.5 51.5t-61.5 145.5q0 92 60 150.5t151 58.5q81 0 129 -47t48 -121q0 -26 -1 -39zM237 608q-25 0 -38 -26.5t-13 -67.5l87 5q0 3 0.5 12t0.5 16q0 61 -37 61z" />
<glyph horiz-adv-x="360" d="M223 290h-150v306l-57 4v48l57 16q-2 38 -2 51q0 81 52 124.5t145 43.5q76 0 121 -27l-29 -105q-49 27 -88 27q-54 0 -54 -51q0 -18 3 -63h100l10 -15l-4 -57l-104 3v-305z" />
<glyph horiz-adv-x="451" d="M80 328q0 45 55 77q-48 15 -77 48t-29 79q0 65 53 110.5t137 45.5q68 0 110 -27q27 62 101 62l18 -15l-4 -84h-83l-3 -4q41 -29 41 -82q0 -64 -51.5 -104.5t-133.5 -40.5q-17 0 -25 1v-9q0 -15 8.5 -20t27.5 -6l78 -5q63 -4 101 -31t38 -76q0 -66 -66.5 -109t-178.5 -43 q-87 0 -140.5 25t-53.5 66q0 26 22 45.5t54 25.5l50 -20q-1 -3 -1 -8q0 -29 25 -49.5t66 -20.5q31 0 52 13.5t21 36.5q0 39 -65 45l-71 8q-76 10 -76 66zM258 541q0 79 -42 79q-46 0 -46 -81q0 -79 45 -79q43 0 43 81z" />
<glyph horiz-adv-x="484" d="M194 290h-150v438q0 72 -12 140l145 15l17 -16v-228q58 49 123 49q53 0 84 -33.5t31 -91.5v-273h-150v246q0 56 -46 56q-20 0 -42 -12v-290z" />
<glyph horiz-adv-x="251" d="M213 819q0 -37 -27.5 -62.5t-67.5 -25.5q-35 0 -57.5 20.5t-22.5 50.5q0 36 29.5 62t69.5 26q33 0 54.5 -19.5t21.5 -51.5zM48 290v243q0 72 -12 140l146 15l16 -16v-382h-150z" />
<glyph horiz-adv-x="253" d="M212 819q0 -37 -27.5 -62.5t-67.5 -25.5q-35 0 -57 20.5t-22 50.5q0 36 29 62t69 26q33 0 54.5 -19.5t21.5 -51.5zM70 93l-58 49q39 86 39 197v194q0 66 -13 140l146 15l17 -16v-333q0 -91 -27 -142.5t-104 -103.5z" />
<glyph horiz-adv-x="468" d="M44 728q0 72 -12 140l145 15l17 -16v-356h23q43 79 86 177l126 -8l9 -16l-96 -140q32 -68 122 -234l-172 -8q-47 98 -70 157h-28v-149h-150v438z" />
<glyph horiz-adv-x="251" d="M198 290h-150v438q0 72 -12 140l146 15l16 -16v-577z" />
<glyph horiz-adv-x="726" d="M198 290h-150v243q0 55 -16 132l141 23q14 -36 18 -55q61 55 130 55q74 0 102 -61q63 61 136 61q53 0 84 -34t31 -92v-272h-150v246q0 56 -46 56q-19 0 -43 -12q1 -6 1 -18v-272h-150v246q0 56 -46 56q-20 0 -42 -12v-290z" />
<glyph horiz-adv-x="474" d="M442 487q0 -97 -61 -151t-150 -54q-88 0 -143.5 51.5t-55.5 143.5q0 96 60 153.5t152 57.5q89 0 143.5 -54.5t54.5 -146.5zM186 489q0 -63 12 -95t41 -32t39 29.5t10 87.5q0 66 -11.5 97.5t-40.5 31.5q-28 0 -39 -28t-11 -91z" />
<glyph horiz-adv-x="485" d="M48 111v422q0 52 -16 132l141 23q9 -19 15 -41q46 41 111 41q72 0 113 -54.5t41 -144.5q0 -100 -50 -153.5t-145 -53.5q-27 0 -60 5v-37q0 -72 12 -140l-145 -15zM231 600q-19 0 -33 -7v-235q12 -4 27 -4q39 0 56.5 31t17.5 96q0 63 -16.5 91t-51.5 28z" />
<glyph horiz-adv-x="489" d="M287 111v210q-40 -39 -98 -39q-71 0 -114 53t-43 139q0 98 57 156t151 58q40 0 88 -11l109 11v-438q0 -70 11 -140l-145 -15zM186 485q0 -57 18 -90t51 -33q17 0 32 9v245h-6q-95 0 -95 -131z" />
<glyph horiz-adv-x="350" d="M198 290h-150v243q0 55 -16 132l141 23q20 -50 25 -94v-1q18 46 40.5 70.5t58.5 24.5q26 0 41 -12l-10 -138q-31 7 -56 7q-50 0 -74 -15v-240z" />
<glyph horiz-adv-x="379" d="M341 669l-8 -106q-69 33 -122 33q-42 0 -42 -24q0 -17 29 -32t64 -26.5t64 -40t29 -69.5q0 -56 -48.5 -89t-132.5 -33q-96 0 -150 31l8 103q81 -42 143 -42q39 0 39 23q0 17 -29 32.5t-64 27.5t-64 40t-29 68q0 56 50 89.5t134 33.5q71 0 129 -19z" />
<glyph horiz-adv-x="353" d="M326 608l-115 3v-171q0 -57 49 -57q30 0 64 18l9 -86q-54 -33 -123 -33q-71 0 -110 41t-39 117v175l-53 1v48l57 16l37 103l92 6l18 -17l-1 -92h112l10 -16z" />
<glyph horiz-adv-x="484" d="M48 532q0 73 -11 140l145 16l16 -16v-231q0 -52 44 -52q20 0 40 9v282l150 8v-297q0 -47 13 -101l-123 -8q-17 30 -24 57h-6q-55 -57 -127 -57q-53 0 -85 31t-32 82v137z" />
<glyph horiz-adv-x="425" d="M417 664l-117 -374h-176l-116 386l158 12l45 -206q13 -66 17 -104h2q3 32 20 104l44 206l115 -8z" />
<glyph horiz-adv-x="678" d="M102 290l-94 386l154 12l35 -198q14 -71 15 -88h3q2 15 7.5 48.5t6.5 39.5l29 190h191l32 -190q2 -11 7.5 -42.5t7.5 -45.5h2q4 35 14 88l34 198l116 -8l9 -16l-94 -374h-193l-27 158q-16 88 -19 120h-2q-2 -31 -18 -121l-28 -157h-188z" />
<glyph horiz-adv-x="420" d="M254 290l-65 125l-57 -125h-116l-9 16l110 179l-110 191l155 12l66 -141l59 141l117 -8l8 -16l-111 -179l111 -195h-158z" />
<glyph horiz-adv-x="425" d="M417 664l-101 -323q-14 -45 -26.5 -75.5t-35 -65.5t-49 -56t-68.5 -35t-95 -14l-21 121q137 -2 174 73h-71l-116 387l158 12l45 -206q13 -66 17 -104h2q3 32 20 104l44 206l115 -8z" />
<glyph horiz-adv-x="386" d="M23 564l8 116h310l16 -92l-169 -185h46q76 0 132 8l-9 -121h-320l-17 93l178 184z" />
<glyph horiz-adv-x="298" d="M250 766l10 -30q-62 -97 -156 -170l-70 10q38 108 56 198zM70 -260l-70 60q58 95 58 245v268q0 91 -15 178l175 19l20 -20v-440q0 -117 -35.5 -185.5t-132.5 -124.5z" />
<glyph horiz-adv-x="1072" d="M722 0h-180v563q0 32 -1 48q-13 4 -29 4q-35 0 -58 -19.5t-23 -50.5q0 -38 36 -77l-38 -134q-63 46 -119 46q-41 0 -65.5 -32.5t-24.5 -87.5q0 -69 33.5 -107t93.5 -38q40 0 100 29l10 -113q-62 -41 -160 -41q-119 1 -190.5 70.5t-71.5 184.5q0 116 75 190.5t192 74.5 q15 0 41 -2q-24 42 -24 84q0 72 66.5 120t183.5 48q67 0 153 -20v-293q71 63 150 63q65 0 102.5 -43t37.5 -117v-350h-180v317q0 73 -57 73q-25 0 -53 -16v-374z" />
<glyph horiz-adv-x="901" d="M557 500q10 50 10 64q0 35 -16 57t-44 22q-30 0 -50.5 -23.5t-20.5 -59.5q0 -46 31 -92l-38 -134q-63 46 -116 46q-44 0 -68.5 -32.5t-24.5 -89.5q0 -67 33.5 -105t91.5 -38q42 0 102 29l10 -113q-62 -41 -156 -41q-122 0 -194 69.5t-72 184.5q0 118 75 192t197 74 q27 0 57 -5q-13 36 -13 72q0 77 55.5 125t145.5 48q87 0 139 -46t52 -124q0 -38 -11 -80h137l12 -20l-8 -70l-141 4v-223q0 -76 61 -76q36 0 78 24l10 -108q-64 -41 -148 -41q-86 0 -133.5 51.5t-47.5 148.5v229l-55 1v60z" />
<glyph horiz-adv-x="1032" d="M410 485l-10 -132q-82 42 -148 42q-52 0 -52 -31q0 -18 23.5 -32t57 -27.5t66.5 -30.5t56.5 -50t23.5 -77q0 -73 -59 -115t-161 -42q-117 0 -182 39l10 129q43 -24 91.5 -38.5t81.5 -14.5q49 0 49 30q0 18 -23.5 32.5t-56.5 28t-66.5 31t-57 49.5t-23.5 75q0 73 61 116 t162 43q23 0 51 -3q-25 43 -25 85q0 72 66.5 120t183.5 48q67 0 153 -20v-293q71 63 150 63q65 0 102.5 -43t37.5 -117v-350h-180v317q0 73 -57 73q-25 0 -53 -16v-374h-180v563q0 32 -1 48q-13 4 -29 4q-35 0 -58 -19.5t-23 -50.5q0 -29 19 -60z" />
<glyph horiz-adv-x="570" d="M175 0h-170l133 451q16 53 22 87l222 9l29 -24l154 -523h-179l-22 83h-167zM232 212l-2 -9h101l-2 8q-28 103 -46 194h-5q-21 -105 -46 -193z" />
<glyph horiz-adv-x="570" d="M389 806l10 -30q-62 -97 -156 -170l-70 10q38 108 56 198zM175 0h-170l133 451q16 53 22 87l222 9l29 -24l154 -523h-179l-22 83h-167zM232 212l-2 -9h101l-2 8q-28 103 -46 194h-5q-21 -105 -46 -193z" />
<glyph horiz-adv-x="570" d="M372 805l69 9q-4 -87 -47.5 -142t-115.5 -55q-64 0 -106 49t-46 130l70 10q7 -36 31 -57.5t57 -21.5t57 22t31 56zM175 0h-170l133 451q16 53 22 87l222 9l29 -24l154 -523h-179l-22 83h-167zM232 212l-2 -9h101l-2 8q-28 103 -46 194h-5q-21 -105 -46 -193z" />
<glyph horiz-adv-x="570" d="M409 824l57 -40q-52 -66 -115 -164l-117 -10q-56 95 -115 174l57 40q42 -26 117 -93q70 64 116 93zM175 0h-170l133 451q16 53 22 87l222 9l29 -24l154 -523h-179l-22 83h-167zM232 212l-2 -9h101l-2 8q-28 103 -46 194h-5q-21 -105 -46 -193z" />
<glyph horiz-adv-x="570" d="M176 592l-57 40q52 66 115 164l117 10q56 -95 115 -174l-57 -40q-42 26 -117 93q-70 -64 -116 -93zM175 0h-170l133 451q16 53 22 87l222 9l29 -24l154 -523h-179l-22 83h-167zM232 212l-2 -9h101l-2 8q-28 103 -46 194h-5q-21 -105 -46 -193z" />
<glyph horiz-adv-x="570" d="M261 716q0 -42 -30 -72t-73 -30q-39 0 -63 24t-24 59q0 41 32 71.5t75 30.5q36 0 59.5 -23t23.5 -60zM500 716q0 -42 -30 -72t-73 -30q-39 0 -63 24t-24 59q0 41 32 71.5t75 30.5q36 0 59.5 -23t23.5 -60zM175 0h-170l133 451q16 53 22 87l222 9l29 -24l154 -523h-179 l-22 83h-167zM232 212l-2 -9h101l-2 8q-28 103 -46 194h-5q-21 -105 -46 -193z" />
<glyph horiz-adv-x="570" d="M175 0h-170l133 451q16 53 22 87l222 9l29 -24l154 -523h-179l-22 83h-167zM232 212l-2 -9h101l-2 8q-28 103 -46 194h-5q-21 -105 -46 -193zM391 -159q0 -46 -33.5 -78.5t-80.5 -32.5q-43 0 -69.5 26t-26.5 64q0 45 35.5 77.5t82.5 32.5q40 0 66 -24.5t26 -64.5z" />
<glyph horiz-adv-x="570" d="M329 606q-94 73 -156 170l10 30l160 8q18 -90 56 -198zM175 0h-170l133 451q16 53 22 87l222 9l29 -24l154 -523h-179l-22 83h-167zM232 212l-2 -9h101l-2 8q-28 103 -46 194h-5q-21 -105 -46 -193z" />
<glyph horiz-adv-x="570" d="M137 658v96h298v-96h-298zM175 0h-170l133 451q16 53 22 87l222 9l29 -24l154 -523h-179l-22 83h-167zM232 212l-2 -9h101l-2 8q-28 103 -46 194h-5q-21 -105 -46 -193z" />
<glyph horiz-adv-x="570" d="M175 0h-170l133 451q16 53 22 87l222 9l29 -24l154 -523q-54 -25 -84.5 -57.5t-30.5 -63.5q0 -41 43 -41q25 0 54 13l25 -59q-65 -58 -145 -58q-52 0 -86 29.5t-34 77.5q0 46 37.5 88t103.5 71h-62l-22 83h-167zM232 212l-2 -9h101l-2 8q-28 103 -46 194h-5 q-21 -105 -46 -193z" />
<glyph horiz-adv-x="570" d="M430 731q0 -51 -40 -87.5t-97 -36.5q-52 0 -84.5 29.5t-32.5 71.5q0 50 42.5 87t99.5 37q49 0 80.5 -28t31.5 -73zM247 714q0 -22 14 -36.5t37 -14.5q25 0 43 18.5t18 43.5q0 24 -13 37.5t-34 13.5q-26 0 -45.5 -18.5t-19.5 -43.5zM175 0h-170l133 451q16 53 22 87l222 9 l29 -24l154 -523h-179l-22 83h-167zM232 212l-2 -9h101l-2 8q-28 103 -46 194h-5q-21 -105 -46 -193z" />
<glyph horiz-adv-x="570" d="M406 1098l10 -30q-62 -97 -156 -170l-70 10q38 108 56 198zM430 731q0 -51 -40 -87.5t-97 -36.5q-52 0 -84.5 29.5t-32.5 71.5q0 50 42.5 87t99.5 37q49 0 80.5 -28t31.5 -73zM247 714q0 -22 14 -36.5t37 -14.5q25 0 43 18.5t18 43.5q0 24 -13 37.5t-34 13.5 q-26 0 -45.5 -18.5t-19.5 -43.5zM175 0h-170l133 451q16 53 22 87l222 9l29 -24l154 -523h-179l-22 83h-167zM232 212l-2 -9h101l-2 8q-28 103 -46 194h-5q-21 -105 -46 -193z" />
<glyph horiz-adv-x="570" d="M210 802q36 0 86.5 -28.5t73.5 -28.5q18 0 28.5 10t23.5 33l49 -7q0 -70 -27 -120.5t-79 -50.5q-32 0 -89.5 28.5t-76.5 28.5q-28 0 -50 -43l-48 7q0 71 26 121t83 50zM175 0h-170l133 451q16 53 22 87l222 9l29 -24l154 -523h-179l-22 83h-167zM232 212l-2 -9h101l-2 8 q-28 103 -46 194h-5q-21 -105 -46 -193z" />
<glyph horiz-adv-x="724" d="M175 0h-170l158 450q17 47 22 90h458l20 -19l-4 -110l-194 7l14 -98l169 4l-5 -116l-149 5l12 -91l200 7v-129h-362q-1 13 -2.5 41t-2.5 42h-136q-9 -26 -28 -83zM303 405q-15 -65 -60 -202h90q-8 143 -10 202h-20z" />
<glyph horiz-adv-x="724" d="M518 806l10 -30q-62 -97 -156 -170l-70 10q38 108 56 198zM175 0h-170l158 450q17 47 22 90h458l20 -19l-4 -110l-194 7l14 -98l169 4l-5 -116l-149 5l12 -91l200 7v-129h-362q-1 13 -2.5 41t-2.5 42h-136q-9 -26 -28 -83zM303 405q-15 -65 -60 -202h90q-8 143 -10 202 h-20z" />
<glyph horiz-adv-x="561" d="M313 0h-263v394q0 94 -9 146h277q92 0 147 -42t55 -105q0 -74 -87 -111q108 -35 108 -133q0 -67 -65.5 -108t-162.5 -41zM286 420h-56v-96h57q26 0 40 14t14 34q0 48 -55 48zM295 214h-65v-94h65q28 0 45 13t17 32q0 22 -16.5 35.5t-45.5 13.5z" />
<glyph horiz-adv-x="482" d="M457 157l20 -137q-69 -28 -165 -28q-140 0 -218 72.5t-78 199.5q0 124 84.5 204t217.5 80q94 0 156 -31l-34 -143q-70 35 -120 35q-55 0 -87 -39.5t-32 -102.5q0 -65 35.5 -100.5t99.5 -35.5q62 0 121 26z" />
<glyph horiz-adv-x="482" d="M384 806l10 -30q-62 -97 -156 -170l-70 10q38 108 56 198zM457 157l20 -137q-69 -28 -165 -28q-140 0 -218 72.5t-78 199.5q0 124 84.5 204t217.5 80q94 0 156 -31l-34 -143q-70 35 -120 35q-55 0 -87 -39.5t-32 -102.5q0 -65 35.5 -100.5t99.5 -35.5q62 0 121 26z" />
<glyph horiz-adv-x="482" d="M404 824l57 -40q-52 -66 -115 -164l-117 -10q-56 95 -115 174l57 40q42 -26 117 -93q70 64 116 93zM457 157l20 -137q-69 -28 -165 -28q-140 0 -218 72.5t-78 199.5q0 124 84.5 204t217.5 80q94 0 156 -31l-34 -143q-70 35 -120 35q-55 0 -87 -39.5t-32 -102.5 q0 -65 35.5 -100.5t99.5 -35.5q62 0 121 26z" />
<glyph horiz-adv-x="482" d="M424 -155q0 -34 -21 -57.5t-57 -36t-74 -17.5t-82 -5l5 60q105 6 105 54q0 36 -76 36l-19 30l26 90q-103 20 -159 89t-56 176q0 124 84.5 204t217.5 80q94 0 156 -31l-34 -143q-70 35 -120 35q-55 0 -87 -39.5t-32 -102.5q0 -65 35.5 -100.5t99.5 -35.5q62 0 121 26 l20 -137q-66 -27 -156 -28l-17 -52q120 -15 120 -95z" />
<glyph horiz-adv-x="482" d="M171 592l-57 40q52 66 115 164l117 10q56 -95 115 -174l-57 -40q-42 26 -117 93q-70 -64 -116 -93zM457 157l20 -137q-69 -28 -165 -28q-140 0 -218 72.5t-78 199.5q0 124 84.5 204t217.5 80q94 0 156 -31l-34 -143q-70 35 -120 35q-55 0 -87 -39.5t-32 -102.5 q0 -65 35.5 -100.5t99.5 -35.5q62 0 121 26z" />
<glyph horiz-adv-x="482" d="M386 715q0 -46 -33.5 -78.5t-80.5 -32.5q-43 0 -69.5 26t-26.5 64q0 45 35.5 77.5t82.5 32.5q40 0 66 -24.5t26 -64.5zM457 157l20 -137q-69 -28 -165 -28q-140 0 -218 72.5t-78 199.5q0 124 84.5 204t217.5 80q94 0 156 -31l-34 -143q-70 35 -120 35q-55 0 -87 -39.5 t-32 -102.5q0 -65 35.5 -100.5t99.5 -35.5q62 0 121 26z" />
<glyph horiz-adv-x="590" d="M574 276q0 -131 -88 -203.5t-224 -72.5h-212v394q0 94 -9 146h241q139 0 215.5 -70.5t76.5 -193.5zM273 420h-43v-300h48q63 0 87 39.5t24 107.5q0 153 -116 153z" />
<glyph horiz-adv-x="590" d="M574 276q0 -131 -88 -203.5t-224 -72.5h-212v223h-43v90h43v81q0 94 -9 146h241q139 0 215.5 -70.5t76.5 -193.5zM335 223h-105v-103h48q63 0 87 39.5t24 107.5q0 153 -116 153h-43v-107h105v-90z" />
<glyph horiz-adv-x="590" d="M424 824l57 -40q-52 -66 -115 -164l-117 -10q-56 95 -115 174l57 40q42 -26 117 -93q70 64 116 93zM574 276q0 -131 -88 -203.5t-224 -72.5h-212v394q0 94 -9 146h241q139 0 215.5 -70.5t76.5 -193.5zM273 420h-43v-300h48q63 0 87 39.5t24 107.5q0 153 -116 153z" />
<glyph horiz-adv-x="590" d="M574 276q0 -131 -88 -203.5t-224 -72.5h-212v223h-43v90h43v81q0 94 -9 146h241q139 0 215.5 -70.5t76.5 -193.5zM335 223h-105v-103h48q63 0 87 39.5t24 107.5q0 153 -116 153h-43v-107h105v-90z" />
<glyph horiz-adv-x="590" d="M574 276q0 -131 -88 -203.5t-224 -72.5h-212v394q0 94 -9 146h241q139 0 215.5 -70.5t76.5 -193.5zM273 420h-43v-300h48q63 0 87 39.5t24 107.5q0 153 -116 153zM406 -159q0 -46 -33.5 -78.5t-80.5 -32.5q-43 0 -69.5 26t-26.5 64q0 45 35.5 77.5t82.5 32.5 q40 0 66 -24.5t26 -64.5z" />
<glyph horiz-adv-x="481" d="M463 129v-129h-413v394q0 94 -9 146h398l20 -19l-4 -110l-225 9v-100l181 4l-5 -116l-176 6v-94z" />
<glyph horiz-adv-x="481" d="M358 806l10 -30q-62 -97 -156 -170l-70 10q38 108 56 198zM463 129v-129h-413v394q0 94 -9 146h398l20 -19l-4 -110l-225 9v-100l181 4l-5 -116l-176 6v-94z" />
<glyph horiz-adv-x="481" d="M341 805l69 9q-4 -87 -47.5 -142t-115.5 -55q-64 0 -106 49t-46 130l70 10q7 -36 31 -57.5t57 -21.5t57 22t31 56zM463 129v-129h-413v394q0 94 -9 146h398l20 -19l-4 -110l-225 9v-100l181 4l-5 -116l-176 6v-94z" />
<glyph horiz-adv-x="481" d="M378 824l57 -40q-52 -66 -115 -164l-117 -10q-56 95 -115 174l57 40q42 -26 117 -93q70 64 116 93zM463 129v-129h-413v394q0 94 -9 146h398l20 -19l-4 -110l-225 9v-100l181 4l-5 -116l-176 6v-94z" />
<glyph horiz-adv-x="481" d="M145 592l-57 40q52 66 115 164l117 10q56 -95 115 -174l-57 -40q-42 26 -117 93q-70 -64 -116 -93zM463 129v-129h-413v394q0 94 -9 146h398l20 -19l-4 -110l-225 9v-100l181 4l-5 -116l-176 6v-94z" />
<glyph horiz-adv-x="481" d="M230 716q0 -42 -30 -72t-73 -30q-39 0 -63 24t-24 59q0 41 32 71.5t75 30.5q36 0 59.5 -23t23.5 -60zM469 716q0 -42 -30 -72t-73 -30q-39 0 -63 24t-24 59q0 41 32 71.5t75 30.5q36 0 59.5 -23t23.5 -60zM463 129v-129h-413v394q0 94 -9 146h398l20 -19l-4 -110l-225 9 v-100l181 4l-5 -116l-176 6v-94z" />
<glyph horiz-adv-x="481" d="M360 715q0 -46 -33.5 -78.5t-80.5 -32.5q-43 0 -69.5 26t-26.5 64q0 45 35.5 77.5t82.5 32.5q40 0 66 -24.5t26 -64.5zM463 129v-129h-413v394q0 94 -9 146h398l20 -19l-4 -110l-225 9v-100l181 4l-5 -116l-176 6v-94z" />
<glyph horiz-adv-x="481" d="M463 129v-129h-413v394q0 94 -9 146h398l20 -19l-4 -110l-225 9v-100l181 4l-5 -116l-176 6v-94zM368 -159q0 -46 -33.5 -78.5t-80.5 -32.5q-43 0 -69.5 26t-26.5 64q0 45 35.5 77.5t82.5 32.5q40 0 66 -24.5t26 -64.5z" />
<glyph horiz-adv-x="481" d="M298 606q-94 73 -156 170l10 30l160 8q18 -90 56 -198zM463 129v-129h-413v394q0 94 -9 146h398l20 -19l-4 -110l-225 9v-100l181 4l-5 -116l-176 6v-94z" />
<glyph horiz-adv-x="481" d="M106 658v96h298v-96h-298zM463 129v-129h-413v394q0 94 -9 146h398l20 -19l-4 -110l-225 9v-100l181 4l-5 -116l-176 6v-94z" />
<glyph horiz-adv-x="481" d="M463 0q-54 -25 -84.5 -57.5t-30.5 -63.5q0 -41 43 -41q25 0 54 13l25 -59q-65 -58 -145 -58q-52 0 -86 29.5t-34 77.5q0 46 37.5 88t103.5 71h-296v394q0 94 -9 146h398l20 -19l-4 -110l-225 9v-100l181 4l-5 -116l-176 6v-94l233 9v-129z" />
<glyph horiz-adv-x="481" d="M179 802q36 0 86.5 -28.5t73.5 -28.5q18 0 28.5 10t23.5 33l49 -7q0 -70 -27 -120.5t-79 -50.5q-32 0 -89.5 28.5t-76.5 28.5q-28 0 -50 -43l-48 7q0 71 26 121t83 50zM463 129v-129h-413v394q0 94 -9 146h398l20 -19l-4 -110l-225 9v-100l181 4l-5 -116l-176 6v-94z" />
<glyph horiz-adv-x="533" d="M17 255l15 15h299q-13 154 -160 154q-66 0 -126 -29l-10 113q70 41 183 41q137 0 218 -71t81 -200q0 -128 -78.5 -208t-197.5 -80q-103 0 -164 59.5t-61 154.5q0 34 1 51zM191 176q0 -86 58 -86q37 0 57.5 33.5t24.5 90.5l-139 -7q0 -4 -0.5 -14.5t-0.5 -16.5z" />
<glyph horiz-adv-x="444" d="M230 0h-180v394q0 94 -9 146h378l20 -19l-4 -110l-205 9v-118l161 5l-5 -117l-156 7v-197z" />
<glyph horiz-adv-x="538" d="M497 269l20 -19l-3 -229q-94 -29 -189 -29q-149 0 -229 70.5t-80 189.5q0 130 88 213t234 83q97 0 170 -32l-29 -143q-67 40 -133 40t-105.5 -38.5t-39.5 -111.5q0 -67 35.5 -104t105.5 -37h5q-1 56 -13 139z" />
<glyph horiz-adv-x="538" d="M392 806l10 -30q-62 -97 -156 -170l-70 10q38 108 56 198zM497 269l20 -19l-3 -229q-94 -29 -189 -29q-149 0 -229 70.5t-80 189.5q0 130 88 213t234 83q97 0 170 -32l-29 -143q-67 40 -133 40t-105.5 -38.5t-39.5 -111.5q0 -67 35.5 -104t105.5 -37h5q-1 56 -13 139z " />
<glyph horiz-adv-x="538" d="M375 805l69 9q-4 -87 -47.5 -142t-115.5 -55q-64 0 -106 49t-46 130l70 10q7 -36 31 -57.5t57 -21.5t57 22t31 56zM497 269l20 -19l-3 -229q-94 -29 -189 -29q-149 0 -229 70.5t-80 189.5q0 130 88 213t234 83q97 0 170 -32l-29 -143q-67 40 -133 40t-105.5 -38.5 t-39.5 -111.5q0 -67 35.5 -104t105.5 -37h5q-1 56 -13 139z" />
<glyph horiz-adv-x="538" d="M412 824l57 -40q-52 -66 -115 -164l-117 -10q-56 95 -115 174l57 40q42 -26 117 -93q70 64 116 93zM497 269l20 -19l-3 -229q-94 -29 -189 -29q-149 0 -229 70.5t-80 189.5q0 130 88 213t234 83q97 0 170 -32l-29 -143q-67 40 -133 40t-105.5 -38.5t-39.5 -111.5 q0 -67 35.5 -104t105.5 -37h5q-1 56 -13 139z" />
<glyph horiz-adv-x="538" d="M179 592l-57 40q52 66 115 164l117 10q56 -95 115 -174l-57 -40q-42 26 -117 93q-70 -64 -116 -93zM497 269l20 -19l-3 -229q-94 -29 -189 -29q-149 0 -229 70.5t-80 189.5q0 130 88 213t234 83q97 0 170 -32l-29 -143q-67 40 -133 40t-105.5 -38.5t-39.5 -111.5 q0 -67 35.5 -104t105.5 -37h5q-1 56 -13 139z" />
<glyph horiz-adv-x="538" d="M497 269l20 -19l-3 -229q-94 -29 -189 -29q-149 0 -229 70.5t-80 189.5q0 130 88 213t234 83q97 0 170 -32l-29 -143q-67 40 -133 40t-105.5 -38.5t-39.5 -111.5q0 -67 35.5 -104t105.5 -37h5q-1 56 -13 139zM225 -329q44 46 61 95q-27 5 -44.5 26t-17.5 50q0 35 26 61 t64 26q36 0 60.5 -24.5t24.5 -70.5q0 -100 -123 -208z" />
<glyph horiz-adv-x="538" d="M394 715q0 -46 -33.5 -78.5t-80.5 -32.5q-43 0 -69.5 26t-26.5 64q0 45 35.5 77.5t82.5 32.5q40 0 66 -24.5t26 -64.5zM497 269l20 -19l-3 -229q-94 -29 -189 -29q-149 0 -229 70.5t-80 189.5q0 130 88 213t234 83q97 0 170 -32l-29 -143q-67 40 -133 40t-105.5 -38.5 t-39.5 -111.5q0 -67 35.5 -104t105.5 -37h5q-1 56 -13 139z" />
<glyph horiz-adv-x="615" d="M230 0h-180v386q0 88 -9 154l169 8l20 -19v-202h155v59q0 88 -9 154l170 8l19 -19v-529h-180v207h-155v-207z" />
<glyph horiz-adv-x="615" d="M230 0h-180v378h-66v90h64q-4 47 -7 72l169 8l20 -19v-61h153q-4 47 -7 72l170 8l19 -19v-61h67v-90h-67v-378h-180v207h-155v-207zM230 327h155v51h-155v-51z" />
<glyph horiz-adv-x="615" d="M198 592l-57 40q52 66 115 164l117 10q56 -95 115 -174l-57 -40q-42 26 -117 93q-70 -64 -116 -93zM230 0h-180v386q0 88 -9 154l169 8l20 -19v-202h155v59q0 88 -9 154l170 8l19 -19v-529h-180v207h-155v-207z" />
<glyph horiz-adv-x="615" d="M230 0h-180v386q0 88 -9 154l169 8l20 -19v-202h155v59q0 88 -9 154l170 8l19 -19v-529h-180v207h-155v-207zM413 -159q0 -46 -33.5 -78.5t-80.5 -32.5q-43 0 -69.5 26t-26.5 64q0 45 35.5 77.5t82.5 32.5q40 0 66 -24.5t26 -64.5z" />
<glyph horiz-adv-x="279" d="M230 0h-180v386q0 88 -9 154l169 8l20 -19v-529z" />
<glyph horiz-adv-x="279" d="M230 0h-180v386q0 88 -9 154l169 8l20 -19v-529z" />
<glyph horiz-adv-x="279" d="M243 806l10 -30q-62 -97 -156 -170l-70 10q38 108 56 198zM230 0h-180v386q0 88 -9 154l169 8l20 -19v-529z" />
<glyph horiz-adv-x="279" d="M210 793l69 9q-3 -87 -42 -142t-103 -55q-56 0 -93.5 49t-40.5 130l70 10q3 -36 22 -57.5t48 -21.5t48.5 22t21.5 56zM230 0h-180v386q0 88 -9 154l169 8l20 -19v-529z" />
<glyph horiz-adv-x="279" d="M216 816l64 -24q-29 -74 -57 -176l-167 -10q-26 103 -57 186l64 24q39 -38 76 -100q40 64 77 100zM230 0h-180v386q0 88 -9 154l169 8l20 -19v-529z" />
<glyph horiz-adv-x="279" d="M63 601l-64 24q29 74 57 176l167 10q26 -103 57 -186l-64 -24q-39 38 -76 100q-40 -64 -77 -100zM230 0h-180v386q0 88 -9 154l169 8l20 -19v-529z" />
<glyph horiz-adv-x="279" d="M129 717q0 -42 -27 -72t-65 -30q-35 0 -57.5 24t-22.5 59q0 41 29.5 71.5t68.5 30.5q32 0 53 -23t21 -60zM322 717q0 -42 -27.5 -72t-65.5 -30q-34 0 -55.5 24t-21.5 59q0 41 28.5 71.5t66.5 30.5q33 0 54 -23t21 -60zM230 0h-180v386q0 88 -9 154l169 8l20 -19v-529z " />
<glyph horiz-adv-x="279" d="M245 715q0 -46 -33.5 -78.5t-80.5 -32.5q-43 0 -69.5 26t-26.5 64q0 45 35.5 77.5t82.5 32.5q40 0 66 -24.5t26 -64.5zM230 0h-180v386q0 88 -9 154l169 8l20 -19v-529z" />
<glyph horiz-adv-x="279" d="M230 0h-180v386q0 88 -9 154l169 8l20 -19v-529zM245 -159q0 -46 -33.5 -78.5t-80.5 -32.5q-43 0 -69.5 26t-26.5 64q0 45 35.5 77.5t82.5 32.5q40 0 66 -24.5t26 -64.5z" />
<glyph horiz-adv-x="279" d="M183 606q-94 73 -156 170l10 30l160 8q18 -90 56 -198zM230 0h-180v386q0 88 -9 154l169 8l20 -19v-529z" />
<glyph horiz-adv-x="558" d="M230 0h-180v386q0 88 -9 154l169 8l20 -19v-529zM319 -162l-49 56q58 88 58 234v258q0 78 -14 145l176 17l18 -18v-402q0 -114 -37.5 -176t-151.5 -114z" />
<glyph horiz-adv-x="279" d="M15 658v96h250v-96h-250zM230 0h-180v386q0 88 -9 154l169 8l20 -19v-529z" />
<glyph horiz-adv-x="279" d="M230 0q-36 -25 -56.5 -55.5t-20.5 -57.5q0 -43 43 -43q25 0 54 13l25 -59q-63 -58 -142 -58q-55 0 -89 28.5t-34 76.5q0 44 31 85.5t85 69.5h-76v386q0 88 -9 154l169 8l20 -19v-529z" />
<glyph horiz-adv-x="279" d="M77 803q28 0 71 -28.5t58 -28.5q27 0 42 43l44 -7q0 -71 -21.5 -121t-68.5 -50q-26 0 -73 28.5t-56 28.5q-27 0 -42 -43l-44 7q0 71 21.5 121t68.5 50zM230 0h-180v386q0 88 -9 154l169 8l20 -19v-529z" />
<glyph horiz-adv-x="279" d="M40 -162l-49 56q58 88 58 234v258q0 78 -14 145l176 17l18 -18v-402q0 -114 -37.5 -176t-151.5 -114z" />
<glyph horiz-adv-x="279" d="M40 -162l-49 56q58 88 58 234v258q0 78 -14 145l176 17l18 -18v-402q0 -114 -37.5 -176t-151.5 -114z" />
<glyph horiz-adv-x="279" d="M49 601l-64 24q29 74 57 176l167 10q26 -103 57 -186l-64 -24q-39 38 -76 100q-40 -64 -77 -100zM40 -162l-49 56q58 88 58 234v258q0 78 -14 145l176 17l18 -18v-402q0 -114 -37.5 -176t-151.5 -114z" />
<glyph horiz-adv-x="581" d="M50 386q0 82 -9 154l170 8l19 -19v-225h43q68 159 100 244l172 -8l9 -17l-136 -236l157 -287l-210 -3q-45 77 -92 187h-43v-184h-180v386z" />
<glyph horiz-adv-x="581" d="M50 386q0 82 -9 154l170 8l19 -19v-225h43q68 159 100 244l172 -8l9 -17l-136 -236l157 -287l-210 -3q-45 77 -92 187h-43v-184h-180v386zM204 -329q44 46 61 95q-27 5 -44.5 26t-17.5 50q0 35 26 61t64 26q35 0 60 -24.5t25 -70.5q0 -100 -123 -208z" />
<glyph horiz-adv-x="581" d="M50 386q0 82 -9 154l170 8l19 -19v-225h43q68 159 100 244l172 -8l9 -17l-136 -236l157 -287l-210 -3q-45 77 -92 187h-43v-184h-180v386z" />
<glyph horiz-adv-x="460" d="M444 129v-129h-394v386q0 88 -9 154l169 8l20 -19v-409z" />
<glyph horiz-adv-x="460" d="M328 806l10 -30q-62 -97 -156 -170l-70 10q38 108 56 198zM444 129v-129h-394v386q0 88 -9 154l169 8l20 -19v-409z" />
<glyph horiz-adv-x="460" d="M447 601l10 -30q-38 -102 -110 -210h-59q15 152 22 240h137zM444 129v-129h-394v386q0 88 -9 154l169 8l20 -19v-409z" />
<glyph horiz-adv-x="460" d="M444 129v-129h-394v386q0 88 -9 154l169 8l20 -19v-409zM138 -329q44 46 61 95q-27 5 -44.5 26t-17.5 50q0 35 26 61t64 26q35 0 60 -24.5t25 -70.5q0 -100 -123 -208z" />
<glyph horiz-adv-x="460" d="M489 339q0 -46 -33.5 -78.5t-80.5 -32.5q-43 0 -69.5 26t-26.5 64q0 45 35.5 77.5t82.5 32.5q40 0 66 -24.5t26 -64.5zM444 129v-129h-394v386q0 88 -9 154l169 8l20 -19v-409z" />
<glyph horiz-adv-x="460" d="M444 129v-129h-394v174l-76 -42l-40 74l116 64v116q0 88 -9 154l169 8l20 -19v-159l103 57l41 -74l-144 -80v-153z" />
<glyph horiz-adv-x="775" d="M676 548l24 -19l51 -529h-176l-17 183q-1 8 -12 209h-3q-7 -99 -31 -209l-39 -183h-201l-39 183q-24 112 -31 210h-3q-5 -136 -13 -210l-17 -183h-145l52 539l249 7l18 -101q32 -141 44 -288h3q7 80 42 288l16 94z" />
<glyph horiz-adv-x="610" d="M334 356q31 -45 66 -126h3q-13 48 -13 100q0 117 -9 210l160 6l19 -19v-527h-169q-28 42 -65 103.5t-51 82.5q-32 45 -65 115h-3q13 -63 13 -138v-163h-170v394q0 80 -9 146l179 5q83 -140 114 -189z" />
<glyph horiz-adv-x="610" d="M408 806l10 -30q-62 -97 -156 -170l-70 10q38 108 56 198zM334 356q31 -45 66 -126h3q-13 48 -13 100q0 117 -9 210l160 6l19 -19v-527h-169q-28 42 -65 103.5t-51 82.5q-32 45 -65 115h-3q13 -63 13 -138v-163h-170v394q0 80 -9 146l179 5q83 -140 114 -189z" />
<glyph horiz-adv-x="610" d="M428 824l57 -40q-52 -66 -115 -164l-117 -10q-56 95 -115 174l57 40q42 -26 117 -93q70 64 116 93zM334 356q31 -45 66 -126h3q-13 48 -13 100q0 117 -9 210l160 6l19 -19v-527h-169q-28 42 -65 103.5t-51 82.5q-32 45 -65 115h-3q13 -63 13 -138v-163h-170v394 q0 80 -9 146l179 5q83 -140 114 -189z" />
<glyph horiz-adv-x="610" d="M334 356q31 -45 66 -126h3q-13 48 -13 100q0 117 -9 210l160 6l19 -19v-527h-169q-28 42 -65 103.5t-51 82.5q-32 45 -65 115h-3q13 -63 13 -138v-163h-170v394q0 80 -9 146l179 5q83 -140 114 -189zM218 -329q44 46 61 95q-27 5 -44.5 26t-17.5 50q0 35 26 61t64 26 q35 0 60 -24.5t25 -70.5q0 -100 -123 -208z" />
<glyph horiz-adv-x="610" d="M410 715q0 -46 -33.5 -78.5t-80.5 -32.5q-43 0 -69.5 26t-26.5 64q0 45 35.5 77.5t82.5 32.5q40 0 66 -24.5t26 -64.5zM334 356q31 -45 66 -126h3q-13 48 -13 100q0 117 -9 210l160 6l19 -19v-527h-169q-28 42 -65 103.5t-51 82.5q-32 45 -65 115h-3q13 -63 13 -138v-163 h-170v394q0 80 -9 146l179 5q83 -140 114 -189z" />
<glyph horiz-adv-x="610" d="M220 0h-170v394q0 80 -9 146l179 5q83 -140 114 -189q31 -45 66 -126h3l-13 100q0 117 -9 210l160 6l19 -19v-399q0 -114 -37.5 -176t-151.5 -114l-49 56q47 66 56 126q-23 35 -56 90t-47 76q-32 45 -65 115h-3q13 -63 13 -138v-163z" />
<glyph horiz-adv-x="609" d="M40 -162l-49 56q58 88 58 234v266q0 80 -9 146l179 5q83 -140 114 -189q31 -45 66 -126h3l-13 100q0 117 -9 210l160 6l19 -19v-527h-169q-28 42 -65 103.5t-51 82.5q-32 45 -65 115h-3q13 -63 13 -138v-35q0 -114 -35.5 -176t-143.5 -114z" />
<glyph horiz-adv-x="610" d="M229 802q36 0 86.5 -28.5t73.5 -28.5q18 0 28.5 10t23.5 33l49 -7q0 -70 -27 -120.5t-79 -50.5q-32 0 -89.5 28.5t-76.5 28.5q-28 0 -50 -43l-48 7q0 71 26 121t83 50zM334 356q31 -45 66 -126h3q-13 48 -13 100q0 117 -9 210l160 6l19 -19v-527h-169q-28 42 -65 103.5 t-51 82.5q-32 45 -65 115h-3q13 -63 13 -138v-163h-170v394q0 80 -9 146l179 5q83 -140 114 -189z" />
<glyph horiz-adv-x="602" d="M586 272q0 -132 -83 -206t-210 -74q-125 0 -201 72t-76 197q0 130 81 208.5t212 78.5q128 0 202.5 -76t74.5 -200zM201 276q0 -68 24 -113.5t77 -45.5q56 0 77.5 41t21.5 112q0 153 -99 153q-101 0 -101 -147z" />
<glyph horiz-adv-x="602" d="M404 806l10 -30q-62 -97 -156 -170l-70 10q38 108 56 198zM586 272q0 -132 -83 -206t-210 -74q-125 0 -201 72t-76 197q0 130 81 208.5t212 78.5q128 0 202.5 -76t74.5 -200zM201 276q0 -68 24 -113.5t77 -45.5q56 0 77.5 41t21.5 112q0 153 -99 153q-101 0 -101 -147z " />
<glyph horiz-adv-x="602" d="M387 805l69 9q-4 -87 -47.5 -142t-115.5 -55q-64 0 -106 49t-46 130l70 10q7 -36 31 -57.5t57 -21.5t57 22t31 56zM586 272q0 -132 -83 -206t-210 -74q-125 0 -201 72t-76 197q0 130 81 208.5t212 78.5q128 0 202.5 -76t74.5 -200zM201 276q0 -68 24 -113.5t77 -45.5 q56 0 77.5 41t21.5 112q0 153 -99 153q-101 0 -101 -147z" />
<glyph horiz-adv-x="602" d="M424 824l57 -40q-52 -66 -115 -164l-117 -10q-56 95 -115 174l57 40q42 -26 117 -93q70 64 116 93zM586 272q0 -132 -83 -206t-210 -74q-125 0 -201 72t-76 197q0 130 81 208.5t212 78.5q128 0 202.5 -76t74.5 -200zM201 276q0 -68 24 -113.5t77 -45.5q56 0 77.5 41 t21.5 112q0 153 -99 153q-101 0 -101 -147z" />
<glyph horiz-adv-x="602" d="M191 592l-57 40q52 66 115 164l117 10q56 -95 115 -174l-57 -40q-42 26 -117 93q-70 -64 -116 -93zM586 272q0 -132 -83 -206t-210 -74q-125 0 -201 72t-76 197q0 130 81 208.5t212 78.5q128 0 202.5 -76t74.5 -200zM201 276q0 -68 24 -113.5t77 -45.5q56 0 77.5 41 t21.5 112q0 153 -99 153q-101 0 -101 -147z" />
<glyph horiz-adv-x="602" d="M276 716q0 -42 -30 -72t-73 -30q-39 0 -63 24t-24 59q0 41 32 71.5t75 30.5q36 0 59.5 -23t23.5 -60zM515 716q0 -42 -30 -72t-73 -30q-39 0 -63 24t-24 59q0 41 32 71.5t75 30.5q36 0 59.5 -23t23.5 -60zM586 272q0 -132 -83 -206t-210 -74q-125 0 -201 72t-76 197 q0 130 81 208.5t212 78.5q128 0 202.5 -76t74.5 -200zM201 276q0 -68 24 -113.5t77 -45.5q56 0 77.5 41t21.5 112q0 153 -99 153q-101 0 -101 -147z" />
<glyph horiz-adv-x="602" d="M586 272q0 -132 -83 -206t-210 -74q-125 0 -201 72t-76 197q0 130 81 208.5t212 78.5q128 0 202.5 -76t74.5 -200zM201 276q0 -68 24 -113.5t77 -45.5q56 0 77.5 41t21.5 112q0 153 -99 153q-101 0 -101 -147zM406 -159q0 -46 -33.5 -78.5t-80.5 -32.5q-43 0 -69.5 26 t-26.5 64q0 45 35.5 77.5t82.5 32.5q40 0 66 -24.5t26 -64.5z" />
<glyph horiz-adv-x="602" d="M344 606q-94 73 -156 170l10 30l160 8q18 -90 56 -198zM586 272q0 -132 -83 -206t-210 -74q-125 0 -201 72t-76 197q0 130 81 208.5t212 78.5q128 0 202.5 -76t74.5 -200zM201 276q0 -68 24 -113.5t77 -45.5q56 0 77.5 41t21.5 112q0 153 -99 153q-101 0 -101 -147z" />
<glyph horiz-adv-x="602" d="M291 806l10 -30q-48 -95 -124 -170l-70 10q38 108 56 198zM484 806l10 -30q-48 -95 -124 -170l-70 10q38 108 56 198zM586 272q0 -132 -83 -206t-210 -74q-125 0 -201 72t-76 197q0 130 81 208.5t212 78.5q128 0 202.5 -76t74.5 -200zM201 276q0 -68 24 -113.5t77 -45.5 q56 0 77.5 41t21.5 112q0 153 -99 153q-101 0 -101 -147z" />
<glyph horiz-adv-x="602" d="M152 658v96h298v-96h-298zM586 272q0 -132 -83 -206t-210 -74q-125 0 -201 72t-76 197q0 130 81 208.5t212 78.5q128 0 202.5 -76t74.5 -200zM201 276q0 -68 24 -113.5t77 -45.5q56 0 77.5 41t21.5 112q0 153 -99 153q-101 0 -101 -147z" />
<glyph horiz-adv-x="602" d="M586 272q0 -165 -127 -239q-115 -77 -115 -147q0 -42 43 -42q25 0 54 13l25 -59q-67 -58 -145 -58q-52 0 -86 28t-34 76q0 83 116 149q-8 -1 -24 -1q-125 0 -201 72t-76 197q0 130 81 208.5t212 78.5q128 0 202.5 -76t74.5 -200zM201 276q0 -68 24 -113.5t77 -45.5 q56 0 77.5 41t21.5 112q0 153 -99 153q-101 0 -101 -147z" />
<glyph horiz-adv-x="602" d="M586 272q0 -132 -83 -206t-210 -74q-94 0 -161 41l-56 -60l-59 56l54 58q-55 69 -55 174q0 130 81 208.5t212 78.5q91 0 157 -40l59 63l60 -55l-58 -62q59 -73 59 -182zM201 276q0 -24 3 -47l161 171q-23 23 -63 23q-101 0 -101 -147zM401 270q0 17 -2 47l-162 -172 q26 -28 65 -28q56 0 77.5 41t21.5 112z" />
<glyph horiz-adv-x="602" d="M404 806l10 -30q-62 -97 -156 -170l-70 10q38 108 56 198zM586 272q0 -132 -83 -206t-210 -74q-94 0 -161 41l-56 -60l-59 56l54 58q-55 69 -55 174q0 130 81 208.5t212 78.5q91 0 157 -40l59 63l60 -55l-58 -62q59 -73 59 -182zM201 276q0 -24 3 -47l161 171 q-23 23 -63 23q-101 0 -101 -147zM401 270q0 17 -2 47l-162 -172q26 -28 65 -28q56 0 77.5 41t21.5 112z" />
<glyph horiz-adv-x="602" d="M225 802q36 0 86.5 -28.5t73.5 -28.5q18 0 28.5 10t23.5 33l49 -7q0 -70 -27 -120.5t-79 -50.5q-32 0 -89.5 28.5t-76.5 28.5q-28 0 -50 -43l-48 7q0 71 26 121t83 50zM586 272q0 -132 -83 -206t-210 -74q-125 0 -201 72t-76 197q0 130 81 208.5t212 78.5 q128 0 202.5 -76t74.5 -200zM201 276q0 -68 24 -113.5t77 -45.5q56 0 77.5 41t21.5 112q0 153 -99 153q-101 0 -101 -147z" />
<glyph horiz-adv-x="818" d="M800 129v-129h-429q-40 -8 -78 -8q-125 0 -201 72t-76 197q0 130 81 208.5t212 78.5q38 0 76 -8h391l20 -19l-4 -110l-239 5q23 -42 30 -96l165 4l-5 -116l-162 6q-9 -50 -32 -90zM201 276q0 -68 24 -113.5t77 -45.5q56 0 77.5 41t21.5 112q0 153 -99 153 q-101 0 -101 -147z" />
<glyph horiz-adv-x="529" d="M230 0h-180v394q0 94 -9 146h251q106 0 167.5 -52t61.5 -139q0 -93 -69.5 -146t-175.5 -53h-46v-150zM251 420h-21v-150h22q48 0 66 18.5t18 53.5q0 78 -85 78z" />
<glyph horiz-adv-x="549" d="M230 0h-180v394q0 94 -9 146h189v-70h82q106 0 167.5 -52t61.5 -139q0 -93 -69.5 -146t-175.5 -53h-66v-80zM271 350h-41v-150h42q48 0 66 18.5t18 53.5q0 78 -85 78z" />
<glyph horiz-adv-x="593" d="M586 272q0 -105 -53 -173.5t-143 -93.5q79 -25 282 -25l-21 -143q-201 0 -372 155q-119 5 -191 76.5t-72 192.5q0 130 81 208.5t212 78.5q128 0 202.5 -76t74.5 -200zM201 276q0 -68 24 -113.5t77 -45.5q56 0 77.5 41t21.5 112q0 153 -99 153q-101 0 -101 -147z" />
<glyph horiz-adv-x="542" d="M230 0h-180v394q0 94 -9 146h223q126 0 191.5 -46.5t65.5 -131.5q0 -104 -90 -151l118 -211l-211 -3q-35 80 -64 169h-44v-166zM251 420h-21v-139h22q48 0 66 18t18 52q0 35 -19 52t-66 17z" />
<glyph horiz-adv-x="542" d="M380 806l10 -30q-62 -97 -156 -170l-70 10q38 108 56 198zM230 0h-180v394q0 94 -9 146h223q126 0 191.5 -46.5t65.5 -131.5q0 -104 -90 -151l118 -211l-211 -3q-35 80 -64 169h-44v-166zM251 420h-21v-139h22q48 0 66 18t18 52q0 35 -19 52t-66 17z" />
<glyph horiz-adv-x="542" d="M400 824l57 -40q-52 -66 -115 -164l-117 -10q-56 95 -115 174l57 40q42 -26 117 -93q70 64 116 93zM230 0h-180v394q0 94 -9 146h223q126 0 191.5 -46.5t65.5 -131.5q0 -104 -90 -151l118 -211l-211 -3q-35 80 -64 169h-44v-166zM251 420h-21v-139h22q48 0 66 18t18 52 q0 35 -19 52t-66 17z" />
<glyph horiz-adv-x="542" d="M230 0h-180v394q0 94 -9 146h223q126 0 191.5 -46.5t65.5 -131.5q0 -104 -90 -151l118 -211l-211 -3q-35 80 -64 169h-44v-166zM251 420h-21v-139h22q48 0 66 18t18 52q0 35 -19 52t-66 17zM203 -329q44 46 61 95q-27 5 -44.5 26t-17.5 50q0 35 26 61t64 26 q36 0 60.5 -24.5t24.5 -70.5q0 -100 -123 -208z" />
<glyph horiz-adv-x="542" d="M230 0h-180v394q0 94 -9 146h223q126 0 191.5 -46.5t65.5 -131.5q0 -104 -90 -151l118 -211l-211 -3q-35 80 -64 169h-44v-166zM251 420h-21v-139h22q48 0 66 18t18 52q0 35 -19 52t-66 17zM395 -159q0 -46 -33.5 -78.5t-80.5 -32.5q-43 0 -69.5 26t-26.5 64 q0 45 35.5 77.5t82.5 32.5q40 0 66 -24.5t26 -64.5z" />
<glyph horiz-adv-x="475" d="M445 149q0 -73 -65.5 -115t-171.5 -42q-52 0 -105 9t-73 22l9 140q35 -19 85.5 -30t90.5 -11q45 0 45 31q0 16 -23.5 29.5t-57.5 27t-68 32t-57.5 54.5t-23.5 85q0 79 68 123t170 44q92 0 153 -18l-19 -143q-67 31 -132 31q-55 0 -55 -36q0 -19 23.5 -33.5t57.5 -27.5 t68 -31.5t57.5 -54.5t23.5 -86z" />
<glyph horiz-adv-x="475" d="M349 806l10 -30q-62 -97 -156 -170l-70 10q38 108 56 198zM445 149q0 -73 -65.5 -115t-171.5 -42q-52 0 -105 9t-73 22l9 140q35 -19 85.5 -30t90.5 -11q45 0 45 31q0 16 -23.5 29.5t-57.5 27t-68 32t-57.5 54.5t-23.5 85q0 79 68 123t170 44q92 0 153 -18l-19 -143 q-67 31 -132 31q-55 0 -55 -36q0 -19 23.5 -33.5t57.5 -27.5t68 -31.5t57.5 -54.5t23.5 -86z" />
<glyph horiz-adv-x="475" d="M369 824l57 -40q-52 -66 -115 -164l-117 -10q-56 95 -115 174l57 40q42 -26 117 -93q70 64 116 93zM445 149q0 -73 -65.5 -115t-171.5 -42q-52 0 -105 9t-73 22l9 140q35 -19 85.5 -30t90.5 -11q45 0 45 31q0 16 -23.5 29.5t-57.5 27t-68 32t-57.5 54.5t-23.5 85 q0 79 68 123t170 44q92 0 153 -18l-19 -143q-67 31 -132 31q-55 0 -55 -36q0 -19 23.5 -33.5t57.5 -27.5t68 -31.5t57.5 -54.5t23.5 -86z" />
<glyph horiz-adv-x="475" d="M375 -155q0 -34 -21 -57.5t-57 -36t-74 -17.5t-82 -5l5 60q105 6 105 54q0 36 -76 36l-19 30l24 84q-112 6 -150 30l9 140q35 -19 85.5 -30t90.5 -11q45 0 45 31q0 16 -23.5 29.5t-57.5 27t-68 32t-57.5 54.5t-23.5 85q0 79 68 123t170 44q92 0 153 -18l-19 -143 q-67 31 -132 31q-55 0 -55 -36q0 -19 23.5 -33.5t57.5 -27.5t68 -31.5t57.5 -54.5t23.5 -86q0 -61 -46.5 -100.5t-124.5 -51.5l-19 -57q120 -15 120 -95z" />
<glyph horiz-adv-x="475" d="M136 592l-57 40q52 66 115 164l117 10q56 -95 115 -174l-57 -40q-42 26 -117 93q-70 -64 -116 -93zM445 149q0 -73 -65.5 -115t-171.5 -42q-52 0 -105 9t-73 22l9 140q35 -19 85.5 -30t90.5 -11q45 0 45 31q0 16 -23.5 29.5t-57.5 27t-68 32t-57.5 54.5t-23.5 85 q0 79 68 123t170 44q92 0 153 -18l-19 -143q-67 31 -132 31q-55 0 -55 -36q0 -19 23.5 -33.5t57.5 -27.5t68 -31.5t57.5 -54.5t23.5 -86z" />
<glyph horiz-adv-x="475" d="M445 149q0 -73 -65.5 -115t-171.5 -42q-52 0 -105 9t-73 22l9 140q35 -19 85.5 -30t90.5 -11q45 0 45 31q0 16 -23.5 29.5t-57.5 27t-68 32t-57.5 54.5t-23.5 85q0 79 68 123t170 44q92 0 153 -18l-19 -143q-67 31 -132 31q-55 0 -55 -36q0 -19 23.5 -33.5t57.5 -27.5 t68 -31.5t57.5 -54.5t23.5 -86zM151 -329q44 46 61 95q-27 5 -44.5 26t-17.5 50q0 35 26 61t64 26q36 0 60.5 -24.5t24.5 -70.5q0 -100 -123 -208z" />
<glyph horiz-adv-x="475" d="M445 149q0 -73 -65.5 -115t-171.5 -42q-52 0 -105 9t-73 22l9 140q35 -19 85.5 -30t90.5 -11q45 0 45 31q0 16 -23.5 29.5t-57.5 27t-68 32t-57.5 54.5t-23.5 85q0 79 68 123t170 44q92 0 153 -18l-19 -143q-67 31 -132 31q-55 0 -55 -36q0 -19 23.5 -33.5t57.5 -27.5 t68 -31.5t57.5 -54.5t23.5 -86zM343 -159q0 -46 -33.5 -78.5t-80.5 -32.5q-43 0 -69.5 26t-26.5 64q0 45 35.5 77.5t82.5 32.5q40 0 66 -24.5t26 -64.5z" />
<glyph horiz-adv-x="636" d="M193 -10l-162 10q21 61 21 130v219q0 92 77.5 145.5t206.5 53.5q128 0 213 -66v-51l-100 -103q157 -60 157 -175q0 -68 -53.5 -114.5t-160.5 -46.5q-86 0 -116 13v130q41 -13 75 -13q33 0 51.5 13t18.5 35q0 56 -125 92v34l74 90q-23 34 -69 34q-79 0 -79 -88v-177 q0 -113 -29 -165z" />
<glyph horiz-adv-x="507" d="M344 0h-180v414q-107 -4 -158 -7l10 133h476l9 -133q-50 3 -157 7v-414z" />
<glyph horiz-adv-x="507" d="M344 0h-180v205h-103v90h103v119q-107 -4 -158 -7l10 133h476l9 -133q-50 3 -157 7v-119h103v-90h-103v-205z" />
<glyph horiz-adv-x="507" d="M377 824l57 -40q-52 -66 -115 -164l-117 -10q-56 95 -115 174l57 40q42 -26 117 -93q70 64 116 93zM344 0h-180v414q-107 -4 -158 -7l10 133h476l9 -133q-50 3 -157 7v-414z" />
<glyph horiz-adv-x="507" d="M344 0h-45l-20 -60q120 -15 120 -95q0 -34 -21 -57.5t-57 -36t-74 -17.5t-82 -5l5 60q105 6 105 54q0 36 -76 36l-19 30l27 91h-43v414q-107 -4 -158 -7l10 133h476l9 -133q-50 3 -157 7v-414z" />
<glyph horiz-adv-x="507" d="M344 0h-180v414q-107 -4 -158 -7l10 133h476l9 -133q-50 3 -157 7v-414zM175 -329q44 46 61 95q-27 5 -44.5 26t-17.5 50q0 35 26 61t64 26q36 0 60.5 -24.5t24.5 -70.5q0 -100 -123 -208z" />
<glyph horiz-adv-x="507" d="M344 0h-180v414q-107 -4 -158 -7l10 133h476l9 -133q-50 3 -157 7v-414zM367 -159q0 -46 -33.5 -78.5t-80.5 -32.5q-43 0 -69.5 26t-26.5 64q0 45 35.5 77.5t82.5 32.5q40 0 66 -24.5t26 -64.5z" />
<glyph horiz-adv-x="584" d="M40 386q0 82 -9 153l168 9l21 -20v-320q0 -88 78 -88q76 0 76 88v217q0 66 -8 114l178 7v-355q0 -96 -72.5 -147.5t-182.5 -51.5t-179.5 51.5t-69.5 147.5v195z" />
<glyph horiz-adv-x="584" d="M395 806l10 -30q-62 -97 -156 -170l-70 10q38 108 56 198zM40 386q0 82 -9 153l168 9l21 -20v-320q0 -88 78 -88q76 0 76 88v217q0 66 -8 114l178 7v-355q0 -96 -72.5 -147.5t-182.5 -51.5t-179.5 51.5t-69.5 147.5v195z" />
<glyph horiz-adv-x="584" d="M378 805l69 9q-4 -87 -47.5 -142t-115.5 -55q-64 0 -106 49t-46 130l70 10q7 -36 31 -57.5t57 -21.5t57 22t31 56zM40 386q0 82 -9 153l168 9l21 -20v-320q0 -88 78 -88q76 0 76 88v217q0 66 -8 114l178 7v-355q0 -96 -72.5 -147.5t-182.5 -51.5t-179.5 51.5t-69.5 147.5 v195z" />
<glyph horiz-adv-x="584" d="M415 824l57 -40q-52 -66 -115 -164l-117 -10q-56 95 -115 174l57 40q42 -26 117 -93q70 64 116 93zM40 386q0 82 -9 153l168 9l21 -20v-320q0 -88 78 -88q76 0 76 88v217q0 66 -8 114l178 7v-355q0 -96 -72.5 -147.5t-182.5 -51.5t-179.5 51.5t-69.5 147.5v195z" />
<glyph horiz-adv-x="584" d="M182 592l-57 40q52 66 115 164l117 10q56 -95 115 -174l-57 -40q-42 26 -117 93q-70 -64 -116 -93zM40 386q0 82 -9 153l168 9l21 -20v-320q0 -88 78 -88q76 0 76 88v217q0 66 -8 114l178 7v-355q0 -96 -72.5 -147.5t-182.5 -51.5t-179.5 51.5t-69.5 147.5v195z" />
<glyph horiz-adv-x="584" d="M267 716q0 -42 -30 -72t-73 -30q-39 0 -63 24t-24 59q0 41 32 71.5t75 30.5q36 0 59.5 -23t23.5 -60zM506 716q0 -42 -30 -72t-73 -30q-39 0 -63 24t-24 59q0 41 32 71.5t75 30.5q36 0 59.5 -23t23.5 -60zM40 386q0 82 -9 153l168 9l21 -20v-320q0 -88 78 -88q76 0 76 88 v217q0 66 -8 114l178 7v-355q0 -96 -72.5 -147.5t-182.5 -51.5t-179.5 51.5t-69.5 147.5v195z" />
<glyph horiz-adv-x="584" d="M395 1065l10 -30q-62 -97 -156 -170l-70 10q38 108 56 198zM267 716q0 -42 -30 -72t-73 -30q-39 0 -63 24t-24 59q0 41 32 71.5t75 30.5q36 0 59.5 -23t23.5 -60zM506 716q0 -42 -30 -72t-73 -30q-39 0 -63 24t-24 59q0 41 32 71.5t75 30.5q36 0 59.5 -23t23.5 -60z M40 386q0 82 -9 153l168 9l21 -20v-320q0 -88 78 -88q76 0 76 88v217q0 66 -8 114l178 7v-355q0 -96 -72.5 -147.5t-182.5 -51.5t-179.5 51.5t-69.5 147.5v195z" />
<glyph horiz-adv-x="584" d="M415 1083l57 -40q-52 -66 -115 -164l-117 -10q-56 95 -115 174l57 40q42 -26 117 -93q70 64 116 93zM267 716q0 -42 -30 -72t-73 -30q-39 0 -63 24t-24 59q0 41 32 71.5t75 30.5q36 0 59.5 -23t23.5 -60zM506 716q0 -42 -30 -72t-73 -30q-39 0 -63 24t-24 59 q0 41 32 71.5t75 30.5q36 0 59.5 -23t23.5 -60zM40 386q0 82 -9 153l168 9l21 -20v-320q0 -88 78 -88q76 0 76 88v217q0 66 -8 114l178 7v-355q0 -96 -72.5 -147.5t-182.5 -51.5t-179.5 51.5t-69.5 147.5v195z" />
<glyph horiz-adv-x="584" d="M335 865q-94 73 -156 170l10 30l160 8q18 -90 56 -198zM267 716q0 -42 -30 -72t-73 -30q-39 0 -63 24t-24 59q0 41 32 71.5t75 30.5q36 0 59.5 -23t23.5 -60zM506 716q0 -42 -30 -72t-73 -30q-39 0 -63 24t-24 59q0 41 32 71.5t75 30.5q36 0 59.5 -23t23.5 -60zM40 386 q0 82 -9 153l168 9l21 -20v-320q0 -88 78 -88q76 0 76 88v217q0 66 -8 114l178 7v-355q0 -96 -72.5 -147.5t-182.5 -51.5t-179.5 51.5t-69.5 147.5v195z" />
<glyph horiz-adv-x="584" d="M143 917v96h298v-96h-298zM267 716q0 -42 -30 -72t-73 -30q-39 0 -63 24t-24 59q0 41 32 71.5t75 30.5q36 0 59.5 -23t23.5 -60zM506 716q0 -42 -30 -72t-73 -30q-39 0 -63 24t-24 59q0 41 32 71.5t75 30.5q36 0 59.5 -23t23.5 -60zM40 386q0 82 -9 153l168 9l21 -20 v-320q0 -88 78 -88q76 0 76 88v217q0 66 -8 114l178 7v-355q0 -96 -72.5 -147.5t-182.5 -51.5t-179.5 51.5t-69.5 147.5v195z" />
<glyph horiz-adv-x="584" d="M40 386q0 82 -9 153l168 9l21 -20v-320q0 -88 78 -88q76 0 76 88v217q0 66 -8 114l178 7v-355q0 -96 -72.5 -147.5t-182.5 -51.5t-179.5 51.5t-69.5 147.5v195zM397 -159q0 -46 -33.5 -78.5t-80.5 -32.5q-43 0 -69.5 26t-26.5 64q0 45 35.5 77.5t82.5 32.5q40 0 66 -24.5 t26 -64.5z" />
<glyph horiz-adv-x="584" d="M335 606q-94 73 -156 170l10 30l160 8q18 -90 56 -198zM40 386q0 82 -9 153l168 9l21 -20v-320q0 -88 78 -88q76 0 76 88v217q0 66 -8 114l178 7v-355q0 -96 -72.5 -147.5t-182.5 -51.5t-179.5 51.5t-69.5 147.5v195z" />
<glyph horiz-adv-x="584" d="M282 806l10 -30q-48 -95 -124 -170l-70 10q38 108 56 198zM475 806l10 -30q-48 -95 -124 -170l-70 10q38 108 56 198zM40 386q0 82 -9 153l168 9l21 -20v-320q0 -88 78 -88q76 0 76 88v217q0 66 -8 114l178 7v-355q0 -96 -72.5 -147.5t-182.5 -51.5t-179.5 51.5 t-69.5 147.5v195z" />
<glyph horiz-adv-x="584" d="M143 658v96h298v-96h-298zM40 386q0 82 -9 153l168 9l21 -20v-320q0 -88 78 -88q76 0 76 88v217q0 66 -8 114l178 7v-355q0 -96 -72.5 -147.5t-182.5 -51.5t-179.5 51.5t-69.5 147.5v195z" />
<glyph horiz-adv-x="584" d="M40 386q0 82 -9 153l168 9l21 -20v-320q0 -88 78 -88q76 0 76 88v217q0 66 -8 114l178 7v-355q0 -111 -99 -164q-104 -62 -104 -137q0 -46 43 -46q25 0 54 13l25 -59q-65 -58 -145 -58q-52 0 -86 27.5t-34 71.5q0 86 109 153h-18q-110 0 -179.5 51.5t-69.5 147.5v195z " />
<glyph horiz-adv-x="584" d="M436 731q0 -51 -40 -87.5t-97 -36.5q-52 0 -84.5 29.5t-32.5 71.5q0 50 42.5 87t99.5 37q49 0 80.5 -28t31.5 -73zM253 714q0 -22 14 -36.5t37 -14.5q25 0 43 18.5t18 43.5q0 24 -13 37.5t-34 13.5q-26 0 -45.5 -18.5t-19.5 -43.5zM40 386q0 82 -9 153l168 9l21 -20v-320 q0 -88 78 -88q76 0 76 88v217q0 66 -8 114l178 7v-355q0 -96 -72.5 -147.5t-182.5 -51.5t-179.5 51.5t-69.5 147.5v195z" />
<glyph horiz-adv-x="584" d="M216 802q36 0 86.5 -28.5t73.5 -28.5q18 0 28.5 10t23.5 33l49 -7q0 -70 -27 -120.5t-79 -50.5q-32 0 -89.5 28.5t-76.5 28.5q-28 0 -50 -43l-48 7q0 71 26 121t83 50zM40 386q0 82 -9 153l168 9l21 -20v-320q0 -88 78 -88q76 0 76 88v217q0 66 -8 114l178 7v-355 q0 -96 -72.5 -147.5t-182.5 -51.5t-179.5 51.5t-69.5 147.5v195z" />
<glyph horiz-adv-x="556" d="M176 1l-176 529l193 18l77 -276q22 -80 25 -100q16 68 24 93l83 283l144 -9l10 -18l-177 -520h-203z" />
<glyph horiz-adv-x="818" d="M136 1l-136 529l193 18l49 -256q3 -18 9.5 -63.5t9.5 -59.5q6 23 26 116l54 254l174 9l51 -256q4 -18 13.5 -63.5t12.5 -59.5q1 8 8.5 53t12.5 68l52 258l144 -9l9 -18l-137 -520h-203l-28 121q-8 32 -19.5 93.5t-18.5 89.5h-3q-33 -153 -41 -186l-29 -118h-203z" />
<glyph horiz-adv-x="818" d="M526 806l10 -30q-62 -97 -156 -170l-70 10q38 108 56 198zM136 1l-136 529l193 18l49 -256q3 -18 9.5 -63.5t9.5 -59.5q6 23 26 116l54 254l174 9l51 -256q4 -18 13.5 -63.5t12.5 -59.5q1 8 8.5 53t12.5 68l52 258l144 -9l9 -18l-137 -520h-203l-28 121q-8 32 -19.5 93.5 t-18.5 89.5h-3q-33 -153 -41 -186l-29 -118h-203z" />
<glyph horiz-adv-x="818" d="M313 592l-57 40q52 66 115 164l117 10q56 -95 115 -174l-57 -40q-42 26 -117 93q-70 -64 -116 -93zM136 1l-136 529l193 18l49 -256q3 -18 9.5 -63.5t9.5 -59.5q6 23 26 116l54 254l174 9l51 -256q4 -18 13.5 -63.5t12.5 -59.5q1 8 8.5 53t12.5 68l52 258l144 -9l9 -18 l-137 -520h-203l-28 121q-8 32 -19.5 93.5t-18.5 89.5h-3q-33 -153 -41 -186l-29 -118h-203z" />
<glyph horiz-adv-x="818" d="M398 716q0 -42 -30 -72t-73 -30q-39 0 -63 24t-24 59q0 41 32 71.5t75 30.5q36 0 59.5 -23t23.5 -60zM637 716q0 -42 -30 -72t-73 -30q-39 0 -63 24t-24 59q0 41 32 71.5t75 30.5q36 0 59.5 -23t23.5 -60zM136 1l-136 529l193 18l49 -256q3 -18 9.5 -63.5t9.5 -59.5 q6 23 26 116l54 254l174 9l51 -256q4 -18 13.5 -63.5t12.5 -59.5q1 8 8.5 53t12.5 68l52 258l144 -9l9 -18l-137 -520h-203l-28 121q-8 32 -19.5 93.5t-18.5 89.5h-3q-33 -153 -41 -186l-29 -118h-203z" />
<glyph horiz-adv-x="818" d="M466 606q-94 73 -156 170l10 30l160 8q18 -90 56 -198zM136 1l-136 529l193 18l49 -256q3 -18 9.5 -63.5t9.5 -59.5q6 23 26 116l54 254l174 9l51 -256q4 -18 13.5 -63.5t12.5 -59.5q1 8 8.5 53t12.5 68l52 258l144 -9l9 -18l-137 -520h-203l-28 121q-8 32 -19.5 93.5 t-18.5 89.5h-3q-33 -153 -41 -186l-29 -118h-203z" />
<glyph horiz-adv-x="524" d="M8 0l-11 19l153 230l-153 286l195 13l87 -190h2l81 190l153 -11l11 -19l-148 -258l148 -260h-200l-77 151h-1l-84 -151h-156z" />
<glyph horiz-adv-x="508" d="M164 161l-164 369l193 18l41 -139q25 -77 37 -118h3q25 66 40 116l41 141l144 -9l9 -18l-164 -359v-162h-180v161z" />
<glyph horiz-adv-x="508" d="M357 806l10 -30q-62 -97 -156 -170l-70 10q38 108 56 198zM164 161l-164 369l193 18l41 -139q25 -77 37 -118h3q25 66 40 116l41 141l144 -9l9 -18l-164 -359v-162h-180v161z" />
<glyph horiz-adv-x="508" d="M144 592l-57 40q52 66 115 164l117 10q56 -95 115 -174l-57 -40q-42 26 -117 93q-70 -64 -116 -93zM164 161l-164 369l193 18l41 -139q25 -77 37 -118h3q25 66 40 116l41 141l144 -9l9 -18l-164 -359v-162h-180v161z" />
<glyph horiz-adv-x="508" d="M229 716q0 -42 -30 -72t-73 -30q-39 0 -63 24t-24 59q0 41 32 71.5t75 30.5q36 0 59.5 -23t23.5 -60zM468 716q0 -42 -30 -72t-73 -30q-39 0 -63 24t-24 59q0 41 32 71.5t75 30.5q36 0 59.5 -23t23.5 -60zM164 161l-164 369l193 18l41 -139q25 -77 37 -118h3 q25 66 40 116l41 141l144 -9l9 -18l-164 -359v-162h-180v161z" />
<glyph horiz-adv-x="508" d="M297 606q-94 73 -156 170l10 30l160 8q18 -90 56 -198zM164 161l-164 369l193 18l41 -139q25 -77 37 -118h3q25 66 40 116l41 141l144 -9l9 -18l-164 -359v-162h-180v161z" />
<glyph horiz-adv-x="508" d="M105 658v96h298v-96h-298zM164 161l-164 369l193 18l41 -139q25 -77 37 -118h3q25 66 40 116l41 141l144 -9l9 -18l-164 -359v-162h-180v161z" />
<glyph horiz-adv-x="508" d="M178 802q36 0 86.5 -28.5t73.5 -28.5q18 0 28.5 10t23.5 33l49 -7q0 -70 -27 -120.5t-79 -50.5q-32 0 -89.5 28.5t-76.5 28.5q-28 0 -50 -43l-48 7q0 71 26 121t83 50zM164 161l-164 369l193 18l41 -139q25 -77 37 -118h3q25 66 40 116l41 141l144 -9l9 -18l-164 -359 v-162h-180v161z" />
<glyph horiz-adv-x="508" d="M55 0l-29 112l248 287l-235 -8l9 149h385l46 -112l-243 -286l235 7l-10 -149h-406z" />
<glyph horiz-adv-x="508" d="M363 806l10 -30q-62 -97 -156 -170l-70 10q38 108 56 198zM55 0l-29 112l248 287l-235 -8l9 149h385l46 -112l-243 -286l235 7l-10 -149h-406z" />
<glyph horiz-adv-x="508" d="M383 824l57 -40q-52 -66 -115 -164l-117 -10q-56 95 -115 174l57 40q42 -26 117 -93q70 64 116 93zM55 0l-29 112l248 287l-235 -8l9 149h385l46 -112l-243 -286l235 7l-10 -149h-406z" />
<glyph horiz-adv-x="508" d="M365 715q0 -46 -33.5 -78.5t-80.5 -32.5q-43 0 -69.5 26t-26.5 64q0 45 35.5 77.5t82.5 32.5q40 0 66 -24.5t26 -64.5zM55 0l-29 112l248 287l-235 -8l9 149h385l46 -112l-243 -286l235 7l-10 -149h-406z" />
<glyph horiz-adv-x="508" d="M55 0l-29 112l248 287l-235 -8l9 149h385l46 -112l-243 -286l235 7l-10 -149h-406zM359 -159q0 -46 -33.5 -78.5t-80.5 -32.5q-43 0 -69.5 26t-26.5 64q0 45 35.5 77.5t82.5 32.5q40 0 66 -24.5t26 -64.5z" />
<glyph horiz-adv-x="279" d="M229 806l10 -30q-62 -97 -156 -170l-70 10q38 108 56 198zM40 -162l-49 56q58 88 58 234v258q0 78 -14 145l176 17l18 -18v-402q0 -114 -37.5 -176t-151.5 -114z" />
<glyph horiz-adv-x="454" d="M419 195q0 -101 -57 -157t-140 -56q-82 0 -134.5 54t-52.5 150q0 99 56 158.5t142 59.5q84 0 135 -57t51 -152zM173 196q0 -72 11.5 -106.5t44.5 -34.5q18 0 29 9t16 30.5t6 41t1 54.5q0 74 -11 107t-45 33q-31 0 -41.5 -30.5t-10.5 -103.5z" />
<glyph horiz-adv-x="306" d="M109 284h-2l-59 -4l-18 75l196 49l15 -14v-400h-134v215q0 56 2 79z" />
<glyph horiz-adv-x="389" d="M55 -10l-15 83q45 20 105.5 78t60.5 109q0 25 -13.5 40.5t-38.5 15.5q-44 0 -101 -41l-12 96q70 33 146 33q69 0 113 -32t44 -83q0 -56 -53 -113.5t-124 -91.5h62q54 0 105 6l-7 -100h-272z" />
<glyph horiz-adv-x="391" d="M43 372q66 32 143 32q62 0 102 -26.5t40 -66.5q0 -31 -23.5 -59t-61.5 -40q49 -9 78.5 -37.5t29.5 -67.5q0 -55 -55 -90t-141 -35q-66 0 -115 14l12 80q42 -14 96 -14q29 0 47.5 10.5t18.5 30.5q0 40 -85 40q-16 0 -58 -4v80q47 2 83.5 17.5t36.5 45.5q0 34 -46 34 q-47 0 -97 -25z" />
<glyph horiz-adv-x="437" d="M35 150l151 248l148 6l15 -13v-229q20 1 53 5l-7 -93h-46v-84h-126v84h-174zM142 162v-2h11.5t28 0.5t40.5 0.5v40q0 81 6 119h-2z" />
<glyph horiz-adv-x="414" d="M60 -4l11 84q42 -14 94 -14q67 0 67 50q0 46 -58 46q-38 0 -86 -18l-18 10v242h177q64 0 104 6l-7 -101h-167v-60q25 5 51 5q63 0 102 -32t39 -89q0 -69 -56 -106t-144 -37q-61 0 -109 14z" />
<glyph horiz-adv-x="419" d="M214 -18q-77 0 -128 45t-51 134q0 103 69.5 173t187.5 70q36 0 56 -6l-11 -88q-26 6 -46 6q-38 0 -72 -22.5t-44 -64.5h2q40 7 69 7q61 0 97 -31t36 -86q0 -64 -47 -100.5t-118 -36.5zM203 163q-13 0 -31 -6q-1 -61 5.5 -81.5t27.5 -20.5q37 0 37 53q0 55 -39 55z" />
<glyph horiz-adv-x="369" d="M30 289l9 107h304l16 -14v-67q-80 -73 -114.5 -150t-36.5 -175h-138q6 91 51.5 173.5t117.5 135.5v2h-66q-88 0 -143 -12z" />
<glyph horiz-adv-x="441" d="M214 -18q-81 0 -127.5 30.5t-46.5 80.5q0 41 29.5 70t69.5 37v2q-23 13 -37 23t-27.5 29.5t-13.5 42.5q0 46 45 76.5t119 30.5q77 0 116 -31.5t39 -69.5q0 -27 -20.5 -52.5t-54.5 -40.5v-2q96 -38 96 -104q0 -49 -49 -85.5t-138 -36.5zM221 337q-16 0 -27 -9t-11 -25 q0 -34 49 -55q26 26 26 55q0 15 -10.5 24.5t-26.5 9.5zM210 152q-44 -18 -44 -58q0 -20 14 -33t39 -13q23 0 39.5 11t16.5 32q0 39 -65 61z" />
<glyph horiz-adv-x="419" d="M40 263q0 66 47.5 103.5t120.5 37.5q76 0 126 -44t50 -133q0 -101 -65 -173t-185 -72q-31 0 -51 5l-2 86q34 -4 48 -4q51 0 78.5 19t37.5 60q-35 -8 -63 -8q-65 0 -103.5 32t-38.5 91zM177 270q0 -58 44 -58q11 0 24 3q-1 58 -8 83t-28 25q-32 0 -32 -53z" />
<glyph horiz-adv-x="635" d="M605 348q0 -170 -85 -264t-210 -94q-123 0 -201.5 91.5t-78.5 253.5q0 167 84 266t212 99q125 0 202 -96t77 -256zM215 350q0 -124 23.5 -187t81.5 -63t79 61t21 180q0 125 -23 187t-81 62q-55 0 -78 -57.5t-23 -182.5z" />
<glyph horiz-adv-x="395" d="M138 519h-3l-95 -10l-25 110l280 80l20 -20v-679h-180v384q0 97 3 135z" />
<glyph horiz-adv-x="630" d="M106 0l-20 125q52 33 110.5 84.5t110.5 125.5t52 134q0 44 -24.5 72.5t-69.5 28.5q-71 0 -161 -67l-17 142q104 55 222 55q104 0 169.5 -52.5t65.5 -136.5q0 -98 -86 -200.5t-202 -170.5h118q87 0 160 10l-10 -150h-418z" />
<glyph horiz-adv-x="536" d="M41 647q39 22 99.5 37.5t115.5 15.5q91 0 150.5 -43.5t59.5 -110.5q0 -54 -38.5 -102.5t-101.5 -68.5q80 -14 127.5 -61t47.5 -116q0 -92 -81.5 -150t-211.5 -58q-95 0 -173 23l16 120q67 -23 149 -23q51 0 83.5 21t32.5 61q0 79 -142 79q-43 0 -86 -7v120q81 8 137 38.5 t56 82.5q0 29 -20 47t-59 18q-74 0 -154 -45z" />
<glyph horiz-adv-x="645" d="M25 264l270 424l198 11l20 -20v-398q68 4 102 9l-10 -139h-92v-151h-170v151h-298zM170 281v-3q54 2 173 2v95q0 133 7 193h-3z" />
<glyph horiz-adv-x="571" d="M65 13l16 125q67 -23 145 -23q52 0 84.5 25t32.5 74q0 91 -104 91q-61 0 -131 -28l-25 15v398h259q87 0 160 10l-10 -150h-264v-129q43 9 83 9q96 0 156.5 -53t60.5 -150q0 -113 -83.5 -175t-214.5 -62q-87 0 -165 23z" />
<glyph horiz-adv-x="603" d="M316 -10q-116 0 -191 77t-75 226q0 176 103.5 291.5t277.5 115.5q60 0 85 -10l-15 -131q-35 11 -71 11q-67 0 -122.5 -46t-69.5 -133h3q51 24 119 24q93 0 148 -52t55 -145q0 -107 -71 -167.5t-176 -60.5zM304 305q-43 0 -69 -24q0 -102 14.5 -141.5t55.5 -39.5 q73 0 73 101q0 104 -74 104z" />
<glyph horiz-adv-x="545" d="M25 530l13 160h455l22 -20v-100q-122 -125 -181 -264.5t-64 -305.5h-185q9 156 83.5 303.5t183.5 243.5v3h-116q-124 0 -211 -20z" />
<glyph horiz-adv-x="624" d="M303 -10q-119 0 -188.5 50.5t-69.5 132.5q0 68 46 116.5t108 65.5v3q-56 33 -90 71t-34 93q0 76 67.5 127t176.5 51q112 0 171 -51.5t59 -117.5q0 -48 -33.5 -91t-87.5 -70v-3q151 -66 151 -177q0 -82 -72.5 -141t-203.5 -59zM313 600q-31 0 -52 -18.5t-21 -49.5 q0 -63 88 -105q56 46 56 104q0 31 -20 50t-51 19zM297 284q-37 -16 -59.5 -45t-22.5 -64q0 -37 25.5 -61t69.5 -24q42 0 70.5 21.5t28.5 59.5q0 70 -112 113z" />
<glyph horiz-adv-x="603" d="M40 464q0 110 71.5 173t179.5 63q114 0 188 -75.5t74 -222.5q0 -110 -41 -202t-127 -151t-204 -59q-46 0 -78 8l-2 128q36 -6 68 -6q87 0 134.5 41t63.5 124h-3q-44 -27 -114 -27q-95 0 -152.5 54.5t-57.5 151.5zM225 475q0 -52 20.5 -80t59.5 -28q31 0 63 15 q0 198 -77 198q-32 0 -49 -29t-17 -76z" />
<glyph horiz-adv-x="454" d="M419 495q0 -101 -57 -157t-140 -56q-82 0 -134.5 54t-52.5 150q0 99 56 158.5t142 59.5q84 0 135 -57t51 -152zM173 496q0 -72 11.5 -106.5t44.5 -34.5q18 0 29 9t16 30.5t6 41t1 54.5q0 74 -11 107t-45 33q-31 0 -41.5 -30.5t-10.5 -103.5z" />
<glyph horiz-adv-x="306" d="M109 586h-2l-59 -4l-18 75l196 49l15 -14v-400h-134v215q0 56 2 79z" />
<glyph horiz-adv-x="389" d="M55 292l-15 83q45 20 105.5 78t60.5 109q0 25 -13.5 40.5t-38.5 15.5q-44 0 -101 -41l-12 96q70 33 146 33q69 0 113 -32t44 -83q0 -56 -53 -113.5t-124 -91.5h62q54 0 105 6l-7 -100h-272z" />
<glyph horiz-adv-x="391" d="M43 672q66 32 143 32q62 0 102 -26.5t40 -66.5q0 -31 -23.5 -59t-61.5 -40q49 -9 78.5 -37.5t29.5 -67.5q0 -55 -55 -90t-141 -35q-66 0 -115 14l12 80q42 -14 96 -14q29 0 47.5 10.5t18.5 30.5q0 40 -85 40q-16 0 -58 -4v80q47 2 83.5 17.5t36.5 45.5q0 34 -46 34 q-47 0 -97 -25z" />
<glyph horiz-adv-x="437" d="M35 452l151 248l148 6l15 -13v-229q20 1 53 5l-7 -93h-46v-84h-126v84h-174zM142 464v-2h11.5t28 0.5t40.5 0.5v40q0 81 6 119h-2z" />
<glyph horiz-adv-x="414" d="M60 296l11 84q42 -14 94 -14q67 0 67 50q0 46 -58 46q-38 0 -86 -18l-18 10v242h177q64 0 104 6l-7 -101h-167v-60q25 5 51 5q63 0 102 -32t39 -89q0 -69 -56 -106t-144 -37q-61 0 -109 14z" />
<glyph horiz-adv-x="419" d="M214 282q-77 0 -128 45t-51 134q0 103 69.5 173t187.5 70q36 0 56 -6l-11 -88q-26 6 -46 6q-38 0 -72 -22.5t-44 -64.5h2q40 7 69 7q61 0 97 -31t36 -86q0 -64 -47 -100.5t-118 -36.5zM203 463q-13 0 -31 -6q-1 -61 5.5 -81.5t27.5 -20.5q37 0 37 53q0 55 -39 55z" />
<glyph horiz-adv-x="369" d="M30 591l9 107h304l16 -14v-67q-80 -73 -114.5 -150t-36.5 -175h-138q6 91 51.5 173.5t117.5 135.5v2h-66q-88 0 -143 -12z" />
<glyph horiz-adv-x="441" d="M214 284q-81 0 -127.5 30.5t-46.5 80.5q0 41 29.5 70t69.5 37v2q-23 13 -37 23t-27.5 29.5t-13.5 42.5q0 46 45 76.5t119 30.5q77 0 116 -31.5t39 -69.5q0 -27 -20.5 -52.5t-54.5 -40.5v-2q96 -38 96 -104q0 -49 -49 -85.5t-138 -36.5zM221 639q-16 0 -27 -9t-11 -25 q0 -34 49 -55q26 26 26 55q0 15 -10.5 24.5t-26.5 9.5zM210 454q-44 -18 -44 -58q0 -20 14 -33t39 -13q23 0 39.5 11t16.5 32q0 39 -65 61z" />
<glyph horiz-adv-x="419" d="M40 565q0 66 47.5 103.5t120.5 37.5q76 0 126 -44t50 -133q0 -101 -65 -173t-185 -72q-31 0 -51 5l-2 86q34 -4 48 -4q51 0 78.5 19t37.5 60q-35 -8 -63 -8q-65 0 -103.5 32t-38.5 91zM177 572q0 -58 44 -58q11 0 24 3q-1 58 -8 83t-28 25q-32 0 -32 -53z" />
<glyph horiz-adv-x="575" d="M555 272q0 -134 -79.5 -208t-195.5 -74q-114 0 -187 71t-73 198q0 132 78 211t198 79q116 0 187.5 -75.5t71.5 -201.5zM205 274q0 -86 19 -130t66 -44q46 0 63 42t17 123q0 87 -18.5 130.5t-65.5 43.5q-44 0 -62.5 -39.5t-18.5 -125.5z" />
<glyph horiz-adv-x="455" d="M188 369h-3l-95 -10l-25 110l280 80l20 -20v-529h-180v234q0 97 3 135z" />
<glyph d="M106 0l-20 125q86 38 174.5 106.5t88.5 126.5q0 27 -19.5 44t-54.5 17q-76 0 -171 -67l-17 142q108 55 233 55q97 0 155.5 -40t58.5 -108q0 -76 -70 -144.5t-173 -116.5h73q93 0 170 10l-10 -150h-418z" />
<glyph horiz-adv-x="536" d="M41 496q39 22 99.5 37.5t115.5 15.5q91 0 150.5 -43.5t59.5 -110.5q0 -54 -38.5 -102.5t-101.5 -68.5q80 -14 127.5 -61t47.5 -116q0 -92 -81.5 -150t-211.5 -58q-95 0 -173 23l16 120q67 -23 149 -23q51 0 83.5 21t32.5 61q0 79 -142 79q-43 0 -86 -7v120q81 8 137 38.5 t56 82.5q0 29 -20 47t-59 18q-74 0 -154 -45z" />
<glyph horiz-adv-x="621" d="M30 113l253 416l198 11l20 -20v-390q54 2 105 9l-10 -139h-95v-151h-170v151h-281zM175 130v-3q48 2 156 2v87q0 133 7 193h-3z" />
<glyph horiz-adv-x="551" d="M65 -138l16 125q67 -23 145 -23q52 0 84.5 25t32.5 74q0 91 -104 91q-61 0 -131 -28l-25 15v398h259q87 0 160 10l-10 -150h-264v-129q43 9 83 9q96 0 156.5 -53t60.5 -150q0 -113 -83.5 -175t-214.5 -62q-87 0 -165 23z" />
<glyph horiz-adv-x="583" d="M316 -10q-116 0 -191 77t-75 226q0 176 103.5 291.5t277.5 115.5q60 0 85 -10l-15 -131q-35 11 -71 11q-67 0 -122.5 -46t-69.5 -133h3q51 24 119 24q93 0 148 -52t55 -145q0 -107 -71 -167.5t-176 -60.5zM304 305q-43 0 -69 -24q0 -102 14.5 -141.5t55.5 -39.5 q73 0 73 101q0 104 -74 104z" />
<glyph horiz-adv-x="545" d="M25 379l13 160h455l22 -20v-100q-122 -125 -181 -264.5t-64 -305.5h-185q9 156 83.5 303.5t183.5 243.5v3h-116q-124 0 -211 -20z" />
</font>
</defs>
</svg>
