<?xml version="1.0" standalone="no"?>
<!DOCTYPE svg PUBLIC "-//W3C//DTD SVG 1.1//EN" "http://www.w3.org/Graphics/SVG/1.1/DTD/svg11.dtd" >
<svg xmlns="http://www.w3.org/2000/svg" xmlns:xlink="http://www.w3.org/1999/xlink" version="1.1">
<metadata></metadata>
<defs>
<font id="indivisa_text_sansbold_italic" horiz-adv-x="594" >
<font-face units-per-em="1000" ascent="753" descent="-247" />
<missing-glyph horiz-adv-x="254" />
<glyph unicode="&#x2f;symbol&#x33;&#x2f;" horiz-adv-x="957" d="M505 638l68 -270h270l-203 -135l136 -270l-271 135l-270 -270l135 405l-270 203l338 -68zM814 87q18 0 30.5 -12.5t12.5 -31.5q0 -18 -12.5 -30.5t-30.5 -12.5t-30.5 12.5t-12.5 30.5q0 19 12.5 31.5t30.5 12.5zM854 43q0 17 -11.5 29t-28.5 12t-28.5 -12t-11.5 -29 t12 -28.5t28 -11.5t28 11.5t12 28.5zM796 68h18q8 0 11 -2q6 -3 6 -10q0 -5 -4 -9q-3 -3 -6 -3q7 -3 8 -10q2 -14 3 -16h-7q-1 2 -2 7.5t-1 6.5q0 9 -10 9h-9v-23h-7v50zM803 47h10q5 0 7 1q3 3 3 6q0 9 -10 9h-10v-16z" />
<glyph unicode="&#x2f;symbol&#x32;&#x2f;" horiz-adv-x="932" d="M494 570l52 -90l-137 -240h-103l137 240l-52 90h103zM357 570l52 -90l-138 -240h-103l138 240l-52 90h103zM752 120h-103l-137 240l51 90l137 -240h103zM683 0h-103l-137 240l51 90l138 -240h103zM100 120l51 90h275l51 -90h-274l-52 -90zM168 0l52 90h274l52 -90h-275 l-51 -90zM789 88q18 0 30.5 -13t12.5 -31t-12.5 -31t-30.5 -13t-30.5 13t-12.5 31t12.5 31t30.5 13zM829 44q0 16 -11.5 28t-28.5 12t-28.5 -12t-11.5 -28t11.5 -28t28.5 -12t28.5 12t11.5 28zM771 69h18q7 0 11 -2q5 -4 5 -11q0 -5 -3 -8q-1 -2 -6 -4q7 -1 8 -9q0 -8 3 -16 h-8q-1 2 -1.5 6.5t-0.5 6.5q-1 10 -11 10h-8v-23h-7v50zM778 47h10q5 0 7 1q3 3 3 7q0 8 -10 8h-10v-16z" />
<glyph unicode="&#x2f;symbol&#x35;&#x2f;" horiz-adv-x="705" d="M232 -6l-132 136l124 234l129 -136zM474 -6l-121 234l128 136l124 -234z" />
<glyph unicode="&#x2f;symbol&#x31;&#x2f;" horiz-adv-x="5534" d="M1865 412q-25 0 -40.5 14.5t-15.5 37.5q0 35 32.5 64t70.5 29q24 0 39 -13.5t15 -37.5q0 -36 -31 -65t-70 -29zM1284 412q-26 0 -41.5 14.5t-15.5 37.5q0 35 33 64t71 29q24 0 38.5 -13.5t14.5 -37.5q0 -36 -31 -65t-69 -29zM959 0q0 42 11 108q-16 -50 -51.5 -82.5 t-78.5 -32.5q-41 0 -63 29.5t-22 82.5q0 62 27 121t84 101t132 42q17 0 25 -1l16 73l6 102l136 7q0 -67 -46 -273t-46 -277h-130zM100 0l78 364q17 86 21 136l128 7l11 -15l-104 -492h-134zM3503 492l-57 -492h-131l20 175q5 50 33 215h-3q-31 -102 -81 -215l-76 -175h-149 l-2 175q-2 121 9 215h-2q-32 -130 -59 -215l-53 -175h-109l154 500l184 6l1 -137q2 -134 -15 -259h2q39 126 94 259l56 131l169 7zM5316 300q-37 -177 -37 -183q0 -34 36 -34q25 0 59 18l-9 -79q-52 -29 -114 -29q-105 0 -105 100q0 20 40 210l-47 1l9 44l54 14l53 95l81 6 l13 -15l-20 -86h99l6 -14l-17 -51zM336 0q0 79 41 260l6 102l137 7q0 -31 -7 -89h2q52 89 134 89q34 0 53 -19.5t19 -51.5q0 -27 -26 -147q-18 -85 -18 -151h-131q0 55 19 150q15 78 15 87q0 24 -17 24q-34 0 -64 -82.5t-32 -178.5h-131zM4716 0q0 79 41 260l6 102l137 7 q0 -12 -7 -89h2q52 89 134 89q34 0 53 -19.5t19 -51.5q0 -27 -26 -147q-19 -90 -19 -151h-130q0 55 19 150q15 78 15 87q0 24 -17 24q-35 0 -65 -82t-32 -179h-130zM4653 51q-67 -58 -159 -58q-65 0 -103.5 35t-38.5 102q0 94 68.5 166.5t167.5 72.5q54 0 86.5 -23.5 t32.5 -64.5q0 -57 -60 -96.5t-161 -43.5v-1q0 -64 63 -64q42 0 90 28zM3936 0q0 74 42 260l5 102l137 7q0 -31 -7 -89h2q53 89 134 89q34 0 53 -19.5t19 -51.5q0 -27 -26 -147q-18 -85 -18 -151h-131q0 55 19 150q15 71 15 87q0 24 -17 24q-34 0 -64 -82.5t-32 -178.5h-131z M3768 369q87 0 145 -32l-28 -128q-31 -145 -31 -209h-130q0 45 12 112q-15 -52 -51 -85.5t-81 -33.5q-41 0 -63 29.5t-22 83.5q0 46 16 91.5t46 84t79 63t108 24.5zM1170 0q0 72 27 193l14 67l6 102l137 7q0 -46 -27 -177t-27 -192h-130zM1399 362l140 7q13 -129 -5 -289h2 q76 151 91 284q22 5 50 5q32 0 48.5 -8.5t16.5 -33.5q0 -46 -51 -147.5t-116 -179.5h-149q-5 228 -27 362zM1752 0q0 69 26 193l15 67l6 102l137 7q0 -46 -27 -177t-27 -192h-130zM2525 369q88 0 146 -32l-29 -128q-31 -145 -31 -209h-130q0 37 12 112q-15 -52 -51 -85.5 t-81 -33.5q-41 0 -62.5 29.5t-21.5 83.5q0 62 26.5 120.5t85 100.5t136.5 42zM2245 256q-52 30 -97 30q-18 0 -30 -7t-12 -19q0 -14 20 -26.5t44 -22t44 -33t20 -56.5q0 -57 -53 -93t-128 -36q-78 0 -118 28l27 93q57 -38 111 -38q19 0 29.5 7.5t10.5 18.5q0 13 -20 26 t-44 23t-44 33t-20 55q0 56 54.5 93t128.5 37q58 0 104 -18zM4490 177q47 10 73 34t26 59q0 31 -22 31q-28 0 -48.5 -38.5t-28.5 -85.5zM913 101q22 0 44.5 39.5t37.5 94.5q1 9 8 40l3 14q-14 8 -27 8q-33 0 -61.5 -54.5t-28.5 -101.5q0 -40 24 -40zM2435 101q23 0 47 43.5 t37 100.5q3 14 9 44q-14 8 -27 8q-34 0 -62 -54.5t-28 -101.5q0 -40 24 -40zM3677 101q23 0 47 43t38 101q1 8 4.5 24.5t4.5 19.5q-16 8 -27 8q-34 0 -62.5 -54.5t-28.5 -101.5q0 -40 24 -40z" />
<glyph unicode="&#x2f;symbol&#x34;&#x2f;" horiz-adv-x="2607" d="M1684 406q0 65 -11 128l126 14l15 -15v-533h-130v406zM1889 406q0 62 -10 128l126 14l14 -15v-533h-130v406zM427 101v-101h-320v362q0 80 -7 135l126 7l14 -14v-396zM925 21l7 109q62 -36 144 -36q50 0 50 36q0 20 -31.5 41.5t-69 40.5t-69 57t-31.5 88q0 69 55 108 t138 39q80 0 127 -18l-14 -111q-56 29 -111 29q-27 0 -42.5 -11t-15.5 -29q0 -20 20.5 -38t50 -34t59.5 -35t50.5 -51t20.5 -72q0 -66 -53.5 -103.5t-139.5 -37.5q-41 0 -83.5 8t-61.5 20zM2405 213q0 -24 -1 -36l-11 -11h-191q14 -83 98 -83q44 0 84 21l7 -81 q-46 -30 -127 -30q-90 0 -144 47.5t-54 134.5q0 85 52 139t132 54q72 0 113.5 -43t41.5 -112zM795 0l-106 -7q-11 16 -21 49h-4q-34 -49 -104 -49q-43 0 -70 23t-27 66q0 113 191 118v20q0 54 -58 54q-55 0 -108 -29l-8 97q72 26 150 26q154 0 154 -135q0 -25 -2 -69t-2 -70 q0 -51 15 -94zM1626 0l-107 -7q-12 20 -21 49h-3q-34 -49 -105 -49q-43 0 -69.5 23t-26.5 66q0 113 191 118v20q0 54 -58 54q-54 0 -109 -29l-7 97q72 26 150 26q153 0 153 -135q0 -25 -1.5 -69.5t-1.5 -69.5q0 -51 15 -94zM2199 207l78 4q2 14 2 26q0 59 -34 59 q-44 0 -46 -89zM654 74v88q-29 -3 -47 -18t-18 -39q0 -18 10 -29t27 -11q16 0 28 9zM1485 74v88q-29 -3 -47 -18t-18 -39q0 -18 10 -29t27 -11q16 0 28 9zM2464 85q18 0 30.5 -13t12.5 -31t-12.5 -31t-30.5 -13t-31 13t-13 31t13 31t31 13zM2504 41q0 17 -12 28.5t-28 11.5 t-28 -11.5t-12 -28.5t12 -28.5t28 -11.5t28 11.5t12 28.5zM2446 66h18q7 0 11 -3q5 -3 5 -10q0 -5 -3 -9q-3 -3 -6 -3q7 -1 8 -10q0 -7 3 -15h-8q-1 2 -1.5 6.5t-0.5 6.5q-1 9 -11 9h-8v-22h-7v50zM2453 44h10q5 0 7 1q3 3 3 7q0 8 -10 8h-10v-16z" />
<glyph unicode=" "  horiz-adv-x="254" />
<glyph unicode="&#x09;" horiz-adv-x="254" />
<glyph unicode="&#xa0;" horiz-adv-x="254" />
<glyph unicode="!" horiz-adv-x="310" d="M186 214h-76q43 264 74 474l117 10l10 -14q-51 -222 -125 -470zM186 85q0 -36 -28.5 -65t-63.5 -29q-24 0 -38 14t-14 36q0 34 29 62.5t65 28.5q23 0 36.5 -12.5t13.5 -34.5z" />
<glyph unicode="&#x22;" horiz-adv-x="341" d="M247 758l4 -19l-88 -262h-42l30 281h96zM398 758l4 -19l-88 -262h-42l30 281h96z" />
<glyph unicode="#" horiz-adv-x="717" d="M175 -10l-57 9l-7 8l61 131h-125l-6 8l21 59h141l60 130h-131l-6 8l21 59h147l67 146l57 -10l6 -8l-59 -128h154l68 146l56 -10l6 -8l-59 -128h121l6 -8l-21 -59h-137l-60 -130h132l7 -8l-22 -59h-148l-68 -148l-56 9l-7 8l60 131h-154zM274 205h154l60 130h-154z" />
<glyph unicode="$" horiz-adv-x="496" d="M141 -140l-6 8l26 122q-108 2 -159 37l31 104q61 -45 152 -45q53 0 85 26.5t32 68.5q0 31 -20 59.5t-48 52t-56 49t-48 62.5t-20 81q0 81 60 138t156 71l28 131l45 3l7 -8l-27 -122h1q87 0 140 -29l-38 -106q-52 39 -120 39q-56 0 -88.5 -28.5t-32.5 -72.5 q0 -32 19.5 -60.5t48 -51.5t56.5 -48.5t47.5 -62.5t19.5 -81q0 -83 -61.5 -137.5t-156.5 -66.5l-27 -130z" />
<glyph unicode="%" horiz-adv-x="991" d="M476 552q0 -101 -68 -179t-169 -78q-65 0 -103 37.5t-38 108.5q0 101 69.5 179.5t168.5 78.5q66 0 103 -38t37 -109zM767 698l-423 -708h-54l422 708h55zM202 435q0 -80 54 -80q52 0 84.5 68.5t32.5 138.5q0 78 -54 78q-36 0 -64 -35.5t-40.5 -81t-12.5 -88.5zM921 180 q0 -101 -68 -179t-169 -78q-65 0 -103 37.5t-38 108.5q0 101 69.5 179.5t168.5 78.5q66 0 103 -38t37 -109zM647 63q0 -80 54 -80q35 0 62.5 36t40.5 82t13 89q0 78 -53 78q-36 0 -64 -35.5t-40.5 -81t-12.5 -88.5z" />
<glyph unicode="&#x26;" horiz-adv-x="780" d="M720 94q0 -39 -24.5 -66.5t-69.5 -37.5l-7 7q11 15 11 38q0 28 -23.5 52t-68.5 51q-107 -148 -272 -148q-92 0 -150.5 47t-58.5 122q0 66 46.5 128t122.5 99q-18 42 -18 94q0 102 69 160t170 58q68 0 107.5 -27t39.5 -73q0 -33 -18.5 -60.5t-47.5 -38.5q144 3 271 9l7 -5 q0 -44 -15 -93q-70 5 -154 14q-5 -91 -40 -179q59 -34 91 -69.5t32 -81.5zM331 505q0 -32 13 -61.5t30 -50t50 -44.5t54 -36.5t62 -34.5q25 69 28 154q-56 7 -111 17l-2 27q34 45 34 82q0 26 -14.5 43.5t-45.5 17.5q-42 0 -70 -30.5t-28 -83.5zM180 191q0 -55 36 -86t93 -31 q102 0 174 95q-57 31 -86 47.5t-73 50.5t-69 69q-37 -29 -56 -68t-19 -77z" />
<glyph unicode="'" horiz-adv-x="190" d="M247 758l4 -19l-88 -262h-42l30 281h96z" />
<glyph unicode="(" horiz-adv-x="413" d="M87 145q0 184 99.5 350.5t262.5 262.5l31 -59q-129 -106 -200 -253.5t-71 -303.5q0 -161 93 -279l-57 -60q-158 124 -158 342z" />
<glyph unicode=")" horiz-adv-x="414" d="M340 417q0 -184 -99.5 -351t-262.5 -263l-31 60q128 105 199 252.5t71 303.5q0 162 -92 280l56 59q159 -123 159 -341z" />
<glyph unicode="*" horiz-adv-x="494" d="M235 354l-3 15l57 152l-155 -105l-24 65l13 13l158 55l-146 63l51 64l16 -2l99 -98l11 168h74l3 -15l-58 -155l156 108l24 -65l-12 -13l-156 -55l144 -63l-52 -64l-15 2l-100 99l-11 -169h-74z" />
<glyph unicode="+" d="M532 314h-185l-40 -189h-67l39 189h-197l14 63q69 3 197 3l38 185h69l-39 -184q73 1 187 1l4 -7z" />
<glyph unicode="," horiz-adv-x="259" d="M-46 -161q74 86 102 152q-21 3 -33.5 17.5t-12.5 36.5q0 38 30.5 68.5t68.5 30.5q27 0 43 -15t16 -43q0 -58 -59 -139.5t-125 -138.5z" />
<glyph unicode="-" horiz-adv-x="387" d="M39 263l3 44h322l-4 -44h-321z" />
<glyph unicode="." horiz-adv-x="263" d="M174 91q0 -38 -32 -69.5t-71 -31.5q-27 0 -43 15.5t-16 39.5q0 37 33 68t72 31q26 0 41.5 -14.5t15.5 -38.5z" />
<glyph unicode="/" horiz-adv-x="359" d="M416 748l6 -8l-346 -747l-58 11l-6 8l346 747z" />
<glyph unicode="0" horiz-adv-x="689" d="M649 452q0 -119 -50 -225.5t-136 -171.5t-183 -65q-93 0 -146.5 62.5t-53.5 181.5q0 118 50.5 225t137 173t183.5 66q93 0 145.5 -63.5t52.5 -182.5zM201 225q0 -157 99 -157q61 0 114.5 62t83.5 153t30 181q0 156 -98 156q-61 0 -115 -61.5t-84 -152.5t-30 -181z" />
<glyph unicode="1" horiz-adv-x="356" d="M201 571h-3l-111 -20l-1 73l245 73l11 -13l-146 -684h-119l92 430q24 111 32 141z" />
<glyph unicode="2" horiz-adv-x="536" d="M1 0l4 89q402 277 402 432q0 40 -26.5 64t-75.5 24q-77 0 -190 -62l8 96q118 55 229 55q84 0 134.5 -39t50.5 -103q0 -56 -39 -121.5t-104 -127t-132 -113t-141 -98.5h166q88 0 162 10l-32 -106h-416z" />
<glyph unicode="3" horiz-adv-x="518" d="M137 644q43 23 102.5 38.5t112.5 15.5q74 0 118 -33t44 -88q0 -66 -58 -124.5t-147 -84.5q78 -8 120.5 -44.5t42.5 -99.5q0 -96 -92.5 -165t-226.5 -69q-85 0 -161 23l30 84q67 -23 146 -23q76 0 127 38.5t51 93.5q0 89 -149 89q-40 0 -79 -7l18 83q110 17 179.5 65 t69.5 106q0 67 -86 67q-76 0 -174 -50z" />
<glyph unicode="4" horiz-adv-x="577" d="M27 251l375 435l132 10l11 -13l-90 -421q35 2 93 8l-32 -99h-80l-36 -171h-114l37 171h-299zM128 261v-3q60 2 205 2h9l34 161q29 133 42 176h-2z" />
<glyph unicode="5" horiz-adv-x="565" d="M21 13l30 87q68 -24 134 -24q83 0 136.5 45t53.5 111q0 52 -34.5 76t-89.5 24q-68 0 -127 -24l-16 13l78 367h228q88 0 162 10l-29 -106h-283l-39 -185q46 11 100 11q79 0 127.5 -39.5t48.5 -117.5q0 -113 -94 -192t-237 -79q-78 0 -149 23z" />
<glyph unicode="6" horiz-adv-x="600" d="M249 -10q-89 0 -139 53t-50 161q0 124 61 238.5t165 185t220 70.5q56 0 80 -12l-30 -90q-30 13 -70 13q-87 0 -164 -66t-113 -189h2q66 52 164 52q75 0 117.5 -38.5t42.5 -111.5q0 -108 -84 -187t-202 -79zM324 328q-36 0 -74.5 -16t-58.5 -42q-12 -60 -12 -97 q0 -105 83 -105q61 0 104 50.5t43 117.5q0 92 -85 92z" />
<glyph unicode="7" horiz-adv-x="520" d="M113 576l36 112h430l12 -14l-15 -68q-142 -128 -246 -284t-147 -322h-123q43 156 158.5 319.5t241.5 270.5l1 2h-155q-106 0 -193 -16z" />
<glyph unicode="8" horiz-adv-x="586" d="M220 -10q-94 0 -149.5 40t-55.5 105q0 66 57 125.5t146 89.5l1 2q-101 63 -101 147q0 82 77 140.5t184 58.5q86 0 134 -40t48 -99t-48 -112.5t-126 -86.5l-1 -3q125 -59 125 -157q0 -85 -85 -147.5t-206 -62.5zM359 626q-52 0 -89.5 -32.5t-37.5 -78.5q0 -70 92 -115 q57 29 91 69t34 81q0 34 -24.5 55t-65.5 21zM278 302q-67 -27 -107 -70.5t-40 -87.5q0 -37 30 -59.5t79 -22.5q64 0 108.5 35.5t44.5 84.5q0 69 -115 120z" />
<glyph unicode="9" horiz-adv-x="595" d="M263 263q-78 0 -123 41t-45 115q0 113 83 196t201 83q89 0 142 -53t53 -156q0 -123 -59.5 -238.5t-162.5 -188t-219 -72.5q-50 0 -75 8l17 88q35 -7 67 -7q100 0 173.5 64.5t107.5 175.5h-2q-59 -56 -158 -56zM361 614q-57 0 -98 -53.5t-41 -124.5q0 -45 23 -70t68 -25 q78 0 126 55q11 63 11 98q0 120 -89 120z" />
<glyph unicode=":" horiz-adv-x="264" d="M243 412q0 -38 -32 -69.5t-71 -31.5q-27 0 -43 15.5t-16 39.5q0 37 33 68t72 31q26 0 41.5 -14.5t15.5 -38.5zM174 91q0 -38 -32 -69.5t-71 -31.5q-27 0 -43 15.5t-16 39.5q0 37 33 68t72 31q26 0 41.5 -14.5t15.5 -38.5z" />
<glyph unicode=";" horiz-adv-x="265" d="M244 412q0 -38 -31.5 -69.5t-71.5 -31.5q-27 0 -43 15.5t-16 39.5q0 37 33 68t73 31q25 0 40.5 -14.5t15.5 -38.5zM-46 -161q74 86 102 152q-21 3 -33.5 17.5t-12.5 36.5q0 38 30.5 68.5t68.5 30.5q27 0 43 -15t16 -43q0 -58 -59 -139.5t-125 -138.5z" />
<glyph unicode="&#x3c;" d="M554 578l-15 -73l-372 -167l302 -158l-16 -71q-69 32 -198 98.5t-192 102.5l-2 9l10 51z" />
<glyph unicode="=" d="M553 411h-450l14 64q170 5 451 5l6 -7zM512 218h-450l13 64q172 5 452 5l5 -7z" />
<glyph unicode="&#x3e;" d="M57 109l16 73l372 167l-302 158l15 71q68 -31 197 -98t194 -104l2 -8l-11 -51z" />
<glyph unicode="?" horiz-adv-x="482" d="M225 219l-70 -3q-4 21 -2 40q2 32 25 61t55 52t63.5 46.5t53.5 55t22 67.5q0 33 -22 52.5t-61 19.5q-38 0 -83 -20.5t-81 -57.5l-33 64q100 102 239 102q80 0 124.5 -35t45.5 -93q0 -50 -25.5 -93.5t-62 -73t-74 -53.5t-66 -46.5t-32.5 -40.5q-5 -23 -6 -36zM234 85 q0 -36 -28.5 -65t-64.5 -29q-23 0 -37 14t-14 36q0 34 29 62.5t64 28.5q24 0 37.5 -12.5t13.5 -34.5z" />
<glyph unicode="@" horiz-adv-x="1120" d="M809 -161q-131 -97 -304 -97q-192 0 -314.5 121.5t-122.5 314.5q0 119 50 227.5t131.5 185t189 122t219.5 45.5q187 0 305.5 -115.5t118.5 -286.5q0 -152 -90.5 -259t-217.5 -107q-51 0 -85.5 19.5t-47 50t-15.5 67.5t10 73h-5q-27 -78 -84 -144t-120 -66q-49 0 -78 40.5 t-29 112.5q0 63 23.5 127t64.5 117.5t105 87t137 33.5q80 0 157 -32l-47 -199q-6 -25 -8 -36t-6.5 -36.5t-5 -39.5t-0.5 -35t5 -32.5t13 -24t22.5 -18t33.5 -5.5q79 0 148.5 87t69.5 216q0 157 -106.5 259t-266.5 102q-76 0 -154 -24.5t-147 -71.5t-123 -110.5t-85.5 -147 t-31.5 -174.5q0 -175 110 -287.5t289 -112.5q57 0 111.5 13.5t86.5 28t77 39.5zM488 91q32 0 69 46t63.5 106.5t38.5 114.5l15 66q-25 12 -48 12q-70 0 -126 -88t-56 -178q0 -79 44 -79z" />
<glyph unicode="A" horiz-adv-x="646" d="M89 0h-117l313 585q32 60 52 106l141 6l16 -16l74 -681h-124l-18 170h-246zM282 362l-55 -103h189l-11 103q-13 153 -12 221h-3q-45 -100 -108 -221z" />
<glyph unicode="B" horiz-adv-x="626" d="M272 0h-222l111 523q20 91 26 165h226q92 0 142.5 -39t50.5 -107q0 -62 -40.5 -111.5t-105.5 -70.5q112 -29 112 -135q0 -101 -87.5 -163t-212.5 -62zM375 602h-76l-46 -213h68q71 0 115.5 37.5t44.5 90.5q0 85 -106 85zM322 311h-86l-47 -225h94q73 0 119.5 38t46.5 97 q0 90 -127 90z" />
<glyph unicode="C" horiz-adv-x="583" d="M514 138l-7 -100q-87 -48 -196 -48q-116 0 -178 65t-62 189q0 85 29 167t78.5 145.5t122.5 102.5t155 39q104 0 166 -42l-47 -106q-58 46 -139 46q-72 0 -127.5 -52t-81.5 -125t-26 -150q0 -86 37.5 -132t110.5 -46q83 0 165 47z" />
<glyph unicode="D" horiz-adv-x="709" d="M676 430q0 -112 -49.5 -209t-149.5 -159t-232 -62h-195l111 523q23 107 26 165h216q132 0 202.5 -64t70.5 -194zM371 599h-71l-108 -510h80q67 0 121 29t87 77t50 105t17 117q0 103 -47.5 142.5t-128.5 39.5z" />
<glyph unicode="E" horiz-adv-x="560" d="M485 96l-20 -96h-415l111 523q23 103 26 165h403l11 -14l-20 -82l-281 7l-46 -218l237 4l-22 -89l-232 5l-45 -212z" />
<glyph unicode="F" horiz-adv-x="524" d="M173 0h-123l111 523q23 103 26 165h392l10 -14l-19 -82l-270 7l-49 -233l225 3l-22 -89l-220 5z" />
<glyph unicode="G" horiz-adv-x="655" d="M590 313l10 -13l-58 -265q-95 -45 -213 -45q-127 0 -193 64t-66 188q0 116 53 220.5t149 170t210 65.5q104 0 173 -42l-43 -106q-62 49 -146 49q-78 0 -140.5 -50.5t-94 -126.5t-31.5 -159q0 -177 162 -177q41 0 77 8l4 18q22 103 29 191z" />
<glyph unicode="H" horiz-adv-x="726" d="M173 0h-123l110 518q22 110 27 170l121 10l10 -14l-63 -298h283l28 132q21 97 27 170l121 10l10 -14l-145 -684h-123l63 297h-283z" />
<glyph unicode="I" horiz-adv-x="320" d="M173 0h-123l110 518q21 97 27 170l121 10l10 -14z" />
<glyph unicode="J" horiz-adv-x="306" d="M-50 -193l-25 46q100 87 133 245l89 420q18 87 23 165l125 15l10 -13l-124 -587q-24 -113 -74.5 -179t-156.5 -112z" />
<glyph unicode="K" horiz-adv-x="639" d="M160 518q21 97 27 170l120 10l11 -14l-66 -311h81q119 153 248 325l109 -11l5 -13l-266 -319l146 -355l-140 -7q-60 134 -120 290h-83l-60 -283h-122z" />
<glyph unicode="L" horiz-adv-x="519" d="M470 96l-20 -96h-400l111 519q21 102 26 169l121 10l10 -14l-126 -595z" />
<glyph unicode="M" horiz-adv-x="886" d="M834 698l14 -14l-69 -684h-121l25 255q11 118 40 316h-2q-52 -128 -145 -316l-126 -255h-137l-18 255q-15 187 -11 316h-2q-32 -118 -96 -316l-82 -255h-103l224 690l160 7l27 -291q8 -165 -1 -302h3q53 144 128 302l146 284z" />
<glyph unicode="N" horiz-adv-x="730" d="M421 416q64 -168 85 -262h2q12 99 61 332q24 111 34 202l114 9l11 -14l-145 -683h-119q-22 54 -56.5 146.5t-50.5 131.5q-64 162 -86 251h-2q-12 -111 -38 -226l-64 -303h-117l111 523q20 92 26 165l127 8q89 -234 107 -280z" />
<glyph unicode="O" horiz-adv-x="698" d="M667 442q0 -83 -28 -164.5t-76 -145t-119 -103t-151 -39.5q-105 0 -163.5 65.5t-58.5 187.5q0 113 47 216.5t134 171t192 67.5t164 -67t59 -189zM198 246q0 -163 116 -163q68 0 121 57.5t79 138.5t26 163q0 163 -114 163q-67 0 -121 -58t-80.5 -139t-26.5 -162z" />
<glyph unicode="P" horiz-adv-x="583" d="M173 0h-123l111 523q23 110 26 165h210q99 0 153 -46t54 -129q0 -121 -93 -200.5t-228 -79.5h-60zM355 602h-54l-60 -283h49q86 0 136.5 50.5t50.5 128.5q0 104 -122 104z" />
<glyph unicode="Q" horiz-adv-x="685" d="M770 -105q0 -42 -39 -64.5t-103 -22.5q-100 0 -207.5 49t-169.5 137q-83 15 -131.5 80.5t-48.5 174.5q0 111 48.5 214t135 169t187.5 66q104 0 162.5 -70t58.5 -195q0 -162 -92.5 -289.5t-226.5 -149.5q62 -36 138 -59.5t145 -23.5q61 0 130 23q13 -15 13 -39zM310 83 q68 0 121 57.5t79 138.5t26 163q0 163 -113 163q-67 0 -121 -58t-80.5 -139t-26.5 -162q0 -163 115 -163z" />
<glyph unicode="R" horiz-adv-x="616" d="M173 0h-123l111 523q21 95 26 165h194q109 0 167 -43.5t58 -124.5q0 -79 -47 -141.5t-130 -91.5l109 -287l-139 -11q-43 123 -83 264h-90zM356 602h-55l-57 -266h51q84 0 133.5 45.5t49.5 119.5q0 101 -122 101z" />
<glyph unicode="S" horiz-adv-x="530" d="M469 206q0 -94 -80 -155t-207 -61q-116 0 -178 37l31 104q32 -21 81 -33t87 -12q60 0 97.5 29.5t37.5 75.5q0 14 -3 26t-12 23.5t-15 18.5t-21 17.5t-21 14.5t-25 15t-22 13q-54 31 -84.5 67t-30.5 94q0 93 83 155.5t209 62.5q96 0 154 -29l-38 -106q-59 39 -138 39 q-61 0 -100 -29.5t-39 -74.5q0 -15 5.5 -28.5t11.5 -22.5t21 -20.5t24 -17.5t30 -18.5t29 -17.5q52 -32 82.5 -69.5t30.5 -97.5z" />
<glyph unicode="T" horiz-adv-x="539" d="M278 0h-123l126 596q-66 -1 -202 -7l28 99h510l-13 -99q-135 6 -200 7z" />
<glyph unicode="U" horiz-adv-x="678" d="M76 164q0 45 43 239t50 286l124 9l9 -12q-97 -453 -99 -477q-1 -7 -1 -15q0 -53 29.5 -80.5t81.5 -27.5q63 0 108.5 39.5t60.5 113.5q60 281 71.5 340.5t13.5 109.5l130 8l-99 -466q-25 -115 -112 -178t-200 -63q-95 0 -152.5 46t-57.5 128z" />
<glyph unicode="V" horiz-adv-x="620" d="M194 -2l-87 687l133 13l41 -373q13 -144 11 -206q30 69 95 189l208 390l97 -8l5 -13l-376 -679h-127z" />
<glyph unicode="W" horiz-adv-x="961" d="M156 -2l-49 687l132 13l18 -381q6 -85 2 -194q24 61 90 198l178 369l119 8l20 -381q7 -130 5 -194q22 59 88 199l178 376l96 -8l5 -13l-337 -679h-127l-27 339q-3 42 -5 189h-3q-35 -84 -87 -190l-169 -338h-127z" />
<glyph unicode="X" horiz-adv-x="580" d="M-30 0l-4 13l266 322l-124 350l134 13l94 -285h2l209 285l104 -9l4 -14l-267 -334l123 -341h-137l-90 262h-2l-204 -262h-108z" />
<glyph unicode="Y" horiz-adv-x="561" d="M216 233l-109 452l133 13l44 -227l22 -151h2q13 24 47 80.5t42 70.5l139 227l97 -8l5 -13l-300 -445l-49 -232h-123z" />
<glyph unicode="Z" horiz-adv-x="525" d="M-14 0l-4 79l449 508l-329 -6l30 107h434l14 -79l-445 -508l338 7l-30 -108h-457z" />
<glyph unicode="[" horiz-adv-x="381" d="M27 -105h1l164 771h-1l20 92h239l-20 -92h-124l-164 -771h124l-19 -92h-239z" />
<glyph unicode="\" horiz-adv-x="376" d="M193 -7l-28 747l10 8l61 11l28 -747l-10 -8z" />
<glyph unicode="]" horiz-adv-x="381" d="M183 -197h-238l19 92h124l165 771h-125l20 92h239l-20 -92l-164 -771z" />
<glyph unicode="^" horiz-adv-x="492" d="M132 210h-73l218 338h62l77 -338h-73l-56 247z" />
<glyph unicode="_" horiz-adv-x="414" d="M-99 -215l9 43h414l-9 -43h-414z" />
<glyph unicode="`" horiz-adv-x="304" d="M275 572q-85 71 -125 162l11 20l110 12q12 -84 50 -183z" />
<glyph unicode="a" horiz-adv-x="548" d="M37 140q0 65 23 130t63.5 118t104 86.5t137.5 33.5q90 0 158 -32l-40 -175q-45 -199 -45 -301h-120q0 69 20 181q-33 -77 -85 -134t-111 -57q-49 0 -77 38.5t-28 111.5zM160 170q0 -79 45 -79q30 0 66 45.5t62.5 104t41.5 114.5q6 29 15 67q-31 14 -54 14 q-67 0 -121.5 -88.5t-54.5 -177.5z" />
<glyph unicode="b" horiz-adv-x="552" d="M157 609l8 139l128 10q0 -49 -13.5 -132t-25.5 -135.5t-39 -171.5q32 80 83.5 134.5t111.5 54.5q51 0 79 -38.5t28 -111.5q0 -65 -23 -130t-63.5 -118t-103 -86.5t-134.5 -33.5q-91 0 -156 31q14 93 71 359zM173 127q-1 -6 -3 -16.5t-3.5 -19t-2.5 -15.5q31 -14 54 -14 q67 0 121.5 88t54.5 178q0 79 -45 79q-32 0 -70 -47.5t-66 -111.5t-40 -121z" />
<glyph unicode="c" horiz-adv-x="468" d="M402 133l19 -47q-84 -96 -206 -96q-79 0 -125.5 47.5t-46.5 137.5q0 131 88.5 232t215.5 101q72 0 125 -37l-33 -99q-53 55 -111 55q-66 0 -113.5 -72.5t-47.5 -160.5q0 -123 98 -123q67 0 137 62z" />
<glyph unicode="d" horiz-adv-x="549" d="M439 0h-119q0 70 21 184q-33 -82 -85 -138t-114 -56q-49 0 -77 38.5t-28 110.5q0 65 23 130.5t63.5 118.5t103 86.5t134.5 33.5q25 0 46 -4l23 105l8 139l128 10q0 -93 -63.5 -375t-63.5 -383zM160 170q0 -79 45 -79t96.5 87.5t73.5 176.5q4 16 6 25l9 42q-31 14 -54 14 q-67 0 -121.5 -88.5t-54.5 -177.5z" />
<glyph unicode="e" horiz-adv-x="486" d="M400 133l18 -47q-38 -45 -92 -70.5t-110 -25.5q-78 0 -125.5 47.5t-47.5 137.5q0 127 86 230t206 103q63 0 101 -30t38 -83q0 -75 -78.5 -128t-227.5 -59q-1 -8 -1 -24q0 -52 24.5 -82.5t71.5 -30.5q66 0 137 62zM314 438q-48 0 -86 -57.5t-54 -132.5q97 12 143 49.5 t46 88.5q0 52 -49 52z" />
<glyph unicode="f" horiz-adv-x="366" d="M-13 -235l-39 43q70 98 96 220l83 396l-72 4l10 44l76 15q11 65 14 80q20 91 81.5 141t154.5 50q74 0 122 -31l-45 -91q-47 33 -95 33q-78 0 -99 -95q-4 -18 -16 -87h128l7 -13l-15 -54l-131 4l-77 -363q-23 -111 -64 -179t-119 -117z" />
<glyph unicode="g" horiz-adv-x="482" d="M139 -258q-92 0 -145 34.5t-53 87.5q0 72 106 115l26 -25q-23 -28 -23 -54q0 -43 30 -70t82 -27q50 0 83.5 23t33.5 55q0 24 -21.5 41.5t-68.5 40.5q-30 14 -44 22.5t-28 24t-14 33.5q0 32 35 57t82 40v3q-12 -1 -21 0q-65 3 -104 42.5t-39 105.5q0 94 70.5 155.5 t165.5 61.5q149 0 203 12q11 -11 11 -31q0 -18 -12 -33t-38 -15q-13 0 -26 3t-31.5 9.5t-24.5 8.5l-1 -2q65 -37 65 -114q0 -50 -23 -91.5t-55.5 -67t-65 -45.5t-55.5 -36t-23 -29q0 -11 13 -19.5t42 -22.5q60 -29 94 -59.5t34 -74.5q0 -65 -74 -112t-186 -47zM326 363 q0 38 -13.5 60t-39.5 22q-41 0 -73 -53t-32 -112q0 -39 15 -61.5t42 -22.5q43 0 72 53t29 114z" />
<glyph unicode="h" horiz-adv-x="568" d="M166 0h-119q0 96 61 380l49 229l8 139l128 10q0 -47 -11.5 -121t-21.5 -120t-34 -149h3q36 69 88.5 104.5t103.5 35.5q46 0 71 -26.5t25 -74.5q0 -34 -42 -227q-19 -89 -19 -180h-119q0 86 35 249q18 86 18 109q0 49 -42 49q-47 0 -88.5 -58.5t-66.5 -152.5t-27 -196z " />
<glyph unicode="i" horiz-adv-x="275" d="M288 690q0 -39 -31 -70t-69 -31q-26 0 -41.5 15t-15.5 39q0 36 31.5 67t70.5 31q25 0 40 -14t15 -37zM166 0h-119q0 96 37 267l20 92l8 139l128 10q0 -68 -37 -246.5t-37 -261.5z" />
<glyph unicode="j" horiz-adv-x="258" d="M276 690q0 -39 -31 -70t-70 -31q-26 0 -41 15t-15 39q0 36 31.5 67t70.5 31q25 0 40 -14t15 -37zM-48 -258l-39 43q81 89 109 221l75 353l8 139l128 10q0 -25 -3 -54t-13 -81.5t-16.5 -84t-25 -120t-27.5 -129.5q-24 -112 -66.5 -180t-129.5 -117z" />
<glyph unicode="k" horiz-adv-x="537" d="M524 419q0 -57 -48.5 -110.5t-115.5 -88.5q66 -136 130 -220h-149q-55 86 -95 205q158 112 158 184q0 38 -35 38q-44 0 -91 -64.5t-78.5 -164.5t-33.5 -198h-119q0 96 61 380l49 229l8 139l128 10q0 -25 -3.5 -58.5t-7.5 -59.5t-13.5 -73.5l-14 -70t-17.5 -81t-17 -75.5 h2q39 82 94 125t113 43q45 0 70 -24.5t25 -64.5z" />
<glyph unicode="l" horiz-adv-x="273" d="M166 0h-119q0 96 61 380l49 229l8 139l128 10q0 -93 -63.5 -375t-63.5 -383z" />
<glyph unicode="m" horiz-adv-x="849" d="M227 368q37 70 87 105t102 35q54 0 79 -37.5t15 -102.5h2q36 69 87 104.5t102 35.5q59 0 83 -42.5t8 -115.5l-42 -199q-13 -59 -13 -151h-119q0 80 42 287q13 59 7 89.5t-38 30.5q-45 0 -85.5 -55t-65.5 -145.5t-26 -191.5v-2v-13h-120q0 80 42 287q13 59 7 89.5 t-38 30.5q-48 0 -89 -62.5t-63.5 -155t-24.5 -189.5h-119q0 102 57 359l8 139l128 10q0 -44 -15 -140h2z" />
<glyph unicode="n" horiz-adv-x="568" d="M166 0h-119q0 106 57 359l8 139l128 10q0 -46 -15 -140h2q37 70 89 105t105 35q46 0 71 -26t25 -70q0 -39 -34 -196q-27 -126 -27 -216h-119q0 80 29 223q22 112 22 133q0 51 -41 51q-45 0 -86.5 -57.5t-67 -152t-27.5 -197.5z" />
<glyph unicode="o" horiz-adv-x="538" d="M497 325q0 -129 -83.5 -232t-204.5 -103q-77 0 -121.5 46t-44.5 135q0 129 84 233t204 104q78 0 122 -47.5t44 -135.5zM167 162q0 -100 63 -100q43 0 77 47.5t50 108.5t16 118q0 100 -63 100q-44 0 -78 -47t-49.5 -108t-15.5 -119z" />
<glyph unicode="p" horiz-adv-x="547" d="M184 -10q-12 0 -44 2q-32 -152 -32 -240h-120q0 94 61 378l49 229l8 139l129 10q0 -65 -22 -180q33 76 83 128t108 52q49 0 78 -41t29 -115q0 -65 -23 -129t-63.5 -116t-103.5 -84.5t-137 -32.5zM343 407q-44 0 -92.5 -80.5t-74.5 -170.5l-18 -81q32 -13 54 -13 q67 0 121.5 88t54.5 178q0 79 -45 79z" />
<glyph unicode="q" horiz-adv-x="546" d="M145 -10q-49 0 -78 41t-29 115q0 65 23 129t63.5 116t103.5 84.5t137 32.5q91 0 159 -32l-96 -428q-43 -203 -43 -296h-119q0 99 62 385l7 32q-33 -73 -84 -126t-106 -53zM161 170q0 -79 45 -79t95.5 85t74.5 175l15 71q-31 14 -54 14q-67 0 -121.5 -88.5t-54.5 -177.5z " />
<glyph unicode="r" horiz-adv-x="403" d="M166 0h-119q0 96 37 267l20 92l8 139l128 10q0 -59 -24 -181h2q34 94 77 137.5t88 43.5q42 0 67 -29l-59 -109q-28 12 -54 12q-73 0 -119.5 -111.5t-51.5 -270.5z" />
<glyph unicode="s" horiz-adv-x="437" d="M417 482l-29 -92q-60 37 -120 37q-38 0 -62 -17.5t-24 -45.5q0 -23 19.5 -40.5t47 -31t55.5 -29t47.5 -43.5t19.5 -65q0 -72 -64 -118.5t-157 -46.5t-147 36l28 91q65 -46 140 -46q38 0 62 18.5t24 45.5q0 22 -19.5 39.5t-47.5 31t-56 29.5t-47.5 43t-19.5 64 q0 72 66 119t156 47q67 0 128 -26z" />
<glyph unicode="t" horiz-adv-x="373" d="M378 433l-139 2q-61 -285 -61 -303q0 -56 56 -56q38 0 83 25l-6 -76q-66 -35 -134 -35q-121 0 -121 117q0 6 0.5 11.5t1 11.5t2 15t3 17.5t4.5 24.5t6 30t8.5 39.5t10.5 48t13 60.5t15 72l-69 1l9 45l76 15l55 123l77 6l12 -14l-28 -115h136l7 -14z" />
<glyph unicode="u" horiz-adv-x="548" d="M53 148l45 211l8 139l128 10q0 -42 -7 -90t-21.5 -118t-18.5 -89q-12 -54 -7 -87t37 -33q45 0 83.5 59t62.5 154q18 85 23 141q2 36 2 53l125 10q-2 -35 -7.5 -74t-11 -68t-18.5 -93.5t-21 -108.5q-17 -79 -17 -164h-120q0 57 10 125h-1q-35 -67 -84 -101t-99 -34 q-58 0 -82 43t-9 115z" />
<glyph unicode="v" horiz-adv-x="468" d="M106 0q-5 294 -46 498l127 10q35 -193 21 -420h2q62 105 105.5 215.5t52.5 198.5q24 6 47 6q59 0 59 -41q0 -65 -71.5 -209t-163.5 -258h-133z" />
<glyph unicode="w" horiz-adv-x="754" d="M702 508q58 0 58 -41q0 -66 -67.5 -209t-157.5 -258h-135q12 172 9 364h-2q-58 -188 -179 -364h-134q0 285 -34 498l127 9q26 -187 10 -421h2q131 224 151 412h145q24 -183 8 -412h2q59 101 99 213t50 203q24 6 48 6z" />
<glyph unicode="x" horiz-adv-x="469" d="M-11 0q18 70 66.5 140.5t120.5 123.5q-48 147 -112 234l123 10q45 -62 88 -192q79 81 91 178q22 14 52 14q57 0 57 -40t-50.5 -106.5t-125.5 -120.5q52 -161 99 -241h-125q-29 52 -73 189q-33 -32 -60.5 -84.5t-37.5 -104.5h-113z" />
<glyph unicode="y" horiz-adv-x="468" d="M415 508q59 0 59 -40q0 -57 -57.5 -177.5t-138 -242.5t-179 -214t-169.5 -92q-31 0 -49 17.5t-18 48.5q0 27 14 48q28 -7 60 -7q61 0 124 44t102 107h-57q-5 294 -46 498l127 10q35 -192 21 -420h2q62 105 105.5 215.5t52.5 198.5q24 6 47 6z" />
<glyph unicode="z" horiz-adv-x="449" d="M26 -10l-39 58q221 229 320 345q-66 20 -112 20q-74 0 -117 -57l-35 21q28 75 65 103t90 28q70 0 164 -48q13 16 37 48q19 0 33.5 -10t14.5 -30q0 -78 -314 -369q14 2 25 2q22 0 59.5 -7.5t52.5 -7.5q62 0 105 65l41 -24q-28 -79 -64.5 -108t-93.5 -29q-37 0 -91.5 13 t-73.5 13q-35 0 -67 -26z" />
<glyph unicode="{" horiz-adv-x="391" d="M149 166q0 68 -83 79l18 81q131 12 131 177q0 9 -0.5 32t-0.5 33q0 110 61 150t185 40l-13 -70q-62 0 -91.5 -34t-29.5 -112q0 -4 0.5 -24t0.5 -28q0 -93 -42 -143t-106 -63q87 -27 87 -107q0 -43 -37.5 -124t-37.5 -117q0 -64 83 -64l-18 -70q-98 0 -143.5 23.5 t-45.5 81.5q0 48 41 134.5t41 124.5z" />
<glyph unicode="|" horiz-adv-x="301" d="M18 -258l-6 8l213 1005l59 3l6 -8l-214 -1005z" />
<glyph unicode="}" horiz-adv-x="391" d="M255 394q0 -68 83 -79l-17 -81q-132 -12 -132 -177q0 -9 1 -32t1 -33q0 -110 -61 -150t-185 -40l12 70q62 0 91.5 34t29.5 112q0 4 -0.5 24t-0.5 28q0 93 42.5 143t106.5 63q-88 27 -88 107q0 43 38 124t38 117q0 64 -84 64l18 70q98 0 144 -23.5t46 -81.5 q0 -48 -41.5 -134.5t-41.5 -124.5z" />
<glyph unicode="~" d="M419 219q-26 0 -131 30.5t-118 30.5q-2 0 -5 -1t-7 -3.5t-7.5 -5.5t-9 -7.5t-9.5 -8.5l-10.5 -10.5l-10.5 -10.5t-11.5 -12t-11.5 -12l-35 27q88 115 136 115q25 0 131 -30.5t118 -30.5q3 0 7 1.5t9.5 6t10 8.5t12.5 11.5t13 12.5l15 15l16 16l34 -27q-26 -33 -43 -52.5 t-44.5 -41t-48.5 -21.5z" />
<glyph unicode="&#xa1;" horiz-adv-x="310" d="M124 413q0 36 28.5 65t63.5 29q24 0 38 -14t14 -36q0 -34 -29 -62.5t-64 -28.5q-24 0 -37.5 12.5t-13.5 34.5zM125 284h75q-20 -125 -45 -288.5t-29 -185.5l-116 -10l-11 13q49 212 126 471z" />
<glyph unicode="&#xa2;" horiz-adv-x="472" d="M171 -140l-6 8l26 124q-69 8 -106.5 56.5t-37.5 135.5q0 134 82 238.5t199 120.5l29 134l45 3l7 -8l-28 -128q65 -6 102 -38l-35 -106q-47 58 -104 58q-71 0 -122 -76.5t-51 -176.5q0 -131 96 -131q61 0 136 59l21 -47q-76 -84 -180 -95l-27 -128z" />
<glyph unicode="&#xa3;" horiz-adv-x="569" d="M494 -156q-24 -9 -67 -9q-39 0 -76.5 10t-76 32.5t-60.5 37t-63 47t-51 40.5q-27 -12 -59 -12q-33 0 -49.5 12.5t-14.5 33.5q1 21 18.5 34t43.5 13q27 0 58 -14q24 45 51 172l8 46l-112 3l13 46l110 14q32 167 95.5 257t180.5 90q93 0 139 -41l-48 -95q-50 47 -100 47 q-55 0 -87.5 -56.5t-63.5 -201.5h179l6 -12l-20 -51h-180l-5 -20q-40 -156 -109 -226q4 -2 39 -22t46 -25.5t43 -20.5t52.5 -20.5t50 -11t57.5 -5.5q49 0 92 13z" />
<glyph unicode="&#xa4;" horiz-adv-x="565" d="M422 38l-60 79q-61 -37 -126 -37q-58 0 -97 29l-86 -70l-36 46l84 70q-16 34 -16 71q0 90 70 160l-55 72l51 43q10 -11 60 -73q56 32 116 32q63 0 103 -35l91 76l37 -46l-94 -78q12 -29 12 -64q0 -82 -59 -149q8 -11 24 -31t26 -33.5t12 -16.5l-1 -8zM309 395 q-60 0 -105 -46t-45 -107q0 -42 24.5 -69.5t71.5 -27.5q62 0 105 45t43 106q0 45 -25 72t-69 27z" />
<glyph unicode="&#xa5;" horiz-adv-x="552" d="M36 110l11 49h151l18 83h-152l11 48h151l-119 395l128 13l49 -182q13 -48 28 -146h1q40 70 89 141l130 187l92 -8l5 -13l-284 -387h150l-10 -48h-152l-17 -83h151l-10 -49h-151l-24 -110h-118l24 110h-152z" />
<glyph unicode="&#xa6;" horiz-adv-x="301" d="M207 361l-54 -3l-10 7l82 390l59 3l6 -8zM76 -255l-54 -3l-10 8l82 387l59 3l6 -7z" />
<glyph unicode="&#xa7;" horiz-adv-x="561" d="M425 590q-44 0 -72.5 -27t-28.5 -68q0 -34 24 -80.5t52.5 -87.5t52.5 -100t24 -114q0 -120 -96.5 -202t-240.5 -82q-86 0 -140 25l41 117q43 -34 97 -34q47 0 77 27.5t30 70.5q0 33 -24 79t-53.5 87t-53.5 99.5t-24 114.5q0 119 96 201t238 82q85 0 138 -24l-40 -118 q-43 34 -97 34zM201 -104q95 11 151 68.5t56 134.5q0 47 -24 100t-53.5 93.5t-53.5 91t-24 92.5q0 52 32 94.5t84 52.5l-3 8q-94 -11 -150 -68t-56 -134q0 -39 16 -81t39 -78t45.5 -71.5t38.5 -74.5t16 -74q0 -52 -32.5 -94t-83.5 -52z" />
<glyph unicode="&#xa8;" horiz-adv-x="450" d="M277 688q0 -37 -28.5 -66.5t-64.5 -29.5q-24 0 -37.5 14t-13.5 36q0 35 30 64.5t65 29.5q22 0 35.5 -13t13.5 -35zM494 688q0 -37 -28.5 -66.5t-64.5 -29.5q-24 0 -38 14t-14 36q0 35 30.5 64.5t65.5 29.5q22 0 35.5 -13t13.5 -35z" />
<glyph unicode="&#xa9;" horiz-adv-x="685" d="M279 -44q-106 0 -171.5 64t-65.5 165q0 138 111.5 248.5t252.5 110.5q106 0 172 -65.5t66 -165.5q0 -89 -51 -172t-136 -134t-178 -51zM288 0q120 0 215.5 93t95.5 209q0 85 -57 141.5t-146 56.5q-120 0 -214.5 -94t-94.5 -212q0 -85 56 -139.5t145 -54.5zM476 391 l-25 -70q-32 32 -70 32q-41 0 -69 -36t-28 -86q0 -36 17 -57t47 -21q36 0 81 36l15 -38q-50 -58 -132 -58q-55 0 -86.5 32t-31.5 90q0 83 58.5 141.5t139.5 58.5q52 0 84 -24z" />
<glyph unicode="&#xaa;" horiz-adv-x="457" d="M85 407q0 68 31 131t94 106t144 43q77 0 133 -24l-32 -140q-36 -161 -35 -236h-100q-1 49 14 138q-27 -57 -69.5 -99.5t-89.5 -42.5q-41 0 -65.5 32.5t-24.5 91.5zM188 426q0 -63 38 -63q37 0 77.5 65.5t59.5 136.5q5 21 12 53q-24 11 -43 11q-56 0 -100 -66t-44 -137z " />
<glyph unicode="&#xab;" horiz-adv-x="484" d="M54 277l7 32q93 68 211 189l28 -13q-54 -97 -143 -192q50 -96 62 -192l-34 -13q-71 127 -131 189zM248 277l7 32q98 73 210 189l29 -13q-54 -97 -143 -192q49 -94 61 -192l-34 -13q-68 126 -130 189z" />
<glyph unicode="&#xac;" horiz-adv-x="577" d="M525 324l-50 -234h-68l37 174h-381l13 63q168 5 443 5z" />
<glyph unicode="&#xae;" horiz-adv-x="686" d="M278 -44q-105 0 -170.5 64.5t-65.5 165.5q0 137 111.5 247.5t253.5 110.5q106 0 171.5 -66t65.5 -166q0 -88 -51 -170.5t-136 -134t-179 -51.5zM288 0q121 0 216 94t95 208q0 85 -57 141.5t-146 56.5q-120 0 -214.5 -94.5t-94.5 -210.5q0 -86 56 -140.5t145 -54.5z M272 92h-69l46 218q14 69 15 111h123q52 0 80 -23t28 -66q0 -40 -25.5 -72.5t-66.5 -45.5l44 -122l-74 -5q-1 3 -32 108h-47zM370 365h-40l-24 -114h39q35 0 55.5 19t20.5 49q0 46 -51 46z" />
<glyph unicode="&#xaf;" horiz-adv-x="373" d="M129 630l14 69h283l-14 -69h-283z" />
<glyph unicode="&#xb0;" horiz-adv-x="340" d="M175 302q-43 0 -68.5 24.5t-25.5 67.5q0 60 47.5 107t110.5 47q43 0 69 -25t26 -67q0 -60 -48 -107t-111 -47zM226 504q-38 0 -67 -30t-29 -68q0 -28 16 -44.5t43 -16.5q37 0 66.5 30.5t29.5 69.5q0 27 -16 43t-43 16z" />
<glyph unicode="&#xb1;" horiz-adv-x="598" d="M533 365h-168l-32 -152h-67l31 152h-176l13 64q47 1 177 3l31 151h69l-32 -150q36 0 94 0.5t75 0.5l5 -7zM500 42h-450l13 64q172 5 452 5l5 -7z" />
<glyph unicode="&#xb2;" horiz-adv-x="376" d="M123 352l3 61q108 63 175 120t67 115q0 26 -16.5 40.5t-45.5 14.5q-55 0 -118 -43l6 68q66 38 149 38q57 0 91 -26.5t34 -72.5q0 -69 -73 -133t-179 -115h95q53 0 106 6l-22 -73h-272z" />
<glyph unicode="&#xb3;" horiz-adv-x="371" d="M202 734q64 32 140 32q50 0 81.5 -21t31.5 -55q0 -39 -37 -73t-89 -48q48 -5 76 -27.5t28 -58.5q0 -59 -61 -99t-149 -40q-62 0 -107 14l21 58q35 -14 86 -14q48 0 80.5 19.5t32.5 49.5q0 48 -87 48q-31 0 -59 -4l12 58q69 8 111 33.5t42 58.5q0 38 -54 38 q-49 0 -107 -28z" />
<glyph unicode="&#xb4;" horiz-adv-x="259" d="M327 753l3 -20q-81 -94 -193 -162l-42 11q90 115 127 182z" />
<glyph unicode="&#xb6;" horiz-adv-x="603" d="M162 -102q163 0 208 209l101 474l13 61h-71l-91 -423h-25q-35 0 -69 9t-66.5 28.5t-52.5 57.5t-20 90q0 118 92.5 201t227.5 83h165l-22 -107l-103 -485q-26 -124 -106 -195t-193 -71q-73 0 -135 26l21 71q69 -29 126 -29z" />
<glyph unicode="&#xb7;" horiz-adv-x="311" d="M242 300q0 -38 -31.5 -69.5t-70.5 -31.5q-27 0 -43 15t-16 39q0 38 32.5 69t72.5 31q25 0 40.5 -14.5t15.5 -38.5z" />
<glyph unicode="&#xb8;" horiz-adv-x="303" d="M165 -121q0 -51 -59.5 -83.5t-150.5 -34.5l10 43q51 7 80.5 23.5t29.5 39.5q0 29 -63 31l-9 22l54 105l65 -1l-42 -79q85 -11 85 -66z" />
<glyph unicode="&#xb9;" horiz-adv-x="272" d="M249 679h-1l-69 -10l-2 52l172 45l8 -10l-86 -404h-92l52 244q10 53 18 83z" />
<glyph unicode="&#xba;" horiz-adv-x="440" d="M460 540q0 -100 -68.5 -178.5t-168.5 -78.5q-65 0 -103 37.5t-38 108.5q0 101 69 179.5t168 78.5q66 0 103.5 -38.5t37.5 -108.5zM185 423q0 -80 54 -80q52 0 84.5 68.5t32.5 138.5q0 78 -54 78q-52 0 -84.5 -68t-32.5 -137z" />
<glyph unicode="&#xbb;" horiz-adv-x="484" d="M448 309l-7 -32q-95 -69 -210 -189l-29 13q54 97 143 192q-50 96 -62 192l35 13q68 -126 130 -189zM254 309l-7 -32q-98 -73 -210 -189l-28 13q55 100 142 192q-49 94 -61 192l34 13q70 -127 130 -189z" />
<glyph unicode="&#xbc;" horiz-adv-x="846" d="M266 619h-1l-69 -10l-2 52l172 45l8 -10l-86 -404h-92l52 244q10 53 18 83zM770 700l-576 -710h-56l575 710h57zM467 142l222 256l103 6l8 -9l-52 -245q24 1 60 5l-21 -68h-53l-20 -97h-88l21 97h-181zM544 149v-1q9 0 45.5 0.5t70.5 0.5l17 80q26 107 27 110h-1z" />
<glyph unicode="&#xbd;" horiz-adv-x="889" d="M266 619h-1l-69 -10l-2 52l172 45l8 -10l-86 -404h-92l52 244q10 53 18 83zM776 700l-576 -710h-56l575 710h57zM529 -10l3 61q50 29 86 52.5t75 55t59.5 64t20.5 63.5q0 26 -16 40.5t-45 14.5q-56 0 -119 -43l6 68q66 38 149 38q57 0 91.5 -26.5t34.5 -72.5 q0 -69 -73 -133t-179 -115h95q54 0 105 6l-22 -73h-271z" />
<glyph unicode="&#xbe;" horiz-adv-x="974" d="M219 672q64 32 140 32q51 0 82 -21t31 -55q0 -39 -37 -73t-89 -48q48 -5 76 -27.5t28 -58.5q0 -59 -61 -99t-149 -40q-62 0 -107 14l21 58q35 -14 86 -14q48 0 80.5 19.5t32.5 49.5q0 48 -87 48q-31 0 -59 -4l12 58q69 8 111 33.5t42 58.5q0 38 -54 38q-49 0 -107 -28z M881 700l-576 -710h-56l575 710h57zM593 142l223 256l102 6l8 -9l-52 -245q21 1 61 5l-22 -68h-52l-21 -97h-87l21 97h-182zM671 149v-1q9 0 45.5 0.5t69.5 0.5h1l17 80q16 73 27 110h-2z" />
<glyph unicode="&#xbf;" horiz-adv-x="481" d="M248 413q0 36 28.5 65t63.5 29q24 0 38 -14t14 -36q0 -34 -29 -62.5t-64 -28.5q-24 0 -37.5 12.5t-13.5 34.5zM257 280l70 2q3 -21 2 -40q-2 -32 -25 -61t-55 -52t-63.5 -46.5t-53.5 -55t-22 -67.5q0 -33 22 -52t61 -19q38 0 83 20t81 57l33 -64q-100 -102 -239 -102 q-79 0 -124 35.5t-46 93.5q0 50 25.5 93.5t62 72.5t74 53.5t66 46.5t32.5 41q4 20 6 36z" />
<glyph unicode="&#xc0;" horiz-adv-x="646" d="M559 774q-152 12 -250 70l-2 20l87 65q72 -64 181 -124zM89 0h-117l313 585q32 60 52 106l141 6l16 -16l74 -681h-124l-18 170h-246zM282 362l-55 -103h189l-11 103q-13 153 -12 221h-3q-45 -100 -108 -221z" />
<glyph unicode="&#xc1;" horiz-adv-x="646" d="M588 864l-10 -20q-123 -59 -280 -70l-3 31q141 64 233 124zM89 0h-117l313 585q32 60 52 106l141 6l16 -16l74 -681h-124l-18 170h-246zM282 362l-55 -103h189l-11 103q-13 153 -12 221h-3q-45 -100 -108 -221z" />
<glyph unicode="&#xc2;" horiz-adv-x="646" d="M304 771l-26 28q73 56 143 120l87 8q45 -70 96 -128l-39 -28q-43 22 -117 76q-86 -50 -144 -76zM89 0h-117l313 585q32 60 52 106l141 6l16 -16l74 -681h-124l-18 170h-246zM282 362l-55 -103h189l-11 103q-13 153 -12 221h-3q-45 -100 -108 -221z" />
<glyph unicode="&#xc3;" horiz-adv-x="646" d="M385 920q33 0 73.5 -28.5t63.5 -28.5q35 0 73 50l31 -6q-13 -50 -47 -87.5t-79 -37.5q-30 0 -75 28t-66 28q-36 0 -72 -49l-31 6q13 50 46.5 87.5t82.5 37.5zM89 0h-117l313 585q32 60 52 106l141 6l16 -16l74 -681h-124l-18 170h-246zM282 362l-55 -103h189l-11 103 q-13 153 -12 221h-3q-45 -100 -108 -221z" />
<glyph unicode="&#xc4;" horiz-adv-x="646" d="M621 868q0 -32 -28 -58t-63 -26q-23 0 -36.5 13t-13.5 32q0 31 28 57t63 26q22 0 36 -12t14 -32zM402 868q0 -32 -27.5 -58t-62.5 -26q-24 0 -37.5 12.5t-13.5 32.5q0 31 28 57t63 26q22 0 36 -12t14 -32zM89 0h-117l313 585q32 60 52 106l141 6l16 -16l74 -681h-124 l-18 170h-246zM282 362l-55 -103h189l-11 103q-13 153 -12 221h-3q-45 -100 -108 -221z" />
<glyph unicode="&#xc5;" horiz-adv-x="646" d="M550 878q0 -47 -42 -85t-94 -38q-37 0 -59.5 20t-22.5 51q0 45 43.5 82.5t96.5 37.5q36 0 57 -18.5t21 -49.5zM388 836q0 -17 10.5 -27t28.5 -10q26 0 46.5 21.5t20.5 47.5q0 35 -36 35q-27 0 -48.5 -20.5t-21.5 -46.5zM89 0h-117l313 585q32 60 52 106l141 6l16 -16 l74 -681h-124l-18 170h-246zM282 362l-55 -103h189l-11 103q-13 153 -12 221h-3q-45 -100 -108 -221z" />
<glyph unicode="&#xc6;" horiz-adv-x="893" d="M89 0h-117l406 585q13 19 32 49t35 54h422l10 -14l-20 -82l-265 6l-23 -217l226 4l-22 -89l-213 4l-22 -211l281 7l-20 -96h-395l22 170h-220zM339 362l-71 -103h169l13 103q16 112 34 221h-3q-59 -99 -142 -221z" />
<glyph unicode="&#xc7;" horiz-adv-x="583" d="M395 -121q0 -51 -59.5 -83.5t-150.5 -34.5l10 43q51 7 80.5 23.5t29.5 39.5q0 29 -63 31l-9 22l37 72q-97 11 -148 75t-51 177q0 85 29 167t78.5 145.5t122.5 102.5t155 39q104 0 166 -42l-47 -106q-58 46 -139 46q-72 0 -127.5 -52t-81.5 -125t-26 -150q0 -86 37.5 -132 t110.5 -46q83 0 165 47l-7 -100q-77 -42 -173 -47l-24 -46q85 -11 85 -66z" />
<glyph unicode="&#xc8;" horiz-adv-x="560" d="M545 774q-151 11 -249 70l-2 20l87 65q71 -64 181 -124zM485 96l-20 -96h-415l111 523q23 103 26 165h403l11 -14l-20 -82l-281 7l-46 -218l237 4l-22 -89l-232 5l-45 -212z" />
<glyph unicode="&#xc9;" horiz-adv-x="560" d="M574 864l-10 -20q-123 -59 -280 -70l-3 31q141 64 233 124zM485 96l-20 -96h-415l111 523q23 103 26 165h403l11 -14l-20 -82l-281 7l-46 -218l237 4l-22 -89l-232 5l-45 -212z" />
<glyph unicode="&#xca;" horiz-adv-x="560" d="M290 771l-26 28q80 61 144 120l86 8q45 -70 96 -128l-38 -28q-47 24 -117 76q-91 -52 -145 -76zM485 96l-20 -96h-415l111 523q23 103 26 165h403l11 -14l-20 -82l-281 7l-46 -218l237 4l-22 -89l-232 5l-45 -212z" />
<glyph unicode="&#xcb;" horiz-adv-x="560" d="M607 868q0 -32 -27.5 -58t-62.5 -26q-24 0 -37.5 12.5t-13.5 32.5q0 32 28.5 57.5t63.5 25.5q22 0 35.5 -12t13.5 -32zM388 868q0 -32 -27.5 -58t-62.5 -26q-24 0 -37.5 12.5t-13.5 32.5q0 32 28.5 57.5t63.5 25.5q22 0 35.5 -12t13.5 -32zM485 96l-20 -96h-415l111 523 q23 103 26 165h403l11 -14l-20 -82l-281 7l-46 -218l237 4l-22 -89l-232 5l-45 -212z" />
<glyph unicode="&#xcc;" horiz-adv-x="320" d="M408 774q-151 11 -249 70l-2 20l87 65q71 -64 181 -124zM173 0h-123l110 518q21 97 27 170l121 10l10 -14z" />
<glyph unicode="&#xcd;" horiz-adv-x="320" d="M438 864l-11 -20q-123 -59 -280 -70l-3 31q141 64 233 124zM173 0h-123l110 518q21 97 27 170l121 10l10 -14z" />
<glyph unicode="&#xce;" horiz-adv-x="320" d="M153 771l-26 28q80 61 144 120l86 8q41 -64 96 -128l-38 -28q-47 24 -117 76q-91 -52 -145 -76zM173 0h-123l110 518q21 97 27 170l121 10l10 -14z" />
<glyph unicode="&#xcf;" horiz-adv-x="320" d="M470 868q0 -32 -27.5 -58t-62.5 -26q-24 0 -37.5 12.5t-13.5 32.5q0 32 28.5 57.5t63.5 25.5q22 0 35.5 -12t13.5 -32zM251 868q0 -32 -27.5 -58t-62.5 -26q-24 0 -37.5 12.5t-13.5 32.5q0 32 28.5 57.5t63.5 25.5q22 0 35.5 -12t13.5 -32zM173 0h-123l110 518 q21 97 27 170l121 10l10 -14z" />
<glyph unicode="&#xd0;" horiz-adv-x="709" d="M676 430q0 -112 -49.5 -209t-149.5 -159t-232 -62h-195l66 312h-63l13 64h64l31 147q23 107 26 165h216q132 0 202.5 -64t70.5 -194zM428 312h-189l-47 -223h80q67 0 121 29t87 77t50 105t17 117q0 103 -47.5 142.5t-128.5 39.5h-71l-47 -223h188z" />
<glyph unicode="&#xd1;" horiz-adv-x="730" d="M428 920q33 0 74 -28.5t64 -28.5q21 0 37 12.5t36 37.5l31 -6q-13 -50 -47 -87.5t-79 -37.5q-31 0 -75.5 28t-65.5 28q-36 0 -72 -49l-31 6q13 50 46.5 87.5t81.5 37.5zM421 416q64 -168 85 -262h2q12 99 61 332q24 111 34 202l114 9l11 -14l-145 -683h-119 q-22 54 -56.5 146.5t-50.5 131.5q-64 162 -86 251h-2q-12 -111 -38 -226l-64 -303h-117l111 523q20 92 26 165l127 8q89 -234 107 -280z" />
<glyph unicode="&#xd2;" horiz-adv-x="698" d="M592 774q-151 11 -249 70l-2 20l87 65q71 -64 181 -124zM667 442q0 -83 -28 -164.5t-76 -145t-119 -103t-151 -39.5q-105 0 -163.5 65.5t-58.5 187.5q0 113 47 216.5t134 171t192 67.5t164 -67t59 -189zM198 246q0 -163 116 -163q68 0 121 57.5t79 138.5t26 163 q0 163 -114 163q-67 0 -121 -58t-80.5 -139t-26.5 -162z" />
<glyph unicode="&#xd3;" horiz-adv-x="698" d="M621 864l-10 -20q-123 -59 -280 -70l-3 31q141 64 233 124zM667 442q0 -83 -28 -164.5t-76 -145t-119 -103t-151 -39.5q-105 0 -163.5 65.5t-58.5 187.5q0 113 47 216.5t134 171t192 67.5t164 -67t59 -189zM198 246q0 -163 116 -163q68 0 121 57.5t79 138.5t26 163 q0 163 -114 163q-67 0 -121 -58t-80.5 -139t-26.5 -162z" />
<glyph unicode="&#xd4;" horiz-adv-x="698" d="M337 771l-26 28q68 53 144 120l86 8q45 -70 96 -128l-38 -28q-47 24 -117 76q-91 -52 -145 -76zM667 442q0 -83 -28 -164.5t-76 -145t-119 -103t-151 -39.5q-105 0 -163.5 65.5t-58.5 187.5q0 113 47 216.5t134 171t192 67.5t164 -67t59 -189zM198 246q0 -163 116 -163 q68 0 121 57.5t79 138.5t26 163q0 163 -114 163q-67 0 -121 -58t-80.5 -139t-26.5 -162z" />
<glyph unicode="&#xd5;" horiz-adv-x="698" d="M418 920q32 0 73 -28.5t65 -28.5q21 0 37 12.5t36 37.5l30 -6q-13 -51 -46.5 -88t-78.5 -37q-31 0 -75.5 28t-66.5 28q-34 0 -72 -49l-30 6q13 50 46 87.5t82 37.5zM667 442q0 -83 -28 -164.5t-76 -145t-119 -103t-151 -39.5q-105 0 -163.5 65.5t-58.5 187.5 q0 113 47 216.5t134 171t192 67.5t164 -67t59 -189zM198 246q0 -163 116 -163q68 0 121 57.5t79 138.5t26 163q0 163 -114 163q-67 0 -121 -58t-80.5 -139t-26.5 -162z" />
<glyph unicode="&#xd6;" horiz-adv-x="698" d="M654 868q0 -32 -27.5 -58t-62.5 -26q-24 0 -37.5 12.5t-13.5 32.5q0 32 28.5 57.5t63.5 25.5q22 0 35.5 -12t13.5 -32zM435 868q0 -32 -27.5 -58t-62.5 -26q-24 0 -37.5 12.5t-13.5 32.5q0 32 28.5 57.5t63.5 25.5q22 0 35.5 -12t13.5 -32zM667 442q0 -83 -28 -164.5 t-76 -145t-119 -103t-151 -39.5q-105 0 -163.5 65.5t-58.5 187.5q0 113 47 216.5t134 171t192 67.5t164 -67t59 -189zM198 246q0 -163 116 -163q68 0 121 57.5t79 138.5t26 163q0 163 -114 163q-67 0 -121 -58t-80.5 -139t-26.5 -162z" />
<glyph unicode="&#xd7;" d="M432 142l-123 158l-193 -159l-36 47l192 159l-123 160l55 45q41 -50 125 -158l191 158l37 -47l-192 -158q20 -26 124 -159l-3 -9z" />
<glyph unicode="&#xd8;" horiz-adv-x="698" d="M667 442q0 -83 -28 -164.5t-76 -145t-119 -103t-151 -39.5q-120 0 -178 84l-90 -82l-38 41l102 94q-18 49 -18 116q0 113 47 216.5t134 171t192 67.5q115 0 175 -81l86 80l40 -40l-99 -91q21 -53 21 -124zM198 246v-17l329 303q-26 73 -101 73q-67 0 -121 -58t-80.5 -139 t-26.5 -162zM540 442q0 4 -0.5 12t-0.5 12l-330 -304q26 -79 105 -79q68 0 121 57.5t79 138.5t26 163z" />
<glyph unicode="&#xd9;" horiz-adv-x="678" d="M588 774q-151 11 -249 70l-2 20l87 65q71 -64 181 -124zM76 164q0 45 43 239t50 286l124 9l9 -12q-97 -453 -99 -477q-1 -7 -1 -15q0 -53 29.5 -80.5t81.5 -27.5q63 0 108.5 39.5t60.5 113.5q60 281 71.5 340.5t13.5 109.5l130 8l-99 -466q-25 -115 -112 -178t-200 -63 q-95 0 -152.5 46t-57.5 128z" />
<glyph unicode="&#xda;" horiz-adv-x="678" d="M617 864l-10 -20q-123 -59 -280 -70l-3 31q141 64 233 124zM76 164q0 45 43 239t50 286l124 9l9 -12q-97 -453 -99 -477q-1 -7 -1 -15q0 -53 29.5 -80.5t81.5 -27.5q63 0 108.5 39.5t60.5 113.5q60 281 71.5 340.5t13.5 109.5l130 8l-99 -466q-25 -115 -112 -178 t-200 -63q-95 0 -152.5 46t-57.5 128z" />
<glyph unicode="&#xdb;" horiz-adv-x="678" d="M333 771l-26 28q80 61 144 120l86 8q45 -70 96 -128l-38 -28q-47 24 -117 76q-91 -52 -145 -76zM76 164q0 45 43 239t50 286l124 9l9 -12q-97 -453 -99 -477q-1 -7 -1 -15q0 -53 29.5 -80.5t81.5 -27.5q63 0 108.5 39.5t60.5 113.5q60 281 71.5 340.5t13.5 109.5l130 8 l-99 -466q-25 -115 -112 -178t-200 -63q-95 0 -152.5 46t-57.5 128z" />
<glyph unicode="&#xdc;" horiz-adv-x="678" d="M650 868q0 -32 -27.5 -58t-62.5 -26q-24 0 -37.5 12.5t-13.5 32.5q0 32 28.5 57.5t63.5 25.5q22 0 35.5 -12t13.5 -32zM431 868q0 -32 -27.5 -58t-62.5 -26q-24 0 -37.5 12.5t-13.5 32.5q0 32 28.5 57.5t63.5 25.5q22 0 35.5 -12t13.5 -32zM76 164q0 45 43 239t50 286 l124 9l9 -12q-97 -453 -99 -477q-1 -7 -1 -15q0 -53 29.5 -80.5t81.5 -27.5q63 0 108.5 39.5t60.5 113.5q60 281 71.5 340.5t13.5 109.5l130 8l-99 -466q-25 -115 -112 -178t-200 -63q-95 0 -152.5 46t-57.5 128z" />
<glyph unicode="&#xdd;" horiz-adv-x="561" d="M567 864l-10 -20q-123 -59 -280 -70l-3 31q141 64 233 124zM216 233l-109 452l133 13l44 -227l22 -151h2q13 24 47 80.5t42 70.5l139 227l97 -8l5 -13l-300 -445l-49 -232h-123z" />
<glyph unicode="&#xde;" horiz-adv-x="595" d="M173 0h-123l111 523q21 103 26 165h132l-22 -106h89q99 0 153.5 -45.5t54.5 -131.5q0 -116 -92.5 -197t-229.5 -81h-72zM343 493h-65l-59 -277h63q81 0 131.5 48.5t50.5 122.5q0 106 -121 106z" />
<glyph unicode="&#xdf;" horiz-adv-x="615" d="M-13 -230l-38 43q71 102 95 221l83 390l-72 4l10 44l75 14l3 14q28 132 99 195t168 63q76 0 119.5 -37t43.5 -99q0 -61 -42.5 -111t-118.5 -76q65 -33 102 -92.5t37 -136.5q0 -95 -56 -155.5t-156 -60.5q-65 0 -107 17l17 80q36 -19 80 -19q51 0 78.5 38t27.5 96 q0 131 -131 207l10 48q70 18 109 59t39 96q0 74 -67 74q-48 0 -79.5 -41t-45.5 -110l-100 -468q-23 -111 -63.5 -179.5t-119.5 -117.5z" />
<glyph unicode="&#xe0;" horiz-adv-x="548" d="M408 572q-85 72 -124 162l11 20l110 12q12 -84 50 -183zM37 140q0 65 23 130t63.5 118t104 86.5t137.5 33.5q90 0 158 -32l-40 -175q-45 -199 -45 -301h-120q0 69 20 181q-33 -77 -85 -134t-111 -57q-49 0 -77 38.5t-28 111.5zM160 170q0 -79 45 -79q30 0 66 45.5 t62.5 104t41.5 114.5q6 29 15 67q-31 14 -54 14q-67 0 -121.5 -88.5t-54.5 -177.5z" />
<glyph unicode="&#xe1;" horiz-adv-x="548" d="M484 753l2 -20q-81 -94 -193 -162l-41 11q90 115 126 182zM37 140q0 65 23 130t63.5 118t104 86.5t137.5 33.5q90 0 158 -32l-40 -175q-45 -199 -45 -301h-120q0 69 20 181q-33 -77 -85 -134t-111 -57q-49 0 -77 38.5t-28 111.5zM160 170q0 -79 45 -79q30 0 66 45.5 t62.5 104t41.5 114.5q6 29 15 67q-31 14 -54 14q-67 0 -121.5 -88.5t-54.5 -177.5z" />
<glyph unicode="&#xe2;" horiz-adv-x="548" d="M246 564l-31 27q77 80 142 160l87 8q33 -85 78 -168l-44 -27q-35 31 -96 107q-89 -77 -136 -107zM37 140q0 65 23 130t63.5 118t104 86.5t137.5 33.5q90 0 158 -32l-40 -175q-45 -199 -45 -301h-120q0 69 20 181q-33 -77 -85 -134t-111 -57q-49 0 -77 38.5t-28 111.5z M160 170q0 -79 45 -79q30 0 66 45.5t62.5 104t41.5 114.5q6 29 15 67q-31 14 -54 14q-67 0 -121.5 -88.5t-54.5 -177.5z" />
<glyph unicode="&#xe3;" horiz-adv-x="548" d="M318 739q32 0 73 -28t62 -28q30 0 67 49l34 -5q-15 -56 -48.5 -96.5t-77.5 -40.5q-30 0 -74.5 28.5t-63.5 28.5q-31 0 -66 -50l-33 6q15 55 47.5 95.5t79.5 40.5zM37 140q0 65 23 130t63.5 118t104 86.5t137.5 33.5q90 0 158 -32l-40 -175q-45 -199 -45 -301h-120 q0 69 20 181q-33 -77 -85 -134t-111 -57q-49 0 -77 38.5t-28 111.5zM160 170q0 -79 45 -79q30 0 66 45.5t62.5 104t41.5 114.5q6 29 15 67q-31 14 -54 14q-67 0 -121.5 -88.5t-54.5 -177.5z" />
<glyph unicode="&#xe4;" horiz-adv-x="548" d="M333 689q0 -37 -28.5 -66.5t-64.5 -29.5q-23 0 -37 14t-14 36q0 35 30 64.5t65 29.5q22 0 35.5 -13t13.5 -35zM550 689q0 -37 -28.5 -66.5t-64.5 -29.5q-24 0 -37.5 14t-13.5 36q0 35 30 64.5t65 29.5q22 0 35.5 -13t13.5 -35zM37 140q0 65 23 130t63.5 118t104 86.5 t137.5 33.5q90 0 158 -32l-40 -175q-45 -199 -45 -301h-120q0 69 20 181q-33 -77 -85 -134t-111 -57q-49 0 -77 38.5t-28 111.5zM160 170q0 -79 45 -79q30 0 66 45.5t62.5 104t41.5 114.5q6 29 15 67q-31 14 -54 14q-67 0 -121.5 -88.5t-54.5 -177.5z" />
<glyph unicode="&#xe5;" horiz-adv-x="548" d="M479 693q0 -47 -42 -85t-94 -38q-37 0 -60 20t-23 50q0 45 44 83t96 38q36 0 57.5 -19t21.5 -49zM317 650q0 -16 10.5 -26.5t28.5 -10.5q25 0 45.5 21.5t20.5 47.5q0 35 -36 35q-26 0 -47.5 -21t-21.5 -46zM37 140q0 65 23 130t63.5 118t104 86.5t137.5 33.5 q90 0 158 -32l-40 -175q-45 -199 -45 -301h-120q0 69 20 181q-33 -77 -85 -134t-111 -57q-49 0 -77 38.5t-28 111.5zM160 170q0 -79 45 -79q30 0 66 45.5t62.5 104t41.5 114.5q6 29 15 67q-31 14 -54 14q-67 0 -121.5 -88.5t-54.5 -177.5z" />
<glyph unicode="&#xe6;" horiz-adv-x="779" d="M38 147q0 88 37.5 169t115.5 136.5t179 55.5q75 0 147 -26q54 26 108 26q64 0 102.5 -32t38.5 -87q0 -73 -77.5 -122.5t-228.5 -58.5q-1 -8 -1 -24q0 -52 24.5 -82.5t71.5 -30.5q66 0 137 62l18 -47q-38 -45 -92 -70.5t-110 -25.5q-78 0 -125.5 47t-47.5 134 q-33 -74 -84 -127.5t-106 -53.5q-49 0 -78 41t-29 116zM606 438q-48 0 -86 -57.5t-54 -132.5q97 12 143 49.5t46 88.5q0 52 -49 52zM161 170q0 -79 45 -79q37 0 79 61t73 144q22 61 67 114q-42 26 -80 26q-74 0 -129 -87t-55 -179z" />
<glyph unicode="&#xe7;" horiz-adv-x="468" d="M313 -121q0 -51 -59.5 -83.5t-151.5 -34.5l10 43q52 7 81.5 23.5t29.5 39.5q0 29 -63 31l-10 22l37 72q-66 8 -105 55t-39 128q0 131 88.5 232t215.5 101q72 0 125 -37l-33 -99q-53 55 -111 55q-66 0 -113.5 -72.5t-47.5 -160.5q0 -123 98 -123q67 0 137 62l19 -47 q-70 -80 -168 -93l-26 -48q86 -11 86 -66z" />
<glyph unicode="&#xe8;" horiz-adv-x="486" d="M375 572q-84 70 -124 162l11 20l110 12q10 -76 49 -183zM400 133l18 -47q-38 -45 -92 -70.5t-110 -25.5q-78 0 -125.5 47.5t-47.5 137.5q0 127 86 230t206 103q63 0 101 -30t38 -83q0 -75 -78.5 -128t-227.5 -59q-1 -8 -1 -24q0 -52 24.5 -82.5t71.5 -30.5q66 0 137 62z M314 438q-48 0 -86 -57.5t-54 -132.5q97 12 143 49.5t46 88.5q0 52 -49 52z" />
<glyph unicode="&#xe9;" horiz-adv-x="486" d="M450 753l3 -20q-81 -94 -193 -162l-42 11q90 115 127 182zM400 133l18 -47q-38 -45 -92 -70.5t-110 -25.5q-78 0 -125.5 47.5t-47.5 137.5q0 127 86 230t206 103q63 0 101 -30t38 -83q0 -75 -78.5 -128t-227.5 -59q-1 -8 -1 -24q0 -52 24.5 -82.5t71.5 -30.5q66 0 137 62 zM314 438q-48 0 -86 -57.5t-54 -132.5q97 12 143 49.5t46 88.5q0 52 -49 52z" />
<glyph unicode="&#xea;" horiz-adv-x="486" d="M213 564l-32 27q83 87 143 160l86 8q38 -95 78 -168l-44 -27q-38 34 -95 107q-86 -74 -136 -107zM400 133l18 -47q-38 -45 -92 -70.5t-110 -25.5q-78 0 -125.5 47.5t-47.5 137.5q0 127 86 230t206 103q63 0 101 -30t38 -83q0 -75 -78.5 -128t-227.5 -59q-1 -8 -1 -24 q0 -52 24.5 -82.5t71.5 -30.5q66 0 137 62zM314 438q-48 0 -86 -57.5t-54 -132.5q97 12 143 49.5t46 88.5q0 52 -49 52z" />
<glyph unicode="&#xeb;" horiz-adv-x="486" d="M300 689q0 -37 -29 -66.5t-64 -29.5q-24 0 -38 14t-14 36q0 35 30.5 64.5t65.5 29.5q22 0 35.5 -13t13.5 -35zM516 689q0 -37 -28.5 -66.5t-63.5 -29.5q-24 0 -38 14t-14 36q0 35 30 64.5t66 29.5q22 0 35 -13t13 -35zM400 133l18 -47q-38 -45 -92 -70.5t-110 -25.5 q-78 0 -125.5 47.5t-47.5 137.5q0 127 86 230t206 103q63 0 101 -30t38 -83q0 -75 -78.5 -128t-227.5 -59q-1 -8 -1 -24q0 -52 24.5 -82.5t71.5 -30.5q66 0 137 62zM314 438q-48 0 -86 -57.5t-54 -132.5q97 12 143 49.5t46 88.5q0 52 -49 52z" />
<glyph unicode="&#xec;" horiz-adv-x="275" d="M249 572q-85 72 -124 162l11 20l110 12q12 -84 50 -183zM166 0h-119q0 96 37 267l20 92l8 139l128 10q0 -68 -37 -246.5t-37 -261.5z" />
<glyph unicode="&#xed;" horiz-adv-x="275" d="M324 753l3 -20q-81 -94 -193 -162l-41 11q90 115 126 182zM166 0h-119q0 96 37 267l20 92l8 139l128 10q0 -68 -37 -246.5t-37 -261.5z" />
<glyph unicode="&#xee;" horiz-adv-x="275" d="M111 572l-37 18q57 88 98 166l115 8q17 -117 31 -174l-45 -18q-33 46 -60 109q-61 -73 -102 -109zM166 0h-119q0 96 37 267l20 92l8 139l128 10q0 -68 -37 -246.5t-37 -261.5z" />
<glyph unicode="&#xef;" horiz-adv-x="275" d="M194 692q0 -37 -27 -67t-60 -30q-22 0 -35 14t-13 35q0 35 28.5 65t61.5 30q20 0 32.5 -13t12.5 -34zM362 692q0 -37 -27 -67t-61 -30q-21 0 -33.5 13.5t-12.5 35.5q0 35 28 65t61 30q20 0 32.5 -13t12.5 -34zM166 0h-119q0 96 37 267l20 92l8 139l128 10 q0 -68 -37 -246.5t-37 -261.5z" />
<glyph unicode="&#xf0;" horiz-adv-x="554" d="M215 -10q-76 0 -121.5 46.5t-45.5 134.5q0 123 77 219t185 96q55 0 87 -29q-13 74 -59 137l-123 -67l-26 50l111 61q-31 30 -65 53l47 67q58 -27 107 -71l121 67l27 -50l-108 -60q81 -101 81 -255q0 -167 -84.5 -283t-210.5 -116zM314 414q-61 0 -102.5 -75t-41.5 -167 q0 -110 69 -110q61 0 102 77t41 169q0 106 -68 106z" />
<glyph unicode="&#xf1;" horiz-adv-x="568" d="M307 739q31 0 72 -28t62 -28q30 0 67 49l34 -5q-15 -55 -48.5 -96t-76.5 -41q-30 0 -74.5 28.5t-64.5 28.5q-31 0 -66 -50l-33 6q15 55 48 95.5t80 40.5zM166 0h-119q0 106 57 359l8 139l128 10q0 -46 -15 -140h2q37 70 89 105t105 35q46 0 71 -26t25 -70q0 -39 -34 -196 q-27 -126 -27 -216h-119q0 80 29 223q22 112 22 133q0 51 -41 51q-45 0 -86.5 -57.5t-67 -152t-27.5 -197.5z" />
<glyph unicode="&#xf2;" horiz-adv-x="538" d="M388 572q-85 72 -124 162l11 20l110 12q12 -84 50 -183zM497 325q0 -129 -83.5 -232t-204.5 -103q-77 0 -121.5 46t-44.5 135q0 129 84 233t204 104q78 0 122 -47.5t44 -135.5zM167 162q0 -100 63 -100q43 0 77 47.5t50 108.5t16 118q0 100 -63 100q-44 0 -78 -47 t-49.5 -108t-15.5 -119z" />
<glyph unicode="&#xf3;" horiz-adv-x="538" d="M463 753l3 -20q-81 -94 -193 -162l-41 11q90 115 126 182zM497 325q0 -129 -83.5 -232t-204.5 -103q-77 0 -121.5 46t-44.5 135q0 129 84 233t204 104q78 0 122 -47.5t44 -135.5zM167 162q0 -100 63 -100q43 0 77 47.5t50 108.5t16 118q0 100 -63 100q-44 0 -78 -47 t-49.5 -108t-15.5 -119z" />
<glyph unicode="&#xf4;" horiz-adv-x="538" d="M226 564l-32 27q75 76 143 160l86 8q38 -95 78 -168l-44 -27q-31 28 -95 107q-86 -74 -136 -107zM497 325q0 -129 -83.5 -232t-204.5 -103q-77 0 -121.5 46t-44.5 135q0 129 84 233t204 104q78 0 122 -47.5t44 -135.5zM167 162q0 -100 63 -100q43 0 77 47.5t50 108.5 t16 118q0 100 -63 100q-44 0 -78 -47t-49.5 -108t-15.5 -119z" />
<glyph unicode="&#xf5;" horiz-adv-x="538" d="M298 739q32 0 72.5 -28t62.5 -28q30 0 67 49l33 -5q-14 -55 -47.5 -96t-77.5 -41q-30 0 -74.5 28.5t-63.5 28.5q-31 0 -66 -50l-33 6q15 55 47.5 95.5t79.5 40.5zM497 325q0 -129 -83.5 -232t-204.5 -103q-77 0 -121.5 46t-44.5 135q0 129 84 233t204 104q78 0 122 -47.5 t44 -135.5zM167 162q0 -100 63 -100q43 0 77 47.5t50 108.5t16 118q0 100 -63 100q-44 0 -78 -47t-49.5 -108t-15.5 -119z" />
<glyph unicode="&#xf6;" horiz-adv-x="538" d="M313 689q0 -37 -28.5 -66.5t-64.5 -29.5q-24 0 -37.5 14t-13.5 36q0 35 30 64.5t65 29.5q22 0 35.5 -13t13.5 -35zM530 689q0 -37 -28.5 -66.5t-64.5 -29.5q-24 0 -38 14t-14 36q0 35 30.5 64.5t65.5 29.5q22 0 35.5 -13t13.5 -35zM497 325q0 -129 -83.5 -232 t-204.5 -103q-77 0 -121.5 46t-44.5 135q0 129 84 233t204 104q78 0 122 -47.5t44 -135.5zM167 162q0 -100 63 -100q43 0 77 47.5t50 108.5t16 118q0 100 -63 100q-44 0 -78 -47t-49.5 -108t-15.5 -119z" />
<glyph unicode="&#xf7;" d="M424 553q0 -31 -26 -56.5t-59 -25.5q-21 0 -33 12.5t-12 31.5q0 31 26.5 56.5t58.5 25.5q21 0 33 -11.5t12 -32.5zM532 314h-450l14 63q172 5 452 5l4 -7zM346 181q0 -31 -26.5 -56.5t-58.5 -25.5q-21 0 -33.5 12.5t-12.5 31.5q0 31 27.5 56.5t59.5 25.5q20 0 32 -11.5 t12 -32.5z" />
<glyph unicode="&#xf8;" horiz-adv-x="538" d="M497 325q0 -129 -83.5 -232t-204.5 -103q-86 0 -130 56l-71 -62l-35 42l81 70q-11 33 -11 75q0 129 84 233t204 104q87 0 130 -57l72 63l35 -41l-82 -71q11 -36 11 -77zM310 436q-57 0 -95.5 -75t-46.5 -165l203 176q-11 64 -61 64zM230 62q39 0 70.5 39t49 92t22.5 109 l-203 -177q11 -63 61 -63z" />
<glyph unicode="&#xf9;" horiz-adv-x="548" d="M377 572q-85 72 -124 162l11 20l110 12q12 -84 50 -183zM53 148l45 211l8 139l128 10q0 -42 -7 -90t-21.5 -118t-18.5 -89q-12 -54 -7 -87t37 -33q45 0 83.5 59t62.5 154q18 85 23 141q2 36 2 53l125 10q-2 -35 -7.5 -74t-11 -68t-18.5 -93.5t-21 -108.5 q-17 -79 -17 -164h-120q0 57 10 125h-1q-35 -67 -84 -101t-99 -34q-58 0 -82 43t-9 115z" />
<glyph unicode="&#xfa;" horiz-adv-x="548" d="M452 753l3 -20q-81 -94 -193 -162l-41 11q90 115 126 182zM53 148l45 211l8 139l128 10q0 -42 -7 -90t-21.5 -118t-18.5 -89q-12 -54 -7 -87t37 -33q45 0 83.5 59t62.5 154q18 85 23 141q2 36 2 53l125 10q-2 -35 -7.5 -74t-11 -68t-18.5 -93.5t-21 -108.5 q-17 -79 -17 -164h-120q0 57 10 125h-1q-35 -67 -84 -101t-99 -34q-58 0 -82 43t-9 115z" />
<glyph unicode="&#xfb;" horiz-adv-x="548" d="M215 564l-32 27q75 76 143 160l86 8q38 -95 78 -168l-43 -27q-35 31 -96 107q-86 -74 -136 -107zM53 148l45 211l8 139l128 10q0 -42 -7 -90t-21.5 -118t-18.5 -89q-12 -54 -7 -87t37 -33q45 0 83.5 59t62.5 154q18 85 23 141q2 36 2 53l125 10q-2 -35 -7.5 -74t-11 -68 t-18.5 -93.5t-21 -108.5q-17 -79 -17 -164h-120q0 57 10 125h-1q-35 -67 -84 -101t-99 -34q-58 0 -82 43t-9 115z" />
<glyph unicode="&#xfc;" horiz-adv-x="548" d="M302 689q0 -37 -28.5 -66.5t-64.5 -29.5q-24 0 -37.5 14t-13.5 36q0 35 30 64.5t65 29.5q22 0 35.5 -13t13.5 -35zM519 689q0 -37 -28.5 -66.5t-64.5 -29.5q-24 0 -37.5 14t-13.5 36q0 35 30 64.5t65 29.5q22 0 35.5 -13t13.5 -35zM53 148l45 211l8 139l128 10 q0 -42 -7 -90t-21.5 -118t-18.5 -89q-12 -54 -7 -87t37 -33q45 0 83.5 59t62.5 154q18 85 23 141q2 36 2 53l125 10q-2 -35 -7.5 -74t-11 -68t-18.5 -93.5t-21 -108.5q-17 -79 -17 -164h-120q0 57 10 125h-1q-35 -67 -84 -101t-99 -34q-58 0 -82 43t-9 115z" />
<glyph unicode="&#xfd;" horiz-adv-x="468" d="M418 753l3 -20q-79 -92 -193 -162l-42 11q90 115 127 182zM415 508q59 0 59 -40q0 -57 -57.5 -177.5t-138 -242.5t-179 -214t-169.5 -92q-31 0 -49 17.5t-18 48.5q0 27 14 48q28 -7 60 -7q61 0 124 44t102 107h-57q-5 294 -46 498l127 10q35 -192 21 -420h2 q62 105 105.5 215.5t52.5 198.5q24 6 47 6z" />
<glyph unicode="&#xfe;" horiz-adv-x="545" d="M108 -242h-120q0 86 61 372l102 479l8 139l129 10q0 -21 -2 -46t-7 -57t-9.5 -57t-13 -66.5t-13.5 -64t-16 -71t-15 -68.5q32 75 82 127.5t107 52.5q51 0 79.5 -41t28.5 -115q0 -88 -38 -170t-114.5 -137t-173.5 -55q-13 0 -43 2q-32 -164 -32 -234zM341 407 q-47 0 -101 -96t-79 -217q-2 -7 -4 -19q31 -13 53 -13q67 0 121.5 88t54.5 178q0 79 -45 79z" />
<glyph unicode="&#xff;" horiz-adv-x="468" d="M267 689q0 -37 -28.5 -66.5t-63.5 -29.5q-24 0 -38 14t-14 36q0 35 30 64.5t66 29.5q22 0 35 -13t13 -35zM484 689q0 -37 -28.5 -66.5t-64.5 -29.5q-23 0 -37 14t-14 36q0 35 30 64.5t65 29.5q23 0 36 -13t13 -35zM415 508q59 0 59 -40q0 -57 -57.5 -177.5t-138 -242.5 t-179 -214t-169.5 -92q-31 0 -49 17.5t-18 48.5q0 27 14 48q28 -7 60 -7q61 0 124 44t102 107h-57q-5 294 -46 498l127 10q35 -192 21 -420h2q62 105 105.5 215.5t52.5 198.5q24 6 47 6z" />
<glyph unicode="&#x100;" horiz-adv-x="646" d="M294 812l14 72h279l-15 -72h-278zM89 0h-117l313 585q32 60 52 106l141 6l16 -16l74 -681h-124l-18 170h-246zM282 362l-55 -103h189l-11 103q-13 153 -12 221h-3q-45 -100 -108 -221z" />
<glyph unicode="&#x101;" horiz-adv-x="548" d="M220 630l14 69h284l-15 -69h-283zM37 140q0 65 23 130t63.5 118t104 86.5t137.5 33.5q90 0 158 -32l-40 -175q-45 -199 -45 -301h-120q0 69 20 181q-33 -77 -85 -134t-111 -57q-49 0 -77 38.5t-28 111.5zM160 170q0 -79 45 -79q30 0 66 45.5t62.5 104t41.5 114.5 q6 29 15 67q-31 14 -54 14q-67 0 -121.5 -88.5t-54.5 -177.5z" />
<glyph unicode="&#x102;" horiz-adv-x="646" d="M533 914l50 4q-21 -63 -68 -101t-107 -38q-56 0 -86 35t-23 94l51 7q3 -25 25 -40t56 -15q32 0 60 15t42 39zM89 0h-117l313 585q32 60 52 106l141 6l16 -16l74 -681h-124l-18 170h-246zM282 362l-55 -103h189l-11 103q-13 153 -12 221h-3q-45 -100 -108 -221z" />
<glyph unicode="&#x103;" horiz-adv-x="548" d="M476 749l50 3q-23 -74 -71.5 -119t-108.5 -45q-56 0 -84.5 41.5t-19.5 112.5l51 7q1 -37 21 -58.5t54 -21.5q33 0 62.5 22t45.5 58zM37 140q0 65 23 130t63.5 118t104 86.5t137.5 33.5q90 0 158 -32l-40 -175q-45 -199 -45 -301h-120q0 69 20 181q-33 -77 -85 -134 t-111 -57q-49 0 -77 38.5t-28 111.5zM160 170q0 -79 45 -79q30 0 66 45.5t62.5 104t41.5 114.5q6 29 15 67q-31 14 -54 14q-67 0 -121.5 -88.5t-54.5 -177.5z" />
<glyph unicode="&#x104;" horiz-adv-x="646" d="M89 0h-117l313 585q32 60 52 106l141 6l16 -16l74 -681h-1q-65 -30 -103 -66t-38 -71q0 -32 40 -32q25 0 58 12l8 -43q-58 -43 -123 -43q-41 0 -65 19t-24 53q0 47 43.5 92t119.5 79h-39l-18 170h-246zM282 362l-55 -103h189l-11 103q-13 153 -12 221h-3 q-45 -100 -108 -221z" />
<glyph unicode="&#x105;" horiz-adv-x="548" d="M37 140q0 65 23 130t63.5 118t104 86.5t137.5 33.5q90 0 158 -32l-40 -175q-45 -199 -45 -301q-65 -30 -103 -66t-38 -71q0 -32 40 -32q25 0 58 12l8 -43q-58 -43 -123 -43q-41 0 -65 19t-24 53q0 47 43.5 92t119.5 79h-36q0 69 20 181q-33 -77 -85 -134t-111 -57 q-49 0 -77 38.5t-28 111.5zM160 170q0 -79 45 -79q30 0 66 45.5t62.5 104t41.5 114.5q6 29 15 67q-31 14 -54 14q-67 0 -121.5 -88.5t-54.5 -177.5z" />
<glyph unicode="&#x106;" horiz-adv-x="583" d="M606 864l-10 -20q-123 -59 -280 -70l-3 31q141 64 233 124zM514 138l-7 -100q-87 -48 -196 -48q-116 0 -178 65t-62 189q0 85 29 167t78.5 145.5t122.5 102.5t155 39q104 0 166 -42l-47 -106q-58 46 -139 46q-72 0 -127.5 -52t-81.5 -125t-26 -150q0 -86 37.5 -132 t110.5 -46q83 0 165 47z" />
<glyph unicode="&#x107;" horiz-adv-x="468" d="M458 753l3 -20q-81 -94 -193 -162l-42 11q89 112 127 182zM402 133l19 -47q-84 -96 -206 -96q-79 0 -125.5 47.5t-46.5 137.5q0 131 88.5 232t215.5 101q72 0 125 -37l-33 -99q-53 55 -111 55q-66 0 -113.5 -72.5t-47.5 -160.5q0 -123 98 -123q67 0 137 62z" />
<glyph unicode="&#x108;" horiz-adv-x="583" d="M322 771l-26 28q73 56 143 120l87 8q45 -70 96 -128l-39 -28q-43 22 -117 76q-82 -48 -144 -76zM514 138l-7 -100q-87 -48 -196 -48q-116 0 -178 65t-62 189q0 85 29 167t78.5 145.5t122.5 102.5t155 39q104 0 166 -42l-47 -106q-58 46 -139 46q-72 0 -127.5 -52 t-81.5 -125t-26 -150q0 -86 37.5 -132t110.5 -46q83 0 165 47z" />
<glyph unicode="&#x109;" horiz-adv-x="468" d="M221 564l-32 27q83 87 143 160l86 8q38 -95 78 -168l-44 -27q-31 28 -95 107q-86 -74 -136 -107zM402 133l19 -47q-84 -96 -206 -96q-79 0 -125.5 47.5t-46.5 137.5q0 131 88.5 232t215.5 101q72 0 125 -37l-33 -99q-53 55 -111 55q-66 0 -113.5 -72.5t-47.5 -160.5 q0 -123 98 -123q67 0 137 62z" />
<glyph unicode="&#x10a;" horiz-adv-x="583" d="M538 874q0 -36 -30.5 -64t-69.5 -28q-26 0 -42 14t-16 36q0 34 32 61.5t70 27.5q25 0 40.5 -13t15.5 -34zM514 138l-7 -100q-87 -48 -196 -48q-116 0 -178 65t-62 189q0 85 29 167t78.5 145.5t122.5 102.5t155 39q104 0 166 -42l-47 -106q-58 46 -139 46 q-72 0 -127.5 -52t-81.5 -125t-26 -150q0 -86 37.5 -132t110.5 -46q83 0 165 47z" />
<glyph unicode="&#x10b;" horiz-adv-x="468" d="M422 690q0 -39 -31 -70t-70 -31q-26 0 -41 15t-15 39q0 36 31.5 67t70.5 31q25 0 40 -14t15 -37zM402 133l19 -47q-84 -96 -206 -96q-79 0 -125.5 47.5t-46.5 137.5q0 131 88.5 232t215.5 101q72 0 125 -37l-33 -99q-53 55 -111 55q-66 0 -113.5 -72.5t-47.5 -160.5 q0 -123 98 -123q67 0 137 62z" />
<glyph unicode="&#x10c;" horiz-adv-x="583" d="M597 929l26 -28q-74 -55 -144 -120l-87 -8q-48 75 -96 128l39 28q52 -26 117 -75q89 51 145 75zM514 138l-7 -100q-87 -48 -196 -48q-116 0 -178 65t-62 189q0 85 29 167t78.5 145.5t122.5 102.5t155 39q104 0 166 -42l-47 -106q-58 46 -139 46q-72 0 -127.5 -52 t-81.5 -125t-26 -150q0 -86 37.5 -132t110.5 -46q83 0 165 47z" />
<glyph unicode="&#x10d;" horiz-adv-x="468" d="M478 769l32 -27q-85 -89 -142 -160l-87 -8q-33 85 -78 168l44 27q35 -31 96 -107q84 72 135 107zM402 133l19 -47q-84 -96 -206 -96q-79 0 -125.5 47.5t-46.5 137.5q0 131 88.5 232t215.5 101q72 0 125 -37l-33 -99q-53 55 -111 55q-66 0 -113.5 -72.5t-47.5 -160.5 q0 -123 98 -123q67 0 137 62z" />
<glyph unicode="&#x10e;" horiz-adv-x="709" d="M617 929l26 -28q-80 -60 -144 -120l-86 -8q-45 70 -96 128l38 28q52 -26 117 -75q89 51 145 75zM676 430q0 -112 -49.5 -209t-149.5 -159t-232 -62h-195l111 523q23 107 26 165h216q132 0 202.5 -64t70.5 -194zM371 599h-71l-108 -510h80q67 0 121 29t87 77t50 105 t17 117q0 103 -47.5 142.5t-128.5 39.5z" />
<glyph unicode="&#x10f;" horiz-adv-x="549" d="M779 764l5 -20q-51 -103 -141 -210l-40 2q50 121 80 225zM439 0h-119q0 70 21 184q-33 -82 -85 -138t-114 -56q-49 0 -77 38.5t-28 110.5q0 65 23 130.5t63.5 118.5t103 86.5t134.5 33.5q25 0 46 -4l23 105l8 139l128 10q0 -93 -63.5 -375t-63.5 -383zM160 170 q0 -79 45 -79t96.5 87.5t73.5 176.5q4 16 6 25l9 42q-31 14 -54 14q-67 0 -121.5 -88.5t-54.5 -177.5z" />
<glyph unicode="&#x110;" horiz-adv-x="709" d="M676 430q0 -112 -49.5 -209t-149.5 -159t-232 -62h-195l66 312h-63l13 64h64l31 147q23 107 26 165h216q132 0 202.5 -64t70.5 -194zM428 312h-189l-47 -223h80q67 0 121 29t87 77t50 105t17 117q0 103 -47.5 142.5t-128.5 39.5h-71l-47 -223h188z" />
<glyph unicode="&#x111;" horiz-adv-x="549" d="M439 0h-119q0 70 21 184q-33 -82 -85 -138t-114 -56q-49 0 -77 38.5t-28 110.5q0 65 23 130.5t63.5 118.5t103 86.5t134.5 33.5q25 0 46 -4l17 79h-164l13 64h159l6 101l128 10q0 -43 -10 -111h92l-13 -64h-90q-11 -60 -41 -191.5t-47.5 -228.5t-17.5 -163zM160 170 q0 -79 45 -79t96.5 87.5t73.5 176.5q4 16 6 25l9 42q-31 14 -54 14q-67 0 -121.5 -88.5t-54.5 -177.5z" />
<glyph unicode="&#x112;" horiz-adv-x="560" d="M280 812l15 72h279l-15 -72h-279zM485 96l-20 -96h-415l111 523q23 103 26 165h403l11 -14l-20 -82l-281 7l-46 -218l237 4l-22 -89l-232 5l-45 -212z" />
<glyph unicode="&#x113;" horiz-adv-x="486" d="M187 630l14 69h283l-14 -69h-283zM400 133l18 -47q-38 -45 -92 -70.5t-110 -25.5q-78 0 -125.5 47.5t-47.5 137.5q0 127 86 230t206 103q63 0 101 -30t38 -83q0 -75 -78.5 -128t-227.5 -59q-1 -8 -1 -24q0 -52 24.5 -82.5t71.5 -30.5q66 0 137 62zM314 438 q-48 0 -86 -57.5t-54 -132.5q97 12 143 49.5t46 88.5q0 52 -49 52z" />
<glyph unicode="&#x114;" horiz-adv-x="560" d="M520 914l49 4q-21 -63 -68 -101t-107 -38q-55 0 -85 35t-23 94l50 7q4 -25 25.5 -40t55.5 -15q32 0 60 15t43 39zM485 96l-20 -96h-415l111 523q23 103 26 165h403l11 -14l-20 -82l-281 7l-46 -218l237 4l-22 -89l-232 5l-45 -212z" />
<glyph unicode="&#x115;" horiz-adv-x="486" d="M443 749l50 3q-23 -74 -72 -119t-109 -45q-56 0 -84.5 41.5t-18.5 112.5l50 7q1 -37 21.5 -58.5t54.5 -21.5q33 0 62 22t46 58zM400 133l18 -47q-38 -45 -92 -70.5t-110 -25.5q-78 0 -125.5 47.5t-47.5 137.5q0 127 86 230t206 103q63 0 101 -30t38 -83q0 -75 -78.5 -128 t-227.5 -59q-1 -8 -1 -24q0 -52 24.5 -82.5t71.5 -30.5q66 0 137 62zM314 438q-48 0 -86 -57.5t-54 -132.5q97 12 143 49.5t46 88.5q0 52 -49 52z" />
<glyph unicode="&#x116;" horiz-adv-x="560" d="M506 874q0 -36 -30 -64t-69 -28q-27 0 -42.5 14t-15.5 36q0 34 31.5 61.5t70.5 27.5q25 0 40 -13t15 -34zM485 96l-20 -96h-415l111 523q23 103 26 165h403l11 -14l-20 -82l-281 7l-46 -218l237 4l-22 -89l-232 5l-45 -212z" />
<glyph unicode="&#x117;" horiz-adv-x="486" d="M414 690q0 -39 -31 -70t-70 -31q-26 0 -41 15t-15 39q0 36 31.5 67t70.5 31q25 0 40 -14t15 -37zM400 133l18 -47q-38 -45 -92 -70.5t-110 -25.5q-78 0 -125.5 47.5t-47.5 137.5q0 127 86 230t206 103q63 0 101 -30t38 -83q0 -75 -78.5 -128t-227.5 -59q-1 -8 -1 -24 q0 -52 24.5 -82.5t71.5 -30.5q66 0 137 62zM314 438q-48 0 -86 -57.5t-54 -132.5q97 12 143 49.5t46 88.5q0 52 -49 52z" />
<glyph unicode="&#x118;" horiz-adv-x="560" d="M465 0q-65 -30 -102.5 -66t-37.5 -71q0 -32 39 -32q25 0 58 12l9 -43q-60 -43 -123 -43q-41 0 -65.5 19.5t-24.5 52.5q0 47 43.5 92t120.5 79h-332l111 523q23 103 26 165h403l11 -14l-20 -82l-281 7l-46 -218l237 4l-22 -89l-232 5l-45 -212l293 7z" />
<glyph unicode="&#x119;" horiz-adv-x="486" d="M385 49q-83 -64 -120.5 -103.5t-37.5 -76.5q0 -38 40 -38q25 0 58 12l8 -43q-58 -43 -123 -43q-41 0 -65 20.5t-24 57.5q0 76 122 157q-18 -2 -27 -2q-78 0 -125.5 47.5t-47.5 137.5q0 127 86 230t206 103q63 0 101 -30t38 -83q0 -75 -78.5 -128t-227.5 -59q-1 -8 -1 -24 q0 -52 24.5 -82.5t71.5 -30.5q66 0 137 62l18 -47q-15 -19 -38 -37h5zM314 438q-48 0 -86 -57.5t-54 -132.5q97 12 143 49.5t46 88.5q0 52 -49 52z" />
<glyph unicode="&#x11a;" horiz-adv-x="560" d="M565 929l26 -28q-80 -60 -144 -120l-86 -8q-45 70 -96 128l38 28q52 -26 117 -75q99 55 145 75zM485 96l-20 -96h-415l111 523q23 103 26 165h403l11 -14l-20 -82l-281 7l-46 -218l237 4l-22 -89l-232 5l-45 -212z" />
<glyph unicode="&#x11b;" horiz-adv-x="486" d="M470 769l32 -27q-85 -89 -142 -160l-87 -8q-38 95 -78 168l44 27q38 -34 95 -107q80 69 136 107zM400 133l18 -47q-38 -45 -92 -70.5t-110 -25.5q-78 0 -125.5 47.5t-47.5 137.5q0 127 86 230t206 103q63 0 101 -30t38 -83q0 -75 -78.5 -128t-227.5 -59q-1 -8 -1 -24 q0 -52 24.5 -82.5t71.5 -30.5q66 0 137 62zM314 438q-48 0 -86 -57.5t-54 -132.5q97 12 143 49.5t46 88.5q0 52 -49 52z" />
<glyph unicode="&#x11c;" horiz-adv-x="655" d="M339 771l-26 28q73 56 143 120l87 8q45 -70 96 -128l-39 -28q-43 22 -117 76q-86 -50 -144 -76zM590 313l10 -13l-58 -265q-95 -45 -213 -45q-127 0 -193 64t-66 188q0 116 53 220.5t149 170t210 65.5q104 0 173 -42l-43 -106q-62 49 -146 49q-78 0 -140.5 -50.5 t-94 -126.5t-31.5 -159q0 -177 162 -177q41 0 77 8l4 18q22 103 29 191z" />
<glyph unicode="&#x11d;" horiz-adv-x="482" d="M205 564l-31 27q77 80 142 160l87 8q33 -85 78 -168l-44 -27q-35 31 -96 107q-89 -77 -136 -107zM139 -258q-92 0 -145 34.5t-53 87.5q0 72 106 115l26 -25q-23 -28 -23 -54q0 -43 30 -70t82 -27q50 0 83.5 23t33.5 55q0 24 -21.5 41.5t-68.5 40.5q-30 14 -44 22.5 t-28 24t-14 33.5q0 32 35 57t82 40v3q-12 -1 -21 0q-65 3 -104 42.5t-39 105.5q0 94 70.5 155.5t165.5 61.5q149 0 203 12q11 -11 11 -31q0 -18 -12 -33t-38 -15q-13 0 -26 3t-31.5 9.5t-24.5 8.5l-1 -2q65 -37 65 -114q0 -50 -23 -91.5t-55.5 -67t-65 -45.5t-55.5 -36 t-23 -29q0 -11 13 -19.5t42 -22.5q60 -29 94 -59.5t34 -74.5q0 -65 -74 -112t-186 -47zM326 363q0 38 -13.5 60t-39.5 22q-41 0 -73 -53t-32 -112q0 -39 15 -61.5t42 -22.5q43 0 72 53t29 114z" />
<glyph unicode="&#x11e;" horiz-adv-x="655" d="M568 914l50 4q-21 -63 -68 -101t-107 -38q-56 0 -86 35t-23 94l51 7q3 -25 25 -40t56 -15q32 0 60 15t42 39zM590 313l10 -13l-58 -265q-95 -45 -213 -45q-127 0 -193 64t-66 188q0 116 53 220.5t149 170t210 65.5q104 0 173 -42l-43 -106q-62 49 -146 49 q-78 0 -140.5 -50.5t-94 -126.5t-31.5 -159q0 -177 162 -177q41 0 77 8l4 18q22 103 29 191z" />
<glyph unicode="&#x11f;" horiz-adv-x="482" d="M435 749l50 3q-23 -74 -71.5 -119t-108.5 -45q-56 0 -84.5 41.5t-19.5 112.5l51 7q1 -37 21 -58.5t54 -21.5q33 0 62.5 22t45.5 58zM139 -258q-92 0 -145 34.5t-53 87.5q0 72 106 115l26 -25q-23 -28 -23 -54q0 -43 30 -70t82 -27q50 0 83.5 23t33.5 55q0 24 -21.5 41.5 t-68.5 40.5q-30 14 -44 22.5t-28 24t-14 33.5q0 32 35 57t82 40v3q-12 -1 -21 0q-65 3 -104 42.5t-39 105.5q0 94 70.5 155.5t165.5 61.5q149 0 203 12q11 -11 11 -31q0 -18 -12 -33t-38 -15q-13 0 -26 3t-31.5 9.5t-24.5 8.5l-1 -2q65 -37 65 -114q0 -50 -23 -91.5 t-55.5 -67t-65 -45.5t-55.5 -36t-23 -29q0 -11 13 -19.5t42 -22.5q60 -29 94 -59.5t34 -74.5q0 -65 -74 -112t-186 -47zM326 363q0 38 -13.5 60t-39.5 22q-41 0 -73 -53t-32 -112q0 -39 15 -61.5t42 -22.5q43 0 72 53t29 114z" />
<glyph unicode="&#x120;" horiz-adv-x="655" d="M555 874q0 -36 -30.5 -64t-69.5 -28q-26 0 -42 14t-16 36q0 34 32 61.5t70 27.5q25 0 40.5 -13t15.5 -34zM590 313l10 -13l-58 -265q-95 -45 -213 -45q-127 0 -193 64t-66 188q0 116 53 220.5t149 170t210 65.5q104 0 173 -42l-43 -106q-62 49 -146 49 q-78 0 -140.5 -50.5t-94 -126.5t-31.5 -159q0 -177 162 -177q41 0 77 8l4 18q22 103 29 191z" />
<glyph unicode="&#x121;" horiz-adv-x="482" d="M406 690q0 -39 -31 -70t-69 -31q-26 0 -41.5 15t-15.5 39q0 36 32 67t71 31q25 0 39.5 -14t14.5 -37zM139 -258q-92 0 -145 34.5t-53 87.5q0 72 106 115l26 -25q-23 -28 -23 -54q0 -43 30 -70t82 -27q50 0 83.5 23t33.5 55q0 24 -21.5 41.5t-68.5 40.5q-30 14 -44 22.5 t-28 24t-14 33.5q0 32 35 57t82 40v3q-12 -1 -21 0q-65 3 -104 42.5t-39 105.5q0 94 70.5 155.5t165.5 61.5q149 0 203 12q11 -11 11 -31q0 -18 -12 -33t-38 -15q-13 0 -26 3t-31.5 9.5t-24.5 8.5l-1 -2q65 -37 65 -114q0 -50 -23 -91.5t-55.5 -67t-65 -45.5t-55.5 -36 t-23 -29q0 -11 13 -19.5t42 -22.5q60 -29 94 -59.5t34 -74.5q0 -65 -74 -112t-186 -47zM326 363q0 38 -13.5 60t-39.5 22q-41 0 -73 -53t-32 -112q0 -39 15 -61.5t42 -22.5q43 0 72 53t29 114z" />
<glyph unicode="&#x122;" horiz-adv-x="655" d="M590 313l10 -13l-58 -265q-95 -45 -213 -45q-127 0 -193 64t-66 188q0 116 53 220.5t149 170t210 65.5q104 0 173 -42l-43 -106q-62 49 -146 49q-78 0 -140.5 -50.5t-94 -126.5t-31.5 -159q0 -177 162 -177q41 0 77 8l4 18q22 103 29 191zM214 -317q47 51 70 95 q-21 2 -32 18t-7 39q4 29 28 52t55 23q27 0 41.5 -18t8.5 -50q-12 -84 -133 -189z" />
<glyph unicode="&#x123;" horiz-adv-x="482" d="M472 799q-50 -55 -70 -95q21 -2 32 -18t7 -39q-4 -29 -28 -52t-56 -23q-26 0 -40.5 18t-8.5 50q12 84 133 189zM139 -258q-92 0 -145 34.5t-53 87.5q0 72 106 115l26 -25q-23 -28 -23 -54q0 -43 30 -70t82 -27q50 0 83.5 23t33.5 55q0 24 -21.5 41.5t-68.5 40.5 q-30 14 -44 22.5t-28 24t-14 33.5q0 32 35 57t82 40v3q-12 -1 -21 0q-65 3 -104 42.5t-39 105.5q0 94 70.5 155.5t165.5 61.5q149 0 203 12q11 -11 11 -31q0 -18 -12 -33t-38 -15q-13 0 -26 3t-31.5 9.5t-24.5 8.5l-1 -2q65 -37 65 -114q0 -50 -23 -91.5t-55.5 -67 t-65 -45.5t-55.5 -36t-23 -29q0 -11 13 -19.5t42 -22.5q60 -29 94 -59.5t34 -74.5q0 -65 -74 -112t-186 -47zM326 363q0 38 -13.5 60t-39.5 22q-41 0 -73 -53t-32 -112q0 -39 15 -61.5t42 -22.5q43 0 72 53t29 114z" />
<glyph unicode="&#x124;" horiz-adv-x="726" d="M345 771l-25 28q73 56 143 120l87 8q45 -70 96 -128l-39 -28q-50 26 -117 76q-83 -49 -145 -76zM173 0h-123l110 518q22 110 27 170l121 10l10 -14l-63 -298h283l28 132q21 97 27 170l121 10l10 -14l-145 -684h-123l63 297h-283z" />
<glyph unicode="&#x125;" horiz-adv-x="568" d="M136 823l-26 28q71 54 144 120l86 7q50 -76 96 -127l-38 -28q-52 26 -117 75q-99 -55 -145 -75zM166 0h-119q0 96 61 380l49 229l8 139l128 10q0 -47 -11.5 -121t-21.5 -120t-34 -149h3q36 69 88.5 104.5t103.5 35.5q46 0 71 -26.5t25 -74.5q0 -34 -42 -227 q-19 -89 -19 -180h-119q0 86 35 249q18 86 18 109q0 49 -42 49q-47 0 -88.5 -58.5t-66.5 -152.5t-27 -196z" />
<glyph unicode="&#x126;" horiz-adv-x="726" d="M173 0h-123l105 493h-74l13 64h74q15 82 19 131l121 10l10 -14l-27 -127h283q15 82 19 131l121 10l10 -14l-26 -127h73l-13 -64h-74l-105 -493h-123l63 297h-283zM255 386h283l23 107h-283z" />
<glyph unicode="&#x127;" horiz-adv-x="568" d="M166 0h-119q0 96 61 380l41 195h-68l13 64h64l7 109l128 10q0 -51 -11 -119h187l-13 -64h-185q-7 -38 -45 -207h3q36 69 88.5 104.5t103.5 35.5q46 0 71 -26.5t25 -74.5q0 -34 -42 -227q-19 -89 -19 -180h-119q0 86 35 249q18 86 18 109q0 49 -42 49q-47 0 -88.5 -58.5 t-66.5 -152.5t-27 -196z" />
<glyph unicode="&#x128;" horiz-adv-x="320" d="M234 920q33 0 74 -28.5t64 -28.5q21 0 37 12.5t36 37.5l31 -6q-13 -50 -47 -87.5t-79 -37.5q-31 0 -75.5 28t-66.5 28q-35 0 -71 -49l-31 6q13 50 46 87.5t82 37.5zM173 0h-123l110 518q21 97 27 170l121 10l10 -14z" />
<glyph unicode="&#x129;" horiz-adv-x="275" d="M171 742q25 0 56.5 -28.5t46.5 -28.5q27 0 55 49l30 -5q-12 -53 -41.5 -95t-67.5 -42q-24 0 -58 28.5t-45 28.5q-27 0 -55 -49l-31 5q13 54 42.5 95.5t67.5 41.5zM166 0h-119q0 96 37 267l20 92l8 139l128 10q0 -68 -37 -246.5t-37 -261.5z" />
<glyph unicode="&#x12a;" horiz-adv-x="320" d="M143 812l15 72h279l-15 -72h-279zM173 0h-123l110 518q21 97 27 170l121 10l10 -14z" />
<glyph unicode="&#x12b;" horiz-adv-x="275" d="M79 630l13 69h238l-13 -69h-238zM166 0h-119q0 96 37 267l20 92l8 139l128 10q0 -68 -37 -246.5t-37 -261.5z" />
<glyph unicode="&#x12c;" horiz-adv-x="320" d="M383 914l50 4q-21 -63 -68.5 -101t-107.5 -38q-55 0 -85 35t-23 94l50 7q4 -25 25.5 -40t55.5 -15q32 0 60 15t43 39zM173 0h-123l110 518q21 97 27 170l121 10l10 -14z" />
<glyph unicode="&#x12d;" horiz-adv-x="275" d="M287 743l50 4q-22 -75 -66 -120t-98 -45q-48 0 -72 42t-14 113l50 7q-2 -37 14 -59t45 -22q28 0 53 22t38 58zM166 0h-119q0 96 37 267l20 92l8 139l128 10q0 -68 -37 -246.5t-37 -261.5z" />
<glyph unicode="&#x12e;" horiz-adv-x="320" d="M173 0q-45 -30 -71 -65.5t-26 -66.5q0 -37 40 -37q25 0 58 12l8 -43q-58 -43 -123 -43q-41 0 -65 20.5t-24 56.5q0 43 34 87t93 79h-47l110 518q21 97 27 170l121 10l10 -14z" />
<glyph unicode="&#x12f;" horiz-adv-x="275" d="M288 690q0 -39 -31 -70t-69 -31q-26 0 -41.5 15t-15.5 39q0 36 31.5 67t70.5 31q25 0 40 -14t15 -37zM166 0q-89 -74 -89 -132q0 -37 40 -37q25 0 58 12l8 -43q-58 -43 -123 -43q-41 0 -65 20.5t-24 56.5q0 42 32.5 85.5t89.5 80.5h-46q0 96 37 267l20 92l8 139l128 10 q0 -68 -37 -246.5t-37 -261.5z" />
<glyph unicode="&#x130;" horiz-adv-x="320" d="M369 874q0 -36 -30 -64t-69 -28q-27 0 -42.5 14t-15.5 36q0 34 31.5 61.5t70.5 27.5q25 0 40 -13t15 -34zM173 0h-123l110 518q21 97 27 170l121 10l10 -14z" />
<glyph unicode="&#x131;" horiz-adv-x="275" d="M166 0h-119q0 96 37 267l20 92l8 139l128 10q0 -68 -37 -246.5t-37 -261.5z" />
<glyph unicode="&#x132;" horiz-adv-x="626" d="M173 0h-123l110 518q21 97 27 170l121 10l10 -14zM270 -193l-25 46q100 87 133 245l89 420q18 87 23 165l125 15l10 -13l-124 -587q-25 -114 -75.5 -179.5t-155.5 -111.5z" />
<glyph unicode="&#x133;" horiz-adv-x="533" d="M288 690q0 -39 -31 -70t-69 -31q-26 0 -41.5 15t-15.5 39q0 36 31.5 67t70.5 31q25 0 40 -14t15 -37zM551 690q0 -39 -31 -70t-70 -31q-26 0 -41 15t-15 39q0 36 31.5 67t70.5 31q25 0 40 -14t15 -37zM166 0h-119q0 96 37 267l20 92l8 139l128 10q0 -68 -37 -246.5 t-37 -261.5zM227 -258l-39 43q81 89 109 221l74 353l8 139l129 10q0 -25 -3 -54t-13 -81.5t-16.5 -84t-25 -120t-27.5 -129.5q-24 -112 -66.5 -180t-129.5 -117z" />
<glyph unicode="&#x134;" horiz-adv-x="306" d="M137 765l-26 29q71 54 143 119l87 8q50 -76 96 -127l-39 -29q-56 31 -117 76q-88 -50 -144 -76zM-50 -193l-25 46q100 87 133 245l89 420q18 87 23 165l125 15l10 -13l-124 -587q-24 -113 -74.5 -179t-156.5 -112z" />
<glyph unicode="&#x135;" horiz-adv-x="258" d="M98 572l-37 18q58 88 98 166l116 8q12 -96 30 -174l-44 -18q-29 39 -61 109q-64 -76 -102 -109zM-48 -258l-39 43q81 89 109 221l75 353l8 139l128 10q0 -25 -3 -54t-13 -81.5t-16.5 -84t-25 -120t-27.5 -129.5q-24 -112 -66.5 -180t-129.5 -117z" />
<glyph unicode="&#x136;" horiz-adv-x="639" d="M160 518q21 97 27 170l120 10l11 -14l-66 -311h81q119 153 248 325l109 -11l5 -13l-266 -319l146 -355l-140 -7q-60 134 -120 290h-83l-60 -283h-122zM155 -317q45 47 70 95q-20 2 -31.5 18t-7.5 39q4 29 28.5 52t55.5 23q26 0 40.5 -18t9.5 -50q-13 -84 -134 -189z" />
<glyph unicode="&#x137;" horiz-adv-x="537" d="M524 419q0 -57 -48.5 -110.5t-115.5 -88.5q66 -136 130 -220h-149q-55 86 -95 205q158 112 158 184q0 38 -35 38q-44 0 -91 -64.5t-78.5 -164.5t-33.5 -198h-119q0 96 61 380l49 229l8 139l128 10q0 -25 -3.5 -58.5t-7.5 -59.5t-13.5 -73.5l-14 -70t-17.5 -81t-17 -75.5 h2q39 82 94 125t113 43q45 0 70 -24.5t25 -64.5zM120 -317q47 51 70 95q-21 2 -32 18t-7 39q4 29 28 52t56 23q26 0 40.5 -18t8.5 -50q-12 -84 -133 -189z" />
<glyph unicode="&#x138;" horiz-adv-x="537" d="M341 0q-75 106 -104 232q-71 -120 -71 -232h-119q0 96 37 267l20 92l8 139l128 10q0 -20 -2 -43.5t-4.5 -42.5t-8.5 -50t-9 -47t-10.5 -53t-10.5 -50h3q56 137 124 211.5t143 74.5q64 0 101 -26l-68 -112q-37 20 -74 20q-44 0 -102 -51q53 -181 168 -339h-149z" />
<glyph unicode="&#x139;" horiz-adv-x="519" d="M540 864l-10 -20q-123 -59 -280 -70l-3 31q141 64 233 124zM470 96l-20 -96h-400l111 519q21 102 26 169l121 10l10 -14l-126 -595z" />
<glyph unicode="&#x13a;" horiz-adv-x="273" d="M435 912l-10 -20q-128 -60 -280 -69l-3 30q141 64 233 124zM166 0h-119q0 96 61 380l49 229l8 139l128 10q0 -93 -63.5 -375t-63.5 -383z" />
<glyph unicode="&#x13b;" horiz-adv-x="519" d="M470 96l-20 -96h-400l111 519q21 102 26 169l121 10l10 -14l-126 -595zM97 -317q47 51 70 95q-21 2 -32 18t-7 39q4 29 28 52t56 23q26 0 40.5 -18t8.5 -50q-12 -84 -133 -189z" />
<glyph unicode="&#x13c;" horiz-adv-x="273" d="M166 0h-119q0 96 61 380l49 229l8 139l128 10q0 -93 -63.5 -375t-63.5 -383zM-15 -317q48 52 69 95q-20 2 -31 18t-8 39q5 29 29 52t55 23q27 0 41 -17.5t9 -50.5q-12 -82 -133 -189z" />
<glyph unicode="&#x13d;" horiz-adv-x="519" d="M568 760l4 -19q-54 -108 -141 -211l-39 3q50 119 80 225zM470 96l-20 -96h-400l111 519q21 102 26 169l121 10l10 -14l-126 -595z" />
<glyph unicode="&#x13e;" horiz-adv-x="273" d="M513 773l5 -20q-53 -105 -141 -211l-40 3q55 135 80 225zM166 0h-119q0 96 61 380l49 229l8 139l128 10q0 -93 -63.5 -375t-63.5 -383z" />
<glyph unicode="&#x13f;" horiz-adv-x="600" d="M470 96l-20 -96h-400l111 519q21 102 26 169l121 10l10 -14l-126 -595zM508 388q0 -38 -31.5 -69.5t-70.5 -31.5q-27 0 -43 15t-16 39q0 37 33 68.5t72 31.5q25 0 40.5 -14.5t15.5 -38.5z" />
<glyph unicode="&#x140;" horiz-adv-x="474" d="M166 0h-119q0 96 61 380l49 229l8 139l128 10q0 -93 -63.5 -375t-63.5 -383zM438 343q0 -38 -31.5 -69.5t-70.5 -31.5q-27 0 -43 15.5t-16 39.5q0 37 33 68t72 31q25 0 40.5 -14.5t15.5 -38.5z" />
<glyph unicode="&#x141;" horiz-adv-x="519" d="M470 96l-20 -96h-400l59 276l-111 -55l-18 55l144 71l37 172q21 102 26 169l121 10l10 -14l-57 -269l117 58l19 -54l-151 -75l-54 -255z" />
<glyph unicode="&#x142;" horiz-adv-x="273" d="M166 0h-119q0 97 55 352l-116 -57l-18 54l149 74l40 186l8 139l128 10q0 -86 -39 -267l112 56l19 -55l-147 -72q-25 -109 -36 -159.5t-23.5 -130t-12.5 -130.5z" />
<glyph unicode="&#x143;" horiz-adv-x="730" d="M632 864l-11 -20q-123 -59 -280 -70l-3 31q145 66 233 124zM421 416q64 -168 85 -262h2q12 99 61 332q24 111 34 202l114 9l11 -14l-145 -683h-119q-22 54 -56.5 146.5t-50.5 131.5q-64 162 -86 251h-2q-12 -111 -38 -226l-64 -303h-117l111 523q20 92 26 165l127 8 q89 -234 107 -280z" />
<glyph unicode="&#x144;" horiz-adv-x="568" d="M472 753l3 -20q-79 -92 -193 -162l-42 11q90 115 127 182zM166 0h-119q0 106 57 359l8 139l128 10q0 -46 -15 -140h2q37 70 89 105t105 35q46 0 71 -26t25 -70q0 -39 -34 -196q-27 -126 -27 -216h-119q0 80 29 223q22 112 22 133q0 51 -41 51q-45 0 -86.5 -57.5t-67 -152 t-27.5 -197.5z" />
<glyph unicode="&#x145;" horiz-adv-x="730" d="M421 416q64 -168 85 -262h2q12 99 61 332q24 111 34 202l114 9l11 -14l-145 -683h-119q-22 54 -56.5 146.5t-50.5 131.5q-64 162 -86 251h-2q-12 -111 -38 -226l-64 -303h-117l111 523q20 92 26 165l127 8q89 -234 107 -280zM192 -317q47 51 70 95q-21 2 -32 18t-7 39 q4 29 28 52t56 23q26 0 40.5 -18t8.5 -50q-12 -84 -133 -189z" />
<glyph unicode="&#x146;" horiz-adv-x="568" d="M166 0h-119q0 106 57 359l8 139l128 10q0 -46 -15 -140h2q37 70 89 105t105 35q46 0 71 -26t25 -70q0 -39 -34 -196q-27 -126 -27 -216h-119q0 80 29 223q22 112 22 133q0 51 -41 51q-45 0 -86.5 -57.5t-67 -152t-27.5 -197.5zM128 -317q45 47 70 95q-21 2 -32 18t-7 39 q4 29 28.5 52t55.5 23q26 0 40.5 -18t9.5 -50q-13 -84 -134 -189z" />
<glyph unicode="&#x147;" horiz-adv-x="730" d="M622 929l26 -28q-71 -54 -144 -120l-86 -8q-48 75 -96 128l38 28q52 -26 117 -75q99 55 145 75zM421 416q64 -168 85 -262h2q12 99 61 332q24 111 34 202l114 9l11 -14l-145 -683h-119q-22 54 -56.5 146.5t-50.5 131.5q-64 162 -86 251h-2q-12 -111 -38 -226l-64 -303 h-117l111 523q20 92 26 165l127 8q89 -234 107 -280z" />
<glyph unicode="&#x148;" horiz-adv-x="568" d="M492 769l32 -27q-83 -87 -143 -160l-86 -8q-38 95 -78 168l44 27q38 -34 95 -107q80 69 136 107zM166 0h-119q0 106 57 359l8 139l128 10q0 -46 -15 -140h2q37 70 89 105t105 35q46 0 71 -26t25 -70q0 -39 -34 -196q-27 -126 -27 -216h-119q0 80 29 223q22 112 22 133 q0 51 -41 51q-45 0 -86.5 -57.5t-67 -152t-27.5 -197.5z" />
<glyph unicode="&#x149;" horiz-adv-x="716" d="M85 454q74 86 102 151q-21 4 -33.5 18.5t-12.5 36.5q0 38 30.5 68.5t68.5 30.5q26 0 42.5 -15.5t16.5 -43.5q0 -57 -58.5 -138.5t-125.5 -138.5zM315 0h-119q0 106 57 359l8 139l128 10q0 -46 -15 -140h2q37 70 89 105t104 35q46 0 71.5 -26t25.5 -70q0 -39 -34 -196 q-27 -120 -27 -216h-119q0 80 29 223q21 107 21 133q0 51 -40 51q-45 0 -86.5 -57.5t-67 -152t-27.5 -197.5z" />
<glyph unicode="&#x14a;" horiz-adv-x="729" d="M373 -193l-26 46q87 70 113 156q-16 40 -51 132t-53 137q-63 155 -85 243h-3q-9 -95 -37 -218l-64 -303h-117l111 523q20 103 26 165l127 8q24 -65 62 -165t44 -115q65 -160 86 -255h2q14 110 60 325q22 98 35 202l114 9l11 -14l-125 -585q-25 -115 -76 -180.5 t-154 -110.5z" />
<glyph unicode="&#x14b;" horiz-adv-x="555" d="M166 0h-119q0 109 57 359l8 139l128 10q0 -46 -15 -140h2q37 70 89 105t104 35q58 0 82.5 -42.5t8.5 -115.5l-42 -199q-37 -178 -74 -249.5t-127 -131.5l-39 43q71 101 96 221l48 227q2 8 6 26q13 59 6.5 89.5t-38.5 30.5q-47 0 -88.5 -59t-66 -153t-26.5 -195z" />
<glyph unicode="&#x14c;" horiz-adv-x="698" d="M327 812l15 72h278l-14 -72h-279zM667 442q0 -83 -28 -164.5t-76 -145t-119 -103t-151 -39.5q-105 0 -163.5 65.5t-58.5 187.5q0 113 47 216.5t134 171t192 67.5t164 -67t59 -189zM198 246q0 -163 116 -163q68 0 121 57.5t79 138.5t26 163q0 163 -114 163q-67 0 -121 -58 t-80.5 -139t-26.5 -162z" />
<glyph unicode="&#x14d;" horiz-adv-x="538" d="M200 630l14 69h283l-14 -69h-283zM497 325q0 -129 -83.5 -232t-204.5 -103q-77 0 -121.5 46t-44.5 135q0 129 84 233t204 104q78 0 122 -47.5t44 -135.5zM167 162q0 -100 63 -100q43 0 77 47.5t50 108.5t16 118q0 100 -63 100q-44 0 -78 -47t-49.5 -108t-15.5 -119z" />
<glyph unicode="&#x14e;" horiz-adv-x="698" d="M567 914l49 4q-21 -63 -68 -101t-107 -38q-55 0 -85 35t-23 94l50 7q4 -25 25.5 -40t55.5 -15q32 0 60 15t43 39zM667 442q0 -83 -28 -164.5t-76 -145t-119 -103t-151 -39.5q-105 0 -163.5 65.5t-58.5 187.5q0 113 47 216.5t134 171t192 67.5t164 -67t59 -189zM198 246 q0 -163 116 -163q68 0 121 57.5t79 138.5t26 163q0 163 -114 163q-67 0 -121 -58t-80.5 -139t-26.5 -162z" />
<glyph unicode="&#x14f;" horiz-adv-x="538" d="M456 749l50 3q-23 -74 -72 -119t-108 -45q-56 0 -84.5 41.5t-19.5 112.5l51 7q1 -37 21 -58.5t54 -21.5q33 0 62.5 22t45.5 58zM497 325q0 -129 -83.5 -232t-204.5 -103q-77 0 -121.5 46t-44.5 135q0 129 84 233t204 104q78 0 122 -47.5t44 -135.5zM167 162 q0 -100 63 -100q43 0 77 47.5t50 108.5t16 118q0 100 -63 100q-44 0 -78 -47t-49.5 -108t-15.5 -119z" />
<glyph unicode="&#x150;" horiz-adv-x="698" d="M482 866l-10 -20q-100 -60 -226 -72l-3 31q121 67 193 124zM707 866l-10 -20q-101 -60 -226 -72l-3 31q117 64 193 124zM667 442q0 -83 -28 -164.5t-76 -145t-119 -103t-151 -39.5q-105 0 -163.5 65.5t-58.5 187.5q0 113 47 216.5t134 171t192 67.5t164 -67t59 -189z M198 246q0 -163 116 -163q68 0 121 57.5t79 138.5t26 163q0 163 -114 163q-67 0 -121 -58t-80.5 -139t-26.5 -162z" />
<glyph unicode="&#x151;" horiz-adv-x="538" d="M395 756l2 -21q-75 -94 -172 -163l-42 11q85 107 127 183zM553 756l3 -21q-76 -96 -172 -163l-42 11q85 107 127 183zM497 325q0 -129 -83.5 -232t-204.5 -103q-77 0 -121.5 46t-44.5 135q0 129 84 233t204 104q78 0 122 -47.5t44 -135.5zM167 162q0 -100 63 -100 q43 0 77 47.5t50 108.5t16 118q0 100 -63 100q-44 0 -78 -47t-49.5 -108t-15.5 -119z" />
<glyph unicode="&#x152;" horiz-adv-x="951" d="M672 456q0 -44 -5 -74l215 3l-22 -89l-210 5q-38 -128 -126 -211l353 6l-20 -96h-490q-37 -10 -78 -10q-102 0 -161.5 62.5t-59.5 175.5q0 123 53.5 231.5t143 173.5t190.5 65q36 0 73 -10h454l11 -14l-21 -82l-332 5q32 -58 32 -141zM198 240q0 -73 30 -115t88 -42 q60 0 113 51t85 137t32 183q0 71 -28.5 111t-86.5 40q-92 0 -162.5 -110.5t-70.5 -254.5z" />
<glyph unicode="&#x153;" horiz-adv-x="800" d="M713 133l18 -47q-38 -45 -92 -70.5t-110 -25.5q-100 0 -145 74q-76 -74 -175 -74q-77 0 -121.5 46t-44.5 135q0 129 84 233t204 104q98 0 138 -75q80 75 177 75q64 0 102.5 -32t38.5 -87q0 -73 -77.5 -122.5t-228.5 -58.5q-1 -8 -1 -24q0 -52 24.5 -82.5t71.5 -30.5 q66 0 137 62zM627 438q-48 0 -86 -57.5t-54 -132.5q97 12 143 49.5t46 88.5q0 52 -49 52zM167 162q0 -100 63 -100q43 0 77 47.5t50 108.5t16 118q0 100 -63 100q-44 0 -78 -47t-49.5 -108t-15.5 -119z" />
<glyph unicode="&#x154;" horiz-adv-x="616" d="M589 864l-11 -20q-123 -59 -280 -70l-3 31q141 64 233 124zM173 0h-123l111 523q21 95 26 165h194q109 0 167 -43.5t58 -124.5q0 -79 -47 -141.5t-130 -91.5l109 -287l-139 -11q-43 123 -83 264h-90zM356 602h-55l-57 -266h51q84 0 133.5 45.5t49.5 119.5q0 101 -122 101 z" />
<glyph unicode="&#x155;" horiz-adv-x="403" d="M408 753l3 -20q-79 -92 -193 -162l-42 11q90 115 127 182zM166 0h-119q0 96 37 267l20 92l8 139l128 10q0 -59 -24 -181h2q34 94 77 137.5t88 43.5q42 0 67 -29l-59 -109q-28 12 -54 12q-73 0 -119.5 -111.5t-51.5 -270.5z" />
<glyph unicode="&#x156;" horiz-adv-x="616" d="M173 0h-123l111 523q21 95 26 165h194q109 0 167 -43.5t58 -124.5q0 -79 -47 -141.5t-130 -91.5l109 -287l-139 -11q-43 123 -83 264h-90zM356 602h-55l-57 -266h51q84 0 133.5 45.5t49.5 119.5q0 101 -122 101zM132 -317q47 51 70 95q-21 2 -32 18t-7 39q4 29 28 52 t56 23q26 0 40.5 -18t8.5 -50q-12 -84 -133 -189z" />
<glyph unicode="&#x157;" horiz-adv-x="403" d="M166 0h-119q0 96 37 267l20 92l8 139l128 10q0 -59 -24 -181h2q34 94 77 137.5t88 43.5q42 0 67 -29l-59 -109q-28 12 -54 12q-73 0 -119.5 -111.5t-51.5 -270.5zM-20 -317q47 51 70 95q-21 2 -32 18t-7 39q4 29 28 52t56 23q26 0 40.5 -18t8.5 -50q-12 -84 -133 -189z " />
<glyph unicode="&#x158;" horiz-adv-x="616" d="M579 929l26 -28q-80 -60 -144 -120l-86 -8q-48 75 -96 128l38 28q52 -26 117 -75q99 55 145 75zM173 0h-123l111 523q21 95 26 165h194q109 0 167 -43.5t58 -124.5q0 -79 -47 -141.5t-130 -91.5l109 -287l-139 -11q-43 123 -83 264h-90zM356 602h-55l-57 -266h51 q84 0 133.5 45.5t49.5 119.5q0 101 -122 101z" />
<glyph unicode="&#x159;" horiz-adv-x="403" d="M428 769l32 -27q-83 -87 -143 -160l-86 -8q-38 95 -78 168l44 27q38 -34 95 -107q80 69 136 107zM166 0h-119q0 96 37 267l20 92l8 139l128 10q0 -59 -24 -181h2q34 94 77 137.5t88 43.5q42 0 67 -29l-59 -109q-28 12 -54 12q-73 0 -119.5 -111.5t-51.5 -270.5z" />
<glyph unicode="&#x15a;" horiz-adv-x="530" d="M540 864l-11 -20q-123 -59 -280 -70l-3 31q145 66 233 124zM469 206q0 -94 -80 -155t-207 -61q-116 0 -178 37l31 104q32 -21 81 -33t87 -12q60 0 97.5 29.5t37.5 75.5q0 14 -3 26t-12 23.5t-15 18.5t-21 17.5t-21 14.5t-25 15t-22 13q-54 31 -84.5 67t-30.5 94 q0 93 83 155.5t209 62.5q96 0 154 -29l-38 -106q-59 39 -138 39q-61 0 -100 -29.5t-39 -74.5q0 -15 5.5 -28.5t11.5 -22.5t21 -20.5t24 -17.5t30 -18.5t29 -17.5q52 -32 82.5 -69.5t30.5 -97.5z" />
<glyph unicode="&#x15b;" horiz-adv-x="437" d="M399 753l3 -20q-81 -94 -193 -162l-42 11q90 115 127 182zM417 482l-29 -92q-60 37 -120 37q-38 0 -62 -17.5t-24 -45.5q0 -23 19.5 -40.5t47 -31t55.5 -29t47.5 -43.5t19.5 -65q0 -72 -64 -118.5t-157 -46.5t-147 36l28 91q65 -46 140 -46q38 0 62 18.5t24 45.5 q0 22 -19.5 39.5t-47.5 31t-56 29.5t-47.5 43t-19.5 64q0 72 66 119t156 47q67 0 128 -26z" />
<glyph unicode="&#x15c;" horiz-adv-x="530" d="M255 771l-26 28q80 61 144 120l86 8q41 -64 96 -128l-38 -28q-47 24 -117 76q-83 -49 -145 -76zM469 206q0 -94 -80 -155t-207 -61q-116 0 -178 37l31 104q32 -21 81 -33t87 -12q60 0 97.5 29.5t37.5 75.5q0 14 -3 26t-12 23.5t-15 18.5t-21 17.5t-21 14.5t-25 15t-22 13 q-54 31 -84.5 67t-30.5 94q0 93 83 155.5t209 62.5q96 0 154 -29l-38 -106q-59 39 -138 39q-61 0 -100 -29.5t-39 -74.5q0 -15 5.5 -28.5t11.5 -22.5t21 -20.5t24 -17.5t30 -18.5t29 -17.5q52 -32 82.5 -69.5t30.5 -97.5z" />
<glyph unicode="&#x15d;" horiz-adv-x="437" d="M162 564l-32 27q83 87 143 160l86 8q38 -95 78 -168l-44 -27q-38 34 -95 107q-86 -74 -136 -107zM417 482l-29 -92q-60 37 -120 37q-38 0 -62 -17.5t-24 -45.5q0 -23 19.5 -40.5t47 -31t55.5 -29t47.5 -43.5t19.5 -65q0 -72 -64 -118.5t-157 -46.5t-147 36l28 91 q65 -46 140 -46q38 0 62 18.5t24 45.5q0 22 -19.5 39.5t-47.5 31t-56 29.5t-47.5 43t-19.5 64q0 72 66 119t156 47q67 0 128 -26z" />
<glyph unicode="&#x15e;" horiz-adv-x="530" d="M298 -121q0 -51 -59.5 -83.5t-151.5 -34.5l10 43q52 7 81.5 23.5t29.5 39.5q0 29 -63 31l-10 22l36 70q-110 2 -167 37l31 104q32 -21 81 -33t87 -12q60 0 97.5 29.5t37.5 75.5q0 14 -3 26t-12 23.5t-15 18.5t-21 17.5t-21 14.5t-25 15t-22 13q-54 31 -84.5 67t-30.5 94 q0 93 83 155.5t209 62.5q96 0 154 -29l-38 -106q-59 39 -138 39q-61 0 -100 -29.5t-39 -74.5q0 -15 5.5 -28.5t11.5 -22.5t21 -20.5t24 -17.5t30 -18.5t29 -17.5q52 -32 82.5 -69.5t30.5 -97.5q0 -83 -63.5 -141.5t-167.5 -71.5l-26 -48q86 -11 86 -66z" />
<glyph unicode="&#x15f;" horiz-adv-x="437" d="M257 -121q0 -51 -59.5 -83.5t-150.5 -34.5l10 43q51 7 80.5 23.5t29.5 39.5q0 29 -63 31l-9 22l36 71q-81 3 -128 35l28 91q65 -46 140 -46q38 0 62 18.5t24 45.5q0 22 -19.5 39.5t-47.5 31t-56 29.5t-47.5 43t-19.5 64q0 72 66 119t156 47q67 0 128 -26l-29 -92 q-60 37 -120 37q-38 0 -62 -17.5t-24 -45.5q0 -23 19.5 -40.5t47 -31t55.5 -29t47.5 -43.5t19.5 -65q0 -62 -48.5 -105.5t-124.5 -55.5l-26 -49q85 -11 85 -66z" />
<glyph unicode="&#x160;" horiz-adv-x="530" d="M530 929l26 -28q-71 -54 -144 -120l-86 -8q-48 75 -96 128l38 28q52 -26 117 -75q99 55 145 75zM469 206q0 -94 -80 -155t-207 -61q-116 0 -178 37l31 104q32 -21 81 -33t87 -12q60 0 97.5 29.5t37.5 75.5q0 14 -3 26t-12 23.5t-15 18.5t-21 17.5t-21 14.5t-25 15t-22 13 q-54 31 -84.5 67t-30.5 94q0 93 83 155.5t209 62.5q96 0 154 -29l-38 -106q-59 39 -138 39q-61 0 -100 -29.5t-39 -74.5q0 -15 5.5 -28.5t11.5 -22.5t21 -20.5t24 -17.5t30 -18.5t29 -17.5q52 -32 82.5 -69.5t30.5 -97.5z" />
<glyph unicode="&#x161;" horiz-adv-x="437" d="M419 769l32 -27q-85 -89 -142 -160l-87 -8q-38 95 -78 168l44 27q38 -34 95 -107q80 69 136 107zM417 482l-29 -92q-60 37 -120 37q-38 0 -62 -17.5t-24 -45.5q0 -23 19.5 -40.5t47 -31t55.5 -29t47.5 -43.5t19.5 -65q0 -72 -64 -118.5t-157 -46.5t-147 36l28 91 q65 -46 140 -46q38 0 62 18.5t24 45.5q0 22 -19.5 39.5t-47.5 31t-56 29.5t-47.5 43t-19.5 64q0 72 66 119t156 47q67 0 128 -26z" />
<glyph unicode="&#x162;" horiz-adv-x="539" d="M278 0h-35l-29 -55q85 -11 85 -66q0 -51 -59.5 -83.5t-150.5 -34.5l10 43q51 7 80.5 23.5t29.5 39.5q0 29 -63 31l-9 22l41 80h-23l126 596q-66 -1 -202 -7l28 99h510l-13 -99q-135 6 -200 7z" />
<glyph unicode="&#x163;" horiz-adv-x="373" d="M248 -121q0 -51 -59.5 -83.5t-150.5 -34.5l10 43q51 7 80.5 23.5t29.5 39.5q0 29 -63 31l-9 22l40 77q-70 21 -70 110q0 6 0.5 11.5t1 11.5t2 15t3 17.5t4.5 24.5t6 30t8.5 39.5t10.5 48t13 60.5t15 72l-69 1l9 45l76 15l55 123l77 6l12 -14l-28 -115h136l7 -14l-17 -51 l-139 2q-61 -285 -61 -303q0 -56 56 -56q38 0 83 25l-6 -76q-61 -32 -124 -35l-24 -45q85 -11 85 -66z" />
<glyph unicode="&#x164;" horiz-adv-x="539" d="M534 929l26 -28q-71 -54 -144 -120l-86 -8q-48 75 -96 128l38 28q49 -25 118 -75q93 53 144 75zM278 0h-123l126 596q-66 -1 -202 -7l28 99h510l-13 -99q-135 6 -200 7z" />
<glyph unicode="&#x165;" horiz-adv-x="373" d="M507 768l5 -20q-50 -101 -141 -211l-40 3q54 132 80 225zM378 433l-139 2q-61 -285 -61 -303q0 -56 56 -56q38 0 83 25l-6 -76q-66 -35 -134 -35q-121 0 -121 117q0 6 0.5 11.5t1 11.5t2 15t3 17.5t4.5 24.5t6 30t8.5 39.5t10.5 48t13 60.5t15 72l-69 1l9 45l76 15 l55 123l77 6l12 -14l-28 -115h136l7 -14z" />
<glyph unicode="&#x166;" horiz-adv-x="539" d="M278 0h-123l66 312h-126l14 64h126l46 220q-66 -1 -202 -7l28 99h510l-13 -99q-135 6 -200 7l-46 -220h126l-14 -64h-126z" />
<glyph unicode="&#x167;" horiz-adv-x="373" d="M344 268h-141q-25 -117 -25 -136q0 -56 56 -56q38 0 83 25l-6 -76q-66 -35 -134 -35q-121 0 -121 117q0 32 28 161h-68l13 63h69q3 18 11 55.5t11 50.5l-69 1l9 45l76 15l55 123l77 6l12 -14l-28 -115h136l7 -14l-17 -51l-139 2q-4 -21 -11.5 -55.5t-10.5 -48.5h140z" />
<glyph unicode="&#x168;" horiz-adv-x="678" d="M414 920q33 0 73.5 -28.5t64.5 -28.5q21 0 37 12.5t36 37.5l31 -6q-13 -50 -47 -87.5t-79 -37.5q-31 0 -75.5 28t-66.5 28q-35 0 -71 -49l-31 6q13 50 46 87.5t82 37.5zM76 164q0 45 43 239t50 286l124 9l9 -12q-97 -453 -99 -477q-1 -7 -1 -15q0 -53 29.5 -80.5 t81.5 -27.5q63 0 108.5 39.5t60.5 113.5q60 281 71.5 340.5t13.5 109.5l130 8l-99 -466q-25 -115 -112 -178t-200 -63q-95 0 -152.5 46t-57.5 128z" />
<glyph unicode="&#x169;" horiz-adv-x="548" d="M287 739q32 0 72.5 -28t62.5 -28q30 0 67 49l33 -5q-14 -55 -47.5 -96t-77.5 -41q-30 0 -74.5 28.5t-63.5 28.5q-31 0 -66 -50l-33 6q15 55 47.5 95.5t79.5 40.5zM53 148l45 211l8 139l128 10q0 -42 -7 -90t-21.5 -118t-18.5 -89q-12 -54 -7 -87t37 -33q45 0 83.5 59 t62.5 154q18 85 23 141q2 36 2 53l125 10q-2 -35 -7.5 -74t-11 -68t-18.5 -93.5t-21 -108.5q-17 -79 -17 -164h-120q0 57 10 125h-1q-35 -67 -84 -101t-99 -34q-58 0 -82 43t-9 115z" />
<glyph unicode="&#x16a;" horiz-adv-x="678" d="M323 812l15 72h279l-15 -72h-279zM76 164q0 45 43 239t50 286l124 9l9 -12q-97 -453 -99 -477q-1 -7 -1 -15q0 -53 29.5 -80.5t81.5 -27.5q63 0 108.5 39.5t60.5 113.5q60 281 71.5 340.5t13.5 109.5l130 8l-99 -466q-25 -115 -112 -178t-200 -63q-95 0 -152.5 46 t-57.5 128z" />
<glyph unicode="&#x16b;" horiz-adv-x="548" d="M189 630l14 69h284l-15 -69h-283zM53 148l45 211l8 139l128 10q0 -42 -7 -90t-21.5 -118t-18.5 -89q-12 -54 -7 -87t37 -33q45 0 83.5 59t62.5 154q18 85 23 141q2 36 2 53l125 10q-2 -35 -7.5 -74t-11 -68t-18.5 -93.5t-21 -108.5q-17 -79 -17 -164h-120q0 57 10 125h-1 q-35 -67 -84 -101t-99 -34q-58 0 -82 43t-9 115z" />
<glyph unicode="&#x16c;" horiz-adv-x="678" d="M563 914l49 4q-21 -63 -68 -101t-107 -38q-55 0 -85 35t-23 94l50 7q4 -25 25.5 -40t55.5 -15q32 0 60 15t43 39zM76 164q0 45 43 239t50 286l124 9l9 -12q-97 -453 -99 -477q-1 -7 -1 -15q0 -53 29.5 -80.5t81.5 -27.5q63 0 108.5 39.5t60.5 113.5q60 281 71.5 340.5 t13.5 109.5l130 8l-99 -466q-25 -115 -112 -178t-200 -63q-95 0 -152.5 46t-57.5 128z" />
<glyph unicode="&#x16d;" horiz-adv-x="548" d="M445 749l50 3q-23 -74 -71.5 -119t-108.5 -45q-56 0 -84.5 41.5t-19.5 112.5l51 7q1 -37 21 -58.5t54 -21.5q33 0 62.5 22t45.5 58zM53 148l45 211l8 139l128 10q0 -42 -7 -90t-21.5 -118t-18.5 -89q-12 -54 -7 -87t37 -33q45 0 83.5 59t62.5 154q18 85 23 141q2 36 2 53 l125 10q-2 -35 -7.5 -74t-11 -68t-18.5 -93.5t-21 -108.5q-17 -79 -17 -164h-120q0 57 10 125h-1q-35 -67 -84 -101t-99 -34q-58 0 -82 43t-9 115z" />
<glyph unicode="&#x16e;" horiz-adv-x="678" d="M580 878q0 -47 -42 -85t-95 -38q-37 0 -59.5 20t-22.5 51q0 45 43.5 82.5t96.5 37.5q36 0 57.5 -18.5t21.5 -49.5zM417 836q0 -17 10.5 -27t28.5 -10q26 0 46.5 21.5t20.5 47.5q0 35 -36 35q-27 0 -48.5 -20.5t-21.5 -46.5zM76 164q0 45 43 239t50 286l124 9l9 -12 q-97 -453 -99 -477q-1 -7 -1 -15q0 -53 29.5 -80.5t81.5 -27.5q63 0 108.5 39.5t60.5 113.5q60 281 71.5 340.5t13.5 109.5l130 8l-99 -466q-25 -115 -112 -178t-200 -63q-95 0 -152.5 46t-57.5 128z" />
<glyph unicode="&#x16f;" horiz-adv-x="548" d="M448 693q0 -47 -42 -85t-95 -38q-36 0 -59 20t-23 50q0 45 43.5 83t96.5 38q36 0 57.5 -19t21.5 -49zM286 650q0 -16 10 -26.5t28 -10.5q26 0 46.5 21.5t20.5 47.5q0 35 -36 35q-27 0 -48 -20.5t-21 -46.5zM53 148l45 211l8 139l128 10q0 -42 -7 -90t-21.5 -118 t-18.5 -89q-12 -54 -7 -87t37 -33q45 0 83.5 59t62.5 154q18 85 23 141q2 36 2 53l125 10q-2 -35 -7.5 -74t-11 -68t-18.5 -93.5t-21 -108.5q-17 -79 -17 -164h-120q0 57 10 125h-1q-35 -67 -84 -101t-99 -34q-58 0 -82 43t-9 115z" />
<glyph unicode="&#x170;" horiz-adv-x="678" d="M478 866l-10 -20q-101 -60 -226 -72l-3 31q117 64 193 124zM703 866l-10 -20q-101 -60 -226 -72l-3 31q117 64 193 124zM76 164q0 45 43 239t50 286l124 9l9 -12q-97 -453 -99 -477q-1 -7 -1 -15q0 -53 29.5 -80.5t81.5 -27.5q63 0 108.5 39.5t60.5 113.5 q60 281 71.5 340.5t13.5 109.5l130 8l-99 -466q-25 -115 -112 -178t-200 -63q-95 0 -152.5 46t-57.5 128z" />
<glyph unicode="&#x171;" horiz-adv-x="548" d="M384 756l2 -21q-75 -94 -172 -163l-42 11q88 111 127 183zM542 756l3 -21q-76 -96 -172 -163l-42 11q85 107 127 183zM53 148l45 211l8 139l128 10q0 -42 -7 -90t-21.5 -118t-18.5 -89q-12 -54 -7 -87t37 -33q45 0 83.5 59t62.5 154q18 85 23 141q2 36 2 53l125 10 q-2 -35 -7.5 -74t-11 -68t-18.5 -93.5t-21 -108.5q-17 -79 -17 -164h-120q0 57 10 125h-1q-35 -67 -84 -101t-99 -34q-58 0 -82 43t-9 115z" />
<glyph unicode="&#x172;" horiz-adv-x="678" d="M76 164q0 45 43 239t50 286l124 9l9 -12q-97 -453 -99 -477q-1 -7 -1 -15q0 -53 29.5 -80.5t81.5 -27.5q63 0 108.5 39.5t60.5 113.5q60 281 71.5 340.5t13.5 109.5l130 8l-99 -466q-32 -146 -163 -209q-145 -85 -145 -157q0 -34 39 -34q25 0 58 12l9 -43 q-60 -43 -123 -43q-41 0 -65 19.5t-24 53.5q0 84 127 161q-8 -1 -25 -1q-95 0 -152.5 46t-57.5 128z" />
<glyph unicode="&#x173;" horiz-adv-x="548" d="M53 148l45 211l8 139l128 10q0 -42 -7 -90t-21.5 -118t-18.5 -89q-12 -54 -7 -87t37 -33q45 0 83.5 59t62.5 154q18 85 23 141q2 36 2 53l125 10q-2 -35 -7.5 -74t-11 -68t-18.5 -93.5t-21 -108.5q-17 -79 -17 -164q-65 -30 -103 -66t-38 -71q0 -32 40 -32q25 0 58 12 l8 -43q-58 -43 -123 -43q-41 0 -65 19t-24 53q0 47 43.5 92t119.5 79h-36q0 57 10 125h-1q-35 -67 -84 -101t-99 -34q-58 0 -82 43t-9 115z" />
<glyph unicode="&#x174;" horiz-adv-x="961" d="M470 771l-26 28q80 61 144 120l86 8q43 -66 97 -128l-39 -28q-47 24 -117 76q-83 -49 -145 -76zM156 -2l-49 687l132 13l18 -381q6 -85 2 -194q24 61 90 198l178 369l119 8l20 -381q7 -130 5 -194q22 59 88 199l178 376l96 -8l5 -13l-337 -679h-127l-27 339q-3 42 -5 189 h-3q-35 -84 -87 -190l-169 -338h-127z" />
<glyph unicode="&#x175;" horiz-adv-x="754" d="M322 564l-32 27q77 80 142 160l87 8q33 -85 78 -168l-44 -27q-35 31 -96 107q-89 -77 -135 -107zM702 508q58 0 58 -41q0 -66 -67.5 -209t-157.5 -258h-135q12 172 9 364h-2q-58 -188 -179 -364h-134q0 285 -34 498l127 9q26 -187 10 -421h2q131 224 151 412h145 q24 -183 8 -412h2q59 101 99 213t50 203q24 6 48 6z" />
<glyph unicode="&#x176;" horiz-adv-x="561" d="M282 771l-25 28q73 56 143 120l87 8q45 -70 96 -128l-39 -28q-50 26 -117 76q-83 -49 -145 -76zM216 233l-109 452l133 13l44 -227l22 -151h2q13 24 47 80.5t42 70.5l139 227l97 -8l5 -13l-300 -445l-49 -232h-123z" />
<glyph unicode="&#x177;" horiz-adv-x="468" d="M181 564l-32 27q85 89 142 160l87 8q33 -85 78 -168l-44 -27q-38 34 -95 107q-86 -74 -136 -107zM415 508q59 0 59 -40q0 -57 -57.5 -177.5t-138 -242.5t-179 -214t-169.5 -92q-31 0 -49 17.5t-18 48.5q0 27 14 48q28 -7 60 -7q61 0 124 44t102 107h-57q-5 294 -46 498 l127 10q35 -192 21 -420h2q62 105 105.5 215.5t52.5 198.5q24 6 47 6z" />
<glyph unicode="&#x178;" horiz-adv-x="561" d="M600 868q0 -32 -28 -58t-63 -26q-23 0 -37 13t-14 32q0 31 28.5 57t63.5 26q22 0 36 -12t14 -32zM381 868q0 -32 -28 -58t-63 -26q-23 0 -36.5 13t-13.5 32q0 31 28 57t63 26q22 0 36 -12t14 -32zM216 233l-109 452l133 13l44 -227l22 -151h2q13 24 47 80.5t42 70.5 l139 227l97 -8l5 -13l-300 -445l-49 -232h-123z" />
<glyph unicode="&#x179;" horiz-adv-x="525" d="M537 864l-10 -20q-124 -59 -280 -70l-3 31q141 64 233 124zM-14 0l-4 79l449 508l-329 -6l30 107h434l14 -79l-445 -508l338 7l-30 -108h-457z" />
<glyph unicode="&#x17a;" horiz-adv-x="449" d="M399 753l3 -20q-81 -94 -193 -162l-41 11q90 115 126 182zM26 -10l-39 58q221 229 320 345q-66 20 -112 20q-74 0 -117 -57l-35 21q28 75 65 103t90 28q70 0 164 -48q13 16 37 48q19 0 33.5 -10t14.5 -30q0 -78 -314 -369q14 2 25 2q22 0 59.5 -7.5t52.5 -7.5 q62 0 105 65l41 -24q-28 -79 -64.5 -108t-93.5 -29q-37 0 -91.5 13t-73.5 13q-35 0 -67 -26z" />
<glyph unicode="&#x17b;" horiz-adv-x="525" d="M468 874q0 -36 -30 -64t-69 -28q-26 0 -42 14t-16 36q0 34 32 61.5t70 27.5q25 0 40 -13t15 -34zM-14 0l-4 79l449 508l-329 -6l30 107h434l14 -79l-445 -508l338 7l-30 -108h-457z" />
<glyph unicode="&#x17c;" horiz-adv-x="449" d="M363 690q0 -39 -31 -70t-69 -31q-26 0 -41.5 15t-15.5 39q0 36 31.5 67t70.5 31q25 0 40 -14t15 -37zM26 -10l-39 58q221 229 320 345q-66 20 -112 20q-74 0 -117 -57l-35 21q28 75 65 103t90 28q70 0 164 -48q13 16 37 48q19 0 33.5 -10t14.5 -30q0 -78 -314 -369 q14 2 25 2q22 0 59.5 -7.5t52.5 -7.5q62 0 105 65l41 -24q-28 -79 -64.5 -108t-93.5 -29q-37 0 -91.5 13t-73.5 13q-35 0 -67 -26z" />
<glyph unicode="&#x17d;" horiz-adv-x="525" d="M528 929l25 -28q-75 -56 -143 -120l-87 -8q-48 75 -96 128l39 28q54 -28 117 -75q89 51 145 75zM-14 0l-4 79l449 508l-329 -6l30 107h434l14 -79l-445 -508l338 7l-30 -108h-457z" />
<glyph unicode="&#x17e;" horiz-adv-x="449" d="M420 769l32 -27q-75 -76 -143 -160l-87 -8q-36 93 -78 168l44 27q35 -31 96 -107q80 69 136 107zM26 -10l-39 58q221 229 320 345q-66 20 -112 20q-74 0 -117 -57l-35 21q28 75 65 103t90 28q70 0 164 -48q13 16 37 48q19 0 33.5 -10t14.5 -30q0 -78 -314 -369q14 2 25 2 q22 0 59.5 -7.5t52.5 -7.5q62 0 105 65l41 -24q-28 -79 -64.5 -108t-93.5 -29q-37 0 -91.5 13t-73.5 13q-35 0 -67 -26z" />
<glyph unicode="&#x18f;" horiz-adv-x="673" d="M96 376l27 22h383v2q0 204 -166 204q-83 0 -174 -48l17 93q31 18 88.5 33.5t118.5 15.5q119 0 184 -68t65 -200q0 -181 -110 -310.5t-268 -129.5q-96 0 -149 53t-53 155q0 78 37 178zM183 212q0 -134 106 -134q81 0 139 72t73 182l-300 -14q-18 -54 -18 -106z" />
<glyph unicode="&#x192;" horiz-adv-x="519" d="M175 295l-113 4l16 46l112 14h2l16 67q67 272 269 272q77 0 122 -31l-55 -94q-44 36 -85 36q-51 0 -80.5 -46.5t-51.5 -140.5l-16 -63h174l4 -12l-22 -52h-172l-73 -292q-6 -25 -11 -40.5t-16.5 -45.5t-23.5 -50.5t-32.5 -46t-43.5 -41t-56.5 -26.5t-71.5 -11 q-52 0 -100 21l36 94q43 -26 81 -26q47 0 71.5 36t39.5 98l81 330h-1z" />
<glyph unicode="&#x19d;" horiz-adv-x="716" d="M-50 -193l-25 46q98 85 132 245l91 425q18 85 26 165l127 8q24 -64 61.5 -162t44.5 -118q64 -158 86 -255h2q14 109 60 325q27 133 34 202l115 9l11 -14l-146 -683h-118q-20 50 -55.5 143t-52.5 135q-62 154 -85 243h-3q-11 -102 -37 -218l-43 -205q-25 -116 -74.5 -181 t-150.5 -110z" />
<glyph unicode="&#x1cd;" horiz-adv-x="646" d="M579 929l26 -28q-80 -60 -144 -120l-87 -8q-48 75 -96 128l39 28q52 -26 117 -75q89 51 145 75zM89 0h-117l313 585q32 60 52 106l141 6l16 -16l74 -681h-124l-18 170h-246zM282 362l-55 -103h189l-11 103q-13 153 -12 221h-3q-45 -100 -108 -221z" />
<glyph unicode="&#x1ce;" horiz-adv-x="548" d="M504 769l32 -27q-75 -76 -143 -160l-86 -8q-38 95 -78 168l43 27q35 -31 96 -107q80 69 136 107zM37 140q0 65 23 130t63.5 118t104 86.5t137.5 33.5q90 0 158 -32l-40 -175q-45 -199 -45 -301h-120q0 69 20 181q-33 -77 -85 -134t-111 -57q-49 0 -77 38.5t-28 111.5z M160 170q0 -79 45 -79q30 0 66 45.5t62.5 104t41.5 114.5q6 29 15 67q-31 14 -54 14q-67 0 -121.5 -88.5t-54.5 -177.5z" />
<glyph unicode="&#x1cf;" horiz-adv-x="320" d="M428 929l26 -28q-80 -60 -144 -120l-86 -8q-48 75 -96 128l38 28q52 -26 117 -75q99 55 145 75zM173 0h-123l110 518q21 97 27 170l121 10l10 -14z" />
<glyph unicode="&#x1d0;" horiz-adv-x="275" d="M307 767l36 -18q-60 -93 -97 -166l-116 -8q-17 114 -30 174l44 18q32 -45 61 -110q55 70 102 110zM166 0h-119q0 96 37 267l20 92l8 139l128 10q0 -68 -37 -246.5t-37 -261.5z" />
<glyph unicode="&#x1d1;" horiz-adv-x="698" d="M612 929l26 -28q-80 -60 -144 -120l-86 -8q-45 70 -96 128l38 28q52 -26 117 -75q89 51 145 75zM667 442q0 -83 -28 -164.5t-76 -145t-119 -103t-151 -39.5q-105 0 -163.5 65.5t-58.5 187.5q0 113 47 216.5t134 171t192 67.5t164 -67t59 -189zM198 246q0 -163 116 -163 q68 0 121 57.5t79 138.5t26 163q0 163 -114 163q-67 0 -121 -58t-80.5 -139t-26.5 -162z" />
<glyph unicode="&#x1d2;" horiz-adv-x="538" d="M483 769l32 -27q-85 -89 -142 -160l-87 -8q-33 85 -78 168l44 27q35 -31 96 -107q84 72 135 107zM497 325q0 -129 -83.5 -232t-204.5 -103q-77 0 -121.5 46t-44.5 135q0 129 84 233t204 104q78 0 122 -47.5t44 -135.5zM167 162q0 -100 63 -100q43 0 77 47.5t50 108.5 t16 118q0 100 -63 100q-44 0 -78 -47t-49.5 -108t-15.5 -119z" />
<glyph unicode="&#x1d3;" horiz-adv-x="678" d="M608 929l26 -28q-80 -60 -144 -120l-86 -8q-45 70 -96 128l38 28q52 -26 117 -75q89 51 145 75zM76 164q0 45 43 239t50 286l124 9l9 -12q-97 -453 -99 -477q-1 -7 -1 -15q0 -53 29.5 -80.5t81.5 -27.5q63 0 108.5 39.5t60.5 113.5q60 281 71.5 340.5t13.5 109.5l130 8 l-99 -466q-25 -115 -112 -178t-200 -63q-95 0 -152.5 46t-57.5 128z" />
<glyph unicode="&#x1d4;" horiz-adv-x="548" d="M472 769l32 -27q-77 -80 -142 -160l-87 -8q-33 85 -78 168l44 27q35 -31 96 -107q84 72 135 107zM53 148l45 211l8 139l128 10q0 -42 -7 -90t-21.5 -118t-18.5 -89q-12 -54 -7 -87t37 -33q45 0 83.5 59t62.5 154q18 85 23 141q2 36 2 53l125 10q-2 -35 -7.5 -74t-11 -68 t-18.5 -93.5t-21 -108.5q-17 -79 -17 -164h-120q0 57 10 125h-1q-35 -67 -84 -101t-99 -34q-58 0 -82 43t-9 115z" />
<glyph unicode="&#x1d5;" horiz-adv-x="678" d="M369 1031l15 71h279l-15 -71h-279zM650 868q0 -32 -27.5 -58t-62.5 -26q-24 0 -37.5 12.5t-13.5 32.5q0 32 28.5 57.5t63.5 25.5q22 0 35.5 -12t13.5 -32zM431 868q0 -32 -27.5 -58t-62.5 -26q-24 0 -37.5 12.5t-13.5 32.5q0 32 28.5 57.5t63.5 25.5q22 0 35.5 -12 t13.5 -32zM76 164q0 45 43 239t50 286l124 9l9 -12q-97 -453 -99 -477q-1 -7 -1 -15q0 -53 29.5 -80.5t81.5 -27.5q63 0 108.5 39.5t60.5 113.5q60 281 71.5 340.5t13.5 109.5l130 8l-99 -466q-25 -115 -112 -178t-200 -63q-95 0 -152.5 46t-57.5 128z" />
<glyph unicode="&#x1d6;" horiz-adv-x="548" d="M240 869l14 69h284l-15 -69h-283zM302 689q0 -37 -28.5 -66.5t-64.5 -29.5q-24 0 -37.5 14t-13.5 36q0 35 30 64.5t65 29.5q22 0 35.5 -13t13.5 -35zM519 689q0 -37 -28.5 -66.5t-64.5 -29.5q-24 0 -37.5 14t-13.5 36q0 35 30 64.5t65 29.5q22 0 35.5 -13t13.5 -35z M53 148l45 211l8 139l128 10q0 -42 -7 -90t-21.5 -118t-18.5 -89q-12 -54 -7 -87t37 -33q45 0 83.5 59t62.5 154q18 85 23 141q2 36 2 53l125 10q-2 -35 -7.5 -74t-11 -68t-18.5 -93.5t-21 -108.5q-17 -79 -17 -164h-120q0 57 10 125h-1q-35 -67 -84 -101t-99 -34 q-58 0 -82 43t-9 115z" />
<glyph unicode="&#x1d7;" horiz-adv-x="678" d="M664 1082l-10 -19q-127 -61 -280 -70l-3 31q138 61 233 123zM650 868q0 -32 -27.5 -58t-62.5 -26q-24 0 -37.5 12.5t-13.5 32.5q0 32 28.5 57.5t63.5 25.5q22 0 35.5 -12t13.5 -32zM431 868q0 -32 -27.5 -58t-62.5 -26q-24 0 -37.5 12.5t-13.5 32.5q0 32 28.5 57.5 t63.5 25.5q22 0 35.5 -12t13.5 -32zM76 164q0 45 43 239t50 286l124 9l9 -12q-97 -453 -99 -477q-1 -7 -1 -15q0 -53 29.5 -80.5t81.5 -27.5q63 0 108.5 39.5t60.5 113.5q60 281 71.5 340.5t13.5 109.5l130 8l-99 -466q-25 -115 -112 -178t-200 -63q-95 0 -152.5 46 t-57.5 128z" />
<glyph unicode="&#x1d8;" horiz-adv-x="548" d="M503 992l3 -20q-81 -94 -193 -162l-41 11q90 116 126 183zM302 689q0 -37 -28.5 -66.5t-64.5 -29.5q-24 0 -37.5 14t-13.5 36q0 35 30 64.5t65 29.5q22 0 35.5 -13t13.5 -35zM519 689q0 -37 -28.5 -66.5t-64.5 -29.5q-24 0 -37.5 14t-13.5 36q0 35 30 64.5t65 29.5 q22 0 35.5 -13t13.5 -35zM53 148l45 211l8 139l128 10q0 -42 -7 -90t-21.5 -118t-18.5 -89q-12 -54 -7 -87t37 -33q45 0 83.5 59t62.5 154q18 85 23 141q2 36 2 53l125 10q-2 -35 -7.5 -74t-11 -68t-18.5 -93.5t-21 -108.5q-17 -79 -17 -164h-120q0 57 10 125h-1 q-35 -67 -84 -101t-99 -34q-58 0 -82 43t-9 115z" />
<glyph unicode="&#x1d9;" horiz-adv-x="678" d="M654 1184l32 -28q-75 -76 -143 -160l-86 -7q-40 96 -78 167l43 28q35 -31 96 -107q92 77 136 107zM650 868q0 -32 -27.5 -58t-62.5 -26q-24 0 -37.5 12.5t-13.5 32.5q0 32 28.5 57.5t63.5 25.5q22 0 35.5 -12t13.5 -32zM431 868q0 -32 -27.5 -58t-62.5 -26 q-24 0 -37.5 12.5t-13.5 32.5q0 32 28.5 57.5t63.5 25.5q22 0 35.5 -12t13.5 -32zM76 164q0 45 43 239t50 286l124 9l9 -12q-97 -453 -99 -477q-1 -7 -1 -15q0 -53 29.5 -80.5t81.5 -27.5q63 0 108.5 39.5t60.5 113.5q60 281 71.5 340.5t13.5 109.5l130 8l-99 -466 q-25 -115 -112 -178t-200 -63q-95 0 -152.5 46t-57.5 128z" />
<glyph unicode="&#x1da;" horiz-adv-x="548" d="M524 1008l32 -27q-75 -76 -143 -160l-87 -8q-36 93 -78 168l44 27q35 -31 96 -107q86 74 136 107zM302 689q0 -37 -28.5 -66.5t-64.5 -29.5q-24 0 -37.5 14t-13.5 36q0 35 30 64.5t65 29.5q22 0 35.5 -13t13.5 -35zM519 689q0 -37 -28.5 -66.5t-64.5 -29.5 q-24 0 -37.5 14t-13.5 36q0 35 30 64.5t65 29.5q22 0 35.5 -13t13.5 -35zM53 148l45 211l8 139l128 10q0 -42 -7 -90t-21.5 -118t-18.5 -89q-12 -54 -7 -87t37 -33q45 0 83.5 59t62.5 154q18 85 23 141q2 36 2 53l125 10q-2 -35 -7.5 -74t-11 -68t-18.5 -93.5t-21 -108.5 q-17 -79 -17 -164h-120q0 57 10 125h-1q-35 -67 -84 -101t-99 -34q-58 0 -82 43t-9 115z" />
<glyph unicode="&#x1db;" horiz-adv-x="678" d="M635 993q-152 10 -250 70l-2 19l87 65q78 -68 181 -123zM650 868q0 -32 -27.5 -58t-62.5 -26q-24 0 -37.5 12.5t-13.5 32.5q0 32 28.5 57.5t63.5 25.5q22 0 35.5 -12t13.5 -32zM431 868q0 -32 -27.5 -58t-62.5 -26q-24 0 -37.5 12.5t-13.5 32.5q0 32 28.5 57.5t63.5 25.5 q22 0 35.5 -12t13.5 -32zM76 164q0 45 43 239t50 286l124 9l9 -12q-97 -453 -99 -477q-1 -7 -1 -15q0 -53 29.5 -80.5t81.5 -27.5q63 0 108.5 39.5t60.5 113.5q60 281 71.5 340.5t13.5 109.5l130 8l-99 -466q-25 -115 -112 -178t-200 -63q-95 0 -152.5 46t-57.5 128z" />
<glyph unicode="&#x1dc;" horiz-adv-x="548" d="M428 811q-85 72 -124 162l11 20l110 12q12 -84 50 -183zM302 689q0 -37 -28.5 -66.5t-64.5 -29.5q-24 0 -37.5 14t-13.5 36q0 35 30 64.5t65 29.5q22 0 35.5 -13t13.5 -35zM519 689q0 -37 -28.5 -66.5t-64.5 -29.5q-24 0 -37.5 14t-13.5 36q0 35 30 64.5t65 29.5 q22 0 35.5 -13t13.5 -35zM53 148l45 211l8 139l128 10q0 -42 -7 -90t-21.5 -118t-18.5 -89q-12 -54 -7 -87t37 -33q45 0 83.5 59t62.5 154q18 85 23 141q2 36 2 53l125 10q-2 -35 -7.5 -74t-11 -68t-18.5 -93.5t-21 -108.5q-17 -79 -17 -164h-120q0 57 10 125h-1 q-35 -67 -84 -101t-99 -34q-58 0 -82 43t-9 115z" />
<glyph unicode="&#x1e6;" horiz-adv-x="655" d="M614 929l26 -28q-80 -60 -144 -120l-87 -8q-48 75 -96 128l39 28q52 -26 117 -75q89 51 145 75zM590 313l10 -13l-58 -265q-95 -45 -213 -45q-127 0 -193 64t-66 188q0 116 53 220.5t149 170t210 65.5q104 0 173 -42l-43 -106q-62 49 -146 49q-78 0 -140.5 -50.5 t-94 -126.5t-31.5 -159q0 -177 162 -177q41 0 77 8l4 18q22 103 29 191z" />
<glyph unicode="&#x1e7;" horiz-adv-x="482" d="M463 769l32 -27q-75 -76 -143 -160l-86 -8q-38 95 -78 168l43 27q35 -31 96 -107q80 69 136 107zM139 -258q-92 0 -145 34.5t-53 87.5q0 72 106 115l26 -25q-23 -28 -23 -54q0 -43 30 -70t82 -27q50 0 83.5 23t33.5 55q0 24 -21.5 41.5t-68.5 40.5q-30 14 -44 22.5 t-28 24t-14 33.5q0 32 35 57t82 40v3q-12 -1 -21 0q-65 3 -104 42.5t-39 105.5q0 94 70.5 155.5t165.5 61.5q149 0 203 12q11 -11 11 -31q0 -18 -12 -33t-38 -15q-13 0 -26 3t-31.5 9.5t-24.5 8.5l-1 -2q65 -37 65 -114q0 -50 -23 -91.5t-55.5 -67t-65 -45.5t-55.5 -36 t-23 -29q0 -11 13 -19.5t42 -22.5q60 -29 94 -59.5t34 -74.5q0 -65 -74 -112t-186 -47zM326 363q0 38 -13.5 60t-39.5 22q-41 0 -73 -53t-32 -112q0 -39 15 -61.5t42 -22.5q43 0 72 53t29 114z" />
<glyph unicode="&#x1ea;" horiz-adv-x="698" d="M448 31q-68 -38 -109 -81t-41 -83q0 -36 40 -36q25 0 58 12l8 -43q-58 -43 -124 -43q-41 0 -64.5 20t-23.5 57q0 82 116 156h-15q-105 0 -163.5 65.5t-58.5 187.5q0 113 47 216.5t134 171t192 67.5t164 -67t59 -189q0 -126 -60 -240.5t-159 -170.5zM198 246 q0 -163 116 -163q68 0 121 57.5t79 138.5t26 163q0 163 -114 163q-67 0 -121 -58t-80.5 -139t-26.5 -162z" />
<glyph unicode="&#x1eb;" horiz-adv-x="538" d="M346 31q-70 -54 -107 -94t-37 -73t39 -33q25 0 58 12l9 -43q-60 -43 -124 -43q-40 0 -64 19.5t-24 53.5q0 77 123 160h-10q-77 0 -121.5 46t-44.5 135q0 129 84 233t204 104q78 0 122 -47.5t44 -135.5t-41.5 -168.5t-110.5 -125.5h1zM167 162q0 -100 63 -100 q43 0 77 47.5t50 108.5t16 118q0 100 -63 100q-44 0 -78 -47t-49.5 -108t-15.5 -119z" />
<glyph unicode="&#x1f4;" horiz-adv-x="655" d="M623 864l-10 -20q-123 -59 -280 -70l-3 31q141 64 233 124zM590 313l10 -13l-58 -265q-95 -45 -213 -45q-127 0 -193 64t-66 188q0 116 53 220.5t149 170t210 65.5q104 0 173 -42l-43 -106q-62 49 -146 49q-78 0 -140.5 -50.5t-94 -126.5t-31.5 -159q0 -177 162 -177 q41 0 77 8l4 18q22 103 29 191z" />
<glyph unicode="&#x1f5;" horiz-adv-x="482" d="M443 753l2 -20q-81 -94 -193 -162l-41 11q90 115 126 182zM139 -258q-92 0 -145 34.5t-53 87.5q0 72 106 115l26 -25q-23 -28 -23 -54q0 -43 30 -70t82 -27q50 0 83.5 23t33.5 55q0 24 -21.5 41.5t-68.5 40.5q-30 14 -44 22.5t-28 24t-14 33.5q0 32 35 57t82 40v3 q-12 -1 -21 0q-65 3 -104 42.5t-39 105.5q0 94 70.5 155.5t165.5 61.5q149 0 203 12q11 -11 11 -31q0 -18 -12 -33t-38 -15q-13 0 -26 3t-31.5 9.5t-24.5 8.5l-1 -2q65 -37 65 -114q0 -50 -23 -91.5t-55.5 -67t-65 -45.5t-55.5 -36t-23 -29q0 -11 13 -19.5t42 -22.5 q60 -29 94 -59.5t34 -74.5q0 -65 -74 -112t-186 -47zM326 363q0 38 -13.5 60t-39.5 22q-41 0 -73 -53t-32 -112q0 -39 15 -61.5t42 -22.5q43 0 72 53t29 114z" />
<glyph unicode="&#x1fa;" horiz-adv-x="646" d="M641 1117l-10 -20q-127 -61 -280 -70l-3 31q140 61 233 124zM550 878q0 -47 -42 -85t-94 -38q-37 0 -59.5 20t-22.5 51q0 45 43.5 82.5t96.5 37.5q36 0 57 -18.5t21 -49.5zM388 836q0 -17 10.5 -27t28.5 -10q26 0 46.5 21.5t20.5 47.5q0 35 -36 35q-27 0 -48.5 -20.5 t-21.5 -46.5zM89 0h-117l313 585q32 60 52 106l141 6l16 -16l74 -681h-124l-18 170h-246zM282 362l-55 -103h189l-11 103q-13 153 -12 221h-3q-45 -100 -108 -221z" />
<glyph unicode="&#x1fb;" horiz-adv-x="548" d="M540 1016l2 -21q-82 -93 -193 -161l-41 11q90 115 126 182zM479 693q0 -47 -42 -85t-94 -38q-37 0 -60 20t-23 50q0 45 44 83t96 38q36 0 57.5 -19t21.5 -49zM317 650q0 -16 10.5 -26.5t28.5 -10.5q25 0 45.5 21.5t20.5 47.5q0 35 -36 35q-26 0 -47.5 -21t-21.5 -46z M37 140q0 65 23 130t63.5 118t104 86.5t137.5 33.5q90 0 158 -32l-40 -175q-45 -199 -45 -301h-120q0 69 20 181q-33 -77 -85 -134t-111 -57q-49 0 -77 38.5t-28 111.5zM160 170q0 -79 45 -79q30 0 66 45.5t62.5 104t41.5 114.5q6 29 15 67q-31 14 -54 14 q-67 0 -121.5 -88.5t-54.5 -177.5z" />
<glyph unicode="&#x1fc;" horiz-adv-x="893" d="M744 864l-10 -20q-123 -59 -280 -70l-3 31q141 64 233 124zM89 0h-117l406 585q13 19 32 49t35 54h422l10 -14l-20 -82l-265 6l-23 -217l226 4l-22 -89l-213 4l-22 -211l281 7l-20 -96h-395l22 170h-220zM339 362l-71 -103h169l13 103q16 112 34 221h-3 q-59 -99 -142 -221z" />
<glyph unicode="&#x1fd;" horiz-adv-x="779" d="M599 753l2 -20q-80 -93 -192 -162l-42 11q90 115 127 182zM38 147q0 88 37.5 169t115.5 136.5t179 55.5q75 0 147 -26q54 26 108 26q64 0 102.5 -32t38.5 -87q0 -73 -77.5 -122.5t-228.5 -58.5q-1 -8 -1 -24q0 -52 24.5 -82.5t71.5 -30.5q66 0 137 62l18 -47 q-38 -45 -92 -70.5t-110 -25.5q-78 0 -125.5 47t-47.5 134q-33 -74 -84 -127.5t-106 -53.5q-49 0 -78 41t-29 116zM606 438q-48 0 -86 -57.5t-54 -132.5q97 12 143 49.5t46 88.5q0 52 -49 52zM161 170q0 -79 45 -79q37 0 79 61t73 144q22 61 67 114q-42 26 -80 26 q-74 0 -129 -87t-55 -179z" />
<glyph unicode="&#x1fe;" horiz-adv-x="698" d="M621 864l-10 -20q-123 -59 -280 -70l-3 31q141 64 233 124zM667 442q0 -83 -28 -164.5t-76 -145t-119 -103t-151 -39.5q-120 0 -178 84l-90 -82l-38 41l102 94q-18 49 -18 116q0 113 47 216.5t134 171t192 67.5q115 0 175 -81l86 80l40 -40l-99 -91q21 -53 21 -124z M198 246v-17l329 303q-26 73 -101 73q-67 0 -121 -58t-80.5 -139t-26.5 -162zM540 442q0 4 -0.5 12t-0.5 12l-330 -304q26 -79 105 -79q68 0 121 57.5t79 138.5t26 163z" />
<glyph unicode="&#x1ff;" horiz-adv-x="538" d="M463 753l3 -20q-81 -94 -193 -162l-41 11q90 115 126 182zM497 325q0 -129 -83.5 -232t-204.5 -103q-86 0 -130 56l-71 -62l-35 42l81 70q-11 33 -11 75q0 129 84 233t204 104q87 0 130 -57l72 63l35 -41l-82 -71q11 -36 11 -77zM310 436q-57 0 -95.5 -75t-46.5 -165 l203 176q-11 64 -61 64zM230 62q39 0 70.5 39t49 92t22.5 109l-203 -177q11 -63 61 -63z" />
<glyph unicode="&#x218;" horiz-adv-x="530" d="M469 206q0 -94 -80 -155t-207 -61q-116 0 -178 37l31 104q32 -21 81 -33t87 -12q60 0 97.5 29.5t37.5 75.5q0 14 -3 26t-12 23.5t-15 18.5t-21 17.5t-21 14.5t-25 15t-22 13q-54 31 -84.5 67t-30.5 94q0 93 83 155.5t209 62.5q96 0 154 -29l-38 -106q-59 39 -138 39 q-61 0 -100 -29.5t-39 -74.5q0 -15 5.5 -28.5t11.5 -22.5t21 -20.5t24 -17.5t30 -18.5t29 -17.5q52 -32 82.5 -69.5t30.5 -97.5zM86 -317q48 52 69 95q-20 2 -31 18t-7 39q4 29 28 52t55 23q27 0 41.5 -18t8.5 -50q-12 -82 -133 -189z" />
<glyph unicode="&#x219;" horiz-adv-x="437" d="M417 482l-29 -92q-60 37 -120 37q-38 0 -62 -17.5t-24 -45.5q0 -23 19.5 -40.5t47 -31t55.5 -29t47.5 -43.5t19.5 -65q0 -72 -64 -118.5t-157 -46.5t-147 36l28 91q65 -46 140 -46q38 0 62 18.5t24 45.5q0 22 -19.5 39.5t-47.5 31t-56 29.5t-47.5 43t-19.5 64 q0 72 66 119t156 47q67 0 128 -26zM45 -317q45 47 70 95q-20 2 -31 18t-8 39q4 29 28.5 52t55.5 23q27 0 41 -17.5t9 -50.5q-12 -82 -133 -189z" />
<glyph unicode="&#x21a;" horiz-adv-x="539" d="M278 0h-123l126 596q-66 -1 -202 -7l28 99h510l-13 -99q-135 6 -200 7zM87 -317q45 47 70 95q-20 2 -31.5 18t-7.5 39q4 29 28.5 52t55.5 23q26 0 40.5 -18t9.5 -50q-13 -84 -134 -189z" />
<glyph unicode="&#x21b;" horiz-adv-x="373" d="M378 433l-139 2q-61 -285 -61 -303q0 -56 56 -56q38 0 83 25l-6 -76q-66 -35 -134 -35q-121 0 -121 117q0 6 0.5 11.5t1 11.5t2 15t3 17.5t4.5 24.5t6 30t8.5 39.5t10.5 48t13 60.5t15 72l-69 1l9 45l76 15l55 123l77 6l12 -14l-28 -115h136l7 -14zM36 -317q45 47 70 95 q-20 2 -31 18t-8 39q4 29 28.5 52t55.5 23q27 0 41 -17.5t9 -50.5q-12 -82 -133 -189z" />
<glyph unicode="&#x232;" horiz-adv-x="561" d="M272 812l15 72h279l-15 -72h-279zM216 233l-109 452l133 13l44 -227l22 -151h2q13 24 47 80.5t42 70.5l139 227l97 -8l5 -13l-300 -445l-49 -232h-123z" />
<glyph unicode="&#x233;" horiz-adv-x="468" d="M154 630l15 69h283l-14 -69h-284zM415 508q59 0 59 -40q0 -57 -57.5 -177.5t-138 -242.5t-179 -214t-169.5 -92q-31 0 -49 17.5t-18 48.5q0 27 14 48q28 -7 60 -7q61 0 124 44t102 107h-57q-5 294 -46 498l127 10q35 -192 21 -420h2q62 105 105.5 215.5t52.5 198.5 q24 6 47 6z" />
<glyph unicode="&#x237;" horiz-adv-x="258" d="M-48 -258l-39 43q81 89 109 221l75 353l8 139l128 10q0 -25 -3 -54t-13 -81.5t-16.5 -84t-25 -120t-27.5 -129.5q-24 -112 -66.5 -180t-129.5 -117z" />
<glyph unicode="&#x259;" horiz-adv-x="479" d="M80 383l7 83q75 42 165 42q85 0 135 -47.5t50 -135.5q0 -82 -42 -159.5t-111.5 -126.5t-144.5 -49q-59 0 -95.5 30t-36.5 83q0 74 75.5 127.5t230.5 59.5q0 4 0.5 12t0.5 12q0 52 -25 82.5t-74 30.5q-59 0 -135 -44zM118 112q0 -53 48 -53t86.5 58t53.5 133 q-96 -12 -142 -50t-46 -88z" />
<glyph unicode="&#x272;" horiz-adv-x="601" d="M5 -230l-39 43q69 99 96 221l69 325l8 139l128 10q0 -46 -15 -140h2q37 70 89 105t104 35q58 0 82.5 -42.5t8.5 -115.5l-42 -199q-13 -59 -13 -151h-119q0 80 42 287q13 59 6.5 89.5t-38.5 30.5q-53 0 -98.5 -75t-67.5 -188q-13 -60 -16 -77q-20 -109 -62.5 -178 t-124.5 -119z" />
<glyph unicode="&#x2c6;" horiz-adv-x="401" d="M152 564l-32 28q88 92 143 159l86 8q42 -101 78 -167l-44 -28q-34 31 -95 107q-92 -77 -136 -107z" />
<glyph unicode="&#x2c7;" horiz-adv-x="401" d="M428 772l32 -28q-72 -73 -143 -159l-87 -8q-38 98 -78 167l44 28q38 -35 96 -107q92 77 136 107z" />
<glyph unicode="&#x2d8;" horiz-adv-x="377" d="M387 750l49 4q-22 -74 -71 -119.5t-109 -45.5q-56 0 -84.5 41.5t-18.5 112.5l50 7q2 -37 22 -58.5t54 -21.5q33 0 62 22t46 58z" />
<glyph unicode="&#x2d9;" horiz-adv-x="245" d="M289 690q0 -39 -31 -70t-70 -31q-26 0 -41 15t-15 38q0 37 31.5 68t70.5 31q25 0 40 -14t15 -37z" />
<glyph unicode="&#x2da;" horiz-adv-x="306" d="M351 692q0 -47 -42 -84.5t-95 -37.5q-37 0 -59.5 19.5t-22.5 50.5q0 45 43.5 82.5t96.5 37.5q36 0 57.5 -18.5t21.5 -49.5zM189 650q0 -17 10.5 -27t28.5 -10q25 0 45.5 21.5t20.5 47.5q0 35 -36 35q-27 0 -48 -20.5t-21 -46.5z" />
<glyph unicode="&#x2db;" horiz-adv-x="364" d="M238 0q-65 -30 -103 -66t-38 -71q0 -32 40 -32q25 0 58 12l8 -43q-58 -43 -123 -43q-41 0 -65 19t-24 53q0 52 52.5 101t143.5 83z" />
<glyph unicode="&#x2dc;" horiz-adv-x="416" d="M248 739q32 0 73 -28t62 -28q30 0 67 49l34 -5q-15 -55 -48.5 -96t-76.5 -41q-30 0 -75 28.5t-64 28.5q-31 0 -66 -50l-33 6q15 55 47.5 95.5t79.5 40.5z" />
<glyph unicode="&#x2dd;" horiz-adv-x="409" d="M329 756l2 -21q-75 -94 -172 -163l-42 11q88 111 127 183zM488 756l2 -21q-76 -96 -172 -163l-42 11q85 107 127 183z" />
<glyph unicode="&#x394;" horiz-adv-x="638" d="M347 690h134l83 -670l-6 -20h-584l2 20zM125 90h299l-51 461z" />
<glyph unicode="&#x3a9;" horiz-adv-x="783" d="M275 0h-271l3 86l16 14l205 -41q-53 36 -83.5 105t-30.5 151q0 160 108 271.5t259 111.5q114 0 178.5 -67t64.5 -172q0 -116 -72 -228.5t-174 -170.5l218 40l11 -14l-35 -86h-271l-1 54q84 72 138.5 181t54.5 208q0 74 -34 118t-98 44q-96 0 -161 -92.5t-65 -232.5 q0 -135 63 -226z" />
<glyph unicode="&#x3bc;" horiz-adv-x="548" d="M318 0q0 57 10 125h-1q-35 -67 -84 -101t-99 -34q-16 0 -30 6q5 -45 -1 -128.5t-6 -104.5l-119 -5q0 86 61 372l49 229l8 139l128 10q0 -42 -7 -90t-21.5 -118t-18.5 -89q-12 -54 -7 -87t37 -33q45 0 83.5 59t62.5 154q18 85 23 141q2 36 2 53l125 10q-1 -24 -4 -49 t-5.5 -44.5t-9 -53.5t-10 -53t-14 -68.5t-15.5 -75.5q-17 -79 -17 -164h-120z" />
<glyph unicode="&#x3c0;" horiz-adv-x="629" d="M46 414l36 86l580 8l5 -14l-37 -73l-81 -1q-53 -220 -58 -297q0 -32 24 -32q20 0 42 8l-27 -99q-37 -10 -75 -10q-91 0 -90 92q1 55 63 337l-158 -2q-3 -13 -16.5 -74t-17.5 -80.5t-13.5 -68.5t-13 -74.5t-7 -59.5t-3.5 -60h-119q0 101 61 380l7 35z" />
<glyph unicode="&#x1e0c;" horiz-adv-x="709" d="M676 430q0 -112 -49.5 -209t-149.5 -159t-232 -62h-195l111 523q23 107 26 165h216q132 0 202.5 -64t70.5 -194zM371 599h-71l-108 -510h80q67 0 121 29t87 77t50 105t17 117q0 103 -47.5 142.5t-128.5 39.5zM344 -137q0 -39 -31 -70t-70 -31q-26 0 -41 15t-15 39 q0 36 31.5 67t70.5 31q25 0 40 -14t15 -37z" />
<glyph unicode="&#x1e0d;" horiz-adv-x="549" d="M439 0h-119q0 70 21 184q-33 -82 -85 -138t-114 -56q-49 0 -77 38.5t-28 110.5q0 65 23 130.5t63.5 118.5t103 86.5t134.5 33.5q25 0 46 -4l23 105l8 139l128 10q0 -93 -63.5 -375t-63.5 -383zM160 170q0 -79 45 -79t96.5 87.5t73.5 176.5q4 16 6 25l9 42q-31 14 -54 14 q-67 0 -121.5 -88.5t-54.5 -177.5zM281 -137q0 -39 -31 -70t-69 -31q-26 0 -41.5 15t-15.5 39q0 36 31.5 67t70.5 31q25 0 40 -14t15 -37z" />
<glyph unicode="&#x1e24;" horiz-adv-x="726" d="M173 0h-123l110 518q22 110 27 170l121 10l10 -14l-63 -298h283l28 132q21 97 27 170l121 10l10 -14l-145 -684h-123l63 297h-283zM354 -137q0 -39 -31 -70t-69 -31q-26 0 -41.5 15t-15.5 39q0 36 32 67t71 31q25 0 39.5 -14t14.5 -37z" />
<glyph unicode="&#x1e25;" horiz-adv-x="568" d="M166 0h-119q0 96 61 380l49 229l8 139l128 10q0 -47 -11.5 -121t-21.5 -120t-34 -149h3q36 69 88.5 104.5t103.5 35.5q46 0 71 -26.5t25 -74.5q0 -34 -42 -227q-19 -89 -19 -180h-119q0 86 35 249q18 86 18 109q0 49 -42 49q-47 0 -88.5 -58.5t-66.5 -152.5t-27 -196z M296 -137q0 -39 -31 -70t-70 -31q-26 0 -41 15t-15 39q0 36 31.5 67t70.5 31q25 0 40 -14t15 -37z" />
<glyph unicode="&#x1e44;" horiz-adv-x="730" d="M563 874q0 -36 -30 -64t-69 -28q-27 0 -42.5 14t-15.5 36q0 34 31.5 61.5t70.5 27.5q25 0 40 -13t15 -34zM421 416q64 -168 85 -262h2q12 99 61 332q24 111 34 202l114 9l11 -14l-145 -683h-119q-22 54 -56.5 146.5t-50.5 131.5q-64 162 -86 251h-2q-12 -111 -38 -226 l-64 -303h-117l111 523q20 92 26 165l127 8q89 -234 107 -280z" />
<glyph unicode="&#x1e45;" horiz-adv-x="568" d="M436 690q0 -39 -31 -70t-70 -31q-26 0 -41 15t-15 39q0 36 31.5 67t70.5 31q25 0 40 -14t15 -37zM166 0h-119q0 106 57 359l8 139l128 10q0 -46 -15 -140h2q37 70 89 105t105 35q46 0 71 -26t25 -70q0 -39 -34 -196q-27 -126 -27 -216h-119q0 80 29 223q22 112 22 133 q0 51 -41 51q-45 0 -86.5 -57.5t-67 -152t-27.5 -197.5z" />
<glyph unicode="&#x1e5a;" horiz-adv-x="616" d="M173 0h-123l111 523q21 95 26 165h194q109 0 167 -43.5t58 -124.5q0 -79 -47 -141.5t-130 -91.5l109 -287l-139 -11q-43 123 -83 264h-90zM356 602h-55l-57 -266h51q84 0 133.5 45.5t49.5 119.5q0 101 -122 101zM306 -137q0 -39 -31 -70t-70 -31q-26 0 -41 15t-15 39 q0 36 31.5 67t70.5 31q25 0 40 -14t15 -37z" />
<glyph unicode="&#x1e5b;" horiz-adv-x="403" d="M166 0h-119q0 96 37 267l20 92l8 139l128 10q0 -59 -24 -181h2q34 94 77 137.5t88 43.5q42 0 67 -29l-59 -109q-28 12 -54 12q-73 0 -119.5 -111.5t-51.5 -270.5zM154 -137q0 -39 -31 -70t-70 -31q-26 0 -41 15t-15 39q0 36 31.5 67t70.5 31q25 0 40 -14t15 -37z" />
<glyph unicode="&#x1e62;" horiz-adv-x="530" d="M469 206q0 -94 -80 -155t-207 -61q-116 0 -178 37l31 104q32 -21 81 -33t87 -12q60 0 97.5 29.5t37.5 75.5q0 14 -3 26t-12 23.5t-15 18.5t-21 17.5t-21 14.5t-25 15t-22 13q-54 31 -84.5 67t-30.5 94q0 93 83 155.5t209 62.5q96 0 154 -29l-38 -106q-59 39 -138 39 q-61 0 -100 -29.5t-39 -74.5q0 -15 5.5 -28.5t11.5 -22.5t21 -20.5t24 -17.5t30 -18.5t29 -17.5q52 -32 82.5 -69.5t30.5 -97.5zM260 -137q0 -39 -31.5 -70t-69.5 -31q-26 0 -41 15t-15 39q0 36 31.5 67t70.5 31q25 0 40 -14t15 -37z" />
<glyph unicode="&#x1e63;" horiz-adv-x="437" d="M417 482l-29 -92q-60 37 -120 37q-38 0 -62 -17.5t-24 -45.5q0 -23 19.5 -40.5t47 -31t55.5 -29t47.5 -43.5t19.5 -65q0 -72 -64 -118.5t-157 -46.5t-147 36l28 91q65 -46 140 -46q38 0 62 18.5t24 45.5q0 22 -19.5 39.5t-47.5 31t-56 29.5t-47.5 43t-19.5 64 q0 72 66 119t156 47q67 0 128 -26zM219 -137q0 -39 -31 -70t-69 -31q-26 0 -41.5 15t-15.5 39q0 36 31.5 67t70.5 31q25 0 40 -14t15 -37z" />
<glyph unicode="&#x1e6c;" horiz-adv-x="539" d="M278 0h-123l126 596q-66 -1 -202 -7l28 99h510l-13 -99q-135 6 -200 7zM261 -137q0 -39 -31 -70t-70 -31q-26 0 -41 15t-15 39q0 36 31.5 67t70.5 31q25 0 40 -14t15 -37z" />
<glyph unicode="&#x1e6d;" horiz-adv-x="373" d="M378 433l-139 2q-61 -285 -61 -303q0 -56 56 -56q38 0 83 25l-6 -76q-66 -35 -134 -35q-121 0 -121 117q0 6 0.5 11.5t1 11.5t2 15t3 17.5t4.5 24.5t6 30t8.5 39.5t10.5 48t13 60.5t15 72l-69 1l9 45l76 15l55 123l77 6l12 -14l-28 -115h136l7 -14zM210 -137 q0 -39 -31 -70t-69 -31q-26 0 -41.5 15t-15.5 39q0 36 31.5 67t70.5 31q25 0 40 -14t15 -37z" />
<glyph unicode="&#x1e80;" horiz-adv-x="961" d="M725 774q-151 11 -249 70l-2 20l87 65q71 -64 181 -124zM156 -2l-49 687l132 13l18 -381q6 -85 2 -194q24 61 90 198l178 369l119 8l20 -381q7 -130 5 -194q22 59 88 199l178 376l96 -8l5 -13l-337 -679h-127l-27 339q-3 42 -5 189h-3q-35 -84 -87 -190l-169 -338h-127z " />
<glyph unicode="&#x1e81;" horiz-adv-x="754" d="M483 572q-85 72 -124 162l11 20l110 12q12 -84 50 -183zM702 508q58 0 58 -41q0 -66 -67.5 -209t-157.5 -258h-135q12 172 9 364h-2q-58 -188 -179 -364h-134q0 285 -34 498l127 9q26 -187 10 -421h2q131 224 151 412h145q24 -183 8 -412h2q59 101 99 213t50 203 q24 6 48 6z" />
<glyph unicode="&#x1e82;" horiz-adv-x="961" d="M755 864l-11 -20q-123 -59 -280 -70l-3 31q145 65 234 124zM156 -2l-49 687l132 13l18 -381q6 -85 2 -194q24 61 90 198l178 369l119 8l20 -381q7 -130 5 -194q22 59 88 199l178 376l96 -8l5 -13l-337 -679h-127l-27 339q-3 42 -5 189h-3q-35 -84 -87 -190l-169 -338 h-127z" />
<glyph unicode="&#x1e83;" horiz-adv-x="754" d="M559 753l2 -20q-81 -94 -193 -162l-41 11q90 115 126 182zM702 508q58 0 58 -41q0 -66 -67.5 -209t-157.5 -258h-135q12 172 9 364h-2q-58 -188 -179 -364h-134q0 285 -34 498l127 9q26 -187 10 -421h2q131 224 151 412h145q24 -183 8 -412h2q59 101 99 213t50 203 q24 6 48 6z" />
<glyph unicode="&#x1e84;" horiz-adv-x="961" d="M787 868q0 -32 -27.5 -58t-62.5 -26q-23 0 -37 13t-14 32q0 32 28.5 57.5t63.5 25.5q22 0 35.5 -12t13.5 -32zM568 868q0 -32 -27.5 -58t-62.5 -26q-23 0 -37 13t-14 32q0 31 28.5 57t63.5 26q22 0 35.5 -12t13.5 -32zM156 -2l-49 687l132 13l18 -381q6 -85 2 -194 q24 61 90 198l178 369l119 8l20 -381q7 -130 5 -194q22 59 88 199l178 376l96 -8l5 -13l-337 -679h-127l-27 339q-3 42 -5 189h-3q-35 -84 -87 -190l-169 -338h-127z" />
<glyph unicode="&#x1e85;" horiz-adv-x="754" d="M408 689q0 -37 -28.5 -66.5t-64.5 -29.5q-23 0 -37 14t-14 36q0 35 30 64.5t65 29.5q23 0 36 -13t13 -35zM625 689q0 -37 -28.5 -66.5t-64.5 -29.5q-24 0 -37.5 14t-13.5 36q0 35 30 64.5t65 29.5q22 0 35.5 -13t13.5 -35zM702 508q58 0 58 -41q0 -66 -67.5 -209 t-157.5 -258h-135q12 172 9 364h-2q-58 -188 -179 -364h-134q0 285 -34 498l127 9q26 -187 10 -421h2q131 224 151 412h145q24 -183 8 -412h2q59 101 99 213t50 203q24 6 48 6z" />
<glyph unicode="&#x1e92;" horiz-adv-x="525" d="M-14 0l-4 79l449 508l-329 -6l30 107h434l14 -79l-445 -508l338 7l-30 -108h-457zM251 -137q0 -39 -31 -70t-70 -31q-26 0 -41 15t-15 39q0 36 31.5 67t70.5 31q25 0 40 -14t15 -37z" />
<glyph unicode="&#x1e93;" horiz-adv-x="449" d="M26 -10l-39 58q221 229 320 345q-66 20 -112 20q-74 0 -117 -57l-35 21q28 75 65 103t90 28q70 0 164 -48q13 16 37 48q19 0 33.5 -10t14.5 -30q0 -78 -314 -369q14 2 25 2q22 0 59.5 -7.5t52.5 -7.5q62 0 105 65l41 -24q-28 -79 -64.5 -108t-93.5 -29q-37 0 -91.5 13 t-73.5 13q-35 0 -67 -26zM206 -137q0 -39 -31 -70t-70 -31q-26 0 -41 15t-15 39q0 36 31.5 67t70.5 31q25 0 40 -14t15 -37z" />
<glyph unicode="&#x1e9e;" horiz-adv-x="677" d="M70 139l68 318q24 114 107.5 177.5t197.5 63.5q85 0 140 -37t62 -105l-187 -172q73 -35 113.5 -80t40.5 -114q0 -84 -66 -142t-170 -58q-84 0 -138 27l22 104q50 -35 111 -35q54 0 83.5 28t29.5 71q0 44 -36 76.5t-123 74.5l6 32l179 178q-19 57 -88 57q-60 0 -103.5 -41 t-59.5 -113l-74 -348q-18 -81 -51 -111l-111 10q30 58 47 139z" />
<glyph unicode="&#x1ea0;" horiz-adv-x="646" d="M89 0h-117l313 585q32 60 52 106l141 6l16 -16l74 -681h-124l-18 170h-246zM282 362l-55 -103h189l-11 103q-13 153 -12 221h-3q-45 -100 -108 -221zM319 -137q0 -39 -31 -70t-69 -31q-26 0 -41.5 15t-15.5 39q0 36 32 67t71 31q25 0 39.5 -14t14.5 -37z" />
<glyph unicode="&#x1ea1;" horiz-adv-x="548" d="M37 140q0 65 23 130t63.5 118t104 86.5t137.5 33.5q90 0 158 -32l-40 -175q-45 -199 -45 -301h-120q0 69 20 181q-33 -77 -85 -134t-111 -57q-49 0 -77 38.5t-28 111.5zM160 170q0 -79 45 -79q30 0 66 45.5t62.5 104t41.5 114.5q6 29 15 67q-31 14 -54 14 q-67 0 -121.5 -88.5t-54.5 -177.5zM296 -137q0 -39 -31.5 -70t-69.5 -31q-26 0 -41 15t-15 39q0 36 31.5 67t70.5 31q25 0 40 -14t15 -37z" />
<glyph unicode="&#x1eb8;" horiz-adv-x="560" d="M485 96l-20 -96h-415l111 523q23 103 26 165h403l11 -14l-20 -82l-281 7l-46 -218l237 4l-22 -89l-232 5l-45 -212zM302 -137q0 -39 -31 -70t-69 -31q-26 0 -41.5 15t-15.5 39q0 36 32 67t71 31q25 0 39.5 -14t14.5 -37z" />
<glyph unicode="&#x1eb9;" horiz-adv-x="486" d="M400 133l18 -47q-38 -45 -92 -70.5t-110 -25.5q-78 0 -125.5 47.5t-47.5 137.5q0 127 86 230t206 103q63 0 101 -30t38 -83q0 -75 -78.5 -128t-227.5 -59q-1 -8 -1 -24q0 -52 24.5 -82.5t71.5 -30.5q66 0 137 62zM314 438q-48 0 -86 -57.5t-54 -132.5q97 12 143 49.5 t46 88.5q0 52 -49 52zM271 -137q0 -39 -31 -70t-70 -31q-26 0 -41 15t-15 39q0 36 31.5 67t70.5 31q25 0 40 -14t15 -37z" />
<glyph unicode="&#x1ebc;" horiz-adv-x="560" d="M371 920q32 0 73.5 -28.5t64.5 -28.5q21 0 37 12.5t36 37.5l31 -6q-13 -50 -47 -87.5t-79 -37.5q-31 0 -75.5 28t-66.5 28q-35 0 -71 -49l-31 6q13 50 46 87.5t82 37.5zM485 96l-20 -96h-415l111 523q23 103 26 165h403l11 -14l-20 -82l-281 7l-46 -218l237 4l-22 -89 l-232 5l-45 -212z" />
<glyph unicode="&#x1ebd;" horiz-adv-x="486" d="M285 739q31 0 72 -28t62 -28q30 0 67 49l34 -5q-15 -55 -48.5 -96t-76.5 -41q-30 0 -74.5 28.5t-63.5 28.5q-31 0 -66 -50l-34 6q15 55 48 95.5t80 40.5zM400 133l18 -47q-38 -45 -92 -70.5t-110 -25.5q-78 0 -125.5 47.5t-47.5 137.5q0 127 86 230t206 103q63 0 101 -30 t38 -83q0 -75 -78.5 -128t-227.5 -59q-1 -8 -1 -24q0 -52 24.5 -82.5t71.5 -30.5q66 0 137 62zM314 438q-48 0 -86 -57.5t-54 -132.5q97 12 143 49.5t46 88.5q0 52 -49 52z" />
<glyph unicode="&#x1eca;" horiz-adv-x="320" d="M173 0h-123l110 518q21 97 27 170l121 10l10 -14zM150 -137q0 -39 -31 -70t-69 -31q-26 0 -41.5 15t-15.5 39q0 36 32 67t71 31q25 0 39.5 -14t14.5 -37z" />
<glyph unicode="&#x1ecb;" horiz-adv-x="275" d="M288 690q0 -39 -31 -70t-69 -31q-26 0 -41.5 15t-15.5 39q0 36 31.5 67t70.5 31q25 0 40 -14t15 -37zM166 0h-119q0 96 37 267l20 92l8 139l128 10q0 -68 -37 -246.5t-37 -261.5zM154 -137q0 -39 -31 -70t-70 -31q-26 0 -41 15t-15 39q0 36 31.5 67t70.5 31q25 0 40 -14 t15 -37z" />
<glyph unicode="&#x1ecc;" horiz-adv-x="698" d="M667 442q0 -83 -28 -164.5t-76 -145t-119 -103t-151 -39.5q-105 0 -163.5 65.5t-58.5 187.5q0 113 47 216.5t134 171t192 67.5t164 -67t59 -189zM198 246q0 -163 116 -163q68 0 121 57.5t79 138.5t26 163q0 163 -114 163q-67 0 -121 -58t-80.5 -139t-26.5 -162zM344 -137 q0 -39 -31 -70t-69 -31q-26 0 -41.5 15t-15.5 39q0 36 32 67t71 31q25 0 39.5 -14t14.5 -37z" />
<glyph unicode="&#x1ecd;" horiz-adv-x="538" d="M497 325q0 -129 -83.5 -232t-204.5 -103q-77 0 -121.5 46t-44.5 135q0 129 84 233t204 104q78 0 122 -47.5t44 -135.5zM167 162q0 -100 63 -100q43 0 77 47.5t50 108.5t16 118q0 100 -63 100q-44 0 -78 -47t-49.5 -108t-15.5 -119zM273 -137q0 -39 -31 -70t-69 -31 q-26 0 -41.5 15t-15.5 39q0 36 31.5 67t70.5 31q25 0 40 -14t15 -37z" />
<glyph unicode="&#x1ee4;" horiz-adv-x="678" d="M76 164q0 45 43 239t50 286l124 9l9 -12q-97 -453 -99 -477q-1 -7 -1 -15q0 -53 29.5 -80.5t81.5 -27.5q63 0 108.5 39.5t60.5 113.5q60 281 71.5 340.5t13.5 109.5l130 8l-99 -466q-25 -115 -112 -178t-200 -63q-95 0 -152.5 46t-57.5 128zM335 -137q0 -39 -31 -70 t-69 -31q-26 0 -41.5 15t-15.5 39q0 36 32 67t71 31q25 0 39.5 -14t14.5 -37z" />
<glyph unicode="&#x1ee5;" horiz-adv-x="548" d="M53 148l45 211l8 139l128 10q0 -42 -7 -90t-21.5 -118t-18.5 -89q-12 -54 -7 -87t37 -33q45 0 83.5 59t62.5 154q18 85 23 141q2 36 2 53l125 10q-2 -35 -7.5 -74t-11 -68t-18.5 -93.5t-21 -108.5q-17 -79 -17 -164h-120q0 57 10 125h-1q-35 -67 -84 -101t-99 -34 q-58 0 -82 43t-9 115zM298 -137q0 -39 -31 -70t-70 -31q-26 0 -41 15t-15 39q0 36 31.5 67t70.5 31q25 0 40 -14t15 -37z" />
<glyph unicode="&#x1ef2;" horiz-adv-x="561" d="M538 774q-152 12 -250 70l-2 20l87 65q72 -64 181 -124zM216 233l-109 452l133 13l44 -227l22 -151h2q13 24 47 80.5t42 70.5l139 227l97 -8l5 -13l-300 -445l-49 -232h-123z" />
<glyph unicode="&#x1ef3;" horiz-adv-x="468" d="M343 572q-85 71 -125 162l12 20l110 12q10 -76 49 -183zM415 508q59 0 59 -40q0 -57 -57.5 -177.5t-138 -242.5t-179 -214t-169.5 -92q-31 0 -49 17.5t-18 48.5q0 27 14 48q28 -7 60 -7q61 0 124 44t102 107h-57q-5 294 -46 498l127 10q35 -192 21 -420h2 q62 105 105.5 215.5t52.5 198.5q24 6 47 6z" />
<glyph unicode="&#x1ef8;" horiz-adv-x="561" d="M364 920q33 0 73.5 -28.5t63.5 -28.5q35 0 73 50l31 -6q-13 -50 -47 -87.5t-79 -37.5q-31 0 -75 28t-66 28q-36 0 -72 -49l-31 6q13 50 46.5 87.5t82.5 37.5zM216 233l-109 452l133 13l44 -227l22 -151h2q13 24 47 80.5t42 70.5l139 227l97 -8l5 -13l-300 -445l-49 -232 h-123z" />
<glyph unicode="&#x1ef9;" horiz-adv-x="468" d="M252 739q32 0 73 -28t62 -28q30 0 67 49l34 -5q-15 -55 -48.5 -96t-76.5 -41q-30 0 -75 28.5t-64 28.5q-31 0 -66 -50l-33 6q15 55 48 95.5t79 40.5zM415 508q59 0 59 -40q0 -57 -57.5 -177.5t-138 -242.5t-179 -214t-169.5 -92q-31 0 -49 17.5t-18 48.5q0 27 14 48 q28 -7 60 -7q61 0 124 44t102 107h-57q-5 294 -46 498l127 10q35 -192 21 -420h2q62 105 105.5 215.5t52.5 198.5q24 6 47 6z" />
<glyph unicode="&#x2007;" />
<glyph unicode="&#x2013;" horiz-adv-x="550" d="M37 263l5 44h487l-6 -44h-486z" />
<glyph unicode="&#x2014;" horiz-adv-x="845" d="M34 263l8 44h785l-9 -44h-784z" />
<glyph unicode="&#x2018;" horiz-adv-x="259" d="M321 737q-74 -87 -101 -152q20 -3 33 -17.5t13 -36.5q0 -38 -31 -68.5t-69 -30.5q-27 0 -43 15t-16 44q0 57 59 138.5t125 138.5z" />
<glyph unicode="&#x2019;" horiz-adv-x="259" d="M85 454q74 86 102 151q-21 4 -33.5 18.5t-12.5 36.5q0 38 30.5 68.5t68.5 30.5q26 0 42.5 -15.5t16.5 -43.5q0 -57 -58.5 -138.5t-125.5 -138.5z" />
<glyph unicode="&#x201a;" horiz-adv-x="259" d="M-46 -161q74 86 102 152q-21 3 -33.5 17.5t-12.5 36.5q0 38 30.5 68.5t68.5 30.5q27 0 43 -15t16 -43q0 -58 -59 -139.5t-125 -138.5z" />
<glyph unicode="&#x201c;" horiz-adv-x="480" d="M321 737q-74 -87 -101 -152q20 -3 33 -17.5t13 -36.5q0 -38 -31 -68.5t-69 -30.5q-27 0 -43 15t-16 44q0 57 59 138.5t125 138.5zM542 737q-74 -87 -101 -152q20 -3 33 -17.5t13 -36.5q0 -38 -31 -68.5t-69 -30.5q-27 0 -43 15t-16 44q0 57 59 138.5t125 138.5z" />
<glyph unicode="&#x201d;" horiz-adv-x="480" d="M306 455q73 83 102 151q-21 3 -33.5 17.5t-12.5 36.5q0 38 30.5 68.5t68.5 30.5q27 0 43 -15t16 -43q0 -57 -58.5 -138.5t-125.5 -138.5zM85 455q73 83 102 151q-21 3 -33.5 17.5t-12.5 36.5q0 38 30.5 68.5t68.5 30.5q27 0 43 -15t16 -43q0 -57 -58.5 -138.5 t-125.5 -138.5z" />
<glyph unicode="&#x201e;" horiz-adv-x="476" d="M-46 -161q74 86 102 152q-21 3 -33.5 17.5t-12.5 36.5q0 38 30.5 68.5t68.5 30.5q27 0 43 -15t16 -43q0 -58 -59 -139.5t-125 -138.5zM172 -161q72 84 101 152q-20 3 -33 17.5t-13 36.5q0 38 31 68.5t69 30.5q27 0 43 -15t16 -43q0 -58 -59 -139.5t-125 -138.5z" />
<glyph unicode="&#x2020;" horiz-adv-x="506" d="M231 0l-61 -1l-5 11l3 148l99 297l-167 -15l-2 3q2 38 11 78l12 7l157 -15l10 176l4 4q52 5 107 5l7 -8l-66 -177l166 15l3 -3q-4 -41 -11 -78l-13 -7l-159 15l-27 -297l-60 -149z" />
<glyph unicode="&#x2021;" horiz-adv-x="506" d="M143 -7l-6 8l72 180l-166 -24l-10 7q15 64 25 92l4 3l159 -25q2 86 8 114q3 14 40 110l-170 -25l-3 3q4 45 15 92l12 7l157 -24l3 178l4 4q57 5 116 5l7 -8l-72 -179l169 24l3 -3q-3 -36 -14 -91l-12 -8l-158 25q-2 -88 -7 -110q-4 -19 -41 -114l168 25l9 -8 q-9 -45 -24 -91l-4 -3l-160 24l-4 -179l-4 -4q-80 -5 -116 -5z" />
<glyph unicode="&#x2022;" horiz-adv-x="468" d="M204 132q-48 0 -76.5 27.5t-28.5 70.5q0 65 55.5 118.5t123.5 53.5q46 0 72.5 -26t26.5 -70q0 -68 -53 -121t-120 -53z" />
<glyph unicode="&#x2026;" horiz-adv-x="721" d="M174 91q0 -38 -32 -69.5t-71 -31.5q-27 0 -43 15.5t-16 39.5q0 37 33 68t72 31q26 0 41.5 -14.5t15.5 -38.5zM403 91q0 -38 -31.5 -69.5t-71.5 -31.5q-27 0 -43 15.5t-16 39.5q0 37 33 68t73 31q25 0 40.5 -14.5t15.5 -38.5zM632 91q0 -38 -31.5 -69.5t-70.5 -31.5 q-27 0 -43 15.5t-16 39.5q0 37 33 68t72 31q25 0 40.5 -14.5t15.5 -38.5z" />
<glyph unicode="&#x2030;" horiz-adv-x="1425" d="M476 552q0 -101 -68 -179t-169 -78q-65 0 -103 37.5t-38 108.5q0 101 69.5 179.5t168.5 78.5q66 0 103 -38t37 -109zM767 698l-423 -708h-54l422 708h55zM202 435q0 -80 54 -80q52 0 84.5 68.5t32.5 138.5q0 78 -54 78q-36 0 -64 -35.5t-40.5 -81t-12.5 -88.5zM921 180 q0 -101 -68 -179t-169 -78q-65 0 -103 37.5t-38 108.5q0 101 69.5 179.5t168.5 78.5q66 0 103 -38t37 -109zM1355 180q0 -100 -68.5 -178.5t-168.5 -78.5q-65 0 -103 37.5t-38 108.5q0 101 69 179.5t168 78.5q66 0 103.5 -38.5t37.5 -108.5zM647 63q0 -80 54 -80 q35 0 62.5 36t40.5 82t13 89q0 78 -53 78q-36 0 -64 -35.5t-40.5 -81t-12.5 -88.5zM1081 63q0 -80 53 -80q52 0 84.5 68.5t32.5 138.5q0 78 -54 78q-52 0 -84 -67.5t-32 -137.5z" />
<glyph unicode="&#x2039;" horiz-adv-x="290" d="M54 276l7 33q93 68 211 189l28 -14q-56 -101 -143 -191q50 -96 62 -192l-34 -14q-71 127 -131 189z" />
<glyph unicode="&#x203a;" horiz-adv-x="290" d="M254 309l-7 -33q-98 -73 -210 -189l-28 14q58 103 142 191q-49 94 -61 192l34 14q70 -127 130 -189z" />
<glyph unicode="&#x2044;" horiz-adv-x="497" d="M638 700l-576 -710h-57l575 710h58z" />
<glyph unicode="&#x2070;" horiz-adv-x="461" d="M536 613q0 -108 -70.5 -188.5t-167.5 -80.5q-63 0 -100.5 38.5t-37.5 111.5q0 107 71.5 189.5t168.5 82.5q64 0 100 -40t36 -113zM253 485q0 -88 58 -88q54 0 93 74t39 153q0 88 -57 88q-54 0 -93.5 -73.5t-39.5 -153.5z" />
<glyph unicode="&#x2074;" horiz-adv-x="417" d="M144 504l223 256l102 6l8 -9l-52 -245q21 1 61 5l-22 -68h-52l-21 -97h-87l21 97h-182zM222 511v-1q9 0 45.5 0.5t69.5 0.5h1l17 80q16 73 27 110h-2z" />
<glyph unicode="&#x2075;" horiz-adv-x="393" d="M134 358l21 61q35 -15 85 -15q48 0 81 22.5t33 58.5q0 28 -20 42.5t-52 14.5q-45 0 -86 -16l-11 8l47 224h156q64 0 105 6l-21 -74h-179l-20 -94q30 5 59 5q53 0 86.5 -26.5t33.5 -75.5q0 -67 -60.5 -111t-152.5 -44q-54 0 -105 14z" />
<glyph unicode="&#x2076;" horiz-adv-x="413" d="M293 344q-63 0 -100 33.5t-37 101.5q0 112 87 199.5t203 87.5q39 0 55 -7l-21 -63q-19 7 -46 7q-51 0 -97.5 -34t-68.5 -98h2q36 22 85 22q55 0 87 -25.5t32 -72.5q0 -63 -52.5 -107t-128.5 -44zM324 540q-43 0 -68 -27q-8 -23 -8 -50q0 -65 51 -65q33 0 55.5 26t22.5 62 q0 54 -53 54z" />
<glyph unicode="&#x2077;" horiz-adv-x="359" d="M179 680l24 78h285l9 -10l-10 -48q-193 -155 -240 -348h-96q26 92 96.5 184.5t151.5 152.5v1h-90q-81 0 -130 -10z" />
<glyph unicode="&#x2078;" horiz-adv-x="417" d="M279 344q-65 0 -103 24.5t-38 65.5q0 39 35 72.5t93 52.5v2q-65 40 -65 89t50.5 82.5t120.5 33.5q60 0 93 -25t33 -61q0 -33 -29 -64.5t-77 -50.5v-2q80 -39 80 -98q0 -51 -55 -86t-138 -35zM358 716q-29 0 -49.5 -16.5t-20.5 -41.5q0 -38 54 -65q32 16 51 38t19 43 q0 19 -15 30.5t-39 11.5zM311 525q-34 -12 -59 -35.5t-25 -48.5q0 -22 17.5 -35t49.5 -13q38 0 63 18.5t25 43.5q0 41 -71 70z" />
<glyph unicode="&#x2079;" horiz-adv-x="413" d="M289 506q-53 0 -84 26.5t-31 74.5q0 66 51.5 112.5t125.5 46.5q63 0 103 -37.5t40 -111.5q0 -109 -82.5 -191t-201.5 -82q-37 0 -53 5l11 61q30 -4 47 -4q61 0 106 35.5t60 92.5q-40 -28 -92 -28zM346 708q-32 0 -53 -28.5t-21 -64.5q0 -56 54 -56q38 0 65 21q7 31 7 57 q0 71 -52 71zM412 606l-11 -17q7 8 11 17z" />
<glyph unicode="&#x207f;" horiz-adv-x="471" d="M238 580q29 51 71.5 79t87.5 28q39 0 60.5 -21.5t21.5 -60.5q0 -29 -27 -146q-20 -93 -19 -168h-100q0 77 21 172q17 82 17 99q0 41 -36 41q-56 0 -100 -94.5t-45 -217.5h-100q-1 80 44 280l4 108l108 8q0 -44 -11 -107h3z" />
<glyph unicode="&#x2080;" horiz-adv-x="461" d="M446 189q0 -108 -70.5 -188.5t-167.5 -80.5q-63 0 -100.5 38.5t-37.5 111.5q0 107 71.5 189.5t168.5 82.5q64 0 100 -40t36 -113zM163 61q0 -88 58 -88q54 0 93 74t39 153q0 88 -57 88q-54 0 -93.5 -73.5t-39.5 -153.5z" />
<glyph unicode="&#x2081;" horiz-adv-x="272" d="M159 257h-1l-69 -10l-2 52l172 45l8 -10l-86 -404h-92l52 244q10 53 18 83z" />
<glyph unicode="&#x2082;" horiz-adv-x="376" d="M33 -70l3 61q108 63 175 120t67 115q0 26 -16.5 40.5t-45.5 14.5q-55 0 -118 -43l6 68q66 38 149 38q57 0 91 -26.5t34 -72.5q0 -69 -73 -133t-179 -115h95q53 0 106 6l-22 -73h-272z" />
<glyph unicode="&#x2083;" horiz-adv-x="371" d="M112 310q64 32 140 32q50 0 81.5 -21t31.5 -55q0 -39 -37 -73t-89 -48q48 -5 76 -27.5t28 -58.5q0 -59 -61 -99t-149 -40q-62 0 -107 14l21 58q35 -14 86 -14q48 0 80.5 19.5t32.5 49.5q0 48 -87 48q-31 0 -59 -4l12 58q69 8 111 33.5t42 58.5q0 38 -54 38 q-49 0 -107 -28z" />
<glyph unicode="&#x2084;" horiz-adv-x="417" d="M54 82l223 256l102 6l8 -9l-52 -245q21 1 61 5l-22 -68h-52l-21 -97h-87l21 97h-182zM132 89v-1q9 0 45.5 0.5t69.5 0.5h1l17 80q16 73 27 110h-2z" />
<glyph unicode="&#x2085;" horiz-adv-x="393" d="M44 -66l21 61q35 -15 85 -15q48 0 81 22.5t33 58.5q0 28 -20 42.5t-52 14.5q-45 0 -86 -16l-11 8l47 224h156q64 0 105 6l-21 -74h-179l-20 -94q30 5 59 5q53 0 86.5 -26.5t33.5 -75.5q0 -67 -60.5 -111t-152.5 -44q-54 0 -105 14z" />
<glyph unicode="&#x2086;" horiz-adv-x="413" d="M203 -80q-63 0 -100 33.5t-37 101.5q0 112 87 199.5t203 87.5q39 0 55 -7l-21 -63q-19 7 -46 7q-51 0 -97.5 -34t-68.5 -98h2q36 22 85 22q55 0 87 -25.5t32 -72.5q0 -63 -52.5 -107t-128.5 -44zM234 116q-43 0 -68 -27q-8 -23 -8 -50q0 -65 51 -65q33 0 55.5 26t22.5 62 q0 54 -53 54z" />
<glyph unicode="&#x2087;" horiz-adv-x="359" d="M89 258l24 78h285l9 -10l-10 -48q-193 -155 -240 -348h-96q26 92 96.5 184.5t151.5 152.5v1h-90q-81 0 -130 -10z" />
<glyph unicode="&#x2088;" horiz-adv-x="417" d="M189 -80q-65 0 -103 24.5t-38 65.5q0 39 35 72.5t93 52.5v2q-65 40 -65 89t50.5 82.5t120.5 33.5q60 0 93 -25t33 -61q0 -33 -29 -64.5t-77 -50.5v-2q80 -39 80 -98q0 -51 -55 -86t-138 -35zM268 292q-29 0 -49.5 -16.5t-20.5 -41.5q0 -38 54 -65q32 16 51 38t19 43 q0 19 -15 30.5t-39 11.5zM221 101q-34 -12 -59 -35.5t-25 -48.5q0 -22 17.5 -35t49.5 -13q38 0 63 18.5t25 43.5q0 41 -71 70z" />
<glyph unicode="&#x2089;" horiz-adv-x="413" d="M199 82q-53 0 -84 26.5t-31 74.5q0 66 51.5 112.5t125.5 46.5q63 0 103 -37.5t40 -111.5q0 -109 -82.5 -191t-201.5 -82q-37 0 -53 5l11 61q30 -4 47 -4q61 0 106 35.5t60 92.5q-40 -28 -92 -28zM256 284q-32 0 -53 -28.5t-21 -64.5q0 -56 54 -56q38 0 65 21q7 31 7 57 q0 71 -52 71zM322 182l-11 -17q7 8 11 17z" />
<glyph unicode="&#x20ac;" horiz-adv-x="597" d="M41 248l15 47h66q6 48 19 87h-58l15 47h60q49 119 143 194t204 75q89 0 144 -42l-45 -106q-57 46 -120 46q-59 0 -112.5 -46t-86.5 -121h206l-14 -47h-209q-14 -44 -17 -87h198l-14 -47h-186q3 -157 126 -157q75 0 148 47l-8 -100q-79 -48 -178 -48q-106 0 -162.5 61 t-56.5 181v16h-77z" />
<glyph unicode="&#x2122;" horiz-adv-x="581" d="M596 690l6 -5l-24 -225h-53l9 82q7 61 13 95h-1q-23 -57 -43 -96l-40 -81h-60l-4 81q-5 47 -2 97h-1q-4 -13 -7 -25.5t-7.5 -27.5t-13.5 -44l-27 -81h-45l74 228l74 2l6 -73q2 -38 -2 -107h1q29 78 44 107l36 71zM209 460h-55l40 187q-24 0 -68 -2l12 42h185l-6 -42 q-46 2 -68 2z" />
<glyph unicode="&#x2202;" horiz-adv-x="664" d="M432 758q227 0 227 -273q0 -132 -49 -244.5t-140.5 -181.5t-205.5 -69q-92 0 -142 46t-50 127q0 121 98 209t237 88q66 0 121 -26q1 12 1 36q0 196 -137 196q-85 0 -163 -56l-25 78q104 70 228 70zM201 181q0 -98 93 -98q81 0 138 73t82 183q-51 28 -110 28 q-90 0 -146.5 -53t-56.5 -133z" />
<glyph unicode="&#x220f;" horiz-adv-x="753" d="M845 674l-21 -79h-96l-156 -735h-119l156 735h-214l-156 -735h-119l156 735h-96l16 91l639 2z" />
<glyph unicode="&#x2211;" horiz-adv-x="581" d="M38 -49l309 329l-169 329l38 79h472l11 -14l-22 -82l-371 7l157 -303l-7 -32l-285 -303l376 7l-21 -96h-484z" />
<glyph unicode="&#x2212;" d="M532 314h-450l14 63q172 5 452 5l4 -7z" />
<glyph unicode="&#x221a;" horiz-adv-x="625" d="M759 737l-374 -737h-130l-61 408h-96l19 90h181l46 -409l313 669l96 -8z" />
<glyph unicode="&#x221e;" horiz-adv-x="805" d="M780 388q0 -90 -64 -157t-152 -67q-59 0 -94 30t-59 81q-97 -111 -206 -111q-62 0 -99.5 37.5t-37.5 101.5q0 90 63 156.5t148 66.5q102 0 157 -113q99 113 207 113q63 0 100 -37.5t37 -100.5zM619 460q-84 0 -160 -104q24 -63 49.5 -94.5t69.5 -31.5q51 0 90 43t39 99 q0 40 -24 64t-64 24zM142 321q0 -42 24 -66t65 -24q38 0 80 28t77 72q-14 33 -22.5 49.5t-23.5 38.5t-34.5 31.5t-44.5 9.5q-50 0 -85.5 -41.5t-35.5 -97.5z" />
<glyph unicode="&#x222b;" horiz-adv-x="498" d="M98 -258q-65 0 -124 28l29 93q53 -40 104 -40q25 0 42 12.5t26.5 38t14 53.5t7.5 70q7 54 14 285q2 58 3.5 91.5t5 82t8.5 76.5t13.5 64.5t20 57t29 43.5t39 34.5t50.5 19t64 7.5q67 0 126 -28l-29 -93q-56 40 -106 40q-33 0 -52.5 -19t-29 -62t-13 -93.5t-6.5 -130.5 q0 -26 -1 -40q-14 -283 -14 -284q-14 -153 -64.5 -229.5t-156.5 -76.5z" />
<glyph unicode="&#x2248;" d="M457 359q-26 0 -131 30.5t-118 30.5q-15 0 -82 -71l-35 28q88 115 136 115q25 0 131 -30.5t118 -30.5q4 0 10 3t15.5 11.5t15.5 14.5l20.5 20.5t21.5 20.5l34 -26q-89 -116 -136 -116zM412 149q-26 0 -131 30.5t-118 30.5q-2 0 -5 -1t-7 -3.5t-7.5 -5.5t-9 -7.5 t-9.5 -8.5l-10.5 -10.5l-10.5 -10.5t-11.5 -12t-11.5 -12l-35 27q89 116 136 116q25 0 131 -31t118 -31q3 0 7 1.5t9.5 6t10 8.5t12.5 11.5t13 12.5l15 15l16 16l34 -27q-26 -33 -43 -52.5t-44.5 -41t-48.5 -21.5z" />
<glyph unicode="&#x2260;" d="M119 127l68 97h-124l14 64q74 2 156 2l87 127h-215l13 64q188 3 249 4l83 120l9 2l47 -28l-64 -94q50 1 128 1l5 -7l-20 -62h-160l-87 -126q168 2 221 2l4 -7l-20 -62h-252l-85 -123l-10 -2z" />
<glyph unicode="&#x2264;" d="M205 392l317 -130l-15 -68l-419 174l9 43l7 9q259 92 485 162l-14 -68zM474 45h-450l13 63q172 5 453 5l4 -7z" />
<glyph unicode="&#x2265;" d="M62 192l15 70l377 129l-322 122l14 69q269 -101 417 -163l3 -9l-10 -49zM479 45h-450l13 63q172 5 452 5l5 -7z" />
<glyph unicode="&#x25ca;" horiz-adv-x="600" d="M62 324l8 37l282 329l78 10l147 -340l-8 -37l-284 -323l-77 -10zM379 640l-245 -299l121 -290h4l247 291l-122 298h-5z" />
<glyph unicode="&#x25fc;" horiz-adv-x="510" d="M0 510h510v-510h-510v510z" />
<glyph unicode="&#xfb00;" horiz-adv-x="654" d="M269 552q-3 -11 -6.5 -33t-5.5 -32h172q11 65 14 80q6 33 20 61q-34 29 -84 29q-89 0 -110 -105zM-13 -230l-38 43q71 102 95 221l83 390l-72 4l10 44l75 15q2 12 4 23.5t4 24t3 18.5q19 92 85 138.5t157 46.5q73 0 131 -30q62 50 155 50q74 0 122 -31l-45 -91 q-47 33 -95 33q-78 0 -100 -95q-3 -16 -9 -50t-6 -37h128l7 -13l-16 -54l-131 4l-76 -363q-23 -111 -64 -179t-119 -117l-39 43q71 102 95 220l84 396h-169l-76 -357q-23 -111 -63.5 -179.5t-119.5 -117.5z" />
<glyph unicode="&#xfb01;" horiz-adv-x="570" d="M-13 -230l-38 43q71 102 95 221l83 390l-72 4l10 44l75 15q14 77 14 78q18 91 82 142t159 51q113 0 176 -60l-72 -75q-55 46 -119 46q-86 0 -108 -100q-4 -18 -15 -82h150l128 21q0 -68 -37 -246.5t-37 -261.5h-119q0 96 37 267l20 92l4 61l-157 4l-76 -357 q-23 -112 -63.5 -180t-119.5 -117z" />
<glyph unicode="&#xfb02;" horiz-adv-x="571" d="M272 569q-4 -18 -15 -82h171l27 122l2 41q-38 19 -77 19q-86 0 -108 -100zM-13 -230l-38 43q71 102 95 221l83 390l-72 4l10 44l75 15q14 77 14 78q18 91 82 142t159 51q35 0 76 -9l120 9q0 -93 -63.5 -375t-63.5 -383h-119q0 96 61 380l8 40l-168 4l-76 -357 q-23 -112 -63.5 -180t-119.5 -117z" />
<glyph unicode="&#xfb03;" horiz-adv-x="856" d="M269 552q-3 -11 -6.5 -33t-5.5 -32h169q7 40 13 78q7 36 23 67q-35 25 -81 25q-90 0 -112 -105zM-13 -230l-38 43q71 102 95 221l83 390l-72 4l10 44l75 15q2 12 5.5 34t5.5 32q22 93 86 139t156 46q72 0 132 -28q63 48 155 48q114 0 177 -60l-73 -75q-53 46 -118 46 q-86 0 -108 -100q-11 -51 -15 -82h149l129 21q0 -68 -37 -246.5t-37 -261.5h-120q0 96 37 267l20 92l4 61l-156 4l-76 -357q-23 -112 -63.5 -180t-119.5 -117l-39 43q70 98 96 221l83 390h-167l-76 -357q-23 -111 -63.5 -179.5t-119.5 -117.5z" />
<glyph unicode="&#xfb04;" horiz-adv-x="859" d="M561 569q-11 -51 -15 -82h171l26 122l2 41q-38 19 -77 19q-87 0 -107 -100zM269 552q-3 -11 -6.5 -33t-5.5 -32h172q2 16 7.5 45.5t5.5 32.5q8 35 21 63q-36 29 -82 29q-89 0 -112 -105zM-13 -230l-38 43q71 102 95 221l83 390l-72 4l10 44l75 15q2 12 5.5 34t5.5 32 q22 93 86 139t156 46q74 0 131 -31q65 51 159 51q36 0 77 -9l119 9q0 -93 -63.5 -375t-63.5 -383h-119q0 96 61 380l9 40l-168 4l-76 -357q-24 -112 -64.5 -180t-118.5 -117l-39 43q70 98 96 221l82 390h-169l-76 -357q-23 -111 -63.5 -179.5t-119.5 -117.5z" />
<glyph unicode="&#xfb06;" horiz-adv-x="790" d="M417 482l-29 -92q-60 37 -120 37q-38 0 -62 -17.5t-24 -45.5q0 -23 19.5 -40.5t47 -31t55.5 -29t47.5 -43.5t19.5 -65q0 -72 -64 -118.5t-157 -46.5t-147 36l28 91q65 -46 140 -46q38 0 62 18.5t24 45.5q0 22 -19.5 39.5t-47.5 31t-56 29.5t-47.5 43t-19.5 64 q0 72 66 119t156 47q27 0 50 -4q-6 22 -6 44q0 83 66.5 141.5t161.5 58.5q68 0 107 -31t39 -83q0 -81 -84 -136h182l6 -14l-16 -51l-139 2q-8 -37 -16 -74.5t-13 -61t-10 -47.5t-8 -37.5l-6 -27t-4 -20.5l-2 -14t-1.5 -11.5t-0.5 -8.5q0 -57 55 -57q37 0 84 25l-6 -76 q-66 -35 -134 -35q-121 0 -121 118q0 6 0.5 11.5l1 11t2 14.5l3 18t4.5 24.5t6 29.5t8.5 39.5t10.5 48t13 60t15 72.5l-64 1l10 44q48 15 76 51t28 75q0 30 -18.5 47t-50.5 17q-48 0 -84 -38t-36 -91q0 -32 19 -61z" />
<glyph horiz-adv-x="306" d="M421 858l-10 -20q-128 -60 -280 -69l-3 30q141 64 233 124zM-50 -193l-25 46q100 87 133 245l89 420q18 87 23 165l125 15l10 -13l-124 -587q-24 -113 -74.5 -179t-156.5 -112z" />
<glyph horiz-adv-x="258" d="M312 753l3 -20q-79 -92 -193 -162l-42 11q90 115 127 182zM-48 -258l-39 43q81 89 109 221l75 353l8 139l128 10q0 -25 -3 -54t-13 -81.5t-16.5 -84t-25 -120t-27.5 -129.5q-24 -112 -66.5 -180t-129.5 -117z" />
<glyph horiz-adv-x="457" d="M9 47q0 68 31 131t94 106t144 43q77 0 133 -24l-32 -140q-36 -161 -35 -236h-100q-1 49 14 138q-27 -57 -69.5 -99.5t-89.5 -42.5q-41 0 -65.5 32.5t-24.5 91.5zM112 66q0 -63 38 -63q37 0 77.5 65.5t59.5 136.5q5 21 12 53q-24 11 -43 11q-56 0 -100 -66t-44 -137z" />
<glyph horiz-adv-x="459" d="M93 406l5 108l108 8q1 -80 -57 -328q29 60 70 96.5t87 36.5q43 0 68 -32t25 -91q0 -106 -74.5 -193.5t-194.5 -87.5q-81 0 -130 26q6 46 55 278zM109 -3l2 26q-1 -5 -2.5 -16t-2.5 -16q21 -9 42 -9q59 0 103 62.5t44 133.5q0 69 -39 69q-43 0 -88.5 -82t-58.5 -168z" />
<glyph horiz-adv-x="389" d="M300 36l16 -40q-32 -33 -77.5 -53t-91.5 -20q-65 0 -103.5 39.5t-38.5 109.5q0 101 72 178t174 77q55 0 102 -19l-24 -78q-43 31 -84 31q-56 0 -96 -54t-40 -124q0 -93 77 -93q57 0 114 46z" />
<glyph horiz-adv-x="456" d="M340 -69h-100q-3 48 13 135q-27 -60 -69.5 -101.5t-91.5 -41.5q-41 0 -66 33t-25 93q0 107 76.5 192.5t197.5 85.5q21 0 32 -1l17 80l5 108l108 8q1 -68 -33 -221q-3 -15 -17 -76.5t-19 -86t-14 -70.5t-12 -78t-2 -59zM105 70q0 -67 38 -67q40 0 83 72t58 144v-3 q0 3 2 11l7 32q-25 10 -39 10q-60 0 -104.5 -63t-44.5 -136z" />
<glyph horiz-adv-x="409" d="M304 36l16 -40q-28 -34 -74 -53.5t-94 -19.5q-67 0 -107 39t-40 110q0 100 72.5 177.5t170.5 77.5q52 0 83.5 -23.5t31.5 -64.5q0 -59 -66.5 -100.5t-187.5 -48.5q0 -2 -0.5 -6t-0.5 -6q0 -41 21 -64.5t60 -23.5q55 0 115 46zM232 270q-40 0 -73 -45.5t-45 -102.5 q77 11 116.5 42.5t39.5 68.5t-38 37z" />
<glyph horiz-adv-x="310" d="M-26 -250l-33 35q59 84 77 176l64 297l-60 4l8 36l63 12q8 46 11 62q15 72 66 111t129 39q66 0 103 -24l-36 -75q-40 25 -80 25q-66 0 -82 -70q-1 -8 -5.5 -31t-6.5 -37h107l6 -11l-12 -44l-111 3l-57 -268q-20 -91 -53 -146t-98 -94z" />
<glyph horiz-adv-x="406" d="M101 -266q-78 0 -124 27t-46 67q0 54 88 86l21 -19q-17 -20 -17 -38q0 -32 25.5 -52t69.5 -20q41 0 68.5 16t27.5 40q0 17 -17 29.5t-59 31.5q-37 16 -55 29.5t-18 32.5q0 27 29.5 46.5t67.5 29.5v1q-21 0 -31 2q-48 4 -78 35t-30 82q0 73 58 120t137 47q125 0 170 10 q9 -9 9 -25q0 -15 -9.5 -27.5t-31.5 -12.5q-10 0 -21 2.5t-26 8t-22 7.5l-1 -1q56 -30 56 -93q0 -32 -13.5 -59.5t-33.5 -45.5t-44 -34t-44 -26t-33.5 -19.5t-13.5 -17.5q0 -15 47 -34q108 -44 108 -105q0 -50 -61.5 -85.5t-152.5 -35.5zM248 210q0 30 -12 48t-33 18 q-35 0 -60.5 -40t-25.5 -85q0 -30 13 -48t35 -18q35 0 59 40.5t24 84.5z" />
<glyph horiz-adv-x="472" d="M114 -69h-100q-1 73 46 296l38 179l5 108l109 8q0 -78 -52 -302h2q30 53 73 80t87 27q39 0 60 -21.5t21 -61.5q0 -18 -33 -174q-13 -61 -13 -139h-100q-1 66 30 215q8 37 8 54q0 43 -34 43q-58 0 -102 -96t-45 -216z" />
<glyph horiz-adv-x="230" d="M201 483q0 -30 -25 -55.5t-57 -25.5q-21 0 -34 12.5t-13 32.5q0 30 26.5 55t57.5 25q20 0 32.5 -12t12.5 -32zM114 -69h-100q-1 75 28 208l16 72l4 108l108 8q1 -52 -28 -191.5t-28 -204.5z" />
<glyph horiz-adv-x="223" d="M200 483q0 -30 -25 -55.5t-57 -25.5q-22 0 -35 12.5t-13 32.5q0 30 26.5 55t57.5 25q21 0 33.5 -12t12.5 -32zM-46 -268l-33 35q56 81 78 176l57 268l5 108l108 8q0 -20 -2 -43.5t-9.5 -63t-12.5 -64t-19 -89t-21 -96.5q-20 -91 -53 -145.5t-98 -93.5z" />
<glyph horiz-adv-x="451" d="M409 255q0 -41 -38 -82t-97 -69q59 -108 112 -173h-126q-51 75 -81 158q129 90 129 141q0 31 -30 31q-56 0 -109.5 -106.5t-54.5 -223.5h-100q-1 73 46 296l38 179l5 108l109 8q0 -17 -1 -35.5t-5 -43.5t-7 -42t-10 -49.5t-10 -47t-11.5 -53.5t-11.5 -50h1q30 58 77.5 92 t95.5 34q38 0 58.5 -20t20.5 -52z" />
<glyph horiz-adv-x="230" d="M114 -69h-100q-1 73 46 296l38 179l5 108l109 8q0 -72 -49.5 -292t-48.5 -299z" />
<glyph horiz-adv-x="707" d="M161 220q28 51 71 79t86 28q39 0 60 -22.5t21 -62.5q0 -14 -1 -22q28 51 71.5 79t86.5 28q40 0 61 -21.5t21 -60.5q0 -31 -25 -140q-21 -92 -21 -174h-100q-1 65 22 174q16 80 16 99q0 39 -34 39q-56 0 -100.5 -90t-42.5 -222h-100q0 77 21 172q17 82 17 98q0 42 -35 42 q-54 0 -97.5 -95t-44.5 -217h-100q-1 79 43 280l5 108l107 8q1 -42 -10 -107h2z" />
<glyph horiz-adv-x="471" d="M161 220q28 51 71.5 79t87.5 28q40 0 61.5 -21.5t21.5 -60.5q0 -29 -27 -146q-22 -93 -19 -168h-100q-1 68 20 172q18 80 18 99q0 41 -36 41q-57 0 -100.5 -94t-44.5 -218h-100q-1 79 43 280l5 108l107 8q1 -42 -10 -107h2z" />
<glyph horiz-adv-x="439" d="M383 180q0 -100 -68.5 -178.5t-168.5 -78.5q-65 0 -103 37.5t-38 108.5q0 101 69 179.5t168 78.5q66 0 103.5 -38.5t37.5 -108.5zM108 63q0 -80 54 -80q52 0 84.5 68.5t32.5 138.5q0 78 -54 78q-52 0 -84.5 -68t-32.5 -137z" />
<glyph horiz-adv-x="465" d="M134 -77q-11 0 -37 2q-25 -117 -24 -183h-100q-1 72 46 290l38 179l5 108l108 8q1 -51 -15 -133q27 56 68 94.5t89 38.5q42 0 67 -31.5t25 -90.5q0 -107 -75 -194.5t-195 -87.5zM262 247q-39 0 -79.5 -64.5t-59.5 -139.5l-12 -51q23 -10 42 -10q58 0 102.5 66t44.5 135 q0 64 -38 64z" />
<glyph horiz-adv-x="450" d="M102 -77q-43 0 -68.5 33t-25.5 92q0 108 77.5 193.5t197.5 85.5q71 0 129 -26l-75 -333q-34 -154 -33 -226h-101q-1 75 48 295l3 14q-27 -53 -67.5 -90.5t-84.5 -37.5zM112 67q0 -30 10 -47t28 -17q38 0 78 62t60 136l13 58q-22 10 -40 10q-60 0 -104.5 -66.5 t-44.5 -135.5z" />
<glyph horiz-adv-x="339" d="M114 -69h-100q-1 79 27 208l16 72l5 108l107 8q1 -50 -18 -140h3q26 72 62 106t74 34q35 0 56 -23l-48 -92q-25 10 -46 10q-61 0 -98.5 -84t-39.5 -207z" />
<glyph horiz-adv-x="374" d="M325 308l-23 -78q-50 31 -102 31q-31 0 -50.5 -13t-19.5 -33q0 -21 25 -37.5t55 -27.5t55 -36.5t25 -61.5q0 -56 -52.5 -92.5t-129.5 -36.5q-78 0 -124 29l23 75q55 -37 117 -37q31 0 51 13t20 33t-25 36.5t-55.5 28t-55.5 37t-25 61.5q0 56 53.5 92t128.5 36 q61 0 109 -19z" />
<glyph horiz-adv-x="326" d="M292 266l-117 2q-46 -217 -46 -229q0 -44 47 -44q29 0 69 19l-4 -63q-56 -28 -112 -28q-103 0 -103 97q0 20 50 250l-59 1l8 37l63 11l45 97l64 5l11 -11l-22 -91h114l6 -10z" />
<glyph horiz-adv-x="460" d="M18 10q0 19 38 201l6 108l107 8q0 -25 -3.5 -56t-7.5 -52t-11 -55t-9 -46q-12 -57 -12 -72q0 -38 34 -38q38 0 71 48t50.5 119.5t16.5 143.5l105 8q-1 -26 -5 -57t-8 -51.5t-15 -76t-17 -85.5q-13 -63 -12 -126h-101q0 45 8 96h-2q-28 -52 -68.5 -78t-82.5 -26 q-39 0 -60.5 23t-21.5 64z" />
<glyph horiz-adv-x="398" d="M68 -69q-6 234 -45 388l107 8q32 -146 23 -325h2q50 79 85 164.5t42 151.5q15 9 41 9q49 0 49 -38q0 -50 -57 -158t-135 -200h-112z" />
<glyph horiz-adv-x="639" d="M563 327q49 0 49 -38q0 -51 -55.5 -160.5t-128.5 -197.5h-113q8 142 3 279h-2q-45 -141 -145 -279h-112q-5 238 -36 388l108 8q24 -146 13 -325h2q107 172 122 317h121q21 -136 12 -317h2q46 76 79 162t40 154q15 9 41 9z" />
<glyph horiz-adv-x="376" d="M-41 -69q16 57 55.5 112t98.5 95q-42 114 -96 181l103 8q39 -47 76 -148q58 59 67 138q15 10 43 10q48 0 48 -35q0 -30 -39.5 -81.5t-97.5 -91.5q46 -123 86 -188h-105q-26 42 -64 147q-28 -25 -49.5 -65.5t-29.5 -81.5h-96z" />
<glyph horiz-adv-x="399" d="M324 327q48 0 48 -36q0 -44 -46 -136.5t-111.5 -186t-146.5 -164t-141 -70.5q-28 0 -43.5 15.5t-15.5 41.5q0 22 12 39q22 -6 52 -6q49 0 101 31t83 76h-48q-6 241 -44 388l107 8q31 -149 22 -325h2q114 183 127 316q15 9 42 9z" />
<glyph horiz-adv-x="401" d="M-1 -77l-33 49q193 175 278 262q-12 1 -54 7.5t-59 6.5q-56 0 -93 -41l-30 17q23 59 53.5 81t76.5 22q29 0 87.5 -10t84.5 -12q8 8 20 22q38 0 38 -29q0 -31 -72.5 -106t-205.5 -180q10 3 22 3q15 0 57 -5.5t57 -5.5q51 0 83 51l35 -20q-21 -64 -51 -88t-78 -24 q-32 0 -88 10.5t-74 10.5q-29 0 -54 -21z" />
<glyph horiz-adv-x="457" d="M85 407q0 68 31 131t94 106t144 43q77 0 133 -24l-32 -140q-36 -161 -35 -236h-100q-1 49 14 138q-27 -57 -69.5 -99.5t-89.5 -42.5q-41 0 -65.5 32.5t-24.5 91.5zM188 426q0 -63 38 -63q37 0 77.5 65.5t59.5 136.5q5 21 12 53q-24 11 -43 11q-56 0 -100 -66t-44 -137z " />
<glyph horiz-adv-x="459" d="M170 766l4 108l108 8q2 -76 -57 -328q29 60 70.5 96.5t87.5 36.5q43 0 67.5 -32t24.5 -91q0 -106 -74 -193.5t-194 -87.5q-82 0 -130 26q8 63 55 278zM186 357l2 26q-1 -6 -3 -16t-3 -16q21 -9 42 -9q59 0 103.5 62.5t44.5 133.5q0 69 -40 69q-43 0 -88.5 -82t-57.5 -168 z" />
<glyph horiz-adv-x="390" d="M377 396l16 -40q-32 -33 -77.5 -53t-91.5 -20q-65 0 -103.5 39.5t-38.5 109.5q0 101 72 178t174 77q55 0 102 -19l-24 -78q-43 31 -84 31q-56 0 -96 -54t-40 -124q0 -93 77 -93q57 0 114 46z" />
<glyph horiz-adv-x="456" d="M416 291h-100q-3 48 13 135q-27 -60 -69.5 -101.5t-91.5 -41.5q-41 0 -66 33t-25 93q0 107 76.5 192.5t197.5 85.5q21 0 32 -1l17 80l5 108l108 8q1 -68 -33 -221q-3 -15 -17 -76.5t-19 -86t-14 -70.5t-12 -78t-2 -59zM181 430q0 -67 38 -67q40 0 83 72t58 144v-3 q0 3 2 11l7 32q-25 10 -39 10q-60 0 -104.5 -63t-44.5 -136z" />
<glyph horiz-adv-x="410" d="M381 396l16 -40q-28 -34 -74 -53.5t-94 -19.5q-67 0 -107 39t-40 110q0 100 72.5 177.5t170.5 77.5q52 0 83.5 -23.5t31.5 -64.5q0 -59 -66.5 -100.5t-187.5 -48.5q0 -2 -0.5 -6t-0.5 -6q0 -41 21 -64.5t60 -23.5q55 0 115 46zM309 630q-40 0 -73 -45.5t-45 -102.5 q77 11 116.5 42.5t39.5 68.5t-38 37z" />
<glyph horiz-adv-x="310" d="M51 110l-34 35q58 83 78 176l63 297l-59 4l7 36l64 12q10 59 11 62q15 72 66 111t129 39q65 0 103 -24l-36 -75q-40 25 -80 25q-68 0 -82 -70q-3 -13 -12 -68h106l6 -11l-12 -44l-110 3l-58 -268q-19 -90 -52 -145.5t-98 -94.5z" />
<glyph horiz-adv-x="407" d="M178 94q-78 0 -124 27t-46 67q0 54 88 86l21 -19q-17 -20 -17 -38q0 -32 25.5 -52t69.5 -20q41 0 68.5 16t27.5 40q0 17 -17 29.5t-59 31.5q-37 16 -55 29.5t-18 32.5q0 27 29.5 46.5t67.5 29.5v1q-21 0 -31 2q-48 4 -78 35t-30 82q0 73 58 120t137 47q125 0 170 10 q9 -9 9 -25q0 -15 -9.5 -27.5t-31.5 -12.5q-10 0 -21 2.5t-26 8t-22 7.5l-1 -1q56 -30 56 -93q0 -32 -13.5 -59.5t-33.5 -45.5t-44 -34t-44 -26t-33.5 -19.5t-13.5 -17.5q0 -15 47 -34q108 -44 108 -105q0 -50 -61.5 -85.5t-152.5 -35.5zM325 570q0 30 -12 48t-33 18 q-35 0 -60.5 -40t-25.5 -85q0 -30 13 -48t35 -18q35 0 59 40.5t24 84.5z" />
<glyph horiz-adv-x="472" d="M190 291h-100q-1 68 47 296l38 179l5 108l108 8q0 -78 -52 -302h3q29 53 72 80t88 27q38 0 59.5 -21.5t21.5 -61.5q0 -18 -33 -174q-15 -63 -13 -139h-101q-1 66 30 215q8 32 8 54q0 43 -34 43q-58 0 -102 -96t-45 -216z" />
<glyph horiz-adv-x="230" d="M278 843q0 -30 -25.5 -55.5t-57.5 -25.5q-21 0 -34 12.5t-13 32.5q0 30 26.5 55t57.5 25q21 0 33.5 -12t12.5 -32zM191 291h-100q-2 75 27 208l16 72l5 108l107 8q1 -53 -27.5 -192t-27.5 -204z" />
<glyph horiz-adv-x="222" d="M276 843q0 -30 -25 -55.5t-57 -25.5q-22 0 -35 12.5t-13 32.5q0 30 26.5 55t57.5 25q21 0 33.5 -12t12.5 -32zM30 92l-33 35q56 81 78 176l57 268l5 108l108 8q0 -20 -2 -43.5t-9.5 -63t-12.5 -64t-19 -89t-21 -96.5q-20 -91 -53 -145.5t-98 -93.5z" />
<glyph horiz-adv-x="451" d="M486 615q0 -41 -38 -82t-97 -69q55 -105 111 -173h-125q-53 78 -82 158q129 90 129 141q0 31 -29 31q-37 0 -75 -49.5t-63.5 -127t-26.5 -153.5h-100q-1 68 47 296l38 179l5 108l108 8q0 -23 -2.5 -49.5t-10 -67t-11 -59.5t-16.5 -77t-15 -68q30 58 77.5 92t96.5 34 q37 0 58 -20t21 -52z" />
<glyph horiz-adv-x="230" d="M190 291h-100q-1 68 47 296l38 179l5 108l108 8q1 -73 -49 -293t-49 -298z" />
<glyph horiz-adv-x="707" d="M238 580q28 51 71 79t86 28q39 0 60 -22.5t21 -62.5q0 -6 -2 -22q29 51 72.5 79t86.5 28q40 0 61 -21.5t21 -60.5q0 -31 -25 -140q-21 -87 -21 -174h-100q-1 70 21 174q17 76 17 99q0 39 -35 39q-55 0 -99.5 -90t-42.5 -222h-100q-1 68 20 172q17 76 17 98q0 42 -34 42 q-54 0 -98 -95t-45 -217h-100q-1 80 44 280l4 108l108 8q0 -44 -11 -107h3z" />
<glyph horiz-adv-x="440" d="M460 540q0 -100 -68.5 -178.5t-168.5 -78.5q-65 0 -103 37.5t-38 108.5q0 101 69 179.5t168 78.5q66 0 103.5 -38.5t37.5 -108.5zM185 423q0 -80 54 -80q52 0 84.5 68.5t32.5 138.5q0 78 -54 78q-52 0 -84.5 -68t-32.5 -137z" />
<glyph horiz-adv-x="464" d="M149 102h-100q-1 72 46 290l39 179l5 108l108 8q0 -50 -15 -133q27 56 68 94.5t88 38.5q43 0 68 -31.5t25 -90.5q0 -107 -75.5 -194.5t-195.5 -87.5q-11 0 -37 2q-24 -118 -24 -183zM339 607q-39 0 -80 -64.5t-60 -139.5q-8 -34 -11 -51q22 -10 41 -10q59 0 103.5 66 t44.5 135q0 64 -38 64z" />
<glyph horiz-adv-x="450" d="M178 283q-43 0 -68 33t-25 92q0 69 33 132t97 105t144 42q73 0 129 -26l-74 -333q-34 -152 -34 -226h-100q-1 75 48 295l3 14q-27 -54 -67.5 -91t-85.5 -37zM188 427q0 -64 39 -64q38 0 78 62t59 136l13 58q-22 10 -39 10q-60 0 -105 -66.5t-45 -135.5z" />
<glyph horiz-adv-x="339" d="M190 291h-100q0 80 28 208l16 72l4 108l108 8q0 -57 -18 -140h3q26 72 61.5 106t73.5 34q36 0 57 -23l-49 -92q-23 10 -45 10q-41 0 -72.5 -40.5t-48 -105.5t-18.5 -145z" />
<glyph horiz-adv-x="374" d="M402 668l-23 -78q-50 31 -102 31q-31 0 -50.5 -13t-19.5 -33q0 -21 25 -37.5t55 -27.5t55 -36.5t25 -61.5q0 -56 -52.5 -92.5t-129.5 -36.5q-78 0 -124 29l23 75q56 -37 117 -37q31 0 51 13t20 33t-25 36.5t-55.5 28t-55.5 37t-25 61.5q0 56 53.5 92t128.5 36 q61 0 109 -19z" />
<glyph horiz-adv-x="326" d="M368 626l-117 2q-46 -217 -46 -229q0 -44 47 -44q29 0 69 19l-4 -63q-56 -28 -112 -28q-103 0 -103 97q0 20 50 250l-59 1l8 37l63 11l45 97l64 5l11 -11l-22 -91h114l6 -10z" />
<glyph horiz-adv-x="460" d="M94 370q0 15 39 201l5 108l108 8q0 -25 -3.5 -56t-7.5 -52.5t-11 -54.5t-10 -46q-11 -60 -11 -72q0 -38 34 -38q38 0 71 48t50.5 119.5t16.5 143.5l104 8q-1 -26 -5 -57t-8 -51.5t-15 -76t-17 -85.5q-12 -65 -12 -126h-100q0 51 7 96h-1q-28 -52 -69 -78t-82 -26 q-39 0 -61 23t-22 64z" />
<glyph horiz-adv-x="399" d="M144 291q-6 239 -44 388l107 8q32 -142 22 -325h2q50 80 85.5 165t41.5 151q15 9 41 9q49 0 49 -38q0 -50 -57 -158t-134 -200h-113z" />
<glyph horiz-adv-x="639" d="M639 687q49 0 49 -38q0 -51 -55 -160.5t-129 -197.5h-112q8 147 2 279h-1q-47 -145 -145 -279h-113q-5 234 -35 388l107 8q24 -151 14 -325h1q48 77 81.5 162t40.5 155h121q23 -136 12 -317h2q47 76 79.5 162t39.5 154q15 9 41 9z" />
<glyph horiz-adv-x="376" d="M36 291q15 57 54.5 112t98.5 95q-43 117 -96 181l103 8q37 -45 77 -148q58 61 67 138q15 10 42 10q49 0 49 -35q0 -30 -39.5 -81t-97.5 -92q43 -120 85 -188h-104q-26 42 -64 147q-28 -25 -49.5 -65.5t-29.5 -81.5h-96z" />
<glyph horiz-adv-x="399" d="M400 687q48 0 48 -36q0 -44 -46 -136.5t-111.5 -186t-146.5 -164t-141 -70.5q-28 0 -43.5 15.5t-15.5 41.5q0 22 12 39q23 -6 52 -6q49 0 101 31t83 76h-48q-6 241 -44 388l107 8q31 -149 22 -325h2q114 183 127 316q15 9 42 9z" />
<glyph horiz-adv-x="401" d="M76 283l-34 49q182 163 278 262q-13 1 -54 7.5t-58 6.5q-56 0 -93 -41l-30 17q23 59 53 81t77 22q28 0 87 -10t85 -12q3 4 10 11.5t10 10.5q37 0 37 -29q0 -31 -72.5 -106.5t-204.5 -179.5q11 3 22 3q15 0 57 -5.5t56 -5.5q50 0 84 51l35 -20q-22 -65 -51.5 -88.5 t-77.5 -23.5q-32 0 -88 10.5t-74 10.5q-29 0 -54 -21z" />
<glyph horiz-adv-x="1030" d="M402 133l19 -47q-84 -96 -204 -96q-80 0 -127 47.5t-47 137.5q0 130 88 231.5t213 101.5q10 0 32 -2q-13 29 -13 60q0 82 80 137t200 55q51 0 112 -14q0 -88 -66 -376h2q36 69 88.5 104.5t105.5 35.5q45 0 69.5 -27t24.5 -76q0 -30 -41 -225q-20 -92 -20 -180h-119 q0 86 35 249q18 80 18 109q0 49 -42 49q-47 0 -88.5 -58.5t-66.5 -152t-27 -196.5h-119q0 97 61 380l33 154q12 54 20 120q-21 6 -43 6q-57 0 -97.5 -28.5t-40.5 -79.5q0 -45 29 -86l1 -1l-37 -93q-50 55 -107 55q-48 0 -86.5 -42.5t-56.5 -97t-18 -103.5q0 -52 24 -82.5 t74 -30.5q67 0 137 62z" />
<glyph horiz-adv-x="845" d="M402 133l19 -47q-84 -96 -206 -96q-79 0 -125.5 47.5t-46.5 137.5q0 131 88.5 232t215.5 101q22 0 47 -5q-5 19 -5 45q0 83 66 141.5t161 58.5q68 0 107 -31t39 -83q0 -81 -84 -136h182l7 -14l-17 -51l-139 2q-60 -282 -60 -302q0 -57 55 -57q38 0 83 25l-6 -76 q-66 -35 -134 -35q-121 0 -121 118q0 6 0.5 11.5l1 11t2 14.5l3 18t4.5 24.5t6 29.5t8.5 39.5t10.5 48t13 60t15 72.5l-64 1l10 44q48 15 76.5 51t28.5 75q0 30 -18.5 47t-50.5 17q-49 0 -85 -38t-36 -91q0 -38 19 -72l-33 -99q-53 55 -111 55q-66 0 -113.5 -72.5 t-47.5 -160.5q0 -123 98 -123q67 0 137 62z" />
<glyph horiz-adv-x="979" d="M578 0h-120q0 95 61 380l34 154q12 65 19 120q-20 6 -43 6q-57 0 -97.5 -27.5t-40.5 -76.5q0 -37 26 -74l-29 -92q-60 37 -120 37q-38 0 -62 -17.5t-24 -45.5q0 -23 19.5 -40.5t47 -31t55.5 -29t47.5 -43.5t19.5 -65q0 -72 -64 -118.5t-157 -46.5t-147 36l28 91 q65 -46 140 -46q38 0 62 18.5t24 45.5q0 22 -19.5 39.5t-47.5 31t-56 29.5t-47.5 43t-19.5 64q0 72 66 119t156 47q19 0 40 -3q-17 31 -17 66q0 80 80 133.5t199 53.5q52 0 114 -14q0 -84 -67 -376h2q37 69 89.5 104.5t104.5 35.5q45 0 70 -27t25 -76q0 -8 -0.5 -15t-2 -18 t-3.5 -20.5l-6 -28.5t-7.5 -35t-10 -48t-12.5 -60q-19 -87 -19 -180h-120q0 26 2 53t7 58.5t7.5 46.5t10 51.5t8.5 39.5q18 80 18 109q0 49 -41 49q-48 0 -89.5 -58.5t-66 -152t-26.5 -196.5z" />
<glyph horiz-adv-x="570" d="M87 0h-113l252 457q31 59 43 84l139 6l15 -16l68 -531h-120l-15 120h-203zM234 266l-35 -63h146l-8 62q-11 125 -12 179h-3q-21 -48 -88 -178z" />
<glyph horiz-adv-x="570" d="M495 779l2 -20q-77 -90 -192 -162l-42 12q90 115 127 182zM87 0h-113l252 457q31 59 43 84l139 6l15 -16l68 -531h-120l-15 120h-203zM234 266l-35 -63h146l-8 62q-11 125 -12 179h-3q-21 -48 -88 -178z" />
<glyph horiz-adv-x="570" d="M487 775l50 4q-23 -74 -71.5 -119.5t-108.5 -45.5q-56 0 -84.5 42t-19.5 113l51 7q1 -37 21 -59t54 -22q33 0 62.5 22t45.5 58zM87 0h-113l252 457q31 59 43 84l139 6l15 -16l68 -531h-120l-15 120h-203zM234 266l-35 -63h146l-8 62q-11 125 -12 179h-3q-21 -48 -88 -178 z" />
<glyph horiz-adv-x="600" d="M497 778l31 -28q-82 -85 -142 -159l-87 -8q-36 94 -78 167l44 28q38 -35 96 -107q84 73 136 107zM87 0h-113l252 457q31 59 43 84l139 6l15 -16l68 -531h-120l-15 120h-203zM234 266l-35 -63h146l-8 62q-11 125 -12 179h-3q-21 -48 -88 -178z" />
<glyph horiz-adv-x="570" d="M258 590l-32 28q90 94 142 159l87 8q35 -90 78 -167l-44 -28q-38 35 -96 107q-96 -81 -135 -107zM87 0h-113l252 457q31 59 43 84l139 6l15 -16l68 -531h-120l-15 120h-203zM234 266l-35 -63h146l-8 62q-11 125 -12 179h-3q-21 -48 -88 -178z" />
<glyph horiz-adv-x="570" d="M344 716q0 -37 -28.5 -66.5t-63.5 -29.5q-24 0 -38 13.5t-14 35.5q0 35 30 64.5t65 29.5q23 0 36 -13t13 -34zM561 716q0 -37 -28.5 -66.5t-64.5 -29.5q-24 0 -37.5 14t-13.5 35q0 35 30 64.5t65 29.5q23 0 36 -13t13 -34zM87 0h-113l252 457q31 59 43 84l139 6l15 -16 l68 -531h-120l-15 120h-203zM234 266l-35 -63h146l-8 62q-11 125 -12 179h-3q-21 -48 -88 -178z" />
<glyph horiz-adv-x="570" d="M87 0h-113l252 457q31 59 43 84l139 6l15 -16l68 -531h-120l-15 120h-203zM234 266l-35 -63h146l-8 62q-11 125 -12 179h-3q-21 -48 -88 -178zM282 -131q0 -38 -31 -69.5t-69 -31.5q-26 0 -41.5 15.5t-15.5 38.5q0 37 32 68t71 31q25 0 39.5 -14t14.5 -38z" />
<glyph horiz-adv-x="570" d="M420 599q-85 71 -125 161l12 21l109 11q11 -78 50 -182zM87 0h-113l252 457q31 59 43 84l139 6l15 -16l68 -531h-120l-15 120h-203zM234 266l-35 -63h146l-8 62q-11 125 -12 179h-3q-21 -48 -88 -178z" />
<glyph horiz-adv-x="570" d="M231 657l15 69h283l-14 -69h-284zM87 0h-113l252 457q31 59 43 84l139 6l15 -16l68 -531h-120l-15 120h-203zM234 266l-35 -63h146l-8 62q-11 125 -12 179h-3q-21 -48 -88 -178z" />
<glyph horiz-adv-x="570" d="M87 0h-113l252 457q31 59 43 84l139 6l15 -16l68 -531q-65 -30 -103 -66t-38 -71q0 -32 40 -32q25 0 58 12l8 -43q-58 -43 -123 -43q-41 0 -65 19t-24 53q0 47 43.5 92t119.5 79h-36l-15 120h-203zM234 266l-35 -63h146l-8 62q-11 125 -12 179h-3q-21 -48 -88 -178z" />
<glyph horiz-adv-x="570" d="M490 719q0 -47 -42 -84.5t-94 -37.5q-37 0 -60 19.5t-23 50.5q0 45 44 82.5t97 37.5q35 0 56.5 -18.5t21.5 -49.5zM328 677q0 -17 10.5 -27t28.5 -10q25 0 46 21.5t21 47.5q0 16 -10 25.5t-27 9.5q-26 0 -47.5 -21t-21.5 -46zM87 0h-113l252 457q31 59 43 84l139 6 l15 -16l68 -531h-120l-15 120h-203zM234 266l-35 -63h146l-8 62q-11 125 -12 179h-3q-21 -48 -88 -178z" />
<glyph horiz-adv-x="570" d="M551 1042l2 -20q-78 -90 -193 -162l-41 12q90 115 127 182zM490 719q0 -47 -42 -84.5t-94 -37.5q-37 0 -60 19.5t-23 50.5q0 45 44 82.5t97 37.5q35 0 56.5 -18.5t21.5 -49.5zM328 677q0 -17 10.5 -27t28.5 -10q25 0 46 21.5t21 47.5q0 16 -10 25.5t-27 9.5 q-26 0 -47.5 -21t-21.5 -46zM87 0h-113l252 457q31 59 43 84l139 6l15 -16l68 -531h-120l-15 120h-203zM234 266l-35 -63h146l-8 62q-11 125 -12 179h-3q-21 -48 -88 -178z" />
<glyph horiz-adv-x="570" d="M329 766q32 0 73 -28.5t62 -28.5q30 0 67 49l34 -5q-15 -55 -48.5 -96t-76.5 -41q-30 0 -75 28.5t-64 28.5q-31 0 -66 -49l-33 5q15 55 48 96t79 41zM87 0h-113l252 457q31 59 43 84l139 6l15 -16l68 -531h-120l-15 120h-203zM234 266l-35 -63h146l-8 62q-11 125 -12 179 h-3q-21 -48 -88 -178z" />
<glyph horiz-adv-x="724" d="M87 0h-113l281 457q28 49 43 83h388l11 -13l-19 -77l-214 6l-12 -151l183 3l-21 -82l-167 4l-11 -147l213 6l-19 -89h-320q2 21 6.5 61.5l6.5 58.5h-161q-33 -52 -75 -120zM352 444q-42 -85 -138 -241h119q22 181 32 241h-13z" />
<glyph horiz-adv-x="724" d="M600 779l3 -20q-78 -90 -193 -162l-41 12q90 115 126 182zM87 0h-113l281 457q28 49 43 83h388l11 -13l-19 -77l-214 6l-12 -151l183 3l-21 -82l-167 4l-11 -147l213 6l-19 -89h-320q2 21 6.5 61.5l6.5 58.5h-161q-33 -52 -75 -120zM352 444q-42 -85 -138 -241h119 q22 181 32 241h-13z" />
<glyph horiz-adv-x="556" d="M238 0h-206l87 406q16 74 20 134h218q79 0 123.5 -32t44.5 -84q0 -50 -32 -87t-87 -56q90 -25 90 -102q0 -79 -73.5 -129t-184.5 -50zM320 457h-71l-31 -146h70q51 0 82.5 25t31.5 65q0 26 -21 41t-61 15zM277 234h-76l-32 -152h78q57 0 92 25.5t35 66.5q0 60 -97 60z " />
<glyph horiz-adv-x="519" d="M442 121l-6 -94q-75 -35 -170 -35q-104 0 -161.5 51.5t-57.5 143.5q0 148 101.5 254.5t242.5 106.5q91 0 144 -33l-44 -99q-55 37 -118 37q-81 0 -140.5 -71.5t-59.5 -168.5q0 -59 33.5 -92.5t96.5 -33.5q73 0 139 34z" />
<glyph horiz-adv-x="519" d="M504 779l3 -20q-78 -90 -193 -162l-41 12q90 115 126 182zM442 121l-6 -94q-75 -35 -170 -35q-104 0 -161.5 51.5t-57.5 143.5q0 148 101.5 254.5t242.5 106.5q91 0 144 -33l-44 -99q-55 37 -118 37q-81 0 -140.5 -71.5t-59.5 -168.5q0 -59 33.5 -92.5t96.5 -33.5 q73 0 139 34z" />
<glyph horiz-adv-x="519" d="M525 796l32 -28q-80 -81 -143 -159l-87 -8q-38 98 -78 167l44 28q38 -35 96 -107q92 77 136 107zM442 121l-6 -94q-75 -35 -170 -35q-104 0 -161.5 51.5t-57.5 143.5q0 148 101.5 254.5t242.5 106.5q91 0 144 -33l-44 -99q-55 37 -118 37q-81 0 -140.5 -71.5 t-59.5 -168.5q0 -59 33.5 -92.5t96.5 -33.5q73 0 139 34z" />
<glyph horiz-adv-x="519" d="M341 -114q0 -52 -59 -84t-151 -35l10 44q51 6 80.5 22.5t29.5 39.5q0 29 -63 32l-9 22l36 69q-81 11 -124.5 61t-43.5 130q0 148 101.5 254.5t242.5 106.5q91 0 144 -33l-44 -99q-55 37 -118 37q-81 0 -140.5 -71.5t-59.5 -168.5q0 -59 33.5 -92.5t96.5 -33.5 q73 0 139 34l-6 -94q-66 -32 -158 -35l-22 -40q85 -13 85 -66z" />
<glyph horiz-adv-x="519" d="M267 590l-32 28q80 81 143 159l87 8q38 -98 78 -167l-44 -28q-38 35 -96 107q-92 -77 -136 -107zM442 121l-6 -94q-75 -35 -170 -35q-104 0 -161.5 51.5t-57.5 143.5q0 148 101.5 254.5t242.5 106.5q91 0 144 -33l-44 -99q-55 37 -118 37q-81 0 -140.5 -71.5 t-59.5 -168.5q0 -59 33.5 -92.5t96.5 -33.5q73 0 139 34z" />
<glyph horiz-adv-x="519" d="M468 716q0 -38 -31 -69.5t-69 -31.5q-26 0 -41.5 15.5t-15.5 38.5q0 37 31.5 68t70.5 31q25 0 40 -14t15 -38zM442 121l-6 -94q-75 -35 -170 -35q-104 0 -161.5 51.5t-57.5 143.5q0 148 101.5 254.5t242.5 106.5q91 0 144 -33l-44 -99q-55 37 -118 37q-81 0 -140.5 -71.5 t-59.5 -168.5q0 -59 33.5 -92.5t96.5 -33.5q73 0 139 34z" />
<glyph horiz-adv-x="607" d="M566 340q0 -143 -105.5 -241.5t-258.5 -98.5h-170l87 406q16 74 20 134h191q110 0 173 -53t63 -147zM304 457h-55l-80 -374h60q91 0 151.5 69.5t60.5 174.5q0 60 -34.5 95t-102.5 35z" />
<glyph horiz-adv-x="607" d="M566 340q0 -143 -105.5 -241.5t-258.5 -98.5h-170l50 234h-60l11 64h63l23 108q16 74 20 134h191q110 0 173 -53t63 -147zM341 234h-140l-32 -151h60q91 0 151.5 69.5t60.5 174.5q0 60 -34.5 95t-102.5 35h-55l-34 -159h137z" />
<glyph horiz-adv-x="607" d="M535 796l32 -28q-88 -92 -143 -159l-86 -8q-42 101 -78 167l44 28q41 -38 95 -107q92 77 136 107zM566 340q0 -143 -105.5 -241.5t-258.5 -98.5h-170l87 406q16 74 20 134h191q110 0 173 -53t63 -147zM304 457h-55l-80 -374h60q91 0 151.5 69.5t60.5 174.5q0 60 -34.5 95 t-102.5 35z" />
<glyph horiz-adv-x="607" d="M566 340q0 -143 -105.5 -241.5t-258.5 -98.5h-170l50 234h-60l11 64h63l23 108q16 74 20 134h191q110 0 173 -53t63 -147zM341 234h-140l-32 -151h60q91 0 151.5 69.5t60.5 174.5q0 60 -34.5 95t-102.5 35h-55l-34 -159h137z" />
<glyph horiz-adv-x="607" d="M566 340q0 -143 -105.5 -241.5t-258.5 -98.5h-170l87 406q16 74 20 134h191q110 0 173 -53t63 -147zM304 457h-55l-80 -374h60q91 0 151.5 69.5t60.5 174.5q0 60 -34.5 95t-102.5 35zM294 -131q0 -38 -31 -69.5t-69 -31.5q-26 0 -41.5 15.5t-15.5 38.5q0 37 31.5 68 t70.5 31q25 0 40 -14t15 -38z" />
<glyph horiz-adv-x="490" d="M415 89l-19 -89h-364l87 406q16 74 20 134h353l11 -13l-19 -77l-235 7l-33 -153l197 4l-20 -82l-193 4l-31 -148z" />
<glyph horiz-adv-x="490" d="M471 779l3 -20q-78 -90 -193 -162l-41 12q90 115 126 182zM415 89l-19 -89h-364l87 406q16 74 20 134h353l11 -13l-19 -77l-235 7l-33 -153l197 4l-20 -82l-193 4l-31 -148z" />
<glyph horiz-adv-x="490" d="M464 775l50 4q-23 -74 -71.5 -119.5t-108.5 -45.5q-56 0 -84.5 42t-19.5 113l51 7q1 -37 21 -59t54 -22q33 0 62.5 22t45.5 58zM415 89l-19 -89h-364l87 406q16 74 20 134h353l11 -13l-19 -77l-235 7l-33 -153l197 4l-20 -82l-193 4l-31 -148z" />
<glyph horiz-adv-x="490" d="M492 796l32 -28q-80 -81 -143 -159l-87 -8q-38 98 -78 167l44 28q38 -35 96 -107q92 77 136 107zM415 89l-19 -89h-364l87 406q16 74 20 134h353l11 -13l-19 -77l-235 7l-33 -153l197 4l-20 -82l-193 4l-31 -148z" />
<glyph horiz-adv-x="490" d="M234 590l-32 28q80 81 143 159l87 8q38 -98 78 -167l-44 -28q-38 35 -96 107q-92 -77 -136 -107zM415 89l-19 -89h-364l87 406q16 74 20 134h353l11 -13l-19 -77l-235 7l-33 -153l197 4l-20 -82l-193 4l-31 -148z" />
<glyph horiz-adv-x="490" d="M321 716q0 -37 -28.5 -66.5t-64.5 -29.5q-24 0 -37.5 13.5t-13.5 35.5q0 35 30 64.5t65 29.5q22 0 35.5 -13t13.5 -34zM538 716q0 -37 -28.5 -66.5t-64.5 -29.5q-24 0 -37.5 13.5t-13.5 35.5q0 35 30 64.5t65 29.5q22 0 35.5 -13t13.5 -34zM415 89l-19 -89h-364l87 406 q16 74 20 134h353l11 -13l-19 -77l-235 7l-33 -153l197 4l-20 -82l-193 4l-31 -148z" />
<glyph horiz-adv-x="490" d="M435 716q0 -38 -31 -69.5t-69 -31.5q-26 0 -41.5 15.5t-15.5 38.5q0 37 31.5 68t70.5 31q25 0 40 -14t15 -38zM415 89l-19 -89h-364l87 406q16 74 20 134h353l11 -13l-19 -77l-235 7l-33 -153l197 4l-20 -82l-193 4l-31 -148z" />
<glyph horiz-adv-x="490" d="M415 89l-19 -89h-364l87 406q16 74 20 134h353l11 -13l-19 -77l-235 7l-33 -153l197 4l-20 -82l-193 4l-31 -148zM273 -131q0 -38 -31 -69.5t-69 -31.5q-26 0 -41.5 15.5t-15.5 38.5q0 37 31.5 68t70.5 31q25 0 40 -14t15 -38z" />
<glyph horiz-adv-x="490" d="M396 599q-84 72 -124 161l11 21l110 11q12 -86 50 -182zM415 89l-19 -89h-364l87 406q16 74 20 134h353l11 -13l-19 -77l-235 7l-33 -153l197 4l-20 -82l-193 4l-31 -148z" />
<glyph horiz-adv-x="490" d="M208 657l14 69h284l-15 -69h-283zM415 89l-19 -89h-364l87 406q16 74 20 134h353l11 -13l-19 -77l-235 7l-33 -153l197 4l-20 -82l-193 4l-31 -148z" />
<glyph horiz-adv-x="490" d="M396 0q-65 -30 -102.5 -66t-37.5 -71q0 -32 40 -32q25 0 57 12l9 -43q-60 -43 -123 -43q-41 0 -65 19t-24 53q0 47 43.5 92t119.5 79h-281l87 406q16 74 20 134h353l11 -13l-19 -77l-235 7l-33 -153l197 4l-20 -82l-193 4l-31 -148l246 7z" />
<glyph horiz-adv-x="490" d="M306 766q32 0 73 -28.5t62 -28.5q30 0 67 49l33 -5q-14 -55 -47.5 -96t-77.5 -41q-30 0 -74.5 28.5t-63.5 28.5q-31 0 -66 -49l-33 5q15 56 47.5 96.5t79.5 40.5zM415 89l-19 -89h-364l87 406q16 74 20 134h353l11 -13l-19 -77l-235 7l-33 -153l197 4l-20 -82l-193 4 l-31 -148z" />
<glyph horiz-adv-x="571" d="M53 246l18 15h327q5 24 5 58q0 140 -138 140q-79 0 -156 -43l11 83q78 49 188 49q105 0 164.5 -53.5t59.5 -152.5q0 -142 -99 -247t-232 -105q-79 0 -123 39.5t-44 106.5q0 53 19 110zM149 136q0 -35 18.5 -54.5t52.5 -19.5q53 0 98.5 43t68.5 111l-225 -7 q-13 -42 -13 -73z" />
<glyph horiz-adv-x="438" d="M133 0h-120l87 406q16 72 21 134h341l11 -13l-19 -77l-224 7l-35 -166l185 3l-21 -82l-180 5l7 31z" />
<glyph horiz-adv-x="567" d="M503 252l10 -13l-47 -213q-88 -34 -190 -34q-111 0 -170 51t-59 142q0 151 106.5 257t256.5 106q88 0 149 -32l-41 -98q-52 37 -122 37q-95 0 -159 -71t-64 -176q0 -60 34 -93.5t100 -33.5q23 0 60 5q17 80 23 158z" />
<glyph horiz-adv-x="567" d="M504 779l3 -20q-78 -90 -193 -162l-41 12q90 115 126 182zM503 252l10 -13l-47 -213q-88 -34 -190 -34q-111 0 -170 51t-59 142q0 151 106.5 257t256.5 106q88 0 149 -32l-41 -98q-52 37 -122 37q-95 0 -159 -71t-64 -176q0 -60 34 -93.5t100 -33.5q23 0 60 5 q17 80 23 158z" />
<glyph horiz-adv-x="567" d="M497 775l50 4q-23 -74 -71.5 -119.5t-108.5 -45.5q-56 0 -84.5 42t-19.5 113l51 7q1 -37 21 -59t54 -22q33 0 62.5 22t45.5 58zM503 252l10 -13l-47 -213q-88 -34 -190 -34q-111 0 -170 51t-59 142q0 151 106.5 257t256.5 106q88 0 149 -32l-41 -98q-52 37 -122 37 q-95 0 -159 -71t-64 -176q0 -60 34 -93.5t100 -33.5q23 0 60 5q17 80 23 158z" />
<glyph horiz-adv-x="567" d="M525 796l32 -28q-80 -81 -143 -159l-87 -8q-38 98 -78 167l44 28q38 -35 96 -107q92 77 136 107zM503 252l10 -13l-47 -213q-88 -34 -190 -34q-111 0 -170 51t-59 142q0 151 106.5 257t256.5 106q88 0 149 -32l-41 -98q-52 37 -122 37q-95 0 -159 -71t-64 -176 q0 -60 34 -93.5t100 -33.5q23 0 60 5q17 80 23 158z" />
<glyph horiz-adv-x="567" d="M267 590l-32 28q80 81 143 159l87 8q38 -98 78 -167l-44 -28q-38 35 -96 107q-92 -77 -136 -107zM503 252l10 -13l-47 -213q-88 -34 -190 -34q-111 0 -170 51t-59 142q0 151 106.5 257t256.5 106q88 0 149 -32l-41 -98q-52 37 -122 37q-95 0 -159 -71t-64 -176 q0 -60 34 -93.5t100 -33.5q23 0 60 5q17 80 23 158z" />
<glyph horiz-adv-x="567" d="M503 252l10 -13l-47 -213q-88 -34 -190 -34q-111 0 -170 51t-59 142q0 151 106.5 257t256.5 106q88 0 149 -32l-41 -98q-52 37 -122 37q-95 0 -159 -71t-64 -176q0 -60 34 -93.5t100 -33.5q23 0 60 5q17 80 23 158zM153 -310q48 52 70 94q-21 2 -32 18t-7 39 q4 29 28.5 52t55.5 23q26 0 40.5 -18t9.5 -50q-13 -82 -134 -189z" />
<glyph horiz-adv-x="567" d="M468 716q0 -38 -31 -69.5t-69 -31.5q-26 0 -41.5 15.5t-15.5 38.5q0 37 32 68t71 31q25 0 39.5 -14t14.5 -38zM503 252l10 -13l-47 -213q-88 -34 -190 -34q-111 0 -170 51t-59 142q0 151 106.5 257t256.5 106q88 0 149 -32l-41 -98q-52 37 -122 37q-95 0 -159 -71 t-64 -176q0 -60 34 -93.5t100 -33.5q23 0 60 5q17 80 23 158z" />
<glyph horiz-adv-x="629" d="M151 0h-119l85 401q15 68 22 139l115 8l11 -13l-48 -226h228l20 92q14 69 22 139l115 8l10 -13l-113 -535h-119l48 226h-229z" />
<glyph horiz-adv-x="629" d="M151 0h-119l83 391h-76l13 64h76q8 54 11 85l115 8l11 -13l-17 -80h227q8 43 12 85l115 8l10 -13l-17 -80h66l-13 -64h-66l-83 -391h-119l48 226h-229zM217 309h228l17 82h-228z" />
<glyph horiz-adv-x="629" d="M290 590l-32 28q80 81 143 159l87 8q38 -98 78 -167l-44 -28q-38 35 -96 107q-92 -77 -136 -107zM151 0h-119l85 401q15 68 22 139l115 8l11 -13l-48 -226h228l20 92q14 69 22 139l115 8l10 -13l-113 -535h-119l48 226h-229z" />
<glyph horiz-adv-x="629" d="M151 0h-119l85 401q15 68 22 139l115 8l11 -13l-48 -226h228l20 92q14 69 22 139l115 8l10 -13l-113 -535h-119l48 226h-229zM311 -131q0 -38 -31 -69.5t-69 -31.5q-26 0 -41.5 15.5t-15.5 38.5q0 37 32 68t71 31q25 0 39.5 -14t14.5 -38z" />
<glyph horiz-adv-x="282" d="M151 0h-119l85 401q17 83 22 139l115 8l11 -13z" />
<glyph horiz-adv-x="282" d="M151 0h-119l85 401q17 83 22 139l115 8l11 -13z" />
<glyph horiz-adv-x="282" d="M352 779l3 -20q-78 -90 -193 -162l-42 12q89 112 127 182zM151 0h-119l85 401q17 83 22 139l115 8l11 -13z" />
<glyph horiz-adv-x="282" d="M345 775l50 4q-23 -74 -72 -119.5t-109 -45.5q-56 0 -84.5 42t-18.5 113l51 7q1 -37 21 -59t54 -22q33 0 62 22t46 58zM151 0h-119l85 401q17 83 22 139l115 8l11 -13z" />
<glyph horiz-adv-x="282" d="M372 796l32 -28q-90 -94 -142 -159l-87 -8q-35 90 -78 167l44 28q41 -38 95 -107q92 77 136 107zM151 0h-119l85 401q17 83 22 139l115 8l11 -13z" />
<glyph horiz-adv-x="282" d="M115 590l-32 28q88 92 143 159l86 8q42 -101 78 -167l-44 -28q-41 38 -95 107q-92 -77 -136 -107zM151 0h-119l85 401q17 83 22 139l115 8l11 -13z" />
<glyph horiz-adv-x="282" d="M202 716q0 -37 -28.5 -66.5t-64.5 -29.5q-24 0 -38 13.5t-14 35.5q0 35 30.5 64.5t65.5 29.5q22 0 35.5 -13t13.5 -34zM419 716q0 -37 -29 -66.5t-64 -29.5q-24 0 -38 13.5t-14 35.5q0 35 30.5 64.5t65.5 29.5q22 0 35.5 -13t13.5 -34zM151 0h-119l85 401q17 83 22 139 l115 8l11 -13z" />
<glyph horiz-adv-x="282" d="M316 716q0 -38 -31 -69.5t-70 -31.5q-26 0 -41 15.5t-15 38.5q0 37 31.5 68t70.5 31q25 0 40 -14t15 -38zM151 0h-119l85 401q17 83 22 139l115 8l11 -13z" />
<glyph horiz-adv-x="282" d="M151 0h-119l85 401q17 83 22 139l115 8l11 -13zM136 -131q0 -38 -31 -69.5t-70 -31.5q-26 0 -41 15.5t-15 38.5q0 37 31.5 68t70.5 31q25 0 40 -14t15 -38z" />
<glyph horiz-adv-x="282" d="M277 599q-83 70 -124 161l11 21l110 11q12 -83 49 -182zM151 0h-119l85 401q17 83 22 139l115 8l11 -13z" />
<glyph horiz-adv-x="564" d="M151 0h-119l85 401q17 83 22 139l115 8l11 -13zM248 -154l-25 41q82 75 110 203l66 311q16 74 17 133l121 14l10 -13l-95 -445q-20 -96 -64 -150t-140 -94z" />
<glyph horiz-adv-x="282" d="M89 657l14 69h283l-14 -69h-283zM151 0h-119l85 401q17 83 22 139l115 8l11 -13z" />
<glyph horiz-adv-x="282" d="M152 0q-89 -74 -89 -132q0 -37 40 -37q25 0 57 12l9 -43q-58 -43 -123 -43q-41 0 -65 20.5t-24 56.5q0 42 32.5 85.5t89.5 80.5h-47l86 401q17 83 22 139l114 8l11 -13z" />
<glyph horiz-adv-x="282" d="M187 766q31 0 72 -28.5t62 -28.5q32 0 67 49l34 -5q-14 -55 -48 -96t-77 -41q-30 0 -74.5 28.5t-63.5 28.5q-31 0 -66 -49l-33 5q15 56 47.5 96.5t79.5 40.5zM151 0h-119l85 401q17 83 22 139l115 8l11 -13z" />
<glyph horiz-adv-x="282" d="M-34 -154l-24 41q83 77 109 203l67 311q16 74 17 133l121 14l9 -13l-94 -445q-21 -96 -65 -150t-140 -94z" />
<glyph horiz-adv-x="282" d="M-34 -154l-24 41q83 77 109 203l67 311q16 74 17 133l121 14l9 -13l-94 -445q-21 -96 -65 -150t-140 -94z" />
<glyph horiz-adv-x="282" d="M346 779l2 -20q-78 -90 -193 -162l-41 12q90 115 127 182zM-34 -154l-24 41q83 77 109 203l67 311q16 74 17 133l121 14l9 -13l-94 -445q-21 -96 -65 -150t-140 -94z" />
<glyph horiz-adv-x="282" d="M109 590l-32 28q90 94 142 159l87 8q35 -90 78 -167l-44 -28q-38 35 -96 107q-96 -81 -135 -107zM-34 -154l-24 41q83 77 109 203l67 311q16 74 17 133l121 14l9 -13l-94 -445q-21 -96 -65 -150t-140 -94z" />
<glyph horiz-adv-x="555" d="M117 401q17 91 22 139l115 8l10 -13l-51 -240h64q117 148 196 253l108 -9l5 -12l-214 -245l122 -282l-138 -5q-15 31 -38.5 90t-56.5 128h-65l-46 -213h-118z" />
<glyph horiz-adv-x="555" d="M117 401q17 91 22 139l115 8l10 -13l-51 -240h64q117 148 196 253l108 -9l5 -12l-214 -245l122 -282l-138 -5q-15 31 -38.5 90t-56.5 128h-65l-46 -213h-118zM106 -310q46 48 70 94q-21 2 -32 18t-7 39q4 29 28.5 52t55.5 23q26 0 40.5 -18t9.5 -50q-13 -82 -134 -189z " />
<glyph horiz-adv-x="555" d="M117 401q17 91 22 139l115 8l10 -13l-51 -240h64q117 148 196 253l108 -9l5 -12l-214 -245l122 -282l-138 -5q-15 31 -38.5 90t-56.5 128h-65l-46 -213h-118z" />
<glyph horiz-adv-x="465" d="M401 89l-18 -89h-351l86 402q16 82 21 138l115 8l11 -13l-96 -453z" />
<glyph horiz-adv-x="465" d="M417 779l3 -20q-78 -90 -193 -162l-42 12q89 112 127 182zM401 89l-18 -89h-351l86 402q16 82 21 138l115 8l11 -13l-96 -453z" />
<glyph horiz-adv-x="465" d="M495 592l4 -20q-53 -106 -141 -211l-39 3q51 125 79 225zM401 89l-18 -89h-351l86 402q16 82 21 138l115 8l11 -13l-96 -453z" />
<glyph horiz-adv-x="465" d="M401 89l-18 -89h-351l86 402q16 82 21 138l115 8l11 -13l-96 -453zM76 -310q49 53 69 94q-20 2 -31 18t-7 39q4 29 28 52t55 23q27 0 41.5 -18t8.5 -50q-11 -79 -133 -189z" />
<glyph horiz-adv-x="513" d="M401 89l-18 -89h-351l86 402q16 82 21 138l115 8l11 -13l-96 -453zM476 319q0 -39 -31 -70t-69 -31q-26 0 -41.5 15.5t-15.5 38.5q0 36 31.5 67t70.5 31q25 0 40 -14t15 -37z" />
<glyph horiz-adv-x="465" d="M401 89l-18 -89h-351l41 190l-91 -45l-18 55l124 61l30 141q16 82 21 138l115 8l11 -13l-44 -208l141 71l19 -55l-175 -87l-37 -174z" />
<glyph horiz-adv-x="763" d="M704 548l13 -13l-52 -535h-117l19 195q10 96 28 233h-2q-35 -87 -108 -233l-99 -195h-133l-15 195q-13 132 -9 234h-2q-45 -150 -73 -234l-64 -195h-98l178 541l157 5l24 -195q5 -165 0 -245h2q39 108 103 245l103 190z" />
<glyph horiz-adv-x="626" d="M352 333q52 -115 70 -180h2q10 87 37 215q19 88 29 172l109 6l10 -12l-113 -534h-114q-17 36 -47 106.5t-46 103.5q-46 98 -69 172h-2q-5 -67 -26 -163l-46 -219h-114l87 406q14 74 20 134l121 6q62 -147 92 -213z" />
<glyph horiz-adv-x="626" d="M526 779l2 -20q-77 -90 -192 -162l-42 12q90 115 127 182zM352 333q52 -115 70 -180h2q10 87 37 215q19 88 29 172l109 6l10 -12l-113 -534h-114q-17 36 -47 106.5t-46 103.5q-46 98 -69 172h-2q-5 -67 -26 -163l-46 -219h-114l87 406q14 74 20 134l121 6 q62 -147 92 -213z" />
<glyph horiz-adv-x="626" d="M546 796l32 -28q-88 -92 -143 -159l-86 -8q-42 101 -78 167l44 28q41 -38 95 -107q92 77 136 107zM352 333q52 -115 70 -180h2q10 87 37 215q19 88 29 172l109 6l10 -12l-113 -534h-114q-17 36 -47 106.5t-46 103.5q-46 98 -69 172h-2q-5 -67 -26 -163l-46 -219h-114 l87 406q14 74 20 134l121 6q62 -147 92 -213z" />
<glyph horiz-adv-x="626" d="M352 333q52 -115 70 -180h2q10 87 37 215q19 88 29 172l109 6l10 -12l-113 -534h-114q-17 36 -47 106.5t-46 103.5q-46 98 -69 172h-2q-5 -67 -26 -163l-46 -219h-114l87 406q14 74 20 134l121 6q62 -147 92 -213zM140 -310q48 52 70 94q-21 2 -32 18t-7 39q4 29 28.5 52 t55.5 23q26 0 40.5 -18t9.5 -50q-13 -82 -134 -189z" />
<glyph horiz-adv-x="626" d="M490 716q0 -38 -31 -69.5t-70 -31.5q-26 0 -41 15.5t-15 38.5q0 37 31.5 68t70.5 31q25 0 40 -14t15 -38zM352 333q52 -115 70 -180h2q10 87 37 215q19 88 29 172l109 6l10 -12l-113 -534h-114q-17 36 -47 106.5t-46 103.5q-46 98 -69 172h-2q-5 -67 -26 -163l-46 -219 h-114l87 406q14 74 20 134l121 6q62 -147 92 -213z" />
<glyph horiz-adv-x="626" d="M311 -154l-25 41q65 54 91 124q-13 30 -43 98t-45 101q-46 98 -69 172h-2q-5 -67 -26 -163l-46 -219h-114l87 406q14 74 20 134l121 6q62 -147 92 -213q52 -115 70 -180h2q10 87 37 215q19 88 29 172l109 6l10 -12l-94 -444q-20 -96 -64 -150t-140 -94z" />
<glyph horiz-adv-x="627" d="M-34 -154l-24 41q83 75 109 203l68 316q17 90 20 134l121 6q66 -156 92 -213q49 -107 70 -180h2q11 89 37 216q21 104 28 171l111 6l10 -12l-113 -534h-115q-21 47 -50.5 115t-41.5 95q-50 104 -70 172h-2q-5 -69 -26 -163l-27 -129q-22 -97 -64.5 -151t-134.5 -93z" />
<glyph horiz-adv-x="626" d="M360 766q32 0 73 -28.5t62 -28.5q30 0 67 49l34 -5q-15 -55 -48.5 -96t-76.5 -41q-30 0 -75 28.5t-64 28.5q-31 0 -66 -49l-33 5q15 55 48 96t79 41zM352 333q52 -115 70 -180h2q10 87 37 215q19 88 29 172l109 6l10 -12l-113 -534h-114q-17 36 -47 106.5t-46 103.5 q-46 98 -69 172h-2q-5 -67 -26 -163l-46 -219h-114l87 406q14 74 20 134l121 6q62 -147 92 -213z" />
<glyph horiz-adv-x="621" d="M582 348q0 -148 -97 -252.5t-235 -104.5q-94 0 -149 51.5t-55 142.5q0 147 99.5 254.5t235.5 107.5q95 0 148 -53.5t53 -145.5zM172 200q0 -57 26 -89.5t76 -32.5q76 0 130.5 78t54.5 188q0 54 -25 85t-76 31q-76 0 -131 -76.5t-55 -183.5z" />
<glyph horiz-adv-x="621" d="M506 779l3 -20q-78 -90 -193 -162l-42 12q89 112 127 182zM582 348q0 -148 -97 -252.5t-235 -104.5q-94 0 -149 51.5t-55 142.5q0 147 99.5 254.5t235.5 107.5q95 0 148 -53.5t53 -145.5zM172 200q0 -57 26 -89.5t76 -32.5q76 0 130.5 78t54.5 188q0 54 -25 85t-76 31 q-76 0 -131 -76.5t-55 -183.5z" />
<glyph horiz-adv-x="621" d="M499 775l50 4q-23 -74 -72 -119.5t-109 -45.5q-56 0 -84.5 42t-18.5 113l51 7q1 -37 21 -59t54 -22q33 0 62 22t46 58zM582 348q0 -148 -97 -252.5t-235 -104.5q-94 0 -149 51.5t-55 142.5q0 147 99.5 254.5t235.5 107.5q95 0 148 -53.5t53 -145.5zM172 200 q0 -57 26 -89.5t76 -32.5q76 0 130.5 78t54.5 188q0 54 -25 85t-76 31q-76 0 -131 -76.5t-55 -183.5z" />
<glyph horiz-adv-x="621" d="M526 796l32 -28q-90 -94 -142 -159l-87 -8q-35 90 -78 167l44 28q41 -38 95 -107q105 86 136 107zM582 348q0 -148 -97 -252.5t-235 -104.5q-94 0 -149 51.5t-55 142.5q0 147 99.5 254.5t235.5 107.5q95 0 148 -53.5t53 -145.5zM172 200q0 -57 26 -89.5t76 -32.5 q76 0 130.5 78t54.5 188q0 54 -25 85t-76 31q-76 0 -131 -76.5t-55 -183.5z" />
<glyph horiz-adv-x="621" d="M269 590l-32 28q88 92 143 159l86 8q42 -101 78 -167l-44 -28q-41 38 -95 107q-92 -77 -136 -107zM582 348q0 -148 -97 -252.5t-235 -104.5q-94 0 -149 51.5t-55 142.5q0 147 99.5 254.5t235.5 107.5q95 0 148 -53.5t53 -145.5zM172 200q0 -57 26 -89.5t76 -32.5 q76 0 130.5 78t54.5 188q0 54 -25 85t-76 31q-76 0 -131 -76.5t-55 -183.5z" />
<glyph horiz-adv-x="621" d="M356 716q0 -37 -28.5 -66.5t-64.5 -29.5q-24 0 -38 13.5t-14 35.5q0 35 30.5 64.5t65.5 29.5q22 0 35.5 -13t13.5 -34zM573 716q0 -37 -28.5 -66.5t-64.5 -29.5q-24 0 -38 13.5t-14 35.5q0 35 30.5 64.5t65.5 29.5q22 0 35.5 -13t13.5 -34zM582 348q0 -148 -97 -252.5 t-235 -104.5q-94 0 -149 51.5t-55 142.5q0 147 99.5 254.5t235.5 107.5q95 0 148 -53.5t53 -145.5zM172 200q0 -57 26 -89.5t76 -32.5q76 0 130.5 78t54.5 188q0 54 -25 85t-76 31q-76 0 -131 -76.5t-55 -183.5z" />
<glyph horiz-adv-x="621" d="M582 348q0 -148 -97 -252.5t-235 -104.5q-94 0 -149 51.5t-55 142.5q0 147 99.5 254.5t235.5 107.5q95 0 148 -53.5t53 -145.5zM172 200q0 -57 26 -89.5t76 -32.5q76 0 130.5 78t54.5 188q0 54 -25 85t-76 31q-76 0 -131 -76.5t-55 -183.5zM302 -131q0 -38 -31 -69.5 t-69 -31.5q-26 0 -41.5 15.5t-15.5 38.5q0 37 31.5 68t70.5 31q25 0 40 -14t15 -38z" />
<glyph horiz-adv-x="621" d="M431 599q-83 70 -124 161l11 21l110 11q12 -83 49 -182zM582 348q0 -148 -97 -252.5t-235 -104.5q-94 0 -149 51.5t-55 142.5q0 147 99.5 254.5t235.5 107.5q95 0 148 -53.5t53 -145.5zM172 200q0 -57 26 -89.5t76 -32.5q76 0 130.5 78t54.5 188q0 54 -25 85t-76 31 q-76 0 -131 -76.5t-55 -183.5z" />
<glyph horiz-adv-x="621" d="M438 782l2 -20q-72 -92 -172 -163l-42 11q84 106 127 182zM596 782l3 -20q-74 -95 -173 -163l-41 11q85 107 126 182zM582 348q0 -148 -97 -252.5t-235 -104.5q-94 0 -149 51.5t-55 142.5q0 147 99.5 254.5t235.5 107.5q95 0 148 -53.5t53 -145.5zM172 200 q0 -57 26 -89.5t76 -32.5q76 0 130.5 78t54.5 188q0 54 -25 85t-76 31q-76 0 -131 -76.5t-55 -183.5z" />
<glyph horiz-adv-x="621" d="M243 657l14 69h283l-14 -69h-283zM582 348q0 -148 -97 -252.5t-235 -104.5q-94 0 -149 51.5t-55 142.5q0 147 99.5 254.5t235.5 107.5q95 0 148 -53.5t53 -145.5zM172 200q0 -57 26 -89.5t76 -32.5q76 0 130.5 78t54.5 188q0 54 -25 85t-76 31q-76 0 -131 -76.5 t-55 -183.5z" />
<glyph horiz-adv-x="622" d="M582 348q0 -106 -53 -193.5t-139 -130.5q-68 -40 -102 -81t-34 -75q0 -37 40 -37q25 0 58 12l8 -43q-58 -43 -123 -43q-41 0 -65 20.5t-24 57.5q0 84 116 156h-14q-94 0 -149 51.5t-55 142.5q0 147 99.5 254.5t235.5 107.5q95 0 148 -53.5t53 -145.5zM172 200 q0 -57 26 -89.5t76 -32.5q76 0 130.5 78t54.5 188q0 54 -25 85t-76 31q-76 0 -131 -76.5t-55 -183.5z" />
<glyph horiz-adv-x="621" d="M582 348q0 -148 -97 -252.5t-235 -104.5q-94 0 -149 51.5t-55 142.5q0 147 99.5 254.5t235.5 107.5q95 0 148 -53.5t53 -145.5zM172 200q0 -57 26 -89.5t76 -32.5q76 0 130.5 78t54.5 188q0 54 -25 85t-76 31q-76 0 -131 -76.5t-55 -183.5z" />
<glyph horiz-adv-x="621" d="M506 779l3 -20q-78 -90 -193 -162l-42 12q89 112 127 182zM582 348q0 -148 -97 -252.5t-235 -104.5q-94 0 -149 51.5t-55 142.5q0 147 99.5 254.5t235.5 107.5q95 0 148 -53.5t53 -145.5zM172 200q0 -57 26 -89.5t76 -32.5q76 0 130.5 78t54.5 188q0 54 -25 85t-76 31 q-76 0 -131 -76.5t-55 -183.5z" />
<glyph horiz-adv-x="621" d="M341 766q31 0 72 -28.5t62 -28.5q32 0 67 49l34 -5q-14 -55 -47.5 -96t-77.5 -41q-30 0 -74.5 28.5t-63.5 28.5q-31 0 -66 -49l-33 5q15 56 47.5 96.5t79.5 40.5zM582 348q0 -148 -97 -252.5t-235 -104.5q-94 0 -149 51.5t-55 142.5q0 147 99.5 254.5t235.5 107.5 q95 0 148 -53.5t53 -145.5zM172 200q0 -57 26 -89.5t76 -32.5q76 0 130.5 78t54.5 188q0 54 -25 85t-76 31q-76 0 -131 -76.5t-55 -183.5z" />
<glyph horiz-adv-x="813" d="M582 348q0 -15 -2 -43l155 3l-20 -82l-151 4q-29 -86 -90 -145l264 4l-19 -89h-398q-37 -8 -71 -8q-94 0 -148.5 51t-54.5 143q0 147 99 254.5t236 107.5q34 0 66 -8h366l11 -13l-19 -77l-248 5q24 -45 24 -107zM172 201q0 -57 26 -90t76 -33q76 0 130.5 78.5t54.5 188.5 q0 54 -25 85t-75 31q-77 0 -132 -77t-55 -183z" />
<glyph horiz-adv-x="508" d="M151 0h-119l87 406q16 74 20 134h194q86 0 134 -37.5t48 -102.5q0 -97 -78.5 -161.5t-195.5 -64.5h-52zM291 457h-42l-43 -200h41q66 0 104 34t38 93q0 73 -98 73z" />
<glyph horiz-adv-x="508" d="M151 0h-119l87 406q16 74 20 134h127l-17 -82h67q86 0 133.5 -37t47.5 -102q0 -97 -78 -161.5t-196 -64.5h-52zM273 376h-41l-54 -251l11 51h42q65 0 103 34t38 93q0 73 -99 73z" />
<glyph horiz-adv-x="622" d="M384 547q94 0 146 -54t52 -153q0 -130 -84.5 -230t-208.5 -116q54 -39 140.5 -66t170.5 -27q82 0 154 31q15 -13 15 -39q0 -42 -38 -65t-104 -23q-111 0 -234.5 51.5t-190.5 138.5q-73 12 -114 63t-41 136q0 140 100 246.5t237 106.5zM362 461q-79 0 -134.5 -77 t-55.5 -176q0 -62 25.5 -96t74.5 -34q78 0 133 78t55 179q0 126 -98 126z" />
<glyph horiz-adv-x="545" d="M151 0h-119l87 406q16 74 20 134h178q96 0 147.5 -35.5t51.5 -98.5q0 -62 -38.5 -113t-102.5 -74l91 -219l-138 -5q-9 27 -27.5 86.5t-35.5 108.5h-73zM291 457h-42l-40 -187h41q65 0 102.5 31.5t37.5 86.5q0 69 -99 69z" />
<glyph horiz-adv-x="545" d="M484 779l3 -20q-78 -90 -193 -162l-41 12q90 115 126 182zM151 0h-119l87 406q16 74 20 134h178q96 0 147.5 -35.5t51.5 -98.5q0 -62 -38.5 -113t-102.5 -74l91 -219l-138 -5q-9 27 -27.5 86.5t-35.5 108.5h-73zM291 457h-42l-40 -187h41q65 0 102.5 31.5t37.5 86.5 q0 69 -99 69z" />
<glyph horiz-adv-x="545" d="M505 796l32 -28q-80 -81 -143 -159l-87 -8q-38 98 -78 167l44 28q38 -35 96 -107q92 77 136 107zM151 0h-119l87 406q16 74 20 134h178q96 0 147.5 -35.5t51.5 -98.5q0 -62 -38.5 -113t-102.5 -74l91 -219l-138 -5q-9 27 -27.5 86.5t-35.5 108.5h-73zM291 457h-42 l-40 -187h41q65 0 102.5 31.5t37.5 86.5q0 69 -99 69z" />
<glyph horiz-adv-x="545" d="M151 0h-119l87 406q16 74 20 134h178q96 0 147.5 -35.5t51.5 -98.5q0 -62 -38.5 -113t-102.5 -74l91 -219l-138 -5q-9 27 -27.5 86.5t-35.5 108.5h-73zM291 457h-42l-40 -187h41q65 0 102.5 31.5t37.5 86.5q0 69 -99 69zM108 -310q49 53 69 94q-20 2 -31 18t-8 39 q5 29 29 52t55 23q27 0 41 -17.5t9 -50.5q-11 -79 -133 -189z" />
<glyph horiz-adv-x="545" d="M151 0h-119l87 406q16 74 20 134h178q96 0 147.5 -35.5t51.5 -98.5q0 -62 -38.5 -113t-102.5 -74l91 -219l-138 -5q-9 27 -27.5 86.5t-35.5 108.5h-73zM291 457h-42l-40 -187h41q65 0 102.5 31.5t37.5 86.5q0 69 -99 69zM281 -131q0 -38 -31 -69.5t-69 -31.5 q-26 0 -41.5 15.5t-15.5 38.5q0 37 32 68t71 31q25 0 39.5 -14t14.5 -38z" />
<glyph horiz-adv-x="468" d="M402 174q0 -80 -69.5 -131t-178.5 -51q-104 0 -155 30l29 96q64 -37 151 -37q44 0 71 20t27 52q0 21 -20.5 38t-50 30.5t-59 30t-50 44.5t-20.5 64q0 80 71 134t177 54q82 0 138 -22l-35 -98q-53 30 -121 30q-46 0 -75 -20.5t-29 -54.5q0 -22 20.5 -39.5t49.5 -31.5 t58.5 -30.5t50 -44t20.5 -63.5z" />
<glyph horiz-adv-x="468" d="M448 779l2 -20q-77 -90 -192 -162l-42 12q90 115 127 182zM402 174q0 -80 -69.5 -131t-178.5 -51q-104 0 -155 30l29 96q64 -37 151 -37q44 0 71 20t27 52q0 21 -20.5 38t-50 30.5t-59 30t-50 44.5t-20.5 64q0 80 71 134t177 54q82 0 138 -22l-35 -98q-53 30 -121 30 q-46 0 -75 -20.5t-29 -54.5q0 -22 20.5 -39.5t49.5 -31.5t58.5 -30.5t50 -44t20.5 -63.5z" />
<glyph horiz-adv-x="468" d="M468 796l32 -28q-88 -92 -143 -159l-86 -8q-42 101 -78 167l44 28q41 -38 95 -107q92 77 136 107zM402 174q0 -80 -69.5 -131t-178.5 -51q-104 0 -155 30l29 96q64 -37 151 -37q44 0 71 20t27 52q0 21 -20.5 38t-50 30.5t-59 30t-50 44.5t-20.5 64q0 80 71 134t177 54 q82 0 138 -22l-35 -98q-53 30 -121 30q-46 0 -75 -20.5t-29 -54.5q0 -22 20.5 -39.5t49.5 -31.5t58.5 -30.5t50 -44t20.5 -63.5z" />
<glyph horiz-adv-x="468" d="M273 -114q0 -52 -59 -84t-151 -35l9 44q51 6 81 22.5t30 39.5q0 29 -63 32l-10 22l34 65q-97 2 -145 30l29 96q64 -37 151 -37q44 0 71 20t27 52q0 21 -20.5 38t-50 30.5t-59 30t-50 44.5t-20.5 64q0 80 71 134t177 54q82 0 138 -22l-35 -98q-53 30 -121 30 q-46 0 -75 -20.5t-29 -54.5q0 -22 20.5 -39.5t49.5 -31.5t58.5 -30.5t50 -44t20.5 -63.5q0 -68 -52.5 -116t-138.5 -62l-23 -44q85 -13 85 -66z" />
<glyph horiz-adv-x="468" d="M211 590l-32 28q90 94 142 159l87 8q35 -90 78 -167l-44 -28q-41 38 -95 107q-92 -77 -136 -107zM402 174q0 -80 -69.5 -131t-178.5 -51q-104 0 -155 30l29 96q64 -37 151 -37q44 0 71 20t27 52q0 21 -20.5 38t-50 30.5t-59 30t-50 44.5t-20.5 64q0 80 71 134t177 54 q82 0 138 -22l-35 -98q-53 30 -121 30q-46 0 -75 -20.5t-29 -54.5q0 -22 20.5 -39.5t49.5 -31.5t58.5 -30.5t50 -44t20.5 -63.5z" />
<glyph horiz-adv-x="468" d="M402 174q0 -80 -69.5 -131t-178.5 -51q-104 0 -155 30l29 96q64 -37 151 -37q44 0 71 20t27 52q0 21 -20.5 38t-50 30.5t-59 30t-50 44.5t-20.5 64q0 80 71 134t177 54q82 0 138 -22l-35 -98q-53 30 -121 30q-46 0 -75 -20.5t-29 -54.5q0 -22 20.5 -39.5t49.5 -31.5 t58.5 -30.5t50 -44t20.5 -63.5zM61 -310q48 52 70 94q-21 2 -32 18t-7 39q4 29 28.5 52t55.5 23q26 0 40.5 -18t9.5 -50q-13 -82 -134 -189z" />
<glyph horiz-adv-x="468" d="M402 174q0 -80 -69.5 -131t-178.5 -51q-104 0 -155 30l29 96q64 -37 151 -37q44 0 71 20t27 52q0 21 -20.5 38t-50 30.5t-59 30t-50 44.5t-20.5 64q0 80 71 134t177 54q82 0 138 -22l-35 -98q-53 30 -121 30q-46 0 -75 -20.5t-29 -54.5q0 -22 20.5 -39.5t49.5 -31.5 t58.5 -30.5t50 -44t20.5 -63.5zM235 -131q0 -38 -31 -69.5t-70 -31.5q-26 0 -41 15.5t-15 38.5q0 37 31.5 68t70.5 31q25 0 40 -14t15 -38z" />
<glyph horiz-adv-x="598" d="M121 -10l-107 10q34 55 52 133l47 223q19 91 91.5 141.5t163.5 50.5q85 0 135.5 -41t41.5 -102l-142 -111q130 -35 130 -128q0 -74 -61.5 -124t-151.5 -50q-61 0 -96 16l20 91q36 -18 82 -18q37 0 60 19t23 50q0 63 -133 98l7 36l141 117q-9 58 -75 58q-45 0 -79 -29.5 t-45 -82.5l-44 -205q-23 -100 -60 -152z" />
<glyph horiz-adv-x="514" d="M264 0h-119l96 454q-2 0 -169 -6l26 92h442l-13 -92q-19 1 -52.5 2.5t-61.5 2.5t-53 1z" />
<glyph horiz-adv-x="514" d="M264 0h-119l49 230h-128l14 64h127l34 160q-2 0 -169 -6l26 92h442l-13 -92q-19 1 -52.5 2.5t-61.5 2.5t-53 1l-33 -160h127l-13 -64h-128z" />
<glyph horiz-adv-x="514" d="M486 796l32 -28q-88 -92 -143 -159l-86 -8q-42 101 -78 167l44 28q34 -31 95 -107q92 77 136 107zM264 0h-119l96 454q-2 0 -169 -6l26 92h442l-13 -92q-19 1 -52.5 2.5t-61.5 2.5t-53 1z" />
<glyph horiz-adv-x="514" d="M264 0h-36l-25 -48q85 -13 85 -66q0 -52 -59 -84t-151 -35l10 44q51 6 80.5 22.5t29.5 39.5q0 29 -63 32l-9 22l38 73h-19l96 454q-2 0 -169 -6l26 92h442l-13 -92q-19 1 -52.5 2.5t-61.5 2.5t-53 1z" />
<glyph horiz-adv-x="514" d="M264 0h-119l96 454q-2 0 -169 -6l26 92h442l-13 -92q-19 1 -52.5 2.5t-61.5 2.5t-53 1zM76 -310q48 52 70 94q-21 2 -32 18t-7 39q4 29 28.5 52t55.5 23q26 0 40.5 -18t9.5 -50q-13 -82 -134 -189z" />
<glyph horiz-adv-x="514" d="M264 0h-119l96 454q-2 0 -169 -6l26 92h442l-13 -92q-19 1 -52.5 2.5t-61.5 2.5t-53 1zM250 -131q0 -38 -31 -69.5t-70 -31.5q-26 0 -41 15.5t-15 38.5q0 37 31.5 68t70.5 31q25 0 40 -14t15 -38z" />
<glyph d="M108 402q18 90 21 138l117 8l10 -13l-72 -342q-12 -54 10.5 -83t74.5 -29q51 0 86 28.5t46 83.5l49 232q15 75 17 115l122 6l-76 -362q-19 -92 -95 -142t-175 -50q-98 0 -149.5 50.5t-31.5 141.5z" />
<glyph d="M510 779l3 -20q-78 -90 -193 -162l-41 12q90 115 126 182zM108 402q18 90 21 138l117 8l10 -13l-72 -342q-12 -54 10.5 -83t74.5 -29q51 0 86 28.5t46 83.5l49 232q15 75 17 115l122 6l-76 -362q-19 -92 -95 -142t-175 -50q-98 0 -149.5 50.5t-31.5 141.5z" />
<glyph d="M503 775l50 4q-23 -74 -71.5 -119.5t-108.5 -45.5q-56 0 -84.5 42t-19.5 113l51 7q1 -37 21 -59t54 -22q33 0 62.5 22t45.5 58zM108 402q18 90 21 138l117 8l10 -13l-72 -342q-12 -54 10.5 -83t74.5 -29q51 0 86 28.5t46 83.5l49 232q15 75 17 115l122 6l-76 -362 q-19 -92 -95 -142t-175 -50q-98 0 -149.5 50.5t-31.5 141.5z" />
<glyph d="M531 796l32 -28q-80 -81 -143 -159l-87 -8q-38 98 -78 167l44 28q38 -35 96 -107q92 77 136 107zM108 402q18 90 21 138l117 8l10 -13l-72 -342q-12 -54 10.5 -83t74.5 -29q51 0 86 28.5t46 83.5l49 232q15 75 17 115l122 6l-76 -362q-19 -92 -95 -142t-175 -50 q-98 0 -149.5 50.5t-31.5 141.5z" />
<glyph d="M273 590l-32 28q80 81 143 159l87 8q38 -98 78 -167l-44 -28q-38 35 -96 107q-92 -77 -136 -107zM108 402q18 90 21 138l117 8l10 -13l-72 -342q-12 -54 10.5 -83t74.5 -29q51 0 86 28.5t46 83.5l49 232q15 75 17 115l122 6l-76 -362q-19 -92 -95 -142t-175 -50 q-98 0 -149.5 50.5t-31.5 141.5z" />
<glyph d="M360 716q0 -37 -28.5 -66.5t-64.5 -29.5q-24 0 -37.5 13.5t-13.5 35.5q0 35 30 64.5t65 29.5q22 0 35.5 -13t13.5 -34zM577 716q0 -37 -28.5 -66.5t-64.5 -29.5q-24 0 -37.5 13.5t-13.5 35.5q0 35 30 64.5t65 29.5q22 0 35.5 -13t13.5 -34zM108 402q18 90 21 138l117 8 l10 -13l-72 -342q-12 -54 10.5 -83t74.5 -29q51 0 86 28.5t46 83.5l49 232q15 75 17 115l122 6l-76 -362q-19 -92 -95 -142t-175 -50q-98 0 -149.5 50.5t-31.5 141.5z" />
<glyph d="M562 1019l2 -21q-78 -90 -193 -162l-41 12q90 115 126 182zM360 716q0 -37 -28.5 -66.5t-64.5 -29.5q-24 0 -37.5 13.5t-13.5 35.5q0 35 30 64.5t65 29.5q22 0 35.5 -13t13.5 -34zM577 716q0 -37 -28.5 -66.5t-64.5 -29.5q-24 0 -37.5 13.5t-13.5 35.5q0 35 30 64.5 t65 29.5q22 0 35.5 -13t13.5 -34zM108 402q18 90 21 138l117 8l10 -13l-72 -342q-12 -54 10.5 -83t74.5 -29q51 0 86 28.5t46 83.5l49 232q15 75 17 115l122 6l-76 -362q-19 -92 -95 -142t-175 -50q-98 0 -149.5 50.5t-31.5 141.5z" />
</font>
</defs>
</svg>
