<?xml version="1.0" standalone="no"?>
<!DOCTYPE svg PUBLIC "-//W3C//DTD SVG 1.1//EN" "http://www.w3.org/Graphics/SVG/1.1/DTD/svg11.dtd" >
<svg xmlns="http://www.w3.org/2000/svg" xmlns:xlink="http://www.w3.org/1999/xlink" version="1.1">
<metadata></metadata>
<defs>
<font id="indivisa_text_sanslight" horiz-adv-x="560" >
<font-face units-per-em="1000" ascent="755" descent="-245" />
<missing-glyph horiz-adv-x="260" />
<glyph unicode="&#x2f;symbol&#x33;&#x2f;" horiz-adv-x="957" d="M505 638l68 -270h270l-203 -135l136 -270l-271 135l-270 -270l135 405l-270 203l338 -68zM814 87q18 0 30.5 -12.5t12.5 -31.5q0 -18 -12.5 -30.5t-30.5 -12.5t-30.5 12.5t-12.5 30.5q0 19 12.5 31.5t30.5 12.5zM854 43q0 17 -11.5 29t-28.5 12t-28.5 -12t-11.5 -29 t12 -28.5t28 -11.5t28 11.5t12 28.5zM796 68h18q8 0 11 -2q6 -3 6 -10q0 -5 -4 -9q-3 -3 -6 -3q7 -3 8 -10q2 -14 3 -16h-7q-1 2 -2 7.5t-1 6.5q0 9 -10 9h-9v-23h-7v50zM803 47h10q5 0 7 1q3 3 3 6q0 9 -10 9h-10v-16z" />
<glyph unicode="&#x2f;symbol&#x32;&#x2f;" horiz-adv-x="932" d="M494 570l52 -90l-137 -240h-103l137 240l-52 90h103zM357 570l52 -90l-138 -240h-103l138 240l-52 90h103zM752 120h-103l-137 240l51 90l137 -240h103zM683 0h-103l-137 240l51 90l138 -240h103zM100 120l51 90h275l51 -90h-274l-52 -90zM168 0l52 90h274l52 -90h-275 l-51 -90zM789 88q18 0 30.5 -13t12.5 -31t-12.5 -31t-30.5 -13t-30.5 13t-12.5 31t12.5 31t30.5 13zM829 44q0 16 -11.5 28t-28.5 12t-28.5 -12t-11.5 -28t11.5 -28t28.5 -12t28.5 12t11.5 28zM771 69h18q7 0 11 -2q5 -4 5 -11q0 -5 -3 -8q-1 -2 -6 -4q7 -1 8 -9q0 -8 3 -16 h-8q-1 2 -1.5 6.5t-0.5 6.5q-1 10 -11 10h-8v-23h-7v50zM778 47h10q5 0 7 1q3 3 3 7q0 8 -10 8h-10v-16z" />
<glyph unicode="&#x2f;symbol&#x35;&#x2f;" horiz-adv-x="705" d="M232 -6l-132 136l124 234l129 -136zM474 -6l-121 234l128 136l124 -234z" />
<glyph unicode="&#x2f;symbol&#x31;&#x2f;" horiz-adv-x="5534" d="M1865 412q-25 0 -40.5 14.5t-15.5 37.5q0 35 32.5 64t70.5 29q24 0 39 -13.5t15 -37.5q0 -36 -31 -65t-70 -29zM1284 412q-26 0 -41.5 14.5t-15.5 37.5q0 35 33 64t71 29q24 0 38.5 -13.5t14.5 -37.5q0 -36 -31 -65t-69 -29zM959 0q0 42 11 108q-16 -50 -51.5 -82.5 t-78.5 -32.5q-41 0 -63 29.5t-22 82.5q0 62 27 121t84 101t132 42q17 0 25 -1l16 73l6 102l136 7q0 -67 -46 -273t-46 -277h-130zM100 0l78 364q17 86 21 136l128 7l11 -15l-104 -492h-134zM3503 492l-57 -492h-131l20 175q5 50 33 215h-3q-31 -102 -81 -215l-76 -175h-149 l-2 175q-2 121 9 215h-2q-32 -130 -59 -215l-53 -175h-109l154 500l184 6l1 -137q2 -134 -15 -259h2q39 126 94 259l56 131l169 7zM5316 300q-37 -177 -37 -183q0 -34 36 -34q25 0 59 18l-9 -79q-52 -29 -114 -29q-105 0 -105 100q0 20 40 210l-47 1l9 44l54 14l53 95l81 6 l13 -15l-20 -86h99l6 -14l-17 -51zM336 0q0 79 41 260l6 102l137 7q0 -31 -7 -89h2q52 89 134 89q34 0 53 -19.5t19 -51.5q0 -27 -26 -147q-18 -85 -18 -151h-131q0 55 19 150q15 78 15 87q0 24 -17 24q-34 0 -64 -82.5t-32 -178.5h-131zM1170 0q0 72 27 193l14 67l6 102 l137 7q0 -46 -27 -177t-27 -192h-130zM1399 362l140 7q13 -129 -5 -289h2q76 151 91 284q22 5 50 5q32 0 48.5 -8.5t16.5 -33.5q0 -46 -51 -147.5t-116 -179.5h-149q-5 228 -27 362zM1752 0q0 69 26 193l15 67l6 102l137 7q0 -46 -27 -177t-27 -192h-130zM4716 0 q0 79 41 260l6 102l137 7q0 -12 -7 -89h2q52 89 134 89q34 0 53 -19.5t19 -51.5q0 -27 -26 -147q-19 -90 -19 -151h-130q0 55 19 150q15 78 15 87q0 24 -17 24q-35 0 -65 -82t-32 -179h-130zM2245 256q-52 30 -97 30q-18 0 -30 -7t-12 -19q0 -14 20 -26.5t44 -22t44 -33 t20 -56.5q0 -57 -53 -93t-128 -36q-78 0 -118 28l27 93q57 -38 111 -38q19 0 29.5 7.5t10.5 18.5q0 13 -20 26t-44 23t-44 33t-20 55q0 56 54.5 93t128.5 37q58 0 104 -18zM2525 369q88 0 146 -32l-29 -128q-31 -145 -31 -209h-130q0 37 12 112q-15 -52 -51 -85.5t-81 -33.5 q-41 0 -62.5 29.5t-21.5 83.5q0 62 26.5 120.5t85 100.5t136.5 42zM4653 51q-67 -58 -159 -58q-65 0 -103.5 35t-38.5 102q0 94 68.5 166.5t167.5 72.5q54 0 86.5 -23.5t32.5 -64.5q0 -57 -60 -96.5t-161 -43.5v-1q0 -64 63 -64q42 0 90 28zM3936 0q0 74 42 260l5 102l137 7 q0 -31 -7 -89h2q53 89 134 89q34 0 53 -19.5t19 -51.5q0 -27 -26 -147q-18 -85 -18 -151h-131q0 55 19 150q15 71 15 87q0 24 -17 24q-34 0 -64 -82.5t-32 -178.5h-131zM3768 369q87 0 145 -32l-28 -128q-31 -145 -31 -209h-130q0 45 12 112q-15 -52 -51 -85.5t-81 -33.5 q-41 0 -63 29.5t-22 83.5q0 46 16 91.5t46 84t79 63t108 24.5zM4490 177q47 10 73 34t26 59q0 31 -22 31q-28 0 -48.5 -38.5t-28.5 -85.5zM3677 101q23 0 47 43t38 101q1 8 4.5 24.5t4.5 19.5q-16 8 -27 8q-34 0 -62.5 -54.5t-28.5 -101.5q0 -40 24 -40zM913 101 q22 0 44.5 39.5t37.5 94.5q1 9 8 40l3 14q-14 8 -27 8q-33 0 -61.5 -54.5t-28.5 -101.5q0 -40 24 -40zM2435 101q23 0 47 43.5t37 100.5q3 14 9 44q-14 8 -27 8q-34 0 -62 -54.5t-28 -101.5q0 -40 24 -40z" />
<glyph unicode="&#x2f;symbol&#x34;&#x2f;" horiz-adv-x="2607" d="M1684 406q0 65 -11 128l126 14l15 -15v-533h-130v406zM1889 406q0 62 -10 128l126 14l14 -15v-533h-130v406zM427 101v-101h-320v362q0 80 -7 135l126 7l14 -14v-396zM925 21l7 109q62 -36 144 -36q50 0 50 36q0 20 -31.5 41.5t-69 40.5t-69 57t-31.5 88q0 69 55 108 t138 39q80 0 127 -18l-14 -111q-56 29 -111 29q-27 0 -42.5 -11t-15.5 -29q0 -20 20.5 -38t50 -34t59.5 -35t50.5 -51t20.5 -72q0 -66 -53.5 -103.5t-139.5 -37.5q-41 0 -83.5 8t-61.5 20zM795 0l-106 -7q-11 16 -21 49h-4q-34 -49 -104 -49q-43 0 -70 23t-27 66 q0 113 191 118v20q0 54 -58 54q-55 0 -108 -29l-8 97q72 26 150 26q154 0 154 -135q0 -25 -2 -69t-2 -70q0 -51 15 -94zM1626 0l-107 -7q-12 20 -21 49h-3q-34 -49 -105 -49q-43 0 -69.5 23t-26.5 66q0 113 191 118v20q0 54 -58 54q-54 0 -109 -29l-7 97q72 26 150 26 q153 0 153 -135q0 -25 -1.5 -69.5t-1.5 -69.5q0 -51 15 -94zM2405 213q0 -24 -1 -36l-11 -11h-191q14 -83 98 -83q44 0 84 21l7 -81q-46 -30 -127 -30q-90 0 -144 47.5t-54 134.5q0 85 52 139t132 54q72 0 113.5 -43t41.5 -112zM2199 207l78 4q2 14 2 26q0 59 -34 59 q-44 0 -46 -89zM654 74v88q-29 -3 -47 -18t-18 -39q0 -18 10 -29t27 -11q16 0 28 9zM1485 74v88q-29 -3 -47 -18t-18 -39q0 -18 10 -29t27 -11q16 0 28 9zM2464 85q18 0 30.5 -13t12.5 -31t-12.5 -31t-30.5 -13t-31 13t-13 31t13 31t31 13zM2504 41q0 17 -12 28.5t-28 11.5 t-28 -11.5t-12 -28.5t12 -28.5t28 -11.5t28 11.5t12 28.5zM2446 66h18q7 0 11 -3q5 -3 5 -10q0 -5 -3 -9q-3 -3 -6 -3q7 -1 8 -10q0 -7 3 -15h-8q-1 2 -1.5 6.5t-0.5 6.5q-1 9 -11 9h-8v-22h-7v50zM2453 44h10q5 0 7 1q3 3 3 7q0 8 -10 8h-10v-16z" />
<glyph unicode=" "  horiz-adv-x="260" />
<glyph unicode="&#x09;" horiz-adv-x="260" />
<glyph unicode="&#xa0;" horiz-adv-x="260" />
<glyph unicode="!" horiz-adv-x="257" d="M140 190h-31q-2 93 -3.5 210.5t-2.5 183t-2 101.5l42 10l5 -5q-2 -179 -8 -500zM161 37q0 -19 -9.5 -33t-27.5 -14q-16 0 -25.5 12t-9.5 31t10.5 33t27.5 14q16 0 25 -12t9 -31z" />
<glyph unicode="&#x22;" horiz-adv-x="228" d="M75 755l5 -5l-15 -229h-20l-13 234h43zM175 755l5 -5l-15 -229h-20l-13 234h43z" />
<glyph unicode="#" horiz-adv-x="687" d="M187 -10l-28 2l-8 8l38 155h-141l-8 8l5 28h153l39 158h-147l-8 8l5 28h159l40 160l28 -2l8 -8l-37 -150h179l40 160l28 -2l8 -8l-37 -150h136l8 -8l-4 -28h-149l-39 -158h147l8 -8l-4 -28h-160l-41 -165l-28 2l-8 8l38 155h-179zM237 191h179l39 158h-179z" />
<glyph unicode="$" horiz-adv-x="467" d="M222 -140l-8 8v122h-1q-82 0 -148 35l7 43q62 -40 144 -40q67 0 105 36t38 94q0 33 -10.5 59t-34 47.5t-41.5 34t-53 32.5q-38 22 -55.5 34t-44 36t-38 53.5t-11.5 67.5q0 70 41.5 115.5t111.5 55.5v129l22 3l8 -8v-122h4q78 0 136 -33l-7 -43q-56 38 -130 38 q-67 0 -105 -34.5t-38 -92.5q0 -30 11.5 -55.5t31.5 -44.5t42 -34t49 -31q7 -4 11 -6q31 -18 51.5 -33t44 -39t35.5 -55.5t12 -69.5q0 -71 -42.5 -116.5t-115.5 -53.5v-129z" />
<glyph unicode="%" horiz-adv-x="973" d="M409 498q0 -97 -49.5 -150.5t-121.5 -53.5q-73 0 -118 53.5t-45 144.5q0 97 49.5 150.5t121.5 53.5q73 0 118 -53.5t45 -144.5zM736 695l-422 -705h-40l421 705h41zM111 496q0 -78 34 -125t95 -47q59 0 96 44.5t37 126.5q0 77 -34 124t-94 47q-59 0 -96.5 -44.5 t-37.5 -125.5zM898 126q0 -97 -49.5 -150.5t-121.5 -53.5q-73 0 -118 53.5t-45 144.5q0 97 49.5 150.5t121.5 53.5q73 0 118 -53.5t45 -144.5zM600 124q0 -78 34 -125t95 -47q59 0 96 44.5t37 126.5q0 77 -34 124t-94 47q-59 0 -96.5 -44.5t-37.5 -125.5z" />
<glyph unicode="&#x26;" horiz-adv-x="734" d="M609 353q16 -158 -89 -268q61 -57 102 -57q33 0 57 20l10 -32q-28 -26 -76 -26q-61 0 -127 66q-83 -66 -187 -66q-93 0 -151 53t-58 134q0 56 32.5 108.5t93.5 86.5q-68 89 -68 164q0 69 50 114t126 45q64 0 110 -33.5t66 -92.5l-29 -32q-47 120 -150 120 q-54 0 -92 -32.5t-38 -84.5q0 -27 9.5 -54.5t32.5 -60t35 -48t41 -49.5l142 -168q19 -24 43 -49q68 76 68 181q0 37 -5 64l42 9zM135 181q0 -65 46 -109t127 -44q87 0 154 53q-13 14 -48 55l-138 163q-28 33 -39 46q-51 -29 -76.5 -73.5t-25.5 -90.5z" />
<glyph unicode="'" horiz-adv-x="128" d="M83 755l5 -5l-15 -229h-20l-13 234h43z" />
<glyph unicode="(" horiz-adv-x="351" d="M293 -195q-86 77 -134.5 201.5t-48.5 274.5q0 149 48.5 272.5t134.5 201.5l18 -19q-156 -179 -156 -455q0 -277 156 -457z" />
<glyph unicode=")" horiz-adv-x="351" d="M241 281q0 -150 -48.5 -274.5t-134.5 -201.5l-18 19q156 180 156 457q0 276 -156 455l18 19q86 -78 134.5 -201.5t48.5 -272.5z" />
<glyph unicode="*" horiz-adv-x="481" d="M228 376l-5 4l7 151l-130 -84l-15 26v7l138 69l-141 71l15 26l6 3l127 -82l-7 155h30l5 -4l-8 -154l131 87l15 -26v-7l-135 -69l138 -71l-15 -26l-6 -3l-128 84l8 -157h-30z" />
<glyph unicode="+" d="M503 328h-199v-203h-40l-1 203h-210v35q144 3 210 3l-1 199h42v-198q77 1 198 1l5 -5z" />
<glyph unicode="," horiz-adv-x="208" d="M50 -177q41 93 49 167q-17 1 -28 13t-11 29q0 20 13 34t32 14q39 0 39 -52q0 -41 -23.5 -105t-52.5 -110z" />
<glyph unicode="-" horiz-adv-x="345" d="M30 279v35h285v-35h-285z" />
<glyph unicode="." horiz-adv-x="212" d="M148 37q0 -20 -13 -33.5t-30 -13.5q-16 0 -28.5 12t-12.5 31t13 33t31 14q17 0 28.5 -12t11.5 -31z" />
<glyph unicode="/" horiz-adv-x="349" d="M281 753l8 -8l-187 -747l-30 5l-8 8l187 747z" />
<glyph unicode="0" horiz-adv-x="656" d="M576 346q0 -169 -73 -262.5t-180 -93.5q-109 0 -176 93.5t-67 255.5q0 169 73 262.5t180 93.5q109 0 176 -93.5t67 -255.5zM123 343q0 -143 53.5 -230t148.5 -87q91 0 149.5 82.5t58.5 233.5q0 143 -53.5 230t-148.5 87q-91 0 -149.5 -82.5t-58.5 -233.5z" />
<glyph unicode="1" horiz-adv-x="315" d="M141 639h-1l-123 -33l-7 24l165 65l5 -5v-690h-40v491q0 106 1 148z" />
<glyph unicode="2" horiz-adv-x="561" d="M67 0l-7 43q174 158 269.5 276.5t95.5 206.5q0 60 -43.5 96.5t-119.5 36.5q-85 0 -197 -55l-5 36q102 55 209 55q89 0 144 -46t55 -119q0 -55 -32 -119.5t-94.5 -135.5t-111.5 -119.5t-125 -117.5h226q87 0 160 10l-10 -48h-414z" />
<glyph unicode="3" horiz-adv-x="501" d="M66 640q90 55 189 55q73 0 119.5 -37.5t46.5 -102.5q0 -60 -47.5 -112.5t-140.5 -86.5q100 -6 159 -47.5t59 -123.5q0 -87 -65.5 -141t-175.5 -54q-82 0 -160 24l5 36q79 -24 156 -24q88 0 142.5 43t54.5 113q0 74 -59.5 109t-147.5 35q-36 0 -65 -7v35q121 28 181.5 82 t60.5 115q0 50 -34 79t-95 29q-79 0 -178 -55z" />
<glyph unicode="4" horiz-adv-x="577" d="M35 235l317 448l40 10l5 -5v-453q77 2 140 10l-10 -48h-130v-197h-40v197h-314zM75 234v-1q89 2 245 2h37l1 247q0 109 1 152h-1z" />
<glyph unicode="5" horiz-adv-x="531" d="M75 14l5 36q74 -24 147 -24q88 0 142 48.5t54 128.5q0 81 -51.5 123t-129.5 42q-84 0 -130 -20l-10 10v327h188q87 0 160 10l-4 -48h-306v-258q56 14 111 14q90 0 152.5 -50.5t62.5 -146.5t-65.5 -156t-174.5 -60q-77 0 -151 24z" />
<glyph unicode="6" horiz-adv-x="588" d="M305 -10q-103 0 -159 81.5t-56 226.5q0 184 85.5 290.5t217.5 106.5q59 0 84 -15l-5 -36q-27 15 -75 15q-113 0 -187 -90t-77 -263h1q35 43 88 65.5t106 22.5q84 0 137 -53.5t53 -140.5q0 -95 -62 -152.5t-151 -57.5zM322 358q-58 0 -112.5 -28t-73.5 -75 q6 -104 49 -166.5t125 -62.5q71 0 118 46.5t47 124.5q0 71 -40.5 116t-112.5 45z" />
<glyph unicode="7" horiz-adv-x="523" d="M55 637l10 48h398l5 -5v-28q-110 -136 -194 -313t-96 -339h-43q10 155 98 335t189 311v1h-207q-87 0 -160 -10z" />
<glyph unicode="8" horiz-adv-x="564" d="M281 -10q-88 0 -149.5 45.5t-61.5 114.5q0 61 47.5 110.5t120.5 82.5v1q-66 34 -107.5 81t-41.5 105q0 70 58.5 117.5t138.5 47.5q77 0 133 -46t56 -115q0 -58 -41.5 -108t-110.5 -80v-1q171 -74 171 -188q0 -73 -61.5 -120t-151.5 -47zM286 659q-63 0 -109 -36t-46 -90 q0 -51 43.5 -94.5t114.5 -74.5q64 29 104 73.5t40 96.5q0 54 -42.5 89.5t-104.5 35.5zM272 325q-67 -29 -113.5 -74.5t-46.5 -99.5q0 -55 48.5 -90t119.5 -35q74 0 122 37.5t50 93.5q1 54 -44 92t-136 76z" />
<glyph unicode="9" horiz-adv-x="588" d="M269 270q-90 0 -144.5 54.5t-54.5 143.5q0 100 61.5 163.5t149.5 63.5q97 0 157 -81.5t60 -220.5q0 -174 -89.5 -288.5t-218.5 -114.5q-47 0 -73 8l-1 36q26 -8 68 -8q111 0 186.5 92t85.5 246h-1q-27 -46 -77.5 -70t-108.5 -24zM276 659q-69 0 -116 -52.5t-47 -135.5 q0 -74 42 -119.5t119 -45.5q57 0 106 26.5t73 82.5q-3 109 -51.5 176.5t-125.5 67.5z" />
<glyph unicode=":" horiz-adv-x="212" d="M148 364q0 -20 -13 -33.5t-30 -13.5q-16 0 -28.5 12t-12.5 31t13 33t31 14q17 0 28.5 -12t11.5 -31zM148 37q0 -20 -13 -33.5t-30 -13.5q-16 0 -28.5 12t-12.5 31t13 33t31 14q17 0 28.5 -12t11.5 -31z" />
<glyph unicode=";" horiz-adv-x="222" d="M158 364q0 -20 -13 -33.5t-30 -13.5q-16 0 -28.5 12t-12.5 31t13 33t31 14q17 0 28.5 -12t11.5 -31zM50 -177q41 93 49 167q-17 1 -28 13t-11 29q0 20 13 34t32 14q39 0 39 -52q0 -41 -23.5 -105t-52.5 -110z" />
<glyph unicode="&#x3c;" d="M477 130l-417 207v25l4 6q196 99 412 190v-40l-361 -167l362 -181v-40z" />
<glyph unicode="=" d="M503 421h-450v35q170 5 449 5l5 -5zM503 237h-450v35q170 5 449 5l5 -5z" />
<glyph unicode="&#x3e;" d="M83 130v40l362 181l-361 167v40q216 -91 412 -190l4 -6v-25z" />
<glyph unicode="?" horiz-adv-x="401" d="M185 209h-28q-6 18 -6 40q0 26 18.5 51.5t45.5 47.5t54 46t45.5 59t18.5 75q0 58 -35.5 94.5t-94.5 36.5q-44 0 -88.5 -22.5t-74.5 -68.5l-25 21q31 50 83 78t110 28q76 0 122 -43.5t46 -116.5q0 -45 -19.5 -84.5t-47 -67t-54.5 -50.5t-46.5 -45.5t-19.5 -42.5 q0 -14 4 -28zM214 37q0 -19 -9.5 -33t-27.5 -14q-16 0 -25.5 12t-9.5 31t10.5 33t27.5 14q16 0 25 -12t9 -31z" />
<glyph unicode="@" horiz-adv-x="1138" d="M803 -163q-138 -92 -304 -92q-190 0 -312 121t-122 312q0 118 49.5 226t131 184.5t188.5 121.5t218 45q186 0 303.5 -114.5t117.5 -283.5q0 -151 -89.5 -259t-211.5 -108q-172 0 -104 241h-4q-114 -241 -221 -241q-40 0 -65.5 35.5t-25.5 106.5q0 91 39.5 176.5t112 141 t156.5 55.5q53 0 103 -15l-56 -228q-6 -23 -8.5 -35.5t-7.5 -41t-5 -46t3.5 -41.5t13 -38t28 -24t45.5 -10q92 0 173 94.5t81 233.5q0 158 -107.5 261.5t-269.5 103.5q-97 0 -194 -39.5t-175 -107.5t-127 -169.5t-49 -215.5q0 -178 111 -292t292 -114q83 0 146.5 21 t131.5 59zM455 26q34 0 75.5 43.5t75.5 105.5t60 124t36 105l13 53q-42 12 -78 12q-94 0 -168 -104.5t-74 -227.5q0 -52 15.5 -81.5t44.5 -29.5z" />
<glyph unicode="A" horiz-adv-x="599" d="M71 0h-41l218 592q30 83 35 100l27 3l5 -5l254 -690h-44l-82 222h-290zM232 437l-66 -179h264l-66 179q-52 143 -65 200h-1q-13 -56 -66 -200z" />
<glyph unicode="B" horiz-adv-x="572" d="M251 0h-136v538q0 81 -7 147h146q102 0 162 -46.5t60 -126.5q0 -58 -32 -98t-86 -58q73 -16 111 -61t38 -108q0 -87 -69 -137t-187 -50zM252 650h-95v-279h91q89 0 136 35t47 101t-46 104.5t-133 38.5zM253 336h-96v-301h100q101 0 153 39t52 112q0 150 -209 150z" />
<glyph unicode="C" horiz-adv-x="598" d="M532 86l6 -38q-72 -58 -187 -58q-122 0 -196.5 90.5t-74.5 251.5q0 167 78.5 265t202.5 98q103 0 170 -45l-9 -42q-61 49 -158 49q-105 0 -172 -84t-67 -235q0 -138 61.5 -224t172.5 -86q96 0 173 58z" />
<glyph unicode="D" horiz-adv-x="677" d="M597 344q0 -160 -92 -252t-245 -92h-145v538q0 81 -7 147h162q139 0 233 -92.5t94 -248.5zM264 649h-107v-613h101q141 0 217.5 79.5t76.5 226.5q0 143 -79 225t-209 82z" />
<glyph unicode="E" horiz-adv-x="510" d="M465 39v-39h-350v538q0 81 -7 147h342l5 -5v-34l-298 4v-292l256 2v-39l-256 2v-288z" />
<glyph unicode="F" horiz-adv-x="490" d="M157 0h-42v538q0 81 -7 147h342l5 -5v-34l-298 4v-302l256 2v-39l-256 2v-313z" />
<glyph unicode="G" horiz-adv-x="651" d="M556 288l5 -5l-2 -242q-38 -24 -96 -37.5t-108 -13.5q-126 0 -200.5 90t-74.5 252q0 170 81 266.5t219 96.5q93 0 158 -38l-9 -42q-58 42 -147 42q-117 0 -187 -83t-70 -235q0 -140 61.5 -225.5t176.5 -85.5q79 0 154 33v70q0 81 -7 147z" />
<glyph unicode="H" horiz-adv-x="701" d="M157 0h-42v538q0 81 -7 147l44 10l5 -5v-331h387v179q0 81 -7 147l44 10l5 -5v-690h-42v323h-387v-323z" />
<glyph unicode="I" horiz-adv-x="272" d="M157 0h-42v538q0 81 -7 147l44 10l5 -5v-690z" />
<glyph unicode="J" horiz-adv-x="259" d="M25 -182l-15 26q92 50 92 199v495q0 81 -7 147l44 10l5 -5v-647q0 -167 -119 -225z" />
<glyph unicode="K" horiz-adv-x="566" d="M115 538q0 81 -7 147l42 10l5 -5v-331h109l237 336l28 -13l5 -5l-235 -333l257 -344l-41 -10q-41 56 -123.5 166.5t-124.5 166.5h-112v-323h-40v538z" />
<glyph unicode="L" horiz-adv-x="482" d="M457 39v-39h-342v539q0 80 -7 146l44 10l5 -5v-655z" />
<glyph unicode="M" horiz-adv-x="846" d="M680 695l5 -5l91 -690h-42l-36 271q-32 239 -40 341h-1q-26 -88 -115 -341l-96 -271h-46l-95 271q-99 285 -116 341h-1q-6 -65 -42 -341l-36 -271h-40l92 691l35 4l150 -424q52 -145 76 -230h1q24 77 77 230l148 420z" />
<glyph unicode="N" horiz-adv-x="701" d="M349 384q22 -35 58 -92t54.5 -86.5t42.5 -72.5t43 -82h1q-4 108 -4 487q0 81 -7 147l44 10l5 -5v-690h-45q-33 52 -98 155.5t-97 155.5q-16 25 -46.5 73.5t-43.5 70t-34 56t-36.5 63.5t-31.5 60h-1q4 -88 4 -252v-382h-42v538q0 81 -7 147l46 10q109 -172 195 -311z" />
<glyph unicode="O" horiz-adv-x="694" d="M614 344q0 -167 -78 -260.5t-194 -93.5q-114 0 -188 91t-74 251q0 165 78.5 264t195.5 99q114 0 187 -94.5t73 -256.5zM125 338q0 -142 60 -226t161 -84q100 0 161.5 82t61.5 231q0 143 -57.5 229.5t-157.5 86.5t-164.5 -85.5t-64.5 -233.5z" />
<glyph unicode="P" horiz-adv-x="540" d="M157 0h-42v538q0 81 -7 147h155q106 0 169 -56t63 -152q0 -100 -68 -155t-179 -55h-91v-267zM261 650h-104v-348h100q91 0 142 45.5t51 129.5q0 79 -47 126t-142 47z" />
<glyph unicode="Q" horiz-adv-x="721" d="M614 344q0 -150 -63.5 -241.5t-163.5 -108.5q172 -108 339 -108l-15 -49q-86 0 -187 42t-191 111q-111 4 -182 94.5t-71 247.5q0 165 78.5 264t195.5 99q114 0 187 -94.5t73 -256.5zM125 338q0 -142 60 -226t161 -84q100 0 161.5 82t61.5 231q0 143 -57.5 229.5 t-157.5 86.5t-164.5 -85.5t-64.5 -233.5z" />
<glyph unicode="R" horiz-adv-x="574" d="M157 0h-42v538q0 81 -7 147h155q105 0 168.5 -56t63.5 -147q0 -69 -38 -115.5t-106 -66.5l173 -300l-39 -10l-171 297h-157v-287zM261 650h-104v-328h100q91 0 142 41t51 119q0 74 -47.5 121t-141.5 47z" />
<glyph unicode="S" horiz-adv-x="501" d="M436 162q0 -78 -57 -125t-151 -47q-89 0 -163 35l8 43q69 -40 159 -40q76 0 118.5 36t42.5 94q0 33 -11.5 59t-38.5 48t-46.5 33.5t-58.5 32.5q-42 22 -62.5 34.5t-49.5 36.5t-41.5 53.5t-12.5 66.5q0 78 56.5 125.5t148.5 47.5q87 0 151 -33l-8 -43q-62 38 -144 38 q-75 0 -118 -34.5t-43 -92.5q0 -31 12 -56t35 -44t46.5 -33t54.5 -31q3 -1 5 -2t4.5 -2.5t4.5 -2.5q35 -18 57.5 -33t48.5 -39t39.5 -55.5t13.5 -69.5z" />
<glyph unicode="T" horiz-adv-x="521" d="M282 0h-42v650q-95 0 -215 -5l3 40h465l3 -40q-120 5 -214 5v-650z" />
<glyph unicode="U" horiz-adv-x="644" d="M100 540q0 80 -10 147l52 8v-478q0 -89 51 -139t129 -50t129 49.5t51 139.5v323q0 80 -10 147l52 8v-475q0 -110 -64 -170t-163 -60q-94 0 -155.5 60t-61.5 170v320z" />
<glyph unicode="V" horiz-adv-x="597" d="M287 -5l-257 696l43 4l157 -427q53 -143 70 -219q15 64 81 244l147 402l34 -5l5 -5l-255 -690h-25z" />
<glyph unicode="W" horiz-adv-x="986" d="M265 -5l-225 695l40 5l139 -428q48 -145 59 -215q11 64 67 238l129 401l39 4l139 -428q48 -145 59 -215q11 65 66 235l132 408l32 -5l5 -5l-223 -690h-25l-159 492q-32 98 -45 151h-1q-13 -53 -45 -151l-158 -492h-25z" />
<glyph unicode="X" horiz-adv-x="551" d="M36 0l-1 5l214 343l-214 337l43 9l201 -317h1l195 318l40 -5l1 -5l-214 -338l214 -347h-48l-196 318h-1l-193 -318h-42z" />
<glyph unicode="Y" horiz-adv-x="552" d="M255 256l-225 435l44 4l136 -260q47 -86 67 -138h1q35 76 70 140l133 258l36 -5l5 -5l-225 -433v-252h-42v256z" />
<glyph unicode="Z" horiz-adv-x="498" d="M37 0l-7 25l379 625l-368 -3l3 38h407l10 -25l-379 -625l386 4l-3 -39h-428z" />
<glyph unicode="[" horiz-adv-x="298" d="M80 755h193v-36h-151v-878h151v-36h-193v950z" />
<glyph unicode="\" horiz-adv-x="349" d="M247 -2l-187 747l8 8l30 5l187 -747l-8 -8z" />
<glyph unicode="]" horiz-adv-x="298" d="M218 755v-950h-193v36h151v878h-151v36h193z" />
<glyph unicode="^" horiz-adv-x="525" d="M135 210h-45l142 335h56l147 -335h-44l-131 299z" />
<glyph unicode="_" horiz-adv-x="340" d="M0 -183v35h340v-35h-340z" />
<glyph unicode="`" horiz-adv-x="341" d="M212 580q-104 65 -162 151l3 8l39 16q39 -69 130 -162z" />
<glyph unicode="a" horiz-adv-x="496" d="M385 148q0 -81 25 -148l-40 -10q-16 34 -22 70q-23 -28 -65 -49t-91 -21q-60 0 -93.5 33t-33.5 83q0 80 80.5 123.5t199.5 51.5v78q0 110 -111 110q-78 0 -152 -49l-3 40q80 45 161 45q70 0 108 -36t38 -95q0 -38 -0.5 -124t-0.5 -102zM108 110q0 -35 22.5 -59.5 t65.5 -24.5q39 0 81 21t68 51v149q-103 -7 -170 -42t-67 -95z" />
<glyph unicode="b" horiz-adv-x="558" d="M150 11l-40 -21v608q0 63 -7 147l42 10l5 -5v-299q54 54 136 54q88 0 142.5 -68t54.5 -189q0 -124 -58 -191t-151 -67q-67 0 -124 23v-2zM283 469q-81 0 -133 -57v-364q59 -22 127 -22q75 0 119 57t44 162q0 102 -41.5 163t-115.5 61z" />
<glyph unicode="c" horiz-adv-x="475" d="M420 475l-12 -40q-50 34 -116 34q-80 0 -127 -56.5t-47 -163.5q0 -103 43.5 -163t122.5 -60q71 0 131 41l5 -36q-59 -41 -138 -41q-94 0 -150.5 65.5t-56.5 187.5q0 126 60 194t160 68q71 0 125 -30z" />
<glyph unicode="d" horiz-adv-x="558" d="M401 745l42 10l5 -5v-608q0 -76 26 -142l-40 -10q-13 27 -22 69q-47 -69 -139 -69q-88 0 -143 68t-55 183q0 125 64.5 194.5t160.5 69.5q58 0 108 -25v118q0 91 -7 147zM118 243q0 -102 43.5 -159.5t116.5 -57.5q78 0 130 70v347q-50 26 -113 26q-76 0 -126.5 -57.5 t-50.5 -168.5z" />
<glyph unicode="e" horiz-adv-x="502" d="M434 261l-15 -15h-301q1 -106 46.5 -163t120.5 -57q69 0 136 47l4 -36q-61 -47 -146 -47q-93 0 -148.5 67t-55.5 185q0 125 59.5 194t143.5 69q71 0 114 -49.5t43 -133.5q0 -41 -1 -61zM274 469q-61 0 -105 -49.5t-50 -143.5l273 7q1 12 1 36q0 69 -32 109.5t-87 40.5z " />
<glyph unicode="f" horiz-adv-x="296" d="M150 0h-40v462l-76 2v24l76 7q0 15 -1 37t-1.5 38t-0.5 24q0 76 35.5 118.5t104.5 42.5q57 0 104 -26l-12 -40q-43 30 -96 30q-52 0 -74 -32t-22 -96q0 -38 2 -96h136l5 -5l-2 -31l-138 3v-462z" />
<glyph unicode="g" horiz-adv-x="474" d="M123 84q0 43 33 76q-44 19 -69 60.5t-25 99.5q0 79 43 132t120 53q55 0 95 -30q45 30 106 30h7v-47h-93q46 -48 46 -127t-42.5 -132t-118.5 -53q-23 0 -39 4q-23 -25 -23 -58q0 -49 62 -54l81 -6q60 -4 99 -32t39 -85q0 -69 -58 -119.5t-160 -50.5q-89 0 -142.5 38.5 t-53.5 96.5q0 60 51 95l23 -11q-33 -37 -33 -76q0 -44 42 -76t116 -32q79 0 126.5 36t47.5 91q0 40 -27.5 63t-74.5 26l-73 5q-105 7 -105 83zM344 323q0 68 -31 107.5t-89 39.5q-59 0 -89.5 -37.5t-30.5 -106.5q0 -67 31.5 -106t90.5 -39q58 0 88 37.5t30 104.5z" />
<glyph unicode="h" d="M150 0h-40v598q0 91 -7 147l42 10l5 -5v-319q80 74 169 74q63 0 97 -36t34 -106v-363h-40v353q0 116 -100 116q-81 0 -160 -73v-396z" />
<glyph unicode="i" horiz-adv-x="260" d="M161 668q0 -19 -9.5 -33t-27.5 -14q-16 0 -25.5 12t-9.5 31t10.5 33t27.5 14q16 0 25 -12t9 -31zM110 0v348q0 91 -7 147l42 10l5 -5v-500h-40z" />
<glyph unicode="j" horiz-adv-x="260" d="M161 668q0 -19 -9.5 -33t-27.5 -14q-16 0 -25.5 12t-9.5 31t10.5 33t27.5 14q16 0 25 -12t9 -31zM33 -255l-12 25q89 54 89 170v408q0 63 -7 147l42 10l5 -5v-551q0 -148 -117 -204z" />
<glyph unicode="k" horiz-adv-x="493" d="M110 598q0 81 -7 147l42 10l5 -5v-471h94q84 111 166 226l25 -13l5 -5l-163 -218q91 -132 191 -269l-42 -10q-84 115 -179 256h-97v-246h-40v598z" />
<glyph unicode="l" horiz-adv-x="260" d="M150 0h-40v598q0 81 -7 147l42 10l5 -5v-750z" />
<glyph unicode="m" horiz-adv-x="841" d="M155 0h-40v350q0 79 -20 142l36 13q14 -31 22 -76q76 76 162 76q98 0 121 -81q79 81 167 81q62 0 95 -34t33 -98v-373h-40v363q0 106 -96 106q-75 0 -153 -76q1 -6 1 -20v-373h-40v363q0 106 -96 106q-75 0 -152 -75v-394z" />
<glyph unicode="n" horiz-adv-x="565" d="M155 0h-40v350q0 79 -20 142l36 13q14 -31 22 -76q79 76 171 76q63 0 97 -36t34 -106v-363h-40v353q0 116 -100 116q-80 0 -160 -75v-394z" />
<glyph unicode="o" horiz-adv-x="556" d="M481 251q0 -124 -60 -192.5t-148 -68.5t-143 68.5t-55 185.5q0 124 60 192.5t148 68.5t143 -68.5t55 -185.5zM118 248q0 -100 41.5 -161t115.5 -61q72 0 117.5 57.5t45.5 163.5q0 100 -41.5 161t-115.5 61q-72 0 -117.5 -57.5t-45.5 -163.5z" />
<glyph unicode="p" horiz-adv-x="563" d="M115 -250v600q0 79 -20 142l36 13q13 -29 19 -59q24 26 62 42.5t79 16.5q83 0 140 -66.5t57 -184.5q0 -116 -55.5 -190t-150.5 -74q-65 0 -127 34v-127q0 -75 7 -142l-42 -10zM285 469q-77 0 -130 -63v-346q64 -34 124 -34q79 0 122.5 60t43.5 164q0 106 -44.5 162.5 t-115.5 56.5z" />
<glyph unicode="q" horiz-adv-x="558" d="M408 -250v294q-54 -54 -136 -54q-88 0 -142.5 68t-54.5 189q0 124 67 191t175 67q45 0 95 -16l36 16v-603q0 -80 7 -147l-42 -10zM118 250q0 -102 41.5 -163t115.5 -61q81 0 133 57v371q-50 15 -94 15q-91 0 -143.5 -57t-52.5 -162z" />
<glyph unicode="r" horiz-adv-x="373" d="M155 0h-40v350q0 79 -20 142l36 13q14 -31 22 -76q82 76 153 76q28 0 47 -13l-15 -35q-18 8 -37 8q-67 0 -146 -73v-392z" />
<glyph unicode="s" horiz-adv-x="435" d="M356 473l-8 -41q-57 37 -115 37q-55 0 -87 -25.5t-32 -65.5q0 -35 26.5 -61t64 -43t75 -35t64 -48t26.5 -71q0 -57 -46.5 -93.5t-120.5 -36.5q-75 0 -138 32l8 41q60 -37 135 -37q56 0 87.5 25t31.5 64q0 34 -26.5 59t-64 41.5t-75 34.5t-64 48.5t-26.5 72.5 q0 59 45.5 96.5t119.5 37.5q60 0 120 -32z" />
<glyph unicode="t" horiz-adv-x="341" d="M288 462h-138v-311q0 -68 20 -96.5t61 -28.5q43 0 81 25l9 -33q-44 -28 -98 -28q-57 0 -85 36t-28 115v321h-76v26l76 7l9 112l29 4l5 -5l-3 -111h135l5 -5z" />
<glyph unicode="u" horiz-adv-x="553" d="M110 348q0 69 -5 147l40 10l5 -5v-368q0 -106 96 -106q73 0 152 77v392l40 10v-360q0 -79 20 -142l-36 -13q-14 31 -22 76q-76 -76 -162 -76q-62 0 -95 34t-33 98v226z" />
<glyph unicode="v" horiz-adv-x="457" d="M427 495l-188 -500h-19l-190 506l40 4l87 -233q62 -164 72 -221h1q12 56 74 221l87 233l31 -5z" />
<glyph unicode="w" horiz-adv-x="740" d="M203 -5l-173 506l40 4l78 -229q42 -124 66 -224h1q19 86 64 216l81 237h24l77 -226q59 -172 67 -226h1q12 62 66 221l79 231l31 -5l5 -5l-171 -500h-21l-89 258q-48 138 -58 194h-1q-9 -55 -56 -192l-89 -260h-22z" />
<glyph unicode="x" horiz-adv-x="461" d="M377 0l-148 223l-148 -223h-40l-1 5l163 243l-163 247l39 10l153 -233l150 233l38 -5l1 -5l-164 -248l164 -247h-44z" />
<glyph unicode="y" horiz-adv-x="447" d="M427 495l-188 -500q-37 -100 -93 -168t-123 -82l-8 47q61 11 108.5 65t86.5 161v1l-180 482l40 4l87 -233q62 -164 72 -221h1q12 56 74 221l87 233l31 -5z" />
<glyph unicode="z" horiz-adv-x="425" d="M38 458l3 37h340l4 -25l-305 -438l162 3q124 3 148 4l-3 -39h-348l-4 25l305 438z" />
<glyph unicode="{" horiz-adv-x="289" d="M152 129q0 121 -102 136v30q53 8 77.5 42t24.5 97q0 44 -15.5 108t-15.5 99q0 64 34 89t111 25l3 -30q-58 0 -84 -20t-26 -63q0 -28 17.5 -106.5t17.5 -116.5q0 -57 -26 -93t-66 -46q38 -10 65 -46t27 -90q0 -35 -17.5 -116t-17.5 -110q0 -43 26 -63t84 -20l-3 -30 q-77 0 -111 25t-34 88q0 35 15.5 103t15.5 108z" />
<glyph unicode="|" horiz-adv-x="320" d="M147 -255l-7 7v1000l33 3l7 -7v-1000z" />
<glyph unicode="}" horiz-adv-x="289" d="M239 265l-102 -136q0 -40 15.5 -108t15.5 -103q0 -63 -34 -88t-111 -25l-3 30q58 0 84 20t26 63q0 29 -17.5 110t-17.5 116q0 54 27 90t65 46q-40 10 -66 46t-26 93q0 38 17.5 116.5t17.5 106.5q0 43 -26 63t-84 20l3 30q77 0 111 -25t34 -89q0 -35 -15.5 -99t-15.5 -108 q0 -63 24.5 -97t77.5 -42v-30z" />
<glyph unicode="~" d="M407 227q-25 0 -135 38t-120 38q-18 0 -70 -75q-2 -3 -3.5 -4.5t-3 -4.5t-3.5 -5l-26 18q62 111 107 111q26 0 135.5 -38t119.5 -38q11 0 27 17.5t44 55.5q2 3 3.5 5t3.5 5t4 5l24 -17q-62 -111 -107 -111z" />
<glyph unicode="&#xa1;" horiz-adv-x="257" d="M96 458q0 19 9.5 33t27.5 14q16 0 25.5 -12t9.5 -31t-10.5 -33t-27.5 -14q-16 0 -25 12t-9 31zM117 305h31q2 -93 3.5 -210.5t2.5 -183t2 -101.5l-42 -10l-5 5q2 179 8 500z" />
<glyph unicode="&#xa2;" horiz-adv-x="491" d="M281 -140l-8 8v125q-90 7 -144 77.5t-54 190.5q0 121 55 196.5t143 85.5v134l22 3l8 -8v-127q77 -2 127 -35l-8 -40q-46 38 -117 38q-86 0 -137 -65t-51 -176q0 -109 49 -173.5t133 -64.5q74 0 132 44l5 -36q-49 -41 -133 -45v-129z" />
<glyph unicode="&#xa3;" horiz-adv-x="500" d="M456 -127q-18 -10 -57 -10q-46 0 -100.5 23t-123 61.5t-101.5 53.5q-20 -12 -44 -12q-40 0 -40 27q0 28 37 28q13 0 39 -7q24 22 37.5 69.5t30.5 145.5l8 46l-110 2l5 27l111 7q30 175 47 227q36 111 112 129q17 4 36 4q61 0 98 -26l-19 -47q-36 37 -83 37 q-63 0 -91 -65.5t-60 -258.5h182l4 -5l-9 -31h-182l-11 -59q-9 -48 -14.5 -74.5t-21.5 -71.5t-37 -69q20 -9 90.5 -44.5t122.5 -54t95 -18.5q45 0 68 14z" />
<glyph unicode="&#xa4;" horiz-adv-x="591" d="M492 48l-87 89q-48 -43 -119 -43q-64 0 -109 34l-79 -77l-23 23l77 77q-40 48 -40 114q0 73 45 123l-79 81l21 21q53 -53 81 -80q46 36 110 36q69 0 117 -41l84 85l23 -23l-85 -86q35 -46 35 -107q0 -64 -36 -112q8 -8 30 -30.5t39 -40t19 -20.5v-4zM288 414 q-64 0 -101 -42t-37 -101t37.5 -102t104.5 -43q66 0 100 41.5t34 101.5q0 64 -38.5 104.5t-99.5 40.5z" />
<glyph unicode="&#xa5;" horiz-adv-x="552" d="M76 134v33h179v100h-179v33h179l-225 391l44 4l136 -237q47 -82 67 -124h1q10 20 70 126l133 235l36 -5l5 -5l-223 -385h177v-33h-179v-100h179v-33h-179v-134h-42v134h-179z" />
<glyph unicode="&#xa6;" horiz-adv-x="320" d="M180 377l-23 -3l-17 7v371l33 3l7 -7v-371zM180 -252l-23 -3l-17 7v371l33 3l7 -7v-371z" />
<glyph unicode="&#xa7;" horiz-adv-x="541" d="M338 629q-53 0 -82.5 -28.5t-29.5 -79.5q0 -45 26 -91.5t62.5 -87.5t73 -84t62.5 -97.5t26 -112.5q0 -102 -74.5 -160t-191.5 -58q-74 0 -120 23l10 69q38 -26 92 -26q58 0 91 30t33 84q0 45 -26 90t-63 85.5t-73.5 82.5t-62.5 96.5t-26 111.5q0 99 71 159t184 60 q73 0 119 -23l-10 -69q-38 26 -91 26zM205 -138q64 0 111 17.5t71 46t35 59t11 63.5q0 51 -26 101.5t-63 92t-73.5 82.5t-62.5 88t-26 93q0 58 37 104.5t117 49.5v4q-64 0 -111 -17t-71 -46t-35 -59.5t-11 -63.5q0 -52 26 -102.5t63 -91.5t73.5 -81.5t62.5 -87.5t26 -93 q0 -59 -37 -105.5t-117 -49.5v-4z" />
<glyph unicode="&#xa8;" horiz-adv-x="360" d="M120 665q0 -20 -9 -34.5t-27 -14.5q-15 0 -24.5 12t-9.5 30q0 19 10.5 33.5t26.5 14.5q15 0 24 -11.5t9 -29.5zM308 665q0 -20 -9 -34.5t-27 -14.5q-15 0 -24.5 12t-9.5 30q0 19 10.5 33.5t26.5 14.5q15 0 24 -11.5t9 -29.5z" />
<glyph unicode="&#xa9;" horiz-adv-x="692" d="M346 -36q-122 0 -204 82t-82 204q0 118 84 202t202 84q121 0 203.5 -83.5t82.5 -202.5q0 -118 -84 -202t-202 -84zM346 0q103 0 176.5 73.5t73.5 176.5q0 104 -73 177t-177 73q-103 0 -176.5 -73.5t-73.5 -176.5q0 -106 72 -178t178 -72zM444 391l-10 -34q-31 20 -70 20 q-50 0 -81 -33t-31 -86q0 -59 27.5 -93t77.5 -34q44 0 82 25l5 -31q-38 -25 -89 -25q-63 0 -101 40t-38 113q0 68 42 111.5t108 43.5q46 0 78 -17z" />
<glyph unicode="&#xaa;" horiz-adv-x="415" d="M320 405q0 -65 20 -115l-33 -8q-11 25 -18 54q-18 -22 -53 -38t-75 -16q-49 0 -76.5 25.5t-27.5 65.5q0 62 65.5 95.5t164.5 41.5v58q0 85 -91 85q-66 0 -125 -38l-2 34q64 35 132 35q58 0 89 -28t31 -76q0 -30 -0.5 -96t-0.5 -79zM93 377q0 -27 18.5 -46t53.5 -19 q32 0 66 16t56 39v116q-85 -6 -139.5 -32.5t-54.5 -73.5z" />
<glyph unicode="&#xab;" horiz-adv-x="435" d="M60 287v12q62 57 167 197l12 -8q-49 -103 -123 -195q74 -92 123 -195l-12 -8q-105 140 -167 197zM216 287v12q62 57 167 197l12 -8q-49 -103 -123 -195q74 -92 123 -195l-12 -8q-105 140 -167 197z" />
<glyph unicode="&#xac;" d="M490 305l-1 -209h-40v177h-395v35q162 5 428 5z" />
<glyph unicode="&#xae;" horiz-adv-x="692" d="M343 -36q-119 0 -201 82.5t-82 201.5q0 120 84 204t204 84q119 0 201.5 -83.5t82.5 -201.5q0 -119 -84.5 -203t-204.5 -84zM344 0q105 0 178.5 73.5t73.5 176.5q0 104 -73 177t-177 73q-103 0 -176.5 -73.5t-73.5 -178.5q0 -104 72 -176t176 -72zM289 92h-32v229 q0 64 -6 100h91q53 0 84.5 -27.5t31.5 -76.5q0 -39 -22.5 -63t-53.5 -31l71 -131l-35 -5q-8 15 -19.5 37.5t-25 51t-19.5 39.5h-65v-123zM349 390h-60v-144h60q34 0 53.5 18t19.5 51t-20 54t-53 21z" />
<glyph unicode="&#xaf;" horiz-adv-x="324" d="M50 646v34h264v-34h-264z" />
<glyph unicode="&#xb0;" horiz-adv-x="331" d="M162 310q-48 0 -80 31t-32 82t35.5 86.5t84.5 35.5q48 0 79.5 -31t31.5 -81q0 -51 -35.5 -87t-83.5 -36zM166 510q-35 0 -56.5 -24.5t-21.5 -60.5q0 -35 21.5 -57.5t55.5 -22.5q35 0 56.5 24.5t21.5 61.5q0 34 -21 56.5t-56 22.5z" />
<glyph unicode="&#xb1;" d="M487 421h-184v-166h-40l-1 166h-189v35q129 3 189 3l-1 166h42v-165q71 1 183 1l5 -5zM503 98h-450v35q170 5 449 5l5 -5z" />
<glyph unicode="&#xb2;" horiz-adv-x="359" d="M40 352l-5 33q128 101 165 140q64 67 64 123q0 41 -28 64.5t-72 23.5q-66 0 -125 -45l-4 31q52 44 137 44q56 0 94 -30.5t38 -81.5q0 -27 -14 -56.5t-29 -50t-51.5 -53.5t-52 -45.5t-59.5 -46.5q-16 -12 -23 -18h137q54 0 104 6l-6 -38h-270z" />
<glyph unicode="&#xb3;" horiz-adv-x="346" d="M49 733q49 33 120 33q50 0 83.5 -24t33.5 -64q0 -36 -30 -66.5t-88 -48.5q63 -4 100.5 -29.5t37.5 -72.5q0 -52 -44 -84.5t-117 -32.5q-53 0 -105 14l4 29q51 -14 101 -14q54 0 87.5 23.5t33.5 62.5q0 41 -36.5 60t-92.5 19q-25 0 -44 -4v29q76 15 114.5 44.5t38.5 65.5 q0 29 -23 46t-62 17q-56 0 -108 -32z" />
<glyph unicode="&#xb4;" horiz-adv-x="237" d="M167 736l3 -8q-58 -86 -162 -151l-10 13q91 93 130 162z" />
<glyph unicode="&#xb6;" horiz-adv-x="602" d="M243 -131q177 0 177 227v554h-74v-420h-31q-96 0 -160.5 61.5t-64.5 168.5t65.5 166t164.5 59h142v-600q0 -123 -54.5 -189.5t-155.5 -66.5q-74 0 -148 26l4 40q75 -26 135 -26z" />
<glyph unicode="&#xb7;" horiz-adv-x="284" d="M184 287q0 -20 -13 -33.5t-30 -13.5q-16 0 -28.5 12t-12.5 31t13 33t31 14q17 0 28.5 -12t11.5 -31z" />
<glyph unicode="&#xb8;" horiz-adv-x="300" d="M220 -123q0 -35 -35.5 -58.5t-88.5 -30.5l-6 22q88 21 88 59q0 34 -62 40l-7 11l26 81l30 -1l-20 -62q34 -5 54.5 -20.5t20.5 -40.5z" />
<glyph unicode="&#xb9;" horiz-adv-x="227" d="M100 722h-1l-77 -17l-7 22l118 39l4 -4v-410h-38v283q0 63 1 87z" />
<glyph unicode="&#xba;" horiz-adv-x="472" d="M403 486q0 -97 -49.5 -150.5t-121.5 -53.5q-73 0 -118 53.5t-45 144.5q0 97 49.5 150.5t121.5 53.5q73 0 118 -53.5t45 -144.5zM105 484q0 -78 34 -125t95 -47q59 0 96 44.5t37 126.5q0 77 -34 124t-94 47q-59 0 -96.5 -44.5t-37.5 -125.5z" />
<glyph unicode="&#xbb;" horiz-adv-x="435" d="M375 287q-62 -57 -167 -197l-12 8q49 103 123 195q-74 92 -123 195l12 8q105 -140 167 -197v-12zM219 287q-62 -57 -167 -197l-12 8q49 103 123 195q-74 92 -123 195l12 8q105 -140 167 -197v-12z" />
<glyph unicode="&#xbc;" horiz-adv-x="824" d="M130 662h-1l-77 -17l-7 22l118 39l4 -4v-410h-38v283q0 63 1 87zM606 700l-425 -710h-39l424 710h40zM443 132l190 266l40 6l4 -4v-266q46 2 67 5l-7 -36h-60v-113h-37v113h-191zM478 133v-1q49 1 142 1h20h1v133q0 69 1 97h-1z" />
<glyph unicode="&#xbd;" horiz-adv-x="861" d="M130 662h-1l-77 -17l-7 22l118 39l4 -4v-410h-38v283q0 63 1 87zM606 700l-425 -710h-39l424 710h40zM512 -10l-5 33q128 101 165 140q63 68 64 123q0 41 -28 64.5t-72 23.5q-66 0 -125 -45l-4 31q52 44 137 44q56 0 94 -30.5t38 -81.5q0 -27 -14 -56.5t-29 -50 t-51.5 -53.5t-52 -45.5t-59.5 -46.5q-5 -4 -8 -6.5t-7.5 -5.5t-7.5 -6h137q54 0 104 6l-6 -38h-270z" />
<glyph unicode="&#xbe;" horiz-adv-x="920" d="M79 673q49 33 120 33q50 0 83.5 -24t33.5 -64q0 -36 -30 -66.5t-88 -48.5q63 -4 100.5 -29.5t37.5 -72.5q0 -52 -44 -84.5t-117 -32.5q-53 0 -105 14l4 29q51 -14 101 -14q54 0 87.5 23.5t33.5 62.5q0 41 -36.5 60t-92.5 19q-25 0 -44 -4v29q76 15 114.5 44.5t38.5 65.5 q0 29 -23 46t-62 17q-56 0 -108 -32zM702 700l-425 -710h-39l424 710h40zM539 132l190 266l40 6l4 -4v-266q46 2 67 5l-7 -36h-60v-113h-37v113h-191zM574 133v-1q49 1 142 1h20h1v133q0 69 1 97h-1z" />
<glyph unicode="&#xbf;" horiz-adv-x="401" d="M187 458q0 19 9.5 33t27.5 14q16 0 25.5 -12t9.5 -31t-10.5 -33t-27.5 -14q-16 0 -25 12t-9 31zM216 286h28q6 -18 6 -40q0 -26 -18.5 -51.5t-45.5 -47.5t-54 -46t-45.5 -59t-18.5 -75q0 -58 35.5 -94.5t94.5 -36.5q44 0 88.5 22.5t74.5 68.5l25 -21q-31 -50 -83 -78 t-110 -28q-76 0 -122 43.5t-46 116.5q0 45 19.5 84.5t46.5 67t54.5 50.5t47 45.5t19.5 42.5q0 14 -4 28z" />
<glyph unicode="&#xc0;" horiz-adv-x="599" d="M409 779q-129 20 -224 78l-1 8l30 31q73 -53 202 -100zM71 0h-41l218 592q30 83 35 100l27 3l5 -5l254 -690h-44l-82 222h-290zM232 437l-66 -179h264l-66 179q-52 143 -65 200h-1q-13 -56 -66 -200z" />
<glyph unicode="&#xc1;" horiz-adv-x="599" d="M416 865l-1 -8q-95 -58 -224 -78l-7 17q129 47 202 100zM71 0h-41l218 592q30 83 35 100l27 3l5 -5l254 -690h-44l-82 222h-290zM232 437l-66 -179h264l-66 179q-52 143 -65 200h-1q-13 -56 -66 -200z" />
<glyph unicode="&#xc2;" horiz-adv-x="599" d="M172 770l-13 13q61 54 113 118l43 5q54 -63 125 -123l-13 -13q-72 47 -133 97q-63 -56 -122 -97zM71 0h-41l218 592q30 83 35 100l27 3l5 -5l254 -690h-44l-82 222h-290zM232 437l-66 -179h264l-66 179q-52 143 -65 200h-1q-13 -56 -66 -200z" />
<glyph unicode="&#xc3;" horiz-adv-x="599" d="M232 890q29 0 74 -28t67 -28q41 0 70 57l16 -3q-6 -37 -30 -64.5t-61 -27.5q-30 0 -74.5 28t-66.5 28q-41 0 -70 -57l-16 3q6 35 29.5 63.5t61.5 28.5zM71 0h-41l218 592q30 83 35 100l27 3l5 -5l254 -690h-44l-82 222h-290zM232 437l-66 -179h264l-66 179 q-52 143 -65 200h-1q-13 -56 -66 -200z" />
<glyph unicode="&#xc4;" horiz-adv-x="599" d="M433 839q0 -19 -10 -33t-29 -14q-17 0 -27 11.5t-10 28.5q0 18 11.5 31.5t28.5 13.5t26.5 -10.5t9.5 -27.5zM243 839q0 -19 -10 -33t-29 -14q-17 0 -27 11.5t-10 28.5q0 18 11.5 31.5t28.5 13.5t26.5 -10.5t9.5 -27.5zM71 0h-41l218 592q30 83 35 100l27 3l5 -5l254 -690 h-44l-82 222h-290zM232 437l-66 -179h264l-66 179q-52 143 -65 200h-1q-13 -56 -66 -200z" />
<glyph unicode="&#xc5;" horiz-adv-x="599" d="M378 837q0 -32 -23.5 -54.5t-57.5 -22.5q-29 0 -52 20t-23 49q0 32 24 54.5t58 22.5q32 0 53 -20t21 -49zM256 832q0 -20 12 -32.5t32 -12.5q19 0 31.5 13.5t12.5 33.5t-11.5 32.5t-31.5 12.5t-32.5 -13.5t-12.5 -33.5zM71 0h-41l218 592q30 83 35 100l27 3l5 -5 l254 -690h-44l-82 222h-290zM232 437l-66 -179h264l-66 179q-52 143 -65 200h-1q-13 -56 -66 -200z" />
<glyph unicode="&#xc6;" horiz-adv-x="833" d="M71 0h-41l292 592q7 14 23.5 46t23.5 47h304l5 -5v-34l-268 4l44 -292l225 2v-39l-219 2l44 -288l284 4v-39h-323l-33 222h-253zM284 437l-87 -179h230l-26 179q-19 134 -22 200h-1q-17 -43 -94 -200z" />
<glyph unicode="&#xc7;" horiz-adv-x="598" d="M434 -123q0 -35 -35.5 -58.5t-88.5 -30.5l-6 22q88 21 88 59q0 34 -62 40l-7 11l22 70q-119 2 -192 92.5t-73 249.5q0 167 78.5 265t202.5 98q103 0 170 -45l-9 -42q-61 49 -158 49q-105 0 -172 -84t-67 -235q0 -138 61.5 -224t172.5 -86q96 0 173 58l6 -38 q-62 -50 -162 -57l-17 -53q34 -5 54.5 -20.5t20.5 -40.5z" />
<glyph unicode="&#xc8;" horiz-adv-x="510" d="M391 779q-129 20 -224 78l-1 8l30 31q73 -53 202 -100zM465 39v-39h-350v538q0 81 -7 147h342l5 -5v-34l-298 4v-292l256 2v-39l-256 2v-288z" />
<glyph unicode="&#xc9;" horiz-adv-x="510" d="M398 865l-1 -8q-95 -58 -224 -78l-7 17q129 47 202 100zM465 39v-39h-350v538q0 81 -7 147h342l5 -5v-34l-298 4v-292l256 2v-39l-256 2v-288z" />
<glyph unicode="&#xca;" horiz-adv-x="510" d="M154 770l-13 13q61 54 113 118l43 5q54 -63 125 -123l-13 -13q-72 47 -133 97q-63 -56 -122 -97zM465 39v-39h-350v538q0 81 -7 147h342l5 -5v-34l-298 4v-292l256 2v-39l-256 2v-288z" />
<glyph unicode="&#xcb;" horiz-adv-x="510" d="M415 839q0 -19 -10 -33t-29 -14q-17 0 -27 11.5t-10 28.5q0 18 11.5 31.5t28.5 13.5t26.5 -10.5t9.5 -27.5zM225 839q0 -19 -10 -33t-29 -14q-17 0 -27 11.5t-10 28.5q0 18 11.5 31.5t28.5 13.5t26.5 -10.5t9.5 -27.5zM465 39v-39h-350v538q0 81 -7 147h342l5 -5v-34 l-298 4v-292l256 2v-39l-256 2v-288z" />
<glyph unicode="&#xcc;" horiz-adv-x="272" d="M242 779q-129 20 -224 78l-1 8l30 31q73 -53 202 -100zM157 0h-42v538q0 81 -7 147l44 10l5 -5v-690z" />
<glyph unicode="&#xcd;" horiz-adv-x="272" d="M249 865l-1 -8q-95 -58 -224 -78l-7 17q129 47 202 100zM157 0h-42v538q0 81 -7 147l44 10l5 -5v-690z" />
<glyph unicode="&#xce;" horiz-adv-x="272" d="M5 770l-13 13q61 54 113 118l43 5q54 -63 125 -123l-13 -13q-72 47 -133 97q-63 -56 -122 -97zM157 0h-42v538q0 81 -7 147l44 10l5 -5v-690z" />
<glyph unicode="&#xcf;" horiz-adv-x="272" d="M266 839q0 -19 -10 -33t-29 -14q-17 0 -27 11.5t-10 28.5q0 18 11.5 31.5t28.5 13.5t26.5 -10.5t9.5 -27.5zM76 839q0 -19 -10 -33t-29 -14q-17 0 -27 11.5t-10 28.5q0 18 11.5 31.5t28.5 13.5t26.5 -10.5t9.5 -27.5zM157 0h-42v538q0 81 -7 147l44 10l5 -5v-690z" />
<glyph unicode="&#xd0;" horiz-adv-x="677" d="M597 344q0 -160 -92 -252t-245 -92h-145v328h-96v30h96v180q0 81 -7 147h162q139 0 233 -92.5t94 -248.5zM379 328h-222v-292h101q141 0 217.5 79.5t76.5 226.5q0 143 -79 225t-209 82h-107v-291h222v-30z" />
<glyph unicode="&#xd1;" horiz-adv-x="701" d="M279 890q29 0 74 -28t67 -28q42 0 70 57l16 -3q-6 -37 -30 -64.5t-61 -27.5q-30 0 -74.5 28t-66.5 28q-42 0 -70 -57l-16 3q6 35 29.5 63.5t61.5 28.5zM349 384q22 -35 58 -92t54.5 -86.5t42.5 -72.5t43 -82h1q-4 108 -4 487q0 81 -7 147l44 10l5 -5v-690h-45 q-33 52 -98 155.5t-97 155.5q-16 25 -46.5 73.5t-43.5 70t-34 56t-36.5 63.5t-31.5 60h-1q4 -88 4 -252v-382h-42v538q0 81 -7 147l46 10q109 -172 195 -311z" />
<glyph unicode="&#xd2;" horiz-adv-x="694" d="M463 779q-129 20 -224 78l-1 8l30 31q73 -53 202 -100zM614 344q0 -167 -78 -260.5t-194 -93.5q-114 0 -188 91t-74 251q0 165 78.5 264t195.5 99q114 0 187 -94.5t73 -256.5zM125 338q0 -142 60 -226t161 -84q100 0 161.5 82t61.5 231q0 143 -57.5 229.5t-157.5 86.5 t-164.5 -85.5t-64.5 -233.5z" />
<glyph unicode="&#xd3;" horiz-adv-x="694" d="M470 865l-1 -8q-95 -58 -224 -78l-7 17q129 47 202 100zM614 344q0 -167 -78 -260.5t-194 -93.5q-114 0 -188 91t-74 251q0 165 78.5 264t195.5 99q114 0 187 -94.5t73 -256.5zM125 338q0 -142 60 -226t161 -84q100 0 161.5 82t61.5 231q0 143 -57.5 229.5t-157.5 86.5 t-164.5 -85.5t-64.5 -233.5z" />
<glyph unicode="&#xd4;" horiz-adv-x="694" d="M226 770l-13 13q61 54 113 118l43 5q54 -63 125 -123l-13 -13q-72 47 -133 97q-63 -56 -122 -97zM614 344q0 -167 -78 -260.5t-194 -93.5q-114 0 -188 91t-74 251q0 165 78.5 264t195.5 99q114 0 187 -94.5t73 -256.5zM125 338q0 -142 60 -226t161 -84q100 0 161.5 82 t61.5 231q0 143 -57.5 229.5t-157.5 86.5t-164.5 -85.5t-64.5 -233.5z" />
<glyph unicode="&#xd5;" horiz-adv-x="694" d="M286 890q29 0 74 -28t67 -28q41 0 70 57l16 -3q-6 -37 -30 -64.5t-61 -27.5q-30 0 -74.5 28t-66.5 28q-41 0 -70 -57l-16 3q6 35 29.5 63.5t61.5 28.5zM614 344q0 -167 -78 -260.5t-194 -93.5q-114 0 -188 91t-74 251q0 165 78.5 264t195.5 99q114 0 187 -94.5t73 -256.5 zM125 338q0 -142 60 -226t161 -84q100 0 161.5 82t61.5 231q0 143 -57.5 229.5t-157.5 86.5t-164.5 -85.5t-64.5 -233.5z" />
<glyph unicode="&#xd6;" horiz-adv-x="694" d="M487 839q0 -19 -10 -33t-29 -14q-17 0 -27 11.5t-10 28.5q0 18 11.5 31.5t28.5 13.5t26.5 -10.5t9.5 -27.5zM297 839q0 -19 -10 -33t-29 -14q-17 0 -27 11.5t-10 28.5q0 18 11.5 31.5t28.5 13.5t26.5 -10.5t9.5 -27.5zM614 344q0 -167 -78 -260.5t-194 -93.5 q-114 0 -188 91t-74 251q0 165 78.5 264t195.5 99q114 0 187 -94.5t73 -256.5zM125 338q0 -142 60 -226t161 -84q100 0 161.5 82t61.5 231q0 143 -57.5 229.5t-157.5 86.5t-164.5 -85.5t-64.5 -233.5z" />
<glyph unicode="&#xd7;" d="M449 154l-168 167l-168 -168l-24 25l167 168l-168 167l26 25l167 -167l167 168l25 -26l-167 -167l165 -165l-1 -7z" />
<glyph unicode="&#xd8;" horiz-adv-x="694" d="M614 344q0 -167 -78 -260.5t-194 -93.5q-122 0 -194 99l-78 -89l-25 22l84 96q-49 87 -49 214q0 165 78.5 264t195.5 99t190 -99l78 90l26 -21l-85 -98q51 -91 51 -223zM125 338q0 -108 35 -183l356 409q-58 93 -162 93q-100 0 -164.5 -85.5t-64.5 -233.5zM569 341 q0 111 -36 191l-356 -409q62 -95 169 -95q100 0 161.5 82t61.5 231z" />
<glyph unicode="&#xd9;" horiz-adv-x="644" d="M431 779q-129 20 -224 78l-1 8l30 31q73 -53 202 -100zM100 540q0 80 -10 147l52 8v-478q0 -89 51 -139t129 -50t129 49.5t51 139.5v323q0 80 -10 147l52 8v-475q0 -110 -64 -170t-163 -60q-94 0 -155.5 60t-61.5 170v320z" />
<glyph unicode="&#xda;" horiz-adv-x="644" d="M438 865l-1 -8q-95 -58 -224 -78l-7 17q129 47 202 100zM100 540q0 80 -10 147l52 8v-478q0 -89 51 -139t129 -50t129 49.5t51 139.5v323q0 80 -10 147l52 8v-475q0 -110 -64 -170t-163 -60q-94 0 -155.5 60t-61.5 170v320z" />
<glyph unicode="&#xdb;" horiz-adv-x="644" d="M194 770l-13 13q61 54 113 118l43 5q54 -63 125 -123l-13 -13q-72 47 -133 97q-63 -56 -122 -97zM100 540q0 80 -10 147l52 8v-478q0 -89 51 -139t129 -50t129 49.5t51 139.5v323q0 80 -10 147l52 8v-475q0 -110 -64 -170t-163 -60q-94 0 -155.5 60t-61.5 170v320z" />
<glyph unicode="&#xdc;" horiz-adv-x="644" d="M455 839q0 -19 -10 -33t-29 -14q-17 0 -27 11.5t-10 28.5q0 18 11.5 31.5t28.5 13.5t26.5 -10.5t9.5 -27.5zM265 839q0 -19 -10 -33t-29 -14q-17 0 -27 11.5t-10 28.5q0 18 11.5 31.5t28.5 13.5t26.5 -10.5t9.5 -27.5zM100 540q0 80 -10 147l52 8v-478q0 -89 51 -139 t129 -50t129 49.5t51 139.5v323q0 80 -10 147l52 8v-475q0 -110 -64 -170t-163 -60q-94 0 -155.5 60t-61.5 170v320z" />
<glyph unicode="&#xdd;" horiz-adv-x="552" d="M392 865l-1 -8q-95 -58 -224 -78l-7 17q129 47 202 100zM255 256l-225 435l44 4l136 -260q47 -86 67 -138h1q35 76 70 140l133 258l36 -5l5 -5l-225 -433v-252h-42v256z" />
<glyph unicode="&#xde;" horiz-adv-x="540" d="M157 0h-42v538q0 81 -7 147h49v-123h106q106 0 169 -56t63 -152q0 -100 -68 -155t-179 -55h-91v-144zM261 527h-104v-348h100q91 0 142 45.5t51 129.5q0 79 -47 126t-142 47z" />
<glyph unicode="&#xdf;" horiz-adv-x="571" d="M110 462l-76 2v24l76 7v30q0 65 17 112.5t45 71.5t57 35t61 11q67 0 109.5 -39.5t42.5 -101.5q0 -61 -37 -107t-98 -67q83 -33 136 -102t53 -155q0 -87 -53 -140t-135 -53q-44 0 -92 17v36q45 -17 91 -17q68 0 107 43t39 112q0 83 -55.5 147t-141.5 92v36q65 19 104 57.5 t39 92.5q0 50 -31.5 81.5t-81.5 31.5q-24 0 -45.5 -8t-43 -27.5t-34.5 -59.5t-13 -96v-528h-40v462z" />
<glyph unicode="&#xe0;" horiz-adv-x="496" d="M308 580q-104 65 -162 151l3 8l39 16q39 -69 130 -162zM385 148q0 -81 25 -148l-40 -10q-16 34 -22 70q-23 -28 -65 -49t-91 -21q-60 0 -93.5 33t-33.5 83q0 80 80.5 123.5t199.5 51.5v78q0 110 -111 110q-78 0 -152 -49l-3 40q80 45 161 45q70 0 108 -36t38 -95 q0 -38 -0.5 -124t-0.5 -102zM108 110q0 -35 22.5 -59.5t65.5 -24.5q39 0 81 21t68 51v149q-103 -7 -170 -42t-67 -95z" />
<glyph unicode="&#xe1;" horiz-adv-x="496" d="M315 736l3 -8q-58 -86 -162 -151l-10 13q91 93 130 162zM385 148q0 -81 25 -148l-40 -10q-16 34 -22 70q-23 -28 -65 -49t-91 -21q-60 0 -93.5 33t-33.5 83q0 80 80.5 123.5t199.5 51.5v78q0 110 -111 110q-78 0 -152 -49l-3 40q80 45 161 45q70 0 108 -36t38 -95 q0 -38 -0.5 -124t-0.5 -102zM108 110q0 -35 22.5 -59.5t65.5 -24.5q39 0 81 21t68 51v149q-103 -7 -170 -42t-67 -95z" />
<glyph unicode="&#xe2;" horiz-adv-x="496" d="M117 579l-13 11q62 85 100 154l43 5q47 -78 112 -159l-13 -11q-48 45 -120 126q-56 -69 -109 -126zM385 148q0 -81 25 -148l-40 -10q-16 34 -22 70q-23 -28 -65 -49t-91 -21q-60 0 -93.5 33t-33.5 83q0 80 80.5 123.5t199.5 51.5v78q0 110 -111 110q-78 0 -152 -49l-3 40 q80 45 161 45q70 0 108 -36t38 -95q0 -38 -0.5 -124t-0.5 -102zM108 110q0 -35 22.5 -59.5t65.5 -24.5q39 0 81 21t68 51v149q-103 -7 -170 -42t-67 -95z" />
<glyph unicode="&#xe3;" horiz-adv-x="496" d="M166 710q26 0 68 -28t61 -28q35 0 63 57l16 -3q-7 -36 -29 -64t-55 -28q-27 0 -68.5 28t-60.5 28q-35 0 -63 -57l-16 3q8 36 29.5 64t54.5 28zM385 148q0 -81 25 -148l-40 -10q-16 34 -22 70q-23 -28 -65 -49t-91 -21q-60 0 -93.5 33t-33.5 83q0 80 80.5 123.5 t199.5 51.5v78q0 110 -111 110q-78 0 -152 -49l-3 40q80 45 161 45q70 0 108 -36t38 -95q0 -38 -0.5 -124t-0.5 -102zM108 110q0 -35 22.5 -59.5t65.5 -24.5q39 0 81 21t68 51v149q-103 -7 -170 -42t-67 -95z" />
<glyph unicode="&#xe4;" horiz-adv-x="496" d="M173 667q0 -20 -9 -34.5t-27 -14.5q-15 0 -24.5 12t-9.5 30q0 19 10.5 33.5t26.5 14.5q15 0 24 -11.5t9 -29.5zM361 667q0 -20 -9 -34.5t-27 -14.5q-15 0 -24.5 12t-9.5 30q0 19 10.5 33.5t26.5 14.5q15 0 24 -11.5t9 -29.5zM385 148q0 -81 25 -148l-40 -10 q-16 34 -22 70q-23 -28 -65 -49t-91 -21q-60 0 -93.5 33t-33.5 83q0 80 80.5 123.5t199.5 51.5v78q0 110 -111 110q-78 0 -152 -49l-3 40q80 45 161 45q70 0 108 -36t38 -95q0 -38 -0.5 -124t-0.5 -102zM108 110q0 -35 22.5 -59.5t65.5 -24.5q39 0 81 21t68 51v149 q-103 -7 -170 -42t-67 -95z" />
<glyph unicode="&#xe5;" horiz-adv-x="496" d="M310 651q0 -32 -23.5 -54.5t-57.5 -22.5q-29 0 -52 20t-23 49q0 32 24 54.5t58 22.5q32 0 53 -20t21 -49zM188 646q0 -20 12 -32.5t32 -12.5q19 0 31.5 13.5t12.5 33.5t-11.5 32.5t-31.5 12.5t-32.5 -13.5t-12.5 -33.5zM385 148q0 -81 25 -148l-40 -10q-16 34 -22 70 q-23 -28 -65 -49t-91 -21q-60 0 -93.5 33t-33.5 83q0 80 80.5 123.5t199.5 51.5v78q0 110 -111 110q-78 0 -152 -49l-3 40q80 45 161 45q70 0 108 -36t38 -95q0 -38 -0.5 -124t-0.5 -102zM108 110q0 -35 22.5 -59.5t65.5 -24.5q39 0 81 21t68 51v149q-103 -7 -170 -42 t-67 -95z" />
<glyph unicode="&#xe6;" horiz-adv-x="772" d="M704 261l-15 -15h-301q1 -106 46.5 -163t120.5 -57q69 0 136 47l4 -36q-61 -47 -146 -47q-120 0 -174 106q-27 -43 -79 -74.5t-108 -31.5q-57 0 -90 33.5t-33 83.5q0 54 41.5 93t102 57.5t136.5 23.5v78q0 110 -111 110q-78 0 -152 -49l-3 40q80 45 161 45q61 0 97.5 -27 t45.5 -73q57 100 165 100q71 0 114 -49.5t43 -133.5q0 -41 -1 -61zM544 469q-61 0 -105 -49.5t-50 -143.5l273 7q1 12 1 36q0 69 -32 109.5t-87 40.5zM108 110q0 -35 22.5 -59.5t65.5 -24.5q49 0 97 29t71 69q-19 48 -19 118v5q-103 -7 -170 -42t-67 -95z" />
<glyph unicode="&#xe7;" horiz-adv-x="475" d="M354 -123q0 -35 -35.5 -58.5t-88.5 -30.5l-6 22q88 21 88 59q0 34 -62 40l-7 11l23 71q-87 5 -139 70.5t-52 181.5q0 126 60 194t160 68q71 0 125 -30l-12 -40q-50 34 -116 34q-80 0 -127 -56.5t-47 -163.5q0 -103 43.5 -163t122.5 -60q71 0 131 41l5 -36 q-52 -36 -124 -41l-17 -52q34 -5 54.5 -20.5t20.5 -40.5z" />
<glyph unicode="&#xe8;" horiz-adv-x="502" d="M345 580q-104 65 -162 151l3 8l39 16q39 -69 130 -162zM434 261l-15 -15h-301q1 -106 46.5 -163t120.5 -57q69 0 136 47l4 -36q-61 -47 -146 -47q-93 0 -148.5 67t-55.5 185q0 125 59.5 194t143.5 69q71 0 114 -49.5t43 -133.5q0 -41 -1 -61zM274 469q-61 0 -105 -49.5 t-50 -143.5l273 7q1 12 1 36q0 69 -32 109.5t-87 40.5z" />
<glyph unicode="&#xe9;" horiz-adv-x="502" d="M352 736l3 -8q-58 -86 -162 -151l-10 13q91 93 130 162zM434 261l-15 -15h-301q1 -106 46.5 -163t120.5 -57q69 0 136 47l4 -36q-61 -47 -146 -47q-93 0 -148.5 67t-55.5 185q0 125 59.5 194t143.5 69q71 0 114 -49.5t43 -133.5q0 -41 -1 -61zM274 469q-61 0 -105 -49.5 t-50 -143.5l273 7q1 12 1 36q0 69 -32 109.5t-87 40.5z" />
<glyph unicode="&#xea;" horiz-adv-x="502" d="M154 579l-13 11q62 85 100 154l43 5q47 -78 112 -159l-13 -11q-48 45 -120 126q-56 -69 -109 -126zM434 261l-15 -15h-301q1 -106 46.5 -163t120.5 -57q69 0 136 47l4 -36q-61 -47 -146 -47q-93 0 -148.5 67t-55.5 185q0 125 59.5 194t143.5 69q71 0 114 -49.5t43 -133.5 q0 -41 -1 -61zM274 469q-61 0 -105 -49.5t-50 -143.5l273 7q1 12 1 36q0 69 -32 109.5t-87 40.5z" />
<glyph unicode="&#xeb;" horiz-adv-x="502" d="M210 667q0 -20 -9 -34.5t-27 -14.5q-15 0 -24.5 12t-9.5 30q0 19 10.5 33.5t26.5 14.5q15 0 24 -11.5t9 -29.5zM398 667q0 -20 -9 -34.5t-27 -14.5q-15 0 -24.5 12t-9.5 30q0 19 10.5 33.5t26.5 14.5q15 0 24 -11.5t9 -29.5zM434 261l-15 -15h-301q1 -106 46.5 -163 t120.5 -57q69 0 136 47l4 -36q-61 -47 -146 -47q-93 0 -148.5 67t-55.5 185q0 125 59.5 194t143.5 69q71 0 114 -49.5t43 -133.5q0 -41 -1 -61zM274 469q-61 0 -105 -49.5t-50 -143.5l273 7q1 12 1 36q0 69 -32 109.5t-87 40.5z" />
<glyph unicode="&#xec;" horiz-adv-x="260" d="M201 580q-104 65 -162 151l3 8l39 16q39 -69 130 -162zM110 0v348q0 91 -7 147l42 10l5 -5v-500h-40z" />
<glyph unicode="&#xed;" horiz-adv-x="260" d="M208 736l3 -8q-58 -86 -162 -151l-10 13q91 93 130 162zM110 0v348q0 91 -7 147l42 10l5 -5v-500h-40z" />
<glyph unicode="&#xee;" horiz-adv-x="260" d="M37 586l-10 10q47 96 70 154l43 5q33 -70 82 -159l-10 -10q-46 55 -93 121q-48 -78 -82 -121zM110 0v348q0 91 -7 147l42 10l5 -5v-500h-40z" />
<glyph unicode="&#xef;" horiz-adv-x="260" d="M92 670q0 -20 -9 -34.5t-27 -14.5q-15 0 -24.5 12t-9.5 30q0 19 10.5 33.5t26.5 14.5q15 0 24 -11.5t9 -29.5zM228 670q0 -20 -9 -34.5t-27 -14.5q-15 0 -24.5 12t-9.5 30q0 19 10.5 33.5t26.5 14.5q15 0 24 -11.5t9 -29.5zM110 0v348q0 91 -7 147l42 10l5 -5v-500h-40z " />
<glyph unicode="&#xf0;" horiz-adv-x="566" d="M288 -10q-88 0 -143 68.5t-55 185.5q0 124 60 192.5t148 68.5q84 0 136 -60q-33 100 -113 183l-142 -82l-18 29l135 77q-50 44 -107 76l18 27q70 -33 124 -83l129 74l17 -28l-121 -70q140 -146 140 -387q0 -132 -59.5 -201.5t-148.5 -69.5zM296 469q-72 0 -117.5 -57.5 t-45.5 -163.5q0 -100 41.5 -161t115.5 -61q72 0 117.5 57.5t45.5 163.5q0 100 -41.5 161t-115.5 61z" />
<glyph unicode="&#xf1;" horiz-adv-x="565" d="M209 710q26 0 68 -28t61 -28q34 0 63 57l16 -3q-7 -36 -29 -64t-55 -28q-27 0 -68.5 28t-60.5 28q-34 0 -63 -57l-16 3q8 36 29.5 64t54.5 28zM155 0h-40v350q0 79 -20 142l36 13q14 -31 22 -76q79 76 171 76q63 0 97 -36t34 -106v-363h-40v353q0 116 -100 116 q-80 0 -160 -75v-394z" />
<glyph unicode="&#xf2;" horiz-adv-x="556" d="M354 580q-104 65 -162 151l3 8l39 16q39 -69 130 -162zM481 251q0 -124 -60 -192.5t-148 -68.5t-143 68.5t-55 185.5q0 124 60 192.5t148 68.5t143 -68.5t55 -185.5zM118 248q0 -100 41.5 -161t115.5 -61q72 0 117.5 57.5t45.5 163.5q0 100 -41.5 161t-115.5 61 q-72 0 -117.5 -57.5t-45.5 -163.5z" />
<glyph unicode="&#xf3;" horiz-adv-x="556" d="M361 736l3 -8q-58 -86 -162 -151l-10 13q91 93 130 162zM481 251q0 -124 -60 -192.5t-148 -68.5t-143 68.5t-55 185.5q0 124 60 192.5t148 68.5t143 -68.5t55 -185.5zM118 248q0 -100 41.5 -161t115.5 -61q72 0 117.5 57.5t45.5 163.5q0 100 -41.5 161t-115.5 61 q-72 0 -117.5 -57.5t-45.5 -163.5z" />
<glyph unicode="&#xf4;" horiz-adv-x="556" d="M163 579l-13 11q62 85 100 154l43 5q47 -78 112 -159l-13 -11q-48 45 -120 126q-56 -69 -109 -126zM481 251q0 -124 -60 -192.5t-148 -68.5t-143 68.5t-55 185.5q0 124 60 192.5t148 68.5t143 -68.5t55 -185.5zM118 248q0 -100 41.5 -161t115.5 -61q72 0 117.5 57.5 t45.5 163.5q0 100 -41.5 161t-115.5 61q-72 0 -117.5 -57.5t-45.5 -163.5z" />
<glyph unicode="&#xf5;" horiz-adv-x="556" d="M212 710q26 0 68 -28t61 -28q35 0 63 57l16 -3q-7 -36 -29 -64t-55 -28q-27 0 -68.5 28t-60.5 28q-35 0 -63 -57l-16 3q8 36 29.5 64t54.5 28zM481 251q0 -124 -60 -192.5t-148 -68.5t-143 68.5t-55 185.5q0 124 60 192.5t148 68.5t143 -68.5t55 -185.5zM118 248 q0 -100 41.5 -161t115.5 -61q72 0 117.5 57.5t45.5 163.5q0 100 -41.5 161t-115.5 61q-72 0 -117.5 -57.5t-45.5 -163.5z" />
<glyph unicode="&#xf6;" horiz-adv-x="556" d="M219 667q0 -20 -9 -34.5t-27 -14.5q-15 0 -24.5 12t-9.5 30q0 19 10.5 33.5t26.5 14.5q15 0 24 -11.5t9 -29.5zM407 667q0 -20 -9 -34.5t-27 -14.5q-15 0 -24.5 12t-9.5 30q0 19 10.5 33.5t26.5 14.5q15 0 24 -11.5t9 -29.5zM481 251q0 -124 -60 -192.5t-148 -68.5 t-143 68.5t-55 185.5q0 124 60 192.5t148 68.5t143 -68.5t55 -185.5zM118 248q0 -100 41.5 -161t115.5 -61q72 0 117.5 57.5t45.5 163.5q0 100 -41.5 161t-115.5 61q-72 0 -117.5 -57.5t-45.5 -163.5z" />
<glyph unicode="&#xf7;" d="M324 539q0 -21 -13 -35t-33 -14q-16 0 -26.5 11.5t-10.5 27.5q0 20 14 34.5t33 14.5q15 0 25.5 -11t10.5 -28zM503 328h-450v35q170 5 449 5l5 -5zM325 167q0 -21 -13 -35t-33 -14q-16 0 -26.5 11.5t-10.5 27.5q0 20 14 34.5t33 14.5q15 0 25.5 -11t10.5 -28z" />
<glyph unicode="&#xf8;" horiz-adv-x="556" d="M481 251q0 -124 -60 -192.5t-148 -68.5q-93 0 -147 73l-57 -61l-23 22l63 67q-34 62 -34 153q0 124 60 192.5t148 68.5q90 0 146 -71l56 60l24 -22l-62 -67q34 -62 34 -154zM118 248q0 -73 22 -124l260 279q-43 66 -119 66q-72 0 -117.5 -57.5t-45.5 -163.5zM438 247 q0 72 -22 125l-261 -278q43 -68 120 -68q72 0 117.5 57.5t45.5 163.5z" />
<glyph unicode="&#xf9;" horiz-adv-x="553" d="M351 580q-104 65 -162 151l3 8l39 16q39 -69 130 -162zM110 348q0 69 -5 147l40 10l5 -5v-368q0 -106 96 -106q73 0 152 77v392l40 10v-360q0 -79 20 -142l-36 -13q-14 31 -22 76q-76 -76 -162 -76q-62 0 -95 34t-33 98v226z" />
<glyph unicode="&#xfa;" horiz-adv-x="553" d="M358 736l3 -8q-58 -86 -162 -151l-10 13q91 93 130 162zM110 348q0 69 -5 147l40 10l5 -5v-368q0 -106 96 -106q73 0 152 77v392l40 10v-360q0 -79 20 -142l-36 -13q-14 31 -22 76q-76 -76 -162 -76q-62 0 -95 34t-33 98v226z" />
<glyph unicode="&#xfb;" horiz-adv-x="553" d="M160 579l-13 11q62 85 100 154l43 5q47 -78 112 -159l-13 -11q-48 45 -120 126q-56 -69 -109 -126zM110 348q0 69 -5 147l40 10l5 -5v-368q0 -106 96 -106q73 0 152 77v392l40 10v-360q0 -79 20 -142l-36 -13q-14 31 -22 76q-76 -76 -162 -76q-62 0 -95 34t-33 98v226z " />
<glyph unicode="&#xfc;" horiz-adv-x="553" d="M216 667q0 -20 -9 -34.5t-27 -14.5q-15 0 -24.5 12t-9.5 30q0 19 10.5 33.5t26.5 14.5q15 0 24 -11.5t9 -29.5zM404 667q0 -20 -9 -34.5t-27 -14.5q-15 0 -24.5 12t-9.5 30q0 19 10.5 33.5t26.5 14.5q15 0 24 -11.5t9 -29.5zM110 348q0 69 -5 147l40 10l5 -5v-368 q0 -106 96 -106q73 0 152 77v392l40 10v-360q0 -79 20 -142l-36 -13q-14 31 -22 76q-76 -76 -162 -76q-62 0 -95 34t-33 98v226z" />
<glyph unicode="&#xfd;" horiz-adv-x="447" d="M312 736l3 -8q-58 -86 -162 -151l-10 13q91 93 130 162zM427 495l-188 -500q-37 -100 -93 -168t-123 -82l-8 47q61 11 108.5 65t86.5 161v1l-180 482l40 4l87 -233q62 -164 72 -221h1q12 56 74 221l87 233l31 -5z" />
<glyph unicode="&#xfe;" horiz-adv-x="558" d="M110 598q0 63 -7 147l42 10l5 -5v-299q54 54 136 54q83 0 140 -66.5t57 -184.5q0 -116 -55.5 -190t-150.5 -74q-65 0 -127 34v-127q0 -75 7 -142l-42 -10l-5 5v848zM280 469q-78 0 -130 -63v-346q64 -34 124 -34q79 0 122.5 60t43.5 164q0 106 -44.5 162.5t-115.5 56.5z " />
<glyph unicode="&#xff;" horiz-adv-x="447" d="M170 667q0 -20 -9 -34.5t-27 -14.5q-15 0 -24.5 12t-9.5 30q0 19 10.5 33.5t26.5 14.5q15 0 24 -11.5t9 -29.5zM358 667q0 -20 -9 -34.5t-27 -14.5q-15 0 -24.5 12t-9.5 30q0 19 10.5 33.5t26.5 14.5q15 0 24 -11.5t9 -29.5zM427 495l-188 -500q-37 -100 -93 -168 t-123 -82l-8 47q61 11 108.5 65t86.5 161v1l-180 482l40 4l87 -233q62 -164 72 -221h1q12 56 74 221l87 233l31 -5z" />
<glyph unicode="&#x100;" horiz-adv-x="599" d="M173 817v39h254v-39h-254zM71 0h-41l218 592q30 83 35 100l27 3l5 -5l254 -690h-44l-82 222h-290zM232 437l-66 -179h264l-66 179q-52 143 -65 200h-1q-13 -56 -66 -200z" />
<glyph unicode="&#x101;" horiz-adv-x="496" d="M100 646v34h264v-34h-264zM385 148q0 -81 25 -148l-40 -10q-16 34 -22 70q-23 -28 -65 -49t-91 -21q-60 0 -93.5 33t-33.5 83q0 80 80.5 123.5t199.5 51.5v78q0 110 -111 110q-78 0 -152 -49l-3 40q80 45 161 45q70 0 108 -36t38 -95q0 -38 -0.5 -124t-0.5 -102zM108 110 q0 -35 22.5 -59.5t65.5 -24.5q39 0 81 21t68 51v149q-103 -7 -170 -42t-67 -95z" />
<glyph unicode="&#x102;" horiz-adv-x="599" d="M396 890l23 -3q-11 -48 -43.5 -75t-78.5 -27q-45 0 -76.5 27t-39.5 75l22 3q22 -62 99 -62q33 0 58 16.5t36 45.5zM71 0h-41l218 592q30 83 35 100l27 3l5 -5l254 -690h-44l-82 222h-290zM232 437l-66 -179h264l-66 179q-52 143 -65 200h-1q-13 -56 -66 -200z" />
<glyph unicode="&#x103;" horiz-adv-x="496" d="M328 727l23 -3q-11 -58 -43.5 -90t-78.5 -32q-45 0 -76.5 32.5t-39.5 89.5l22 3q11 -39 37 -60.5t62 -21.5q33 0 58 22t36 60zM385 148q0 -81 25 -148l-40 -10q-16 34 -22 70q-23 -28 -65 -49t-91 -21q-60 0 -93.5 33t-33.5 83q0 80 80.5 123.5t199.5 51.5v78 q0 110 -111 110q-78 0 -152 -49l-3 40q80 45 161 45q70 0 108 -36t38 -95q0 -38 -0.5 -124t-0.5 -102zM108 110q0 -35 22.5 -59.5t65.5 -24.5q39 0 81 21t68 51v149q-103 -7 -170 -42t-67 -95z" />
<glyph unicode="&#x104;" horiz-adv-x="599" d="M71 0h-41l218 592q30 83 35 100l27 3l5 -5l254 -690q-111 -64 -111 -127q0 -52 56 -52q24 0 56 12l9 -22q-29 -23 -74 -23q-42 0 -65.5 19.5t-23.5 54.5q0 76 111 138h-2l-82 222h-290zM232 437l-66 -179h264l-66 179q-52 143 -65 200h-1q-13 -56 -66 -200z" />
<glyph unicode="&#x105;" horiz-adv-x="496" d="M410 0q-111 -64 -111 -127q0 -52 56 -52q24 0 56 12l9 -22q-29 -23 -74 -23q-42 0 -65.5 19.5t-23.5 54.5q0 74 109 137q-15 38 -18 61q-23 -28 -65 -49t-91 -21q-60 0 -93.5 33t-33.5 83q0 80 80.5 123.5t199.5 51.5v78q0 110 -111 110q-78 0 -152 -49l-3 40 q80 45 161 45q70 0 108 -36t38 -95q0 -38 -0.5 -124t-0.5 -102q0 -81 25 -148zM108 110q0 -35 22.5 -59.5t65.5 -24.5q39 0 81 21t68 51v149q-103 -7 -170 -42t-67 -95z" />
<glyph unicode="&#x106;" horiz-adv-x="598" d="M463 865l-1 -8q-95 -58 -224 -78l-7 17q129 47 202 100zM532 86l6 -38q-72 -58 -187 -58q-122 0 -196.5 90.5t-74.5 251.5q0 167 78.5 265t202.5 98q103 0 170 -45l-9 -42q-61 49 -158 49q-105 0 -172 -84t-67 -235q0 -138 61.5 -224t172.5 -86q96 0 173 58z" />
<glyph unicode="&#x107;" horiz-adv-x="475" d="M365 736l3 -8q-58 -86 -162 -151l-10 13q91 93 130 162zM420 475l-12 -40q-50 34 -116 34q-80 0 -127 -56.5t-47 -163.5q0 -103 43.5 -163t122.5 -60q71 0 131 41l5 -36q-59 -41 -138 -41q-94 0 -150.5 65.5t-56.5 187.5q0 126 60 194t160 68q71 0 125 -30z" />
<glyph unicode="&#x108;" horiz-adv-x="598" d="M219 770l-13 13q61 54 113 118l43 5q54 -63 125 -123l-13 -13q-72 47 -133 97q-63 -56 -122 -97zM532 86l6 -38q-72 -58 -187 -58q-122 0 -196.5 90.5t-74.5 251.5q0 167 78.5 265t202.5 98q103 0 170 -45l-9 -42q-61 49 -158 49q-105 0 -172 -84t-67 -235 q0 -138 61.5 -224t172.5 -86q96 0 173 58z" />
<glyph unicode="&#x109;" horiz-adv-x="475" d="M167 579l-13 11q62 85 100 154l43 5q47 -78 112 -159l-13 -11q-48 45 -120 126q-56 -69 -109 -126zM420 475l-12 -40q-50 34 -116 34q-80 0 -127 -56.5t-47 -163.5q0 -103 43.5 -163t122.5 -60q71 0 131 41l5 -36q-59 -41 -138 -41q-94 0 -150.5 65.5t-56.5 187.5 q0 126 60 194t160 68q71 0 125 -30z" />
<glyph unicode="&#x10a;" horiz-adv-x="598" d="M387 846q0 -18 -10.5 -30.5t-30.5 -12.5q-18 0 -28.5 11t-10.5 28t12 30t30 13q38 0 38 -39zM532 86l6 -38q-72 -58 -187 -58q-122 0 -196.5 90.5t-74.5 251.5q0 167 78.5 265t202.5 98q103 0 170 -45l-9 -42q-61 49 -158 49q-105 0 -172 -84t-67 -235q0 -138 61.5 -224 t172.5 -86q96 0 173 58z" />
<glyph unicode="&#x10b;" horiz-adv-x="475" d="M318 668q0 -19 -9.5 -33t-27.5 -14q-16 0 -25.5 12t-9.5 31t10.5 33t27.5 14q16 0 25 -12t9 -31zM420 475l-12 -40q-50 34 -116 34q-80 0 -127 -56.5t-47 -163.5q0 -103 43.5 -163t122.5 -60q71 0 131 41l5 -36q-59 -41 -138 -41q-94 0 -150.5 65.5t-56.5 187.5 q0 126 60 194t160 68q71 0 125 -30z" />
<glyph unicode="&#x10c;" horiz-adv-x="598" d="M474 906l13 -13q-61 -54 -113 -118l-43 -5q-54 63 -125 123l13 13q72 -47 133 -97q63 56 122 97zM532 86l6 -38q-72 -58 -187 -58q-122 0 -196.5 90.5t-74.5 251.5q0 167 78.5 265t202.5 98q103 0 170 -45l-9 -42q-61 49 -158 49q-105 0 -172 -84t-67 -235 q0 -138 61.5 -224t172.5 -86q96 0 173 58z" />
<glyph unicode="&#x10d;" horiz-adv-x="475" d="M396 750l13 -11q-62 -85 -100 -154l-43 -5q-47 78 -112 159l13 11q48 -45 120 -126q56 69 109 126zM420 475l-12 -40q-50 34 -116 34q-80 0 -127 -56.5t-47 -163.5q0 -103 43.5 -163t122.5 -60q71 0 131 41l5 -36q-59 -41 -138 -41q-94 0 -150.5 65.5t-56.5 187.5 q0 126 60 194t160 68q71 0 125 -30z" />
<glyph unicode="&#x10e;" horiz-adv-x="677" d="M453 906l13 -13q-61 -54 -113 -118l-43 -5q-54 63 -125 123l13 13q72 -47 133 -97q63 56 122 97zM597 344q0 -160 -92 -252t-245 -92h-145v538q0 81 -7 147h162q139 0 233 -92.5t94 -248.5zM264 649h-107v-613h101q141 0 217.5 79.5t76.5 226.5q0 143 -79 225t-209 82z " />
<glyph unicode="&#x10f;" horiz-adv-x="558" d="M401 745l42 10l5 -5v-608q0 -76 26 -142l-40 -10q-13 27 -22 69q-47 -69 -139 -69q-88 0 -143 68t-55 183q0 125 64.5 194.5t160.5 69.5q58 0 108 -25v118q0 91 -7 147zM614 755l6 -6q-7 -101 -64 -212l-16 6q33 123 32 206zM118 243q0 -102 43.5 -159.5t116.5 -57.5 q78 0 130 70v347q-50 26 -113 26q-76 0 -126.5 -57.5t-50.5 -168.5z" />
<glyph unicode="&#x110;" horiz-adv-x="677" d="M597 344q0 -160 -92 -252t-245 -92h-145v328h-96v30h96v180q0 81 -7 147h162q139 0 233 -92.5t94 -248.5zM379 328h-222v-292h101q141 0 217.5 79.5t76.5 226.5q0 143 -79 225t-209 82h-107v-291h222v-30z" />
<glyph unicode="&#x111;" horiz-adv-x="558" d="M552 597h-104v-455q0 -76 26 -142l-40 -10q-13 27 -22 69q-47 -69 -139 -69q-88 0 -143 68t-55 183q0 125 64.5 194.5t160.5 69.5q58 0 108 -25v117h-216v30h216q-2 76 -7 118l42 10l5 -5v-123h104v-30zM118 243q0 -102 43.5 -159.5t116.5 -57.5q78 0 130 70v347 q-50 26 -113 26q-76 0 -126.5 -57.5t-50.5 -168.5z" />
<glyph unicode="&#x112;" horiz-adv-x="510" d="M155 817v39h254v-39h-254zM465 39v-39h-350v538q0 81 -7 147h342l5 -5v-34l-298 4v-292l256 2v-39l-256 2v-288z" />
<glyph unicode="&#x113;" horiz-adv-x="502" d="M137 646v34h264v-34h-264zM434 261l-15 -15h-301q1 -106 46.5 -163t120.5 -57q69 0 136 47l4 -36q-61 -47 -146 -47q-93 0 -148.5 67t-55.5 185q0 125 59.5 194t143.5 69q71 0 114 -49.5t43 -133.5q0 -41 -1 -61zM274 469q-61 0 -105 -49.5t-50 -143.5l273 7q1 12 1 36 q0 69 -32 109.5t-87 40.5z" />
<glyph unicode="&#x114;" horiz-adv-x="510" d="M378 890l23 -3q-11 -48 -43.5 -75t-78.5 -27q-45 0 -76.5 27t-39.5 75l22 3q22 -62 99 -62q33 0 58 16.5t36 45.5zM465 39v-39h-350v538q0 81 -7 147h342l5 -5v-34l-298 4v-292l256 2v-39l-256 2v-288z" />
<glyph unicode="&#x115;" horiz-adv-x="502" d="M365 727l23 -3q-11 -58 -43.5 -90t-78.5 -32q-45 0 -76.5 32.5t-39.5 89.5l22 3q11 -39 37 -60.5t62 -21.5q33 0 58 22t36 60zM434 261l-15 -15h-301q1 -106 46.5 -163t120.5 -57q69 0 136 47l4 -36q-61 -47 -146 -47q-93 0 -148.5 67t-55.5 185q0 125 59.5 194t143.5 69 q71 0 114 -49.5t43 -133.5q0 -41 -1 -61zM274 469q-61 0 -105 -49.5t-50 -143.5l273 7q1 12 1 36q0 69 -32 109.5t-87 40.5z" />
<glyph unicode="&#x116;" horiz-adv-x="510" d="M322 846q0 -18 -10.5 -30.5t-30.5 -12.5q-18 0 -28.5 11t-10.5 28t12 30t30 13q38 0 38 -39zM465 39v-39h-350v538q0 81 -7 147h342l5 -5v-34l-298 4v-292l256 2v-39l-256 2v-288z" />
<glyph unicode="&#x117;" horiz-adv-x="502" d="M305 668q0 -19 -9.5 -33t-27.5 -14q-16 0 -25.5 12t-9.5 31t10.5 33t27.5 14q16 0 25 -12t9 -31zM434 261l-15 -15h-301q1 -106 46.5 -163t120.5 -57q69 0 136 47l4 -36q-61 -47 -146 -47q-93 0 -148.5 67t-55.5 185q0 125 59.5 194t143.5 69q71 0 114 -49.5t43 -133.5 q0 -41 -1 -61zM274 469q-61 0 -105 -49.5t-50 -143.5l273 7q1 12 1 36q0 69 -32 109.5t-87 40.5z" />
<glyph unicode="&#x118;" horiz-adv-x="510" d="M465 0q-111 -64 -111 -127q0 -52 56 -52q24 0 56 12l9 -22q-29 -23 -74 -23q-42 0 -65.5 19.5t-23.5 54.5q0 76 111 138h-308v538q0 81 -7 147h342l5 -5v-34l-298 4v-292l256 2v-39l-256 2v-288l308 4v-39z" />
<glyph unicode="&#x119;" horiz-adv-x="507" d="M434 261l-15 -15h-301q1 -106 46.5 -163t120.5 -57q69 0 136 47l4 -36q-1 -1 -4 -3q-122 -92 -122 -158q0 -55 57 -55q23 0 55 12l9 -22q-29 -23 -76 -23q-40 0 -63.5 20.5t-23.5 54.5q0 70 79 134q-30 -7 -57 -7q-93 0 -148.5 67t-55.5 185q0 125 59.5 194t143.5 69 q71 0 114 -49.5t43 -133.5q0 -41 -1 -61zM274 469q-61 0 -105 -49.5t-50 -143.5l273 7q1 12 1 36q0 69 -32 109.5t-87 40.5z" />
<glyph unicode="&#x11a;" horiz-adv-x="510" d="M409 906l13 -13q-61 -54 -113 -118l-43 -5q-54 63 -125 123l13 13q72 -47 133 -97q63 56 122 97zM465 39v-39h-350v538q0 81 -7 147h342l5 -5v-34l-298 4v-292l256 2v-39l-256 2v-288z" />
<glyph unicode="&#x11b;" horiz-adv-x="502" d="M383 750l13 -11q-62 -85 -100 -154l-43 -5q-47 78 -112 159l13 11q48 -45 120 -126q56 69 109 126zM434 261l-15 -15h-301q1 -106 46.5 -163t120.5 -57q69 0 136 47l4 -36q-61 -47 -146 -47q-93 0 -148.5 67t-55.5 185q0 125 59.5 194t143.5 69q71 0 114 -49.5t43 -133.5 q0 -41 -1 -61zM274 469q-61 0 -105 -49.5t-50 -143.5l273 7q1 12 1 36q0 69 -32 109.5t-87 40.5z" />
<glyph unicode="&#x11c;" horiz-adv-x="651" d="M219 770l-13 13q61 54 113 118l43 5q54 -63 125 -123l-13 -13q-72 47 -133 97q-63 -56 -122 -97zM556 288l5 -5l-2 -242q-38 -24 -96 -37.5t-108 -13.5q-126 0 -200.5 90t-74.5 252q0 170 81 266.5t219 96.5q93 0 158 -38l-9 -42q-58 42 -147 42q-117 0 -187 -83 t-70 -235q0 -140 61.5 -225.5t176.5 -85.5q79 0 154 33v70q0 81 -7 147z" />
<glyph unicode="&#x11d;" horiz-adv-x="474" d="M112 579l-13 11q62 85 100 154l43 5q47 -78 112 -159l-13 -11q-48 45 -120 126q-56 -69 -109 -126zM123 84q0 43 33 76q-44 19 -69 60.5t-25 99.5q0 79 43 132t120 53q55 0 95 -30q45 30 106 30h7v-47h-93q46 -48 46 -127t-42.5 -132t-118.5 -53q-23 0 -39 4 q-23 -25 -23 -58q0 -49 62 -54l81 -6q60 -4 99 -32t39 -85q0 -69 -58 -119.5t-160 -50.5q-89 0 -142.5 38.5t-53.5 96.5q0 60 51 95l23 -11q-33 -37 -33 -76q0 -44 42 -76t116 -32q79 0 126.5 36t47.5 91q0 40 -27.5 63t-74.5 26l-73 5q-105 7 -105 83zM344 323 q0 68 -31 107.5t-89 39.5q-59 0 -89.5 -37.5t-30.5 -106.5q0 -67 31.5 -106t90.5 -39q58 0 88 37.5t30 104.5z" />
<glyph unicode="&#x11e;" horiz-adv-x="651" d="M443 890l23 -3q-11 -48 -43.5 -75t-78.5 -27q-45 0 -76.5 27t-39.5 75l22 3q22 -62 99 -62q33 0 58 16.5t36 45.5zM556 288l5 -5l-2 -242q-38 -24 -96 -37.5t-108 -13.5q-126 0 -200.5 90t-74.5 252q0 170 81 266.5t219 96.5q93 0 158 -38l-9 -42q-58 42 -147 42 q-117 0 -187 -83t-70 -235q0 -140 61.5 -225.5t176.5 -85.5q79 0 154 33v70q0 81 -7 147z" />
<glyph unicode="&#x11f;" horiz-adv-x="474" d="M323 727l23 -3q-11 -58 -43.5 -90t-78.5 -32q-45 0 -76.5 32.5t-39.5 89.5l22 3q11 -39 37 -60.5t62 -21.5q33 0 58 22t36 60zM123 84q0 43 33 76q-44 19 -69 60.5t-25 99.5q0 79 43 132t120 53q55 0 95 -30q45 30 106 30h7v-47h-93q46 -48 46 -127t-42.5 -132 t-118.5 -53q-23 0 -39 4q-23 -25 -23 -58q0 -49 62 -54l81 -6q60 -4 99 -32t39 -85q0 -69 -58 -119.5t-160 -50.5q-89 0 -142.5 38.5t-53.5 96.5q0 60 51 95l23 -11q-33 -37 -33 -76q0 -44 42 -76t116 -32q79 0 126.5 36t47.5 91q0 40 -27.5 63t-74.5 26l-73 5 q-105 7 -105 83zM344 323q0 68 -31 107.5t-89 39.5q-59 0 -89.5 -37.5t-30.5 -106.5q0 -67 31.5 -106t90.5 -39q58 0 88 37.5t30 104.5z" />
<glyph unicode="&#x120;" horiz-adv-x="651" d="M387 846q0 -18 -10.5 -30.5t-30.5 -12.5q-18 0 -28.5 11t-10.5 28t12 30t30 13q38 0 38 -39zM556 288l5 -5l-2 -242q-38 -24 -96 -37.5t-108 -13.5q-126 0 -200.5 90t-74.5 252q0 170 81 266.5t219 96.5q93 0 158 -38l-9 -42q-58 42 -147 42q-117 0 -187 -83t-70 -235 q0 -140 61.5 -225.5t176.5 -85.5q79 0 154 33v70q0 81 -7 147z" />
<glyph unicode="&#x121;" horiz-adv-x="474" d="M263 668q0 -19 -9.5 -33t-27.5 -14q-16 0 -25.5 12t-9.5 31t10.5 33t27.5 14q16 0 25 -12t9 -31zM123 84q0 43 33 76q-44 19 -69 60.5t-25 99.5q0 79 43 132t120 53q55 0 95 -30q45 30 106 30h7v-47h-93q46 -48 46 -127t-42.5 -132t-118.5 -53q-23 0 -39 4 q-23 -25 -23 -58q0 -49 62 -54l81 -6q60 -4 99 -32t39 -85q0 -69 -58 -119.5t-160 -50.5q-89 0 -142.5 38.5t-53.5 96.5q0 60 51 95l23 -11q-33 -37 -33 -76q0 -44 42 -76t116 -32q79 0 126.5 36t47.5 91q0 40 -27.5 63t-74.5 26l-73 5q-105 7 -105 83zM344 323 q0 68 -31 107.5t-89 39.5q-59 0 -89.5 -37.5t-30.5 -106.5q0 -67 31.5 -106t90.5 -39q58 0 88 37.5t30 104.5z" />
<glyph unicode="&#x122;" horiz-adv-x="651" d="M556 288l5 -5l-2 -242q-38 -24 -96 -37.5t-108 -13.5q-126 0 -200.5 90t-74.5 252q0 170 81 266.5t219 96.5q93 0 158 -38l-9 -42q-58 42 -147 42q-117 0 -187 -83t-70 -235q0 -140 61.5 -225.5t176.5 -85.5q79 0 154 33v70q0 81 -7 147zM335 -306q26 53 35 94h-2 q-16 0 -26.5 12.5t-10.5 30.5q0 19 10.5 33.5t30.5 14.5q39 0 39 -49q0 -62 -56 -147z" />
<glyph unicode="&#x123;" horiz-adv-x="474" d="M261 759q-26 -53 -35 -94h2q16 0 26.5 -12.5t10.5 -30.5q0 -19 -10.5 -33.5t-30.5 -14.5q-39 0 -39 49q0 62 56 147zM123 84q0 43 33 76q-44 19 -69 60.5t-25 99.5q0 79 43 132t120 53q55 0 95 -30q45 30 106 30h7v-47h-93q46 -48 46 -127t-42.5 -132t-118.5 -53 q-23 0 -39 4q-23 -25 -23 -58q0 -49 62 -54l81 -6q60 -4 99 -32t39 -85q0 -69 -58 -119.5t-160 -50.5q-89 0 -142.5 38.5t-53.5 96.5q0 60 51 95l23 -11q-33 -37 -33 -76q0 -44 42 -76t116 -32q79 0 126.5 36t47.5 91q0 40 -27.5 63t-74.5 26l-73 5q-105 7 -105 83zM344 323 q0 68 -31 107.5t-89 39.5q-59 0 -89.5 -37.5t-30.5 -106.5q0 -67 31.5 -106t90.5 -39q58 0 88 37.5t30 104.5z" />
<glyph unicode="&#x124;" horiz-adv-x="701" d="M223 770l-13 13q61 54 113 118l43 5q54 -63 125 -123l-13 -13q-72 47 -133 97q-63 -56 -122 -97zM157 0h-42v538q0 81 -7 147l44 10l5 -5v-331h387v179q0 81 -7 147l44 10l5 -5v-690h-42v323h-387v-323z" />
<glyph unicode="&#x125;" d="M3 799l-13 13q61 54 113 118l43 5q54 -63 125 -123l-13 -13q-72 47 -133 97q-63 -56 -122 -97zM150 0h-40v598q0 91 -7 147l42 10l5 -5v-319q80 74 169 74q63 0 97 -36t34 -106v-363h-40v353q0 116 -100 116q-81 0 -160 -73v-396z" />
<glyph unicode="&#x126;" horiz-adv-x="701" d="M157 0h-42v498h-74v30h74v10q0 81 -7 147l44 10l5 -5v-162h387v10q0 81 -7 147l44 10l5 -5v-162h75v-30h-75v-498h-42v323h-387v-323zM157 359h387v139h-387v-139z" />
<glyph unicode="&#x127;" d="M150 0h-40v591h-97v30h97q0 67 -7 124l42 10l5 -5v-129h223v-30h-223v-160q80 74 169 74q63 0 97 -36t34 -106v-363h-40v353q0 116 -100 116q-81 0 -160 -73v-396z" />
<glyph unicode="&#x128;" horiz-adv-x="272" d="M65 890q29 0 74 -28t67 -28q42 0 70 57l16 -3q-6 -37 -30 -64.5t-61 -27.5q-30 0 -74.5 28t-66.5 28q-42 0 -70 -57l-16 3q6 35 29.5 63.5t61.5 28.5zM157 0h-42v538q0 81 -7 147l44 10l5 -5v-690z" />
<glyph unicode="&#x129;" horiz-adv-x="260" d="M80 714q21 0 51 -28t44 -28q29 0 48 57l16 -3q-3 -32 -22 -62t-47 -30q-21 0 -51 28t-44 28q-29 0 -48 -57l-16 3q3 33 22 62.5t47 29.5zM110 0v348q0 91 -7 147l42 10l5 -5v-500h-40z" />
<glyph unicode="&#x12a;" horiz-adv-x="272" d="M6 817v39h254v-39h-254zM157 0h-42v538q0 81 -7 147l44 10l5 -5v-690z" />
<glyph unicode="&#x12b;" horiz-adv-x="260" d="M26 646v34h198v-34h-198zM110 0v348q0 91 -7 147l42 10l5 -5v-500h-40z" />
<glyph unicode="&#x12c;" horiz-adv-x="272" d="M229 890l23 -3q-11 -48 -43.5 -75t-78.5 -27q-45 0 -76.5 27t-39.5 75l22 3q22 -62 99 -62q33 0 58 16.5t36 45.5zM157 0h-42v538q0 81 -7 147l44 10l5 -5v-690z" />
<glyph unicode="&#x12d;" horiz-adv-x="260" d="M206 730l23 -3q-10 -58 -38 -90t-69 -32q-39 0 -66.5 32.5t-34.5 89.5l22 3q9 -38 31 -60t53 -22q27 0 48 22t31 60zM110 0v348q0 91 -7 147l42 10l5 -5v-500h-40z" />
<glyph unicode="&#x12e;" horiz-adv-x="242" d="M142 0q-61 -69 -61 -127q0 -52 56 -52q24 0 56 12l9 -22q-29 -23 -76 -23q-41 0 -64 20t-23 58q0 70 76 140v532q0 81 -7 147l44 10l5 -5v-690h-15z" />
<glyph unicode="&#x12f;" horiz-adv-x="260" d="M161 668q0 -19 -9.5 -33t-27.5 -14q-16 0 -25.5 12t-9.5 31t10.5 33t27.5 14q16 0 25 -12t9 -31zM110 0v348q0 91 -7 147l42 10l5 -5v-500q-64 -63 -64 -118q0 -28 16 -44.5t45 -16.5q23 0 51 12l9 -22q-29 -23 -74 -23q-41 0 -65 24t-24 63q0 59 72 125h-6z" />
<glyph unicode="&#x130;" horiz-adv-x="272" d="M173 846q0 -18 -10.5 -30.5t-30.5 -12.5q-18 0 -28.5 11t-10.5 28t12 30t30 13q38 0 38 -39zM157 0h-42v538q0 81 -7 147l44 10l5 -5v-690z" />
<glyph unicode="&#x131;" horiz-adv-x="260" d="M110 0v348q0 91 -7 147l42 10l5 -5v-500h-40z" />
<glyph unicode="&#x132;" horiz-adv-x="531" d="M157 0h-42v538q0 81 -7 147l44 10l5 -5v-690zM297 -182l-15 26q92 50 92 199v495q0 81 -7 147l44 10l5 -5v-647q0 -167 -119 -225z" />
<glyph unicode="&#x133;" horiz-adv-x="520" d="M161 668q0 -19 -9.5 -33t-27.5 -14q-16 0 -25.5 12t-9.5 31t10.5 33t27.5 14q16 0 25 -12t9 -31zM421 668q0 -19 -9.5 -33t-27.5 -14q-16 0 -25.5 12t-9.5 31t10.5 33t27.5 14q16 0 25 -12t9 -31zM110 0v348q0 91 -7 147l42 10l5 -5v-500h-40zM293 -255l-12 25 q89 54 89 170v408q0 63 -7 147l42 10l5 -5v-551q0 -148 -117 -204z" />
<glyph unicode="&#x134;" horiz-adv-x="259" d="M-6 770l-13 13q61 54 113 118l43 5q54 -63 125 -123l-13 -13q-72 47 -133 97q-63 -56 -122 -97zM25 -182l-15 26q92 50 92 199v495q0 81 -7 147l44 10l5 -5v-647q0 -167 -119 -225z" />
<glyph unicode="&#x135;" horiz-adv-x="260" d="M37 586l-10 10q47 96 70 154l43 5q33 -70 82 -159l-10 -10q-46 55 -93 121q-48 -78 -82 -121zM33 -255l-12 25q89 54 89 170v408q0 63 -7 147l42 10l5 -5v-551q0 -148 -117 -204z" />
<glyph unicode="&#x136;" horiz-adv-x="566" d="M115 538q0 81 -7 147l42 10l5 -5v-331h109l237 336l28 -13l5 -5l-235 -333l257 -344l-41 -10q-41 56 -123.5 166.5t-124.5 166.5h-112v-323h-40v538zM261 -306q26 53 35 94h-2q-16 0 -26.5 12.5t-10.5 30.5q0 19 10.5 33.5t30.5 14.5q39 0 39 -49q0 -62 -56 -147z" />
<glyph unicode="&#x137;" horiz-adv-x="493" d="M110 598q0 81 -7 147l42 10l5 -5v-471h94q84 111 166 226l25 -13l5 -5l-163 -218q91 -132 191 -269l-42 -10q-84 115 -179 256h-97v-246h-40v598zM226 -306q26 53 35 94h-2q-16 0 -26.5 12.5t-10.5 30.5q0 19 10.5 33.5t30.5 14.5q39 0 39 -49q0 -62 -56 -147z" />
<glyph unicode="&#x138;" horiz-adv-x="493" d="M110 348q0 81 -7 147l42 10l5 -5v-221h94q84 111 166 226l25 -13l5 -5l-163 -218q91 -132 191 -269l-42 -10q-84 115 -179 256h-97v-246h-40v348z" />
<glyph unicode="&#x139;" horiz-adv-x="482" d="M365 865l-1 -8q-95 -58 -224 -78l-7 17q129 47 202 100zM457 39v-39h-342v539q0 80 -7 146l44 10l5 -5v-655z" />
<glyph unicode="&#x13a;" horiz-adv-x="260" d="M251 914l-1 -8q-95 -58 -224 -78l-7 17q129 47 202 100zM150 0h-40v598q0 81 -7 147l42 10l5 -5v-750z" />
<glyph unicode="&#x13b;" horiz-adv-x="482" d="M457 39v-39h-342v539q0 80 -7 146l44 10l5 -5v-655zM254 -306q26 53 35 94h-2q-16 0 -26.5 12.5t-10.5 30.5q0 19 10.5 33.5t30.5 14.5q39 0 39 -49q0 -62 -56 -147z" />
<glyph unicode="&#x13c;" horiz-adv-x="260" d="M150 0h-40v598q0 81 -7 147l42 10l5 -5v-750zM94 -306q26 53 35 94h-2q-16 0 -26.5 12.5t-10.5 30.5q0 19 10.5 33.5t30.5 14.5q39 0 39 -49q0 -62 -56 -147z" />
<glyph unicode="&#x13d;" horiz-adv-x="482" d="M352 727l6 -6q-7 -101 -64 -212l-16 6q33 123 32 206zM457 39v-39h-342v539q0 80 -7 146l44 10l5 -5v-655z" />
<glyph unicode="&#x13e;" horiz-adv-x="260" d="M150 0h-40v598q0 81 -7 147l42 10l5 -5v-750zM289 755l6 -6q-7 -101 -64 -212l-16 6q33 123 32 206z" />
<glyph unicode="&#x13f;" horiz-adv-x="482" d="M394 347q0 -20 -13 -33.5t-30 -13.5q-16 0 -28.5 12t-12.5 31t13 33t31 14q17 0 28.5 -12t11.5 -31zM457 39v-39h-342v539q0 80 -7 146l44 10l5 -5v-655z" />
<glyph unicode="&#x140;" horiz-adv-x="503" d="M150 0h-40v598q0 81 -7 147l42 10l5 -5v-750zM428 317q0 -20 -13 -33.5t-30 -13.5q-16 0 -28.5 12t-12.5 31t13 33t31 14q17 0 28.5 -12t11.5 -31z" />
<glyph unicode="&#x141;" horiz-adv-x="482" d="M457 39v-39h-342v301l-96 -53l-16 29l112 62v200q0 80 -7 146l44 10l5 -5v-328l147 82l17 -29l-164 -91v-289z" />
<glyph unicode="&#x142;" horiz-adv-x="260" d="M150 0h-40v382l-118 -65l-16 29l134 74v178q0 81 -7 147l42 10l5 -5v-307l127 70l17 -29l-144 -80v-404z" />
<glyph unicode="&#x143;" horiz-adv-x="701" d="M463 865l-1 -8q-95 -58 -224 -78l-7 17q129 47 202 100zM349 384q22 -35 58 -92t54.5 -86.5t42.5 -72.5t43 -82h1q-4 108 -4 487q0 81 -7 147l44 10l5 -5v-690h-45q-33 52 -98 155.5t-97 155.5q-16 25 -46.5 73.5t-43.5 70t-34 56t-36.5 63.5t-31.5 60h-1q4 -88 4 -252 v-382h-42v538q0 81 -7 147l46 10q109 -172 195 -311z" />
<glyph unicode="&#x144;" horiz-adv-x="565" d="M358 736l3 -8q-58 -86 -162 -151l-10 13q91 93 130 162zM155 0h-40v350q0 79 -20 142l36 13q14 -31 22 -76q79 76 171 76q63 0 97 -36t34 -106v-363h-40v353q0 116 -100 116q-80 0 -160 -75v-394z" />
<glyph unicode="&#x145;" horiz-adv-x="701" d="M349 384q22 -35 58 -92t54.5 -86.5t42.5 -72.5t43 -82h1q-4 108 -4 487q0 81 -7 147l44 10l5 -5v-690h-45q-33 52 -98 155.5t-97 155.5q-16 25 -46.5 73.5t-43.5 70t-34 56t-36.5 63.5t-31.5 60h-1q4 -88 4 -252v-382h-42v538q0 81 -7 147l46 10q109 -172 195 -311z M318 -306q26 53 35 94h-2q-16 0 -26.5 12.5t-10.5 30.5q0 19 10.5 33.5t30.5 14.5q39 0 39 -49q0 -62 -56 -147z" />
<glyph unicode="&#x146;" horiz-adv-x="565" d="M155 0h-40v350q0 79 -20 142l36 13q14 -31 22 -76q79 76 171 76q63 0 97 -36t34 -106v-363h-40v353q0 116 -100 116q-80 0 -160 -75v-394zM250 -306q26 53 35 94h-2q-16 0 -26.5 12.5t-10.5 30.5q0 19 10.5 33.5t30.5 14.5q39 0 39 -49q0 -62 -56 -147z" />
<glyph unicode="&#x147;" horiz-adv-x="701" d="M474 906l13 -13q-61 -54 -113 -118l-43 -5q-54 63 -125 123l13 13q72 -47 133 -97q63 56 122 97zM349 384q22 -35 58 -92t54.5 -86.5t42.5 -72.5t43 -82h1q-4 108 -4 487q0 81 -7 147l44 10l5 -5v-690h-45q-33 52 -98 155.5t-97 155.5q-16 25 -46.5 73.5t-43.5 70t-34 56 t-36.5 63.5t-31.5 60h-1q4 -88 4 -252v-382h-42v538q0 81 -7 147l46 10q109 -172 195 -311z" />
<glyph unicode="&#x148;" horiz-adv-x="565" d="M389 750l13 -11q-62 -85 -100 -154l-43 -5q-47 78 -112 159l13 11q48 -45 120 -126q56 69 109 126zM155 0h-40v350q0 79 -20 142l36 13q14 -31 22 -76q79 76 171 76q63 0 97 -36t34 -106v-363h-40v353q0 116 -100 116q-80 0 -160 -75v-394z" />
<glyph unicode="&#x149;" horiz-adv-x="631" d="M50 500q41 93 49 167q-17 1 -28 13t-11 29q0 20 13 34t32 14q39 0 39 -52q0 -41 -23.5 -105t-52.5 -110zM221 0h-40v350q0 79 -20 142l36 13q14 -31 22 -76q79 76 171 76q63 0 97 -36t34 -106v-363h-40v353q0 116 -100 116q-80 0 -160 -75v-394z" />
<glyph unicode="&#x14a;" horiz-adv-x="701" d="M467 -182l-15 26q83 45 91 152q-36 59 -107 172t-90 143q-16 25 -46.5 73.5t-43.5 70t-34 56t-36.5 63.5t-31.5 60h-1q4 -88 4 -252v-382h-42v538q0 81 -7 147l46 10q109 -172 195 -311q22 -35 58 -92t54.5 -86.5t42.5 -72.5t43 -82h1q-4 108 -4 487q0 81 -7 147l44 10 l5 -5v-647q0 -167 -119 -225z" />
<glyph unicode="&#x14b;" horiz-adv-x="565" d="M155 0h-40v350q0 79 -20 142l36 13q14 -31 22 -76q79 76 171 76q63 0 97 -36t34 -106v-363q0 -117 -72 -203l-19 21q51 75 51 182v353q0 116 -100 116q-80 0 -160 -75v-394z" />
<glyph unicode="&#x14c;" horiz-adv-x="694" d="M227 817v39h254v-39h-254zM614 344q0 -167 -78 -260.5t-194 -93.5q-114 0 -188 91t-74 251q0 165 78.5 264t195.5 99q114 0 187 -94.5t73 -256.5zM125 338q0 -142 60 -226t161 -84q100 0 161.5 82t61.5 231q0 143 -57.5 229.5t-157.5 86.5t-164.5 -85.5t-64.5 -233.5z " />
<glyph unicode="&#x14d;" horiz-adv-x="556" d="M146 646v34h264v-34h-264zM481 251q0 -124 -60 -192.5t-148 -68.5t-143 68.5t-55 185.5q0 124 60 192.5t148 68.5t143 -68.5t55 -185.5zM118 248q0 -100 41.5 -161t115.5 -61q72 0 117.5 57.5t45.5 163.5q0 100 -41.5 161t-115.5 61q-72 0 -117.5 -57.5t-45.5 -163.5z " />
<glyph unicode="&#x14e;" horiz-adv-x="694" d="M450 890l23 -3q-11 -48 -43.5 -75t-78.5 -27q-45 0 -76.5 27t-39.5 75l22 3q22 -62 99 -62q33 0 58 16.5t36 45.5zM614 344q0 -167 -78 -260.5t-194 -93.5q-114 0 -188 91t-74 251q0 165 78.5 264t195.5 99q114 0 187 -94.5t73 -256.5zM125 338q0 -142 60 -226t161 -84 q100 0 161.5 82t61.5 231q0 143 -57.5 229.5t-157.5 86.5t-164.5 -85.5t-64.5 -233.5z" />
<glyph unicode="&#x14f;" horiz-adv-x="556" d="M374 727l23 -3q-11 -58 -43.5 -90t-78.5 -32q-45 0 -76.5 32.5t-39.5 89.5l22 3q11 -39 37 -60.5t62 -21.5q33 0 58 22t36 60zM481 251q0 -124 -60 -192.5t-148 -68.5t-143 68.5t-55 185.5q0 124 60 192.5t148 68.5t143 -68.5t55 -185.5zM118 248q0 -100 41.5 -161 t115.5 -61q72 0 117.5 57.5t45.5 163.5q0 100 -41.5 161t-115.5 61q-72 0 -117.5 -57.5t-45.5 -163.5z" />
<glyph unicode="&#x150;" horiz-adv-x="694" d="M355 865l-1 -8q-73 -58 -174 -78l-7 17q98 47 152 100zM535 865l-1 -8q-73 -58 -174 -78l-7 17q98 47 152 100zM614 344q0 -167 -78 -260.5t-194 -93.5q-114 0 -188 91t-74 251q0 165 78.5 264t195.5 99q114 0 187 -94.5t73 -256.5zM125 338q0 -142 60 -226t161 -84 q100 0 161.5 82t61.5 231q0 143 -57.5 229.5t-157.5 86.5t-164.5 -85.5t-64.5 -233.5z" />
<glyph unicode="&#x151;" horiz-adv-x="556" d="M299 742l3 -8q-59 -88 -156 -154l-10 13q84 79 130 162zM413 742l3 -8q-59 -88 -156 -154l-10 13q84 79 130 162zM481 251q0 -124 -60 -192.5t-148 -68.5t-143 68.5t-55 185.5q0 124 60 192.5t148 68.5t143 -68.5t55 -185.5zM118 248q0 -100 41.5 -161t115.5 -61 q72 0 117.5 57.5t45.5 163.5q0 100 -41.5 161t-115.5 61q-72 0 -117.5 -57.5t-45.5 -163.5z" />
<glyph unicode="&#x152;" horiz-adv-x="915" d="M870 39v-39h-457q-33 -10 -71 -10q-114 0 -188 91t-74 251q0 165 78.5 264t195.5 99q38 0 69 -10h432l5 -5v-34l-368 3q55 -42 87.5 -116.5t34.5 -174.5l204 2v-39l-204 2q-7 -200 -128 -287zM125 338q0 -142 60 -226t161 -84q100 0 161.5 82t61.5 231q0 143 -57.5 229.5 t-157.5 86.5t-164.5 -85.5t-64.5 -233.5z" />
<glyph unicode="&#x153;" horiz-adv-x="865" d="M797 261l-15 -15h-301q1 -106 46.5 -163t120.5 -57q69 0 136 47l4 -36q-61 -47 -146 -47q-67 0 -114.5 37t-69.5 106q-23 -69 -73 -106t-112 -37q-88 0 -143 68.5t-55 185.5q0 124 60 192.5t148 68.5q63 0 110 -37.5t68 -106.5q23 70 72 107t108 37q71 0 114 -49.5 t43 -133.5q0 -41 -1 -61zM118 248q0 -100 41.5 -161t115.5 -61q72 0 117.5 57.5t45.5 163.5q0 100 -41.5 161t-115.5 61q-72 0 -117.5 -57.5t-45.5 -163.5zM637 469q-61 0 -105 -49.5t-50 -143.5l273 7q1 12 1 36q0 69 -32 109.5t-87 40.5z" />
<glyph unicode="&#x154;" horiz-adv-x="574" d="M405 865l-1 -8q-95 -58 -224 -78l-7 17q129 47 202 100zM157 0h-42v538q0 81 -7 147h155q105 0 168.5 -56t63.5 -147q0 -69 -38 -115.5t-106 -66.5l173 -300l-39 -10l-171 297h-157v-287zM261 650h-104v-328h100q91 0 142 41t51 119q0 74 -47.5 121t-141.5 47z" />
<glyph unicode="&#x155;" horiz-adv-x="373" d="M293 736l3 -8q-58 -86 -162 -151l-10 13q91 93 130 162zM155 0h-40v350q0 79 -20 142l36 13q14 -31 22 -76q82 76 153 76q28 0 47 -13l-15 -35q-18 8 -37 8q-67 0 -146 -73v-392z" />
<glyph unicode="&#x156;" horiz-adv-x="574" d="M157 0h-42v538q0 81 -7 147h155q105 0 168.5 -56t63.5 -147q0 -69 -38 -115.5t-106 -66.5l173 -300l-39 -10l-171 297h-157v-287zM261 650h-104v-328h100q91 0 142 41t51 119q0 74 -47.5 121t-141.5 47zM258 -306q26 53 35 94h-2q-16 0 -26.5 12.5t-10.5 30.5 q0 19 10.5 33.5t30.5 14.5q39 0 39 -49q0 -62 -56 -147z" />
<glyph unicode="&#x157;" horiz-adv-x="373" d="M155 0h-40v350q0 79 -20 142l36 13q14 -31 22 -76q82 76 153 76q28 0 47 -13l-15 -35q-18 8 -37 8q-67 0 -146 -73v-392zM95 -306q26 53 35 94h-2q-16 0 -26.5 12.5t-10.5 30.5q0 19 10.5 33.5t30.5 14.5q39 0 39 -49q0 -62 -56 -147z" />
<glyph unicode="&#x158;" horiz-adv-x="574" d="M416 906l13 -13q-61 -54 -113 -118l-43 -5q-54 63 -125 123l13 13q72 -47 133 -97q63 56 122 97zM157 0h-42v538q0 81 -7 147h155q105 0 168.5 -56t63.5 -147q0 -69 -38 -115.5t-106 -66.5l173 -300l-39 -10l-171 297h-157v-287zM261 650h-104v-328h100q91 0 142 41 t51 119q0 74 -47.5 121t-141.5 47z" />
<glyph unicode="&#x159;" horiz-adv-x="373" d="M324 750l13 -11q-62 -85 -100 -154l-43 -5q-47 78 -112 159l13 11q48 -45 120 -126q56 69 109 126zM155 0h-40v350q0 79 -20 142l36 13q14 -31 22 -76q82 76 153 76q28 0 47 -13l-15 -35q-18 8 -37 8q-67 0 -146 -73v-392z" />
<glyph unicode="&#x15a;" horiz-adv-x="501" d="M377 865l-1 -8q-95 -58 -224 -78l-7 17q129 47 202 100zM436 162q0 -78 -57 -125t-151 -47q-89 0 -163 35l8 43q69 -40 159 -40q76 0 118.5 36t42.5 94q0 33 -11.5 59t-38.5 48t-46.5 33.5t-58.5 32.5q-42 22 -62.5 34.5t-49.5 36.5t-41.5 53.5t-12.5 66.5 q0 78 56.5 125.5t148.5 47.5q87 0 151 -33l-8 -43q-62 38 -144 38q-75 0 -118 -34.5t-43 -92.5q0 -31 12 -56t35 -44t46.5 -33t54.5 -31q3 -1 5 -2t4.5 -2.5t4.5 -2.5q35 -18 57.5 -33t48.5 -39t39.5 -55.5t13.5 -69.5z" />
<glyph unicode="&#x15b;" horiz-adv-x="435" d="M295 736l3 -8q-58 -86 -162 -151l-10 13q91 93 130 162zM356 473l-8 -41q-57 37 -115 37q-55 0 -87 -25.5t-32 -65.5q0 -35 26.5 -61t64 -43t75 -35t64 -48t26.5 -71q0 -57 -46.5 -93.5t-120.5 -36.5q-75 0 -138 32l8 41q60 -37 135 -37q56 0 87.5 25t31.5 64 q0 34 -26.5 59t-64 41.5t-75 34.5t-64 48.5t-26.5 72.5q0 59 45.5 96.5t119.5 37.5q60 0 120 -32z" />
<glyph unicode="&#x15c;" horiz-adv-x="501" d="M133 770l-13 13q61 54 113 118l43 5q54 -63 125 -123l-13 -13q-72 47 -133 97q-63 -56 -122 -97zM436 162q0 -78 -57 -125t-151 -47q-89 0 -163 35l8 43q69 -40 159 -40q76 0 118.5 36t42.5 94q0 33 -11.5 59t-38.5 48t-46.5 33.5t-58.5 32.5q-42 22 -62.5 34.5 t-49.5 36.5t-41.5 53.5t-12.5 66.5q0 78 56.5 125.5t148.5 47.5q87 0 151 -33l-8 -43q-62 38 -144 38q-75 0 -118 -34.5t-43 -92.5q0 -31 12 -56t35 -44t46.5 -33t54.5 -31q3 -1 5 -2t4.5 -2.5t4.5 -2.5q35 -18 57.5 -33t48.5 -39t39.5 -55.5t13.5 -69.5z" />
<glyph unicode="&#x15d;" horiz-adv-x="435" d="M97 579l-13 11q62 85 100 154l43 5q47 -78 112 -159l-13 -11q-48 45 -120 126q-56 -69 -109 -126zM356 473l-8 -41q-57 37 -115 37q-55 0 -87 -25.5t-32 -65.5q0 -35 26.5 -61t64 -43t75 -35t64 -48t26.5 -71q0 -57 -46.5 -93.5t-120.5 -36.5q-75 0 -138 32l8 41 q60 -37 135 -37q56 0 87.5 25t31.5 64q0 34 -26.5 59t-64 41.5t-75 34.5t-64 48.5t-26.5 72.5q0 59 45.5 96.5t119.5 37.5q60 0 120 -32z" />
<glyph unicode="&#x15e;" horiz-adv-x="501" d="M335 -123q0 -35 -35.5 -58.5t-88.5 -30.5l-6 22q88 21 88 59q0 34 -62 40l-7 11l23 71q-6 -1 -19 -1q-89 0 -163 35l8 43q69 -40 159 -40q76 0 118.5 36t42.5 94q0 33 -11.5 59t-38.5 48t-46.5 33.5t-58.5 32.5q-42 22 -62.5 34.5t-49.5 36.5t-41.5 53.5t-12.5 66.5 q0 78 56.5 125.5t148.5 47.5q87 0 151 -33l-8 -43q-62 38 -144 38q-75 0 -118 -34.5t-43 -92.5q0 -31 12 -56t35 -44t46.5 -33t54.5 -31q3 -1 5 -2t4.5 -2.5t4.5 -2.5q35 -18 57.5 -33t48.5 -39t39.5 -55.5t13.5 -69.5q0 -67 -42.5 -111.5t-115.5 -56.5l-18 -56 q34 -5 54.5 -20.5t20.5 -40.5z" />
<glyph unicode="&#x15f;" horiz-adv-x="435" d="M301 -123q0 -35 -35.5 -58.5t-88.5 -30.5l-6 22q88 21 88 59q0 34 -62 40l-7 11l23 70h-10q-75 0 -138 32l8 41q60 -37 135 -37q56 0 87.5 25t31.5 64q0 34 -26.5 59t-64 41.5t-75 34.5t-64 48.5t-26.5 72.5q0 59 45.5 96.5t119.5 37.5q60 0 120 -32l-8 -41 q-57 37 -115 37q-55 0 -87 -25.5t-32 -65.5q0 -35 26.5 -61t64 -43t75 -35t64 -48t26.5 -71q0 -48 -34 -82.5t-92 -44.5l-18 -55q34 -5 54.5 -20.5t20.5 -40.5z" />
<glyph unicode="&#x160;" horiz-adv-x="501" d="M388 906l13 -13q-61 -54 -113 -118l-43 -5q-54 63 -125 123l13 13q72 -47 133 -97q63 56 122 97zM436 162q0 -78 -57 -125t-151 -47q-89 0 -163 35l8 43q69 -40 159 -40q76 0 118.5 36t42.5 94q0 33 -11.5 59t-38.5 48t-46.5 33.5t-58.5 32.5q-42 22 -62.5 34.5 t-49.5 36.5t-41.5 53.5t-12.5 66.5q0 78 56.5 125.5t148.5 47.5q87 0 151 -33l-8 -43q-62 38 -144 38q-75 0 -118 -34.5t-43 -92.5q0 -31 12 -56t35 -44t46.5 -33t54.5 -31q3 -1 5 -2t4.5 -2.5t4.5 -2.5q35 -18 57.5 -33t48.5 -39t39.5 -55.5t13.5 -69.5z" />
<glyph unicode="&#x161;" horiz-adv-x="435" d="M326 750l13 -11q-62 -85 -100 -154l-43 -5q-47 78 -112 159l13 11q48 -45 120 -126q56 69 109 126zM356 473l-8 -41q-57 37 -115 37q-55 0 -87 -25.5t-32 -65.5q0 -35 26.5 -61t64 -43t75 -35t64 -48t26.5 -71q0 -57 -46.5 -93.5t-120.5 -36.5q-75 0 -138 32l8 41 q60 -37 135 -37q56 0 87.5 25t31.5 64q0 34 -26.5 59t-64 41.5t-75 34.5t-64 48.5t-26.5 72.5q0 59 45.5 96.5t119.5 37.5q60 0 120 -32z" />
<glyph unicode="&#x162;" horiz-adv-x="521" d="M337 -123q0 -35 -35.5 -58.5t-88.5 -30.5l-6 22q88 21 88 59q0 34 -62 40l-7 11l26 80h-12v650q-95 0 -215 -5l3 40h465l3 -40q-120 5 -214 5v-650l-20 -62q34 -5 54.5 -20.5t20.5 -40.5z" />
<glyph unicode="&#x163;" horiz-adv-x="341" d="M284 -123q0 -35 -35.5 -58.5t-88.5 -30.5l-6 22q88 21 88 59q0 34 -62 40l-7 11l23 72q-86 15 -86 149v321h-76v26l76 7l9 112l29 4l5 -5l-3 -111h135l5 -5l-2 -28h-138v-311q0 -68 20 -96.5t61 -28.5q43 0 81 25l9 -33q-44 -28 -95 -28l-17 -52q34 -5 54.5 -20.5 t20.5 -40.5z" />
<glyph unicode="&#x164;" horiz-adv-x="521" d="M388 906l13 -13q-61 -54 -113 -118l-43 -5q-54 63 -125 123l13 13q72 -47 133 -97q63 56 122 97zM282 0h-42v650q-95 0 -215 -5l3 40h465l3 -40q-120 5 -214 5v-650z" />
<glyph unicode="&#x165;" horiz-adv-x="341" d="M274 756l6 -6q-7 -101 -64 -212l-16 6q33 123 32 206zM288 462h-138v-311q0 -68 20 -96.5t61 -28.5q43 0 81 25l9 -33q-44 -28 -98 -28q-57 0 -85 36t-28 115v321h-76v26l76 7l9 112l29 4l5 -5l-3 -111h135l5 -5z" />
<glyph unicode="&#x166;" horiz-adv-x="521" d="M282 0h-42v328h-159v30h159v292q-95 0 -215 -5l3 40h465l3 -40q-120 5 -214 5v-292h159v-30h-159v-328z" />
<glyph unicode="&#x167;" horiz-adv-x="341" d="M286 293h-136v-142q0 -68 20 -96.5t61 -28.5q43 0 81 25l9 -33q-44 -28 -98 -28q-57 0 -85 36t-28 115v152h-76v30h76v139h-76v26l76 7l9 112l29 4l5 -5l-3 -111h135l5 -5l-2 -28h-138v-139h136v-30z" />
<glyph unicode="&#x168;" horiz-adv-x="644" d="M254 890q29 0 74 -28t67 -28q41 0 70 57l16 -3q-6 -37 -30 -64.5t-61 -27.5q-30 0 -74.5 28t-66.5 28q-41 0 -70 -57l-16 3q6 35 29.5 63.5t61.5 28.5zM100 540q0 80 -10 147l52 8v-478q0 -89 51 -139t129 -50t129 49.5t51 139.5v323q0 80 -10 147l52 8v-475 q0 -110 -64 -170t-163 -60q-94 0 -155.5 60t-61.5 170v320z" />
<glyph unicode="&#x169;" horiz-adv-x="553" d="M209 710q26 0 68 -28t61 -28q34 0 63 57l16 -3q-7 -36 -29 -64t-55 -28q-27 0 -68.5 28t-60.5 28q-34 0 -63 -57l-16 3q8 36 29.5 64t54.5 28zM110 348q0 69 -5 147l40 10l5 -5v-368q0 -106 96 -106q73 0 152 77v392l40 10v-360q0 -79 20 -142l-36 -13q-14 31 -22 76 q-76 -76 -162 -76q-62 0 -95 34t-33 98v226z" />
<glyph unicode="&#x16a;" horiz-adv-x="644" d="M195 817v39h254v-39h-254zM100 540q0 80 -10 147l52 8v-478q0 -89 51 -139t129 -50t129 49.5t51 139.5v323q0 80 -10 147l52 8v-475q0 -110 -64 -170t-163 -60q-94 0 -155.5 60t-61.5 170v320z" />
<glyph unicode="&#x16b;" horiz-adv-x="553" d="M143 646v34h264v-34h-264zM110 348q0 69 -5 147l40 10l5 -5v-368q0 -106 96 -106q73 0 152 77v392l40 10v-360q0 -79 20 -142l-36 -13q-14 31 -22 76q-76 -76 -162 -76q-62 0 -95 34t-33 98v226z" />
<glyph unicode="&#x16c;" horiz-adv-x="644" d="M418 890l23 -3q-11 -48 -43.5 -75t-78.5 -27q-45 0 -76.5 27t-39.5 75l22 3q22 -62 99 -62q33 0 58 16.5t36 45.5zM100 540q0 80 -10 147l52 8v-478q0 -89 51 -139t129 -50t129 49.5t51 139.5v323q0 80 -10 147l52 8v-475q0 -110 -64 -170t-163 -60q-94 0 -155.5 60 t-61.5 170v320z" />
<glyph unicode="&#x16d;" horiz-adv-x="553" d="M371 727l23 -3q-11 -58 -43.5 -90t-78.5 -32q-45 0 -76.5 32.5t-39.5 89.5l22 3q11 -39 37 -60.5t62 -21.5q33 0 58 22t36 60zM110 348q0 69 -5 147l40 10l5 -5v-368q0 -106 96 -106q73 0 152 77v392l40 10v-360q0 -79 20 -142l-36 -13q-14 31 -22 76q-76 -76 -162 -76 q-62 0 -95 34t-33 98v226z" />
<glyph unicode="&#x16e;" horiz-adv-x="644" d="M400 841q0 -32 -23.5 -54.5t-57.5 -22.5q-29 0 -52 20t-23 49q0 32 24 54.5t58 22.5q32 0 53 -20t21 -49zM278 836q0 -20 12 -32.5t32 -12.5q19 0 31.5 13.5t12.5 33.5t-11.5 32.5t-31.5 12.5t-32.5 -13.5t-12.5 -33.5zM100 540q0 80 -10 147l52 8v-478q0 -89 51 -139 t129 -50t129 49.5t51 139.5v323q0 80 -10 147l52 8v-475q0 -110 -64 -170t-163 -60q-94 0 -155.5 60t-61.5 170v320z" />
<glyph unicode="&#x16f;" horiz-adv-x="553" d="M353 651q0 -32 -23.5 -54.5t-57.5 -22.5q-29 0 -52 20t-23 49q0 32 24 54.5t58 22.5q32 0 53 -20t21 -49zM231 646q0 -20 12 -32.5t32 -12.5q19 0 31.5 13.5t12.5 33.5t-11.5 32.5t-31.5 12.5t-32.5 -13.5t-12.5 -33.5zM110 348q0 69 -5 147l40 10l5 -5v-368 q0 -106 96 -106q73 0 152 77v392l40 10v-360q0 -79 20 -142l-36 -13q-14 31 -22 76q-76 -76 -162 -76q-62 0 -95 34t-33 98v226z" />
<glyph unicode="&#x170;" horiz-adv-x="644" d="M323 865l-1 -8q-73 -58 -174 -78l-7 17q98 47 152 100zM503 865l-1 -8q-73 -58 -174 -78l-7 17q98 47 152 100zM100 540q0 80 -10 147l52 8v-478q0 -89 51 -139t129 -50t129 49.5t51 139.5v323q0 80 -10 147l52 8v-475q0 -110 -64 -170t-163 -60q-94 0 -155.5 60 t-61.5 170v320z" />
<glyph unicode="&#x171;" horiz-adv-x="553" d="M296 742l3 -8q-59 -88 -156 -154l-10 13q84 79 130 162zM410 742l3 -8q-59 -88 -156 -154l-10 13q84 79 130 162zM110 348q0 69 -5 147l40 10l5 -5v-368q0 -106 96 -106q73 0 152 77v392l40 10v-360q0 -79 20 -142l-36 -13q-14 31 -22 76q-76 -76 -162 -76q-62 0 -95 34 t-33 98v226z" />
<glyph unicode="&#x172;" horiz-adv-x="644" d="M100 540q0 80 -10 147l52 8v-478q0 -89 51 -139t129 -50t129 49.5t51 139.5v323q0 80 -10 147l52 8v-475q0 -138 -100 -197q-111 -82 -111 -146q0 -56 56 -56q24 0 56 12l9 -22q-29 -23 -74 -23q-42 0 -65.5 20t-23.5 58q0 65 78 129q-28 -5 -52 -5q-94 0 -155.5 60 t-61.5 170v320z" />
<glyph unicode="&#x173;" horiz-adv-x="553" d="M110 348q0 69 -5 147l40 10l5 -5v-368q0 -106 96 -106q73 0 152 77v392l40 10v-360q0 -79 20 -142l-10 -4q-110 -62 -110 -126q0 -52 56 -52q24 0 56 12l9 -22q-29 -23 -74 -23q-42 0 -65.5 19.5t-23.5 54.5q0 78 120 143q-11 32 -16 61q-76 -76 -162 -76q-62 0 -95 34 t-33 98v226z" />
<glyph unicode="&#x174;" horiz-adv-x="986" d="M365 770l-13 13q61 54 113 118l43 5q54 -63 125 -123l-13 -13q-72 47 -133 97q-63 -56 -122 -97zM265 -5l-225 695l40 5l139 -428q48 -145 59 -215q11 64 67 238l129 401l39 4l139 -428q48 -145 59 -215q11 65 66 235l132 408l32 -5l5 -5l-223 -690h-25l-159 492 q-32 98 -45 151h-1q-13 -53 -45 -151l-158 -492h-25z" />
<glyph unicode="&#x175;" horiz-adv-x="740" d="M253 579l-13 11q62 85 100 154l43 5q47 -78 112 -159l-13 -11q-48 45 -120 126q-56 -69 -109 -126zM203 -5l-173 506l40 4l78 -229q42 -124 66 -224h1q19 86 64 216l81 237h24l77 -226q59 -172 67 -226h1q12 62 66 221l79 231l31 -5l5 -5l-171 -500h-21l-89 258 q-48 138 -58 194h-1q-9 -55 -56 -192l-89 -260h-22z" />
<glyph unicode="&#x176;" horiz-adv-x="552" d="M148 770l-13 13q61 54 113 118l43 5q54 -63 125 -123l-13 -13q-72 47 -133 97q-63 -56 -122 -97zM255 256l-225 435l44 4l136 -260q47 -86 67 -138h1q35 76 70 140l133 258l36 -5l5 -5l-225 -433v-252h-42v256z" />
<glyph unicode="&#x177;" horiz-adv-x="447" d="M114 579l-13 11q62 85 100 154l43 5q47 -78 112 -159l-13 -11q-48 45 -120 126q-56 -69 -109 -126zM427 495l-188 -500q-37 -100 -93 -168t-123 -82l-8 47q61 11 108.5 65t86.5 161v1l-180 482l40 4l87 -233q62 -164 72 -221h1q12 56 74 221l87 233l31 -5z" />
<glyph unicode="&#x178;" horiz-adv-x="552" d="M409 839q0 -19 -10 -33t-29 -14q-17 0 -27 11.5t-10 28.5q0 18 11.5 31.5t28.5 13.5t26.5 -10.5t9.5 -27.5zM219 839q0 -19 -10 -33t-29 -14q-17 0 -27 11.5t-10 28.5q0 18 11.5 31.5t28.5 13.5t26.5 -10.5t9.5 -27.5zM255 256l-225 435l44 4l136 -260q47 -86 67 -138h1 q35 76 70 140l133 258l36 -5l5 -5l-225 -433v-252h-42v256z" />
<glyph unicode="&#x179;" horiz-adv-x="498" d="M365 865l-1 -8q-95 -58 -224 -78l-7 17q129 47 202 100zM37 0l-7 25l379 625l-368 -3l3 38h407l10 -25l-379 -625l386 4l-3 -39h-428z" />
<glyph unicode="&#x17a;" horiz-adv-x="425" d="M296 736l3 -8q-58 -86 -162 -151l-10 13q91 93 130 162zM38 458l3 37h340l4 -25l-305 -438l162 3q124 3 148 4l-3 -39h-348l-4 25l305 438z" />
<glyph unicode="&#x17b;" horiz-adv-x="498" d="M289 846q0 -18 -10.5 -30.5t-30.5 -12.5q-18 0 -28.5 11t-10.5 28t12 30t30 13q38 0 38 -39zM37 0l-7 25l379 625l-368 -3l3 38h407l10 -25l-379 -625l386 4l-3 -39h-428z" />
<glyph unicode="&#x17c;" horiz-adv-x="425" d="M249 668q0 -19 -9.5 -33t-27.5 -14q-16 0 -25.5 12t-9.5 31t10.5 33t27.5 14q16 0 25 -12t9 -31zM38 458l3 37h340l4 -25l-305 -438l162 3q124 3 148 4l-3 -39h-348l-4 25l305 438z" />
<glyph unicode="&#x17d;" horiz-adv-x="498" d="M376 906l13 -13q-61 -54 -113 -118l-43 -5q-54 63 -125 123l13 13q72 -47 133 -97q63 56 122 97zM37 0l-7 25l379 625l-368 -3l3 38h407l10 -25l-379 -625l386 4l-3 -39h-428z" />
<glyph unicode="&#x17e;" horiz-adv-x="425" d="M327 750l13 -11q-62 -85 -100 -154l-43 -5q-47 78 -112 159l13 11q48 -45 120 -126q56 69 109 126zM38 458l3 37h340l4 -25l-305 -438l162 3q124 3 148 4l-3 -39h-348l-4 25l305 438z" />
<glyph unicode="&#x18f;" horiz-adv-x="644" d="M87 366l15 18h415q-9 137 -71.5 205t-160.5 68q-86 0 -168 -53l-4 38q71 53 177 53q126 0 200 -89.5t74 -262.5q0 -175 -72.5 -264t-182.5 -89q-100 0 -164.5 70.5t-64.5 193.5q0 38 7 112zM125 261q0 -113 52.5 -173t135.5 -60q97 0 151.5 81.5t54.5 228.5v13l-389 -8 q-5 -35 -5 -82z" />
<glyph unicode="&#x192;" horiz-adv-x="510" d="M209 298l-112 2l5 27l112 7l14 100q17 127 57 194t125 67q56 0 100 -26l-19 -40q-38 30 -80 30q-61 0 -93 -50.5t-50 -184.5l-12 -90h181l4 -5l-9 -31h-181l-47 -352q-3 -21 -5 -34t-8 -36.5t-13 -39t-19.5 -34.5t-27.5 -30t-37.5 -19t-49.5 -8q-55 0 -96 26l19 40 q34 -30 83 -30q31 0 52.5 14t33 41.5t16.5 50.5t10 60l48 351h-1z" />
<glyph unicode="&#x19d;" horiz-adv-x="688" d="M25 -182l-15 26q92 50 92 199v495q0 81 -7 147l46 10q109 -172 195 -311q22 -35 58 -92t54.5 -86.5t42.5 -72.5t43 -82h1q-4 108 -4 487q0 81 -7 147l44 10l5 -5v-690h-45q-32 52 -97 155.5t-98 155.5q-16 25 -46.5 73.5t-43.5 70t-34 56t-36.5 63.5t-31.5 60h-1 q4 -88 4 -252v-339q0 -167 -119 -225z" />
<glyph unicode="&#x1cd;" horiz-adv-x="599" d="M427 906l13 -13q-61 -54 -113 -118l-43 -5q-54 63 -125 123l13 13q72 -47 133 -97q63 56 122 97zM71 0h-41l218 592q30 83 35 100l27 3l5 -5l254 -690h-44l-82 222h-290zM232 437l-66 -179h264l-66 179q-52 143 -65 200h-1q-13 -56 -66 -200z" />
<glyph unicode="&#x1ce;" horiz-adv-x="496" d="M346 750l13 -11q-62 -85 -100 -154l-43 -5q-47 78 -112 159l13 11q48 -45 120 -126q56 69 109 126zM385 148q0 -81 25 -148l-40 -10q-16 34 -22 70q-23 -28 -65 -49t-91 -21q-60 0 -93.5 33t-33.5 83q0 80 80.5 123.5t199.5 51.5v78q0 110 -111 110q-78 0 -152 -49l-3 40 q80 45 161 45q70 0 108 -36t38 -95q0 -38 -0.5 -124t-0.5 -102zM108 110q0 -35 22.5 -59.5t65.5 -24.5q39 0 81 21t68 51v149q-103 -7 -170 -42t-67 -95z" />
<glyph unicode="&#x1cf;" horiz-adv-x="272" d="M260 906l13 -13q-61 -54 -113 -118l-43 -5q-54 63 -125 123l13 13q72 -47 133 -97q63 56 122 97zM157 0h-42v538q0 81 -7 147l44 10l5 -5v-690z" />
<glyph unicode="&#x1d0;" horiz-adv-x="260" d="M212 755l10 -10q-47 -96 -70 -154l-43 -5q-33 70 -82 159l10 10q46 -55 93 -121q48 78 82 121zM110 0v348q0 91 -7 147l42 10l5 -5v-500h-40z" />
<glyph unicode="&#x1d1;" horiz-adv-x="694" d="M481 906l13 -13q-61 -54 -113 -118l-43 -5q-54 63 -125 123l13 13q72 -47 133 -97q63 56 122 97zM614 344q0 -167 -78 -260.5t-194 -93.5q-114 0 -188 91t-74 251q0 165 78.5 264t195.5 99q114 0 187 -94.5t73 -256.5zM125 338q0 -142 60 -226t161 -84q100 0 161.5 82 t61.5 231q0 143 -57.5 229.5t-157.5 86.5t-164.5 -85.5t-64.5 -233.5z" />
<glyph unicode="&#x1d2;" horiz-adv-x="556" d="M392 750l13 -11q-62 -85 -100 -154l-43 -5q-47 78 -112 159l13 11q48 -45 120 -126q56 69 109 126zM481 251q0 -124 -60 -192.5t-148 -68.5t-143 68.5t-55 185.5q0 124 60 192.5t148 68.5t143 -68.5t55 -185.5zM118 248q0 -100 41.5 -161t115.5 -61q72 0 117.5 57.5 t45.5 163.5q0 100 -41.5 161t-115.5 61q-72 0 -117.5 -57.5t-45.5 -163.5z" />
<glyph unicode="&#x1d3;" horiz-adv-x="644" d="M449 906l13 -13q-61 -54 -113 -118l-43 -5q-54 63 -125 123l13 13q72 -47 133 -97q63 56 122 97zM100 540q0 80 -10 147l52 8v-478q0 -89 51 -139t129 -50t129 49.5t51 139.5v323q0 80 -10 147l52 8v-475q0 -110 -64 -170t-163 -60q-94 0 -155.5 60t-61.5 170v320z" />
<glyph unicode="&#x1d4;" horiz-adv-x="553" d="M389 750l13 -11q-62 -85 -100 -154l-43 -5q-47 78 -112 159l13 11q48 -45 120 -126q56 69 109 126zM110 348q0 69 -5 147l40 10l5 -5v-368q0 -106 96 -106q73 0 152 77v392l40 10v-360q0 -79 20 -142l-36 -13q-14 31 -22 76q-76 -76 -162 -76q-62 0 -95 34t-33 98v226z " />
<glyph unicode="&#x1d5;" horiz-adv-x="644" d="M195 1009v39h254v-39h-254zM455 839q0 -19 -10 -33t-29 -14q-17 0 -27 11.5t-10 28.5q0 18 11.5 31.5t28.5 13.5t26.5 -10.5t9.5 -27.5zM265 839q0 -19 -10 -33t-29 -14q-17 0 -27 11.5t-10 28.5q0 18 11.5 31.5t28.5 13.5t26.5 -10.5t9.5 -27.5zM100 540q0 80 -10 147 l52 8v-478q0 -89 51 -139t129 -50t129 49.5t51 139.5v323q0 80 -10 147l52 8v-475q0 -110 -64 -170t-163 -60q-94 0 -155.5 60t-61.5 170v320z" />
<glyph unicode="&#x1d6;" horiz-adv-x="553" d="M143 859v34h264v-34h-264zM216 667q0 -20 -9 -34.5t-27 -14.5q-15 0 -24.5 12t-9.5 30q0 19 10.5 33.5t26.5 14.5q15 0 24 -11.5t9 -29.5zM404 667q0 -20 -9 -34.5t-27 -14.5q-15 0 -24.5 12t-9.5 30q0 19 10.5 33.5t26.5 14.5q15 0 24 -11.5t9 -29.5zM110 348 q0 69 -5 147l40 10l5 -5v-368q0 -106 96 -106q73 0 152 77v392l40 10v-360q0 -79 20 -142l-36 -13q-14 31 -22 76q-76 -76 -162 -76q-62 0 -95 34t-33 98v226z" />
<glyph unicode="&#x1d7;" horiz-adv-x="644" d="M438 1057l-1 -8q-95 -58 -224 -78l-7 17q129 47 202 100zM455 839q0 -19 -10 -33t-29 -14q-17 0 -27 11.5t-10 28.5q0 18 11.5 31.5t28.5 13.5t26.5 -10.5t9.5 -27.5zM265 839q0 -19 -10 -33t-29 -14q-17 0 -27 11.5t-10 28.5q0 18 11.5 31.5t28.5 13.5t26.5 -10.5 t9.5 -27.5zM100 540q0 80 -10 147l52 8v-478q0 -89 51 -139t129 -50t129 49.5t51 139.5v323q0 80 -10 147l52 8v-475q0 -110 -64 -170t-163 -60q-94 0 -155.5 60t-61.5 170v320z" />
<glyph unicode="&#x1d8;" horiz-adv-x="553" d="M358 949l3 -8q-58 -86 -162 -151l-10 13q91 93 130 162zM216 667q0 -20 -9 -34.5t-27 -14.5q-15 0 -24.5 12t-9.5 30q0 19 10.5 33.5t26.5 14.5q15 0 24 -11.5t9 -29.5zM404 667q0 -20 -9 -34.5t-27 -14.5q-15 0 -24.5 12t-9.5 30q0 19 10.5 33.5t26.5 14.5 q15 0 24 -11.5t9 -29.5zM110 348q0 69 -5 147l40 10l5 -5v-368q0 -106 96 -106q73 0 152 77v392l40 10v-360q0 -79 20 -142l-36 -13q-14 31 -22 76q-76 -76 -162 -76q-62 0 -95 34t-33 98v226z" />
<glyph unicode="&#x1d9;" horiz-adv-x="644" d="M449 1098l13 -13q-61 -54 -113 -118l-43 -5q-54 63 -125 123l13 13q72 -47 133 -97q63 56 122 97zM455 839q0 -19 -10 -33t-29 -14q-17 0 -27 11.5t-10 28.5q0 18 11.5 31.5t28.5 13.5t26.5 -10.5t9.5 -27.5zM265 839q0 -19 -10 -33t-29 -14q-17 0 -27 11.5t-10 28.5 q0 18 11.5 31.5t28.5 13.5t26.5 -10.5t9.5 -27.5zM100 540q0 80 -10 147l52 8v-478q0 -89 51 -139t129 -50t129 49.5t51 139.5v323q0 80 -10 147l52 8v-475q0 -110 -64 -170t-163 -60q-94 0 -155.5 60t-61.5 170v320z" />
<glyph unicode="&#x1da;" horiz-adv-x="553" d="M389 963l13 -11q-62 -85 -100 -154l-43 -5q-47 78 -112 159l13 11q48 -45 120 -126q56 69 109 126zM216 667q0 -20 -9 -34.5t-27 -14.5q-15 0 -24.5 12t-9.5 30q0 19 10.5 33.5t26.5 14.5q15 0 24 -11.5t9 -29.5zM404 667q0 -20 -9 -34.5t-27 -14.5q-15 0 -24.5 12 t-9.5 30q0 19 10.5 33.5t26.5 14.5q15 0 24 -11.5t9 -29.5zM110 348q0 69 -5 147l40 10l5 -5v-368q0 -106 96 -106q73 0 152 77v392l40 10v-360q0 -79 20 -142l-36 -13q-14 31 -22 76q-76 -76 -162 -76q-62 0 -95 34t-33 98v226z" />
<glyph unicode="&#x1db;" horiz-adv-x="644" d="M431 971q-129 20 -224 78l-1 8l30 31q73 -53 202 -100zM455 839q0 -19 -10 -33t-29 -14q-17 0 -27 11.5t-10 28.5q0 18 11.5 31.5t28.5 13.5t26.5 -10.5t9.5 -27.5zM265 839q0 -19 -10 -33t-29 -14q-17 0 -27 11.5t-10 28.5q0 18 11.5 31.5t28.5 13.5t26.5 -10.5 t9.5 -27.5zM100 540q0 80 -10 147l52 8v-478q0 -89 51 -139t129 -50t129 49.5t51 139.5v323q0 80 -10 147l52 8v-475q0 -110 -64 -170t-163 -60q-94 0 -155.5 60t-61.5 170v320z" />
<glyph unicode="&#x1dc;" horiz-adv-x="553" d="M351 793q-104 65 -162 151l3 8l39 16q39 -69 130 -162zM216 667q0 -20 -9 -34.5t-27 -14.5q-15 0 -24.5 12t-9.5 30q0 19 10.5 33.5t26.5 14.5q15 0 24 -11.5t9 -29.5zM404 667q0 -20 -9 -34.5t-27 -14.5q-15 0 -24.5 12t-9.5 30q0 19 10.5 33.5t26.5 14.5q15 0 24 -11.5 t9 -29.5zM110 348q0 69 -5 147l40 10l5 -5v-368q0 -106 96 -106q73 0 152 77v392l40 10v-360q0 -79 20 -142l-36 -13q-14 31 -22 76q-76 -76 -162 -76q-62 0 -95 34t-33 98v226z" />
<glyph unicode="&#x1e6;" horiz-adv-x="651" d="M474 906l13 -13q-61 -54 -113 -118l-43 -5q-54 63 -125 123l13 13q72 -47 133 -97q63 56 122 97zM556 288l5 -5l-2 -242q-38 -24 -96 -37.5t-108 -13.5q-126 0 -200.5 90t-74.5 252q0 170 81 266.5t219 96.5q93 0 158 -38l-9 -42q-58 42 -147 42q-117 0 -187 -83 t-70 -235q0 -140 61.5 -225.5t176.5 -85.5q79 0 154 33v70q0 81 -7 147z" />
<glyph unicode="&#x1e7;" horiz-adv-x="474" d="M341 750l13 -11q-62 -85 -100 -154l-43 -5q-47 78 -112 159l13 11q48 -45 120 -126q56 69 109 126zM123 84q0 43 33 76q-44 19 -69 60.5t-25 99.5q0 79 43 132t120 53q55 0 95 -30q45 30 106 30h7v-47h-93q46 -48 46 -127t-42.5 -132t-118.5 -53q-23 0 -39 4 q-23 -25 -23 -58q0 -49 62 -54l81 -6q60 -4 99 -32t39 -85q0 -69 -58 -119.5t-160 -50.5q-89 0 -142.5 38.5t-53.5 96.5q0 60 51 95l23 -11q-33 -37 -33 -76q0 -44 42 -76t116 -32q79 0 126.5 36t47.5 91q0 40 -27.5 63t-74.5 26l-73 5q-105 7 -105 83zM344 323 q0 68 -31 107.5t-89 39.5q-59 0 -89.5 -37.5t-30.5 -106.5q0 -67 31.5 -106t90.5 -39q58 0 88 37.5t30 104.5z" />
<glyph unicode="&#x1ea;" horiz-adv-x="694" d="M614 344q0 -114 -37.5 -194t-101.5 -122q-61 -48 -87.5 -83t-26.5 -72q0 -52 56 -52q24 0 56 12l9 -22q-29 -23 -76 -23q-41 0 -64 21.5t-23 61.5q0 64 80 125q-27 -6 -57 -6q-114 0 -188 91t-74 251q0 165 78.5 264t195.5 99q114 0 187 -94.5t73 -256.5zM125 338 q0 -142 60 -226t161 -84q100 0 161.5 82t61.5 231q0 143 -57.5 229.5t-157.5 86.5t-164.5 -85.5t-64.5 -233.5z" />
<glyph unicode="&#x1eb;" horiz-adv-x="556" d="M481 251q0 -161 -100 -229q-95 -76 -95 -145q0 -56 56 -56q24 0 56 12l9 -22q-29 -23 -76 -23q-40 0 -63.5 20.5t-23.5 58.5q0 66 69 127q-17 -4 -40 -4q-88 0 -143 68.5t-55 185.5q0 124 60 192.5t148 68.5t143 -68.5t55 -185.5zM118 248q0 -100 41.5 -161t115.5 -61 q72 0 117.5 57.5t45.5 163.5q0 100 -41.5 161t-115.5 61q-72 0 -117.5 -57.5t-45.5 -163.5z" />
<glyph unicode="&#x1f4;" horiz-adv-x="651" d="M463 865l-1 -8q-95 -58 -224 -78l-7 17q129 47 202 100zM556 288l5 -5l-2 -242q-38 -24 -96 -37.5t-108 -13.5q-126 0 -200.5 90t-74.5 252q0 170 81 266.5t219 96.5q93 0 158 -38l-9 -42q-58 42 -147 42q-117 0 -187 -83t-70 -235q0 -140 61.5 -225.5t176.5 -85.5 q79 0 154 33v70q0 81 -7 147z" />
<glyph unicode="&#x1f5;" horiz-adv-x="474" d="M310 736l3 -8q-58 -86 -162 -151l-10 13q91 93 130 162zM123 84q0 43 33 76q-44 19 -69 60.5t-25 99.5q0 79 43 132t120 53q55 0 95 -30q45 30 106 30h7v-47h-93q46 -48 46 -127t-42.5 -132t-118.5 -53q-23 0 -39 4q-23 -25 -23 -58q0 -49 62 -54l81 -6q60 -4 99 -32 t39 -85q0 -69 -58 -119.5t-160 -50.5q-89 0 -142.5 38.5t-53.5 96.5q0 60 51 95l23 -11q-33 -37 -33 -76q0 -44 42 -76t116 -32q79 0 126.5 36t47.5 91q0 40 -27.5 63t-74.5 26l-73 5q-105 7 -105 83zM344 323q0 68 -31 107.5t-89 39.5q-59 0 -89.5 -37.5t-30.5 -106.5 q0 -67 31.5 -106t90.5 -39q58 0 88 37.5t30 104.5z" />
<glyph unicode="&#x1fa;" horiz-adv-x="599" d="M416 1086l-1 -8q-95 -58 -224 -78l-7 17q129 47 202 100zM378 837q0 -32 -23.5 -54.5t-57.5 -22.5q-29 0 -52 20t-23 49q0 32 24 54.5t58 22.5q32 0 53 -20t21 -49zM256 832q0 -20 12 -32.5t32 -12.5q19 0 31.5 13.5t12.5 33.5t-11.5 32.5t-31.5 12.5t-32.5 -13.5 t-12.5 -33.5zM71 0h-41l218 592q30 83 35 100l27 3l5 -5l254 -690h-44l-82 222h-290zM232 437l-66 -179h264l-66 179q-52 143 -65 200h-1q-13 -56 -66 -200z" />
<glyph unicode="&#x1fb;" horiz-adv-x="496" d="M315 961l3 -8q-58 -86 -162 -151l-10 13q91 93 130 162zM310 651q0 -32 -23.5 -54.5t-57.5 -22.5q-29 0 -52 20t-23 49q0 32 24 54.5t58 22.5q32 0 53 -20t21 -49zM188 646q0 -20 12 -32.5t32 -12.5q19 0 31.5 13.5t12.5 33.5t-11.5 32.5t-31.5 12.5t-32.5 -13.5 t-12.5 -33.5zM385 148q0 -81 25 -148l-40 -10q-16 34 -22 70q-23 -28 -65 -49t-91 -21q-60 0 -93.5 33t-33.5 83q0 80 80.5 123.5t199.5 51.5v78q0 110 -111 110q-78 0 -152 -49l-3 40q80 45 161 45q70 0 108 -36t38 -95q0 -38 -0.5 -124t-0.5 -102zM108 110 q0 -35 22.5 -59.5t65.5 -24.5q39 0 81 21t68 51v149q-103 -7 -170 -42t-67 -95z" />
<glyph unicode="&#x1fc;" horiz-adv-x="833" d="M553 865l-1 -8q-95 -58 -224 -78l-7 17q129 47 202 100zM71 0h-41l292 592q7 14 23.5 46t23.5 47h304l5 -5v-34l-268 4l44 -292l225 2v-39l-219 2l44 -288l284 4v-39h-323l-33 222h-253zM284 437l-87 -179h230l-26 179q-19 134 -22 200h-1q-17 -43 -94 -200z" />
<glyph unicode="&#x1fd;" horiz-adv-x="772" d="M469 736l3 -8q-58 -86 -162 -151l-10 13q91 93 130 162zM704 261l-15 -15h-301q1 -106 46.5 -163t120.5 -57q69 0 136 47l4 -36q-61 -47 -146 -47q-120 0 -174 106q-27 -43 -79 -74.5t-108 -31.5q-57 0 -90 33.5t-33 83.5q0 54 41.5 93t102 57.5t136.5 23.5v78 q0 110 -111 110q-78 0 -152 -49l-3 40q80 45 161 45q61 0 97.5 -27t45.5 -73q57 100 165 100q71 0 114 -49.5t43 -133.5q0 -41 -1 -61zM544 469q-61 0 -105 -49.5t-50 -143.5l273 7q1 12 1 36q0 69 -32 109.5t-87 40.5zM108 110q0 -35 22.5 -59.5t65.5 -24.5q49 0 97 29 t71 69q-19 48 -19 118v5q-103 -7 -170 -42t-67 -95z" />
<glyph unicode="&#x1fe;" horiz-adv-x="694" d="M470 865l-1 -8q-95 -58 -224 -78l-7 17q129 47 202 100zM614 344q0 -167 -78 -260.5t-194 -93.5q-122 0 -194 99l-78 -89l-25 22l84 96q-49 87 -49 214q0 165 78.5 264t195.5 99t190 -99l78 90l26 -21l-85 -98q51 -91 51 -223zM125 338q0 -108 35 -183l356 409 q-58 93 -162 93q-100 0 -164.5 -85.5t-64.5 -233.5zM569 341q0 111 -36 191l-356 -409q62 -95 169 -95q100 0 161.5 82t61.5 231z" />
<glyph unicode="&#x1ff;" horiz-adv-x="556" d="M361 736l3 -8q-58 -86 -162 -151l-10 13q91 93 130 162zM481 251q0 -124 -60 -192.5t-148 -68.5q-93 0 -147 73l-57 -61l-23 22l63 67q-34 62 -34 153q0 124 60 192.5t148 68.5q90 0 146 -71l56 60l24 -22l-62 -67q34 -62 34 -154zM118 248q0 -73 22 -124l260 279 q-43 66 -119 66q-72 0 -117.5 -57.5t-45.5 -163.5zM438 247q0 72 -22 125l-261 -278q43 -68 120 -68q72 0 117.5 57.5t45.5 163.5z" />
<glyph unicode="&#x218;" horiz-adv-x="501" d="M436 162q0 -78 -57 -125t-151 -47q-89 0 -163 35l8 43q69 -40 159 -40q76 0 118.5 36t42.5 94q0 33 -11.5 59t-38.5 48t-46.5 33.5t-58.5 32.5q-42 22 -62.5 34.5t-49.5 36.5t-41.5 53.5t-12.5 66.5q0 78 56.5 125.5t148.5 47.5q87 0 151 -33l-8 -43q-62 38 -144 38 q-75 0 -118 -34.5t-43 -92.5q0 -31 12 -56t35 -44t46.5 -33t54.5 -31q3 -1 5 -2t4.5 -2.5t4.5 -2.5q35 -18 57.5 -33t48.5 -39t39.5 -55.5t13.5 -69.5zM220 -306q26 53 35 94h-2q-16 0 -26.5 12.5t-10.5 30.5q0 19 10.5 33.5t30.5 14.5q39 0 39 -49q0 -62 -56 -147z" />
<glyph unicode="&#x219;" horiz-adv-x="435" d="M356 473l-8 -41q-57 37 -115 37q-55 0 -87 -25.5t-32 -65.5q0 -35 26.5 -61t64 -43t75 -35t64 -48t26.5 -71q0 -57 -46.5 -93.5t-120.5 -36.5q-75 0 -138 32l8 41q60 -37 135 -37q56 0 87.5 25t31.5 64q0 34 -26.5 59t-64 41.5t-75 34.5t-64 48.5t-26.5 72.5 q0 59 45.5 96.5t119.5 37.5q60 0 120 -32zM186 -306q26 53 35 94h-2q-16 0 -26.5 12.5t-10.5 30.5q0 19 10.5 33.5t30.5 14.5q39 0 39 -49q0 -62 -56 -147z" />
<glyph unicode="&#x21a;" horiz-adv-x="521" d="M282 0h-42v650q-95 0 -215 -5l3 40h465l3 -40q-120 5 -214 5v-650zM222 -306q26 53 35 94h-2q-16 0 -26.5 12.5t-10.5 30.5q0 19 10.5 33.5t30.5 14.5q39 0 39 -49q0 -62 -56 -147z" />
<glyph unicode="&#x21b;" horiz-adv-x="341" d="M288 462h-138v-311q0 -68 20 -96.5t61 -28.5q43 0 81 25l9 -33q-44 -28 -98 -28q-57 0 -85 36t-28 115v321h-76v26l76 7l9 112l29 4l5 -5l-3 -111h135l5 -5zM169 -306q26 53 35 94h-2q-16 0 -26.5 12.5t-10.5 30.5q0 19 10.5 33.5t30.5 14.5q39 0 39 -49q0 -62 -56 -147z " />
<glyph unicode="&#x232;" horiz-adv-x="552" d="M149 817v39h254v-39h-254zM255 256l-225 435l44 4l136 -260q47 -86 67 -138h1q35 76 70 140l133 258l36 -5l5 -5l-225 -433v-252h-42v256z" />
<glyph unicode="&#x233;" horiz-adv-x="447" d="M97 646v34h264v-34h-264zM427 495l-188 -500q-37 -100 -93 -168t-123 -82l-8 47q61 11 108.5 65t86.5 161v1l-180 482l40 4l87 -233q62 -164 72 -221h1q12 56 74 221l87 233l31 -5z" />
<glyph unicode="&#x237;" horiz-adv-x="260" d="M33 -255l-12 25q89 54 89 170v408q0 63 -7 147l42 10l5 -5v-551q0 -148 -117 -204z" />
<glyph unicode="&#x259;" horiz-adv-x="502" d="M68 234l15 15h301v15q0 205 -149 205q-78 0 -154 -47l-4 36q21 16 67.5 31.5t96.5 15.5q186 0 186 -239q0 -137 -58.5 -206.5t-143.5 -69.5q-72 0 -115 49.5t-43 133.5q0 41 1 61zM109 176q0 -69 32 -109.5t88 -40.5q60 0 102.5 47.5t50.5 145.5l-272 -7q-1 -12 -1 -36z " />
<glyph unicode="&#x272;" d="M33 -255l-12 25q89 54 89 170v410q0 79 -20 142l36 13q14 -31 22 -76q79 76 171 76q63 0 97 -36t34 -106v-363h-40v353q0 116 -100 116q-80 0 -160 -75v-445q0 -148 -117 -204z" />
<glyph unicode="&#x2c6;" horiz-adv-x="355" d="M63 579l-13 11q62 85 100 154l43 5q47 -78 112 -159l-13 -11q-48 45 -120 126q-56 -69 -109 -126z" />
<glyph unicode="&#x2c7;" horiz-adv-x="355" d="M292 762l13 -11q-62 -85 -100 -154l-43 -5q-47 78 -112 159l13 11q48 -45 120 -126q56 69 109 126z" />
<glyph unicode="&#x2d8;" horiz-adv-x="338" d="M265 730l23 -3q-11 -58 -43.5 -90t-78.5 -32q-45 0 -76.5 32.5t-39.5 89.5l22 3q11 -39 37 -60.5t62 -21.5q33 0 58 22t36 60z" />
<glyph unicode="&#x2d9;" horiz-adv-x="172" d="M122 665q0 -19 -9.5 -33t-27.5 -14q-16 0 -25.5 12t-9.5 31t10.5 33t27.5 14q16 0 25 -12t9 -31z" />
<glyph unicode="&#x2da;" horiz-adv-x="256" d="M206 667q0 -32 -23.5 -54.5t-57.5 -22.5q-29 0 -52 20t-23 49q0 32 24 54.5t58 22.5q32 0 53 -20t21 -49zM84 662q0 -20 12 -32.5t32 -12.5q19 0 31.5 13.5t12.5 33.5t-11.5 32.5t-31.5 12.5t-32.5 -13.5t-12.5 -33.5z" />
<glyph unicode="&#x2db;" horiz-adv-x="365" d="M268 0q-111 -64 -111 -127q0 -52 56 -52q24 0 56 12l9 -22q-29 -23 -74 -23q-42 0 -65.5 19.5t-23.5 54.5q0 82 132 149z" />
<glyph unicode="&#x2dc;" horiz-adv-x="402" d="M134 710q26 0 68 -28t61 -28q35 0 63 57l16 -3q-7 -36 -29 -64t-55 -28q-27 0 -68.5 28t-60.5 28q-35 0 -63 -57l-16 3q8 36 29.5 64t54.5 28z" />
<glyph unicode="&#x2dd;" horiz-adv-x="364" d="M213 742l3 -8q-59 -88 -156 -154l-10 13q84 79 130 162zM327 742l3 -8q-59 -88 -156 -154l-10 13q84 79 130 162z" />
<glyph unicode="&#x394;" horiz-adv-x="580" d="M272 690h35l243 -670l-2 -20h-516l-2 20zM73 33h430l-215 583z" />
<glyph unicode="&#x3a9;" horiz-adv-x="718" d="M292 0h-242l-5 36l5 5l202 -16q-69 53 -115 148.5t-46 201.5q0 137 77 228.5t191 91.5t191 -91.5t77 -228.5q0 -106 -46 -201.5t-115 -148.5l202 16l5 -5l-5 -36h-242l-3 23q72 58 115.5 151.5t43.5 193.5q0 123 -64.5 206t-158.5 83t-158.5 -83t-64.5 -206 q0 -100 43.5 -193.5t115.5 -151.5z" />
<glyph unicode="&#x3bc;" horiz-adv-x="553" d="M110 350q0 67 -5 145l40 10l5 -5v-368q0 -51 24 -78.5t69 -27.5q76 0 155 77v392l40 10v-360q0 -79 20 -142l-36 -13q-14 31 -22 76q-76 -76 -162 -76q-68 0 -100 52q6 -45 11 -153.5t8 -133.5l-42 -10l-5 5v600z" />
<glyph unicode="&#x3c0;" horiz-adv-x="606" d="M136 0v472l-120 -1l10 30l555 4l5 -5l-6 -25l-104 -1v-408q0 -40 34 -40q17 0 43 7l-1 -33q-27 -10 -50 -10q-66 0 -66 68v416l-260 -2v-472h-40z" />
<glyph unicode="&#x1e0c;" horiz-adv-x="677" d="M597 344q0 -160 -92 -252t-245 -92h-145v538q0 81 -7 147h162q139 0 233 -92.5t94 -248.5zM264 649h-107v-613h101q141 0 217.5 79.5t76.5 226.5q0 143 -79 225t-209 82zM372 -159q0 -19 -9.5 -33t-27.5 -14q-16 0 -25.5 12t-9.5 31t10.5 33t27.5 14q16 0 25 -12t9 -31z " />
<glyph unicode="&#x1e0d;" horiz-adv-x="558" d="M401 745l42 10l5 -5v-608q0 -76 26 -142l-40 -10q-13 27 -22 69q-47 -69 -139 -69q-88 0 -143 68t-55 183q0 125 64.5 194.5t160.5 69.5q58 0 108 -25v118q0 91 -7 147zM118 243q0 -102 43.5 -159.5t116.5 -57.5q78 0 130 70v347q-50 26 -113 26q-76 0 -126.5 -57.5 t-50.5 -168.5zM313 -159q0 -19 -9.5 -33t-27.5 -14q-16 0 -25.5 12t-9.5 31t10.5 33t27.5 14q16 0 25 -12t9 -31z" />
<glyph unicode="&#x1e24;" horiz-adv-x="701" d="M157 0h-42v538q0 81 -7 147l44 10l5 -5v-331h387v179q0 81 -7 147l44 10l5 -5v-690h-42v323h-387v-323zM387 -159q0 -19 -9.5 -33t-27.5 -14q-16 0 -25.5 12t-9.5 31t10.5 33t27.5 14q16 0 25 -12t9 -31z" />
<glyph unicode="&#x1e25;" d="M150 0h-40v598q0 91 -7 147l42 10l5 -5v-319q80 74 169 74q63 0 97 -36t34 -106v-363h-40v353q0 116 -100 116q-81 0 -160 -73v-396zM323 -159q0 -19 -9.5 -33t-27.5 -14q-16 0 -25.5 12t-9.5 31t10.5 33t27.5 14q16 0 25 -12t9 -31z" />
<glyph unicode="&#x1e44;" horiz-adv-x="701" d="M387 846q0 -18 -10.5 -30.5t-30.5 -12.5q-18 0 -28.5 11t-10.5 28t12 30t30 13q38 0 38 -39zM349 384q22 -35 58 -92t54.5 -86.5t42.5 -72.5t43 -82h1q-4 108 -4 487q0 81 -7 147l44 10l5 -5v-690h-45q-33 52 -98 155.5t-97 155.5q-16 25 -46.5 73.5t-43.5 70t-34 56 t-36.5 63.5t-31.5 60h-1q4 -88 4 -252v-382h-42v538q0 81 -7 147l46 10q109 -172 195 -311z" />
<glyph unicode="&#x1e45;" horiz-adv-x="565" d="M311 668q0 -19 -9.5 -33t-27.5 -14q-16 0 -25.5 12t-9.5 31t10.5 33t27.5 14q16 0 25 -12t9 -31zM155 0h-40v350q0 79 -20 142l36 13q14 -31 22 -76q79 76 171 76q63 0 97 -36t34 -106v-363h-40v353q0 116 -100 116q-80 0 -160 -75v-394z" />
<glyph unicode="&#x1e5a;" horiz-adv-x="574" d="M157 0h-42v538q0 81 -7 147h155q105 0 168.5 -56t63.5 -147q0 -69 -38 -115.5t-106 -66.5l173 -300l-39 -10l-171 297h-157v-287zM261 650h-104v-328h100q91 0 142 41t51 119q0 74 -47.5 121t-141.5 47zM335 -159q0 -19 -9.5 -33t-27.5 -14q-16 0 -25.5 12t-9.5 31 t10.5 33t27.5 14q16 0 25 -12t9 -31z" />
<glyph unicode="&#x1e5b;" horiz-adv-x="373" d="M155 0h-40v350q0 79 -20 142l36 13q14 -31 22 -76q82 76 153 76q28 0 47 -13l-15 -35q-18 8 -37 8q-67 0 -146 -73v-392zM172 -159q0 -19 -9.5 -33t-27.5 -14q-16 0 -25.5 12t-9.5 31t10.5 33t27.5 14q16 0 25 -12t9 -31z" />
<glyph unicode="&#x1e62;" horiz-adv-x="501" d="M436 162q0 -78 -57 -125t-151 -47q-89 0 -163 35l8 43q69 -40 159 -40q76 0 118.5 36t42.5 94q0 33 -11.5 59t-38.5 48t-46.5 33.5t-58.5 32.5q-42 22 -62.5 34.5t-49.5 36.5t-41.5 53.5t-12.5 66.5q0 78 56.5 125.5t148.5 47.5q87 0 151 -33l-8 -43q-62 38 -144 38 q-75 0 -118 -34.5t-43 -92.5q0 -31 12 -56t35 -44t46.5 -33t54.5 -31q3 -1 5 -2t4.5 -2.5t4.5 -2.5q35 -18 57.5 -33t48.5 -39t39.5 -55.5t13.5 -69.5zM297 -159q0 -19 -9.5 -33t-27.5 -14q-16 0 -25.5 12t-9.5 31t10.5 33t27.5 14q16 0 25 -12t9 -31z" />
<glyph unicode="&#x1e63;" horiz-adv-x="435" d="M356 473l-8 -41q-57 37 -115 37q-55 0 -87 -25.5t-32 -65.5q0 -35 26.5 -61t64 -43t75 -35t64 -48t26.5 -71q0 -57 -46.5 -93.5t-120.5 -36.5q-75 0 -138 32l8 41q60 -37 135 -37q56 0 87.5 25t31.5 64q0 34 -26.5 59t-64 41.5t-75 34.5t-64 48.5t-26.5 72.5 q0 59 45.5 96.5t119.5 37.5q60 0 120 -32zM263 -159q0 -19 -9.5 -33t-27.5 -14q-16 0 -25.5 12t-9.5 31t10.5 33t27.5 14q16 0 25 -12t9 -31z" />
<glyph unicode="&#x1e6c;" horiz-adv-x="521" d="M282 0h-42v650q-95 0 -215 -5l3 40h465l3 -40q-120 5 -214 5v-650zM299 -159q0 -19 -9.5 -33t-27.5 -14q-16 0 -25.5 12t-9.5 31t10.5 33t27.5 14q16 0 25 -12t9 -31z" />
<glyph unicode="&#x1e6d;" horiz-adv-x="341" d="M288 462h-138v-311q0 -68 20 -96.5t61 -28.5q43 0 81 25l9 -33q-44 -28 -98 -28q-57 0 -85 36t-28 115v321h-76v26l76 7l9 112l29 4l5 -5l-3 -111h135l5 -5zM246 -159q0 -19 -9.5 -33t-27.5 -14q-16 0 -25.5 12t-9.5 31t10.5 33t27.5 14q16 0 25 -12t9 -31z" />
<glyph unicode="&#x1e80;" horiz-adv-x="986" d="M602 779q-129 20 -224 78l-1 8l30 31q73 -53 202 -100zM265 -5l-225 695l40 5l139 -428q48 -145 59 -215q11 64 67 238l129 401l39 4l139 -428q48 -145 59 -215q11 65 66 235l132 408l32 -5l5 -5l-223 -690h-25l-159 492q-32 98 -45 151h-1q-13 -53 -45 -151l-158 -492 h-25z" />
<glyph unicode="&#x1e81;" horiz-adv-x="740" d="M444 580q-104 65 -162 151l3 8l39 16q39 -69 130 -162zM203 -5l-173 506l40 4l78 -229q42 -124 66 -224h1q19 86 64 216l81 237h24l77 -226q59 -172 67 -226h1q12 62 66 221l79 231l31 -5l5 -5l-171 -500h-21l-89 258q-48 138 -58 194h-1q-9 -55 -56 -192l-89 -260h-22z " />
<glyph unicode="&#x1e82;" horiz-adv-x="986" d="M609 865l-1 -8q-95 -58 -224 -78l-7 17q129 47 202 100zM265 -5l-225 695l40 5l139 -428q48 -145 59 -215q11 64 67 238l129 401l39 4l139 -428q48 -145 59 -215q11 65 66 235l132 408l32 -5l5 -5l-223 -690h-25l-159 492q-32 98 -45 151h-1q-13 -53 -45 -151l-158 -492 h-25z" />
<glyph unicode="&#x1e83;" horiz-adv-x="740" d="M451 736l3 -8q-58 -86 -162 -151l-10 13q91 93 130 162zM203 -5l-173 506l40 4l78 -229q42 -124 66 -224h1q19 86 64 216l81 237h24l77 -226q59 -172 67 -226h1q12 62 66 221l79 231l31 -5l5 -5l-171 -500h-21l-89 258q-48 138 -58 194h-1q-9 -55 -56 -192l-89 -260h-22z " />
<glyph unicode="&#x1e84;" horiz-adv-x="986" d="M626 839q0 -19 -10 -33t-29 -14q-17 0 -27 11.5t-10 28.5q0 18 11.5 31.5t28.5 13.5t26.5 -10.5t9.5 -27.5zM436 839q0 -19 -10 -33t-29 -14q-17 0 -27 11.5t-10 28.5q0 18 11.5 31.5t28.5 13.5t26.5 -10.5t9.5 -27.5zM265 -5l-225 695l40 5l139 -428q48 -145 59 -215 q11 64 67 238l129 401l39 4l139 -428q48 -145 59 -215q11 65 66 235l132 408l32 -5l5 -5l-223 -690h-25l-159 492q-32 98 -45 151h-1q-13 -53 -45 -151l-158 -492h-25z" />
<glyph unicode="&#x1e85;" horiz-adv-x="740" d="M309 667q0 -20 -9 -34.5t-27 -14.5q-15 0 -24.5 12t-9.5 30q0 19 10.5 33.5t26.5 14.5q15 0 24 -11.5t9 -29.5zM497 667q0 -20 -9 -34.5t-27 -14.5q-15 0 -24.5 12t-9.5 30q0 19 10.5 33.5t26.5 14.5q15 0 24 -11.5t9 -29.5zM203 -5l-173 506l40 4l78 -229 q42 -124 66 -224h1q19 86 64 216l81 237h24l77 -226q59 -172 67 -226h1q12 62 66 221l79 231l31 -5l5 -5l-171 -500h-21l-89 258q-48 138 -58 194h-1q-9 -55 -56 -192l-89 -260h-22z" />
<glyph unicode="&#x1e92;" horiz-adv-x="498" d="M37 0l-7 25l379 625l-368 -3l3 38h407l10 -25l-379 -625l386 4l-3 -39h-428zM297 -159q0 -19 -9.5 -33t-27.5 -14q-16 0 -25.5 12t-9.5 31t10.5 33t27.5 14q16 0 25 -12t9 -31z" />
<glyph unicode="&#x1e93;" horiz-adv-x="425" d="M38 458l3 37h340l4 -25l-305 -438l162 3q124 3 148 4l-3 -39h-348l-4 25l305 438zM249 -159q0 -19 -9.5 -33t-27.5 -14q-16 0 -25.5 12t-9.5 31t10.5 33t27.5 14q16 0 25 -12t9 -31z" />
<glyph unicode="&#x1e9e;" horiz-adv-x="603" d="M102 77v388q0 111 62 170.5t159 59.5q57 0 105 -23.5t76 -66.5l-181 -216q48 -19 82.5 -37t66.5 -44.5t49 -62t17 -79.5q0 -78 -52 -127t-136 -49q-62 0 -116 25v43q52 -30 119 -30q66 0 104 37.5t38 98.5q0 74 -56.5 120t-161.5 79v23l175 212q-44 59 -124 59 q-84 0 -134 -52t-50 -137v-390q0 -50 -14 -88l-40 10q12 38 12 77z" />
<glyph unicode="&#x1ea0;" horiz-adv-x="599" d="M71 0h-41l218 592q30 83 35 100l27 3l5 -5l254 -690h-44l-82 222h-290zM232 437l-66 -179h264l-66 179q-52 143 -65 200h-1q-13 -56 -66 -200zM336 -159q0 -19 -9.5 -33t-27.5 -14q-16 0 -25.5 12t-9.5 31t10.5 33t27.5 14q16 0 25 -12t9 -31z" />
<glyph unicode="&#x1ea1;" horiz-adv-x="496" d="M385 148q0 -81 25 -148l-40 -10q-16 34 -22 70q-23 -28 -65 -49t-91 -21q-60 0 -93.5 33t-33.5 83q0 80 80.5 123.5t199.5 51.5v78q0 110 -111 110q-78 0 -152 -49l-3 40q80 45 161 45q70 0 108 -36t38 -95q0 -38 -0.5 -124t-0.5 -102zM108 110q0 -35 22.5 -59.5 t65.5 -24.5q39 0 81 21t68 51v149q-103 -7 -170 -42t-67 -95zM281 -159q0 -19 -9.5 -33t-27.5 -14q-16 0 -25.5 12t-9.5 31t10.5 33t27.5 14q16 0 25 -12t9 -31z" />
<glyph unicode="&#x1eb8;" horiz-adv-x="510" d="M465 39v-39h-350v538q0 81 -7 147h342l5 -5v-34l-298 4v-292l256 2v-39l-256 2v-288zM338 -159q0 -19 -9.5 -33t-27.5 -14q-16 0 -25.5 12t-9.5 31t10.5 33t27.5 14q16 0 25 -12t9 -31z" />
<glyph unicode="&#x1eb9;" horiz-adv-x="502" d="M434 261l-15 -15h-301q1 -106 46.5 -163t120.5 -57q69 0 136 47l4 -36q-61 -47 -146 -47q-93 0 -148.5 67t-55.5 185q0 125 59.5 194t143.5 69q71 0 114 -49.5t43 -133.5q0 -41 -1 -61zM274 469q-61 0 -105 -49.5t-50 -143.5l273 7q1 12 1 36q0 69 -32 109.5t-87 40.5z M311 -159q0 -19 -9.5 -33t-27.5 -14q-16 0 -25.5 12t-9.5 31t10.5 33t27.5 14q16 0 25 -12t9 -31z" />
<glyph unicode="&#x1ebc;" horiz-adv-x="510" d="M214 890q29 0 74 -28t67 -28q41 0 70 57l16 -3q-6 -37 -30 -64.5t-61 -27.5q-30 0 -74.5 28t-66.5 28q-41 0 -70 -57l-16 3q6 35 29.5 63.5t61.5 28.5zM465 39v-39h-350v538q0 81 -7 147h342l5 -5v-34l-298 4v-292l256 2v-39l-256 2v-288z" />
<glyph unicode="&#x1ebd;" horiz-adv-x="502" d="M203 710q26 0 68 -28t61 -28q34 0 63 57l16 -3q-7 -36 -29 -64t-55 -28q-27 0 -68.5 28t-60.5 28q-34 0 -63 -57l-16 3q8 36 29.5 64t54.5 28zM434 261l-15 -15h-301q1 -106 46.5 -163t120.5 -57q69 0 136 47l4 -36q-61 -47 -146 -47q-93 0 -148.5 67t-55.5 185 q0 125 59.5 194t143.5 69q71 0 114 -49.5t43 -133.5q0 -41 -1 -61zM274 469q-61 0 -105 -49.5t-50 -143.5l273 7q1 12 1 36q0 69 -32 109.5t-87 40.5z" />
<glyph unicode="&#x1eca;" horiz-adv-x="272" d="M157 0h-42v538q0 81 -7 147l44 10l5 -5v-690zM172 -159q0 -19 -9.5 -33t-27.5 -14q-16 0 -25.5 12t-9.5 31t10.5 33t27.5 14q16 0 25 -12t9 -31z" />
<glyph unicode="&#x1ecb;" horiz-adv-x="260" d="M161 668q0 -19 -9.5 -33t-27.5 -14q-16 0 -25.5 12t-9.5 31t10.5 33t27.5 14q16 0 25 -12t9 -31zM110 0v348q0 91 -7 147l42 10l5 -5v-500h-40zM167 -159q0 -19 -9.5 -33t-27.5 -14q-16 0 -25.5 12t-9.5 31t10.5 33t27.5 14q16 0 25 -12t9 -31z" />
<glyph unicode="&#x1ecc;" horiz-adv-x="694" d="M614 344q0 -167 -78 -260.5t-194 -93.5q-114 0 -188 91t-74 251q0 165 78.5 264t195.5 99q114 0 187 -94.5t73 -256.5zM125 338q0 -142 60 -226t161 -84q100 0 161.5 82t61.5 231q0 143 -57.5 229.5t-157.5 86.5t-164.5 -85.5t-64.5 -233.5zM390 -159q0 -19 -9.5 -33 t-27.5 -14q-16 0 -25.5 12t-9.5 31t10.5 33t27.5 14q16 0 25 -12t9 -31z" />
<glyph unicode="&#x1ecd;" horiz-adv-x="556" d="M481 251q0 -124 -60 -192.5t-148 -68.5t-143 68.5t-55 185.5q0 124 60 192.5t148 68.5t143 -68.5t55 -185.5zM118 248q0 -100 41.5 -161t115.5 -61q72 0 117.5 57.5t45.5 163.5q0 100 -41.5 161t-115.5 61q-72 0 -117.5 -57.5t-45.5 -163.5zM314 -159q0 -19 -9.5 -33 t-27.5 -14q-16 0 -25.5 12t-9.5 31t10.5 33t27.5 14q16 0 25 -12t9 -31z" />
<glyph unicode="&#x1ee4;" horiz-adv-x="644" d="M100 540q0 80 -10 147l52 8v-478q0 -89 51 -139t129 -50t129 49.5t51 139.5v323q0 80 -10 147l52 8v-475q0 -110 -64 -170t-163 -60q-94 0 -155.5 60t-61.5 170v320zM358 -159q0 -19 -9.5 -33t-27.5 -14q-16 0 -25.5 12t-9.5 31t10.5 33t27.5 14q16 0 25 -12t9 -31z" />
<glyph unicode="&#x1ee5;" horiz-adv-x="553" d="M110 348q0 69 -5 147l40 10l5 -5v-368q0 -106 96 -106q73 0 152 77v392l40 10v-360q0 -79 20 -142l-36 -13q-14 31 -22 76q-76 -76 -162 -76q-62 0 -95 34t-33 98v226zM311 -159q0 -19 -9.5 -33t-27.5 -14q-16 0 -25.5 12t-9.5 31t10.5 33t27.5 14q16 0 25 -12t9 -31z " />
<glyph unicode="&#x1ef2;" horiz-adv-x="552" d="M385 779q-129 20 -224 78l-1 8l30 31q73 -53 202 -100zM255 256l-225 435l44 4l136 -260q47 -86 67 -138h1q35 76 70 140l133 258l36 -5l5 -5l-225 -433v-252h-42v256z" />
<glyph unicode="&#x1ef3;" horiz-adv-x="447" d="M305 580q-104 65 -162 151l3 8l39 16q39 -69 130 -162zM427 495l-188 -500q-37 -100 -93 -168t-123 -82l-8 47q61 11 108.5 65t86.5 161v1l-180 482l40 4l87 -233q62 -164 72 -221h1q12 56 74 221l87 233l31 -5z" />
<glyph unicode="&#x1ef8;" horiz-adv-x="552" d="M208 890q29 0 74 -28t67 -28q41 0 70 57l16 -3q-6 -37 -30 -64.5t-61 -27.5q-30 0 -74.5 28t-66.5 28q-41 0 -70 -57l-16 3q6 35 29.5 63.5t61.5 28.5zM255 256l-225 435l44 4l136 -260q47 -86 67 -138h1q35 76 70 140l133 258l36 -5l5 -5l-225 -433v-252h-42v256z" />
<glyph unicode="&#x1ef9;" horiz-adv-x="447" d="M163 710q26 0 68 -28t61 -28q34 0 63 57l16 -3q-7 -36 -29 -64t-55 -28q-27 0 -68.5 28t-60.5 28q-34 0 -63 -57l-16 3q8 36 29.5 64t54.5 28zM427 495l-188 -500q-37 -100 -93 -168t-123 -82l-8 47q61 11 108.5 65t86.5 161v1l-180 482l40 4l87 -233q62 -164 72 -221h1 q12 56 74 221l87 233l31 -5z" />
<glyph unicode="&#x2007;" />
<glyph unicode="&#x2013;" horiz-adv-x="490" d="M30 279v35h430v-35h-430z" />
<glyph unicode="&#x2014;" horiz-adv-x="754" d="M30 279v35h694v-35h-694z" />
<glyph unicode="&#x2018;" horiz-adv-x="208" d="M158 744q-41 -93 -49 -167q17 -1 28 -13t11 -29q0 -20 -13 -34t-32 -14q-39 0 -39 52q0 41 23.5 105t52.5 110z" />
<glyph unicode="&#x2019;" horiz-adv-x="208" d="M50 500q41 93 49 167q-17 1 -28 13t-11 29q0 20 13 34t32 14q39 0 39 -52q0 -41 -23.5 -105t-52.5 -110z" />
<glyph unicode="&#x201a;" horiz-adv-x="208" d="M50 -177q41 93 49 167q-17 1 -28 13t-11 29q0 20 13 34t32 14q39 0 39 -52q0 -41 -23.5 -105t-52.5 -110z" />
<glyph unicode="&#x201c;" horiz-adv-x="365" d="M158 744q-41 -93 -49 -167q17 -1 28 -13t11 -29q0 -20 -13 -34t-32 -14q-39 0 -39 52q0 41 23.5 105t52.5 110zM315 744q-41 -93 -49 -167q17 -1 28 -13t11 -29q0 -20 -13 -34t-32 -14q-39 0 -39 52q0 41 23.5 105t52.5 110z" />
<glyph unicode="&#x201d;" horiz-adv-x="365" d="M207 501q41 93 49 167q-17 1 -28 13t-11 29q0 20 13 34t32 14q39 0 39 -52q0 -41 -23.5 -105t-52.5 -110zM50 501q41 93 49 167q-17 1 -28 13t-11 29q0 20 13 34t32 14q39 0 39 -52q0 -41 -23.5 -105t-52.5 -110z" />
<glyph unicode="&#x201e;" horiz-adv-x="365" d="M50 -177q41 93 49 167q-17 1 -28 13t-11 29q0 20 13 34t32 14q39 0 39 -52q0 -41 -23.5 -105t-52.5 -110zM207 -177q41 93 49 167q-17 1 -28 13t-11 29q0 20 13 34t32 14q39 0 39 -52q0 -41 -23.5 -105t-52.5 -110z" />
<glyph unicode="&#x2020;" horiz-adv-x="504" d="M262 0l-17 -3l-7 7l-9 168l8 298l-167 -5l-3 3q-3 14 -3 28l7 7l166 -5l-6 191l3 3q20 3 31 3l7 -7l-6 -190l168 5l3 -3q3 -14 3 -28l-7 -7l-167 5l8 -298l-9 -169z" />
<glyph unicode="&#x2021;" horiz-adv-x="504" d="M236 -3l-7 7l8 192l-166 -7l-7 7q0 18 3 32l3 3l166 -9q-8 115 -8 129q0 18 1.5 38t4 44.5t3.5 37.5l-167 -7l-3 3q-3 13 -3 32l7 7l166 -9l-8 192l3 3q22 3 35 3l7 -7l-8 -191l168 9l3 -3q3 -13 3 -32l-7 -7l-166 7q8 -107 8 -120q0 -14 -8 -129l166 9l7 -7 q0 -18 -3 -32l-3 -3l-168 7l8 -193l-3 -3q-6 0 -17.5 -1t-17.5 -2z" />
<glyph unicode="&#x2022;" horiz-adv-x="394" d="M194 160q-42 0 -68 29t-26 70q0 46 29.5 80.5t75.5 34.5q41 0 65 -27.5t24 -71.5q0 -46 -26 -80.5t-74 -34.5z" />
<glyph unicode="&#x2026;" horiz-adv-x="554" d="M148 37q0 -20 -13 -33.5t-30 -13.5q-16 0 -28.5 12t-12.5 31t13 33t31 14q17 0 28.5 -12t11.5 -31zM319 37q0 -20 -13 -33.5t-30 -13.5q-16 0 -28.5 12t-12.5 31t13 33t31 14q17 0 28.5 -12t11.5 -31zM490 37q0 -20 -13 -33.5t-30 -13.5q-16 0 -28.5 12t-12.5 31t13 33 t31 14q17 0 28.5 -12t11.5 -31z" />
<glyph unicode="&#x2030;" horiz-adv-x="1433" d="M409 498q0 -97 -49.5 -150.5t-121.5 -53.5q-73 0 -118 53.5t-45 144.5q0 97 49.5 150.5t121.5 53.5q73 0 118 -53.5t45 -144.5zM736 695l-422 -705h-40l421 705h41zM111 496q0 -78 34 -125t95 -47q59 0 96 44.5t37 126.5q0 77 -34 124t-94 47q-59 0 -96.5 -44.5 t-37.5 -125.5zM898 126q0 -97 -49.5 -150.5t-121.5 -53.5q-73 0 -118 53.5t-45 144.5q0 97 49.5 150.5t121.5 53.5q73 0 118 -53.5t45 -144.5zM1358 126q0 -97 -49.5 -150.5t-121.5 -53.5q-73 0 -118 53.5t-45 144.5q0 97 49.5 150.5t121.5 53.5q73 0 118 -53.5t45 -144.5z M600 124q0 -78 34 -125t95 -47q59 0 96 44.5t37 126.5q0 77 -34 124t-94 47q-59 0 -96.5 -44.5t-37.5 -125.5zM1060 124q0 -78 34 -125t95 -47q59 0 96 44.5t37 126.5q0 77 -34 124t-94 47q-59 0 -96.5 -44.5t-37.5 -125.5z" />
<glyph unicode="&#x2039;" horiz-adv-x="279" d="M60 286v12q62 57 167 197l12 -8q-49 -103 -123 -195q74 -92 123 -195l-12 -8q-105 140 -167 197z" />
<glyph unicode="&#x203a;" horiz-adv-x="279" d="M219 286q-62 -57 -167 -197l-12 8q49 103 123 195q-74 92 -123 195l12 8q105 -140 167 -197v-12z" />
<glyph unicode="&#x2044;" horiz-adv-x="564" d="M514 700l-425 -710h-39l424 710h40z" />
<glyph unicode="&#x2070;" horiz-adv-x="470" d="M400 556q0 -101 -48.5 -156.5t-120.5 -55.5t-116.5 55.5t-44.5 152.5q0 101 48.5 157.5t119.5 56.5q72 0 117 -56.5t45 -153.5zM110 555q0 -83 32 -133t91 -50q57 0 91.5 47.5t34.5 134.5q0 83 -31.5 133.5t-90.5 50.5q-57 0 -92 -48t-35 -135z" />
<glyph unicode="&#x2074;" horiz-adv-x="391" d="M40 494l190 266l40 6l4 -4v-266q46 2 67 5l-7 -36h-60v-113h-37v113h-191zM75 495v-1q49 1 142 1h20h1v133q0 69 1 97h-1z" />
<glyph unicode="&#x2075;" horiz-adv-x="366" d="M55 358l5 30q45 -15 95 -15q54 0 87.5 27t33.5 72q0 46 -31.5 69.5t-79.5 23.5q-53 0 -85 -13l-8 6v200h128q64 0 104 6l-3 -38h-195v-141q32 8 70 8q59 0 99.5 -30.5t40.5 -87.5q0 -59 -44 -95t-117 -36q-48 0 -100 14z" />
<glyph unicode="&#x2076;" horiz-adv-x="405" d="M214 344q-68 0 -106 48t-38 134q0 110 56.5 175t146.5 65q39 0 55 -9l-4 -30q-20 9 -49 9q-69 0 -115.5 -50.5t-49.5 -146.5h1q44 47 119 47q56 0 90.5 -32t34.5 -84q0 -57 -41 -91.5t-100 -34.5zM222 559q-34 0 -66.5 -14.5t-44.5 -38.5q9 -132 105 -132q43 0 71 26 t28 69q0 40 -24.5 65t-68.5 25z" />
<glyph unicode="&#x2077;" horiz-adv-x="345" d="M40 719l7 39h258l5 -5v-23q-73 -80 -126.5 -181t-59.5 -197h-40q6 92 63 196t123 177v1h-121q-61 0 -109 -7z" />
<glyph unicode="&#x2078;" horiz-adv-x="385" d="M191 344q-60 0 -100.5 27.5t-40.5 70.5q0 37 30.5 66.5t77.5 46.5v1q-95 47 -95 110q0 42 39 71t93 29q53 0 89.5 -28t36.5 -70q0 -34 -26 -63t-70 -47v-1q110 -42 110 -110q0 -44 -41 -73.5t-103 -29.5zM195 738q-39 0 -66.5 -19.5t-27.5 -50.5q0 -29 26.5 -53.5 t70.5 -41.5q38 16 62 41.5t24 53.5q0 30 -26 50t-63 20zM185 540q-41 -16 -69 -41.5t-28 -55.5q0 -32 29.5 -52t73.5 -20q45 0 74 21t31 53q1 31 -27 52.5t-84 42.5z" />
<glyph unicode="&#x2079;" horiz-adv-x="406" d="M50 630q0 60 41 98t100 38q64 0 104.5 -48t40.5 -131q0 -104 -59 -173.5t-147 -69.5q-30 0 -48 5v29q22 -4 44 -4q69 0 115 50t54 137q-36 -49 -114 -49q-59 0 -95 32t-36 86zM91 633q0 -42 25.5 -67.5t71.5 -25.5q79 0 107 57q-3 62 -31 101t-76 39q-42 0 -69.5 -29.5 t-27.5 -74.5z" />
<glyph unicode="&#x207f;" horiz-adv-x="471" d="M131 290h-33v272q0 62 -16 111l30 11q12 -32 17 -60q65 60 141 60q51 0 79 -28t28 -83v-283h-33v274q0 89 -82 89q-66 0 -131 -57v-306z" />
<glyph unicode="&#x2080;" horiz-adv-x="470" d="M400 132q0 -101 -48.5 -156.5t-120.5 -55.5t-116.5 55.5t-44.5 152.5q0 101 48.5 157.5t119.5 56.5q72 0 117 -56.5t45 -153.5zM110 131q0 -83 32 -133t91 -50q57 0 91.5 47.5t34.5 134.5q0 83 -31.5 133.5t-90.5 50.5q-57 0 -92 -48t-35 -135z" />
<glyph unicode="&#x2081;" horiz-adv-x="227" d="M100 300h-1l-77 -17l-7 22l118 39l4 -4v-410h-38v283q0 63 1 87z" />
<glyph unicode="&#x2082;" horiz-adv-x="359" d="M40 -70l-5 33q128 101 165 140q64 67 64 123q0 41 -28 64.5t-72 23.5q-66 0 -125 -45l-4 31q52 44 137 44q56 0 94 -30.5t38 -81.5q0 -27 -14 -56.5t-29 -50t-51.5 -53.5t-52 -45.5t-59.5 -46.5q-16 -12 -23 -18h137q54 0 104 6l-6 -38h-270z" />
<glyph unicode="&#x2083;" horiz-adv-x="346" d="M49 309q50 33 120 33q50 0 83.5 -24t33.5 -64q0 -36 -30 -66.5t-88 -48.5q63 -4 100.5 -29.5t37.5 -72.5q0 -52 -44 -84.5t-117 -32.5q-53 0 -105 14l4 29q51 -14 101 -14q54 0 87.5 23.5t33.5 62.5q0 41 -36.5 60t-92.5 19q-25 0 -44 -4v29q76 15 114.5 44.5t38.5 65.5 q0 29 -23 46t-62 17q-56 0 -108 -32z" />
<glyph unicode="&#x2084;" horiz-adv-x="391" d="M40 72l190 266l40 6l4 -4v-266q46 2 67 5l-7 -36h-60v-113h-37v113h-191zM75 73v-1q49 1 142 1h20h1v133q0 69 1 97h-1z" />
<glyph unicode="&#x2085;" horiz-adv-x="366" d="M55 -66l5 30q45 -15 95 -15q54 0 87.5 27t33.5 72q0 46 -31.5 69.5t-79.5 23.5q-53 0 -85 -13l-8 6v200h128q64 0 104 6l-3 -38h-195v-141q32 8 70 8q59 0 99.5 -30.5t40.5 -87.5q0 -59 -44 -95t-117 -36q-48 0 -100 14z" />
<glyph unicode="&#x2086;" horiz-adv-x="405" d="M214 -80q-68 0 -106 48t-38 134q0 110 56.5 175t146.5 65q39 0 55 -9l-4 -30q-20 9 -49 9q-69 0 -115.5 -50.5t-49.5 -146.5h1q44 47 119 47q56 0 90.5 -32t34.5 -84q0 -57 -41 -91.5t-100 -34.5zM222 135q-34 0 -66.5 -14.5t-44.5 -38.5q9 -132 105 -132q43 0 71 26 t28 69q0 40 -24.5 65t-68.5 25z" />
<glyph unicode="&#x2087;" horiz-adv-x="345" d="M40 297l7 39h258l5 -5v-23q-73 -80 -126.5 -181t-59.5 -197h-40q6 92 63 196t123 177v1h-121q-61 0 -109 -7z" />
<glyph unicode="&#x2088;" horiz-adv-x="385" d="M191 -80q-60 0 -100.5 27.5t-40.5 70.5q0 37 30.5 66.5t77.5 46.5v1q-95 47 -95 110q0 42 39 71t93 29q53 0 89.5 -28t36.5 -70q0 -34 -26 -63t-70 -47v-1q110 -42 110 -110q0 -44 -41 -73.5t-103 -29.5zM195 314q-39 0 -66.5 -19.5t-27.5 -50.5q0 -29 26.5 -53.5 t70.5 -41.5q38 16 62 41.5t24 53.5q0 30 -26 50t-63 20zM185 116q-41 -16 -69 -41.5t-28 -55.5q0 -32 29.5 -52t73.5 -20q45 0 74 21t31 53q1 31 -27 52.5t-84 42.5z" />
<glyph unicode="&#x2089;" horiz-adv-x="406" d="M50 206q0 60 41 98t100 38q64 0 104.5 -48t40.5 -131q0 -104 -59 -173.5t-147 -69.5q-30 0 -48 5v29q22 -4 44 -4q69 0 115 50t54 137q-36 -49 -114 -49q-59 0 -95 32t-36 86zM91 209q0 -42 25.5 -67.5t71.5 -25.5q79 0 107 57q-3 62 -31 101t-76 39q-42 0 -69.5 -29.5 t-27.5 -74.5z" />
<glyph unicode="&#x20ac;" horiz-adv-x="600" d="M60 250l4 30h63q-2 34 -2 52q0 20 2 56h-51l4 30h51q17 128 84.5 202.5t166.5 74.5q91 0 151 -45l-8 -42q-56 49 -139 49q-81 0 -138.5 -62.5t-72.5 -176.5h268l-3 -30h-268q-2 -30 -2 -48q0 -32 3 -60h254l-3 -30h-247q16 -104 69 -163t133 -59q87 0 155 58l6 -38 q-66 -58 -169 -58q-95 0 -159.5 68t-81.5 192h-70z" />
<glyph unicode="&#x2122;" horiz-adv-x="597" d="M482 688l4 -3l27 -225h-28l-10 87q-8 65 -11 104h-1q-12 -47 -31 -105l-28 -86h-32l-28 86q-23 71 -32 106h-1q-7 -77 -11 -106l-11 -86h-25l29 226l34 2l39 -114q16 -52 23 -86h1q19 74 23 86l38 112zM169 460h-30v203q-25 0 -69 -2l2 24h164l2 -24q-42 2 -69 2v-203z " />
<glyph unicode="&#x2202;" horiz-adv-x="599" d="M265 755q119 0 186.5 -112t67.5 -285q0 -102 -23 -181.5t-80.5 -133t-144.5 -53.5q-96 0 -148.5 60t-52.5 154q0 106 66.5 169.5t176.5 63.5q85 0 162 -42q-7 147 -66 235.5t-146 88.5q-34 0 -70.5 -13t-60.5 -33l-20 32q65 50 153 50zM113 209q0 -84 42.5 -133.5 t115.5 -49.5q93 0 149 80.5t56 233.5v11q-72 50 -161 50q-100 0 -151 -51t-51 -141z" />
<glyph unicode="&#x220f;" horiz-adv-x="733" d="M668 680l-4 -35h-130v-785h-40v785h-259v-785h-40v785h-130v35l598 5z" />
<glyph unicode="&#x2211;" horiz-adv-x="557" d="M65 -87l264 374l-264 373l10 25h442l5 -5l-3 -33l-409 5l257 -358v-15l-257 -358l409 5l-2 -38h-442z" />
<glyph unicode="&#x2212;" d="M503 328h-450v35q170 5 449 5l5 -5z" />
<glyph unicode="&#x221a;" horiz-adv-x="584" d="M557 745l-229 -745h-51l-178 462h-79v33h108l174 -456l218 716l32 -5z" />
<glyph unicode="&#x221e;" horiz-adv-x="844" d="M760 272q0 -73 -45 -119t-115 -46q-43 0 -79 20.5t-56.5 44.5t-45.5 63q-76 -128 -180 -128q-69 0 -112 44.5t-43 116.5q0 73 45 119t113 46q57 0 99 -32.5t82 -94.5q76 127 181 127q69 0 112.5 -44.5t43.5 -116.5zM597 397q-89 0 -154 -123q44 -72 68 -94q38 -37 88 -37 q53 0 87 35t34 90q0 56 -35.5 92.5t-87.5 36.5zM124 274q0 -56 35 -93t87 -37q90 0 155 120q-20 33 -32 50.5t-32.5 40t-43.5 32.5t-50 10q-53 0 -86 -34.5t-33 -88.5z" />
<glyph unicode="&#x222b;" horiz-adv-x="493" d="M192 -219q99 0 99 103q0 67 -66 369q-63 289 -63 362q0 67 38.5 103.5t104.5 36.5q57 0 118 -32l-8 -41q-57 37 -114 37q-99 0 -99 -104q0 -68 63 -353q66 -298 66 -375q0 -70 -38.5 -106t-104.5 -36q-57 0 -118 32l8 41q57 -37 114 -37z" />
<glyph unicode="&#x2248;" d="M407 324q-25 0 -135 38t-120 38q-18 0 -70 -75q-2 -3 -3.5 -4.5t-3 -4.5t-3.5 -5l-26 18q62 111 107 111q26 0 135.5 -38t119.5 -38q11 0 27 17.5t44 55.5q2 3 3.5 5t3.5 5t4 5l24 -17q-62 -111 -107 -111zM407 130q-25 0 -135 38t-120 38q-18 0 -70 -75q-2 -3 -3.5 -4.5 t-3 -4.5t-3.5 -5l-26 18q62 111 107 111q26 0 135.5 -38t119.5 -38q11 0 27 17.5t44 55.5q7 10 11 15l24 -17q-62 -111 -107 -111z" />
<glyph unicode="&#x2260;" d="M143 120l59 123h-149v35q48 1 167 3l70 146h-237v35q54 2 255 4l64 133l7 2l27 -14l-58 -121q60 1 154 1l5 -5l-4 -35h-174l-70 -146q184 2 243 2l5 -5l-4 -35h-263l-64 -134l-7 -2z" />
<glyph unicode="&#x2264;" d="M108 439l392 -146v-40l-447 172v25l4 6q187 72 442 155v-40zM503 103h-450v35q170 5 449 5l5 -5z" />
<glyph unicode="&#x2265;" d="M60 253v40l392 146l-391 132v40q255 -83 442 -155l4 -6v-25zM503 103h-450v35q170 5 449 5l5 -5z" />
<glyph unicode="&#x25ca;" horiz-adv-x="600" d="M77 330v25l216 335l48 10l223 -345v-27l-219 -328l-47 -10zM315 655l-196 -313l197 -306l8 1l200 305l-200 313h-9z" />
<glyph unicode="&#x25fc;" horiz-adv-x="505" d="M0 505h505v-505h-505v505z" />
<glyph unicode="&#xfb00;" horiz-adv-x="546" d="M150 0h-40v462l-76 2v24l76 7q0 15 -1 36.5t-1.5 36.5t-0.5 22q0 67 38.5 106t103.5 39q75 0 133 -37q36 57 115 57q57 0 104 -26l-12 -40q-43 30 -96 30q-52 0 -74 -32t-22 -96q0 -38 2 -96h136l5 -5l-2 -31l-138 3v-462h-40v462h-210v-462zM147 586q0 -35 2 -91h211 q0 15 -1 37t-1.5 38t-0.5 24q0 41 10 71q-57 34 -118 34q-102 0 -102 -113z" />
<glyph unicode="&#xfb01;" horiz-adv-x="513" d="M150 0h-40v462l-76 2v24l76 7q0 16 -1.5 52.5t-1.5 47.5q0 75 40.5 117.5t115.5 42.5q79 0 140 -46l-22 -34q-56 44 -123 44q-111 0 -111 -128q0 -38 2 -96h204l42 10l5 -5v-500h-40v348q0 60 -3 111l-207 3v-462z" />
<glyph unicode="&#xfb02;" horiz-adv-x="510" d="M150 0h-40v462l-76 2v24l76 7q0 16 -1.5 52.5t-1.5 47.5q0 75 43.5 117.5t128.5 42.5q48 0 84 -14v4l42 10l5 -5v-750h-40v598q0 54 -3 101q-44 20 -96 20q-124 0 -124 -128q0 -38 2 -96h216l5 -5l-2 -31l-218 3v-462z" />
<glyph unicode="&#xfb03;" horiz-adv-x="763" d="M150 0h-40v462l-76 2v24l76 7q0 18 -1.5 52.5t-1.5 42.5q0 66 42.5 105.5t110.5 39.5q74 0 125 -38q39 58 128 58q79 0 140 -46l-22 -34q-56 44 -123 44q-111 0 -111 -128q0 -38 2 -96h204l42 10l5 -5v-500h-40v348q0 60 -3 111l-207 3v-462h-40v462h-210v-462zM147 586 q0 -35 2 -91h211q0 16 -1.5 52.5t-1.5 47.5q0 37 11 70q-49 34 -110 34q-111 0 -111 -113z" />
<glyph unicode="&#xfb04;" horiz-adv-x="760" d="M150 0h-40v462l-76 2v24l76 7q0 18 -1.5 52.5t-1.5 42.5q0 66 42.5 105.5t110.5 39.5q74 0 126 -39q43 59 143 59q48 0 84 -14v4l42 10l5 -5v-750h-40v598q0 54 -3 101q-44 20 -96 20q-124 0 -124 -128q0 -38 2 -96h216l5 -5l-2 -31l-218 3v-462h-40v462h-210v-462z M147 586q0 -35 2 -91h211q0 16 -1.5 52.5t-1.5 47.5q0 39 12 69q-48 35 -111 35q-111 0 -111 -113z" />
<glyph unicode="&#xfb06;" horiz-adv-x="756" d="M356 473l-8 -41q-57 37 -115 37q-55 0 -87 -25.5t-32 -65.5q0 -35 26.5 -61t64 -43t75 -35t64 -48t26.5 -71q0 -57 -46.5 -93.5t-120.5 -36.5q-75 0 -138 32l8 41q60 -37 135 -37q56 0 87.5 25t31.5 64q0 34 -26.5 59t-64 41.5t-75 34.5t-64 48.5t-26.5 72.5 q0 59 45.5 96.5t119.5 37.5q34 0 73 -11q-26 47 -26 100q0 67 43.5 109t108.5 42q63 0 105 -40t42 -111q0 -48 -17 -99h135l5 -5l-2 -28h-138v-311q0 -18 0.5 -29t5 -31.5t12.5 -32.5t24.5 -22t40.5 -10q41 0 79 25l9 -33q-44 -28 -97 -28q-114 0 -114 151v321h-76v26l76 7 q14 36 14 89q0 125 -103 125q-50 0 -80 -31t-30 -90q0 -58 30 -115z" />
<glyph horiz-adv-x="259" d="M238 865l-1 -8q-95 -58 -224 -78l-7 17q129 47 202 100zM25 -182l-15 26q92 50 92 199v495q0 81 -7 147l44 10l5 -5v-647q0 -167 -119 -225z" />
<glyph horiz-adv-x="415" d="M320 45q0 -65 20 -115l-33 -8q-11 25 -18 54q-18 -22 -53 -38t-75 -16q-49 0 -76.5 25.5t-27.5 65.5q0 62 65.5 95.5t164.5 41.5v58q0 85 -91 85q-66 0 -125 -38l-2 34q64 35 132 35q58 0 89 -28t31 -76q0 -30 -0.5 -96t-0.5 -79zM93 17q0 -27 18.5 -46t53.5 -19 q32 0 66 16t56 39v116q-85 -6 -139.5 -32.5t-54.5 -73.5z" />
<glyph horiz-adv-x="470" d="M400 124q0 -97 -47.5 -149.5t-123.5 -52.5q-58 0 -103 19l-32 -19v473q0 59 -6 116l35 8l4 -4v-234q43 43 112 43q72 0 116.5 -53.5t44.5 -146.5zM236 294q-65 0 -109 -44v-281q44 -17 104 -17q62 0 98 44t36 125q0 79 -34 126t-95 47z" />
<glyph horiz-adv-x="402" d="M353 300l-10 -34q-41 27 -95 27q-66 0 -104.5 -43t-38.5 -125q0 -79 35.5 -125.5t100.5 -46.5q58 0 107 32l5 -31q-51 -32 -114 -32q-77 0 -123.5 51.5t-46.5 146.5q0 97 49.5 150.5t131.5 53.5q58 0 103 -24z" />
<glyph horiz-adv-x="470" d="M337 511l35 8l4 -4v-475q0 -59 21 -110l-33 -8q-11 20 -18 55q-39 -55 -114 -55q-72 0 -117.5 53t-45.5 143q0 98 53 152t132 54q50 0 88 -19v90q0 78 -5 116zM105 120q0 -78 36 -123t95 -45q65 0 106 53v270q-41 19 -92 19q-62 0 -103.5 -44t-41.5 -130z" />
<glyph horiz-adv-x="424" d="M364 133l-12 -12h-247q1 -81 38.5 -124.5t98.5 -43.5q57 0 111 36l4 -30q-51 -37 -120 -37q-76 0 -122 52.5t-46 144.5q0 97 49 151t118 54q59 0 94 -39t35 -105q0 -31 -1 -47zM233 294q-50 0 -86 -38t-41 -110l223 6q1 9 1 27q0 53 -26 84t-71 31z" />
<glyph horiz-adv-x="251" d="M127 -70h-33v358l-62 2v20l62 6q-2 58 -2 76q0 60 29 93.5t86 33.5q47 0 85 -20l-10 -35q-35 24 -79 24q-42 0 -60 -24.5t-18 -73.5q0 -5 0.5 -33.5t0.5 -40.5h112l4 -5l-2 -25l-113 2v-358z" />
<glyph horiz-adv-x="397" d="M105 -6q0 34 26 60q-76 33 -76 125q0 62 35.5 103.5t98.5 41.5q48 0 77 -24q37 25 88 25h5v-39h-76q38 -38 38 -98q0 -62 -35 -103.5t-97 -41.5q-18 0 -33 3q-18 -18 -18 -43q0 -38 51 -42l66 -5q49 -3 81 -24.5t32 -66.5q0 -54 -47.5 -94t-131.5 -40q-73 0 -116.5 30 t-43.5 75q0 47 41 74l19 -9q-27 -29 -27 -57q0 -34 34.5 -59t95.5 -25q64 0 103 28t39 69q0 31 -22.5 48.5t-60.5 20.5l-60 4q-86 6 -86 64zM286 182q0 53 -25.5 83t-72.5 30q-98 0 -98 -111q0 -52 25.5 -82t73.5 -30q47 0 72 29t25 81z" />
<glyph horiz-adv-x="467" d="M127 -70h-33v465q0 70 -6 116l35 8l4 -4v-249q64 58 139 58q51 0 79 -28t28 -83v-283h-33v274q0 89 -82 89q-67 0 -131 -55v-308z" />
<glyph horiz-adv-x="221" d="M135 486q0 -16 -7.5 -28t-21.5 -12q-13 0 -20.5 9.5t-7.5 24.5q0 16 8.5 27.5t21.5 11.5q27 0 27 -33zM94 -70v270q0 70 -6 116l35 8l4 -4v-390h-33z" />
<glyph horiz-adv-x="221" d="M135 486q0 -16 -7.5 -28t-21.5 -12q-13 0 -20.5 9.5t-7.5 24.5q0 16 8.5 27.5t21.5 11.5q27 0 27 -33zM68 -269l-16 18q42 60 42 144v307q0 59 -6 116l35 8l4 -4v-427q0 -95 -59 -162z" />
<glyph horiz-adv-x="412" d="M94 395q0 61 -6 116l35 8l4 -4v-367h77q37 45 136 176l21 -10l4 -4l-133 -170q50 -70 156 -210l-35 -8q-64 83 -146 198h-80v-190h-33v465z" />
<glyph horiz-adv-x="213" d="M119 -70h-33v465q0 61 -6 116l35 8l4 -4v-585z" />
<glyph horiz-adv-x="698" d="M131 -70h-33v272q0 62 -16 111l30 11q13 -33 17 -60q63 60 133 60q80 0 100 -63q63 63 137 63q51 0 78 -27t27 -77v-290h-34v282q0 81 -78 81q-62 0 -126 -58q1 -4 1 -15v-290h-33v282q0 81 -78 81q-63 0 -125 -57v-306z" />
<glyph horiz-adv-x="471" d="M131 -70h-33v272q0 62 -16 111l30 11q12 -32 17 -60q65 60 141 60q51 0 79 -28t28 -83v-283h-33v274q0 89 -82 89q-66 0 -131 -57v-306z" />
<glyph horiz-adv-x="472" d="M403 126q0 -97 -49.5 -150.5t-121.5 -53.5q-73 0 -118 53.5t-45 144.5q0 97 49.5 150.5t121.5 53.5q73 0 118 -53.5t45 -144.5zM105 124q0 -78 34 -125t95 -47q59 0 96 44.5t37 126.5q0 77 -34 124t-94 47q-59 0 -96.5 -44.5t-37.5 -125.5z" />
<glyph horiz-adv-x="474" d="M98 -264v466q0 60 -16 111l30 11q12 -29 15 -46q46 46 116 46q67 0 114 -52t47 -144q0 -91 -45.5 -148.5t-123.5 -57.5q-56 0 -104 27v-98q0 -55 6 -112l-35 -8zM238 294q-64 0 -107 -49v-266q50 -27 102 -27q65 0 100.5 46.5t35.5 126.5q0 82 -36.5 125.5t-94.5 43.5z " />
<glyph horiz-adv-x="470" d="M342 -264v228q-45 -42 -111 -42q-72 0 -117 53.5t-45 146.5q0 97 55.5 149.5t143.5 52.5q41 0 77 -13l31 13v-469q0 -69 5 -116l-34 -8zM105 125q0 -79 34 -126t95 -47q63 0 108 43v288q-38 11 -76 11q-75 0 -118 -44t-43 -125z" />
<glyph horiz-adv-x="314" d="M131 -70h-33v272q0 62 -16 111l30 11q13 -29 18 -61q67 61 125 61q23 0 39 -10l-13 -32q-16 7 -30 7q-55 0 -120 -56v-303z" />
<glyph horiz-adv-x="365" d="M296 299l-7 -35q-44 29 -94 29q-45 0 -71 -19t-26 -50q0 -27 21.5 -47t52.5 -33t62 -27t52.5 -37.5t21.5 -55.5q0 -45 -38 -73.5t-100 -28.5t-113 25l7 35q49 -29 111 -29q46 0 71.5 18.5t25.5 48.5q0 26 -21.5 45t-52.5 32t-62 27t-52.5 38t-21.5 57q0 46 37.5 75.5 t98.5 29.5q52 0 98 -25z" />
<glyph horiz-adv-x="288" d="M240 289h-113v-240q0 -52 16.5 -74t50.5 -22t66 20l7 -29q-37 -22 -80 -22q-47 0 -70 28.5t-23 91.5v247h-62v21l62 6l8 88l24 3l4 -4l-3 -87h111l4 -4z" />
<glyph horiz-adv-x="462" d="M94 200q0 42 -4 116l33 8l4 -4v-285q0 -82 79 -82q60 0 124 59v304l33 8v-281q0 -63 17 -111l-30 -10q-13 27 -18 59q-65 -59 -133 -59q-51 0 -78 27t-27 77v174z" />
<glyph horiz-adv-x="383" d="M354 316l-154 -390h-16l-155 395l33 3l71 -183q51 -128 59 -169h1q9 41 60 169l72 183l25 -4z" />
<glyph horiz-adv-x="615" d="M170 -74l-141 395l33 3l64 -179q35 -96 54 -172q16 67 53 166l66 185h20l63 -177q48 -130 55 -173h1q11 52 54 169l65 181l25 -4l4 -4l-140 -390h-17l-73 200q-39 105 -48 150h-1q-7 -40 -45 -149l-73 -201h-19z" />
<glyph horiz-adv-x="386" d="M313 -70l-121 173l-121 -173h-33l-1 4l132 189l-132 193l32 8l125 -181l123 181l32 -4v-4l-133 -193l133 -193h-36z" />
<glyph horiz-adv-x="375" d="M354 316l-154 -388q-30 -79 -76 -133t-101 -64l-7 40q50 8 89 49.5t71 122.5v1l-147 377l33 3l71 -183q51 -128 59 -169h1q9 41 60 169l72 183l25 -4z" />
<glyph horiz-adv-x="357" d="M35 284l3 32h278l4 -22l-250 -336l133 3q81 0 121 3l-3 -34h-285l-3 22l249 336z" />
<glyph horiz-adv-x="415" d="M320 405q0 -65 20 -115l-33 -8q-11 25 -18 54q-18 -22 -53 -38t-75 -16q-49 0 -76.5 25.5t-27.5 65.5q0 62 65.5 95.5t164.5 41.5v58q0 85 -91 85q-66 0 -125 -38l-2 34q64 35 132 35q58 0 89 -28t31 -76q0 -30 -0.5 -96t-0.5 -79zM93 377q0 -27 18.5 -46t53.5 -19 q32 0 66 16t56 39v116q-85 -6 -139.5 -32.5t-54.5 -73.5z" />
<glyph horiz-adv-x="470" d="M400 484q0 -97 -47.5 -149.5t-123.5 -52.5q-58 0 -103 19l-32 -19v473q0 59 -6 116l35 8l4 -4v-234q43 43 112 43q72 0 116.5 -53.5t44.5 -146.5zM236 654q-65 0 -109 -44v-281q44 -17 104 -17q62 0 98 44t36 125q0 79 -34 126t-95 47z" />
<glyph horiz-adv-x="402" d="M353 660l-10 -34q-41 27 -95 27q-66 0 -104.5 -43t-38.5 -125q0 -79 35.5 -125.5t100.5 -46.5q58 0 107 32l5 -31q-51 -32 -114 -32q-77 0 -123.5 51.5t-46.5 146.5q0 97 49.5 150.5t131.5 53.5q58 0 103 -24z" />
<glyph horiz-adv-x="470" d="M337 871l35 8l4 -4v-475q0 -59 21 -110l-33 -8q-11 20 -18 55q-39 -55 -114 -55q-72 0 -117.5 53t-45.5 143q0 98 53 152t132 54q50 0 88 -19v90q0 78 -5 116zM105 480q0 -78 36 -123t95 -45q65 0 106 53v270q-41 19 -92 19q-62 0 -103.5 -44t-41.5 -130z" />
<glyph horiz-adv-x="424" d="M364 493l-12 -12h-247q1 -81 38.5 -124.5t98.5 -43.5q57 0 111 36l4 -30q-51 -37 -120 -37q-76 0 -122 52.5t-46 144.5q0 97 49 151t118 54q59 0 94 -39t35 -105q0 -31 -1 -47zM233 654q-50 0 -86 -38t-41 -110l223 6q1 9 1 27q0 53 -26 84t-71 31z" />
<glyph horiz-adv-x="251" d="M127 290h-33v358l-62 2v20l62 6q-2 58 -2 76q0 60 29 93.5t86 33.5q47 0 85 -20l-10 -35q-35 24 -79 24q-42 0 -60 -24.5t-18 -73.5q0 -5 0.5 -33.5t0.5 -40.5h112l4 -5l-2 -25l-113 2v-358z" />
<glyph horiz-adv-x="397" d="M105 354q0 34 26 60q-76 33 -76 125q0 62 35.5 103.5t98.5 41.5q48 0 77 -24q37 25 88 25h5v-39h-76q38 -38 38 -98q0 -62 -35 -103.5t-97 -41.5q-18 0 -33 3q-18 -18 -18 -43q0 -38 51 -42l66 -5q49 -3 81 -24.5t32 -66.5q0 -54 -47.5 -94t-131.5 -40q-73 0 -116.5 30 t-43.5 75q0 47 41 74l19 -9q-27 -29 -27 -57q0 -34 34.5 -59t95.5 -25q64 0 103 28t39 69q0 31 -22.5 48.5t-60.5 20.5l-60 4q-86 6 -86 64zM286 542q0 53 -25.5 83t-72.5 30q-98 0 -98 -111q0 -52 25.5 -82t73.5 -30q47 0 72 29t25 81z" />
<glyph horiz-adv-x="467" d="M127 290h-33v465q0 70 -6 116l35 8l4 -4v-249q64 58 139 58q51 0 79 -28t28 -83v-283h-33v274q0 89 -82 89q-67 0 -131 -55v-308z" />
<glyph horiz-adv-x="221" d="M135 846q0 -16 -7.5 -28t-21.5 -12q-13 0 -20.5 9.5t-7.5 24.5q0 16 8.5 27.5t21.5 11.5q27 0 27 -33zM94 290v270q0 70 -6 116l35 8l4 -4v-390h-33z" />
<glyph horiz-adv-x="221" d="M135 846q0 -16 -7.5 -28t-21.5 -12q-13 0 -20.5 9.5t-7.5 24.5q0 16 8.5 27.5t21.5 11.5q27 0 27 -33zM68 91l-16 18q42 60 42 144v307q0 59 -6 116l35 8l4 -4v-427q0 -95 -59 -162z" />
<glyph horiz-adv-x="412" d="M94 755q0 61 -6 116l35 8l4 -4v-367h77q37 45 136 176l21 -10l4 -4l-133 -170q50 -70 156 -210l-35 -8q-64 82 -146 198h-80v-190h-33v465z" />
<glyph horiz-adv-x="213" d="M119 290h-33v465q0 61 -6 116l35 8l4 -4v-585z" />
<glyph horiz-adv-x="698" d="M131 290h-33v272q0 62 -16 111l30 11q13 -33 17 -60q63 60 133 60q80 0 100 -63q63 63 137 63q51 0 78 -27t27 -77v-290h-34v282q0 81 -78 81q-62 0 -126 -58q1 -4 1 -15v-290h-33v282q0 81 -78 81q-63 0 -125 -57v-306z" />
<glyph horiz-adv-x="472" d="M403 486q0 -97 -49.5 -150.5t-121.5 -53.5q-73 0 -118 53.5t-45 144.5q0 97 49.5 150.5t121.5 53.5q73 0 118 -53.5t45 -144.5zM105 484q0 -78 34 -125t95 -47q59 0 96 44.5t37 126.5q0 77 -34 124t-94 47q-59 0 -96.5 -44.5t-37.5 -125.5z" />
<glyph horiz-adv-x="474" d="M98 96v466q0 60 -16 111l30 11q12 -29 15 -46q46 46 116 46q67 0 114 -52t47 -144q0 -91 -45.5 -148.5t-123.5 -57.5q-56 0 -104 27v-98q0 -55 6 -112l-35 -8zM238 654q-64 0 -107 -49v-266q50 -27 102 -27q65 0 100.5 46.5t35.5 126.5q0 82 -36.5 125.5t-94.5 43.5z" />
<glyph horiz-adv-x="470" d="M342 96v228q-45 -42 -111 -42q-72 0 -117 53.5t-45 146.5q0 97 55.5 149.5t143.5 52.5q41 0 77 -13l31 13v-469q0 -69 5 -116l-34 -8zM105 485q0 -79 34 -126t95 -47q63 0 108 43v288q-38 11 -76 11q-75 0 -118 -44t-43 -125z" />
<glyph horiz-adv-x="314" d="M131 290h-33v272q0 62 -16 111l30 11q13 -29 18 -61q67 61 125 61q23 0 39 -10l-13 -32q-16 7 -30 7q-55 0 -120 -56v-303z" />
<glyph horiz-adv-x="365" d="M296 659l-7 -35q-44 29 -94 29q-45 0 -71 -19t-26 -50q0 -27 21.5 -47t52.5 -33t62 -27t52.5 -37.5t21.5 -55.5q0 -45 -38 -73.5t-100 -28.5t-113 25l7 35q49 -29 111 -29q46 0 71.5 18.5t25.5 48.5q0 26 -21.5 45t-52.5 32t-62 27t-52.5 38t-21.5 57q0 46 37.5 75.5 t98.5 29.5q52 0 98 -25z" />
<glyph horiz-adv-x="288" d="M240 649h-113v-240q0 -52 16.5 -74t50.5 -22t66 20l7 -29q-37 -22 -80 -22q-47 0 -70 28.5t-23 91.5v247h-62v21l62 6l8 88l24 3l4 -4l-3 -87h111l4 -4z" />
<glyph horiz-adv-x="462" d="M94 560q0 42 -4 116l33 8l4 -4v-285q0 -82 79 -82q60 0 124 59v304l33 8v-281q0 -63 17 -111l-30 -10q-13 27 -18 59q-65 -59 -133 -59q-51 0 -78 27t-27 77v174z" />
<glyph horiz-adv-x="383" d="M354 676l-154 -390h-16l-155 395l33 3l71 -183q51 -128 59 -169h1q9 41 60 169l72 183l25 -4z" />
<glyph horiz-adv-x="615" d="M170 286l-141 395l33 3l64 -179q35 -96 54 -172q16 67 53 166l66 185h20l63 -177q48 -130 55 -173h1q11 52 54 169l65 181l25 -4l4 -4l-140 -390h-17l-73 200q-39 105 -48 150h-1q-7 -40 -45 -149l-73 -201h-19z" />
<glyph horiz-adv-x="386" d="M313 290l-121 173l-121 -173h-33l-1 4l132 189l-132 193l32 8l125 -181l123 181l32 -4v-4l-133 -193l133 -193h-36z" />
<glyph horiz-adv-x="375" d="M354 676l-154 -388q-30 -79 -76 -133t-101 -64l-7 40q50 8 89 49.5t71 122.5v1l-147 377l33 3l71 -183q51 -128 59 -169h1q9 41 60 169l72 183l25 -4z" />
<glyph horiz-adv-x="357" d="M35 644l3 32h278l4 -22l-250 -336l133 3q81 0 121 3l-3 -34h-285l-3 22l249 336z" />
<glyph horiz-adv-x="260" d="M208 736l3 -8q-58 -86 -162 -151l-10 13q91 93 130 162zM33 -255l-12 25q89 54 89 170v408q0 63 -7 147l42 10l5 -5v-551q0 -148 -117 -204z" />
<glyph horiz-adv-x="1035" d="M625 0h-40v598q0 70 -4 119q-30 2 -42 2q-81 0 -128 -32t-47 -89q0 -72 56 -123l-12 -40q-50 34 -116 34q-80 0 -127 -56.5t-47 -163.5q0 -103 43.5 -163t122.5 -60q71 0 131 41l5 -36q-59 -41 -138 -41q-94 0 -150.5 65.5t-56.5 187.5q0 126 60 194t160 68q34 0 69 -8 q-43 46 -43 104q0 68 64 111t169 43q33 0 71 -5v-319q80 74 169 74q63 0 97 -36t34 -106v-363h-40v353q0 116 -100 116q-81 0 -160 -73v-396z" />
<glyph horiz-adv-x="806" d="M575 495q14 36 14 89q0 125 -101 125q-51 0 -81.5 -30.5t-30.5 -86.5q0 -63 44 -117l-12 -40q-50 34 -116 34q-80 0 -127 -56.5t-47 -163.5q0 -103 43.5 -163t122.5 -60q71 0 131 41l5 -36q-59 -41 -138 -41q-94 0 -150.5 65.5t-56.5 187.5q0 126 60 194t160 68 q29 0 64 -7q-26 44 -26 97q0 66 43.5 108t109.5 42q63 0 104.5 -39.5t41.5 -112.5q0 -47 -17 -98h135l5 -5l-2 -28h-138v-311q0 -18 0.5 -29t5 -31.5t12.5 -32.5t24.5 -22t40.5 -10q41 0 79 25l9 -33q-44 -28 -97 -28q-114 0 -114 151v321h-76v26z" />
<glyph horiz-adv-x="981" d="M571 0h-40v598q0 70 -4 119q-30 2 -42 2q-81 0 -128 -32.5t-47 -91.5q0 -70 46 -122l-8 -41q-57 37 -115 37q-55 0 -87 -25.5t-32 -65.5q0 -35 26.5 -61t64 -43t75 -35t64 -48t26.5 -71q0 -57 -46.5 -93.5t-120.5 -36.5q-75 0 -138 32l8 41q60 -37 135 -37q56 0 87.5 25 t31.5 64q0 34 -26.5 59t-64 41.5t-75 34.5t-64 48.5t-26.5 72.5q0 59 45.5 96.5t119.5 37.5q35 0 70 -10q-39 47 -39 104q0 70 64 113t169 43q33 0 71 -5v-319q80 74 169 74q63 0 97 -36t34 -106v-363h-40v353q0 116 -100 116q-81 0 -160 -73v-396z" />
<glyph horiz-adv-x="511" d="M64 0h-39l183 465q4 10 10.5 27t11.5 30t8 22l29 3l5 -5l214 -542h-42l-67 169h-246zM198 336l-53 -133h218l-53 133q-44 113 -55 159h-1q-13 -51 -56 -159z" />
<glyph horiz-adv-x="511" d="M339 777l3 -8q-58 -86 -162 -151l-10 13q91 93 130 162zM64 0h-39l183 465q4 10 10.5 27t11.5 30t8 22l29 3l5 -5l214 -542h-42l-67 169h-246zM198 336l-53 -133h218l-53 133q-44 113 -55 159h-1q-13 -51 -56 -159z" />
<glyph horiz-adv-x="511" d="M352 768l23 -3q-11 -58 -43.5 -90t-78.5 -32q-45 0 -76.5 32.5t-39.5 89.5l22 3q11 -39 37 -60.5t62 -21.5q33 0 58 22t36 60zM64 0h-39l183 465q4 10 10.5 27t11.5 30t8 22l29 3l5 -5l214 -542h-42l-67 169h-246zM198 336l-53 -133h218l-53 133q-44 113 -55 159h-1 q-13 -51 -56 -159z" />
<glyph horiz-adv-x="511" d="M370 791l13 -11q-62 -85 -100 -154l-43 -5q-47 78 -112 159l13 11q48 -45 120 -126q56 69 109 126zM64 0h-39l183 465q4 10 10.5 27t11.5 30t8 22l29 3l5 -5l214 -542h-42l-67 169h-246zM198 336l-53 -133h218l-53 133q-44 113 -55 159h-1q-13 -51 -56 -159z" />
<glyph horiz-adv-x="511" d="M141 620l-13 11q62 85 100 154l43 5q47 -78 112 -159l-13 -11q-48 45 -120 126q-56 -69 -109 -126zM64 0h-39l183 465q4 10 10.5 27t11.5 30t8 22l29 3l5 -5l214 -542h-42l-67 169h-246zM198 336l-53 -133h218l-53 133q-44 113 -55 159h-1q-13 -51 -56 -159z" />
<glyph horiz-adv-x="511" d="M197 708q0 -20 -9 -34.5t-27 -14.5q-15 0 -24.5 12t-9.5 30q0 19 10.5 33.5t26.5 14.5q15 0 24 -11.5t9 -29.5zM385 708q0 -20 -9 -34.5t-27 -14.5q-15 0 -24.5 12t-9.5 30q0 19 10.5 33.5t26.5 14.5q15 0 24 -11.5t9 -29.5zM64 0h-39l183 465q4 10 10.5 27t11.5 30t8 22 l29 3l5 -5l214 -542h-42l-67 169h-246zM198 336l-53 -133h218l-53 133q-44 113 -55 159h-1q-13 -51 -56 -159z" />
<glyph horiz-adv-x="511" d="M64 0h-39l183 465q4 10 10.5 27t11.5 30t8 22l29 3l5 -5l214 -542h-42l-67 169h-246zM198 336l-53 -133h218l-53 133q-44 113 -55 159h-1q-13 -51 -56 -159zM292 -159q0 -19 -9.5 -33t-27.5 -14q-16 0 -25.5 12t-9.5 31t10.5 33t27.5 14q16 0 25 -12t9 -31z" />
<glyph horiz-adv-x="511" d="M332 621q-104 65 -162 151l3 8l39 16q39 -69 130 -162zM64 0h-39l183 465q4 10 10.5 27t11.5 30t8 22l29 3l5 -5l214 -542h-42l-67 169h-246zM198 336l-53 -133h218l-53 133q-44 113 -55 159h-1q-13 -51 -56 -159z" />
<glyph horiz-adv-x="511" d="M124 687v34h264v-34h-264zM64 0h-39l183 465q4 10 10.5 27t11.5 30t8 22l29 3l5 -5l214 -542h-42l-67 169h-246zM198 336l-53 -133h218l-53 133q-44 113 -55 159h-1q-13 -51 -56 -159z" />
<glyph horiz-adv-x="511" d="M64 0h-39l183 465q4 10 10.5 27t11.5 30t8 22l29 3l5 -5l214 -542q-111 -64 -111 -127q0 -52 56 -52q24 0 56 12l9 -22q-29 -23 -74 -23q-42 0 -65.5 19.5t-23.5 54.5q0 76 111 138l-67 169h-246zM198 336l-53 -133h218l-53 133q-44 113 -55 159h-1q-13 -51 -56 -159z " />
<glyph horiz-adv-x="511" d="M334 692q0 -32 -23.5 -54.5t-57.5 -22.5q-29 0 -52 20t-23 49q0 32 24 54.5t58 22.5q32 0 53 -20t21 -49zM212 687q0 -20 12 -32.5t32 -12.5q19 0 31.5 13.5t12.5 33.5t-11.5 32.5t-31.5 12.5t-32.5 -13.5t-12.5 -33.5zM64 0h-39l183 465q4 10 10.5 27t11.5 30t8 22l29 3 l5 -5l214 -542h-42l-67 169h-246zM198 336l-53 -133h218l-53 133q-44 113 -55 159h-1q-13 -51 -56 -159z" />
<glyph horiz-adv-x="511" d="M339 1002l3 -8q-58 -86 -162 -151l-10 13q91 93 130 162zM334 692q0 -32 -23.5 -54.5t-57.5 -22.5q-29 0 -52 20t-23 49q0 32 24 54.5t58 22.5q32 0 53 -20t21 -49zM212 687q0 -20 12 -32.5t32 -12.5q19 0 31.5 13.5t12.5 33.5t-11.5 32.5t-31.5 12.5t-32.5 -13.5 t-12.5 -33.5zM64 0h-39l183 465q4 10 10.5 27t11.5 30t8 22l29 3l5 -5l214 -542h-42l-67 169h-246zM198 336l-53 -133h218l-53 133q-44 113 -55 159h-1q-13 -51 -56 -159z" />
<glyph horiz-adv-x="511" d="M190 751q26 0 68 -28t61 -28q35 0 63 57l16 -3q-7 -36 -29 -64t-55 -28q-27 0 -68.5 28t-60.5 28q-35 0 -63 -57l-16 3q8 36 29.5 64t54.5 28zM64 0h-39l183 465q4 10 10.5 27t11.5 30t8 22l29 3l5 -5l214 -542h-42l-67 169h-246zM198 336l-53 -133h218l-53 133 q-44 113 -55 159h-1q-13 -51 -56 -159z" />
<glyph horiz-adv-x="665" d="M64 0h-39l217 465q21 46 31 74h297l5 -5l-1 -32l-244 4l30 -222l198 2v-36l-193 2l29 -219l229 4v-37h-266q-11 77 -22 169h-192q-15 -33 -79 -169zM291 495q-26 -67 -132 -292h171q-31 234 -36 292h-3z" />
<glyph horiz-adv-x="665" d="M414 777l3 -8q-58 -86 -162 -151l-10 13q91 93 130 162zM64 0h-39l217 465q21 46 31 74h297l5 -5l-1 -32l-244 4l30 -222l198 2v-36l-193 2l29 -219l229 4v-37h-266q-11 77 -22 169h-192q-15 -33 -79 -169zM291 495q-26 -67 -132 -292h171q-31 234 -36 292h-3z" />
<glyph horiz-adv-x="476" d="M204 0h-120v422q0 60 -6 117h129q86 0 137.5 -37t51.5 -100q0 -90 -100 -122q62 -12 94 -47.5t32 -85.5q0 -69 -58.5 -108t-159.5 -39zM204 506h-80v-212h77q74 0 113.5 27t39.5 76q0 50 -38.5 79.5t-111.5 29.5zM205 261h-81v-228h85q84 0 127.5 29.5t43.5 85.5 q0 113 -175 113z" />
<glyph horiz-adv-x="516" d="M461 73l5 -36q-60 -45 -159 -45q-104 0 -168 71.5t-64 197.5q0 132 67 209t173 77q87 0 145 -35l-8 -40q-51 38 -134 38q-88 0 -144.5 -64.5t-56.5 -179.5q0 -106 51.5 -171.5t145.5 -65.5q83 0 147 44z" />
<glyph horiz-adv-x="516" d="M375 777l3 -8q-58 -86 -162 -151l-10 13q91 93 130 162zM461 73l5 -36q-60 -45 -159 -45q-104 0 -168 71.5t-64 197.5q0 132 67 209t173 77q87 0 145 -35l-8 -40q-51 38 -134 38q-88 0 -144.5 -64.5t-56.5 -179.5q0 -106 51.5 -171.5t145.5 -65.5q83 0 147 44z" />
<glyph horiz-adv-x="516" d="M406 791l13 -11q-62 -85 -100 -154l-43 -5q-47 78 -112 159l13 11q48 -45 120 -126q56 69 109 126zM461 73l5 -36q-60 -45 -159 -45q-104 0 -168 71.5t-64 197.5q0 132 67 209t173 77q87 0 145 -35l-8 -40q-51 38 -134 38q-88 0 -144.5 -64.5t-56.5 -179.5 q0 -106 51.5 -171.5t145.5 -65.5q83 0 147 44z" />
<glyph horiz-adv-x="516" d="M392 -123q0 -35 -35.5 -58.5t-88.5 -30.5l-6 22q88 21 88 59q0 34 -62 40l-7 11l23 72q-103 1 -166 72t-63 197q0 132 67 209t173 77q87 0 145 -35l-8 -40q-51 38 -134 38q-88 0 -144.5 -64.5t-56.5 -179.5q0 -106 51.5 -171.5t145.5 -65.5q83 0 147 44l5 -36 q-49 -37 -131 -44l-18 -55q34 -5 54.5 -20.5t20.5 -40.5z" />
<glyph horiz-adv-x="516" d="M177 620l-13 11q62 85 100 154l43 5q47 -78 112 -159l-13 -11q-48 45 -120 126q-56 -69 -109 -126zM461 73l5 -36q-60 -45 -159 -45q-104 0 -168 71.5t-64 197.5q0 132 67 209t173 77q87 0 145 -35l-8 -40q-51 38 -134 38q-88 0 -144.5 -64.5t-56.5 -179.5 q0 -106 51.5 -171.5t145.5 -65.5q83 0 147 44z" />
<glyph horiz-adv-x="516" d="M328 709q0 -19 -9.5 -33t-27.5 -14q-16 0 -25.5 12t-9.5 31t10.5 33t27.5 14q16 0 25 -12t9 -31zM461 73l5 -36q-60 -45 -159 -45q-104 0 -168 71.5t-64 197.5q0 132 67 209t173 77q87 0 145 -35l-8 -40q-51 38 -134 38q-88 0 -144.5 -64.5t-56.5 -179.5 q0 -106 51.5 -171.5t145.5 -65.5q83 0 147 44z" />
<glyph horiz-adv-x="567" d="M492 271q0 -124 -80.5 -197.5t-200.5 -73.5h-127v422q0 60 -6 117h136q118 0 198 -72.5t80 -195.5zM208 505h-84v-471h86q108 0 173.5 62.5t65.5 172.5q0 109 -66 172.5t-175 63.5z" />
<glyph horiz-adv-x="567" d="M492 271q0 -124 -80.5 -197.5t-200.5 -73.5h-127v249h-91v30h91v143q0 60 -6 117h136q118 0 198 -72.5t80 -195.5zM299 249h-175v-215h86q108 0 173.5 62.5t65.5 172.5q0 109 -66 172.5t-175 63.5h-84v-226h175v-30z" />
<glyph horiz-adv-x="567" d="M381 791l13 -11q-62 -85 -100 -154l-43 -5q-47 78 -112 159l13 11q48 -45 120 -126q56 69 109 126zM492 271q0 -124 -80.5 -197.5t-200.5 -73.5h-127v422q0 60 -6 117h136q118 0 198 -72.5t80 -195.5zM208 505h-84v-471h86q108 0 173.5 62.5t65.5 172.5q0 109 -66 172.5 t-175 63.5z" />
<glyph horiz-adv-x="567" d="M492 271q0 -124 -80.5 -197.5t-200.5 -73.5h-127v249h-91v30h91v143q0 60 -6 117h136q118 0 198 -72.5t80 -195.5zM299 249h-175v-215h86q108 0 173.5 62.5t65.5 172.5q0 109 -66 172.5t-175 63.5h-84v-226h175v-30z" />
<glyph horiz-adv-x="567" d="M492 271q0 -124 -80.5 -197.5t-200.5 -73.5h-127v422q0 60 -6 117h136q118 0 198 -72.5t80 -195.5zM208 505h-84v-471h86q108 0 173.5 62.5t65.5 172.5q0 109 -66 172.5t-175 63.5zM308 -159q0 -19 -9.5 -33t-27.5 -14q-16 0 -25.5 12t-9.5 31t10.5 33t27.5 14 q16 0 25 -12t9 -31z" />
<glyph horiz-adv-x="427" d="M385 37v-37h-301v422q0 60 -6 117h294l5 -5l-1 -32l-252 4v-222l216 2v-36l-216 2v-219z" />
<glyph horiz-adv-x="427" d="M309 777l3 -8q-58 -86 -162 -151l-10 13q91 93 130 162zM385 37v-37h-301v422q0 60 -6 117h294l5 -5l-1 -32l-252 4v-222l216 2v-36l-216 2v-219z" />
<glyph horiz-adv-x="427" d="M322 768l23 -3q-11 -58 -43.5 -90t-78.5 -32q-45 0 -76.5 32.5t-39.5 89.5l22 3q11 -39 37 -60.5t62 -21.5q33 0 58 22t36 60zM385 37v-37h-301v422q0 60 -6 117h294l5 -5l-1 -32l-252 4v-222l216 2v-36l-216 2v-219z" />
<glyph horiz-adv-x="427" d="M340 791l13 -11q-62 -85 -100 -154l-43 -5q-47 78 -112 159l13 11q48 -45 120 -126q56 69 109 126zM385 37v-37h-301v422q0 60 -6 117h294l5 -5l-1 -32l-252 4v-222l216 2v-36l-216 2v-219z" />
<glyph horiz-adv-x="427" d="M111 620l-13 11q62 85 100 154l43 5q47 -78 112 -159l-13 -11q-48 45 -120 126q-56 -69 -109 -126zM385 37v-37h-301v422q0 60 -6 117h294l5 -5l-1 -32l-252 4v-222l216 2v-36l-216 2v-219z" />
<glyph horiz-adv-x="427" d="M167 708q0 -20 -9 -34.5t-27 -14.5q-15 0 -24.5 12t-9.5 30q0 19 10.5 33.5t26.5 14.5q15 0 24 -11.5t9 -29.5zM355 708q0 -20 -9 -34.5t-27 -14.5q-15 0 -24.5 12t-9.5 30q0 19 10.5 33.5t26.5 14.5q15 0 24 -11.5t9 -29.5zM385 37v-37h-301v422q0 60 -6 117h294l5 -5 l-1 -32l-252 4v-222l216 2v-36l-216 2v-219z" />
<glyph horiz-adv-x="427" d="M262 709q0 -19 -9.5 -33t-27.5 -14q-16 0 -25.5 12t-9.5 31t10.5 33t27.5 14q16 0 25 -12t9 -31zM385 37v-37h-301v422q0 60 -6 117h294l5 -5l-1 -32l-252 4v-222l216 2v-36l-216 2v-219z" />
<glyph horiz-adv-x="427" d="M385 37v-37h-301v422q0 60 -6 117h294l5 -5l-1 -32l-252 4v-222l216 2v-36l-216 2v-219zM277 -159q0 -19 -9.5 -33t-27.5 -14q-16 0 -25.5 12t-9.5 31t10.5 33t27.5 14q16 0 25 -12t9 -31z" />
<glyph horiz-adv-x="427" d="M302 621q-104 65 -162 151l3 8l39 16q39 -69 130 -162zM385 37v-37h-301v422q0 60 -6 117h294l5 -5l-1 -32l-252 4v-222l216 2v-36l-216 2v-219z" />
<glyph horiz-adv-x="427" d="M94 687v34h264v-34h-264zM385 37v-37h-301v422q0 60 -6 117h294l5 -5l-1 -32l-252 4v-222l216 2v-36l-216 2v-219z" />
<glyph horiz-adv-x="427" d="M385 0q-111 -64 -111 -127q0 -52 56 -52q24 0 56 12l9 -22q-29 -23 -74 -23q-42 0 -65.5 19.5t-23.5 54.5q0 76 111 138h-259v422q0 60 -6 117h294l5 -5l-1 -32l-252 4v-222l216 2v-36l-216 2v-219l261 4v-37z" />
<glyph horiz-adv-x="427" d="M160 751q26 0 68 -28t61 -28q35 0 63 57l16 -3q-7 -36 -29 -64t-55 -28q-27 0 -68.5 28t-60.5 28q-35 0 -63 -57l-16 3q8 36 29.5 64t54.5 28zM385 37v-37h-301v422q0 60 -6 117h294l5 -5l-1 -32l-252 4v-222l216 2v-36l-216 2v-219z" />
<glyph horiz-adv-x="573" d="M79 234l15 15h361v20q0 117 -57.5 179.5t-153.5 62.5q-79 0 -155 -47l-4 36q68 47 165 47q113 0 180.5 -72.5t67.5 -200.5q0 -129 -68 -206.5t-177 -77.5q-84 0 -131 50t-47 153q0 22 4 41zM117 189q0 -81 37 -122t103 -41q75 0 129 49.5t66 143.5l-333 -7q-2 -14 -2 -23 z" />
<glyph horiz-adv-x="405" d="M124 0h-40v422q0 60 -6 117h293l5 -5v-32l-252 4v-230l216 1v-36l-216 2v-243z" />
<glyph horiz-adv-x="561" d="M482 229l4 -5l-1 -192q-71 -40 -174 -40q-108 0 -172 71t-64 198q0 133 69.5 209.5t187.5 76.5q80 0 135 -30l-8 -40q-52 34 -125 34q-99 0 -158 -64t-59 -180q0 -107 52 -173t149 -66q63 0 127 24v49q0 61 -6 120z" />
<glyph horiz-adv-x="561" d="M362 777l3 -8q-58 -86 -162 -151l-10 13q91 93 130 162zM482 229l4 -5l-1 -192q-71 -40 -174 -40q-108 0 -172 71t-64 198q0 133 69.5 209.5t187.5 76.5q80 0 135 -30l-8 -40q-52 34 -125 34q-99 0 -158 -64t-59 -180q0 -107 52 -173t149 -66q63 0 127 24v49q0 61 -6 120 z" />
<glyph horiz-adv-x="561" d="M375 768l23 -3q-11 -58 -43.5 -90t-78.5 -32q-45 0 -76.5 32.5t-39.5 89.5l22 3q11 -39 37 -60.5t62 -21.5q33 0 58 22t36 60zM482 229l4 -5l-1 -192q-71 -40 -174 -40q-108 0 -172 71t-64 198q0 133 69.5 209.5t187.5 76.5q80 0 135 -30l-8 -40q-52 34 -125 34 q-99 0 -158 -64t-59 -180q0 -107 52 -173t149 -66q63 0 127 24v49q0 61 -6 120z" />
<glyph horiz-adv-x="561" d="M393 791l13 -11q-62 -85 -100 -154l-43 -5q-47 78 -112 159l13 11q48 -45 120 -126q56 69 109 126zM482 229l4 -5l-1 -192q-71 -40 -174 -40q-108 0 -172 71t-64 198q0 133 69.5 209.5t187.5 76.5q80 0 135 -30l-8 -40q-52 34 -125 34q-99 0 -158 -64t-59 -180 q0 -107 52 -173t149 -66q63 0 127 24v49q0 61 -6 120z" />
<glyph horiz-adv-x="561" d="M164 620l-13 11q62 85 100 154l43 5q47 -78 112 -159l-13 -11q-48 45 -120 126q-56 -69 -109 -126zM482 229l4 -5l-1 -192q-71 -40 -174 -40q-108 0 -172 71t-64 198q0 133 69.5 209.5t187.5 76.5q80 0 135 -30l-8 -40q-52 34 -125 34q-99 0 -158 -64t-59 -180 q0 -107 52 -173t149 -66q63 0 127 24v49q0 61 -6 120z" />
<glyph horiz-adv-x="561" d="M482 229l4 -5l-1 -192q-71 -40 -174 -40q-108 0 -172 71t-64 198q0 133 69.5 209.5t187.5 76.5q80 0 135 -30l-8 -40q-52 34 -125 34q-99 0 -158 -64t-59 -180q0 -107 52 -173t149 -66q63 0 127 24v49q0 61 -6 120zM289 -306q26 53 35 94h-2q-16 0 -26.5 12.5t-10.5 30.5 q0 19 10.5 33.5t30.5 14.5q39 0 39 -49q0 -62 -56 -147z" />
<glyph horiz-adv-x="561" d="M315 709q0 -19 -9.5 -33t-27.5 -14q-16 0 -25.5 12t-9.5 31t10.5 33t27.5 14q16 0 25 -12t9 -31zM482 229l4 -5l-1 -192q-71 -40 -174 -40q-108 0 -172 71t-64 198q0 133 69.5 209.5t187.5 76.5q80 0 135 -30l-8 -40q-52 34 -125 34q-99 0 -158 -64t-59 -180 q0 -107 52 -173t149 -66q63 0 127 24v49q0 61 -6 120z" />
<glyph horiz-adv-x="572" d="M124 0h-40v421q0 63 -6 118l41 8l5 -5v-257h324v136q0 63 -6 118l41 8l5 -5v-542h-40v251h-324v-251z" />
<glyph horiz-adv-x="572" d="M124 0h-40v403h-77v30h77q0 55 -6 106l41 8l5 -5v-109h324q0 55 -6 106l41 8l5 -5v-109h77v-30h-77v-403h-40v251h-324v-251zM124 285h324v118h-324v-118z" />
<glyph horiz-adv-x="572" d="M171 620l-13 11q62 85 100 154l43 5q47 -78 112 -159l-13 -11q-48 45 -120 126q-56 -69 -109 -126zM124 0h-40v421q0 63 -6 118l41 8l5 -5v-257h324v136q0 63 -6 118l41 8l5 -5v-542h-40v251h-324v-251z" />
<glyph horiz-adv-x="572" d="M124 0h-40v421q0 63 -6 118l41 8l5 -5v-257h324v136q0 63 -6 118l41 8l5 -5v-542h-40v251h-324v-251zM322 -159q0 -19 -9.5 -33t-27.5 -14q-16 0 -25.5 12t-9.5 31t10.5 33t27.5 14q16 0 25 -12t9 -31z" />
<glyph horiz-adv-x="208" d="M124 0h-40v421q0 63 -6 118l41 8l5 -5v-542z" />
<glyph horiz-adv-x="208" d="M124 0h-40v421q0 63 -6 118l41 8l5 -5v-542z" />
<glyph horiz-adv-x="208" d="M184 777l3 -8q-58 -86 -162 -151l-10 13q91 93 130 162zM124 0h-40v421q0 63 -6 118l41 8l5 -5v-542z" />
<glyph horiz-adv-x="208" d="M182 771l23 -3q-10 -58 -38 -90t-69 -32q-39 0 -66.5 32.5t-34.5 89.5l22 3q9 -38 31 -60t53 -22q27 0 48 22t31 60zM124 0h-40v421q0 63 -6 118l41 8l5 -5v-542z" />
<glyph horiz-adv-x="208" d="M188 796l10 -10q-47 -96 -70 -154l-43 -5q-33 70 -82 159l10 10q46 -55 93 -121q48 78 82 121zM124 0h-40v421q0 63 -6 118l41 8l5 -5v-542z" />
<glyph horiz-adv-x="208" d="M13 627l-10 10q47 96 70 154l43 5q33 -70 82 -159l-10 -10q-46 55 -93 121q-48 -78 -82 -121zM124 0h-40v421q0 63 -6 118l41 8l5 -5v-542z" />
<glyph horiz-adv-x="208" d="M68 711q0 -20 -9 -34.5t-27 -14.5q-15 0 -24.5 12t-9.5 30q0 19 10.5 33.5t26.5 14.5q15 0 24 -11.5t9 -29.5zM204 711q0 -20 -9 -34.5t-27 -14.5q-15 0 -24.5 12t-9.5 30q0 19 10.5 33.5t26.5 14.5q15 0 24 -11.5t9 -29.5zM124 0h-40v421q0 63 -6 118l41 8l5 -5v-542z " />
<glyph horiz-adv-x="208" d="M137 709q0 -19 -9.5 -33t-27.5 -14q-16 0 -25.5 12t-9.5 31t10.5 33t27.5 14q16 0 25 -12t9 -31zM124 0h-40v421q0 63 -6 118l41 8l5 -5v-542z" />
<glyph horiz-adv-x="208" d="M124 0h-40v421q0 63 -6 118l41 8l5 -5v-542zM137 -159q0 -19 -9.5 -33t-27.5 -14q-16 0 -25.5 12t-9.5 31t10.5 33t27.5 14q16 0 25 -12t9 -31z" />
<glyph horiz-adv-x="208" d="M177 621q-104 65 -162 151l3 8l39 16q39 -69 130 -162zM124 0h-40v421q0 63 -6 118l41 8l5 -5v-542z" />
<glyph horiz-adv-x="418" d="M124 0h-40v421q0 63 -6 118l41 8l5 -5v-542zM230 -144l-14 22q78 44 78 162v381q0 65 -7 118l42 8l5 -5v-502q0 -73 -26 -116.5t-78 -67.5z" />
<glyph horiz-adv-x="208" d="M9 687v34h185v-34h-185zM124 0h-40v421q0 63 -6 118l41 8l5 -5v-542z" />
<glyph horiz-adv-x="208" d="M124 0q-62 -67 -62 -119q0 -60 56 -60q24 0 56 12l9 -22q-29 -23 -74 -23q-42 0 -65.5 21.5t-23.5 60.5q0 65 71 130h-7v421q0 63 -6 118l41 8l5 -5v-542z" />
<glyph horiz-adv-x="208" d="M56 755q21 0 51 -28t44 -28q29 0 48 57l16 -3q-3 -32 -22 -62t-47 -30q-21 0 -51 28t-44 28q-29 0 -48 -57l-16 3q3 33 22 62.5t47 29.5zM124 0h-40v421q0 63 -6 118l41 8l5 -5v-542z" />
<glyph horiz-adv-x="210" d="M22 -144l-14 22q78 44 78 162v381q0 65 -7 118l42 8l5 -5v-502q0 -73 -26 -116.5t-78 -67.5z" />
<glyph horiz-adv-x="210" d="M22 -144l-14 22q78 44 78 162v381q0 65 -7 118l42 8l5 -5v-502q0 -73 -26 -116.5t-78 -67.5z" />
<glyph horiz-adv-x="210" d="M17 627l-10 10q47 96 70 154l43 5q33 -70 82 -159l-10 -10q-46 55 -93 121q-48 -78 -82 -121zM22 -144l-14 22q78 44 78 162v381q0 65 -7 118l42 8l5 -5v-502q0 -73 -26 -116.5t-78 -67.5z" />
<glyph horiz-adv-x="472" d="M84 421q0 61 -6 118l40 8l4 -5v-258h91q154 203 199 263l28 -10l5 -5l-198 -259l216 -273l-40 -8l-207 258h-94v-250h-38v421z" />
<glyph horiz-adv-x="472" d="M84 421q0 61 -6 118l40 8l4 -5v-258h91q154 203 199 263l28 -10l5 -5l-198 -259l216 -273l-40 -8l-207 258h-94v-250h-38v421zM217 -306q26 53 35 94h-2q-16 0 -26.5 12.5t-10.5 30.5q0 19 10.5 33.5t30.5 14.5q39 0 39 -49q0 -62 -56 -147z" />
<glyph horiz-adv-x="472" d="M84 421q0 61 -6 118l40 8l4 -5v-258h91q154 203 199 263l28 -10l5 -5l-198 -259l216 -273l-40 -8l-207 258h-94v-250h-38v421z" />
<glyph horiz-adv-x="399" d="M378 37v-37h-294v422q0 62 -6 117l41 8l5 -5v-509z" />
<glyph horiz-adv-x="399" d="M223 777l3 -8q-58 -86 -162 -151l-10 13q91 93 130 162zM378 37v-37h-294v422q0 62 -6 117l41 8l5 -5v-509z" />
<glyph horiz-adv-x="399" d="M324 580l6 -6q-7 -101 -64 -212l-16 6q33 123 32 206zM378 37v-37h-294v422q0 62 -6 117l41 8l5 -5v-509z" />
<glyph horiz-adv-x="399" d="M378 37v-37h-294v422q0 62 -6 117l41 8l5 -5v-509zM201 -306q26 53 35 94h-2q-16 0 -26.5 12.5t-10.5 30.5q0 19 10.5 33.5t30.5 14.5q39 0 39 -49q0 -62 -56 -147z" />
<glyph horiz-adv-x="399" d="M260 252q0 -19 -9.5 -33t-27.5 -14q-16 0 -25.5 12t-9.5 31t10.5 33t27.5 14q16 0 25 -12t9 -31zM378 37v-37h-294v422q0 62 -6 117l41 8l5 -5v-509z" />
<glyph horiz-adv-x="399" d="M378 37v-37h-294v226l-106 -59l-16 29l122 68v158q0 62 -6 117l41 8l5 -5v-256l139 77l17 -29l-156 -86v-215z" />
<glyph horiz-adv-x="722" d="M582 547l5 -5l76 -542h-40l-30 211q-25 173 -33 265h-1q-14 -43 -96 -265l-80 -211h-44l-80 211q-80 215 -96 265h-1q-3 -32 -35 -265l-30 -211h-38l78 543l36 4l124 -319q43 -113 64 -188h1q23 74 65 188l122 315z" />
<glyph horiz-adv-x="572" d="M285 305q16 -23 48 -68.5t46.5 -67t35 -54.5t36.5 -63h1q-4 85 -4 366q0 64 -6 121l41 8l5 -5v-542h-43q-67 101 -164 241q-123 178 -160 246h-1q4 -69 4 -195v-292h-40v422q0 62 -6 117l43 8q130 -191 164 -242z" />
<glyph horiz-adv-x="572" d="M372 777l3 -8q-58 -86 -162 -151l-10 13q91 93 130 162zM285 305q16 -23 48 -68.5t46.5 -67t35 -54.5t36.5 -63h1q-4 85 -4 366q0 64 -6 121l41 8l5 -5v-542h-43q-67 101 -164 241q-123 178 -160 246h-1q4 -69 4 -195v-292h-40v422q0 62 -6 117l43 8q130 -191 164 -242z " />
<glyph horiz-adv-x="572" d="M403 791l13 -11q-62 -85 -100 -154l-43 -5q-47 78 -112 159l13 11q48 -45 120 -126q56 69 109 126zM285 305q16 -23 48 -68.5t46.5 -67t35 -54.5t36.5 -63h1q-4 85 -4 366q0 64 -6 121l41 8l5 -5v-542h-43q-67 101 -164 241q-123 178 -160 246h-1q4 -69 4 -195v-292h-40 v422q0 62 -6 117l43 8q130 -191 164 -242z" />
<glyph horiz-adv-x="572" d="M285 305q16 -23 48 -68.5t46.5 -67t35 -54.5t36.5 -63h1q-4 85 -4 366q0 64 -6 121l41 8l5 -5v-542h-43q-67 101 -164 241q-123 178 -160 246h-1q4 -69 4 -195v-292h-40v422q0 62 -6 117l43 8q130 -191 164 -242zM265 -306q26 53 35 94h-2q-16 0 -26.5 12.5t-10.5 30.5 q0 19 10.5 33.5t30.5 14.5q39 0 39 -49q0 -62 -56 -147z" />
<glyph horiz-adv-x="572" d="M325 709q0 -19 -9.5 -33t-27.5 -14q-16 0 -25.5 12t-9.5 31t10.5 33t27.5 14q16 0 25 -12t9 -31zM285 305q16 -23 48 -68.5t46.5 -67t35 -54.5t36.5 -63h1q-4 85 -4 366q0 64 -6 121l41 8l5 -5v-542h-43q-67 101 -164 241q-123 178 -160 246h-1q4 -69 4 -195v-292h-40 v422q0 62 -6 117l43 8q130 -191 164 -242z" />
<glyph horiz-adv-x="572" d="M124 0h-40v422q0 62 -6 117l43 8q130 -191 164 -242q16 -23 48 -68.5t46.5 -67t35 -54.5t36.5 -63h1q-4 85 -4 366q0 64 -6 121l41 8l5 -5v-502q0 -73 -26 -116.5t-78 -67.5l-14 22q64 36 75 122q-67 101 -164 241q-123 178 -160 246h-1q4 -69 4 -195v-292z" />
<glyph horiz-adv-x="574" d="M22 -144l-14 22q78 44 78 162v382q0 62 -6 117l43 8q130 -191 164 -242q16 -23 48 -68.5t46.5 -67t35 -54.5t36.5 -63h1q-4 85 -4 366q0 64 -6 121l41 8l5 -5v-542h-43q-67 101 -164 241q-123 178 -160 246h-1q4 -69 4 -195v-252q0 -73 -26 -116.5t-78 -67.5z" />
<glyph horiz-adv-x="572" d="M223 751q26 0 68 -28t61 -28q34 0 63 57l16 -3q-7 -36 -29 -64t-55 -28q-27 0 -68.5 28t-60.5 28q-34 0 -63 -57l-16 3q8 36 29.5 64t54.5 28zM285 305q16 -23 48 -68.5t46.5 -67t35 -54.5t36.5 -63h1q-4 85 -4 366q0 64 -6 121l41 8l5 -5v-542h-43q-67 101 -164 241 q-123 178 -160 246h-1q4 -69 4 -195v-292h-40v422q0 62 -6 117l43 8q130 -191 164 -242z" />
<glyph horiz-adv-x="602" d="M527 271q0 -132 -65.5 -205.5t-164.5 -73.5q-97 0 -159.5 71.5t-62.5 197.5q0 130 66 208t166 78q96 0 158 -74.5t62 -201.5zM117 267q0 -109 49.5 -174t133.5 -65q82 0 133 63t51 177q0 110 -47.5 176.5t-129.5 66.5q-83 0 -136.5 -65.5t-53.5 -178.5z" />
<glyph horiz-adv-x="602" d="M384 777l3 -8q-58 -86 -162 -151l-10 13q91 93 130 162zM527 271q0 -132 -65.5 -205.5t-164.5 -73.5q-97 0 -159.5 71.5t-62.5 197.5q0 130 66 208t166 78q96 0 158 -74.5t62 -201.5zM117 267q0 -109 49.5 -174t133.5 -65q82 0 133 63t51 177q0 110 -47.5 176.5 t-129.5 66.5q-83 0 -136.5 -65.5t-53.5 -178.5z" />
<glyph horiz-adv-x="602" d="M397 768l23 -3q-11 -58 -43.5 -90t-78.5 -32q-45 0 -76.5 32.5t-39.5 89.5l22 3q11 -39 37 -60.5t62 -21.5q33 0 58 22t36 60zM527 271q0 -132 -65.5 -205.5t-164.5 -73.5q-97 0 -159.5 71.5t-62.5 197.5q0 130 66 208t166 78q96 0 158 -74.5t62 -201.5zM117 267 q0 -109 49.5 -174t133.5 -65q82 0 133 63t51 177q0 110 -47.5 176.5t-129.5 66.5q-83 0 -136.5 -65.5t-53.5 -178.5z" />
<glyph horiz-adv-x="602" d="M415 791l13 -11q-62 -85 -100 -154l-43 -5q-47 78 -112 159l13 11q48 -45 120 -126q56 69 109 126zM527 271q0 -132 -65.5 -205.5t-164.5 -73.5q-97 0 -159.5 71.5t-62.5 197.5q0 130 66 208t166 78q96 0 158 -74.5t62 -201.5zM117 267q0 -109 49.5 -174t133.5 -65 q82 0 133 63t51 177q0 110 -47.5 176.5t-129.5 66.5q-83 0 -136.5 -65.5t-53.5 -178.5z" />
<glyph horiz-adv-x="602" d="M186 620l-13 11q62 85 100 154l43 5q47 -78 112 -159l-13 -11q-48 45 -120 126q-56 -69 -109 -126zM527 271q0 -132 -65.5 -205.5t-164.5 -73.5q-97 0 -159.5 71.5t-62.5 197.5q0 130 66 208t166 78q96 0 158 -74.5t62 -201.5zM117 267q0 -109 49.5 -174t133.5 -65 q82 0 133 63t51 177q0 110 -47.5 176.5t-129.5 66.5q-83 0 -136.5 -65.5t-53.5 -178.5z" />
<glyph horiz-adv-x="602" d="M242 708q0 -20 -9 -34.5t-27 -14.5q-15 0 -24.5 12t-9.5 30q0 19 10.5 33.5t26.5 14.5q15 0 24 -11.5t9 -29.5zM430 708q0 -20 -9 -34.5t-27 -14.5q-15 0 -24.5 12t-9.5 30q0 19 10.5 33.5t26.5 14.5q15 0 24 -11.5t9 -29.5zM527 271q0 -132 -65.5 -205.5t-164.5 -73.5 q-97 0 -159.5 71.5t-62.5 197.5q0 130 66 208t166 78q96 0 158 -74.5t62 -201.5zM117 267q0 -109 49.5 -174t133.5 -65q82 0 133 63t51 177q0 110 -47.5 176.5t-129.5 66.5q-83 0 -136.5 -65.5t-53.5 -178.5z" />
<glyph horiz-adv-x="602" d="M527 271q0 -132 -65.5 -205.5t-164.5 -73.5q-97 0 -159.5 71.5t-62.5 197.5q0 130 66 208t166 78q96 0 158 -74.5t62 -201.5zM117 267q0 -109 49.5 -174t133.5 -65q82 0 133 63t51 177q0 110 -47.5 176.5t-129.5 66.5q-83 0 -136.5 -65.5t-53.5 -178.5zM337 -159 q0 -19 -9.5 -33t-27.5 -14q-16 0 -25.5 12t-9.5 31t10.5 33t27.5 14q16 0 25 -12t9 -31z" />
<glyph horiz-adv-x="602" d="M377 621q-104 65 -162 151l3 8l39 16q39 -69 130 -162zM527 271q0 -132 -65.5 -205.5t-164.5 -73.5q-97 0 -159.5 71.5t-62.5 197.5q0 130 66 208t166 78q96 0 158 -74.5t62 -201.5zM117 267q0 -109 49.5 -174t133.5 -65q82 0 133 63t51 177q0 110 -47.5 176.5 t-129.5 66.5q-83 0 -136.5 -65.5t-53.5 -178.5z" />
<glyph horiz-adv-x="602" d="M322 783l3 -8q-59 -88 -156 -154l-10 13q84 79 130 162zM436 783l3 -8q-59 -88 -156 -154l-10 13q84 79 130 162zM527 271q0 -132 -65.5 -205.5t-164.5 -73.5q-97 0 -159.5 71.5t-62.5 197.5q0 130 66 208t166 78q96 0 158 -74.5t62 -201.5zM117 267q0 -109 49.5 -174 t133.5 -65q82 0 133 63t51 177q0 110 -47.5 176.5t-129.5 66.5q-83 0 -136.5 -65.5t-53.5 -178.5z" />
<glyph horiz-adv-x="602" d="M169 687v34h264v-34h-264zM527 271q0 -132 -65.5 -205.5t-164.5 -73.5q-97 0 -159.5 71.5t-62.5 197.5q0 130 66 208t166 78q96 0 158 -74.5t62 -201.5zM117 267q0 -109 49.5 -174t133.5 -65q82 0 133 63t51 177q0 110 -47.5 176.5t-129.5 66.5q-83 0 -136.5 -65.5 t-53.5 -178.5z" />
<glyph horiz-adv-x="602" d="M527 271q0 -92 -33 -156.5t-90 -95.5q-110 -70 -110 -141q0 -57 57 -57q23 0 55 12l9 -22q-29 -23 -76 -23q-41 0 -64 21t-23 59q0 68 77 126q-20 -2 -32 -2q-97 0 -159.5 71.5t-62.5 197.5q0 130 66 208t166 78q96 0 158 -74.5t62 -201.5zM117 267q0 -109 49.5 -174 t133.5 -65q82 0 133 63t51 177q0 110 -47.5 176.5t-129.5 66.5q-83 0 -136.5 -65.5t-53.5 -178.5z" />
<glyph horiz-adv-x="602" d="M527 271q0 -132 -65.5 -205.5t-164.5 -73.5q-102 0 -164 77l-71 -75l-23 22l75 80q-39 67 -39 165q0 130 66 208t166 78q98 0 160 -77l71 76l24 -22l-76 -81q41 -71 41 -172zM117 267q0 -80 28 -138l294 312q-48 70 -132 70q-83 0 -136.5 -65.5t-53.5 -178.5zM484 268 q0 83 -28 144l-294 -312q50 -72 138 -72q82 0 133 63t51 177z" />
<glyph horiz-adv-x="602" d="M384 777l3 -8q-58 -86 -162 -151l-10 13q91 93 130 162zM527 271q0 -132 -65.5 -205.5t-164.5 -73.5q-102 0 -164 77l-71 -75l-23 22l75 80q-39 67 -39 165q0 130 66 208t166 78q98 0 160 -77l71 76l24 -22l-76 -81q41 -71 41 -172zM117 267q0 -80 28 -138l294 312 q-48 70 -132 70q-83 0 -136.5 -65.5t-53.5 -178.5zM484 268q0 83 -28 144l-294 -312q50 -72 138 -72q82 0 133 63t51 177z" />
<glyph horiz-adv-x="602" d="M235 751q26 0 68 -28t61 -28q34 0 63 57l16 -3q-7 -36 -29 -64t-55 -28q-27 0 -68.5 28t-60.5 28q-34 0 -63 -57l-16 3q8 36 29.5 64t54.5 28zM527 271q0 -132 -65.5 -205.5t-164.5 -73.5q-97 0 -159.5 71.5t-62.5 197.5q0 130 66 208t166 78q96 0 158 -74.5t62 -201.5z M117 267q0 -109 49.5 -174t133.5 -65q82 0 133 63t51 177q0 110 -47.5 176.5t-129.5 66.5q-83 0 -136.5 -65.5t-53.5 -178.5z" />
<glyph horiz-adv-x="767" d="M725 37v-37h-361v2q-30 -10 -67 -10q-97 0 -159.5 71.5t-62.5 197.5q0 130 66 208t166 78q29 0 58 -8h347l5 -5l-1 -32l-284 3q91 -71 95 -221l153 2v-36l-153 2q-7 -148 -100 -218zM117 267q0 -109 49.5 -174t133.5 -65q82 0 133 63t51 177q0 110 -47.5 176.5 t-129.5 66.5q-83 0 -136.5 -65.5t-53.5 -178.5z" />
<glyph horiz-adv-x="435" d="M124 0h-40v422q0 60 -6 117h122q90 0 144 -44.5t54 -120.5q0 -80 -58 -124t-153 -44h-63v-206zM197 506h-73v-266h70q76 0 118.5 34.5t42.5 98.5q0 61 -39.5 97t-118.5 36z" />
<glyph horiz-adv-x="438" d="M124 0h-40v422q0 60 -6 117h46v-96h79q90 0 144 -44.5t54 -120.5q0 -80 -58 -124t-153 -44h-66v-110zM200 410h-76v-266h73q76 0 118.5 34.5t42.5 98.5q0 61 -39.5 97t-118.5 36z" />
<glyph horiz-adv-x="618" d="M527 271q0 -119 -54 -191t-140 -85q140 -67 284 -67l-9 -49q-80 0 -167 31.5t-161 82.5q-90 6 -147.5 77t-57.5 191q0 130 66 208t166 78q96 0 158 -74.5t62 -201.5zM117 267q0 -109 49.5 -174t133.5 -65q82 0 133 63t51 177q0 110 -47.5 176.5t-129.5 66.5 q-83 0 -136.5 -65.5t-53.5 -178.5z" />
<glyph horiz-adv-x="472" d="M124 0h-40v422q0 60 -6 117h121q90 0 144.5 -44.5t54.5 -116.5q0 -56 -34.5 -93.5t-94.5 -52.5l166 -232l-38 -8l-165 230h-108v-222zM197 506h-73v-251h70q76 0 118.5 32t42.5 91q0 57 -39.5 92.5t-118.5 35.5z" />
<glyph horiz-adv-x="472" d="M313 777l3 -8q-58 -86 -162 -151l-10 13q91 93 130 162zM124 0h-40v422q0 60 -6 117h121q90 0 144.5 -44.5t54.5 -116.5q0 -56 -34.5 -93.5t-94.5 -52.5l166 -232l-38 -8l-165 230h-108v-222zM197 506h-73v-251h70q76 0 118.5 32t42.5 91q0 57 -39.5 92.5t-118.5 35.5z " />
<glyph horiz-adv-x="472" d="M344 791l13 -11q-62 -85 -100 -154l-43 -5q-47 78 -112 159l13 11q48 -45 120 -126q56 69 109 126zM124 0h-40v422q0 60 -6 117h121q90 0 144.5 -44.5t54.5 -116.5q0 -56 -34.5 -93.5t-94.5 -52.5l166 -232l-38 -8l-165 230h-108v-222zM197 506h-73v-251h70 q76 0 118.5 32t42.5 91q0 57 -39.5 92.5t-118.5 35.5z" />
<glyph horiz-adv-x="472" d="M124 0h-40v422q0 60 -6 117h121q90 0 144.5 -44.5t54.5 -116.5q0 -56 -34.5 -93.5t-94.5 -52.5l166 -232l-38 -8l-165 230h-108v-222zM197 506h-73v-251h70q76 0 118.5 32t42.5 91q0 57 -39.5 92.5t-118.5 35.5zM209 -306q26 53 35 94h-2q-16 0 -26.5 12.5t-10.5 30.5 q0 19 10.5 33.5t30.5 14.5q39 0 39 -49q0 -62 -56 -147z" />
<glyph horiz-adv-x="472" d="M124 0h-40v422q0 60 -6 117h121q90 0 144.5 -44.5t54.5 -116.5q0 -56 -34.5 -93.5t-94.5 -52.5l166 -232l-38 -8l-165 230h-108v-222zM197 506h-73v-251h70q76 0 118.5 32t42.5 91q0 57 -39.5 92.5t-118.5 35.5zM286 -159q0 -19 -9.5 -33t-27.5 -14q-16 0 -25.5 12 t-9.5 31t10.5 33t27.5 14q16 0 25 -12t9 -31z" />
<glyph horiz-adv-x="427" d="M373 131q0 -62 -49.5 -100.5t-130.5 -38.5q-75 0 -139 28l7 40q60 -32 137 -32q63 0 98.5 27t35.5 71q0 37 -28 65t-68 47t-80 39.5t-68 53.5t-28 77q0 63 49 101t128 38q74 0 129 -26l-8 -40q-53 30 -124 30q-60 0 -96.5 -26.5t-36.5 -71.5q0 -37 28 -65t68 -47.5 t80 -40t68 -53.5t28 -76z" />
<glyph horiz-adv-x="427" d="M297 777l3 -8q-58 -86 -162 -151l-10 13q91 93 130 162zM373 131q0 -62 -49.5 -100.5t-130.5 -38.5q-75 0 -139 28l7 40q60 -32 137 -32q63 0 98.5 27t35.5 71q0 37 -28 65t-68 47t-80 39.5t-68 53.5t-28 77q0 63 49 101t128 38q74 0 129 -26l-8 -40q-53 30 -124 30 q-60 0 -96.5 -26.5t-36.5 -71.5q0 -37 28 -65t68 -47.5t80 -40t68 -53.5t28 -76z" />
<glyph horiz-adv-x="427" d="M328 791l13 -11q-62 -85 -100 -154l-43 -5q-47 78 -112 159l13 11q48 -45 120 -126q56 69 109 126zM373 131q0 -62 -49.5 -100.5t-130.5 -38.5q-75 0 -139 28l7 40q60 -32 137 -32q63 0 98.5 27t35.5 71q0 37 -28 65t-68 47t-80 39.5t-68 53.5t-28 77q0 63 49 101t128 38 q74 0 129 -26l-8 -40q-53 30 -124 30q-60 0 -96.5 -26.5t-36.5 -71.5q0 -37 28 -65t68 -47.5t80 -40t68 -53.5t28 -76z" />
<glyph horiz-adv-x="427" d="M294 -123q0 -35 -35.5 -58.5t-88.5 -30.5l-6 22q88 21 88 59q0 34 -62 40l-7 11l23 72h-13q-75 0 -139 28l7 40q60 -32 137 -32q63 0 98.5 27t35.5 71q0 37 -28 65t-68 47t-80 39.5t-68 53.5t-28 77q0 63 49 101t128 38q74 0 129 -26l-8 -40q-53 30 -124 30 q-60 0 -96.5 -26.5t-36.5 -71.5q0 -37 28 -65t68 -47.5t80 -40t68 -53.5t28 -76q0 -53 -36.5 -89t-99.5 -47l-18 -57q34 -5 54.5 -20.5t20.5 -40.5z" />
<glyph horiz-adv-x="427" d="M99 620l-13 11q62 85 100 154l43 5q47 -78 112 -159l-13 -11q-48 45 -120 126q-56 -69 -109 -126zM373 131q0 -62 -49.5 -100.5t-130.5 -38.5q-75 0 -139 28l7 40q60 -32 137 -32q63 0 98.5 27t35.5 71q0 37 -28 65t-68 47t-80 39.5t-68 53.5t-28 77q0 63 49 101t128 38 q74 0 129 -26l-8 -40q-53 30 -124 30q-60 0 -96.5 -26.5t-36.5 -71.5q0 -37 28 -65t68 -47.5t80 -40t68 -53.5t28 -76z" />
<glyph horiz-adv-x="427" d="M373 131q0 -62 -49.5 -100.5t-130.5 -38.5q-75 0 -139 28l7 40q60 -32 137 -32q63 0 98.5 27t35.5 71q0 37 -28 65t-68 47t-80 39.5t-68 53.5t-28 77q0 63 49 101t128 38q74 0 129 -26l-8 -40q-53 30 -124 30q-60 0 -96.5 -26.5t-36.5 -71.5q0 -37 28 -65t68 -47.5 t80 -40t68 -53.5t28 -76zM179 -306q26 53 35 94h-2q-16 0 -26.5 12.5t-10.5 30.5q0 19 10.5 33.5t30.5 14.5q39 0 39 -49q0 -62 -56 -147z" />
<glyph horiz-adv-x="427" d="M373 131q0 -62 -49.5 -100.5t-130.5 -38.5q-75 0 -139 28l7 40q60 -32 137 -32q63 0 98.5 27t35.5 71q0 37 -28 65t-68 47t-80 39.5t-68 53.5t-28 77q0 63 49 101t128 38q74 0 129 -26l-8 -40q-53 30 -124 30q-60 0 -96.5 -26.5t-36.5 -71.5q0 -37 28 -65t68 -47.5 t80 -40t68 -53.5t28 -76zM256 -159q0 -19 -9.5 -33t-27.5 -14q-16 0 -25.5 12t-9.5 31t10.5 33t27.5 14q16 0 25 -12t9 -31z" />
<glyph horiz-adv-x="572" d="M115 -10l-40 10q25 53 25 138v227q0 87 53.5 134.5t139.5 47.5q99 0 167 -56v-12l-150 -165q98 -41 153 -84t55 -106q0 -56 -45.5 -94t-127.5 -38q-71 0 -109 19v40q45 -23 114 -23q56 0 91.5 22.5t35.5 66.5q0 53 -53.5 92.5t-161.5 81.5v18l143 161q-46 39 -112 39 q-70 0 -111.5 -37t-41.5 -106v-242q0 -83 -25 -134z" />
<glyph horiz-adv-x="445" d="M243 0h-40v506q-80 0 -182 -5l3 38h397l3 -38q-102 5 -181 5v-506z" />
<glyph horiz-adv-x="445" d="M243 0h-40v263h-160v30h160v213q-80 0 -182 -5l3 38h397l3 -38q-102 5 -181 5v-213h160v-30h-160v-263z" />
<glyph horiz-adv-x="445" d="M337 791l13 -11q-62 -85 -100 -154l-43 -5q-47 78 -112 159l13 11q48 -45 120 -126q56 69 109 126zM243 0h-40v506q-80 0 -182 -5l3 38h397l3 -38q-102 5 -181 5v-506z" />
<glyph horiz-adv-x="445" d="M243 0h-1l-20 -62q34 -5 54.5 -20.5t20.5 -40.5q0 -35 -35.5 -58.5t-88.5 -30.5l-6 22q88 21 88 59q0 34 -62 40l-7 11l26 80h-9v506q-80 0 -182 -5l3 38h397l3 -38q-102 5 -181 5v-506z" />
<glyph horiz-adv-x="445" d="M243 0h-40v506q-80 0 -182 -5l3 38h397l3 -38q-102 5 -181 5v-506zM182 -306q26 53 35 94h-2q-16 0 -26.5 12.5t-10.5 30.5q0 19 10.5 33.5t30.5 14.5q39 0 39 -49q0 -62 -56 -147z" />
<glyph horiz-adv-x="445" d="M243 0h-40v506q-80 0 -182 -5l3 38h397l3 -38q-102 5 -181 5v-506zM259 -159q0 -19 -9.5 -33t-27.5 -14q-16 0 -25.5 12t-9.5 31t10.5 33t27.5 14q16 0 25 -12t9 -31z" />
<glyph horiz-adv-x="548" d="M84 423q0 60 -9 118l48 6l1 -2v-372q0 -68 42.5 -105.5t107.5 -37.5q66 0 108.5 37t42.5 106v252q0 67 -8 116l48 6v-373q0 -87 -55 -134.5t-140 -47.5q-81 0 -133.5 47.5t-52.5 134.5v249z" />
<glyph horiz-adv-x="548" d="M359 777l3 -8q-58 -86 -162 -151l-10 13q91 93 130 162zM84 423q0 60 -9 118l48 6l1 -2v-372q0 -68 42.5 -105.5t107.5 -37.5q66 0 108.5 37t42.5 106v252q0 67 -8 116l48 6v-373q0 -87 -55 -134.5t-140 -47.5q-81 0 -133.5 47.5t-52.5 134.5v249z" />
<glyph horiz-adv-x="548" d="M372 768l23 -3q-11 -58 -43.5 -90t-78.5 -32q-45 0 -76.5 32.5t-39.5 89.5l22 3q11 -39 37 -60.5t62 -21.5q33 0 58 22t36 60zM84 423q0 60 -9 118l48 6l1 -2v-372q0 -68 42.5 -105.5t107.5 -37.5q66 0 108.5 37t42.5 106v252q0 67 -8 116l48 6v-373q0 -87 -55 -134.5 t-140 -47.5q-81 0 -133.5 47.5t-52.5 134.5v249z" />
<glyph horiz-adv-x="548" d="M390 791l13 -11q-62 -85 -100 -154l-43 -5q-47 78 -112 159l13 11q48 -45 120 -126q56 69 109 126zM84 423q0 60 -9 118l48 6l1 -2v-372q0 -68 42.5 -105.5t107.5 -37.5q66 0 108.5 37t42.5 106v252q0 67 -8 116l48 6v-373q0 -87 -55 -134.5t-140 -47.5 q-81 0 -133.5 47.5t-52.5 134.5v249z" />
<glyph horiz-adv-x="548" d="M161 620l-13 11q62 85 100 154l43 5q47 -78 112 -159l-13 -11q-48 45 -120 126q-56 -69 -109 -126zM84 423q0 60 -9 118l48 6l1 -2v-372q0 -68 42.5 -105.5t107.5 -37.5q66 0 108.5 37t42.5 106v252q0 67 -8 116l48 6v-373q0 -87 -55 -134.5t-140 -47.5 q-81 0 -133.5 47.5t-52.5 134.5v249z" />
<glyph horiz-adv-x="548" d="M217 708q0 -20 -9 -34.5t-27 -14.5q-15 0 -24.5 12t-9.5 30q0 19 10.5 33.5t26.5 14.5q15 0 24 -11.5t9 -29.5zM405 708q0 -20 -9 -34.5t-27 -14.5q-15 0 -24.5 12t-9.5 30q0 19 10.5 33.5t26.5 14.5q15 0 24 -11.5t9 -29.5zM84 423q0 60 -9 118l48 6l1 -2v-372 q0 -68 42.5 -105.5t107.5 -37.5q66 0 108.5 37t42.5 106v252q0 67 -8 116l48 6v-373q0 -87 -55 -134.5t-140 -47.5q-81 0 -133.5 47.5t-52.5 134.5v249z" />
<glyph horiz-adv-x="548" d="M359 990l3 -8q-58 -86 -162 -151l-10 13q91 93 130 162zM217 708q0 -20 -9 -34.5t-27 -14.5q-15 0 -24.5 12t-9.5 30q0 19 10.5 33.5t26.5 14.5q15 0 24 -11.5t9 -29.5zM405 708q0 -20 -9 -34.5t-27 -14.5q-15 0 -24.5 12t-9.5 30q0 19 10.5 33.5t26.5 14.5 q15 0 24 -11.5t9 -29.5zM84 423q0 60 -9 118l48 6l1 -2v-372q0 -68 42.5 -105.5t107.5 -37.5q66 0 108.5 37t42.5 106v252q0 67 -8 116l48 6v-373q0 -87 -55 -134.5t-140 -47.5q-81 0 -133.5 47.5t-52.5 134.5v249z" />
<glyph horiz-adv-x="548" d="M390 1004l13 -11q-62 -85 -100 -154l-43 -5q-47 78 -112 159l13 11q48 -45 120 -126q56 69 109 126zM217 708q0 -20 -9 -34.5t-27 -14.5q-15 0 -24.5 12t-9.5 30q0 19 10.5 33.5t26.5 14.5q15 0 24 -11.5t9 -29.5zM405 708q0 -20 -9 -34.5t-27 -14.5q-15 0 -24.5 12 t-9.5 30q0 19 10.5 33.5t26.5 14.5q15 0 24 -11.5t9 -29.5zM84 423q0 60 -9 118l48 6l1 -2v-372q0 -68 42.5 -105.5t107.5 -37.5q66 0 108.5 37t42.5 106v252q0 67 -8 116l48 6v-373q0 -87 -55 -134.5t-140 -47.5q-81 0 -133.5 47.5t-52.5 134.5v249z" />
<glyph horiz-adv-x="548" d="M352 834q-104 65 -162 151l3 8l39 16q39 -69 130 -162zM217 708q0 -20 -9 -34.5t-27 -14.5q-15 0 -24.5 12t-9.5 30q0 19 10.5 33.5t26.5 14.5q15 0 24 -11.5t9 -29.5zM405 708q0 -20 -9 -34.5t-27 -14.5q-15 0 -24.5 12t-9.5 30q0 19 10.5 33.5t26.5 14.5q15 0 24 -11.5 t9 -29.5zM84 423q0 60 -9 118l48 6l1 -2v-372q0 -68 42.5 -105.5t107.5 -37.5q66 0 108.5 37t42.5 106v252q0 67 -8 116l48 6v-373q0 -87 -55 -134.5t-140 -47.5q-81 0 -133.5 47.5t-52.5 134.5v249z" />
<glyph horiz-adv-x="548" d="M144 900v34h264v-34h-264zM217 708q0 -20 -9 -34.5t-27 -14.5q-15 0 -24.5 12t-9.5 30q0 19 10.5 33.5t26.5 14.5q15 0 24 -11.5t9 -29.5zM405 708q0 -20 -9 -34.5t-27 -14.5q-15 0 -24.5 12t-9.5 30q0 19 10.5 33.5t26.5 14.5q15 0 24 -11.5t9 -29.5zM84 423 q0 60 -9 118l48 6l1 -2v-372q0 -68 42.5 -105.5t107.5 -37.5q66 0 108.5 37t42.5 106v252q0 67 -8 116l48 6v-373q0 -87 -55 -134.5t-140 -47.5q-81 0 -133.5 47.5t-52.5 134.5v249z" />
<glyph horiz-adv-x="548" d="M84 423q0 60 -9 118l48 6l1 -2v-372q0 -68 42.5 -105.5t107.5 -37.5q66 0 108.5 37t42.5 106v252q0 67 -8 116l48 6v-373q0 -87 -55 -134.5t-140 -47.5q-81 0 -133.5 47.5t-52.5 134.5v249zM312 -159q0 -19 -9.5 -33t-27.5 -14q-16 0 -25.5 12t-9.5 31t10.5 33t27.5 14 q16 0 25 -12t9 -31z" />
<glyph horiz-adv-x="548" d="M352 621q-104 65 -162 151l3 8l39 16q39 -69 130 -162zM84 423q0 60 -9 118l48 6l1 -2v-372q0 -68 42.5 -105.5t107.5 -37.5q66 0 108.5 37t42.5 106v252q0 67 -8 116l48 6v-373q0 -87 -55 -134.5t-140 -47.5q-81 0 -133.5 47.5t-52.5 134.5v249z" />
<glyph horiz-adv-x="548" d="M297 783l3 -8q-59 -88 -156 -154l-10 13q84 79 130 162zM411 783l3 -8q-59 -88 -156 -154l-10 13q84 79 130 162zM84 423q0 60 -9 118l48 6l1 -2v-372q0 -68 42.5 -105.5t107.5 -37.5q66 0 108.5 37t42.5 106v252q0 67 -8 116l48 6v-373q0 -87 -55 -134.5t-140 -47.5 q-81 0 -133.5 47.5t-52.5 134.5v249z" />
<glyph horiz-adv-x="548" d="M144 687v34h264v-34h-264zM84 423q0 60 -9 118l48 6l1 -2v-372q0 -68 42.5 -105.5t107.5 -37.5q66 0 108.5 37t42.5 106v252q0 67 -8 116l48 6v-373q0 -87 -55 -134.5t-140 -47.5q-81 0 -133.5 47.5t-52.5 134.5v249z" />
<glyph horiz-adv-x="548" d="M84 423q0 60 -9 118l48 6l1 -2v-372q0 -68 42.5 -105.5t107.5 -37.5q66 0 108.5 37t42.5 106v252q0 67 -8 116l48 6v-373q0 -109 -84 -155q-108 -68 -108 -143q0 -55 56 -55q24 0 56 12l9 -22q-29 -23 -77 -23q-41 0 -63.5 20.5t-22.5 57.5q0 68 78 129q-19 -3 -39 -3 q-81 0 -133.5 47.5t-52.5 134.5v249z" />
<glyph horiz-adv-x="548" d="M354 692q0 -32 -23.5 -54.5t-57.5 -22.5q-29 0 -52 20t-23 49q0 32 24 54.5t58 22.5q32 0 53 -20t21 -49zM232 687q0 -20 12 -32.5t32 -12.5q19 0 31.5 13.5t12.5 33.5t-11.5 32.5t-31.5 12.5t-32.5 -13.5t-12.5 -33.5zM84 423q0 60 -9 118l48 6l1 -2v-372 q0 -68 42.5 -105.5t107.5 -37.5q66 0 108.5 37t42.5 106v252q0 67 -8 116l48 6v-373q0 -87 -55 -134.5t-140 -47.5q-81 0 -133.5 47.5t-52.5 134.5v249z" />
<glyph horiz-adv-x="548" d="M210 751q26 0 68 -28t61 -28q35 0 63 57l16 -3q-7 -36 -29 -64t-55 -28q-27 0 -68.5 28t-60.5 28q-35 0 -63 -57l-16 3q8 36 29.5 64t54.5 28zM84 423q0 60 -9 118l48 6l1 -2v-372q0 -68 42.5 -105.5t107.5 -37.5q66 0 108.5 37t42.5 106v252q0 67 -8 116l48 6v-373 q0 -87 -55 -134.5t-140 -47.5q-81 0 -133.5 47.5t-52.5 134.5v249z" />
<glyph horiz-adv-x="509" d="M242 -4l-217 547l41 4l132 -332q44 -108 58 -168q15 59 68 186l123 314l33 -4l4 -5l-215 -542h-27z" />
<glyph horiz-adv-x="837" d="M222 -4l-189 546l39 5l116 -332q40 -115 49 -166q10 51 56 183l108 311l37 4l116 -332q40 -111 50 -166q10 53 55 181l110 317l31 -4l4 -5l-188 -542h-26l-132 371q-25 73 -38 123h-1q-10 -38 -39 -123l-131 -371h-27z" />
<glyph horiz-adv-x="837" d="M502 777l3 -8q-58 -86 -162 -151l-10 13q91 93 130 162zM222 -4l-189 546l39 5l116 -332q40 -115 49 -166q10 51 56 183l108 311l37 4l116 -332q40 -111 50 -166q10 53 55 181l110 317l31 -4l4 -5l-188 -542h-26l-132 371q-25 73 -38 123h-1q-10 -38 -39 -123l-131 -371 h-27z" />
<glyph horiz-adv-x="837" d="M304 620l-13 11q62 85 100 154l43 5q47 -78 112 -159l-13 -11q-48 45 -120 126q-56 -69 -109 -126zM222 -4l-189 546l39 5l116 -332q40 -115 49 -166q10 51 56 183l108 311l37 4l116 -332q40 -111 50 -166q10 53 55 181l110 317l31 -4l4 -5l-188 -542h-26l-132 371 q-25 73 -38 123h-1q-10 -38 -39 -123l-131 -371h-27z" />
<glyph horiz-adv-x="837" d="M360 708q0 -20 -9 -34.5t-27 -14.5q-15 0 -24.5 12t-9.5 30q0 19 10.5 33.5t26.5 14.5q15 0 24 -11.5t9 -29.5zM548 708q0 -20 -9 -34.5t-27 -14.5q-15 0 -24.5 12t-9.5 30q0 19 10.5 33.5t26.5 14.5q15 0 24 -11.5t9 -29.5zM222 -4l-189 546l39 5l116 -332 q40 -115 49 -166q10 51 56 183l108 311l37 4l116 -332q40 -111 50 -166q10 53 55 181l110 317l31 -4l4 -5l-188 -542h-26l-132 371q-25 73 -38 123h-1q-10 -38 -39 -123l-131 -371h-27z" />
<glyph horiz-adv-x="837" d="M495 621q-104 65 -162 151l3 8l39 16q39 -69 130 -162zM222 -4l-189 546l39 5l116 -332q40 -115 49 -166q10 51 56 183l108 311l37 4l116 -332q40 -111 50 -166q10 53 55 181l110 317l31 -4l4 -5l-188 -542h-26l-132 371q-25 73 -38 123h-1q-10 -38 -39 -123l-131 -371 h-27z" />
<glyph horiz-adv-x="470" d="M30 0l-1 5l181 267l-181 267l39 7l170 -247h1l165 248l36 -4l1 -5l-181 -266l181 -272h-44l-165 246h-1l-163 -246h-38z" />
<glyph horiz-adv-x="455" d="M208 199l-183 344l40 4l108 -201q3 -6 17.5 -33.5t23.5 -47t15 -37.5h1q9 27 58 120l106 199l32 -4l5 -5l-183 -342v-196h-40v199z" />
<glyph horiz-adv-x="455" d="M311 777l3 -8q-58 -86 -162 -151l-10 13q91 93 130 162zM208 199l-183 344l40 4l108 -201q3 -6 17.5 -33.5t23.5 -47t15 -37.5h1q9 27 58 120l106 199l32 -4l5 -5l-183 -342v-196h-40v199z" />
<glyph horiz-adv-x="455" d="M113 620l-13 11q62 85 100 154l43 5q47 -78 112 -159l-13 -11q-48 45 -120 126q-56 -69 -109 -126zM208 199l-183 344l40 4l108 -201q3 -6 17.5 -33.5t23.5 -47t15 -37.5h1q9 27 58 120l106 199l32 -4l5 -5l-183 -342v-196h-40v199z" />
<glyph horiz-adv-x="455" d="M169 708q0 -20 -9 -34.5t-27 -14.5q-15 0 -24.5 12t-9.5 30q0 19 10.5 33.5t26.5 14.5q15 0 24 -11.5t9 -29.5zM357 708q0 -20 -9 -34.5t-27 -14.5q-15 0 -24.5 12t-9.5 30q0 19 10.5 33.5t26.5 14.5q15 0 24 -11.5t9 -29.5zM208 199l-183 344l40 4l108 -201 q3 -6 17.5 -33.5t23.5 -47t15 -37.5h1q9 27 58 120l106 199l32 -4l5 -5l-183 -342v-196h-40v199z" />
<glyph horiz-adv-x="455" d="M304 621q-104 65 -162 151l3 8l39 16q39 -69 130 -162zM208 199l-183 344l40 4l108 -201q3 -6 17.5 -33.5t23.5 -47t15 -37.5h1q9 27 58 120l106 199l32 -4l5 -5l-183 -342v-196h-40v199z" />
<glyph horiz-adv-x="455" d="M96 687v34h264v-34h-264zM208 199l-183 344l40 4l108 -201q3 -6 17.5 -33.5t23.5 -47t15 -37.5h1q9 27 58 120l106 199l32 -4l5 -5l-183 -342v-196h-40v199z" />
<glyph horiz-adv-x="455" d="M162 751q26 0 68 -28t61 -28q35 0 63 57l16 -3q-7 -36 -29 -64t-55 -28q-27 0 -68.5 28t-60.5 28q-35 0 -63 -57l-16 3q8 36 29.5 64t54.5 28zM208 199l-183 344l40 4l108 -201q3 -6 17.5 -33.5t23.5 -47t15 -37.5h1q9 27 58 120l106 199l32 -4l5 -5l-183 -342v-196h-40 v199z" />
<glyph horiz-adv-x="434" d="M32 0l-6 25l328 480l-319 -3l3 37h355l10 -25l-327 -479l332 3l-3 -38h-373z" />
<glyph horiz-adv-x="434" d="M310 777l3 -8q-58 -86 -162 -151l-10 13q91 93 130 162zM32 0l-6 25l328 480l-319 -3l3 37h355l10 -25l-327 -479l332 3l-3 -38h-373z" />
<glyph horiz-adv-x="434" d="M341 791l13 -11q-62 -85 -100 -154l-43 -5q-47 78 -112 159l13 11q48 -45 120 -126q56 69 109 126zM32 0l-6 25l328 480l-319 -3l3 37h355l10 -25l-327 -479l332 3l-3 -38h-373z" />
<glyph horiz-adv-x="434" d="M263 709q0 -19 -9.5 -33t-27.5 -14q-16 0 -25.5 12t-9.5 31t10.5 33t27.5 14q16 0 25 -12t9 -31zM32 0l-6 25l328 480l-319 -3l3 37h355l10 -25l-327 -479l332 3l-3 -38h-373z" />
<glyph horiz-adv-x="434" d="M32 0l-6 25l328 480l-319 -3l3 37h355l10 -25l-327 -479l332 3l-3 -38h-373zM290 -159q0 -19 -9.5 -33t-27.5 -14q-16 0 -25.5 12t-9.5 31t10.5 33t27.5 14q16 0 25 -12t9 -31z" />
<glyph horiz-adv-x="210" d="M188 777l3 -8q-58 -86 -162 -151l-10 13q91 93 130 162zM22 -144l-14 22q78 44 78 162v381q0 65 -7 118l42 8l5 -5v-502q0 -73 -26 -116.5t-78 -67.5z" />
<glyph horiz-adv-x="470" d="M400 194q0 -101 -48.5 -156.5t-120.5 -55.5t-116.5 55.5t-44.5 152.5q0 101 48.5 157.5t119.5 56.5q72 0 117 -56.5t45 -153.5zM110 193q0 -83 32 -133t91 -50q57 0 91.5 47.5t34.5 134.5q0 83 -31.5 133.5t-90.5 50.5q-57 0 -92 -48t-35 -135z" />
<glyph horiz-adv-x="227" d="M100 360h-1l-77 -17l-7 22l118 39l4 -4v-410h-38v283q0 63 1 87z" />
<glyph horiz-adv-x="359" d="M40 -10l-5 33q128 101 165 140q64 67 64 123q0 41 -28 64.5t-72 23.5q-66 0 -125 -45l-4 31q52 44 137 44q56 0 94 -30.5t38 -81.5q0 -27 -14 -56.5t-29 -50t-51.5 -53.5t-52 -45.5t-59.5 -46.5q-16 -12 -23 -18h137q54 0 104 6l-6 -38h-270z" />
<glyph horiz-adv-x="346" d="M49 371q50 33 120 33q50 0 83.5 -24t33.5 -64q0 -36 -30 -66.5t-88 -48.5q63 -4 100.5 -29.5t37.5 -72.5q0 -52 -44 -84.5t-117 -32.5q-53 0 -105 14l4 29q51 -14 101 -14q54 0 87.5 23.5t33.5 62.5q0 41 -36.5 60t-92.5 19q-25 0 -44 -4v29q76 15 114.5 44.5t38.5 65.5 q0 29 -23 46t-62 17q-56 0 -108 -32z" />
<glyph horiz-adv-x="391" d="M40 132l190 266l40 6l4 -4v-266q46 2 67 5l-7 -36h-60v-113h-37v113h-191zM75 133v-1q49 1 142 1h20h1v133q0 69 1 97h-1z" />
<glyph horiz-adv-x="366" d="M55 -4l5 30q45 -15 95 -15q54 0 87.5 27t33.5 72q0 46 -31.5 69.5t-79.5 23.5q-53 0 -85 -13l-8 6v200h128q64 0 104 6l-3 -38h-195v-141q32 8 70 8q59 0 99.5 -30.5t40.5 -87.5q0 -59 -44 -95t-117 -36q-48 0 -100 14z" />
<glyph horiz-adv-x="405" d="M214 -18q-68 0 -106 48t-38 134q0 110 56.5 175t146.5 65q39 0 55 -9l-4 -30q-20 9 -49 9q-69 0 -115.5 -50.5t-49.5 -146.5h1q44 47 119 47q56 0 90.5 -32t34.5 -84q0 -57 -41 -91.5t-100 -34.5zM222 197q-34 0 -66.5 -14.5t-44.5 -38.5q9 -132 105 -132q43 0 71 26 t28 69q0 40 -24.5 65t-68.5 25z" />
<glyph horiz-adv-x="345" d="M40 357l7 39h258l5 -5v-23q-73 -80 -126.5 -181t-59.5 -197h-40q6 92 63 196t123 177v1h-121q-61 0 -109 -7z" />
<glyph horiz-adv-x="385" d="M191 -18q-60 0 -100.5 27.5t-40.5 70.5q0 37 30.5 66.5t77.5 46.5v1q-95 47 -95 110q0 42 39 71t93 29q53 0 89.5 -28t36.5 -70q0 -34 -26 -63t-70 -47v-1q110 -42 110 -110q0 -44 -41 -73.5t-103 -29.5zM195 376q-39 0 -66.5 -19.5t-27.5 -50.5q0 -29 26.5 -53.5 t70.5 -41.5q38 16 62 41.5t24 53.5q0 30 -26 50t-63 20zM185 178q-41 -16 -69 -41.5t-28 -55.5q0 -32 29.5 -52t73.5 -20q45 0 74 21t31 53q1 31 -27 52.5t-84 42.5z" />
<glyph horiz-adv-x="406" d="M50 268q0 60 41 98t100 38q64 0 104.5 -48t40.5 -131q0 -104 -59 -173.5t-147 -69.5q-30 0 -48 5v29q22 -4 44 -4q69 0 115 50t54 137q-36 -49 -114 -49q-59 0 -95 32t-36 86zM91 271q0 -42 25.5 -67.5t71.5 -25.5q79 0 107 57q-3 62 -31 101t-76 39q-42 0 -69.5 -29.5 t-27.5 -74.5z" />
<glyph horiz-adv-x="656" d="M576 346q0 -169 -73 -262.5t-180 -93.5q-109 0 -176 93.5t-67 255.5q0 169 73 262.5t180 93.5q109 0 176 -93.5t67 -255.5zM123 343q0 -143 53.5 -230t148.5 -87q91 0 149.5 82.5t58.5 233.5q0 143 -53.5 230t-148.5 87q-91 0 -149.5 -82.5t-58.5 -233.5z" />
<glyph horiz-adv-x="315" d="M141 639h-1l-123 -33l-7 24l165 65l5 -5v-690h-40v491q0 106 1 148z" />
<glyph horiz-adv-x="561" d="M67 0l-7 43q174 158 269.5 276.5t95.5 206.5q0 60 -43.5 96.5t-119.5 36.5q-85 0 -197 -55l-5 36q102 55 209 55q89 0 144 -46t55 -119q0 -55 -32 -119.5t-94.5 -135.5t-111.5 -119.5t-125 -117.5h226q87 0 160 10l-10 -48h-414z" />
<glyph horiz-adv-x="501" d="M66 640q90 55 189 55q73 0 119.5 -37.5t46.5 -102.5q0 -60 -47.5 -112.5t-140.5 -86.5q100 -6 159 -47.5t59 -123.5q0 -87 -65.5 -141t-175.5 -54q-82 0 -160 24l5 36q79 -24 156 -24q88 0 142.5 43t54.5 113q0 74 -59.5 109t-147.5 35q-36 0 -65 -7v35q121 28 181.5 82 t60.5 115q0 50 -34 79t-95 29q-79 0 -178 -55z" />
<glyph horiz-adv-x="577" d="M35 235l317 448l40 10l5 -5v-453q77 2 140 10l-10 -48h-130v-197h-40v197h-314zM75 234v-1q89 2 245 2h37l1 247q0 109 1 152h-1z" />
<glyph horiz-adv-x="531" d="M75 14l5 36q74 -24 147 -24q88 0 142 48.5t54 128.5q0 81 -51.5 123t-129.5 42q-84 0 -130 -20l-10 10v327h188q87 0 160 10l-4 -48h-306v-258q56 14 111 14q90 0 152.5 -50.5t62.5 -146.5t-65.5 -156t-174.5 -60q-77 0 -151 24z" />
<glyph horiz-adv-x="588" d="M305 -10q-103 0 -159 81.5t-56 226.5q0 184 85.5 290.5t217.5 106.5q59 0 84 -15l-5 -36q-27 15 -75 15q-113 0 -187 -90t-77 -263h1q35 43 88 65.5t106 22.5q84 0 137 -53.5t53 -140.5q0 -95 -62 -152.5t-151 -57.5zM322 358q-58 0 -112.5 -28t-73.5 -75 q6 -104 49 -166.5t125 -62.5q71 0 118 46.5t47 124.5q0 71 -40.5 116t-112.5 45z" />
<glyph horiz-adv-x="523" d="M55 637l10 48h398l5 -5v-28q-110 -136 -194 -313t-96 -339h-43q10 155 98 335t189 311v1h-207q-87 0 -160 -10z" />
<glyph horiz-adv-x="564" d="M281 -10q-88 0 -149.5 45.5t-61.5 114.5q0 61 47.5 110.5t120.5 82.5v1q-66 34 -107.5 81t-41.5 105q0 70 58.5 117.5t138.5 47.5q77 0 133 -46t56 -115q0 -58 -41.5 -108t-110.5 -80v-1q171 -74 171 -188q0 -73 -61.5 -120t-151.5 -47zM286 659q-63 0 -109 -36t-46 -90 q0 -51 43.5 -94.5t114.5 -74.5q64 29 104 73.5t40 96.5q0 54 -42.5 89.5t-104.5 35.5zM272 325q-67 -29 -113.5 -74.5t-46.5 -99.5q0 -55 48.5 -90t119.5 -35q74 0 122 37.5t50 93.5q1 54 -44 92t-136 76z" />
<glyph horiz-adv-x="588" d="M70 468q0 100 61.5 163.5t149.5 63.5q97 0 157 -81.5t60 -220.5q0 -174 -89.5 -288.5t-218.5 -114.5q-47 0 -73 8l-1 36q26 -8 68 -8q111 0 186.5 92t85.5 246h-1q-27 -46 -77.5 -70t-108.5 -24q-90 0 -144.5 54.5t-54.5 143.5zM113 471q0 -74 42 -119.5t119 -45.5 q57 0 106 26.5t73 82.5q-3 109 -51.5 176.5t-125.5 67.5q-69 0 -116 -52.5t-47 -135.5z" />
<glyph horiz-adv-x="470" d="M400 496q0 -101 -48.5 -156.5t-120.5 -55.5t-116.5 55.5t-44.5 152.5q0 101 48.5 157.5t119.5 56.5q72 0 117 -56.5t45 -153.5zM110 495q0 -83 32 -133t91 -50q57 0 91.5 47.5t34.5 134.5q0 83 -31.5 133.5t-90.5 50.5q-57 0 -92 -48t-35 -135z" />
<glyph horiz-adv-x="227" d="M100 662h-1l-77 -17l-7 22l118 39l4 -4v-410h-38v283q0 63 1 87z" />
<glyph horiz-adv-x="359" d="M40 292l-5 33q128 101 165 140q64 67 64 123q0 41 -28 64.5t-72 23.5q-66 0 -125 -45l-4 31q52 44 137 44q56 0 94 -30.5t38 -81.5q0 -27 -14 -56.5t-29 -50t-51.5 -53.5t-52 -45.5t-59.5 -46.5q-16 -12 -23 -18h137q54 0 104 6l-6 -38h-270z" />
<glyph horiz-adv-x="346" d="M49 673q49 33 120 33q50 0 83.5 -24t33.5 -64q0 -36 -30 -66.5t-88 -48.5q63 -4 100.5 -29.5t37.5 -72.5q0 -52 -44 -84.5t-117 -32.5q-53 0 -105 14l4 29q51 -14 101 -14q54 0 87.5 23.5t33.5 62.5q0 41 -36.5 60t-92.5 19q-25 0 -44 -4v29q76 15 114.5 44.5t38.5 65.5 q0 29 -23 46t-62 17q-56 0 -108 -32z" />
<glyph horiz-adv-x="391" d="M40 434l190 266l40 6l4 -4v-266q46 2 67 5l-7 -36h-60v-113h-37v113h-191zM75 435v-1q49 1 142 1h20h1v133q0 69 1 97h-1z" />
<glyph horiz-adv-x="366" d="M55 298l5 30q45 -15 95 -15q54 0 87.5 27t33.5 72q0 46 -31.5 69.5t-79.5 23.5q-53 0 -85 -13l-8 6v200h128q64 0 104 6l-3 -38h-195v-141q32 8 70 8q59 0 99.5 -30.5t40.5 -87.5q0 -59 -44 -95t-117 -36q-48 0 -100 14z" />
<glyph horiz-adv-x="405" d="M214 284q-68 0 -106 48t-38 134q0 110 56.5 175t146.5 65q39 0 55 -9l-4 -30q-20 9 -49 9q-69 0 -115.5 -50.5t-49.5 -146.5h1q44 47 119 47q56 0 90.5 -32t34.5 -84q0 -57 -41 -91.5t-100 -34.5zM222 499q-34 0 -66.5 -14.5t-44.5 -38.5q9 -132 105 -132q43 0 71 26 t28 69q0 40 -24.5 65t-68.5 25z" />
<glyph horiz-adv-x="345" d="M40 659l7 39h258l5 -5v-23q-73 -80 -126.5 -181t-59.5 -197h-40q6 92 63 196t123 177v1h-121q-61 0 -109 -7z" />
<glyph horiz-adv-x="385" d="M191 284q-60 0 -100.5 27.5t-40.5 70.5q0 37 30.5 66.5t77.5 46.5v1q-95 47 -95 110q0 42 39 71t93 29q53 0 89.5 -28t36.5 -70q0 -34 -26 -63t-70 -47v-1q110 -42 110 -110q0 -44 -41 -73.5t-103 -29.5zM195 678q-39 0 -66.5 -19.5t-27.5 -50.5q0 -29 26.5 -53.5 t70.5 -41.5q38 16 62 41.5t24 53.5q0 30 -26 50t-63 20zM185 480q-41 -16 -69 -41.5t-28 -55.5q0 -32 29.5 -52t73.5 -20q45 0 74 21t31 53q1 31 -27 52.5t-84 42.5z" />
<glyph horiz-adv-x="406" d="M50 570q0 60 41 98t100 38q64 0 104.5 -48t40.5 -131q0 -104 -59 -173.5t-147 -69.5q-30 0 -48 5v29q22 -4 44 -4q69 0 115 50t54 137q-36 -49 -114 -49q-59 0 -95 32t-36 86zM91 573q0 -42 25.5 -67.5t71.5 -25.5q79 0 107 57q-3 62 -31 101t-76 39q-42 0 -69.5 -29.5 t-27.5 -74.5z" />
<glyph horiz-adv-x="576" d="M506 268q0 -132 -64 -205t-159 -73t-154 72.5t-59 198.5q0 132 64 205t159 73t154 -72.5t59 -198.5zM113 265q0 -108 45.5 -173.5t126.5 -65.5q78 0 128 62t50 176q0 108 -45.5 173.5t-126.5 65.5q-78 0 -128 -62t-50 -176z" />
<glyph horiz-adv-x="375" d="M191 483h-1l-123 -33l-7 24l165 65l5 -5v-534h-40v335q0 106 1 148z" />
<glyph horiz-adv-x="505" d="M67 0l-7 43q130 79 221 176t91 179q0 49 -34 77t-94 28q-76 0 -169 -55l-5 36q86 55 180 55q72 0 118.5 -36.5t46.5 -100.5q0 -63 -50.5 -136t-115 -128t-137.5 -100h163q87 0 160 10l-10 -48h-358z" />
</font>
</defs>
</svg>
