<?xml version="1.0" standalone="no"?>
<!DOCTYPE svg PUBLIC "-//W3C//DTD SVG 1.1//EN" "http://www.w3.org/Graphics/SVG/1.1/DTD/svg11.dtd" >
<svg xmlns="http://www.w3.org/2000/svg" xmlns:xlink="http://www.w3.org/1999/xlink" version="1.1">
<metadata></metadata>
<defs>
<font id="indivisa_display_sansheavy" horiz-adv-x="620" >
<font-face units-per-em="1000" ascent="800" descent="-200" />
<missing-glyph horiz-adv-x="210" />
<glyph unicode="&#x2f;symbol&#x31;&#x2f;" horiz-adv-x="5534" d="M1865 412q-25 0 -40.5 14.5t-15.5 37.5q0 24 15.5 45t39 34.5t48.5 13.5q24 0 39 -13.5t15 -37.5t-14.5 -45.5t-37.5 -35t-49 -13.5zM1284 412q-26 0 -41.5 14.5t-15.5 37.5q0 24 15.5 45t39.5 34.5t49 13.5q24 0 38.5 -13.5t14.5 -37.5t-14.5 -45.5t-37 -35t-48.5 -13.5 zM959 0q0 21 2.5 46.5t8.5 61.5q-16 -49 -51 -82t-79 -33q-41 0 -63 30t-22 82q0 45 15.5 91t46.5 85.5t76.5 63.5t104.5 24h12.5t12.5 -1l16 73l6 102l136 7q0 -40 -9.5 -95t-23 -116.5t-27 -123.5t-23 -117.5t-9.5 -97.5h-130zM100 0l78 364q8 38 13.5 72.5t7.5 63.5 l128 7l11 -15l-104 -492h-134zM3503 492l-57 -492h-131l20 175q3 30 9 69t12.5 78t11.5 68h-3q-16 -53 -37 -107.5t-44 -107.5l-76 -175h-149l-2 175q-1 56 1 109t8 106h-2q-15 -61 -30 -115.5t-29 -99.5l-53 -175h-109l154 500l184 6l1 -137q1 -50 -2.5 -121.5 t-12.5 -137.5h2q20 65 36 111t30.5 81t27.5 67l56 131l169 7zM5316 300q-15 -74 -23 -110.5t-11 -51t-3 -21.5q0 -34 36 -34q13 0 28 5t31 13l-9 -79q-20 -11 -50 -20t-64 -9q-50 0 -77.5 25t-27.5 75q0 11 1.5 23.5t6 33.5t12.5 57.5t20 95.5l-47 1l9 44l54 14l53 95l81 6 l13 -15l-20 -86h99l6 -14l-17 -51zM336 0q0 28 4 62t13 82t24 116l6 102l137 7q0 -18 -2 -41t-5 -48h2q29 49 65.5 69t68.5 20q35 0 53.5 -19.5t18.5 -51.5q0 -23 -8 -62.5t-18 -84.5q-7 -33 -11 -57t-5.5 -45.5t-1.5 -48.5h-131q0 38 4.5 69.5t14.5 80.5q7 35 11 55.5 t4 31.5q0 24 -17 24t-34 -22.5t-30.5 -60.5t-22 -84t-9.5 -94h-131zM1170 0q0 39 7 87.5t20 105.5l14 67l6 102l137 7q0 -36 -8 -81.5t-19 -95.5t-19 -99t-8 -93h-130zM1399 362l140 7q6 -59 4.5 -137.5t-9.5 -151.5h2q23 45 42 95t32 99t17 90q17 4 28.5 4.5t21.5 0.5 q28 0 46.5 -7t18.5 -35q0 -22 -13.5 -60.5t-36.5 -85t-53.5 -94t-63.5 -87.5h-149q-2 111 -9.5 207.5t-17.5 154.5zM1752 0q0 39 7 87.5t19 105.5l15 67l6 102l137 7q0 -36 -8 -81.5t-19 -95.5t-19 -99t-8 -93h-130zM4716 0q0 28 4 62t13 82t24 116l6 102l137 7 q0 -18 -2.5 -41t-4.5 -48h2q29 49 65 69t69 20q35 0 53.5 -19.5t18.5 -51.5q0 -23 -8 -62.5t-18 -84.5q-7 -33 -11 -57t-6 -45.5t-2 -48.5h-130q0 38 4.5 69.5t14.5 80.5q7 35 11 55.5t4 31.5q0 24 -17 24q-18 0 -34.5 -22.5t-30.5 -60.5t-22.5 -84t-9.5 -94h-130zM2245 256 q-25 14 -51.5 22t-45.5 8q-17 0 -29.5 -7t-12.5 -19q0 -13 13 -22t32 -17.5t38 -20.5t32 -30.5t13 -47.5q0 -39 -25 -68t-66.5 -45t-89.5 -16q-33 0 -66.5 7.5t-51.5 20.5l27 93q27 -18 58.5 -28t52.5 -10q20 0 30 8t10 18q0 13 -13 22t-32 18t-38 21t-32 30t-13 46 q0 39 25.5 68t67.5 45.5t90 16.5q20 0 48.5 -3.5t55.5 -14.5zM2525 369q32 0 73.5 -7.5t72.5 -24.5l-29 -128q-20 -94 -25.5 -140.5t-5.5 -68.5h-130q0 20 2.5 45t9.5 67q-15 -50 -50.5 -84.5t-81.5 -34.5q-41 0 -62.5 30t-21.5 83q0 44 15.5 90.5t46.5 85.5t77.5 63 t108.5 24zM4653 51q-32 -28 -74 -43t-85 -15q-62 0 -102 33.5t-40 103.5q0 46 17.5 88.5t49.5 76.5t75 54t94 20q53 0 86 -23t33 -65q0 -56 -59 -95.5t-162 -44.5v-1q0 -29 15 -46.5t48 -17.5q22 0 45 7.5t45 20.5zM3936 0q0 28 4 62t13.5 82t24.5 116l5 102l137 7 q0 -18 -2 -41t-5 -48h2q29 49 65.5 69t68.5 20q35 0 53.5 -19.5t18.5 -51.5q0 -23 -8 -62.5t-18 -84.5q-7 -33 -11 -57t-5.5 -45.5t-1.5 -48.5h-131q0 38 4.5 69.5t14.5 80.5q8 35 11.5 55.5t3.5 31.5q0 24 -17 24t-34 -22.5t-30.5 -60.5t-22 -84t-9.5 -94h-131zM3768 369 q32 0 73 -7.5t72 -24.5l-28 -128q-20 -94 -25.5 -140.5t-5.5 -68.5h-130q0 20 2.5 45t9.5 67q-15 -50 -50.5 -84.5t-81.5 -34.5q-41 0 -63 30t-22 83q0 44 15.5 90.5t47 85.5t78 63t108.5 24zM4490 177q46 10 72.5 33.5t26.5 59.5q0 17 -5.5 24t-16.5 7q-20 0 -36 -20 t-26 -48.5t-15 -55.5zM3677 101q17 0 33 21t30 54t22 69q2 11 4.5 22t4.5 22q-16 8 -27 8q-18 0 -34.5 -16t-29 -40.5t-20 -51.5t-7.5 -48q0 -40 24 -40zM913 101q16 0 31 19.5t28.5 50t22.5 64.5l4 20l4 20l3 14q-14 8 -27 8q-18 0 -34 -16t-28.5 -40.5t-20 -51.5t-7.5 -48 q0 -40 24 -40zM2435 101q16 0 32.5 21t30 54t21.5 69q2 11 4.5 22t4.5 22q-14 8 -27 8q-18 0 -34 -16t-29 -40.5t-20 -51.5t-7 -48q0 -40 24 -40z" />
<glyph unicode="&#x2f;symbol&#x32;&#x2f;" horiz-adv-x="932" d="M494 570l52 -90l-137 -240h-103l137 240l-52 90h103zM357 570l52 -90l-138 -240h-103l138 240l-52 90h103zM752 120h-103l-137 240l51 90l137 -240h103zM683 0h-103l-137 240l51 90l138 -240h103zM100 120l51 90h275l51 -90h-274l-52 -90zM168 0l52 90h274l52 -90h-275 l-51 -90zM789 88q18 0 30.5 -13t12.5 -31t-12.5 -31t-30.5 -13t-30.5 13t-12.5 31t12.5 31t30.5 13zM829 44q0 17 -11.5 28.5t-28.5 11.5q-16 0 -28 -11.5t-12 -28.5q0 -16 12 -28t28 -12q17 0 28.5 12t11.5 28zM771 69h18h5t6 -2q5 -4 5 -11q0 -5 -3 -8q-1 -2 -2.5 -2.5 t-3.5 -1.5q7 -1 8 -9q0 -8 3 -16h-8q-1 2 -1 6t-1 7q-1 5 -2.5 7.5t-8.5 2.5h-8v-23h-7v50zM778 47h10h3.5t3.5 1q3 3 3 7q0 6 -4 7t-6 1h-10v-16z" />
<glyph unicode="&#x2f;symbol&#x33;&#x2f;" horiz-adv-x="957" d="M505 638l68 -270h270l-203 -135l136 -270l-271 135l-270 -270l135 405l-270 203l338 -68zM814 87q18 0 30.5 -12.5t12.5 -31.5q0 -18 -12.5 -30.5t-30.5 -12.5t-30.5 12.5t-12.5 30.5q0 19 12.5 31.5t30.5 12.5zM854 43q0 17 -11.5 29t-28.5 12q-16 0 -28 -12t-12 -29 q0 -16 12 -28t28 -12q17 0 28.5 12t11.5 28zM796 68h18h5.5t5.5 -2q6 -3 6 -10q0 -5 -4 -9q-3 -3 -6 -3q7 -3 8 -10q1 -4 1.5 -7.5t1.5 -8.5h-7q-1 3 -1.5 7t-1.5 7q0 9 -10 9h-9v-23h-7v50zM803 47h10h3.5t3.5 1l2 2t1 4q0 7 -4 8t-6 1h-10v-16z" />
<glyph unicode="&#x2f;symbol&#x34;&#x2f;" horiz-adv-x="2607" d="M1684 406q0 32 -2.5 63t-8.5 65l126 14l15 -15v-533h-130v406zM1889 406q0 62 -10 128l126 14l14 -15v-533h-130v406zM427 101v-101h-320v362q0 38 -1.5 72t-5.5 63l126 7l14 -14v-396zM925 21l7 109q31 -18 72 -27t72 -9q50 0 50 36q0 19 -20.5 34t-50 31t-59.5 37 t-50.5 51t-20.5 74q0 48 26 80.5t70 49.5t97 17q81 0 127 -18l-14 -111q-28 14 -55 21.5t-56 7.5q-28 0 -43 -11t-15 -29q0 -22 20.5 -38.5t50.5 -32.5t59.5 -36.5t50 -49.5t20.5 -73q0 -67 -54 -104t-139 -37q-40 0 -82.5 8t-62.5 20zM795 0l-106 -7q-7 11 -12 24t-9 25h-4 q-15 -22 -42.5 -35.5t-61.5 -13.5q-41 0 -69 22t-28 67q0 61 53.5 88.5t137.5 29.5v20q0 54 -58 54q-55 0 -108 -29l-8 97q27 10 68.5 18t81.5 8q154 0 154 -135q0 -38 -2 -69.5t-2 -69.5q0 -24 4.5 -50.5t10.5 -43.5zM1626 0l-107 -7q-7 11 -12 24t-9 25h-3 q-15 -22 -42.5 -35.5t-62.5 -13.5q-40 0 -68 22t-28 67q0 61 53 88.5t138 29.5v20q0 54 -58 54q-54 0 -109 -29l-7 97q27 10 68.5 18t81.5 8q153 0 153 -135q0 -38 -1.5 -69.5t-1.5 -69.5q0 -24 4.5 -50.5t10.5 -43.5zM2405 213v-17t-1 -19l-11 -11h-191q8 -45 33.5 -64 t64.5 -19q24 0 45.5 6t38.5 15l7 -81q-17 -11 -49.5 -20.5t-77.5 -9.5q-88 0 -143 47t-55 135q0 58 24 101t66 67.5t94 24.5q73 0 114 -43.5t41 -111.5zM2199 207l78 4q1 5 1.5 11t0.5 15q0 23 -7.5 41t-26.5 18q-23 0 -34 -25.5t-12 -63.5zM654 74v88q-27 -3 -46 -17 t-19 -40q0 -18 10.5 -29t26.5 -11t28 9zM1485 74v88q-27 -3 -46 -17t-19 -40q0 -18 10 -29t27 -11q16 0 28 9zM2464 85q18 0 30.5 -13t12.5 -31t-12.5 -31t-30.5 -13t-31 13t-13 31t13 31t31 13zM2504 41q0 17 -11.5 28.5t-28.5 11.5q-16 0 -28 -11.5t-12 -28.5 q0 -16 12 -28t28 -12q17 0 28.5 12t11.5 28zM2446 66h18q2 0 5 -0.5t6 -2.5q5 -2 5 -10q0 -4 -3 -9q-3 -3 -6 -3q7 -1 8 -10q0 -7 3 -15h-8q-1 2 -1 6t-1 7q-1 5 -2.5 7t-8.5 2h-8v-22h-7v50zM2453 44h10h3.5t3.5 1q3 3 3 7q0 6 -4 7t-6 1h-10v-16z" />
<glyph unicode="&#x2f;symbol&#x35;&#x2f;" horiz-adv-x="705" d="M232 -6l-132 136l124 234l129 -136zM474 -6l-121 234l128 136l124 -234z" />
<glyph unicode=" "  horiz-adv-x="210" />
<glyph unicode="&#x09;" horiz-adv-x="210" />
<glyph unicode="&#xa0;" horiz-adv-x="210" />
<glyph unicode="!" horiz-adv-x="316" d="M230 204h-140q-5 92 -10.5 171t-13.5 154.5t-19 155.5l215 10q2 -25 3 -55.5t1 -54.5q0 -61 -4.5 -130t-12.5 -134.5t-19 -116.5zM261 86q0 -43 -34 -66t-78 -23q-40 0 -67 19t-27 56q0 40 31.5 66t80.5 26q41 0 67.5 -19.5t26.5 -58.5z" />
<glyph unicode="&#x22;" horiz-adv-x="438" d="M188 695l-42 -317h-59l-42 317h143zM393 695l-42 -317h-59l-42 317h143z" />
<glyph unicode="#" horiz-adv-x="686" d="M580 164h-113l-43 -174l-91 16l-6 6l38 152h-112l-43 -174l-91 16l-6 6l38 152h-105l-6 6l13 84h120l35 142h-109l-6 6l13 84h124l43 174l91 -16l6 -6l-38 -152h112l43 174l91 -16l6 -6l-38 -152h94l6 -6l-13 -84h-109l-35 -142h98l6 -6zM275 254h112l35 142h-112z" />
<glyph unicode="$" horiz-adv-x="511" d="M216 -123v114q-30 1 -64.5 5.5t-67 11.5t-54.5 17l28 178q39 -25 84 -41.5t78 -16.5q23 0 35.5 9t12.5 24q0 19 -17 33.5t-43.5 29.5t-56 32.5t-56 42t-43.5 58.5t-17 82q0 58 26.5 100.5t71.5 68t103 32.5v113l70 3v-114q42 -2 89 -11t77 -23l-36 -165q-34 20 -72 32.5 t-67 12.5q-49 0 -49 -36q0 -21 17 -37t43.5 -31t56 -32.5t56 -41.5t43.5 -58t17 -82q0 -83 -53 -133.5t-142 -60.5v-113z" />
<glyph unicode="%" horiz-adv-x="953" d="M337 -10h-115l400 670h116zM403 473q0 -65 -26.5 -106t-70 -60.5t-94.5 -19.5t-92.5 19t-65.5 58.5t-24 100.5q0 62 25.5 104t69 64t97.5 22q83 0 132 -48t49 -134zM173 474q0 -54 9 -84.5t36 -30.5q19 0 28 14.5t11.5 37.5t2.5 48q0 64 -9 94t-35 30q-25 0 -34 -27 t-9 -82zM923 181q0 -65 -26.5 -106t-70 -60.5t-94.5 -19.5t-92.5 19t-65.5 58.5t-24 100.5q0 62 25.5 104t69 64t97.5 22q83 0 132 -48t49 -134zM693 182q0 -54 9 -84.5t36 -30.5q19 0 28 14.5t11.5 37.5t2.5 48q0 64 -9 94t-35 30q-25 0 -34 -27t-9 -82z" />
<glyph unicode="&#x26;" horiz-adv-x="844" d="M423 550q-16 0 -31.5 -12t-15.5 -38q0 -31 21 -62t40 -56l83 -105q9 -11 19.5 -23t21.5 -23q6 30 6 62q0 20 -2 43t-6 42l195 19q-4 -74 -26.5 -134.5t-59.5 -108.5q31 -13 58 -13q15 0 33.5 3.5t24.5 5.5l10 -134q-16 -9 -48 -17.5t-70 -8.5q-44 0 -81.5 13t-70.5 35 q-98 -48 -213 -48q-76 0 -132.5 20.5t-87.5 56.5t-31 81q0 46 29 80t74 56.5t93 32.5q-24 27 -47 55.5t-38 59.5t-15 65q0 42 26.5 79.5t79 60.5t129.5 23q71 0 126.5 -18t88.5 -41l-82 -139q-54 88 -101 88zM290 214q0 -60 38 -97t91 -37q23 0 44 8q-20 18 -39.5 39 t-38.5 43l-87 99q-8 -27 -8 -55z" />
<glyph unicode="'" horiz-adv-x="233" d="M188 695l-42 -317h-59l-42 317h143z" />
<glyph unicode="(" horiz-adv-x="414" d="M331 -123q-85 37 -148 100.5t-98 143.5t-35 165q0 86 35 165.5t98 143t148 100.5l53 -76q-61 -68 -88 -157.5t-27 -175.5q0 -56 12 -116t37.5 -116t65.5 -101z" />
<glyph unicode=")" horiz-adv-x="414" d="M364 286q0 -85 -35 -165t-98 -143.5t-148 -100.5l-53 76q41 45 66 101t37 116t12 116q0 86 -27 175.5t-88 157.5l53 76q85 -37 148 -100.5t98 -143t35 -165.5z" />
<glyph unicode="*" horiz-adv-x="442" d="M185 411l18 111l-87 -71l-36 62l106 40l-106 40l36 62l87 -71l-18 111h72l-18 -111l87 71l36 -62l-105 -40l105 -40l-36 -62l-87 71l18 -111h-72z" />
<glyph unicode="+" horiz-adv-x="591" d="M510 256h-139v-144h-147l-1 144h-143v132q26 1 63 2t79 2l-1 147h150v-146q40 1 76.5 1h63.5z" />
<glyph unicode="," horiz-adv-x="301" d="M236 72q0 -49 -26 -96t-65 -83t-79 -52l-26 31q23 21 46.5 53t33.5 67q-28 6 -46 26t-18 51q0 45 27 70t64 25q41 0 65 -26t24 -66z" />
<glyph unicode="-" horiz-adv-x="388" d="M30 241v60h328v-60h-328z" />
<glyph unicode="." horiz-adv-x="310" d="M153 -10q-38 0 -63 22.5t-25 59.5q0 40 28.5 66t68.5 26q35 0 59 -21.5t24 -56.5q0 -40 -26 -68t-66 -28z" />
<glyph unicode="/" horiz-adv-x="369" d="M214 703l115 -28l-174 -697l-115 28z" />
<glyph unicode="0" horiz-adv-x="631" d="M601 329q0 -117 -40.5 -192t-107.5 -111t-145 -36q-79 0 -142 35.5t-99.5 107.5t-36.5 182q0 113 38.5 189.5t105 116t150.5 39.5q85 0 147 -39.5t96 -113.5t34 -178zM245 330q0 -106 15 -168t58 -62q30 0 44.5 28t19 75.5t4.5 104.5q0 119 -14.5 180.5t-57.5 61.5 q-40 0 -54.5 -54.5t-14.5 -165.5z" />
<glyph unicode="1" horiz-adv-x="440" d="M350 0h-210v525l-95 -45l-25 93l318 87l12 -10v-650z" />
<glyph unicode="2" horiz-adv-x="578" d="M494 0h-439l-15 118q22 17 52.5 45t63 63t60 74t45 78t17.5 74q0 32 -20.5 52.5t-58.5 20.5q-34 0 -72.5 -16.5t-68.5 -45.5l-17 142q37 20 97.5 37.5t130.5 17.5q111 0 177.5 -49.5t66.5 -134.5q0 -47 -25.5 -91.5t-70 -85.5t-102.5 -75.5t-123 -59.5h113q104 0 198 15z " />
<glyph unicode="3" horiz-adv-x="529" d="M499 176q0 -56 -34 -98t-96 -65t-148 -23q-43 0 -89 6t-82 17l16 114q20 -11 50.5 -19t55.5 -8q42 0 67 24.5t25 66.5q0 44 -28.5 62.5t-70.5 18.5q-16 0 -33.5 -2t-28.5 -4v67q40 15 74.5 35.5t55.5 45t21 50.5q0 29 -20.5 45t-53.5 16q-27 0 -59 -9.5t-58 -25.5l-7 121 q35 19 89.5 34t118.5 15q106 0 165.5 -42.5t59.5 -104.5q0 -61 -56 -104.5t-152 -66.5q98 -7 158 -49.5t60 -116.5z" />
<glyph unicode="4" horiz-adv-x="633" d="M494 0h-210v97h-255l-9 86l324 477l150 -10v-394q43 4 84 10l-9 -169h-75v-97zM284 479l-162 -228h162v228z" />
<glyph unicode="5" horiz-adv-x="577" d="M532 199q0 -68 -38.5 -115t-106.5 -70.5t-157 -23.5q-45 0 -91 6t-84 17l16 110q17 -6 40 -11.5t46.5 -8.5t39.5 -3q44 0 72 24t28 72q0 47 -26.5 69.5t-67.5 22.5q-24 0 -52.5 -6.5t-51.5 -11.5l-14 9v371h238q46 0 91.5 2.5t88.5 7.5l-9 -174h-308v-129q28 9 62.5 15 t71.5 6q98 0 155 -48t57 -131z" />
<glyph unicode="6" horiz-adv-x="593" d="M301 -10q-75 0 -136.5 31.5t-98 96.5t-36.5 164q0 115 49 200t135 131.5t196 46.5q27 0 51 -2.5t35 -7.5l-15 -111q-14 5 -33.5 8t-34.5 3q-35 0 -69 -21t-59.5 -66t-34.5 -118q21 29 56.5 44.5t76.5 15.5q48 0 89 -22.5t66 -65t25 -102.5q0 -71 -36 -121.5t-95.5 -77 t-130.5 -26.5zM296 100q31 0 46.5 29.5t15.5 75.5t-16 78.5t-49 32.5q-27 0 -48 -16q0 -78 4 -121.5t15 -61t32 -17.5z" />
<glyph unicode="7" horiz-adv-x="544" d="M319 0h-235q6 88 41 178t99 170t157 138h-146q-103 0 -198 -15l9 179h450l12 -10l6 -100q-99 -120 -145.5 -253t-49.5 -287z" />
<glyph unicode="8" horiz-adv-x="614" d="M30 152q0 51 45 91t122 53q-62 29 -102 75.5t-40 107.5q0 55 32.5 95.5t91 63t134.5 22.5q74 0 129.5 -21t86 -57.5t30.5 -83.5q0 -50 -36 -85t-105 -49q88 -31 127 -81t39 -102q0 -48 -32 -92t-95.5 -71.5t-159.5 -27.5q-82 0 -142 21.5t-92.5 58t-32.5 82.5zM255 497 q0 -28 19.5 -51.5t53.5 -42.5q31 37 31 81q0 32 -15 49t-38 17q-20 0 -35.5 -13.5t-15.5 -39.5zM235 170q0 -28 18 -49t50 -21t54 20.5t22 50.5q0 29 -24 48t-71 35q-25 -18 -37 -39.5t-12 -44.5z" />
<glyph unicode="9" horiz-adv-x="603" d="M573 368q0 -115 -49 -200t-134.5 -131.5t-196.5 -46.5q-27 0 -51 3t-35 7l15 111q14 -4 33.5 -7.5t34.5 -3.5q35 0 69 19t59 59.5t35 105.5q-22 -28 -56.5 -43.5t-73.5 -15.5q-49 0 -90.5 24.5t-67 69.5t-25.5 107q0 71 34 123.5t93 81.5t135 29t137 -31.5t97.5 -96 t36.5 -164.5zM245 436q0 -48 16 -85t50 -37q26 0 47 16q0 86 -4 134t-15 67t-32 19q-31 0 -46.5 -30.5t-15.5 -83.5z" />
<glyph unicode=":" horiz-adv-x="310" d="M153 300q-38 0 -63 22.5t-25 59.5q0 40 28.5 66t68.5 26q35 0 59 -21.5t24 -56.5q0 -40 -26 -68t-66 -28zM153 -10q-38 0 -63 22.5t-25 59.5q0 40 28.5 66t68.5 26q35 0 59 -21.5t24 -56.5q0 -40 -26 -68t-66 -28z" />
<glyph unicode=";" horiz-adv-x="306" d="M143 300q-38 0 -63 22.5t-25 59.5q0 40 28.5 66t68.5 26q35 0 59 -21.5t24 -56.5q0 -40 -26 -68t-66 -28zM241 72q0 -49 -26 -96t-65 -83t-79 -52l-26 31q23 21 46.5 53t33.5 67q-28 6 -46 26t-18 51q0 45 27 70t64 25q41 0 65 -26t24 -66z" />
<glyph unicode="&#x3c;" horiz-adv-x="595" d="M515 85l-435 177v124q32 15 77.5 34.5t96 40.5t100.5 41t91.5 36t68.5 25v-160l-242 -77l243 -81v-160z" />
<glyph unicode="=" horiz-adv-x="599" d="M510 363h-430v132q36 2 92 3t119 1.5t121 1t99 0.5zM510 149h-430v132q36 2 92 3t119 1.5t121 1t99 0.5z" />
<glyph unicode="&#x3e;" horiz-adv-x="595" d="M80 85v160l243 81l-242 77v160q27 -9 68.5 -25t91.5 -36t100.5 -41t96 -40.5t77.5 -34.5v-124z" />
<glyph unicode="?" horiz-adv-x="530" d="M304 204h-140q-15 26 -15 61q0 42 19 73t44 55t44 44.5t19 41.5q0 17 -14.5 24t-32.5 7q-29 0 -64.5 -15t-64.5 -41l-79 115q44 37 107 64t136 27q66 0 117 -23t80.5 -63t29.5 -93q0 -46 -19 -77t-46.5 -53t-55 -40t-46.5 -37.5t-19 -45.5v-24zM342 84q0 -43 -34 -66 t-78 -23q-40 0 -67 19t-27 56q0 40 31.5 66t80.5 26q41 0 67.5 -19.5t26.5 -58.5z" />
<glyph unicode="@" horiz-adv-x="1108" d="M783 -124q-51 -29 -129.5 -50t-164.5 -21q-126 0 -220 47.5t-146.5 131.5t-52.5 195q0 83 29 159.5t82 141.5t124 113t155 75t176 27q117 0 207.5 -44t142.5 -123.5t52 -186.5q0 -67 -20.5 -129.5t-57.5 -112.5t-86.5 -79.5t-107.5 -29.5q-56 0 -93 26t-54 65t-14 79h-2 q-13 -38 -42.5 -77.5t-72.5 -66t-95 -26.5q-65 0 -104 46t-39 122q0 62 27 124.5t76.5 114t119 82.5t154.5 31q30 0 70 -4.5t81.5 -14t74.5 -25.5l-56 -265q-15 -70 -3.5 -103.5t41.5 -33.5q26 0 53 23t49.5 62.5t36.5 89t14 101.5q0 91 -44 161t-123 109.5t-184 39.5 q-79 0 -154.5 -23t-141 -65t-115.5 -100t-78 -128t-28 -148q0 -101 47 -176.5t132.5 -117.5t198.5 -42q83 0 148.5 20t117.5 42zM497 140q23 0 45 25t40 65t27 85l16 77q-19 8 -34 8q-26 0 -49 -21t-40.5 -53.5t-27.5 -68t-10 -63.5q0 -54 33 -54z" />
<glyph unicode="A" horiz-adv-x="677" d="M220 0h-195l154 520l33 131l262 9l178 -660h-206l-28 125h-170zM333 503l-62 -278h125l-61 278h-2z" />
<glyph unicode="B" horiz-adv-x="610" d="M357 0h-297v520l-10 130h296q103 0 158.5 -49.5t55.5 -126.5q0 -98 -89 -145q114 -39 114 -147q0 -52 -27.5 -93t-78.5 -65t-122 -24zM285 540h-15v-165h15q44 0 61 23.5t17 56.5q0 36 -17 60.5t-61 24.5zM300 265h-30v-155h30q44 0 61 25t17 57t-17 52.5t-61 20.5z" />
<glyph unicode="C" horiz-adv-x="561" d="M508 167l25 -145q-85 -32 -180 -32q-104 0 -176 39.5t-109.5 112.5t-37.5 173q0 106 40 183t112.5 119.5t169.5 42.5q50 0 100 -10.5t84 -25.5l-27 -154q-20 12 -56 23.5t-71 11.5q-70 0 -96 -48t-26 -128q0 -52 11.5 -92t42 -62.5t86.5 -22.5q29 0 60 5t48 10z" />
<glyph unicode="D" horiz-adv-x="659" d="M60 520l-10 130h278q96 0 163.5 -40t102.5 -112t35 -169q0 -109 -42 -182t-114 -110t-163 -37h-250v520zM300 525h-30v-400h31q41 0 62 26.5t28.5 72t7.5 101.5t-7.5 101.5t-29 72t-62.5 26.5z" />
<glyph unicode="E" horiz-adv-x="520" d="M485 0h-425v511l-10 139h420l-10 -130l-190 10v-150l170 5l-10 -120l-160 5v-150l215 10v-130z" />
<glyph unicode="F" horiz-adv-x="495" d="M270 0h-210v511l-10 139h420l-10 -130l-190 10v-168l170 5l-10 -120l-160 5v-252z" />
<glyph unicode="G" d="M575 22q-50 -16 -105 -24t-108 -8q-157 0 -244.5 86t-87.5 239q0 108 43.5 185t120.5 118.5t176 41.5q56 0 108 -11.5t88 -28.5l-27 -155q-28 17 -64.5 28.5t-74.5 11.5q-78 0 -109 -49t-31 -131q0 -84 31 -137t104 -60v57l-10 130l190 10v-303z" />
<glyph unicode="H" horiz-adv-x="685" d="M270 0h-210v520l-10 130l220 10v-303h145v163l-10 130l220 11v-661h-210v252h-145v-252z" />
<glyph unicode="I" horiz-adv-x="330" d="M270 0h-210v520l-10 130l220 10v-660z" />
<glyph unicode="J" horiz-adv-x="330" d="M-30 -109q48 14 69 54.5t21 90.5v484l-10 130l220 10v-504q0 -81 -11 -144t-41 -106.5t-86.5 -69t-146.5 -31.5z" />
<glyph unicode="K" horiz-adv-x="649" d="M60 520l-10 130l220 10v-292h51l103 292l195 -10l-135 -331l145 -319l-219 -10l-90 273h-50v-263h-210v520z" />
<glyph unicode="L" horiz-adv-x="500" d="M480 0h-420v520l-10 130l220 10v-540l210 20v-140z" />
<glyph unicode="M" horiz-adv-x="924" d="M240 471h-1l-44 -471h-165l84 650l279 10l68 -505h2l65 495l283 10l83 -660h-215l-40 471h-1l-83 -471h-236z" />
<glyph unicode="N" horiz-adv-x="665" d="M60 520l-10 130l159 10l244 -372h2l-15 362l165 10v-660h-170l-223 342h-2l15 -342h-165v520z" />
<glyph unicode="O" horiz-adv-x="655" d="M625 329q0 -112 -40 -187.5t-109.5 -113.5t-156.5 -38q-90 0 -154.5 39t-99.5 111.5t-35 174.5q0 107 38.5 184.5t107.5 119t161 41.5t156.5 -41t98 -115.5t33.5 -174.5zM260 328q0 -54 6 -100.5t21.5 -74.5t43.5 -28q27 0 40.5 26.5t18.5 72t5 101.5t-5 101.5t-19 72 t-41 26.5q-40 0 -55 -55.5t-15 -141.5z" />
<glyph unicode="P" horiz-adv-x="606" d="M270 0h-210v520l-10 130h265q130 0 200.5 -65.5t70.5 -175.5q0 -82 -37.5 -137t-102 -82.5t-146.5 -27.5h-30v-162zM293 535h-23v-259h23q33 0 49.5 17.5t22.5 47t6 65.5t-6 65.5t-22.5 46.5t-49.5 17z" />
<glyph unicode="Q" horiz-adv-x="655" d="M539 -195q-124 0 -190.5 45t-76.5 143q-113 15 -177.5 99t-64.5 223q0 107 38.5 184.5t107.5 119t161 41.5t156.5 -41t98 -115.5t33.5 -174.5q0 -97 -30.5 -166.5t-84 -111t-123.5 -55.5q4 -20 41 -30t99 -10q48 0 87 5.5t76 12.5v-155q-36 -7 -74 -10.5t-77 -3.5z M260 328q0 -54 6 -100.5t21.5 -74.5t43.5 -28q27 0 40.5 26.5t18.5 72t5 101.5t-5 101.5t-19 72t-41 26.5q-40 0 -55 -55.5t-15 -141.5z" />
<glyph unicode="R" horiz-adv-x="616" d="M270 0h-210v520l-10 130h265q130 0 200.5 -60t70.5 -161q0 -67 -30 -114t-81 -75l126 -240l-223 -10l-73 212h-5h-30v-202zM293 535h-23v-219h23q49 0 63.5 32t14.5 78t-14.5 77.5t-63.5 31.5z" />
<glyph unicode="S" horiz-adv-x="535" d="M505 187q0 -62 -31.5 -106t-88.5 -67.5t-133 -23.5q-32 0 -73.5 4t-81.5 12t-67 19l30 178q41 -25 88.5 -41.5t82.5 -16.5q23 0 36.5 9t13.5 24q0 19 -17.5 33.5t-45.5 29.5t-59.5 32.5t-59.5 42t-45.5 58.5t-17.5 82q0 66 35 111.5t93.5 69t130.5 23.5q31 0 68 -4 t72.5 -12t60.5 -19l-38 -165q-35 20 -75.5 32.5t-70.5 12.5q-52 0 -52 -36q0 -21 17.5 -37t45.5 -31t59.5 -32.5t59.5 -41.5t45.5 -58t17.5 -82z" />
<glyph unicode="T" horiz-adv-x="568" d="M389 0h-210v515l-159 -10l9 145h510l9 -145l-159 10v-515z" />
<glyph unicode="U" horiz-adv-x="655" d="M327 125q32 0 47.5 24.5t15.5 65.5v305l-10 130l220 10v-436q0 -77 -39 -129.5t-103 -78.5t-140 -26q-78 0 -137.5 27t-92.5 79.5t-33 127.5v296l-10 130l220 9v-446q0 -39 14.5 -63.5t47.5 -24.5z" />
<glyph unicode="V" horiz-adv-x="663" d="M443 660l195 -10l-168 -650h-295l-150 650l206 10l104 -508h2z" />
<glyph unicode="W" horiz-adv-x="1010" d="M148 0l-113 650l206 10l71 -508h2l72 498h264l67 -498h2l73 508l183 -10l-141 -650h-288l-47 468h-2l-61 -468h-288z" />
<glyph unicode="X" horiz-adv-x="642" d="M15 0l184 314l-179 331l230 15l82 -210l111 210l179 -15l-180 -303l185 -342h-230l-92 200l-106 -200h-184z" />
<glyph unicode="Y" horiz-adv-x="617" d="M414 0h-210v202l-189 448l206 10l91 -292h2l93 292l195 -10l-188 -448v-202z" />
<glyph unicode="Z" horiz-adv-x="528" d="M493 0h-443l-25 107l234 399l-112 -4l-112 -4l10 152h423l25 -106l-234 -400l122 8l122 8z" />
<glyph unicode="[" horiz-adv-x="444" d="M88 695h300v-115h-104v-583h104v-115h-300v813z" />
<glyph unicode="\" horiz-adv-x="400" d="M221 -10l-173 684l88 21l172 -684z" />
<glyph unicode="]" horiz-adv-x="444" d="M356 695v-813h-300v115h104v583h-104v115h300z" />
<glyph unicode="^" horiz-adv-x="625" d="M240 200h-200l185 340h175l185 -340h-199l-75 154z" />
<glyph unicode="_" horiz-adv-x="470" d="M0 -185v130h470v-130h-470z" />
<glyph unicode="`" horiz-adv-x="260" d="M255 581l-60 -36q-46 28 -97.5 73.5t-92.5 101.5l152 67q13 -33 30 -70.5t35 -73t33 -62.5z" />
<glyph unicode="a" horiz-adv-x="549" d="M314 -10q-5 11 -12 33.5t-12 43.5q-17 -31 -54 -54t-91 -23q-61 0 -93 35.5t-32 87.5q0 85 73 124t196 39v14q1 65 -81 65q-36 0 -73 -11.5t-72 -29.5l-11 159q47 16 107 26.5t117 10.5q107 0 165 -46.5t58 -156.5q0 -28 -2.5 -73t-2.5 -81t4.5 -76.5t15.5 -76.5z M230 161q0 -30 10.5 -45.5t26.5 -15.5q13 0 19 6l2 127q-28 -3 -43 -20.5t-15 -51.5z" />
<glyph unicode="b" horiz-adv-x="583" d="M45 685l220 10v-259q18 33 52.5 53.5t75.5 20.5q46 0 83.5 -28.5t59.5 -84t22 -135.5q0 -92 -30 -152.5t-81 -90t-115 -29.5q-29 0 -57.5 5.5t-51.5 12.5l-168 -18v565zM289 395q-13 0 -24 -6v-288q9 -1 17 -1q25 0 38 13.5t18 46.5t5 91q0 40 -3.5 72.5t-14.5 52 t-36 19.5z" />
<glyph unicode="c" horiz-adv-x="463" d="M438 484l-16 -163q-23 20 -49.5 32t-52.5 12q-31 0 -55.5 -25.5t-24.5 -88.5q0 -48 20.5 -80t75.5 -32q25 0 49 5.5t46 13.5l-2 -139q-19 -13 -56 -21t-80 -8q-70 0 -131.5 28t-99 85.5t-37.5 146.5t38 146.5t100 85.5t135 28q42 0 77 -7.5t63 -18.5z" />
<glyph unicode="d" horiz-adv-x="580" d="M346 -10q-5 10 -11 29.5t-11 39.5q-19 -30 -55 -49.5t-78 -19.5q-73 0 -119.5 66.5t-46.5 180.5q0 93 30 153.5t80 90t108 29.5q22 0 41 -4t34 -10v59l-10 130l220 10v-535q0 -43 4.5 -83.5t15.5 -76.5zM240 247q0 -40 3.5 -73.5t15 -53.5t35.5 -20q13 0 24 6v293 q-9 1 -17 1q-25 0 -38 -13t-18 -46.5t-5 -93.5z" />
<glyph unicode="e" horiz-adv-x="540" d="M488 19q-26 -13 -75.5 -21t-97.5 -8q-82 0 -148 28t-104 85.5t-38 146.5t36.5 146.5t96.5 85.5t129 28q67 0 117 -24t78 -67t28 -100q0 -35 -9 -74l-15 -18h-240q9 -46 38.5 -67t88.5 -21q33 0 63.5 5.5t53.5 12.5zM240 297v-17l68 6q3 24 3 45q0 34 -8 53.5t-24 19.5 q-22 0 -30.5 -32t-8.5 -75z" />
<glyph unicode="f" horiz-adv-x="385" d="M278 0h-210v387l-55 2v53l65 20v2q-11 14 -18.5 37.5t-7.5 44.5q0 73 57 111t151 38q44 0 81.5 -7t58.5 -18l-22 -139q-19 7 -40.5 10.5t-38.5 3.5q-52 0 -52 -51q0 -5 1 -14t3 -18h132l-8 -83l-97 3v-382z" />
<glyph unicode="g" horiz-adv-x="542" d="M80 65q0 34 26.5 60t77.5 39q-81 12 -124 52t-43 110q0 86 62 135t167 49q59 0 104 0.5t87 2.5t90 7v-122l-111 10l-1 -2q42 -9 62 -37t20 -65q0 -49 -32 -81t-87 -47.5t-125 -15.5h-14q-3 -5 -3 -12q0 -18 14.5 -22.5t26.5 -4.5l82 -2q82 -2 130 -33.5t48 -104.5 q0 -82 -71.5 -126.5t-233.5 -44.5q-102 0 -164.5 20.5t-62.5 72.5q0 40 36.5 60.5t84.5 24.5q-21 14 -33.5 34t-12.5 43zM222 324q0 -35 7.5 -60.5t29.5 -25.5q17 0 25 19.5t8 62.5q0 41 -8 62t-28 21q-34 0 -34 -79zM205 -57q0 -34 17 -53.5t50 -19.5t54.5 15.5t21.5 40.5 q0 41 -59 41h-82q-2 -11 -2 -24z" />
<glyph unicode="h" horiz-adv-x="597" d="M265 0h-210v555l-10 130l220 10v-279q19 44 60 69t91 25q56 0 92.5 -35t36.5 -109v-366h-210v320q0 43 -35 43q-16 0 -35 -7v-356z" />
<glyph unicode="i" horiz-adv-x="317" d="M274 670q0 -49 -37.5 -74t-86.5 -25q-45 0 -74.5 21t-29.5 62q0 44 34.5 73t89.5 29q45 0 74.5 -21.5t29.5 -64.5zM265 0h-210v369l-10 131l220 10v-510z" />
<glyph unicode="j" horiz-adv-x="317" d="M274 670q0 -49 -37.5 -74t-86.5 -25q-45 0 -74.5 21t-29.5 62q0 44 34.5 73t89.5 29q45 0 74.5 -21.5t29.5 -64.5zM6 -120q27 44 38 103.5t11 136.5v249l-10 131l220 10v-350q0 -85 -17.5 -155.5t-63.5 -120.5t-134 -74z" />
<glyph unicode="k" horiz-adv-x="579" d="M265 0h-210v555l-10 130l220 10v-406h18l82 221l215 -10l-119 -225l128 -275l-231 -10l-70 225h-23v-215z" />
<glyph unicode="l" horiz-adv-x="317" d="M265 0h-210v555l-10 130l220 10v-695z" />
<glyph unicode="m" horiz-adv-x="867" d="M265 0h-210v370l-10 130l220 10v-93q19 44 59.5 68.5t87.5 24.5t80.5 -25t43.5 -78q17 49 59 76t92 27q56 0 92 -35t36 -109v-366h-210v320q0 43 -33 43q-15 0 -32 -7v-356h-210v320q0 43 -33 43q-15 0 -32 -7v-356z" />
<glyph unicode="n" horiz-adv-x="597" d="M265 0h-210v370l-10 130l220 10v-93q19 44 60 68.5t94 24.5t89.5 -35t36.5 -109v-366h-210v320q0 43 -35 43q-16 0 -35 -7v-356z" />
<glyph unicode="o" horiz-adv-x="560" d="M535 254q0 -91 -36 -149.5t-95.5 -86.5t-129.5 -28t-126.5 28t-89.5 85t-33 143q0 92 36 150t95.5 86t129.5 28q71 0 127 -28t89 -84.5t33 -143.5zM240 248q0 -64 7 -106t35 -42q22 0 30 32.5t8 122.5q0 85 -8 115t-31 30q-25 0 -33 -32t-8 -120z" />
<glyph unicode="p" horiz-adv-x="583" d="M55 370l-10 130l220 10v-70q19 31 53.5 50.5t74.5 19.5q46 0 83.5 -28.5t59.5 -83.5t22 -135q0 -93 -30 -153.5t-79.5 -90t-108.5 -29.5q-22 0 -41 4t-34 10v-59q0 -32 2.5 -65t7.5 -65l-220 -10v565zM289 400q-13 0 -24 -6v-293q9 -1 17 -1q25 0 38 13.5t18 46.5t5 93 q0 41 -3.5 74t-14.5 53t-36 20z" />
<glyph unicode="q" horiz-adv-x="578" d="M538 -180l-220 -10v255q-18 -33 -53 -54t-78 -21q-71 0 -116.5 63t-45.5 173q0 95 34 158t93 94.5t133 31.5q20 0 40 -2t38 -6l165 8v-560q0 -32 3 -65t7 -65zM240 226q0 -32 3.5 -59.5t15 -44.5t35.5 -17q13 0 24 6v289h-7q-26 0 -42 -15.5t-22.5 -53t-6.5 -105.5z" />
<glyph unicode="r" horiz-adv-x="431" d="M265 0h-210v370l-10 130l220 10v-149q6 34 21 68.5t38.5 57.5t55.5 23q14 0 24.5 -3t16.5 -7l-13 -207q-33 7 -73 12q-19 2 -37.5 3.5t-32.5 1.5v-310z" />
<glyph unicode="s" horiz-adv-x="494" d="M459 147q0 -70 -59.5 -113.5t-174.5 -43.5q-46 0 -100 7t-90 19l10 160q26 -14 57.5 -23.5t62 -14.5t51.5 -5t29.5 4.5t8.5 14.5q0 14 -14 22t-37.5 16.5t-53.5 21.5q-44 20 -75.5 51.5t-31.5 85.5q0 50 31 86t85 55.5t123 19.5q42 0 83.5 -7t77.5 -19l-10 -158 q-43 20 -85 30.5t-65 10.5q-16 0 -25.5 -5t-9.5 -16q0 -13 14 -22.5t34 -16.5t39 -15q31 -12 59.5 -30.5t47 -46t18.5 -68.5z" />
<glyph unicode="t" horiz-adv-x="423" d="M390 407l-120 3v-186q0 -37 15 -60t44 -23q15 0 35.5 5t33.5 11l-2 -139q-16 -9 -55 -18.5t-86 -9.5q-94 0 -144.5 47t-50.5 153v226l-55 1v53l75 20l33 118l157 10v-128h128z" />
<glyph unicode="u" horiz-adv-x="588" d="M52 124v376l210 10v-363q0 -43 35 -43q13 0 29 5v391l210 10v-357q0 -36 4.5 -76.5t15.5 -76.5l-200 -10q-6 13 -15 40.5t-13 49.5q-20 -37 -60.5 -63.5t-93.5 -26.5q-58 0 -90 35t-32 99z" />
<glyph unicode="v" horiz-adv-x="545" d="M525 500q-19 -137 -47 -265t-61 -235h-309l-96 500l219 10l53 -400h2l40 400z" />
<glyph unicode="w" horiz-adv-x="842" d="M103 0l-91 500l209 10l38 -400h2l44 390h230l47 -390h2l35 400l203 -10q-19 -137 -47 -265t-61 -235h-267l-33 290h-2q-9 -79 -23 -148t-36 -142h-250z" />
<glyph unicode="x" horiz-adv-x="523" d="M298 0l-61 147l-47 -147h-185q28 66 61 132.5t68 133.5l-119 234l207 10l63 -166l48 166l185 -10q-27 -67 -60 -133t-69 -133l119 -234h-210z" />
<glyph unicode="y" horiz-adv-x="550" d="M107 -195q-45 0 -76.5 3.5t-60.5 10.5v155q37 -8 82.5 -13t78.5 -5q40 0 77 7.5t64 23t33 37.5h-197l-91 476l219 10l53 -400h2l40 400l199 -10q-9 -66 -22 -138.5t-28.5 -142t-30.5 -127t-27 -92.5q-26 -75 -67 -117.5t-101.5 -60t-146.5 -17.5z" />
<glyph unicode="z" horiz-adv-x="487" d="M452 0h-407l-20 120l210 230h-1q-51 0 -101.5 -2.5t-98.5 -7.5l12 160h395l8 -120l-209 -230h22q104 0 200 15z" />
<glyph unicode="{" horiz-adv-x="464" d="M149 159q0 32 -17.5 49t-61.5 22v100q44 7 61.5 23.5t17.5 48.5q0 26 -7.5 49t-15.5 47t-8 54q0 74 69 108.5t224 34.5l3 -100q-43 0 -66.5 -17.5t-23.5 -50.5q0 -29 12.5 -61.5t12.5 -64.5q0 -50 -40.5 -80.5t-103.5 -40.5q63 -10 103.5 -40.5t40.5 -80.5 q0 -32 -12.5 -64.5t-12.5 -61.5q0 -33 23.5 -50.5t66.5 -17.5l-3 -100q-155 0 -224 34.5t-69 108.5q0 30 8 54t15.5 47.5t7.5 49.5z" />
<glyph unicode="|" horiz-adv-x="360" d="M240 -202l-120 -3v897l120 3v-897z" />
<glyph unicode="}" horiz-adv-x="464" d="M394 230l-79 -71q0 -26 8 -49.5t15.5 -47.5t7.5 -54q0 -74 -69 -108.5t-224 -34.5l-3 100q43 0 66.5 17.5t23.5 50.5q0 29 -12.5 61.5t-12.5 64.5q0 50 40.5 80.5t103.5 40.5q-63 10 -103.5 40.5t-40.5 80.5q0 32 12.5 64.5t12.5 61.5q0 33 -23.5 50.5t-66.5 17.5l3 100 q155 0 224 -34.5t69 -108.5q0 -30 -7.5 -54t-15.5 -47t-8 -49q0 -32 18 -48.5t61 -23.5v-100z" />
<glyph unicode="~" horiz-adv-x="644" d="M205 217q-7 0 -21 -14t-32 -35l-72 34q15 32 35 68t44.5 61.5t51.5 25.5q21 0 54.5 -6.5t69 -15.5t64.5 -15.5t40 -6.5q8 0 21.5 14t32.5 35l71 -34q-15 -32 -35 -68t-44 -61.5t-52 -25.5q-21 0 -54 6.5t-69 15.5t-64.5 15.5t-40.5 6.5z" />
<glyph unicode="&#xa1;" horiz-adv-x="316" d="M55 416q0 44 34.5 66.5t77.5 22.5q41 0 67.5 -18.5t26.5 -56.5q0 -40 -31 -66t-81 -26q-40 0 -67 19.5t-27 58.5zM86 298h140q5 -91 11 -170.5t13.5 -155t18.5 -155.5l-215 -10q-2 26 -3 56t-1 54q0 61 4.5 130t13 134.5t18.5 116.5z" />
<glyph unicode="&#xa2;" horiz-adv-x="463" d="M285 -120l-50 -3v118q-58 10 -105.5 41t-76 84t-28.5 130q0 80 31 134.5t83 85t116 38.5v112l50 3v-113q40 -1 73 -8t60 -18l-16 -163q-23 20 -49.5 32t-52.5 12q-31 0 -55.5 -25.5t-24.5 -88.5q0 -48 20.5 -80t75.5 -32q25 0 49 5.5t46 13.5l-2 -139q-19 -13 -56 -21 t-80 -8h-8v-110z" />
<glyph unicode="&#xa3;" horiz-adv-x="609" d="M510 252l-136 3q-12 -52 -35.5 -105.5t-65.5 -93.5q50 -25 108.5 -45.5t130.5 -20.5q18 0 39.5 2t45.5 8l-56 -154q-15 -6 -41 -6q-68 0 -125.5 27t-106 64.5t-87.5 69.5q-37 -11 -80 -11q-58 0 -79.5 19.5t-21.5 49.5q0 35 23.5 54.5t59.5 19.5q21 0 42 -6t43 -17 q2 16 2.5 35t0.5 42l1 73l-96 2l10 53l87 20q4 152 73 238.5t212 86.5q53 0 91 -9t60 -20l-48 -132q-21 20 -48 35.5t-50 15.5q-21 0 -36.5 -19.5t-25.5 -66t-14 -129.5h141z" />
<glyph unicode="&#xa4;" horiz-adv-x="460" d="M393 67l-62 64q-21 -17 -48.5 -26.5t-60.5 -9.5q-30 0 -55.5 7.5t-45.5 20.5l-56 -56l-40 40l55 55q-33 46 -33 109q0 61 40 111l-58 59l36 36q12 -12 27.5 -26.5t32.5 -32.5q21 15 46.5 23t54.5 8q33 0 60 -9t48 -24l61 61l40 -40l-63 -63q29 -43 29 -98q0 -58 -32 -105 q19 -18 35.5 -34t29.5 -29zM137 271q0 -23 9.5 -45.5t29.5 -37t49 -14.5q32 0 51 14.5t27 37.5t8 47q0 35 -21 63t-65 28q-45 0 -66.5 -28t-21.5 -65z" />
<glyph unicode="&#xa5;" horiz-adv-x="617" d="M91 96v61h113v45h-113v61h87l-163 387l206 10l91 -292h2l93 292l195 -10l-162 -387h87v-61h-113v-45h113v-61h-113v-96h-210v96h-113z" />
<glyph unicode="&#xa6;" horiz-adv-x="360" d="M240 349l-120 -5v348l120 3v-346zM240 -202l-120 -3v352l120 5v-354z" />
<glyph unicode="&#xa7;" horiz-adv-x="593" d="M563 62q0 -75 -38.5 -127t-106.5 -78.5t-157 -26.5q-35 0 -76.5 4t-79.5 12t-64 19l30 178q29 -22 69 -40t69 -18q23 0 35.5 14.5t12.5 35.5q0 31 -23 61t-56.5 62t-67.5 69.5t-57 84.5t-23 107q0 73 38 127t108 84t165 30q49 0 104.5 -9t91.5 -26l-38 -165 q-25 18 -57.5 31.5t-56.5 13.5q-25 0 -37 -15t-12 -38q0 -34 23 -64.5t57 -63t67.5 -70t56.5 -84.5t23 -108zM269 -83v-6q95 5 141 42t46 104q0 45 -17 80.5t-44 65t-57.5 56.5t-57.5 54.5t-44 58.5t-17 69q0 36 16 62.5t41 44.5t52 25v6q-85 -5 -133 -45.5t-48 -111.5 q0 -52 22 -92.5t54.5 -74.5t64.5 -66t54 -67t22 -78q0 -37 -17.5 -64t-40 -42.5t-37.5 -20.5z" />
<glyph unicode="&#xa8;" horiz-adv-x="600" d="M238 669q0 -46 -32.5 -69t-76.5 -23q-40 0 -65.5 18.5t-25.5 57.5q0 43 30 69.5t79 26.5q41 0 66 -20t25 -60zM509 669q0 -46 -33 -69t-77 -23q-40 0 -65 18.5t-25 57.5q0 43 29.5 69.5t78.5 26.5q41 0 66.5 -20t25.5 -60z" />
<glyph unicode="&#xa9;" horiz-adv-x="760" d="M380 -50q-85 0 -153 39.5t-107.5 107.5t-39.5 153q0 62 23.5 116.5t64.5 95.5t95.5 64.5t116.5 23.5q64 0 118.5 -23.5t95.5 -64.5t63.5 -95.5t22.5 -116.5t-23.5 -116.5t-64.5 -95.5t-95.5 -64.5t-116.5 -23.5zM380 0q69 0 126 34t90.5 91t33.5 125q0 69 -33.5 126 t-90.5 90.5t-126 33.5q-68 0 -125 -33.5t-91 -90.5t-34 -126q0 -71 33 -127.5t89.5 -89.5t127.5 -33zM483 185l14 -85q-26 -9 -52.5 -12.5t-49.5 -3.5q-88 0 -135.5 44.5t-47.5 120.5q0 81 50.5 129t132.5 48q29 0 57 -5.5t47 -13.5l-16 -90q-11 5 -31 11t-39 6 q-37 0 -50.5 -21t-13.5 -56q0 -34 14.5 -55.5t60.5 -21.5q17 0 37.5 2.5t21.5 2.5z" />
<glyph unicode="&#xaa;" horiz-adv-x="441" d="M255 365q-4 8 -9.5 24.5t-9.5 32.5q-13 -25 -43 -41t-73 -16q-49 0 -74.5 26t-25.5 63q0 61 58.5 89t156.5 28v3q0 20 -14.5 30.5t-50.5 10.5q-30 0 -58.5 -8t-57.5 -20l-8 127q38 11 85 18t94 7q85 0 131.5 -34.5t46.5 -117.5q0 -21 -2 -48t-2 -54q0 -23 3.5 -55 t12.5 -58zM188 493q0 -22 8.5 -34t21.5 -12q9 0 15 3l1 88q-20 -2 -33 -12.5t-13 -32.5z" />
<glyph unicode="&#xab;" horiz-adv-x="586" d="M287 253v54q65 50 118.5 98.5t105.5 104.5l38 -22q-20 -60 -46 -109.5t-56 -98.5q30 -49 56 -98.5t46 -109.5l-38 -22q-52 56 -105.5 105t-118.5 98zM37 253v54q65 50 118.5 98.5t105.5 104.5l38 -22q-20 -60 -46 -109.5t-56 -98.5q30 -49 56 -98.5t46 -109.5l-38 -22 q-52 56 -105.5 105t-118.5 98z" />
<glyph unicode="&#xac;" d="M533 433v-271h-145v133h-294v132q36 2 93.5 3t121.5 1.5t123.5 1t100.5 0.5z" />
<glyph unicode="&#xae;" horiz-adv-x="760" d="M380 -50q-85 0 -153 39.5t-107.5 107.5t-39.5 153q0 62 23.5 116.5t64.5 95.5t95.5 64.5t116.5 23.5q64 0 118.5 -23.5t95.5 -64.5t63.5 -95.5t22.5 -116.5t-23.5 -116.5t-64.5 -95.5t-95.5 -64.5t-116.5 -23.5zM380 0q69 0 126 34t90.5 91t33.5 125q0 69 -33.5 126 t-90.5 90.5t-126 33.5q-68 0 -125 -33.5t-91 -90.5t-34 -126q0 -71 33 -127.5t89.5 -89.5t127.5 -33zM365 89h-125v264l-6 68h154q74 0 114 -32t40 -85q0 -34 -16 -58t-44 -39l68 -118l-133 -5l-36 101h-2h-14v-96zM375 353h-10v-101h10q23 0 31 13.5t8 37.5q0 23 -8 36.5 t-31 13.5z" />
<glyph unicode="&#xaf;" horiz-adv-x="350" d="M30 602v120h290v-120h-290z" />
<glyph unicode="&#xb0;" horiz-adv-x="361" d="M176 295q-62 0 -101 38.5t-39 101.5q0 67 42 108t106 41q62 0 101.5 -39t39.5 -101q0 -64 -41.5 -106.5t-107.5 -42.5zM181 514q-32 0 -51 -22.5t-19 -54.5q0 -31 19.5 -51.5t49.5 -20.5q32 0 51 22.5t19 55.5q0 30 -18.5 50.5t-50.5 20.5z" />
<glyph unicode="&#xb1;" horiz-adv-x="610" d="M516 332h-135v-114h-147l-1 114h-147v132q27 1 65 2t81 2l-1 117h150v-116q39 1 74 1h62zM516 15h-430v132q36 2 92 3t119 1.5t121 1t99 0.5z" />
<glyph unicode="&#xb2;" horiz-adv-x="414" d="M336 372h-286l-10 79q18 9 43.5 28t50.5 42.5t41.5 47.5t16.5 43q0 17 -13 26.5t-33 9.5q-23 0 -48.5 -10t-45.5 -25l-12 94q24 11 64 20.5t85 9.5q74 0 117 -29t43 -73q0 -32 -24 -62t-64.5 -53.5t-91.5 -38.5h45q31 0 64 2.5t64 6.5z" />
<glyph unicode="&#xb3;" horiz-adv-x="373" d="M343 469q0 -47 -49 -75.5t-132 -28.5q-29 0 -59 3t-53 9l11 75q14 -7 33.5 -11t35.5 -4q26 0 41 11t15 30q0 20 -17.5 29t-44.5 9q-11 0 -23 -1t-17 -2v43q38 11 67 27.5t29 35.5q0 14 -13 21.5t-33 7.5q-38 0 -76 -18l-4 80q25 11 60.5 19t75.5 8q68 0 107.5 -24.5 t39.5 -59.5q0 -34 -33.5 -57t-93.5 -35q60 -5 96.5 -29t36.5 -63z" />
<glyph unicode="&#xb4;" horiz-adv-x="260" d="M255 720q-40 -56 -92 -101.5t-98 -73.5l-60 36q16 27 33.5 62.5t34.5 73t30 70.5z" />
<glyph unicode="&#xb6;" horiz-adv-x="660" d="M250 -70q54 0 83 21t42 51.5t15.5 61.5t2.5 52v439h-70v-385h-32q-77 0 -138.5 29.5t-97 83.5t-35.5 127q0 77 38.5 130.5t104.5 81.5t147 28h243v-505q0 -154 -72.5 -234.5t-214.5 -80.5q-43 0 -89 7t-88 19l8 105q45 -15 83.5 -23t69.5 -8z" />
<glyph unicode="&#xb7;" horiz-adv-x="310" d="M153 177q-38 0 -63 22.5t-25 59.5q0 40 28.5 66t68.5 26q35 0 59 -21.5t24 -56.5q0 -40 -26 -68t-66 -28z" />
<glyph unicode="&#xb8;" horiz-adv-x="278" d="M105 -124q0 26 -48 38l31 86h57l-13 -35q59 -6 92.5 -28.5t33.5 -56.5q0 -47 -56 -74.5t-170 -27.5l-7 54q31 3 55.5 12.5t24.5 31.5z" />
<glyph unicode="&#xb9;" horiz-adv-x="328" d="M238 372h-140v277l-61 -23l-17 60l210 51l8 -7v-358z" />
<glyph unicode="&#xba;" horiz-adv-x="468" d="M438 554q0 -66 -29 -107.5t-76.5 -61.5t-103.5 -20t-101 20t-71.5 61t-26.5 104q0 66 29 108t76.5 61.5t103.5 19.5t101 -20t71.5 -61t26.5 -104zM202 551q0 -40 5.5 -69.5t28.5 -29.5q17 0 23.5 21t6.5 82q0 58 -6 77.5t-25 19.5q-20 0 -26.5 -21t-6.5 -80z" />
<glyph unicode="&#xbb;" horiz-adv-x="586" d="M299 253q-64 -49 -117.5 -98t-106.5 -105l-38 22q20 60 46 109.5t56 98.5q-30 49 -56 98.5t-46 109.5l38 22q53 -56 106.5 -104.5t117.5 -98.5v-54zM549 253q-64 -49 -117.5 -98t-106.5 -105l-38 22q20 60 46 109.5t56 98.5q-30 49 -56 98.5t-46 109.5l38 22 q53 -56 106.5 -104.5t117.5 -98.5v-54z" />
<glyph unicode="&#xbc;" horiz-adv-x="886" d="M253 -10h-115l400 670h116zM238 292h-140v277l-61 -23l-17 60l210 51l8 -7v-358zM742 0h-140v44h-165l-6 57l211 264l100 -5v-203q31 2 54 5l-6 -118h-48v-44zM602 259l-83 -105h83v105z" />
<glyph unicode="&#xbd;" horiz-adv-x="920" d="M253 -10h-115l400 670h116zM238 292h-140v277l-61 -23l-17 60l210 51l8 -7v-358zM842 0h-286l-10 79q18 9 43.5 28t50.5 42.5t41.5 47.5t16.5 43q0 17 -13 26.5t-33 9.5q-23 0 -48.5 -10t-45.5 -25l-12 94q24 11 64 20.5t85 9.5q74 0 117 -29t43 -73q0 -32 -24 -62 t-64.5 -53.5t-91.5 -38.5h45q31 0 64 2.5t64 6.5z" />
<glyph unicode="&#xbe;" horiz-adv-x="916" d="M318 -10h-115l400 670h116zM343 389q0 -47 -49 -75.5t-132 -28.5q-29 0 -59 3t-53 9l11 75q14 -7 33.5 -11t35.5 -4q26 0 41 11t15 30q0 20 -17.5 29t-44.5 9q-11 0 -23 -1t-17 -2v43q38 11 67 27.5t29 35.5q0 14 -13 21.5t-33 7.5q-38 0 -76 -18l-4 80q25 11 60.5 19 t75.5 8q68 0 107.5 -24.5t39.5 -59.5q0 -34 -33.5 -57t-93.5 -35q60 -5 96.5 -29t36.5 -63zM807 0h-140v44h-165l-6 57l211 264l100 -5v-203q31 2 54 5l-6 -118h-48v-44zM667 259l-83 -105h83v105z" />
<glyph unicode="&#xbf;" horiz-adv-x="530" d="M188 416q0 44 34.5 66.5t77.5 22.5q41 0 67.5 -18.5t26.5 -56.5q0 -40 -31 -66t-81 -26q-40 0 -67 19.5t-27 58.5zM226 296h140q15 -25 15 -61q0 -42 -19 -73t-44 -55t-44 -44.5t-19 -41.5q0 -17 14.5 -24t32.5 -7q29 0 65 15.5t64 40.5l79 -115q-44 -37 -106.5 -64 t-136.5 -27q-65 0 -116.5 23t-81 63.5t-29.5 92.5q0 46 19 77t46.5 53t55 40t46.5 37.5t19 45.5v24z" />
<glyph unicode="&#xc0;" horiz-adv-x="677" d="M489 760l-48 -50q-58 9 -126 30t-127 58l97 109q47 -39 99.5 -75.5t104.5 -71.5zM220 0h-195l154 520l33 131l262 9l178 -660h-206l-28 125h-170zM333 503l-62 -278h125l-61 278h-2z" />
<glyph unicode="&#xc1;" horiz-adv-x="677" d="M489 799q-58 -37 -126 -58t-127 -30l-48 50q53 35 105.5 71.5t98.5 75.5zM220 0h-195l154 520l33 131l262 9l178 -660h-206l-28 125h-170zM333 503l-62 -278h125l-61 278h-2z" />
<glyph unicode="&#xc2;" horiz-adv-x="677" d="M207 704l-54 40q27 34 55.5 76t49.5 79l158 10q22 -41 48.5 -82.5t60.5 -82.5l-54 -40q-75 42 -134 95q-30 -27 -62 -50.5t-68 -44.5zM220 0h-195l154 520l33 131l262 9l178 -660h-206l-28 125h-170zM333 503l-62 -278h125l-61 278h-2z" />
<glyph unicode="&#xc3;" horiz-adv-x="677" d="M274 889q30 0 53 -10.5t43.5 -21t42.5 -10.5q21 0 33 12.5t25 34.5l44 -9q-1 -40 -13 -77.5t-35.5 -61t-60.5 -23.5q-26 0 -51.5 10.5t-48.5 21t-42 10.5q-16 0 -30 -10.5t-28 -36.5l-44 9q2 40 13 77t35 61t64 24zM220 0h-195l154 520l33 131l262 9l178 -660h-206 l-28 125h-170zM333 503l-62 -278h125l-61 278h-2z" />
<glyph unicode="&#xc4;" horiz-adv-x="677" d="M309 812q0 -50 -34 -75t-82 -25q-43 0 -69.5 21t-26.5 62q0 45 32 73.5t84 28.5q44 0 70 -21t26 -64zM581 811q0 -49 -34.5 -74t-81.5 -25q-43 0 -69 21t-26 63q0 44 31.5 72.5t83.5 28.5q43 0 69.5 -21t26.5 -65zM220 0h-195l154 520l33 131l262 9l178 -660h-206 l-28 125h-170zM333 503l-62 -278h125l-61 278h-2z" />
<glyph unicode="&#xc5;" horiz-adv-x="677" d="M466 816q0 -48 -37.5 -82.5t-99.5 -34.5q-58 0 -87.5 28.5t-29.5 66.5q0 31 18.5 57.5t50.5 42.5t74 16q52 0 81.5 -25t29.5 -69zM292 800q0 -17 12 -29t31 -12q21 0 36 15t15 35q0 18 -11.5 29.5t-29.5 11.5q-21 0 -37 -15t-16 -35zM220 0h-195l154 520l33 131l262 9 l178 -660h-206l-28 125h-170zM333 503l-62 -278h125l-61 278h-2z" />
<glyph unicode="&#xc6;" horiz-adv-x="907" d="M220 0h-195l232 520l33 130h567l-10 -130l-254 7l22 -146l212 4l-10 -120l-185 4l22 -147l218 8v-130h-406l-9 125h-185zM429 503l-116 -278h137l-19 278h-2z" />
<glyph unicode="&#xc7;" horiz-adv-x="561" d="M291 -124q0 26 -48 38l30 83q-118 21 -180.5 105t-62.5 213q0 106 40 183t112.5 119.5t169.5 42.5q50 0 100 -10.5t84 -25.5l-27 -154q-20 12 -56 23.5t-71 11.5q-70 0 -96 -48t-26 -128q0 -52 11.5 -92t42 -62.5t86.5 -22.5q29 0 60 5t48 10l25 -145q-85 -32 -180 -32 q-13 0 -25 1l-10 -26q59 -6 92.5 -28.5t33.5 -56.5q0 -47 -56 -74.5t-170 -27.5l-7 54q31 3 55.5 12.5t24.5 31.5z" />
<glyph unicode="&#xc8;" horiz-adv-x="520" d="M410 760l-48 -50q-58 9 -126 30t-127 58l97 109q47 -39 99.5 -75.5t104.5 -71.5zM485 0h-425v511l-10 139h420l-10 -130l-190 10v-150l170 5l-10 -120l-160 5v-150l215 10v-130z" />
<glyph unicode="&#xc9;" horiz-adv-x="520" d="M410 799q-58 -37 -126 -58t-127 -30l-48 50q53 35 105.5 71.5t98.5 75.5zM485 0h-425v511l-10 139h420l-10 -130l-190 10v-150l170 5l-10 -120l-160 5v-150l215 10v-130z" />
<glyph unicode="&#xca;" horiz-adv-x="520" d="M128 704l-54 40q27 34 55.5 76t49.5 79l158 10q22 -41 48.5 -82.5t60.5 -82.5l-54 -40q-75 42 -134 95q-30 -27 -62 -50.5t-68 -44.5zM485 0h-425v511l-10 139h420l-10 -130l-190 10v-150l170 5l-10 -120l-160 5v-150l215 10v-130z" />
<glyph unicode="&#xcb;" horiz-adv-x="520" d="M230 812q0 -50 -34 -75t-82 -25q-43 0 -69.5 21t-26.5 62q0 45 32 73.5t84 28.5q44 0 70 -21t26 -64zM502 811q0 -49 -34.5 -74t-81.5 -25q-43 0 -69 21t-26 63q0 44 31.5 72.5t83.5 28.5q43 0 69.5 -21t26.5 -65zM485 0h-425v511l-10 139h420l-10 -130l-190 10v-150 l170 5l-10 -120l-160 5v-150l215 10v-130z" />
<glyph unicode="&#xcc;" horiz-adv-x="330" d="M315 760l-48 -50q-58 9 -126 30t-127 58l97 109q47 -39 99.5 -75.5t104.5 -71.5zM270 0h-210v520l-10 130l220 10v-660z" />
<glyph unicode="&#xcd;" horiz-adv-x="330" d="M315 799q-58 -37 -126 -58t-127 -30l-48 50q53 35 105.5 71.5t98.5 75.5zM270 0h-210v520l-10 130l220 10v-660z" />
<glyph unicode="&#xce;" horiz-adv-x="330" d="M33 704l-54 40q27 34 55.5 76t49.5 79l158 10q22 -41 48.5 -82.5t60.5 -82.5l-54 -40q-75 42 -134 95q-30 -27 -62 -50.5t-68 -44.5zM270 0h-210v520l-10 130l220 10v-660z" />
<glyph unicode="&#xcf;" horiz-adv-x="431" d="M202 801q0 -52 -32.5 -78t-78.5 -26q-41 0 -66 22.5t-25 66.5q0 47 30.5 76.5t80.5 29.5q41 0 66 -22.5t25 -68.5zM431 801q0 -52 -33 -78t-79 -26q-41 0 -66 22.5t-25 66.5q0 47 30.5 76.5t80.5 29.5q41 0 66.5 -22.5t25.5 -68.5zM320 0h-210v520l-10 130l220 10v-660z " />
<glyph unicode="&#xd0;" horiz-adv-x="659" d="M60 520l-10 130h278q96 0 163.5 -40t102.5 -112t35 -169q0 -109 -42 -182t-114 -110t-163 -37h-250v285h-54v80h54v155zM353 285h-83v-160h31q41 0 62 26.5t28.5 72t7.5 101.5t-7.5 101.5t-29 72t-62.5 26.5h-30v-160h83v-80z" />
<glyph unicode="&#xd1;" horiz-adv-x="665" d="M268 889q30 0 53 -10.5t43.5 -21t42.5 -10.5q21 0 33 12.5t25 34.5l44 -9q-1 -40 -13 -77.5t-35.5 -61t-60.5 -23.5q-26 0 -51.5 10.5t-48.5 21t-42 10.5q-16 0 -30 -10.5t-28 -36.5l-44 9q2 40 13 77t35 61t64 24zM60 520l-10 130l159 10l244 -372h2l-15 362l165 10 v-660h-170l-223 342h-2l15 -342h-165v520z" />
<glyph unicode="&#xd2;" horiz-adv-x="655" d="M478 760l-48 -50q-58 9 -126 30t-127 58l97 109q47 -39 99.5 -75.5t104.5 -71.5zM625 329q0 -112 -40 -187.5t-109.5 -113.5t-156.5 -38q-90 0 -154.5 39t-99.5 111.5t-35 174.5q0 107 38.5 184.5t107.5 119t161 41.5t156.5 -41t98 -115.5t33.5 -174.5zM260 328 q0 -54 6 -100.5t21.5 -74.5t43.5 -28q27 0 40.5 26.5t18.5 72t5 101.5t-5 101.5t-19 72t-41 26.5q-40 0 -55 -55.5t-15 -141.5z" />
<glyph unicode="&#xd3;" horiz-adv-x="655" d="M478 799q-58 -37 -126 -58t-127 -30l-48 50q53 35 105.5 71.5t98.5 75.5zM625 329q0 -112 -40 -187.5t-109.5 -113.5t-156.5 -38q-90 0 -154.5 39t-99.5 111.5t-35 174.5q0 107 38.5 184.5t107.5 119t161 41.5t156.5 -41t98 -115.5t33.5 -174.5zM260 328q0 -54 6 -100.5 t21.5 -74.5t43.5 -28q27 0 40.5 26.5t18.5 72t5 101.5t-5 101.5t-19 72t-41 26.5q-40 0 -55 -55.5t-15 -141.5z" />
<glyph unicode="&#xd4;" horiz-adv-x="655" d="M196 704l-54 40q27 34 55.5 76t49.5 79l158 10q22 -41 48.5 -82.5t60.5 -82.5l-54 -40q-75 42 -134 95q-30 -27 -62 -50.5t-68 -44.5zM625 329q0 -112 -40 -187.5t-109.5 -113.5t-156.5 -38q-90 0 -154.5 39t-99.5 111.5t-35 174.5q0 107 38.5 184.5t107.5 119t161 41.5 t156.5 -41t98 -115.5t33.5 -174.5zM260 328q0 -54 6 -100.5t21.5 -74.5t43.5 -28q27 0 40.5 26.5t18.5 72t5 101.5t-5 101.5t-19 72t-41 26.5q-40 0 -55 -55.5t-15 -141.5z" />
<glyph unicode="&#xd5;" horiz-adv-x="655" d="M625 329q0 -112 -40 -187.5t-109.5 -113.5t-156.5 -38q-90 0 -154.5 39t-99.5 111.5t-35 174.5q0 107 38.5 184.5t107.5 119t161 41.5t156.5 -41t98 -115.5t33.5 -174.5zM260 328q0 -54 6 -100.5t21.5 -74.5t43.5 -28q27 0 40.5 26.5t18.5 72t5 101.5t-5 101.5t-19 72 t-41 26.5q-40 0 -55 -55.5t-15 -141.5z" />
<glyph unicode="&#xd6;" horiz-adv-x="655" d="M298 812q0 -50 -34 -75t-82 -25q-43 0 -69.5 21t-26.5 62q0 45 32 73.5t84 28.5q44 0 70 -21t26 -64zM570 811q0 -49 -34.5 -74t-81.5 -25q-43 0 -69 21t-26 63q0 44 31.5 72.5t83.5 28.5q43 0 69.5 -21t26.5 -65zM625 329q0 -112 -40 -187.5t-109.5 -113.5t-156.5 -38 q-90 0 -154.5 39t-99.5 111.5t-35 174.5q0 107 38.5 184.5t107.5 119t161 41.5t156.5 -41t98 -115.5t33.5 -174.5zM260 328q0 -54 6 -100.5t21.5 -74.5t43.5 -28q27 0 40.5 26.5t18.5 72t5 101.5t-5 101.5t-19 72t-41 26.5q-40 0 -55 -55.5t-15 -141.5z" />
<glyph unicode="&#xd7;" horiz-adv-x="577" d="M401 114l-112 113l-115 -114l-98 98l114 115l-115 116l96 96q21 -20 52 -49.5t65 -62.5l111 112l101 -100l-111 -111l62.5 -62.5l50.5 -50.5v-12z" />
<glyph unicode="&#xd8;" horiz-adv-x="655" d="M625 329q0 -112 -40 -187.5t-109.5 -113.5t-156.5 -38q-107 0 -178 55l-70 -80l-65 56l76 88q-52 82 -52 206q0 107 38.5 184.5t107.5 119t161 41.5q53 0 97.5 -14.5t78.5 -40.5l70 80l66 -55l-78 -89q54 -85 54 -212zM260 328v-15l125 144q-7 32 -20 50t-35 18 q-40 0 -55 -55.5t-15 -141.5zM395 325v1.5v11.5l-123 -142q8 -32 22 -51.5t37 -19.5q27 0 40.5 26.5t18.5 72t5 101.5z" />
<glyph unicode="&#xd9;" horiz-adv-x="655" d="M478 760l-48 -50q-58 9 -126 30t-127 58l97 109q47 -39 99.5 -75.5t104.5 -71.5zM327 125q32 0 47.5 24.5t15.5 65.5v305l-10 130l220 10v-436q0 -77 -39 -129.5t-103 -78.5t-140 -26q-78 0 -137.5 27t-92.5 79.5t-33 127.5v296l-10 130l220 9v-446q0 -39 14.5 -63.5 t47.5 -24.5z" />
<glyph unicode="&#xda;" horiz-adv-x="655" d="M478 799q-58 -37 -126 -58t-127 -30l-48 50q53 35 105.5 71.5t98.5 75.5zM327 125q32 0 47.5 24.5t15.5 65.5v305l-10 130l220 10v-436q0 -77 -39 -129.5t-103 -78.5t-140 -26q-78 0 -137.5 27t-92.5 79.5t-33 127.5v296l-10 130l220 9v-446q0 -39 14.5 -63.5t47.5 -24.5 z" />
<glyph unicode="&#xdb;" horiz-adv-x="655" d="M196 704l-54 40q27 34 55.5 76t49.5 79l158 10q22 -41 48.5 -82.5t60.5 -82.5l-54 -40q-75 42 -134 95q-30 -27 -62 -50.5t-68 -44.5zM327 125q32 0 47.5 24.5t15.5 65.5v305l-10 130l220 10v-436q0 -77 -39 -129.5t-103 -78.5t-140 -26q-78 0 -137.5 27t-92.5 79.5 t-33 127.5v296l-10 130l220 9v-446q0 -39 14.5 -63.5t47.5 -24.5z" />
<glyph unicode="&#xdc;" horiz-adv-x="655" d="M298 812q0 -50 -34 -75t-82 -25q-43 0 -69.5 21t-26.5 62q0 45 32 73.5t84 28.5q44 0 70 -21t26 -64zM570 811q0 -49 -34.5 -74t-81.5 -25q-43 0 -69 21t-26 63q0 44 31.5 72.5t83.5 28.5q43 0 69.5 -21t26.5 -65zM327 125q32 0 47.5 24.5t15.5 65.5v305l-10 130l220 10 v-436q0 -77 -39 -129.5t-103 -78.5t-140 -26q-78 0 -137.5 27t-92.5 79.5t-33 127.5v296l-10 130l220 9v-446q0 -39 14.5 -63.5t47.5 -24.5z" />
<glyph unicode="&#xdd;" horiz-adv-x="617" d="M459 799q-58 -37 -126 -58t-127 -30l-48 50q53 35 105.5 71.5t98.5 75.5zM414 0h-210v202l-189 448l206 10l91 -292h2l93 292l195 -10l-188 -448v-202z" />
<glyph unicode="&#xde;" horiz-adv-x="606" d="M270 0h-210v520l-10 130h220v-70h45q130 0 200.5 -65.5t70.5 -175.5q0 -82 -37.5 -137t-102 -82.5t-146.5 -27.5h-30v-92zM293 465h-23v-259h23q33 0 49.5 17.5t22.5 47t6 65.5t-6 65.5t-22.5 46.5t-49.5 17z" />
<glyph unicode="&#xdf;" horiz-adv-x="690" d="M83 400l-70 2v53l70 19q0 106 71.5 163.5t195.5 57.5q71 0 131 -19t97 -55.5t37 -89.5q0 -52 -40 -93t-122 -59q94 -21 153 -73.5t59 -131.5q0 -85 -61.5 -134.5t-168.5 -49.5q-27 0 -57.5 3t-44.5 7v110q8 -3 23.5 -6.5t26.5 -3.5q30 0 48.5 22.5t18.5 59.5 q0 47 -33.5 88.5t-83.5 69.5v64q32 19 54.5 48.5t22.5 66.5q0 29 -15.5 47.5t-42.5 18.5q-34 0 -46.5 -29.5t-12.5 -64.5v-491h-210v400z" />
<glyph unicode="&#xe0;" horiz-adv-x="549" d="M398 581l-60 -36q-46 28 -97.5 73.5t-92.5 101.5l152 67q13 -33 30 -70.5t35 -73t33 -62.5zM314 -10q-5 11 -12 33.5t-12 43.5q-17 -31 -54 -54t-91 -23q-61 0 -93 35.5t-32 87.5q0 85 73 124t196 39v14q1 65 -81 65q-36 0 -73 -11.5t-72 -29.5l-11 159q47 16 107 26.5 t117 10.5q107 0 165 -46.5t58 -156.5q0 -28 -2.5 -73t-2.5 -81t4.5 -76.5t15.5 -76.5zM230 161q0 -30 10.5 -45.5t26.5 -15.5q13 0 19 6l2 127q-28 -3 -43 -20.5t-15 -51.5z" />
<glyph unicode="&#xe1;" horiz-adv-x="549" d="M398 720q-40 -56 -92 -101.5t-98 -73.5l-60 36q16 27 33.5 62.5t34.5 73t30 70.5zM314 -10q-5 11 -12 33.5t-12 43.5q-17 -31 -54 -54t-91 -23q-61 0 -93 35.5t-32 87.5q0 85 73 124t196 39v14q1 65 -81 65q-36 0 -73 -11.5t-72 -29.5l-11 159q47 16 107 26.5t117 10.5 q107 0 165 -46.5t58 -156.5q0 -28 -2.5 -73t-2.5 -81t4.5 -76.5t15.5 -76.5zM230 161q0 -30 10.5 -45.5t26.5 -15.5q13 0 19 6l2 127q-28 -3 -43 -20.5t-15 -51.5z" />
<glyph unicode="&#xe2;" horiz-adv-x="549" d="M164 555l-67 36q23 38 48.5 84.5t44.5 88.5l158 10q20 -46 43.5 -92t53.5 -91l-67 -36q-30 22 -57 47.5t-52 54.5q-24 -29 -50 -54.5t-55 -47.5zM314 -10q-5 11 -12 33.5t-12 43.5q-17 -31 -54 -54t-91 -23q-61 0 -93 35.5t-32 87.5q0 85 73 124t196 39v14q1 65 -81 65 q-36 0 -73 -11.5t-72 -29.5l-11 159q47 16 107 26.5t117 10.5q107 0 165 -46.5t58 -156.5q0 -28 -2.5 -73t-2.5 -81t4.5 -76.5t15.5 -76.5zM230 161q0 -30 10.5 -45.5t26.5 -15.5q13 0 19 6l2 127q-28 -3 -43 -20.5t-15 -51.5z" />
<glyph unicode="&#xe3;" horiz-adv-x="549" d="M201 753q33 0 57.5 -13t46.5 -26t46 -13q19 0 29.5 14t22.5 38l47 -9q-1 -41 -13 -79.5t-35 -63t-59 -24.5q-28 0 -55.5 13t-52.5 26t-45 13q-14 0 -26.5 -11.5t-25.5 -40.5l-47 9q2 41 12.5 79t34.5 63t63 25zM314 -10q-5 11 -12 33.5t-12 43.5q-17 -31 -54 -54t-91 -23 q-61 0 -93 35.5t-32 87.5q0 85 73 124t196 39v14q1 65 -81 65q-36 0 -73 -11.5t-72 -29.5l-11 159q47 16 107 26.5t117 10.5q107 0 165 -46.5t58 -156.5q0 -28 -2.5 -73t-2.5 -81t4.5 -76.5t15.5 -76.5zM230 161q0 -30 10.5 -45.5t26.5 -15.5q13 0 19 6l2 127 q-28 -3 -43 -20.5t-15 -51.5z" />
<glyph unicode="&#xe4;" horiz-adv-x="549" d="M236 669q0 -46 -32.5 -69t-76.5 -23q-40 0 -65.5 18.5t-25.5 57.5q0 43 30 69.5t79 26.5q41 0 66 -20t25 -60zM507 669q0 -46 -33 -69t-77 -23q-40 0 -65 18.5t-25 57.5q0 43 29.5 69.5t78.5 26.5q41 0 66.5 -20t25.5 -60zM314 -10q-5 11 -12 33.5t-12 43.5 q-17 -31 -54 -54t-91 -23q-61 0 -93 35.5t-32 87.5q0 85 73 124t196 39v14q1 65 -81 65q-36 0 -73 -11.5t-72 -29.5l-11 159q47 16 107 26.5t117 10.5q107 0 165 -46.5t58 -156.5q0 -28 -2.5 -73t-2.5 -81t4.5 -76.5t15.5 -76.5zM230 161q0 -30 10.5 -45.5t26.5 -15.5 q13 0 19 6l2 127q-28 -3 -43 -20.5t-15 -51.5z" />
<glyph unicode="&#xe5;" horiz-adv-x="549" d="M394 674q0 -40 -19 -67.5t-49.5 -41.5t-65.5 -14q-49 0 -80.5 26t-31.5 76q0 56 37.5 92t96.5 36q49 0 80.5 -27t31.5 -80zM223 661q0 -22 12.5 -33.5t31.5 -11.5q21 0 36.5 14t15.5 39q0 23 -12 35t-32 12q-23 0 -37.5 -15.5t-14.5 -39.5zM314 -10q-5 11 -12 33.5 t-12 43.5q-17 -31 -54 -54t-91 -23q-61 0 -93 35.5t-32 87.5q0 85 73 124t196 39v14q1 65 -81 65q-36 0 -73 -11.5t-72 -29.5l-11 159q47 16 107 26.5t117 10.5q107 0 165 -46.5t58 -156.5q0 -28 -2.5 -73t-2.5 -81t4.5 -76.5t15.5 -76.5zM230 161q0 -30 10.5 -45.5 t26.5 -15.5q13 0 19 6l2 127q-28 -3 -43 -20.5t-15 -51.5z" />
<glyph unicode="&#xe6;" horiz-adv-x="799" d="M747 19q-26 -13 -75.5 -21t-97.5 -8q-77 0 -139.5 24.5t-99.5 76.5q-25 -41 -70.5 -71t-110.5 -30q-68 0 -101 35.5t-33 88.5q0 83 72.5 122.5t195.5 39.5l1 14q2 34 -20 49.5t-61 15.5q-36 0 -73 -11.5t-72 -29.5l-11 159q47 16 107 26.5t112 10.5q42 0 75.5 -8.5 t58.5 -26.5q31 18 67 26.5t74 8.5q67 0 117 -24t78 -67t28 -100q0 -35 -9 -74l-15 -18h-240q9 -45 38.5 -66.5t89.5 -21.5q32 0 62.5 5.5t53.5 12.5zM499 293v-13l68 6q3 24 3 45q0 34 -8 53.5t-24 19.5q-22 0 -30.5 -32t-8.5 -79zM230 162q0 -29 14 -45.5t36 -16.5 q20 0 38 18q-26 49 -30 115q-25 -3 -41.5 -21.5t-16.5 -49.5z" />
<glyph unicode="&#xe7;" horiz-adv-x="463" d="M237 -124q0 26 -48 38l30 84q-54 12 -98 43.5t-70 83.5t-26 125q0 89 38 146.5t100 85.5t135 28q42 0 77 -7.5t63 -18.5l-16 -163q-23 20 -49.5 32t-52.5 12q-31 0 -55.5 -25.5t-24.5 -88.5q0 -48 20.5 -80t75.5 -32q25 0 49 5.5t46 13.5l-2 -139q-19 -13 -56 -21t-80 -8 q-10 0 -20 1l-9 -26q59 -6 92.5 -28.5t33.5 -56.5q0 -47 -56 -74.5t-170 -27.5l-7 54q31 3 55.5 12.5t24.5 31.5z" />
<glyph unicode="&#xe8;" horiz-adv-x="540" d="M415 581l-60 -36q-46 28 -97.5 73.5t-92.5 101.5l152 67q13 -33 30 -70.5t35 -73t33 -62.5zM488 19q-26 -13 -75.5 -21t-97.5 -8q-82 0 -148 28t-104 85.5t-38 146.5t36.5 146.5t96.5 85.5t129 28q67 0 117 -24t78 -67t28 -100q0 -35 -9 -74l-15 -18h-240q9 -46 38.5 -67 t88.5 -21q33 0 63.5 5.5t53.5 12.5zM240 297v-17l68 6q3 24 3 45q0 34 -8 53.5t-24 19.5q-22 0 -30.5 -32t-8.5 -75z" />
<glyph unicode="&#xe9;" horiz-adv-x="540" d="M415 720q-40 -56 -92 -101.5t-98 -73.5l-60 36q16 27 33.5 62.5t34.5 73t30 70.5zM488 19q-26 -13 -75.5 -21t-97.5 -8q-82 0 -148 28t-104 85.5t-38 146.5t36.5 146.5t96.5 85.5t129 28q67 0 117 -24t78 -67t28 -100q0 -35 -9 -74l-15 -18h-240q9 -46 38.5 -67t88.5 -21 q33 0 63.5 5.5t53.5 12.5zM240 297v-17l68 6q3 24 3 45q0 34 -8 53.5t-24 19.5q-22 0 -30.5 -32t-8.5 -75z" />
<glyph unicode="&#xea;" horiz-adv-x="540" d="M181 555l-67 36q23 38 48.5 84.5t44.5 88.5l158 10q20 -46 43.5 -92t53.5 -91l-67 -36q-30 22 -57 47.5t-52 54.5q-24 -29 -50 -54.5t-55 -47.5zM488 19q-26 -13 -75.5 -21t-97.5 -8q-82 0 -148 28t-104 85.5t-38 146.5t36.5 146.5t96.5 85.5t129 28q67 0 117 -24t78 -67 t28 -100q0 -35 -9 -74l-15 -18h-240q9 -46 38.5 -67t88.5 -21q33 0 63.5 5.5t53.5 12.5zM240 297v-17l68 6q3 24 3 45q0 34 -8 53.5t-24 19.5q-22 0 -30.5 -32t-8.5 -75z" />
<glyph unicode="&#xeb;" horiz-adv-x="540" d="M253 669q0 -46 -32.5 -69t-76.5 -23q-40 0 -65.5 18.5t-25.5 57.5q0 43 30 69.5t79 26.5q41 0 66 -20t25 -60zM524 669q0 -46 -33 -69t-77 -23q-40 0 -65 18.5t-25 57.5q0 43 29.5 69.5t78.5 26.5q41 0 66.5 -20t25.5 -60zM488 19q-26 -13 -75.5 -21t-97.5 -8 q-82 0 -148 28t-104 85.5t-38 146.5t36.5 146.5t96.5 85.5t129 28q67 0 117 -24t78 -67t28 -100q0 -35 -9 -74l-15 -18h-240q9 -46 38.5 -67t88.5 -21q33 0 63.5 5.5t53.5 12.5zM240 297v-17l68 6q3 24 3 45q0 34 -8 53.5t-24 19.5q-22 0 -30.5 -32t-8.5 -75z" />
<glyph unicode="&#xec;" horiz-adv-x="317" d="M287 581l-60 -36q-46 28 -97.5 73.5t-92.5 101.5l152 67q13 -33 30 -70.5t35 -73t33 -62.5zM265 0h-210v369l-10 131l220 10v-510z" />
<glyph unicode="&#xed;" horiz-adv-x="317" d="M287 720q-40 -56 -92 -101.5t-98 -73.5l-60 36q16 27 33.5 62.5t34.5 73t30 70.5zM265 0h-210v369l-10 131l220 10v-510z" />
<glyph unicode="&#xee;" horiz-adv-x="317" d="M78 554l-54 24q14 41 29 90.5t26 94.5l158 10q12 -49 26 -98t33 -97l-54 -24q-23 22 -44 47.5t-40 54.5q-18 -29 -38 -54.5t-42 -47.5zM265 0h-210v369l-10 131l220 10v-510z" />
<glyph unicode="&#xef;" horiz-adv-x="317" d="M144 675q0 -49 -31 -72.5t-74 -23.5q-39 0 -63.5 19.5t-24.5 60.5q0 44 29 72t76 28q39 0 63.5 -21t24.5 -63zM369 675q0 -49 -31 -72.5t-75 -23.5q-38 0 -62.5 19.5t-24.5 60.5q0 44 29.5 72t76.5 28q38 0 62.5 -21t24.5 -63zM265 0h-210v369l-10 131l220 10v-510z" />
<glyph unicode="&#xf0;" horiz-adv-x="565" d="M145 760q105 -28 187 -87l147 69l36 -77l-112 -52q63 -66 97.5 -150.5t34.5 -181.5q0 -140 -70.5 -215.5t-192.5 -75.5q-69 0 -125 26t-89 79t-33 133q0 86 35 140t90.5 80t114.5 26q15 0 26 -2q-18 36 -45 69l-146 -68l-34 76l117 55q-43 35 -94 60zM240 230 q0 -56 7 -93t35 -37q22 0 30 29t8 108q0 74 -8 100.5t-31 26.5q-25 0 -33 -28.5t-8 -105.5z" />
<glyph unicode="&#xf1;" horiz-adv-x="597" d="M240 753q33 0 57.5 -13t46.5 -26t46 -13q19 0 29.5 14t22.5 38l47 -9q-1 -41 -13 -79.5t-35 -63t-59 -24.5q-28 0 -55.5 13t-52.5 26t-45 13q-14 0 -26.5 -11.5t-25.5 -40.5l-47 9q2 41 12.5 79t34.5 63t63 25zM265 0h-210v370l-10 130l220 10v-93q19 44 60 68.5t94 24.5 t89.5 -35t36.5 -109v-366h-210v320q0 43 -35 43q-16 0 -35 -7v-356z" />
<glyph unicode="&#xf2;" horiz-adv-x="560" d="M407 581l-60 -36q-46 28 -97.5 73.5t-92.5 101.5l152 67q13 -33 30 -70.5t35 -73t33 -62.5zM535 254q0 -91 -36 -149.5t-95.5 -86.5t-129.5 -28t-126.5 28t-89.5 85t-33 143q0 92 36 150t95.5 86t129.5 28q71 0 127 -28t89 -84.5t33 -143.5zM240 248q0 -64 7 -106t35 -42 q22 0 30 32.5t8 122.5q0 85 -8 115t-31 30q-25 0 -33 -32t-8 -120z" />
<glyph unicode="&#xf3;" horiz-adv-x="560" d="M407 720q-40 -56 -92 -101.5t-98 -73.5l-60 36q16 27 33.5 62.5t34.5 73t30 70.5zM535 254q0 -91 -36 -149.5t-95.5 -86.5t-129.5 -28t-126.5 28t-89.5 85t-33 143q0 92 36 150t95.5 86t129.5 28q71 0 127 -28t89 -84.5t33 -143.5zM240 248q0 -64 7 -106t35 -42 q22 0 30 32.5t8 122.5q0 85 -8 115t-31 30q-25 0 -33 -32t-8 -120z" />
<glyph unicode="&#xf4;" horiz-adv-x="560" d="M173 555l-67 36q23 38 48.5 84.5t44.5 88.5l158 10q20 -46 43.5 -92t53.5 -91l-67 -36q-30 22 -57 47.5t-52 54.5q-24 -29 -50 -54.5t-55 -47.5zM535 254q0 -91 -36 -149.5t-95.5 -86.5t-129.5 -28t-126.5 28t-89.5 85t-33 143q0 92 36 150t95.5 86t129.5 28 q71 0 127 -28t89 -84.5t33 -143.5zM240 248q0 -64 7 -106t35 -42q22 0 30 32.5t8 122.5q0 85 -8 115t-31 30q-25 0 -33 -32t-8 -120z" />
<glyph unicode="&#xf5;" horiz-adv-x="560" d="M210 753q33 0 57.5 -13t46.5 -26t46 -13q19 0 29.5 14t22.5 38l47 -9q-1 -41 -13 -79.5t-35 -63t-59 -24.5q-28 0 -55.5 13t-52.5 26t-45 13q-14 0 -26.5 -11.5t-25.5 -40.5l-47 9q2 41 12.5 79t34.5 63t63 25zM535 254q0 -91 -36 -149.5t-95.5 -86.5t-129.5 -28 t-126.5 28t-89.5 85t-33 143q0 92 36 150t95.5 86t129.5 28q71 0 127 -28t89 -84.5t33 -143.5zM240 248q0 -64 7 -106t35 -42q22 0 30 32.5t8 122.5q0 85 -8 115t-31 30q-25 0 -33 -32t-8 -120z" />
<glyph unicode="&#xf6;" horiz-adv-x="560" d="M245 669q0 -46 -32.5 -69t-76.5 -23q-40 0 -65.5 18.5t-25.5 57.5q0 43 30 69.5t79 26.5q41 0 66 -20t25 -60zM516 669q0 -46 -33 -69t-77 -23q-40 0 -65 18.5t-25 57.5q0 43 29.5 69.5t78.5 26.5q41 0 66.5 -20t25.5 -60zM535 254q0 -91 -36 -149.5t-95.5 -86.5 t-129.5 -28t-126.5 28t-89.5 85t-33 143q0 92 36 150t95.5 86t129.5 28q71 0 127 -28t89 -84.5t33 -143.5zM240 248q0 -64 7 -106t35 -42q22 0 30 32.5t8 122.5q0 85 -8 115t-31 30q-25 0 -33 -32t-8 -120z" />
<glyph unicode="&#xf7;" horiz-adv-x="599" d="M386 534q0 -40 -27.5 -68t-68.5 -28q-34 0 -55.5 22.5t-21.5 53.5q0 40 29 67.5t69 27.5q32 0 53.5 -20.5t21.5 -54.5zM510 256h-430v132q36 2 92 3t119 1.5t121 1t99 0.5zM386 137q0 -40 -27.5 -67.5t-68.5 -27.5q-34 0 -55.5 22t-21.5 53q0 40 29 68t69 28 q32 0 53.5 -21t21.5 -55z" />
<glyph unicode="&#xf8;" horiz-adv-x="560" d="M535 254q0 -91 -36 -149.5t-95.5 -86.5t-129.5 -28q-85 0 -146 38l-53 -57l-59 56l54 58q-22 30 -33.5 70.5t-11.5 90.5q0 92 36 150t95.5 86t129.5 28q85 0 145 -38l53 57l60 -55l-54 -58q21 -30 33 -70.5t12 -91.5zM281 400q-23 0 -31.5 -28t-9.5 -105l76 82 q-4 29 -12 40t-23 11zM282 100q20 0 28.5 28.5t9.5 105.5l-75 -81q4 -25 12.5 -39t24.5 -14z" />
<glyph unicode="&#xf9;" horiz-adv-x="588" d="M428 581l-60 -36q-46 28 -97.5 73.5t-92.5 101.5l152 67q13 -33 30 -70.5t35 -73t33 -62.5zM52 124v376l210 10v-363q0 -43 35 -43q13 0 29 5v391l210 10v-357q0 -36 4.5 -76.5t15.5 -76.5l-200 -10q-6 13 -15 40.5t-13 49.5q-20 -37 -60.5 -63.5t-93.5 -26.5 q-58 0 -90 35t-32 99z" />
<glyph unicode="&#xfa;" horiz-adv-x="588" d="M428 720q-40 -56 -92 -101.5t-98 -73.5l-60 36q16 27 33.5 62.5t34.5 73t30 70.5zM52 124v376l210 10v-363q0 -43 35 -43q13 0 29 5v391l210 10v-357q0 -36 4.5 -76.5t15.5 -76.5l-200 -10q-6 13 -15 40.5t-13 49.5q-20 -37 -60.5 -63.5t-93.5 -26.5q-58 0 -90 35t-32 99 z" />
<glyph unicode="&#xfb;" horiz-adv-x="588" d="M194 555l-67 36q23 38 48.5 84.5t44.5 88.5l158 10q20 -46 43.5 -92t53.5 -91l-67 -36q-30 22 -57 47.5t-52 54.5q-24 -29 -50 -54.5t-55 -47.5zM52 124v376l210 10v-363q0 -43 35 -43q13 0 29 5v391l210 10v-357q0 -36 4.5 -76.5t15.5 -76.5l-200 -10q-6 13 -15 40.5 t-13 49.5q-20 -37 -60.5 -63.5t-93.5 -26.5q-58 0 -90 35t-32 99z" />
<glyph unicode="&#xfc;" horiz-adv-x="588" d="M266 669q0 -46 -32.5 -69t-76.5 -23q-40 0 -65.5 18.5t-25.5 57.5q0 43 30 69.5t79 26.5q41 0 66 -20t25 -60zM537 669q0 -46 -33 -69t-77 -23q-40 0 -65 18.5t-25 57.5q0 43 29.5 69.5t78.5 26.5q41 0 66.5 -20t25.5 -60zM52 124v376l210 10v-363q0 -43 35 -43 q13 0 29 5v391l210 10v-357q0 -36 4.5 -76.5t15.5 -76.5l-200 -10q-6 13 -15 40.5t-13 49.5q-20 -37 -60.5 -63.5t-93.5 -26.5q-58 0 -90 35t-32 99z" />
<glyph unicode="&#xfd;" horiz-adv-x="550" d="M402 720q-40 -56 -92 -101.5t-98 -73.5l-60 36q16 27 33.5 62.5t34.5 73t30 70.5zM107 -195q-45 0 -76.5 3.5t-60.5 10.5v155q37 -8 82.5 -13t78.5 -5q40 0 77 7.5t64 23t33 37.5h-197l-91 476l219 10l53 -400h2l40 400l199 -10q-9 -66 -22 -138.5t-28.5 -142t-30.5 -127 t-27 -92.5q-26 -75 -67 -117.5t-101.5 -60t-146.5 -17.5z" />
<glyph unicode="&#xfe;" horiz-adv-x="583" d="M55 555l-10 130l220 10v-255q19 31 53.5 50.5t74.5 19.5q46 0 83.5 -28.5t59.5 -83.5t22 -135q0 -93 -30 -153.5t-79.5 -90t-108.5 -29.5q-22 0 -41 4t-34 10v-59q0 -32 2.5 -65t7.5 -65l-220 -10v750zM289 400q-13 0 -24 -6v-293q9 -1 17 -1q25 0 38 13.5t18 46.5t5 93 q0 41 -3.5 74t-14.5 53t-36 20z" />
<glyph unicode="&#xff;" horiz-adv-x="550" d="M240 669q0 -46 -32.5 -69t-76.5 -23q-40 0 -65.5 18.5t-25.5 57.5q0 43 30 69.5t79 26.5q41 0 66 -20t25 -60zM511 669q0 -46 -33 -69t-77 -23q-40 0 -65 18.5t-25 57.5q0 43 29.5 69.5t78.5 26.5q41 0 66.5 -20t25.5 -60zM107 -195q-45 0 -76.5 3.5t-60.5 10.5v155 q37 -8 82.5 -13t78.5 -5q40 0 77 7.5t64 23t33 37.5h-197l-91 476l219 10l53 -400h2l40 400l199 -10q-9 -66 -22 -138.5t-28.5 -142t-30.5 -127t-27 -92.5q-26 -75 -67 -117.5t-101.5 -60t-146.5 -17.5z" />
<glyph unicode="&#x100;" horiz-adv-x="677" d="M174 750v110h330v-110h-330zM220 0h-195l154 520l33 131l262 9l178 -660h-206l-28 125h-170zM333 503l-62 -278h125l-61 278h-2z" />
<glyph unicode="&#x101;" horiz-adv-x="549" d="M126 602v120h290v-120h-290zM314 -10q-5 11 -12 33.5t-12 43.5q-17 -31 -54 -54t-91 -23q-61 0 -93 35.5t-32 87.5q0 85 73 124t196 39v14q1 65 -81 65q-36 0 -73 -11.5t-72 -29.5l-11 159q47 16 107 26.5t117 10.5q107 0 165 -46.5t58 -156.5q0 -28 -2.5 -73t-2.5 -81 t4.5 -76.5t15.5 -76.5zM230 161q0 -30 10.5 -45.5t26.5 -15.5q13 0 19 6l2 127q-28 -3 -43 -20.5t-15 -51.5z" />
<glyph unicode="&#x102;" horiz-adv-x="677" d="M333 710q-66 0 -111 47.5t-49 126.5l70 10q17 -66 96 -66q41 0 65 18.5t31 46.5l69 9q-2 -55 -23.5 -98.5t-58.5 -68.5t-89 -25zM220 0h-195l154 520l33 131l262 9l178 -660h-206l-28 125h-170zM333 503l-62 -278h125l-61 278h-2z" />
<glyph unicode="&#x103;" horiz-adv-x="549" d="M267 554q-65 0 -107.5 55t-46.5 148l70 10q8 -46 32 -72t56 -26q34 0 57.5 28t30.5 69l69 9q-2 -63 -22.5 -113t-55.5 -79t-83 -29zM314 -10q-5 11 -12 33.5t-12 43.5q-17 -31 -54 -54t-91 -23q-61 0 -93 35.5t-32 87.5q0 85 73 124t196 39v14q1 65 -81 65 q-36 0 -73 -11.5t-72 -29.5l-11 159q47 16 107 26.5t117 10.5q107 0 165 -46.5t58 -156.5q0 -28 -2.5 -73t-2.5 -81t4.5 -76.5t15.5 -76.5zM230 161q0 -30 10.5 -45.5t26.5 -15.5q13 0 19 6l2 127q-28 -3 -43 -20.5t-15 -51.5z" />
<glyph unicode="&#x104;" horiz-adv-x="677" d="M220 0h-195l154 520l33 131l262 9l178 -660q-41 -18 -67 -45t-26 -52q0 -14 9.5 -23.5t31.5 -9.5q19 0 47 9l18 -52q-22 -21 -57 -35t-80 -14q-48 0 -78.5 19.5t-30.5 60.5q0 44 35 81t96 61h-104l-28 125h-170zM333 503l-62 -278h125l-61 278h-2z" />
<glyph unicode="&#x105;" horiz-adv-x="549" d="M314 -10q-5 11 -12 33.5t-12 43.5q-17 -31 -54 -54t-91 -23q-61 0 -93 35.5t-32 87.5q0 85 73 124t196 39v14q1 65 -81 65q-36 0 -73 -11.5t-72 -29.5l-11 159q47 16 107 26.5t117 10.5q107 0 165 -46.5t58 -156.5q0 -28 -2.5 -73t-2.5 -81t4.5 -76.5t15.5 -76.5 q-41 -18 -67 -45t-26 -52q0 -14 9.5 -23.5t31.5 -9.5q19 0 47 9l18 -52q-22 -21 -57 -35t-80 -14q-48 0 -78.5 19.5t-30.5 60.5t31.5 76.5t86.5 59.5zM230 161q0 -30 10.5 -45.5t26.5 -15.5q13 0 19 6l2 127q-28 -3 -43 -20.5t-15 -51.5z" />
<glyph unicode="&#x106;" horiz-adv-x="561" d="M482 799q-58 -37 -126 -58t-127 -30l-48 50q53 35 105.5 71.5t98.5 75.5zM508 167l25 -145q-85 -32 -180 -32q-104 0 -176 39.5t-109.5 112.5t-37.5 173q0 106 40 183t112.5 119.5t169.5 42.5q50 0 100 -10.5t84 -25.5l-27 -154q-20 12 -56 23.5t-71 11.5q-70 0 -96 -48 t-26 -128q0 -52 11.5 -92t42 -62.5t86.5 -22.5q29 0 60 5t48 10z" />
<glyph unicode="&#x107;" horiz-adv-x="463" d="M385 720q-40 -56 -92 -101.5t-98 -73.5l-60 36q16 27 33.5 62.5t34.5 73t30 70.5zM438 484l-16 -163q-23 20 -49.5 32t-52.5 12q-31 0 -55.5 -25.5t-24.5 -88.5q0 -48 20.5 -80t75.5 -32q25 0 49 5.5t46 13.5l-2 -139q-19 -13 -56 -21t-80 -8q-70 0 -131.5 28t-99 85.5 t-37.5 146.5t38 146.5t100 85.5t135 28q42 0 77 -7.5t63 -18.5z" />
<glyph unicode="&#x108;" horiz-adv-x="561" d="M200 704l-54 40q27 34 55.5 76t49.5 79l158 10q22 -41 48.5 -82.5t60.5 -82.5l-54 -40q-75 42 -134 95q-30 -27 -62 -50.5t-68 -44.5zM508 167l25 -145q-85 -32 -180 -32q-104 0 -176 39.5t-109.5 112.5t-37.5 173q0 106 40 183t112.5 119.5t169.5 42.5q50 0 100 -10.5 t84 -25.5l-27 -154q-20 12 -56 23.5t-71 11.5q-70 0 -96 -48t-26 -128q0 -52 11.5 -92t42 -62.5t86.5 -22.5q29 0 60 5t48 10z" />
<glyph unicode="&#x109;" horiz-adv-x="463" d="M151 555l-67 36q23 38 48.5 84.5t44.5 88.5l158 10q20 -46 43.5 -92t53.5 -91l-67 -36q-30 22 -57 47.5t-52 54.5q-24 -29 -50 -54.5t-55 -47.5zM438 484l-16 -163q-23 20 -49.5 32t-52.5 12q-31 0 -55.5 -25.5t-24.5 -88.5q0 -48 20.5 -80t75.5 -32q25 0 49 5.5t46 13.5 l-2 -139q-19 -13 -56 -21t-80 -8q-70 0 -131.5 28t-99 85.5t-37.5 146.5t38 146.5t100 85.5t135 28q42 0 77 -7.5t63 -18.5z" />
<glyph unicode="&#x10a;" horiz-adv-x="561" d="M446 811q0 -49 -37.5 -74t-86.5 -25q-45 0 -74.5 21t-29.5 62q0 44 34.5 73t89.5 29q45 0 74.5 -21.5t29.5 -64.5zM508 167l25 -145q-85 -32 -180 -32q-104 0 -176 39.5t-109.5 112.5t-37.5 173q0 106 40 183t112.5 119.5t169.5 42.5q50 0 100 -10.5t84 -25.5l-27 -154 q-20 12 -56 23.5t-71 11.5q-70 0 -96 -48t-26 -128q0 -52 11.5 -92t42 -62.5t86.5 -22.5q29 0 60 5t48 10z" />
<glyph unicode="&#x10b;" horiz-adv-x="463" d="M372 670q0 -49 -37.5 -74t-86.5 -25q-45 0 -74.5 21t-29.5 62q0 44 34.5 73t89.5 29q45 0 74.5 -21.5t29.5 -64.5zM438 484l-16 -163q-23 20 -49.5 32t-52.5 12q-31 0 -55.5 -25.5t-24.5 -88.5q0 -48 20.5 -80t75.5 -32q25 0 49 5.5t46 13.5l-2 -139q-19 -13 -56 -21 t-80 -8q-70 0 -131.5 28t-99 85.5t-37.5 146.5t38 146.5t100 85.5t135 28q42 0 77 -7.5t63 -18.5z" />
<glyph unicode="&#x10c;" horiz-adv-x="561" d="M464 910l54 -40q-27 -34 -55.5 -75.5t-49.5 -79.5l-158 -10q-22 41 -48.5 83t-60.5 82l54 40q75 -42 134 -95q30 27 62 50.5t68 44.5zM508 167l25 -145q-85 -32 -180 -32q-104 0 -176 39.5t-109.5 112.5t-37.5 173q0 106 40 183t112.5 119.5t169.5 42.5q50 0 100 -10.5 t84 -25.5l-27 -154q-20 12 -56 23.5t-71 11.5q-70 0 -96 -48t-26 -128q0 -52 11.5 -92t42 -62.5t86.5 -22.5q29 0 60 5t48 10z" />
<glyph unicode="&#x10d;" horiz-adv-x="463" d="M365 776l67 -36q-23 -38 -48 -84.5t-45 -88.5l-158 -10q-20 46 -43.5 92t-53.5 91l67 36q30 -22 57 -47.5t52 -54.5q24 29 50 54.5t55 47.5zM438 484l-16 -163q-23 20 -49.5 32t-52.5 12q-31 0 -55.5 -25.5t-24.5 -88.5q0 -48 20.5 -80t75.5 -32q25 0 49 5.5t46 13.5 l-2 -139q-19 -13 -56 -21t-80 -8q-70 0 -131.5 28t-99 85.5t-37.5 146.5t38 146.5t100 85.5t135 28q42 0 77 -7.5t63 -18.5z" />
<glyph unicode="&#x10e;" horiz-adv-x="659" d="M462 910l54 -40q-27 -34 -55.5 -75.5t-49.5 -79.5l-158 -10q-22 41 -48.5 83t-60.5 82l54 40q75 -42 134 -95q30 27 62 50.5t68 44.5zM60 520l-10 130h278q96 0 163.5 -40t102.5 -112t35 -169q0 -109 -42 -182t-114 -110t-163 -37h-250v520zM300 525h-30v-400h31 q41 0 62 26.5t28.5 72t7.5 101.5t-7.5 101.5t-29 72t-62.5 26.5z" />
<glyph unicode="&#x10f;" horiz-adv-x="580" d="M760 761q-19 -67 -52 -127.5t-67 -102.5l-68 13q5 31 9.5 70.5t7.5 80.5t4 76zM346 -10q-5 10 -11 29.5t-11 39.5q-19 -30 -55 -49.5t-78 -19.5q-73 0 -119.5 66.5t-46.5 180.5q0 93 30 153.5t80 90t108 29.5q22 0 41 -4t34 -10v59l-10 130l220 10v-535q0 -43 4.5 -83.5 t15.5 -76.5zM240 247q0 -40 3.5 -73.5t15 -53.5t35.5 -20q13 0 24 6v293q-9 1 -17 1q-25 0 -38 -13t-18 -46.5t-5 -93.5z" />
<glyph unicode="&#x110;" horiz-adv-x="659" d="M60 520l-10 130h278q96 0 163.5 -40t102.5 -112t35 -169q0 -109 -42 -182t-114 -110t-163 -37h-250v285h-54v80h54v155zM353 285h-83v-160h31q41 0 62 26.5t28.5 72t7.5 101.5t-7.5 101.5t-29 72t-62.5 26.5h-30v-160h83v-80z" />
<glyph unicode="&#x111;" horiz-adv-x="580" d="M346 -10q-5 10 -11 29.5t-11 39.5q-19 -30 -55 -49.5t-78 -19.5q-73 0 -119.5 66.5t-46.5 180.5q0 93 30 153.5t80 90t108 29.5q22 0 41 -4t34 -10v53h-115v80h109l-4 56l220 10v-66h61v-80h-61v-389q0 -43 4.5 -83.5t15.5 -76.5zM240 247q0 -40 3.5 -73.5t15 -53.5 t35.5 -20q13 0 24 6v293q-9 1 -17 1q-25 0 -38 -13t-18 -46.5t-5 -93.5z" />
<glyph unicode="&#x112;" horiz-adv-x="520" d="M95 750v110h330v-110h-330zM485 0h-425v511l-10 139h420l-10 -130l-190 10v-150l170 5l-10 -120l-160 5v-150l215 10v-130z" />
<glyph unicode="&#x113;" horiz-adv-x="540" d="M143 602v120h290v-120h-290zM488 19q-26 -13 -75.5 -21t-97.5 -8q-82 0 -148 28t-104 85.5t-38 146.5t36.5 146.5t96.5 85.5t129 28q67 0 117 -24t78 -67t28 -100q0 -35 -9 -74l-15 -18h-240q9 -46 38.5 -67t88.5 -21q33 0 63.5 5.5t53.5 12.5zM240 297v-17l68 6 q3 24 3 45q0 34 -8 53.5t-24 19.5q-22 0 -30.5 -32t-8.5 -75z" />
<glyph unicode="&#x114;" horiz-adv-x="520" d="M254 710q-66 0 -111 47.5t-49 126.5l70 10q17 -66 96 -66q41 0 65 18.5t31 46.5l69 9q-2 -55 -23.5 -98.5t-58.5 -68.5t-89 -25zM485 0h-425v511l-10 139h420l-10 -130l-190 10v-150l170 5l-10 -120l-160 5v-150l215 10v-130z" />
<glyph unicode="&#x115;" horiz-adv-x="540" d="M284 554q-65 0 -107.5 55t-46.5 148l70 10q8 -46 32 -72t56 -26q34 0 57.5 28t30.5 69l69 9q-2 -63 -22.5 -113t-55.5 -79t-83 -29zM488 19q-26 -13 -75.5 -21t-97.5 -8q-82 0 -148 28t-104 85.5t-38 146.5t36.5 146.5t96.5 85.5t129 28q67 0 117 -24t78 -67t28 -100 q0 -35 -9 -74l-15 -18h-240q9 -46 38.5 -67t88.5 -21q33 0 63.5 5.5t53.5 12.5zM240 297v-17l68 6q3 24 3 45q0 34 -8 53.5t-24 19.5q-22 0 -30.5 -32t-8.5 -75z" />
<glyph unicode="&#x116;" horiz-adv-x="520" d="M374 811q0 -49 -37.5 -74t-86.5 -25q-45 0 -74.5 21t-29.5 62q0 44 34.5 73t89.5 29q45 0 74.5 -21.5t29.5 -64.5zM485 0h-425v511l-10 139h420l-10 -130l-190 10v-150l170 5l-10 -120l-160 5v-150l215 10v-130z" />
<glyph unicode="&#x117;" horiz-adv-x="540" d="M402 670q0 -49 -37.5 -74t-86.5 -25q-45 0 -74.5 21t-29.5 62q0 44 34.5 73t89.5 29q45 0 74.5 -21.5t29.5 -64.5zM488 19q-26 -13 -75.5 -21t-97.5 -8q-82 0 -148 28t-104 85.5t-38 146.5t36.5 146.5t96.5 85.5t129 28q67 0 117 -24t78 -67t28 -100q0 -35 -9 -74 l-15 -18h-240q9 -46 38.5 -67t88.5 -21q33 0 63.5 5.5t53.5 12.5zM240 297v-17l68 6q3 24 3 45q0 34 -8 53.5t-24 19.5q-22 0 -30.5 -32t-8.5 -75z" />
<glyph unicode="&#x118;" horiz-adv-x="520" d="M485 0q-41 -18 -67 -45t-26 -52q0 -14 9.5 -23.5t31.5 -9.5q19 0 47 9l18 -52q-22 -21 -57 -35t-80 -14q-48 0 -78.5 19.5t-30.5 60.5q0 44 35 81t96 61h-323v511l-10 139h420l-10 -130l-190 10v-150l170 5l-10 -120l-160 5v-150l215 10v-130z" />
<glyph unicode="&#x119;" horiz-adv-x="540" d="M483 -173q-22 -21 -57 -35t-80 -14q-48 0 -78.5 19.5t-30.5 60.5q0 39 27.5 73t76.5 60q-13 -1 -26 -1q-82 0 -148 28t-104 85.5t-38 146.5t36.5 146.5t96.5 85.5t129 28q67 0 117 -24t78 -67t28 -100q0 -35 -9 -74l-15 -18h-240q9 -46 38.5 -67t88.5 -21q33 0 63.5 5.5 t53.5 12.5l-2 -138q-3 -1 -5 -2q-48 -22 -77 -54t-29 -60q0 -14 9.5 -23.5t31.5 -9.5q19 0 47 9zM240 297v-17l68 6q3 24 3 45q0 34 -8 53.5t-24 19.5q-22 0 -30.5 -32t-8.5 -75z" />
<glyph unicode="&#x11a;" horiz-adv-x="520" d="M392 910l54 -40q-27 -34 -55.5 -75.5t-49.5 -79.5l-158 -10q-22 41 -48.5 83t-60.5 82l54 40q75 -42 134 -95q30 27 62 50.5t68 44.5zM485 0h-425v511l-10 139h420l-10 -130l-190 10v-150l170 5l-10 -120l-160 5v-150l215 10v-130z" />
<glyph unicode="&#x11b;" horiz-adv-x="540" d="M395 776l67 -36q-23 -38 -48 -84.5t-45 -88.5l-158 -10q-20 46 -43.5 92t-53.5 91l67 36q30 -22 57 -47.5t52 -54.5q24 29 50 54.5t55 47.5zM488 19q-26 -13 -75.5 -21t-97.5 -8q-82 0 -148 28t-104 85.5t-38 146.5t36.5 146.5t96.5 85.5t129 28q67 0 117 -24t78 -67 t28 -100q0 -35 -9 -74l-15 -18h-240q9 -46 38.5 -67t88.5 -21q33 0 63.5 5.5t53.5 12.5zM240 297v-17l68 6q3 24 3 45q0 34 -8 53.5t-24 19.5q-22 0 -30.5 -32t-8.5 -75z" />
<glyph unicode="&#x11c;" d="M219 704l-54 40q27 34 55.5 76t49.5 79l158 10q22 -41 48.5 -82.5t60.5 -82.5l-54 -40q-75 42 -134 95q-30 -27 -62 -50.5t-68 -44.5zM575 22q-50 -16 -105 -24t-108 -8q-157 0 -244.5 86t-87.5 239q0 108 43.5 185t120.5 118.5t176 41.5q56 0 108 -11.5t88 -28.5 l-27 -155q-28 17 -64.5 28.5t-74.5 11.5q-78 0 -109 -49t-31 -131q0 -84 31 -137t104 -60v57l-10 130l190 10v-303z" />
<glyph unicode="&#x11d;" horiz-adv-x="542" d="M164 555l-67 36q23 38 48.5 84.5t44.5 88.5l158 10q20 -46 43.5 -92t53.5 -91l-67 -36q-30 22 -57 47.5t-52 54.5q-24 -29 -50 -54.5t-55 -47.5zM80 65q0 34 26.5 60t77.5 39q-81 12 -124 52t-43 110q0 86 62 135t167 49q59 0 104 0.5t87 2.5t90 7v-122l-111 10l-1 -2 q42 -9 62 -37t20 -65q0 -49 -32 -81t-87 -47.5t-125 -15.5h-14q-3 -5 -3 -12q0 -18 14.5 -22.5t26.5 -4.5l82 -2q82 -2 130 -33.5t48 -104.5q0 -82 -71.5 -126.5t-233.5 -44.5q-102 0 -164.5 20.5t-62.5 72.5q0 40 36.5 60.5t84.5 24.5q-21 14 -33.5 34t-12.5 43zM222 324 q0 -35 7.5 -60.5t29.5 -25.5q17 0 25 19.5t8 62.5q0 41 -8 62t-28 21q-34 0 -34 -79zM205 -57q0 -34 17 -53.5t50 -19.5t54.5 15.5t21.5 40.5q0 41 -59 41h-82q-2 -11 -2 -24z" />
<glyph unicode="&#x11e;" d="M345 710q-66 0 -111 47.5t-49 126.5l70 10q17 -66 96 -66q41 0 65 18.5t31 46.5l69 9q-2 -55 -23.5 -98.5t-58.5 -68.5t-89 -25zM575 22q-50 -16 -105 -24t-108 -8q-157 0 -244.5 86t-87.5 239q0 108 43.5 185t120.5 118.5t176 41.5q56 0 108 -11.5t88 -28.5l-27 -155 q-28 17 -64.5 28.5t-74.5 11.5q-78 0 -109 -49t-31 -131q0 -84 31 -137t104 -60v57l-10 130l190 10v-303z" />
<glyph unicode="&#x11f;" horiz-adv-x="542" d="M267 554q-65 0 -107.5 55t-46.5 148l70 10q8 -46 32 -72t56 -26q34 0 57.5 28t30.5 69l69 9q-2 -63 -22.5 -113t-55.5 -79t-83 -29zM80 65q0 34 26.5 60t77.5 39q-81 12 -124 52t-43 110q0 86 62 135t167 49q59 0 104 0.5t87 2.5t90 7v-122l-111 10l-1 -2q42 -9 62 -37 t20 -65q0 -49 -32 -81t-87 -47.5t-125 -15.5h-14q-3 -5 -3 -12q0 -18 14.5 -22.5t26.5 -4.5l82 -2q82 -2 130 -33.5t48 -104.5q0 -82 -71.5 -126.5t-233.5 -44.5q-102 0 -164.5 20.5t-62.5 72.5q0 40 36.5 60.5t84.5 24.5q-21 14 -33.5 34t-12.5 43zM222 324 q0 -35 7.5 -60.5t29.5 -25.5q17 0 25 19.5t8 62.5q0 41 -8 62t-28 21q-34 0 -34 -79zM205 -57q0 -34 17 -53.5t50 -19.5t54.5 15.5t21.5 40.5q0 41 -59 41h-82q-2 -11 -2 -24z" />
<glyph unicode="&#x120;" d="M465 811q0 -49 -37.5 -74t-86.5 -25q-45 0 -74.5 21t-29.5 62q0 44 34.5 73t89.5 29q45 0 74.5 -21.5t29.5 -64.5zM575 22q-50 -16 -105 -24t-108 -8q-157 0 -244.5 86t-87.5 239q0 108 43.5 185t120.5 118.5t176 41.5q56 0 108 -11.5t88 -28.5l-27 -155 q-28 17 -64.5 28.5t-74.5 11.5q-78 0 -109 -49t-31 -131q0 -84 31 -137t104 -60v57l-10 130l190 10v-303z" />
<glyph unicode="&#x121;" horiz-adv-x="542" d="M385 670q0 -49 -37.5 -74t-86.5 -25q-45 0 -74.5 21t-29.5 62q0 44 34.5 73t89.5 29q45 0 74.5 -21.5t29.5 -64.5zM80 65q0 34 26.5 60t77.5 39q-81 12 -124 52t-43 110q0 86 62 135t167 49q59 0 104 0.5t87 2.5t90 7v-122l-111 10l-1 -2q42 -9 62 -37t20 -65 q0 -49 -32 -81t-87 -47.5t-125 -15.5h-14q-3 -5 -3 -12q0 -18 14.5 -22.5t26.5 -4.5l82 -2q82 -2 130 -33.5t48 -104.5q0 -82 -71.5 -126.5t-233.5 -44.5q-102 0 -164.5 20.5t-62.5 72.5q0 40 36.5 60.5t84.5 24.5q-21 14 -33.5 34t-12.5 43zM222 324q0 -35 7.5 -60.5 t29.5 -25.5q17 0 25 19.5t8 62.5q0 41 -8 62t-28 21q-34 0 -34 -79zM205 -57q0 -34 17 -53.5t50 -19.5t54.5 15.5t21.5 40.5q0 41 -59 41h-82q-2 -11 -2 -24z" />
<glyph unicode="&#x122;" d="M575 22q-50 -16 -105 -24t-108 -8q-157 0 -244.5 86t-87.5 239q0 108 43.5 185t120.5 118.5t176 41.5q56 0 108 -11.5t88 -28.5l-27 -155q-28 17 -64.5 28.5t-74.5 11.5q-78 0 -109 -49t-31 -131q0 -84 31 -137t104 -60v57l-10 130l190 10v-303zM434 -152 q0 -37 -17 -72.5t-42 -64t-49 -45.5l-45 19q10 16 21 39t17 48q-27 5 -46 24.5t-19 55.5q0 42 27 67t65 25q40 0 64 -26.5t24 -69.5z" />
<glyph unicode="&#x123;" horiz-adv-x="542" d="M172 654q0 37 17 72.5t42 64t49 45.5l45 -19q-10 -16 -21 -39t-17 -48q27 -5 46 -24.5t19 -55.5q0 -42 -27 -67t-65 -25q-40 0 -64 26.5t-24 69.5zM80 65q0 34 26.5 60t77.5 39q-81 12 -124 52t-43 110q0 86 62 135t167 49q59 0 104 0.5t87 2.5t90 7v-122l-111 10l-1 -2 q42 -9 62 -37t20 -65q0 -49 -32 -81t-87 -47.5t-125 -15.5h-14q-3 -5 -3 -12q0 -18 14.5 -22.5t26.5 -4.5l82 -2q82 -2 130 -33.5t48 -104.5q0 -82 -71.5 -126.5t-233.5 -44.5q-102 0 -164.5 20.5t-62.5 72.5q0 40 36.5 60.5t84.5 24.5q-21 14 -33.5 34t-12.5 43zM222 324 q0 -35 7.5 -60.5t29.5 -25.5q17 0 25 19.5t8 62.5q0 41 -8 62t-28 21q-34 0 -34 -79zM205 -57q0 -34 17 -53.5t50 -19.5t54.5 15.5t21.5 40.5q0 41 -59 41h-82q-2 -11 -2 -24z" />
<glyph unicode="&#x124;" horiz-adv-x="685" d="M211 704l-54 40q27 34 55.5 76t49.5 79l158 10q22 -41 48.5 -82.5t60.5 -82.5l-54 -40q-75 42 -134 95q-30 -27 -62 -50.5t-68 -44.5zM270 0h-210v520l-10 130l220 10v-303h145v163l-10 130l220 11v-661h-210v252h-145v-252z" />
<glyph unicode="&#x125;" horiz-adv-x="597" d="M25 704l-54 40q27 34 55.5 76t49.5 79l158 10q22 -41 48.5 -82.5t60.5 -82.5l-54 -40q-75 42 -134 95q-30 -27 -62 -50.5t-68 -44.5zM265 0h-210v555l-10 130l220 10v-279q19 44 60 69t91 25q56 0 92.5 -35t36.5 -109v-366h-210v320q0 43 -35 43q-16 0 -35 -7v-356z" />
<glyph unicode="&#x126;" horiz-adv-x="685" d="M270 0h-210v454h-52v80h51l-9 116l220 10v-126h144l-9 116l220 11v-127h53v-80h-53v-454h-210v252h-145v-252zM270 357h145v97h-145v-97z" />
<glyph unicode="&#x127;" horiz-adv-x="597" d="M265 0h-210v548h-58v80h52l-4 57l220 10v-67h118v-80h-118v-132q19 44 60 69t91 25q56 0 92.5 -35t36.5 -109v-366h-210v320q0 43 -35 43q-16 0 -35 -7v-356z" />
<glyph unicode="&#x128;" horiz-adv-x="330" d="M100 889q30 0 53 -10.5t43.5 -21t42.5 -10.5q21 0 33 12.5t25 34.5l44 -9q-1 -40 -13 -77.5t-35.5 -61t-60.5 -23.5q-26 0 -51.5 10.5t-48.5 21t-42 10.5q-16 0 -30 -10.5t-28 -36.5l-44 9q2 40 13 77t35 61t64 24zM270 0h-210v520l-10 130l220 10v-660z" />
<glyph unicode="&#x129;" horiz-adv-x="317" d="M110 756q24 0 40.5 -11.5t30 -23.5t27.5 -12q15 0 26.5 14.5t17.5 33.5l54 -9q-1 -49 -12 -89t-31 -63.5t-51 -23.5q-24 0 -41 12t-31 23.5t-29 11.5t-26.5 -14t-17.5 -34l-54 9q2 50 13 89.5t32.5 63t51.5 23.5zM265 0h-210v369l-10 131l220 10v-510z" />
<glyph unicode="&#x12a;" horiz-adv-x="330" d="M0 750v110h330v-110h-330zM270 0h-210v520l-10 130l220 10v-660z" />
<glyph unicode="&#x12b;" horiz-adv-x="317" d="M46 602v120h246v-120h-246zM265 0h-210v369l-10 131l220 10v-510z" />
<glyph unicode="&#x12c;" horiz-adv-x="330" d="M159 710q-66 0 -111 47.5t-49 126.5l70 10q17 -66 96 -66q41 0 65 18.5t31 46.5l69 9q-2 -55 -23.5 -98.5t-58.5 -68.5t-89 -25zM270 0h-210v520l-10 130l220 10v-660z" />
<glyph unicode="&#x12d;" horiz-adv-x="317" d="M156 554q-61 0 -97.5 55t-36.5 148l72 10q5 -40 23 -63.5t43 -23.5q27 0 44.5 25t21.5 61l71 9q0 -63 -16.5 -113t-48 -79t-76.5 -29zM265 0h-210v369l-10 131l220 10v-510z" />
<glyph unicode="&#x12e;" horiz-adv-x="356" d="M283 0q-41 -18 -67 -45t-26 -52q0 -14 9.5 -23.5t31.5 -9.5q19 0 47 9l18 -52q-22 -21 -57 -35t-80 -14q-48 0 -78.5 19.5t-30.5 60.5q0 44 35 81t96 61h-108v520l-10 130l220 10v-660z" />
<glyph unicode="&#x12f;" horiz-adv-x="334" d="M287 670q0 -49 -37.5 -74t-86.5 -25q-45 0 -74.5 21t-29.5 62q0 44 34.5 73t89.5 29q45 0 74.5 -21.5t29.5 -64.5zM278 0q-41 -18 -67 -45t-26 -52q0 -14 9.5 -23.5t31.5 -9.5q19 0 47 9l18 -52q-22 -21 -57 -35t-80 -14q-48 0 -78.5 19.5t-30.5 60.5q0 44 35 81t96 61 h-108v369l-10 131l220 10v-510z" />
<glyph unicode="&#x130;" horiz-adv-x="330" d="M279 811q0 -49 -37.5 -74t-86.5 -25q-45 0 -74.5 21t-29.5 62q0 44 34.5 73t89.5 29q45 0 74.5 -21.5t29.5 -64.5zM270 0h-210v520l-10 130l220 10v-660z" />
<glyph unicode="&#x131;" horiz-adv-x="317" d="M265 0h-210v369l-10 131l220 10v-510z" />
<glyph unicode="&#x132;" horiz-adv-x="660" d="M270 0h-210v520l-10 130l220 10v-660zM300 -109q48 14 69 54.5t21 90.5v484l-10 130l220 10v-504q0 -81 -11 -144t-41 -106.5t-86.5 -69t-146.5 -31.5z" />
<glyph unicode="&#x133;" horiz-adv-x="634" d="M274 670q0 -49 -37.5 -74t-86.5 -25q-45 0 -74.5 21t-29.5 62q0 44 34.5 73t89.5 29q45 0 74.5 -21.5t29.5 -64.5zM591 670q0 -49 -37.5 -74t-86.5 -25q-45 0 -74.5 21t-29.5 62q0 44 34.5 73t89.5 29q45 0 74.5 -21.5t29.5 -64.5zM265 0h-210v369l-10 131l220 10v-510z M323 -120q27 44 38 103.5t11 136.5v249l-10 131l220 10v-350q0 -85 -17.5 -155.5t-63.5 -120.5t-134 -74z" />
<glyph unicode="&#x134;" horiz-adv-x="330" d="M33 704l-54 40q27 34 55.5 76t49.5 79l158 10q22 -41 48.5 -82.5t60.5 -82.5l-54 -40q-75 42 -134 95q-30 -27 -62 -50.5t-68 -44.5zM-30 -109q48 14 69 54.5t21 90.5v484l-10 130l220 10v-504q0 -81 -11 -144t-41 -106.5t-86.5 -69t-146.5 -31.5z" />
<glyph unicode="&#x135;" horiz-adv-x="317" d="M78 554l-54 24q14 41 29 90.5t26 94.5l158 10q12 -49 26 -98t33 -97l-54 -24q-23 22 -44 47.5t-40 54.5q-18 -29 -38 -54.5t-42 -47.5zM6 -120q27 44 38 103.5t11 136.5v249l-10 131l220 10v-350q0 -85 -17.5 -155.5t-63.5 -120.5t-134 -74z" />
<glyph unicode="&#x136;" horiz-adv-x="649" d="M60 520l-10 130l220 10v-292h51l103 292l195 -10l-135 -331l145 -319l-219 -10l-90 273h-50v-263h-210v520zM415 -152q0 -37 -17 -72.5t-42 -64t-49 -45.5l-45 19q10 16 21 39t17 48q-27 5 -46 24.5t-19 55.5q0 42 27 67t65 25q40 0 64 -26.5t24 -69.5z" />
<glyph unicode="&#x137;" horiz-adv-x="579" d="M265 0h-210v555l-10 130l220 10v-406h18l82 221l215 -10l-119 -225l128 -275l-231 -10l-70 225h-23v-215zM392 -152q0 -37 -17 -72.5t-42 -64t-49 -45.5l-45 19q10 16 21 39t17 48q-27 5 -46 24.5t-19 55.5q0 42 27 67t65 25q40 0 64 -26.5t24 -69.5z" />
<glyph unicode="&#x138;" horiz-adv-x="574" d="M250 0h-210v370l-10 130l220 10v-221h18l82 221l215 -10l-119 -225l128 -275l-231 -10l-70 225h-23v-215z" />
<glyph unicode="&#x139;" horiz-adv-x="500" d="M306 799q-58 -37 -126 -58t-127 -30l-48 50q53 35 105.5 71.5t98.5 75.5zM480 0h-420v520l-10 130l220 10v-540l210 20v-140z" />
<glyph unicode="&#x13a;" horiz-adv-x="317" d="M310 800q-58 -37 -126 -58t-127 -30l-48 50q53 35 105.5 71.5t98.5 75.5zM265 0h-210v555l-10 130l220 10v-695z" />
<glyph unicode="&#x13b;" horiz-adv-x="500" d="M480 0h-420v520l-10 130l220 10v-540l210 20v-140zM340 -152q0 -37 -17 -72.5t-42 -64t-49 -45.5l-45 19q10 16 21 39t17 48q-27 5 -46 24.5t-19 55.5q0 42 27 67t65 25q40 0 64 -26.5t24 -69.5z" />
<glyph unicode="&#x13c;" horiz-adv-x="317" d="M265 0h-210v555l-10 130l220 10v-695zM250 -152q0 -37 -17 -72.5t-42 -64t-49 -45.5l-45 19q10 16 21 39t17 48q-27 5 -46 24.5t-19 55.5q0 42 27 67t65 25q40 0 64 -26.5t24 -69.5z" />
<glyph unicode="&#x13d;" horiz-adv-x="500" d="M505 698q-19 -67 -52 -127.5t-67 -102.5l-68 13q5 31 9.5 70.5t7.5 80.5t4 76zM480 0h-420v520l-10 130l220 10v-540l210 20v-140z" />
<glyph unicode="&#x13e;" horiz-adv-x="317" d="M485 731q-19 -67 -52 -127.5t-67 -102.5l-68 13q5 31 9.5 70.5t7.5 80.5t4 76zM265 0h-210v555l-10 130l220 10v-695z" />
<glyph unicode="&#x13f;" horiz-adv-x="591" d="M464 225q-38 0 -63 22.5t-25 59.5q0 40 28.5 66t68.5 26q35 0 59 -21.5t24 -56.5q0 -40 -26 -68t-66 -28zM480 0h-420v520l-10 130l220 10v-540l210 20v-140z" />
<glyph unicode="&#x140;" horiz-adv-x="578" d="M265 0h-210v555l-10 130l220 10v-695zM451 177q-38 0 -63 22.5t-25 59.5q0 40 28.5 66t68.5 26q35 0 59 -21.5t24 -56.5q0 -40 -26 -68t-66 -28z" />
<glyph unicode="&#x141;" horiz-adv-x="500" d="M480 0h-420v248l-58 -32l-40 74l98 54v176l-10 130l220 10v-199l91 50l41 -74l-132 -73v-244l210 20v-140z" />
<glyph unicode="&#x142;" horiz-adv-x="317" d="M265 0h-210v250l-56 -32l-40 74l96 54v209l-10 130l220 10v-229l59 33l41 -74l-100 -57v-368z" />
<glyph unicode="&#x143;" horiz-adv-x="665" d="M483 799q-58 -37 -126 -58t-127 -30l-48 50q53 35 105.5 71.5t98.5 75.5zM60 520l-10 130l159 10l244 -372h2l-15 362l165 10v-660h-170l-223 342h-2l15 -342h-165v520z" />
<glyph unicode="&#x144;" horiz-adv-x="597" d="M437 720q-40 -56 -92 -101.5t-98 -73.5l-60 36q16 27 33.5 62.5t34.5 73t30 70.5zM265 0h-210v370l-10 130l220 10v-93q19 44 60 68.5t94 24.5t89.5 -35t36.5 -109v-366h-210v320q0 43 -35 43q-16 0 -35 -7v-356z" />
<glyph unicode="&#x145;" horiz-adv-x="665" d="M60 520l-10 130l159 10l244 -372h2l-15 362l165 10v-660h-170l-223 342h-2l15 -342h-165v520zM423 -152q0 -37 -17 -72.5t-42 -64t-49 -45.5l-45 19q10 16 21 39t17 48q-27 5 -46 24.5t-19 55.5q0 42 27 67t65 25q40 0 64 -26.5t24 -69.5z" />
<glyph unicode="&#x146;" horiz-adv-x="597" d="M265 0h-210v370l-10 130l220 10v-93q19 44 60 68.5t94 24.5t89.5 -35t36.5 -109v-366h-210v320q0 43 -35 43q-16 0 -35 -7v-356zM389 -152q0 -37 -17 -72.5t-42 -64t-49 -45.5l-45 19q10 16 21 39t17 48q-27 5 -46 24.5t-19 55.5q0 42 27 67t65 25q40 0 64 -26.5 t24 -69.5z" />
<glyph unicode="&#x147;" horiz-adv-x="665" d="M465 910l54 -40q-27 -34 -55.5 -75.5t-49.5 -79.5l-158 -10q-22 41 -48.5 83t-60.5 82l54 40q75 -42 134 -95q30 27 62 50.5t68 44.5zM60 520l-10 130l159 10l244 -372h2l-15 362l165 10v-660h-170l-223 342h-2l15 -342h-165v520z" />
<glyph unicode="&#x148;" horiz-adv-x="597" d="M417 776l67 -36q-23 -38 -48 -84.5t-45 -88.5l-158 -10q-20 46 -43.5 92t-53.5 91l67 36q30 -22 57 -47.5t52 -54.5q24 29 50 54.5t55 47.5zM265 0h-210v370l-10 130l220 10v-93q19 44 60 68.5t94 24.5t89.5 -35t36.5 -109v-366h-210v320q0 43 -35 43q-16 0 -35 -7v-356z " />
<glyph unicode="&#x14a;" horiz-adv-x="665" d="M305 -109q48 14 69 54.5t21 90.5v25l-183 281h-2l15 -342h-165v520l-10 130l159 10l244 -372h2l-15 362l165 10v-504q0 -81 -11 -144t-41 -106.5t-86.5 -69t-146.5 -31.5z" />
<glyph unicode="&#x14b;" horiz-adv-x="597" d="M265 0h-210v370l-10 130l220 10v-93q19 44 60 68.5t94 24.5t89.5 -35t36.5 -109v-206q0 -85 -17.5 -155.5t-63.5 -120.5t-134 -74l-44 70q27 44 38 103.5t11 136.5v200q0 43 -35 43q-16 0 -35 -7v-356z" />
<glyph unicode="&#x14c;" horiz-adv-x="655" d="M163 750v110h330v-110h-330zM625 329q0 -112 -40 -187.5t-109.5 -113.5t-156.5 -38q-90 0 -154.5 39t-99.5 111.5t-35 174.5q0 107 38.5 184.5t107.5 119t161 41.5t156.5 -41t98 -115.5t33.5 -174.5zM260 328q0 -54 6 -100.5t21.5 -74.5t43.5 -28q27 0 40.5 26.5t18.5 72 t5 101.5t-5 101.5t-19 72t-41 26.5q-40 0 -55 -55.5t-15 -141.5z" />
<glyph unicode="&#x14d;" horiz-adv-x="560" d="M135 602v120h290v-120h-290zM535 254q0 -91 -36 -149.5t-95.5 -86.5t-129.5 -28t-126.5 28t-89.5 85t-33 143q0 92 36 150t95.5 86t129.5 28q71 0 127 -28t89 -84.5t33 -143.5zM240 248q0 -64 7 -106t35 -42q22 0 30 32.5t8 122.5q0 85 -8 115t-31 30q-25 0 -33 -32 t-8 -120z" />
<glyph unicode="&#x14e;" horiz-adv-x="655" d="M322 710q-66 0 -111 47.5t-49 126.5l70 10q17 -66 96 -66q41 0 65 18.5t31 46.5l69 9q-2 -55 -23.5 -98.5t-58.5 -68.5t-89 -25zM625 329q0 -112 -40 -187.5t-109.5 -113.5t-156.5 -38q-90 0 -154.5 39t-99.5 111.5t-35 174.5q0 107 38.5 184.5t107.5 119t161 41.5 t156.5 -41t98 -115.5t33.5 -174.5zM260 328q0 -54 6 -100.5t21.5 -74.5t43.5 -28q27 0 40.5 26.5t18.5 72t5 101.5t-5 101.5t-19 72t-41 26.5q-40 0 -55 -55.5t-15 -141.5z" />
<glyph unicode="&#x14f;" horiz-adv-x="560" d="M276 554q-65 0 -107.5 55t-46.5 148l70 10q8 -46 32 -72t56 -26q34 0 57.5 28t30.5 69l69 9q-2 -63 -22.5 -113t-55.5 -79t-83 -29zM535 254q0 -91 -36 -149.5t-95.5 -86.5t-129.5 -28t-126.5 28t-89.5 85t-33 143q0 92 36 150t95.5 86t129.5 28q71 0 127 -28t89 -84.5 t33 -143.5zM240 248q0 -64 7 -106t35 -42q22 0 30 32.5t8 122.5q0 85 -8 115t-31 30q-25 0 -33 -32t-8 -120z" />
<glyph unicode="&#x150;" horiz-adv-x="655" d="M346 817q-36 -28 -81 -50t-89 -36.5t-79 -22.5l-31 39q49 40 98 80.5t92 83.5zM590 817q-36 -28 -81 -50t-89 -36.5t-79 -22.5l-31 39q49 40 98 80.5t92 83.5zM625 329q0 -112 -40 -187.5t-109.5 -113.5t-156.5 -38q-90 0 -154.5 39t-99.5 111.5t-35 174.5 q0 107 38.5 184.5t107.5 119t161 41.5t156.5 -41t98 -115.5t33.5 -174.5zM260 328q0 -54 6 -100.5t21.5 -74.5t43.5 -28q27 0 40.5 26.5t18.5 72t5 101.5t-5 101.5t-19 72t-41 26.5q-40 0 -55 -55.5t-15 -141.5z" />
<glyph unicode="&#x151;" horiz-adv-x="560" d="M326 748q-25 -61 -63 -111.5t-75 -85.5l-60 19q19 50 37.5 102t31.5 104zM507 748q-25 -61 -63 -111.5t-75 -85.5l-60 19q19 50 37.5 102t31.5 104zM535 254q0 -91 -36 -149.5t-95.5 -86.5t-129.5 -28t-126.5 28t-89.5 85t-33 143q0 92 36 150t95.5 86t129.5 28 q71 0 127 -28t89 -84.5t33 -143.5zM240 248q0 -64 7 -106t35 -42q22 0 30 32.5t8 122.5q0 85 -8 115t-31 30q-25 0 -33 -32t-8 -120z" />
<glyph unicode="&#x152;" horiz-adv-x="855" d="M765 265l-143 4q-5 -43 -17 -79.5t-30 -65.5l245 6v-130h-416q-40 -10 -85 -10q-90 0 -154.5 39t-99.5 111.5t-35 174.5q0 107 38.5 184.5t107.5 119t161 41.5q44 0 83 -10h385l-10 -130l-215 6q34 -62 43 -145l152 4zM260 328q0 -54 6 -100.5t21.5 -74.5t43.5 -28 q27 0 40.5 26.5t18.5 72t5 101.5t-5 101.5t-19 72t-41 26.5q-40 0 -55 -55.5t-15 -141.5z" />
<glyph unicode="&#x153;" horiz-adv-x="834" d="M782 19q-26 -13 -75 -21t-96 -8q-53 0 -98.5 11.5t-81.5 35.5q-33 -24 -73 -35.5t-84 -11.5q-70 0 -126.5 28t-89.5 85t-33 143q0 92 36 150t94.5 86t127.5 28q88 0 148 -43q32 22 70.5 32.5t79.5 10.5q67 0 117 -24t78 -67t28 -100q0 -35 -9 -74l-15 -18h-240 q9 -45 38.5 -66.5t89.5 -21.5q32 0 62.5 5.5t53.5 12.5zM534 293v-13l68 6q3 24 3 45q0 34 -8 53.5t-24 19.5q-22 0 -30.5 -32t-8.5 -79zM240 246q0 -63 7 -104.5t35 -41.5q22 0 30 32.5t8 122.5q0 85 -8 115t-31 30q-25 0 -33 -32.5t-8 -121.5z" />
<glyph unicode="&#x154;" horiz-adv-x="616" d="M458 799q-58 -37 -126 -58t-127 -30l-48 50q53 35 105.5 71.5t98.5 75.5zM270 0h-210v520l-10 130h265q130 0 200.5 -60t70.5 -161q0 -67 -30 -114t-81 -75l126 -240l-223 -10l-73 212h-5h-30v-202zM293 535h-23v-219h23q49 0 63.5 32t14.5 78t-14.5 77.5t-63.5 31.5z " />
<glyph unicode="&#x155;" horiz-adv-x="431" d="M345 720q-40 -56 -92 -101.5t-98 -73.5l-60 36q16 27 33.5 62.5t34.5 73t30 70.5zM265 0h-210v370l-10 130l220 10v-149q6 34 21 68.5t38.5 57.5t55.5 23q14 0 24.5 -3t16.5 -7l-13 -207q-33 7 -73 12q-19 2 -37.5 3.5t-32.5 1.5v-310z" />
<glyph unicode="&#x156;" horiz-adv-x="616" d="M270 0h-210v520l-10 130h265q130 0 200.5 -60t70.5 -161q0 -67 -30 -114t-81 -75l126 -240l-223 -10l-73 212h-5h-30v-202zM293 535h-23v-219h23q49 0 63.5 32t14.5 78t-14.5 77.5t-63.5 31.5zM398 -152q0 -37 -17 -72.5t-42 -64t-49 -45.5l-45 19q10 16 21 39t17 48 q-27 5 -46 24.5t-19 55.5q0 42 27 67t65 25q40 0 64 -26.5t24 -69.5z" />
<glyph unicode="&#x157;" horiz-adv-x="431" d="M265 0h-210v370l-10 130l220 10v-149q6 34 21 68.5t38.5 57.5t55.5 23q14 0 24.5 -3t16.5 -7l-13 -207q-33 7 -73 12q-19 2 -37.5 3.5t-32.5 1.5v-310zM262 -152q0 -37 -17 -72.5t-42 -64t-49 -45.5l-45 19q10 16 21 39t17 48q-27 5 -46 24.5t-19 55.5q0 42 27 67t65 25 q40 0 64 -26.5t24 -69.5z" />
<glyph unicode="&#x158;" horiz-adv-x="616" d="M440 910l54 -40q-27 -34 -55.5 -75.5t-49.5 -79.5l-158 -10q-22 41 -48.5 83t-60.5 82l54 40q75 -42 134 -95q30 27 62 50.5t68 44.5zM270 0h-210v520l-10 130h265q130 0 200.5 -60t70.5 -161q0 -67 -30 -114t-81 -75l126 -240l-223 -10l-73 212h-5h-30v-202zM293 535 h-23v-219h23q49 0 63.5 32t14.5 78t-14.5 77.5t-63.5 31.5z" />
<glyph unicode="&#x159;" horiz-adv-x="431" d="M325 776l67 -36q-23 -38 -48 -84.5t-45 -88.5l-158 -10q-20 46 -43.5 92t-53.5 91l67 36q30 -22 57 -47.5t52 -54.5q24 29 50 54.5t55 47.5zM265 0h-210v370l-10 130l220 10v-149q6 34 21 68.5t38.5 57.5t55.5 23q14 0 24.5 -3t16.5 -7l-13 -207q-33 7 -73 12 q-19 2 -37.5 3.5t-32.5 1.5v-310z" />
<glyph unicode="&#x15a;" horiz-adv-x="535" d="M440 799q-58 -37 -126 -58t-127 -30l-48 50q53 35 105.5 71.5t98.5 75.5zM505 187q0 -62 -31.5 -106t-88.5 -67.5t-133 -23.5q-32 0 -73.5 4t-81.5 12t-67 19l30 178q41 -25 88.5 -41.5t82.5 -16.5q23 0 36.5 9t13.5 24q0 19 -17.5 33.5t-45.5 29.5t-59.5 32.5t-59.5 42 t-45.5 58.5t-17.5 82q0 66 35 111.5t93.5 69t130.5 23.5q31 0 68 -4t72.5 -12t60.5 -19l-38 -165q-35 20 -75.5 32.5t-70.5 12.5q-52 0 -52 -36q0 -21 17.5 -37t45.5 -31t59.5 -32.5t59.5 -41.5t45.5 -58t17.5 -82z" />
<glyph unicode="&#x15b;" horiz-adv-x="494" d="M394 720q-40 -56 -92 -101.5t-98 -73.5l-60 36q16 27 33.5 62.5t34.5 73t30 70.5zM459 147q0 -70 -59.5 -113.5t-174.5 -43.5q-46 0 -100 7t-90 19l10 160q26 -14 57.5 -23.5t62 -14.5t51.5 -5t29.5 4.5t8.5 14.5q0 14 -14 22t-37.5 16.5t-53.5 21.5q-44 20 -75.5 51.5 t-31.5 85.5q0 50 31 86t85 55.5t123 19.5q42 0 83.5 -7t77.5 -19l-10 -158q-43 20 -85 30.5t-65 10.5q-16 0 -25.5 -5t-9.5 -16q0 -13 14 -22.5t34 -16.5t39 -15q31 -12 59.5 -30.5t47 -46t18.5 -68.5z" />
<glyph unicode="&#x15c;" horiz-adv-x="535" d="M158 704l-54 40q27 34 55.5 76t49.5 79l158 10q22 -41 48.5 -82.5t60.5 -82.5l-54 -40q-75 42 -134 95q-30 -27 -62 -50.5t-68 -44.5zM505 187q0 -62 -31.5 -106t-88.5 -67.5t-133 -23.5q-32 0 -73.5 4t-81.5 12t-67 19l30 178q41 -25 88.5 -41.5t82.5 -16.5q23 0 36.5 9 t13.5 24q0 19 -17.5 33.5t-45.5 29.5t-59.5 32.5t-59.5 42t-45.5 58.5t-17.5 82q0 66 35 111.5t93.5 69t130.5 23.5q31 0 68 -4t72.5 -12t60.5 -19l-38 -165q-35 20 -75.5 32.5t-70.5 12.5q-52 0 -52 -36q0 -21 17.5 -37t45.5 -31t59.5 -32.5t59.5 -41.5t45.5 -58t17.5 -82z " />
<glyph unicode="&#x15d;" horiz-adv-x="494" d="M160 555l-67 36q23 38 48.5 84.5t44.5 88.5l158 10q20 -46 43.5 -92t53.5 -91l-67 -36q-30 22 -57 47.5t-52 54.5q-24 -29 -50 -54.5t-55 -47.5zM459 147q0 -70 -59.5 -113.5t-174.5 -43.5q-46 0 -100 7t-90 19l10 160q26 -14 57.5 -23.5t62 -14.5t51.5 -5t29.5 4.5 t8.5 14.5q0 14 -14 22t-37.5 16.5t-53.5 21.5q-44 20 -75.5 51.5t-31.5 85.5q0 50 31 86t85 55.5t123 19.5q42 0 83.5 -7t77.5 -19l-10 -158q-43 20 -85 30.5t-65 10.5q-16 0 -25.5 -5t-9.5 -16q0 -13 14 -22.5t34 -16.5t39 -15q31 -12 59.5 -30.5t47 -46t18.5 -68.5z" />
<glyph unicode="&#x15e;" horiz-adv-x="535" d="M245 -124q0 26 -48 38l28 77q-32 1 -68.5 5.5t-70 11.5t-56.5 17l30 178q41 -25 88.5 -41.5t82.5 -16.5q23 0 36.5 9t13.5 24q0 19 -17.5 33.5t-45.5 29.5t-59.5 32.5t-59.5 42t-45.5 58.5t-17.5 82q0 66 35 111.5t93.5 69t130.5 23.5q31 0 68 -4t72.5 -12t60.5 -19 l-38 -165q-35 20 -75.5 32.5t-70.5 12.5q-52 0 -52 -36q0 -21 17.5 -37t45.5 -31t59.5 -32.5t59.5 -41.5t45.5 -58t17.5 -82q0 -87 -61 -138t-162 -58l-10 -26q59 -6 92.5 -28.5t33.5 -56.5q0 -47 -56 -74.5t-170 -27.5l-7 54q31 3 55.5 12.5t24.5 31.5z" />
<glyph unicode="&#x15f;" horiz-adv-x="494" d="M212 -124q0 26 -48 38l28 77q-41 2 -84 8.5t-73 16.5l10 160q26 -14 57.5 -23.5t62 -14.5t51.5 -5t29.5 4.5t8.5 14.5q0 14 -14 22t-37.5 16.5t-53.5 21.5q-44 20 -75.5 51.5t-31.5 85.5q0 50 31 86t85 55.5t123 19.5q42 0 83.5 -7t77.5 -19l-10 -158q-43 20 -85 30.5 t-65 10.5q-16 0 -25.5 -5t-9.5 -16q0 -13 14 -22.5t34 -16.5t39 -15q31 -12 59.5 -30.5t47 -46t18.5 -68.5q0 -66 -53.5 -109t-157.5 -47l-9 -26q59 -6 92.5 -28.5t33.5 -56.5q0 -47 -56 -74.5t-170 -27.5l-7 54q31 3 55.5 12.5t24.5 31.5z" />
<glyph unicode="&#x160;" horiz-adv-x="535" d="M422 910l54 -40q-27 -34 -55.5 -75.5t-49.5 -79.5l-158 -10q-22 41 -48.5 83t-60.5 82l54 40q75 -42 134 -95q30 27 62 50.5t68 44.5zM505 187q0 -62 -31.5 -106t-88.5 -67.5t-133 -23.5q-32 0 -73.5 4t-81.5 12t-67 19l30 178q41 -25 88.5 -41.5t82.5 -16.5q23 0 36.5 9 t13.5 24q0 19 -17.5 33.5t-45.5 29.5t-59.5 32.5t-59.5 42t-45.5 58.5t-17.5 82q0 66 35 111.5t93.5 69t130.5 23.5q31 0 68 -4t72.5 -12t60.5 -19l-38 -165q-35 20 -75.5 32.5t-70.5 12.5q-52 0 -52 -36q0 -21 17.5 -37t45.5 -31t59.5 -32.5t59.5 -41.5t45.5 -58t17.5 -82z " />
<glyph unicode="&#x161;" horiz-adv-x="494" d="M374 776l67 -36q-23 -38 -48 -84.5t-45 -88.5l-158 -10q-20 46 -43.5 92t-53.5 91l67 36q30 -22 57 -47.5t52 -54.5q24 29 50 54.5t55 47.5zM459 147q0 -70 -59.5 -113.5t-174.5 -43.5q-46 0 -100 7t-90 19l10 160q26 -14 57.5 -23.5t62 -14.5t51.5 -5t29.5 4.5t8.5 14.5 q0 14 -14 22t-37.5 16.5t-53.5 21.5q-44 20 -75.5 51.5t-31.5 85.5q0 50 31 86t85 55.5t123 19.5q42 0 83.5 -7t77.5 -19l-10 -158q-43 20 -85 30.5t-65 10.5q-16 0 -25.5 -5t-9.5 -16q0 -13 14 -22.5t34 -16.5t39 -15q31 -12 59.5 -30.5t47 -46t18.5 -68.5z" />
<glyph unicode="&#x162;" horiz-adv-x="568" d="M248 -124q0 26 -48 38l31 86h-52v515l-159 -10l9 145h510l9 -145l-159 10v-515h-101l-13 -35q59 -6 92.5 -28.5t33.5 -56.5q0 -47 -56 -74.5t-170 -27.5l-7 54q31 3 55.5 12.5t24.5 31.5z" />
<glyph unicode="&#x163;" horiz-adv-x="423" d="M184 -124q0 26 -48 38l31 86h9q-57 17 -86.5 63t-29.5 127v226l-55 1v53l75 20l33 118l157 10v-128h128l-8 -83l-120 3v-186q0 -37 15 -60t44 -23q15 0 35.5 5t33.5 11l-2 -139q-16 -9 -55 -18.5t-86 -9.5q-18 0 -34 2l-10 -27q59 -6 92.5 -28.5t33.5 -56.5 q0 -47 -56 -74.5t-170 -27.5l-7 54q31 3 55.5 12.5t24.5 31.5z" />
<glyph unicode="&#x164;" horiz-adv-x="568" d="M416 910l54 -40q-27 -34 -55.5 -75.5t-49.5 -79.5l-158 -10q-22 41 -48.5 83t-60.5 82l54 40q75 -42 134 -95q30 27 62 50.5t68 44.5zM389 0h-210v515l-159 -10l9 145h510l9 -145l-159 10v-515z" />
<glyph unicode="&#x165;" horiz-adv-x="423" d="M493 761q-19 -67 -52 -127.5t-67 -102.5l-68 13q5 31 9.5 70.5t7.5 80.5t4 76zM390 407l-120 3v-186q0 -37 15 -60t44 -23q15 0 35.5 5t33.5 11l-2 -139q-16 -9 -55 -18.5t-86 -9.5q-94 0 -144.5 47t-50.5 153v226l-55 1v53l75 20l33 118l157 10v-128h128z" />
<glyph unicode="&#x166;" horiz-adv-x="568" d="M389 0h-210v285h-88v80h88v150l-159 -10l9 145h510l9 -145l-159 10v-150h88v-80h-88v-285z" />
<glyph unicode="&#x167;" horiz-adv-x="423" d="M390 250h-120v-26q0 -37 15 -60t44 -23q15 0 35.5 5t33.5 11l-2 -139q-16 -9 -55 -18.5t-86 -9.5q-94 0 -144.5 47t-50.5 153v60h-56v80h56v86l-55 1v53l75 20l33 118l157 10v-128h128l-8 -83l-120 3v-80h120v-80z" />
<glyph unicode="&#x168;" horiz-adv-x="655" d="M263 889q30 0 53 -10.5t43.5 -21t42.5 -10.5q21 0 33 12.5t25 34.5l44 -9q-1 -40 -13 -77.5t-35.5 -61t-60.5 -23.5q-26 0 -51.5 10.5t-48.5 21t-42 10.5q-16 0 -30 -10.5t-28 -36.5l-44 9q2 40 13 77t35 61t64 24zM327 125q32 0 47.5 24.5t15.5 65.5v305l-10 130l220 10 v-436q0 -77 -39 -129.5t-103 -78.5t-140 -26q-78 0 -137.5 27t-92.5 79.5t-33 127.5v296l-10 130l220 9v-446q0 -39 14.5 -63.5t47.5 -24.5z" />
<glyph unicode="&#x169;" horiz-adv-x="588" d="M231 753q33 0 57.5 -13t46.5 -26t46 -13q19 0 29.5 14t22.5 38l47 -9q-1 -41 -13 -79.5t-35 -63t-59 -24.5q-28 0 -55.5 13t-52.5 26t-45 13q-14 0 -26.5 -11.5t-25.5 -40.5l-47 9q2 41 12.5 79t34.5 63t63 25zM52 124v376l210 10v-363q0 -43 35 -43q13 0 29 5v391 l210 10v-357q0 -36 4.5 -76.5t15.5 -76.5l-200 -10q-6 13 -15 40.5t-13 49.5q-20 -37 -60.5 -63.5t-93.5 -26.5q-58 0 -90 35t-32 99z" />
<glyph unicode="&#x16a;" horiz-adv-x="655" d="M163 750v110h330v-110h-330zM327 125q32 0 47.5 24.5t15.5 65.5v305l-10 130l220 10v-436q0 -77 -39 -129.5t-103 -78.5t-140 -26q-78 0 -137.5 27t-92.5 79.5t-33 127.5v296l-10 130l220 9v-446q0 -39 14.5 -63.5t47.5 -24.5z" />
<glyph unicode="&#x16b;" horiz-adv-x="588" d="M156 602v120h290v-120h-290zM52 124v376l210 10v-363q0 -43 35 -43q13 0 29 5v391l210 10v-357q0 -36 4.5 -76.5t15.5 -76.5l-200 -10q-6 13 -15 40.5t-13 49.5q-20 -37 -60.5 -63.5t-93.5 -26.5q-58 0 -90 35t-32 99z" />
<glyph unicode="&#x16c;" horiz-adv-x="655" d="M322 710q-66 0 -111 47.5t-49 126.5l70 10q17 -66 96 -66q41 0 65 18.5t31 46.5l69 9q-2 -55 -23.5 -98.5t-58.5 -68.5t-89 -25zM327 125q32 0 47.5 24.5t15.5 65.5v305l-10 130l220 10v-436q0 -77 -39 -129.5t-103 -78.5t-140 -26q-78 0 -137.5 27t-92.5 79.5t-33 127.5 v296l-10 130l220 9v-446q0 -39 14.5 -63.5t47.5 -24.5z" />
<glyph unicode="&#x16d;" horiz-adv-x="588" d="M297 554q-65 0 -107.5 55t-46.5 148l70 10q8 -46 32 -72t56 -26q34 0 57.5 28t30.5 69l69 9q-2 -63 -22.5 -113t-55.5 -79t-83 -29zM52 124v376l210 10v-363q0 -43 35 -43q13 0 29 5v391l210 10v-357q0 -36 4.5 -76.5t15.5 -76.5l-200 -10q-6 13 -15 40.5t-13 49.5 q-20 -37 -60.5 -63.5t-93.5 -26.5q-58 0 -90 35t-32 99z" />
<glyph unicode="&#x16e;" horiz-adv-x="655" d="M455 816q0 -48 -37.5 -82.5t-99.5 -34.5q-58 0 -87.5 28.5t-29.5 66.5q0 31 18 57.5t50.5 42.5t74.5 16q52 0 81.5 -25t29.5 -69zM281 800q0 -17 12 -29t31 -12q21 0 36 15t15 35q0 18 -11.5 29.5t-29.5 11.5q-21 0 -37 -15t-16 -35zM327 125q32 0 47.5 24.5t15.5 65.5 v305l-10 130l220 10v-436q0 -77 -39 -129.5t-103 -78.5t-140 -26q-78 0 -137.5 27t-92.5 79.5t-33 127.5v296l-10 130l220 9v-446q0 -39 14.5 -63.5t47.5 -24.5z" />
<glyph unicode="&#x16f;" horiz-adv-x="588" d="M424 674q0 -40 -19 -67.5t-49.5 -41.5t-65.5 -14q-49 0 -80.5 26t-31.5 76q0 56 37.5 92t96.5 36q49 0 80.5 -27t31.5 -80zM253 661q0 -22 12.5 -33.5t31.5 -11.5q21 0 36.5 14t15.5 39q0 23 -12 35t-32 12q-23 0 -37.5 -15.5t-14.5 -39.5zM52 124v376l210 10v-363 q0 -43 35 -43q13 0 29 5v391l210 10v-357q0 -36 4.5 -76.5t15.5 -76.5l-200 -10q-6 13 -15 40.5t-13 49.5q-20 -37 -60.5 -63.5t-93.5 -26.5q-58 0 -90 35t-32 99z" />
<glyph unicode="&#x170;" horiz-adv-x="655" d="M346 817q-36 -28 -81 -50t-89 -36.5t-79 -22.5l-31 39q49 40 98 80.5t92 83.5zM590 817q-36 -28 -81 -50t-89 -36.5t-79 -22.5l-31 39q49 40 98 80.5t92 83.5zM327 125q32 0 47.5 24.5t15.5 65.5v305l-10 130l220 10v-436q0 -77 -39 -129.5t-103 -78.5t-140 -26 q-78 0 -137.5 27t-92.5 79.5t-33 127.5v296l-10 130l220 9v-446q0 -39 14.5 -63.5t47.5 -24.5z" />
<glyph unicode="&#x171;" horiz-adv-x="588" d="M347 748q-25 -61 -63 -111.5t-75 -85.5l-60 19q19 50 37.5 102t31.5 104zM528 748q-25 -61 -63 -111.5t-75 -85.5l-60 19q19 50 37.5 102t31.5 104zM52 124v376l210 10v-363q0 -43 35 -43q13 0 29 5v391l210 10v-357q0 -36 4.5 -76.5t15.5 -76.5l-200 -10q-6 13 -15 40.5 t-13 49.5q-20 -37 -60.5 -63.5t-93.5 -26.5q-58 0 -90 35t-32 99z" />
<glyph unicode="&#x172;" horiz-adv-x="655" d="M327 125q32 0 47.5 24.5t15.5 65.5v305l-10 130l220 10v-436q0 -65 -28.5 -112.5t-75.5 -76.5q-47 -38 -69 -66.5t-22 -54.5q0 -19 9.5 -31.5t31.5 -12.5q19 0 47 9l18 -52q-22 -21 -57 -35t-78 -14q-49 0 -80 21.5t-31 66.5q0 36 22.5 67t61.5 58q-15 -1 -31 -1 q-78 0 -137.5 27t-92.5 79.5t-33 127.5v296l-10 130l220 9v-446q0 -39 14.5 -63.5t47.5 -24.5z" />
<glyph unicode="&#x173;" horiz-adv-x="588" d="M52 124v376l210 10v-363q0 -43 35 -43q13 0 29 5v391l210 10v-357q0 -36 4.5 -76.5t15.5 -76.5q-41 -18 -67 -45t-26 -52q0 -14 9.5 -23.5t31.5 -9.5q19 0 47 9l18 -52q-22 -21 -57 -35t-80 -14q-48 0 -78.5 19.5t-30.5 60.5t31.5 76.5t86.5 59.5l-85 -4q-6 13 -15 40.5 t-13 49.5q-20 -37 -60.5 -63.5t-93.5 -26.5q-58 0 -90 35t-32 99z" />
<glyph unicode="&#x174;" horiz-adv-x="1010" d="M373 704l-54 40q27 34 55.5 76t49.5 79l158 10q22 -41 48.5 -82.5t60.5 -82.5l-54 -40q-75 42 -134 95q-30 -27 -62 -50.5t-68 -44.5zM148 0l-113 650l206 10l71 -508h2l72 498h264l67 -498h2l73 508l183 -10l-141 -650h-288l-47 468h-2l-61 -468h-288z" />
<glyph unicode="&#x175;" horiz-adv-x="842" d="M310 555l-67 36q23 38 48.5 84.5t44.5 88.5l158 10q20 -46 43.5 -92t53.5 -91l-67 -36q-30 22 -57 47.5t-52 54.5q-24 -29 -50 -54.5t-55 -47.5zM103 0l-91 500l209 10l38 -400h2l44 390h230l47 -390h2l35 400l203 -10q-19 -137 -47 -265t-61 -235h-267l-33 290h-2 q-9 -79 -23 -148t-36 -142h-250z" />
<glyph unicode="&#x176;" horiz-adv-x="617" d="M177 704l-54 40q27 34 55.5 76t49.5 79l158 10q22 -41 48.5 -82.5t60.5 -82.5l-54 -40q-75 42 -134 95q-30 -27 -62 -50.5t-68 -44.5zM414 0h-210v202l-189 448l206 10l91 -292h2l93 292l195 -10l-188 -448v-202z" />
<glyph unicode="&#x177;" horiz-adv-x="550" d="M168 555l-67 36q23 38 48.5 84.5t44.5 88.5l158 10q20 -46 43.5 -92t53.5 -91l-67 -36q-30 22 -57 47.5t-52 54.5q-24 -29 -50 -54.5t-55 -47.5zM107 -195q-45 0 -76.5 3.5t-60.5 10.5v155q37 -8 82.5 -13t78.5 -5q40 0 77 7.5t64 23t33 37.5h-197l-91 476l219 10 l53 -400h2l40 400l199 -10q-9 -66 -22 -138.5t-28.5 -142t-30.5 -127t-27 -92.5q-26 -75 -67 -117.5t-101.5 -60t-146.5 -17.5z" />
<glyph unicode="&#x178;" horiz-adv-x="617" d="M279 812q0 -50 -34 -75t-82 -25q-43 0 -69.5 21t-26.5 62q0 45 32 73.5t84 28.5q44 0 70 -21t26 -64zM551 811q0 -49 -34.5 -74t-81.5 -25q-43 0 -69 21t-26 63q0 44 31.5 72.5t83.5 28.5q43 0 69.5 -21t26.5 -65zM414 0h-210v202l-189 448l206 10l91 -292h2l93 292 l195 -10l-188 -448v-202z" />
<glyph unicode="&#x179;" horiz-adv-x="528" d="M414 799q-58 -37 -126 -58t-127 -30l-48 50q53 35 105.5 71.5t98.5 75.5zM493 0h-443l-25 107l234 399l-112 -4l-112 -4l10 152h423l25 -106l-234 -400l122 8l122 8z" />
<glyph unicode="&#x17a;" horiz-adv-x="487" d="M371 720q-40 -56 -92 -101.5t-98 -73.5l-60 36q16 27 33.5 62.5t34.5 73t30 70.5zM452 0h-407l-20 120l210 230h-1q-51 0 -101.5 -2.5t-98.5 -7.5l12 160h395l8 -120l-209 -230h22q104 0 200 15z" />
<glyph unicode="&#x17b;" horiz-adv-x="528" d="M378 811q0 -49 -37.5 -74t-86.5 -25q-45 0 -74.5 21t-29.5 62q0 44 34.5 73t89.5 29q45 0 74.5 -21.5t29.5 -64.5zM493 0h-443l-25 107l234 399l-112 -4l-112 -4l10 152h423l25 -106l-234 -400l122 8l122 8z" />
<glyph unicode="&#x17c;" horiz-adv-x="487" d="M358 670q0 -49 -37.5 -74t-86.5 -25q-45 0 -74.5 21t-29.5 62q0 44 34.5 73t89.5 29q45 0 74.5 -21.5t29.5 -64.5zM452 0h-407l-20 120l210 230h-1q-51 0 -101.5 -2.5t-98.5 -7.5l12 160h395l8 -120l-209 -230h22q104 0 200 15z" />
<glyph unicode="&#x17d;" horiz-adv-x="528" d="M396 910l54 -40q-27 -34 -55.5 -75.5t-49.5 -79.5l-158 -10q-22 41 -48.5 83t-60.5 82l54 40q75 -42 134 -95q30 27 62 50.5t68 44.5zM493 0h-443l-25 107l234 399l-112 -4l-112 -4l10 152h423l25 -106l-234 -400l122 8l122 8z" />
<glyph unicode="&#x17e;" horiz-adv-x="487" d="M351 776l67 -36q-23 -38 -48 -84.5t-45 -88.5l-158 -10q-20 46 -43.5 92t-53.5 91l67 36q30 -22 57 -47.5t52 -54.5q24 29 50 54.5t55 47.5zM452 0h-407l-20 120l210 230h-1q-51 0 -101.5 -2.5t-98.5 -7.5l12 160h395l8 -120l-209 -230h22q104 0 200 15z" />
<glyph unicode="&#x18f;" horiz-adv-x="568" d="M20 228q0 20 2.5 48.5t6.5 58.5l15 18h276q-7 81 -41 119.5t-112 38.5q-31 0 -66.5 -5t-60.5 -13l2 138q19 9 50 15.5t65.5 10t65.5 3.5q92 0 163 -36t111.5 -110t40.5 -189q0 -114 -39.5 -188t-104 -110.5t-140.5 -36.5q-70 0 -122.5 29t-82 82.5t-29.5 126.5zM219 209 q0 -52 11.5 -82.5t34.5 -30.5q22 0 34.5 25t18 68t5.5 96v16l-99 -8q-3 -23 -4 -44.5t-1 -39.5z" />
<glyph unicode="&#x192;" horiz-adv-x="594" d="M478 247l-139 3l-20 -171q-2 -18 -7.5 -48t-19.5 -63t-41.5 -62.5t-73 -48t-113.5 -18.5q-25 0 -52 3.5t-57 10.5l40 111q42 -15 66 -15q27 0 41 14t19.5 36t5.5 44l5 212l-91 2l9 53l84 20q1 29 2 56.5t8 61.5q8 38 25 75.5t48.5 68.5t82 49.5t124.5 18.5 q51 0 87.5 -8.5t57.5 -20.5l-48 -133q-16 17 -44 34.5t-52 17.5q-31 0 -47 -31t-21 -77q-5 -47 -8 -70t-3.5 -30.5t-0.5 -11.5h149z" />
<glyph unicode="&#x19d;" horiz-adv-x="665" d="M-15 -195l-15 86q48 14 69 54.5t21 90.5v484l-10 130l159 10l244 -372h2l-15 362l165 10v-660h-170l-223 342h-2q4 -76 5.5 -123t2.5 -74.5t1 -43.5q0 -89 -21 -152.5t-72 -99.5t-141 -44z" />
<glyph unicode="&#x1cd;" horiz-adv-x="677" d="M471 910l54 -40q-27 -34 -55.5 -75.5t-49.5 -79.5l-158 -10q-22 41 -48.5 83t-60.5 82l54 40q75 -42 134 -95q30 27 62 50.5t68 44.5zM220 0h-195l154 520l33 131l262 9l178 -660h-206l-28 125h-170zM333 503l-62 -278h125l-61 278h-2z" />
<glyph unicode="&#x1ce;" horiz-adv-x="549" d="M378 776l67 -36q-23 -38 -48 -84.5t-45 -88.5l-158 -10q-20 46 -43.5 92t-53.5 91l67 36q30 -22 57 -47.5t52 -54.5q24 29 50 54.5t55 47.5zM314 -10q-5 11 -12 33.5t-12 43.5q-17 -31 -54 -54t-91 -23q-61 0 -93 35.5t-32 87.5q0 85 73 124t196 39v14q1 65 -81 65 q-36 0 -73 -11.5t-72 -29.5l-11 159q47 16 107 26.5t117 10.5q107 0 165 -46.5t58 -156.5q0 -28 -2.5 -73t-2.5 -81t4.5 -76.5t15.5 -76.5zM230 161q0 -30 10.5 -45.5t26.5 -15.5q13 0 19 6l2 127q-28 -3 -43 -20.5t-15 -51.5z" />
<glyph unicode="&#x1cf;" horiz-adv-x="330" d="M297 910l54 -40q-27 -34 -55.5 -75.5t-49.5 -79.5l-158 -10q-22 41 -48.5 83t-60.5 82l54 40q75 -42 134 -95q30 27 62 50.5t68 44.5zM270 0h-210v520l-10 130l220 10v-660z" />
<glyph unicode="&#x1d0;" horiz-adv-x="317" d="M242 775l54 -24q-14 -40 -29 -90t-26 -95l-158 -10q-12 49 -26 98t-33 97l54 24q23 -22 44 -47.5t40 -54.5q18 29 38 54.5t42 47.5zM265 0h-210v369l-10 131l220 10v-510z" />
<glyph unicode="&#x1d1;" horiz-adv-x="655" d="M460 910l54 -40q-27 -34 -55.5 -75.5t-49.5 -79.5l-158 -10q-22 41 -48.5 83t-60.5 82l54 40q75 -42 134 -95q30 27 62 50.5t68 44.5zM625 329q0 -112 -40 -187.5t-109.5 -113.5t-156.5 -38q-90 0 -154.5 39t-99.5 111.5t-35 174.5q0 107 38.5 184.5t107.5 119t161 41.5 t156.5 -41t98 -115.5t33.5 -174.5zM260 328q0 -54 6 -100.5t21.5 -74.5t43.5 -28q27 0 40.5 26.5t18.5 72t5 101.5t-5 101.5t-19 72t-41 26.5q-40 0 -55 -55.5t-15 -141.5z" />
<glyph unicode="&#x1d2;" horiz-adv-x="560" d="M387 776l67 -36q-23 -38 -48 -84.5t-45 -88.5l-158 -10q-20 46 -43.5 92t-53.5 91l67 36q30 -22 57 -47.5t52 -54.5q24 29 50 54.5t55 47.5zM535 254q0 -91 -36 -149.5t-95.5 -86.5t-129.5 -28t-126.5 28t-89.5 85t-33 143q0 92 36 150t95.5 86t129.5 28q71 0 127 -28 t89 -84.5t33 -143.5zM240 248q0 -64 7 -106t35 -42q22 0 30 32.5t8 122.5q0 85 -8 115t-31 30q-25 0 -33 -32t-8 -120z" />
<glyph unicode="&#x1d3;" horiz-adv-x="655" d="M460 910l54 -40q-27 -34 -55.5 -75.5t-49.5 -79.5l-158 -10q-22 41 -48.5 83t-60.5 82l54 40q75 -42 134 -95q30 27 62 50.5t68 44.5zM327 125q32 0 47.5 24.5t15.5 65.5v305l-10 130l220 10v-436q0 -77 -39 -129.5t-103 -78.5t-140 -26q-78 0 -137.5 27t-92.5 79.5 t-33 127.5v296l-10 130l220 9v-446q0 -39 14.5 -63.5t47.5 -24.5z" />
<glyph unicode="&#x1d4;" horiz-adv-x="588" d="M408 776l67 -36q-23 -38 -48 -84.5t-45 -88.5l-158 -10q-20 46 -43.5 92t-53.5 91l67 36q30 -22 57 -47.5t52 -54.5q24 29 50 54.5t55 47.5zM52 124v376l210 10v-363q0 -43 35 -43q13 0 29 5v391l210 10v-357q0 -36 4.5 -76.5t15.5 -76.5l-200 -10q-6 13 -15 40.5 t-13 49.5q-20 -37 -60.5 -63.5t-93.5 -26.5q-58 0 -90 35t-32 99z" />
<glyph unicode="&#x1d5;" horiz-adv-x="655" d="M163 997v110h330v-110h-330zM298 812q0 -50 -34 -75t-82 -25q-43 0 -69.5 21t-26.5 62q0 45 32 73.5t84 28.5q44 0 70 -21t26 -64zM570 811q0 -49 -34.5 -74t-81.5 -25q-43 0 -69 21t-26 63q0 44 31.5 72.5t83.5 28.5q43 0 69.5 -21t26.5 -65zM327 125q32 0 47.5 24.5 t15.5 65.5v305l-10 130l220 10v-436q0 -77 -39 -129.5t-103 -78.5t-140 -26q-78 0 -137.5 27t-92.5 79.5t-33 127.5v296l-10 130l220 9v-446q0 -39 14.5 -63.5t47.5 -24.5z" />
<glyph unicode="&#x1d6;" horiz-adv-x="588" d="M156 854v120h290v-120h-290zM266 669q0 -46 -32.5 -69t-76.5 -23q-40 0 -65.5 18.5t-25.5 57.5q0 43 30 69.5t79 26.5q41 0 66 -20t25 -60zM537 669q0 -46 -33 -69t-77 -23q-40 0 -65 18.5t-25 57.5q0 43 29.5 69.5t78.5 26.5q41 0 66.5 -20t25.5 -60zM52 124v376l210 10 v-363q0 -43 35 -43q13 0 29 5v391l210 10v-357q0 -36 4.5 -76.5t15.5 -76.5l-200 -10q-6 13 -15 40.5t-13 49.5q-20 -37 -60.5 -63.5t-93.5 -26.5q-58 0 -90 35t-32 99z" />
<glyph unicode="&#x1d7;" horiz-adv-x="655" d="M478 1046q-58 -37 -126 -58t-127 -30l-48 50q53 35 105.5 71.5t98.5 75.5zM298 812q0 -50 -34 -75t-82 -25q-43 0 -69.5 21t-26.5 62q0 45 32 73.5t84 28.5q44 0 70 -21t26 -64zM570 811q0 -49 -34.5 -74t-81.5 -25q-43 0 -69 21t-26 63q0 44 31.5 72.5t83.5 28.5 q43 0 69.5 -21t26.5 -65zM327 125q32 0 47.5 24.5t15.5 65.5v305l-10 130l220 10v-436q0 -77 -39 -129.5t-103 -78.5t-140 -26q-78 0 -137.5 27t-92.5 79.5t-33 127.5v296l-10 130l220 9v-446q0 -39 14.5 -63.5t47.5 -24.5z" />
<glyph unicode="&#x1d8;" horiz-adv-x="588" d="M428 972q-40 -56 -92 -101.5t-98 -73.5l-60 36q16 27 33.5 62.5t34.5 73t30 70.5zM266 669q0 -46 -32.5 -69t-76.5 -23q-40 0 -65.5 18.5t-25.5 57.5q0 43 30 69.5t79 26.5q41 0 66 -20t25 -60zM537 669q0 -46 -33 -69t-77 -23q-40 0 -65 18.5t-25 57.5q0 43 29.5 69.5 t78.5 26.5q41 0 66.5 -20t25.5 -60zM52 124v376l210 10v-363q0 -43 35 -43q13 0 29 5v391l210 10v-357q0 -36 4.5 -76.5t15.5 -76.5l-200 -10q-6 13 -15 40.5t-13 49.5q-20 -37 -60.5 -63.5t-93.5 -26.5q-58 0 -90 35t-32 99z" />
<glyph unicode="&#x1d9;" horiz-adv-x="655" d="M460 1157l54 -40q-27 -34 -55.5 -75.5t-49.5 -79.5l-158 -10q-22 41 -48.5 83t-60.5 82l54 40q75 -42 134 -95q30 27 62 50.5t68 44.5zM298 812q0 -50 -34 -75t-82 -25q-43 0 -69.5 21t-26.5 62q0 45 32 73.5t84 28.5q44 0 70 -21t26 -64zM570 811q0 -49 -34.5 -74 t-81.5 -25q-43 0 -69 21t-26 63q0 44 31.5 72.5t83.5 28.5q43 0 69.5 -21t26.5 -65zM327 125q32 0 47.5 24.5t15.5 65.5v305l-10 130l220 10v-436q0 -77 -39 -129.5t-103 -78.5t-140 -26q-78 0 -137.5 27t-92.5 79.5t-33 127.5v296l-10 130l220 9v-446q0 -39 14.5 -63.5 t47.5 -24.5z" />
<glyph unicode="&#x1da;" horiz-adv-x="588" d="M408 1028l67 -36q-23 -38 -48 -84.5t-45 -88.5l-158 -10q-20 46 -43.5 92t-53.5 91l67 36q30 -22 57 -47.5t52 -54.5q24 29 50 54.5t55 47.5zM266 669q0 -46 -32.5 -69t-76.5 -23q-40 0 -65.5 18.5t-25.5 57.5q0 43 30 69.5t79 26.5q41 0 66 -20t25 -60zM537 669 q0 -46 -33 -69t-77 -23q-40 0 -65 18.5t-25 57.5q0 43 29.5 69.5t78.5 26.5q41 0 66.5 -20t25.5 -60zM52 124v376l210 10v-363q0 -43 35 -43q13 0 29 5v391l210 10v-357q0 -36 4.5 -76.5t15.5 -76.5l-200 -10q-6 13 -15 40.5t-13 49.5q-20 -37 -60.5 -63.5t-93.5 -26.5 q-58 0 -90 35t-32 99z" />
<glyph unicode="&#x1db;" horiz-adv-x="655" d="M478 1007l-48 -50q-58 9 -126 30t-127 58l97 109q47 -39 99.5 -75.5t104.5 -71.5zM298 812q0 -50 -34 -75t-82 -25q-43 0 -69.5 21t-26.5 62q0 45 32 73.5t84 28.5q44 0 70 -21t26 -64zM570 811q0 -49 -34.5 -74t-81.5 -25q-43 0 -69 21t-26 63q0 44 31.5 72.5t83.5 28.5 q43 0 69.5 -21t26.5 -65zM327 125q32 0 47.5 24.5t15.5 65.5v305l-10 130l220 10v-436q0 -77 -39 -129.5t-103 -78.5t-140 -26q-78 0 -137.5 27t-92.5 79.5t-33 127.5v296l-10 130l220 9v-446q0 -39 14.5 -63.5t47.5 -24.5z" />
<glyph unicode="&#x1dc;" horiz-adv-x="588" d="M428 833l-60 -36q-46 28 -97.5 73.5t-92.5 101.5l152 67q13 -33 30 -70.5t35 -73t33 -62.5zM266 669q0 -46 -32.5 -69t-76.5 -23q-40 0 -65.5 18.5t-25.5 57.5q0 43 30 69.5t79 26.5q41 0 66 -20t25 -60zM537 669q0 -46 -33 -69t-77 -23q-40 0 -65 18.5t-25 57.5 q0 43 29.5 69.5t78.5 26.5q41 0 66.5 -20t25.5 -60zM52 124v376l210 10v-363q0 -43 35 -43q13 0 29 5v391l210 10v-357q0 -36 4.5 -76.5t15.5 -76.5l-200 -10q-6 13 -15 40.5t-13 49.5q-20 -37 -60.5 -63.5t-93.5 -26.5q-58 0 -90 35t-32 99z" />
<glyph unicode="&#x1e6;" d="M483 910l54 -40q-27 -34 -55.5 -75.5t-49.5 -79.5l-158 -10q-22 41 -48.5 83t-60.5 82l54 40q75 -42 134 -95q30 27 62 50.5t68 44.5zM575 22q-50 -16 -105 -24t-108 -8q-157 0 -244.5 86t-87.5 239q0 108 43.5 185t120.5 118.5t176 41.5q56 0 108 -11.5t88 -28.5 l-27 -155q-28 17 -64.5 28.5t-74.5 11.5q-78 0 -109 -49t-31 -131q0 -84 31 -137t104 -60v57l-10 130l190 10v-303z" />
<glyph unicode="&#x1e7;" horiz-adv-x="542" d="M378 776l67 -36q-23 -38 -48 -84.5t-45 -88.5l-158 -10q-20 46 -43.5 92t-53.5 91l67 36q30 -22 57 -47.5t52 -54.5q24 29 50 54.5t55 47.5zM80 65q0 34 26.5 60t77.5 39q-81 12 -124 52t-43 110q0 86 62 135t167 49q59 0 104 0.5t87 2.5t90 7v-122l-111 10l-1 -2 q42 -9 62 -37t20 -65q0 -49 -32 -81t-87 -47.5t-125 -15.5h-14q-3 -5 -3 -12q0 -18 14.5 -22.5t26.5 -4.5l82 -2q82 -2 130 -33.5t48 -104.5q0 -82 -71.5 -126.5t-233.5 -44.5q-102 0 -164.5 20.5t-62.5 72.5q0 40 36.5 60.5t84.5 24.5q-21 14 -33.5 34t-12.5 43zM222 324 q0 -35 7.5 -60.5t29.5 -25.5q17 0 25 19.5t8 62.5q0 41 -8 62t-28 21q-34 0 -34 -79zM205 -57q0 -34 17 -53.5t50 -19.5t54.5 15.5t21.5 40.5q0 41 -59 41h-82q-2 -11 -2 -24z" />
<glyph unicode="&#x1ea;" horiz-adv-x="655" d="M625 329q0 -108 -38 -182t-102 -113q-53 -36 -71.5 -66.5t-18.5 -54.5q0 -19 9.5 -31t31.5 -12q19 0 47 9l18 -52q-22 -21 -57 -35t-78 -14q-49 0 -80 21.5t-31 64.5q0 36 22 68t61 58h-19q-90 0 -154.5 39t-99.5 111.5t-35 174.5q0 107 38.5 184.5t107.5 119t161 41.5 t156.5 -41t98 -115.5t33.5 -174.5zM260 328q0 -54 6 -100.5t21.5 -74.5t43.5 -28q27 0 40.5 26.5t18.5 72t5 101.5t-5 101.5t-19 72t-41 26.5q-40 0 -55 -55.5t-15 -141.5z" />
<glyph unicode="&#x1eb;" horiz-adv-x="560" d="M438 38q-47 -40 -64.5 -66.5t-17.5 -53.5q0 -22 10 -35t32 -13q18 0 46 9l18 -52q-22 -21 -57 -35t-80 -14q-48 0 -78.5 19.5t-30.5 60.5q0 38 24 71.5t66 61.5q-16 -1 -32 -1q-70 0 -126.5 28t-89.5 85t-33 143q0 92 36 150t95.5 86t129.5 28q71 0 127 -28t89 -84.5 t33 -143.5q0 -77 -26.5 -130.5t-70.5 -85.5v0zM240 248q0 -64 7 -106t35 -42q22 0 30 32.5t8 122.5q0 85 -8 115t-31 30q-25 0 -33 -32t-8 -120z" />
<glyph unicode="&#x1f4;" d="M501 799q-58 -37 -126 -58t-127 -30l-48 50q53 35 105.5 71.5t98.5 75.5zM575 22q-50 -16 -105 -24t-108 -8q-157 0 -244.5 86t-87.5 239q0 108 43.5 185t120.5 118.5t176 41.5q56 0 108 -11.5t88 -28.5l-27 -155q-28 17 -64.5 28.5t-74.5 11.5q-78 0 -109 -49t-31 -131 q0 -84 31 -137t104 -60v57l-10 130l190 10v-303z" />
<glyph unicode="&#x1f5;" horiz-adv-x="542" d="M398 720q-40 -56 -92 -101.5t-98 -73.5l-60 36q16 27 33.5 62.5t34.5 73t30 70.5zM80 65q0 34 26.5 60t77.5 39q-81 12 -124 52t-43 110q0 86 62 135t167 49q59 0 104 0.5t87 2.5t90 7v-122l-111 10l-1 -2q42 -9 62 -37t20 -65q0 -49 -32 -81t-87 -47.5t-125 -15.5h-14 q-3 -5 -3 -12q0 -18 14.5 -22.5t26.5 -4.5l82 -2q82 -2 130 -33.5t48 -104.5q0 -82 -71.5 -126.5t-233.5 -44.5q-102 0 -164.5 20.5t-62.5 72.5q0 40 36.5 60.5t84.5 24.5q-21 14 -33.5 34t-12.5 43zM222 324q0 -35 7.5 -60.5t29.5 -25.5q17 0 25 19.5t8 62.5q0 41 -8 62 t-28 21q-34 0 -34 -79zM205 -57q0 -34 17 -53.5t50 -19.5t54.5 15.5t21.5 40.5q0 41 -59 41h-82q-2 -11 -2 -24z" />
<glyph unicode="&#x1fa;" horiz-adv-x="677" d="M489 1059q-58 -37 -126 -58t-127 -30l-48 50q53 35 105.5 71.5t98.5 75.5zM466 816q0 -48 -37.5 -82.5t-99.5 -34.5q-58 0 -87.5 28.5t-29.5 66.5q0 31 18.5 57.5t50.5 42.5t74 16q52 0 81.5 -25t29.5 -69zM292 800q0 -17 12 -29t31 -12q21 0 36 15t15 35 q0 18 -11.5 29.5t-29.5 11.5q-21 0 -37 -15t-16 -35zM220 0h-195l154 520l33 131l262 9l178 -660h-206l-28 125h-170zM333 503l-62 -278h125l-61 278h-2z" />
<glyph unicode="&#x1fb;" horiz-adv-x="549" d="M398 997q-40 -56 -92 -101.5t-98 -73.5l-60 36q16 27 33.5 62.5t34.5 73t30 70.5zM394 674q0 -40 -19 -67.5t-49.5 -41.5t-65.5 -14q-49 0 -80.5 26t-31.5 76q0 56 37.5 92t96.5 36q49 0 80.5 -27t31.5 -80zM223 661q0 -22 12.5 -33.5t31.5 -11.5q21 0 36.5 14t15.5 39 q0 23 -12 35t-32 12q-23 0 -37.5 -15.5t-14.5 -39.5zM314 -10q-5 11 -12 33.5t-12 43.5q-17 -31 -54 -54t-91 -23q-61 0 -93 35.5t-32 87.5q0 85 73 124t196 39v14q1 65 -81 65q-36 0 -73 -11.5t-72 -29.5l-11 159q47 16 107 26.5t117 10.5q107 0 165 -46.5t58 -156.5 q0 -28 -2.5 -73t-2.5 -81t4.5 -76.5t15.5 -76.5zM230 161q0 -30 10.5 -45.5t26.5 -15.5q13 0 19 6l2 127q-28 -3 -43 -20.5t-15 -51.5z" />
<glyph unicode="&#x1fc;" horiz-adv-x="907" d="M659 799q-58 -37 -126 -58t-127 -30l-48 50q53 35 105.5 71.5t98.5 75.5zM220 0h-195l232 520l33 130h567l-10 -130l-254 7l22 -146l212 4l-10 -120l-185 4l22 -147l218 8v-130h-406l-9 125h-185zM429 503l-116 -278h137l-19 278h-2z" />
<glyph unicode="&#x1fd;" horiz-adv-x="799" d="M527 720q-40 -56 -92 -101.5t-98 -73.5l-60 36q16 27 33.5 62.5t34.5 73t30 70.5zM747 19q-26 -13 -75.5 -21t-97.5 -8q-77 0 -139.5 24.5t-99.5 76.5q-25 -41 -70.5 -71t-110.5 -30q-68 0 -101 35.5t-33 88.5q0 83 72.5 122.5t195.5 39.5l1 14q2 34 -20 49.5t-61 15.5 q-36 0 -73 -11.5t-72 -29.5l-11 159q47 16 107 26.5t112 10.5q42 0 75.5 -8.5t58.5 -26.5q31 18 67 26.5t74 8.5q67 0 117 -24t78 -67t28 -100q0 -35 -9 -74l-15 -18h-240q9 -45 38.5 -66.5t89.5 -21.5q32 0 62.5 5.5t53.5 12.5zM499 293v-13l68 6q3 24 3 45q0 34 -8 53.5 t-24 19.5q-22 0 -30.5 -32t-8.5 -79zM230 162q0 -29 14 -45.5t36 -16.5q20 0 38 18q-26 49 -30 115q-25 -3 -41.5 -21.5t-16.5 -49.5z" />
<glyph unicode="&#x1fe;" horiz-adv-x="655" d="M478 799q-58 -37 -126 -58t-127 -30l-48 50q53 35 105.5 71.5t98.5 75.5zM625 329q0 -112 -40 -187.5t-109.5 -113.5t-156.5 -38q-107 0 -178 55l-70 -80l-65 56l76 88q-52 82 -52 206q0 107 38.5 184.5t107.5 119t161 41.5q53 0 97.5 -14.5t78.5 -40.5l70 80l66 -55 l-78 -89q54 -85 54 -212zM260 328v-15l125 144q-7 32 -20 50t-35 18q-40 0 -55 -55.5t-15 -141.5zM395 325v1.5v11.5l-123 -142q8 -32 22 -51.5t37 -19.5q27 0 40.5 26.5t18.5 72t5 101.5z" />
<glyph unicode="&#x1ff;" horiz-adv-x="560" d="M407 720q-40 -56 -92 -101.5t-98 -73.5l-60 36q16 27 33.5 62.5t34.5 73t30 70.5zM535 254q0 -91 -36 -149.5t-95.5 -86.5t-129.5 -28q-85 0 -146 38l-53 -57l-59 56l54 58q-22 30 -33.5 70.5t-11.5 90.5q0 92 36 150t95.5 86t129.5 28q85 0 145 -38l53 57l60 -55 l-54 -58q21 -30 33 -70.5t12 -91.5zM281 400q-23 0 -31.5 -28t-9.5 -105l76 82q-4 29 -12 40t-23 11zM282 100q20 0 28.5 28.5t9.5 105.5l-75 -81q4 -25 12.5 -39t24.5 -14z" />
<glyph unicode="&#x218;" horiz-adv-x="535" d="M505 187q0 -62 -31.5 -106t-88.5 -67.5t-133 -23.5q-32 0 -73.5 4t-81.5 12t-67 19l30 178q41 -25 88.5 -41.5t82.5 -16.5q23 0 36.5 9t13.5 24q0 19 -17.5 33.5t-45.5 29.5t-59.5 32.5t-59.5 42t-45.5 58.5t-17.5 82q0 66 35 111.5t93.5 69t130.5 23.5q31 0 68 -4 t72.5 -12t60.5 -19l-38 -165q-35 20 -75.5 32.5t-70.5 12.5q-52 0 -52 -36q0 -21 17.5 -37t45.5 -31t59.5 -32.5t59.5 -41.5t45.5 -58t17.5 -82zM369 -152q0 -37 -17 -72.5t-42 -64t-49 -45.5l-45 19q10 16 21 39t17 48q-27 5 -46 24.5t-19 55.5q0 42 27 67t65 25 q40 0 64 -26.5t24 -69.5z" />
<glyph unicode="&#x219;" horiz-adv-x="494" d="M459 147q0 -70 -59.5 -113.5t-174.5 -43.5q-46 0 -100 7t-90 19l10 160q26 -14 57.5 -23.5t62 -14.5t51.5 -5t29.5 4.5t8.5 14.5q0 14 -14 22t-37.5 16.5t-53.5 21.5q-44 20 -75.5 51.5t-31.5 85.5q0 50 31 86t85 55.5t123 19.5q42 0 83.5 -7t77.5 -19l-10 -158 q-43 20 -85 30.5t-65 10.5q-16 0 -25.5 -5t-9.5 -16q0 -13 14 -22.5t34 -16.5t39 -15q31 -12 59.5 -30.5t47 -46t18.5 -68.5zM336 -152q0 -37 -17 -72.5t-42 -64t-49 -45.5l-45 19q10 16 21 39t17 48q-27 5 -46 24.5t-19 55.5q0 42 27 67t65 25q40 0 64 -26.5t24 -69.5z" />
<glyph unicode="&#x21a;" horiz-adv-x="568" d="M389 0h-210v515l-159 -10l9 145h510l9 -145l-159 10v-515zM372 -152q0 -37 -17 -72.5t-42 -64t-49 -45.5l-45 19q10 16 21 39t17 48q-27 5 -46 24.5t-19 55.5q0 42 27 67t65 25q40 0 64 -26.5t24 -69.5z" />
<glyph unicode="&#x21b;" horiz-adv-x="423" d="M390 407l-120 3v-186q0 -37 15 -60t44 -23q15 0 35.5 5t33.5 11l-2 -139q-16 -9 -55 -18.5t-86 -9.5q-94 0 -144.5 47t-50.5 153v226l-55 1v53l75 20l33 118l157 10v-128h128zM308 -152q0 -37 -17 -72.5t-42 -64t-49 -45.5l-45 19q10 16 21 39t17 48q-27 5 -46 24.5 t-19 55.5q0 42 27 67t65 25q40 0 64 -26.5t24 -69.5z" />
<glyph unicode="&#x232;" horiz-adv-x="617" d="M144 750v110h330v-110h-330zM414 0h-210v202l-189 448l206 10l91 -292h2l93 292l195 -10l-188 -448v-202z" />
<glyph unicode="&#x233;" horiz-adv-x="550" d="M130 602v120h290v-120h-290zM107 -195q-45 0 -76.5 3.5t-60.5 10.5v155q37 -8 82.5 -13t78.5 -5q40 0 77 7.5t64 23t33 37.5h-197l-91 476l219 10l53 -400h2l40 400l199 -10q-9 -66 -22 -138.5t-28.5 -142t-30.5 -127t-27 -92.5q-26 -75 -67 -117.5t-101.5 -60 t-146.5 -17.5z" />
<glyph unicode="&#x237;" horiz-adv-x="317" d="M6 -120q27 44 38 103.5t11 136.5v249l-10 131l220 10v-350q0 -85 -17.5 -155.5t-63.5 -120.5t-134 -74z" />
<glyph unicode="&#x259;" horiz-adv-x="540" d="M30 181q0 35 9 74l15 18h240q-9 46 -38.5 67t-88.5 21q-33 0 -63.5 -5t-53.5 -13l2 138q26 13 75.5 21t97.5 8q83 0 148.5 -28t103.5 -85.5t38 -146.5q0 -88 -36.5 -146t-96 -86t-129.5 -28q-67 0 -117 24t-78 67.5t-28 99.5zM229 169q0 -34 8 -53.5t24 -19.5 q22 0 30.5 32t8.5 75v17l-68 -6q-3 -24 -3 -45z" />
<glyph unicode="&#x272;" horiz-adv-x="597" d="M6 -120q27 44 38 103.5t11 136.5v249l-10 131l220 10v-93q19 44 60 68.5t94 24.5t89.5 -35t36.5 -109v-366h-210v320q0 43 -35 43q-16 0 -35 -7v-196q0 -85 -17.5 -155.5t-63.5 -120.5t-134 -74z" />
<glyph unicode="&#x2c6;" horiz-adv-x="382" d="M84 555l-67 36q23 38 48.5 84.5t44.5 88.5l158 10q20 -46 43.5 -92t53.5 -91l-67 -36q-30 22 -57 47.5t-52 54.5q-24 -29 -50 -54.5t-55 -47.5z" />
<glyph unicode="&#x2c7;" horiz-adv-x="382" d="M298 776l67 -36q-23 -38 -48 -84.5t-45 -88.5l-158 -10q-20 46 -43.5 92t-53.5 91l67 36q30 -22 57 -47.5t52 -54.5q24 29 50 54.5t55 47.5z" />
<glyph unicode="&#x2d8;" horiz-adv-x="375" d="M184 554q-65 0 -107.5 55t-46.5 148l70 10q8 -46 32 -72t56 -26q34 0 57.5 28t30.5 69l69 9q-2 -63 -22.5 -113t-55.5 -79t-83 -29z" />
<glyph unicode="&#x2d9;" horiz-adv-x="300" d="M264 670q0 -49 -37.5 -74t-86.5 -25q-45 0 -74.5 21t-29.5 62q0 44 34.5 73t89.5 29q45 0 74.5 -21.5t29.5 -64.5z" />
<glyph unicode="&#x2da;" horiz-adv-x="306" d="M276 672q0 -40 -19 -67.5t-49.5 -41.5t-65.5 -14q-49 0 -80.5 26t-31.5 76q0 56 37.5 92t96.5 36q49 0 80.5 -27t31.5 -80zM105 659q0 -22 12.5 -33.5t31.5 -11.5q21 0 36.5 14t15.5 39q0 23 -12 35t-32 12q-23 0 -37.5 -15.5t-14.5 -39.5z" />
<glyph unicode="&#x2db;" horiz-adv-x="326" d="M275 0q-41 -18 -67 -45t-26 -52q0 -14 9.5 -23.5t31.5 -9.5q19 0 47 9l18 -52q-22 -21 -57 -35t-80 -14q-48 0 -78.5 19.5t-30.5 60.5q0 53 52 96t138 65z" />
<glyph unicode="&#x2dc;" horiz-adv-x="419" d="M140 753q33 0 57.5 -13t46.5 -26t46 -13q19 0 29.5 14t22.5 38l47 -9q-1 -41 -13 -79.5t-35 -63t-59 -24.5q-28 0 -55.5 13t-52.5 26t-45 13q-14 0 -26.5 -11.5t-25.5 -40.5l-47 9q2 41 12.5 79t34.5 63t63 25z" />
<glyph unicode="&#x2dd;" horiz-adv-x="600" d="M228 748q-25 -61 -63 -111.5t-75 -85.5l-60 19q19 50 37.5 102t31.5 104zM409 748q-25 -61 -63 -111.5t-75 -85.5l-60 19q19 50 37.5 102t31.5 104z" />
<glyph unicode="&#x1e0c;" horiz-adv-x="659" d="M60 520l-10 130h278q96 0 163.5 -40t102.5 -112t35 -169q0 -109 -42 -182t-114 -110t-163 -37h-250v520zM300 525h-30v-400h31q41 0 62 26.5t28.5 72t7.5 101.5t-7.5 101.5t-29 72t-62.5 26.5zM444 -143q0 -49 -37.5 -74t-86.5 -25q-45 0 -74.5 21t-29.5 62q0 44 34.5 73 t89.5 29q45 0 74.5 -21.5t29.5 -64.5z" />
<glyph unicode="&#x1e0d;" horiz-adv-x="580" d="M346 -10q-5 10 -11 29.5t-11 39.5q-19 -30 -55 -49.5t-78 -19.5q-73 0 -119.5 66.5t-46.5 180.5q0 93 30 153.5t80 90t108 29.5q22 0 41 -4t34 -10v59l-10 130l220 10v-535q0 -43 4.5 -83.5t15.5 -76.5zM240 247q0 -40 3.5 -73.5t15 -53.5t35.5 -20q13 0 24 6v293 q-9 1 -17 1q-25 0 -38 -13t-18 -46.5t-5 -93.5zM406 -143q0 -49 -37.5 -74t-86.5 -25q-45 0 -74.5 21t-29.5 62q0 44 34.5 73t89.5 29q45 0 74.5 -21.5t29.5 -64.5z" />
<glyph unicode="&#x1e24;" horiz-adv-x="685" d="M270 0h-210v520l-10 130l220 10v-303h145v163l-10 130l220 11v-661h-210v252h-145v-252zM457 -143q0 -49 -37.5 -74t-86.5 -25q-45 0 -74.5 21t-29.5 62q0 44 34.5 73t89.5 29q45 0 74.5 -21.5t29.5 -64.5z" />
<glyph unicode="&#x1e25;" horiz-adv-x="597" d="M265 0h-210v555l-10 130l220 10v-279q19 44 60 69t91 25q56 0 92.5 -35t36.5 -109v-366h-210v320q0 43 -35 43q-16 0 -35 -7v-356zM413 -143q0 -49 -37.5 -74t-86.5 -25q-45 0 -74.5 21t-29.5 62q0 44 34.5 73t89.5 29q45 0 74.5 -21.5t29.5 -64.5z" />
<glyph unicode="&#x1e44;" horiz-adv-x="665" d="M447 811q0 -49 -37.5 -74t-86.5 -25q-45 0 -74.5 21t-29.5 62q0 44 34.5 73t89.5 29q45 0 74.5 -21.5t29.5 -64.5zM60 520l-10 130l159 10l244 -372h2l-15 362l165 10v-660h-170l-223 342h-2l15 -342h-165v520z" />
<glyph unicode="&#x1e45;" horiz-adv-x="597" d="M424 670q0 -49 -37.5 -74t-86.5 -25q-45 0 -74.5 21t-29.5 62q0 44 34.5 73t89.5 29q45 0 74.5 -21.5t29.5 -64.5zM265 0h-210v370l-10 130l220 10v-93q19 44 60 68.5t94 24.5t89.5 -35t36.5 -109v-366h-210v320q0 43 -35 43q-16 0 -35 -7v-356z" />
<glyph unicode="&#x1e5a;" horiz-adv-x="616" d="M270 0h-210v520l-10 130h265q130 0 200.5 -60t70.5 -161q0 -67 -30 -114t-81 -75l126 -240l-223 -10l-73 212h-5h-30v-202zM293 535h-23v-219h23q49 0 63.5 32t14.5 78t-14.5 77.5t-63.5 31.5zM422 -143q0 -49 -37.5 -74t-86.5 -25q-45 0 -74.5 21t-29.5 62q0 44 34.5 73 t89.5 29q45 0 74.5 -21.5t29.5 -64.5z" />
<glyph unicode="&#x1e5b;" horiz-adv-x="431" d="M265 0h-210v370l-10 130l220 10v-149q6 34 21 68.5t38.5 57.5t55.5 23q14 0 24.5 -3t16.5 -7l-13 -207q-33 7 -73 12q-19 2 -37.5 3.5t-32.5 1.5v-310zM286 -143q0 -49 -37.5 -74t-86.5 -25q-45 0 -74.5 21t-29.5 62q0 44 34.5 73t89.5 29q45 0 74.5 -21.5t29.5 -64.5z " />
<glyph unicode="&#x1e62;" horiz-adv-x="535" d="M505 187q0 -62 -31.5 -106t-88.5 -67.5t-133 -23.5q-32 0 -73.5 4t-81.5 12t-67 19l30 178q41 -25 88.5 -41.5t82.5 -16.5q23 0 36.5 9t13.5 24q0 19 -17.5 33.5t-45.5 29.5t-59.5 32.5t-59.5 42t-45.5 58.5t-17.5 82q0 66 35 111.5t93.5 69t130.5 23.5q31 0 68 -4 t72.5 -12t60.5 -19l-38 -165q-35 20 -75.5 32.5t-70.5 12.5q-52 0 -52 -36q0 -21 17.5 -37t45.5 -31t59.5 -32.5t59.5 -41.5t45.5 -58t17.5 -82zM393 -143q0 -49 -37.5 -74t-86.5 -25q-45 0 -74.5 21t-29.5 62q0 44 34.5 73t89.5 29q45 0 74.5 -21.5t29.5 -64.5z" />
<glyph unicode="&#x1e63;" horiz-adv-x="494" d="M459 147q0 -70 -59.5 -113.5t-174.5 -43.5q-46 0 -100 7t-90 19l10 160q26 -14 57.5 -23.5t62 -14.5t51.5 -5t29.5 4.5t8.5 14.5q0 14 -14 22t-37.5 16.5t-53.5 21.5q-44 20 -75.5 51.5t-31.5 85.5q0 50 31 86t85 55.5t123 19.5q42 0 83.5 -7t77.5 -19l-10 -158 q-43 20 -85 30.5t-65 10.5q-16 0 -25.5 -5t-9.5 -16q0 -13 14 -22.5t34 -16.5t39 -15q31 -12 59.5 -30.5t47 -46t18.5 -68.5zM360 -143q0 -49 -37.5 -74t-86.5 -25q-45 0 -74.5 21t-29.5 62q0 44 34.5 73t89.5 29q45 0 74.5 -21.5t29.5 -64.5z" />
<glyph unicode="&#x1e6c;" horiz-adv-x="568" d="M389 0h-210v515l-159 -10l9 145h510l9 -145l-159 10v-515zM396 -143q0 -49 -37.5 -74t-86.5 -25q-45 0 -74.5 21t-29.5 62q0 44 34.5 73t89.5 29q45 0 74.5 -21.5t29.5 -64.5z" />
<glyph unicode="&#x1e6d;" horiz-adv-x="423" d="M390 407l-120 3v-186q0 -37 15 -60t44 -23q15 0 35.5 5t33.5 11l-2 -139q-16 -9 -55 -18.5t-86 -9.5q-94 0 -144.5 47t-50.5 153v226l-55 1v53l75 20l33 118l157 10v-128h128zM332 -143q0 -49 -37.5 -74t-86.5 -25q-45 0 -74.5 21t-29.5 62q0 44 34.5 73t89.5 29 q45 0 74.5 -21.5t29.5 -64.5z" />
<glyph unicode="&#x1e80;" horiz-adv-x="1010" d="M655 760l-48 -50q-58 9 -126 30t-127 58l97 109q47 -39 99.5 -75.5t104.5 -71.5zM148 0l-113 650l206 10l71 -508h2l72 498h264l67 -498h2l73 508l183 -10l-141 -650h-288l-47 468h-2l-61 -468h-288z" />
<glyph unicode="&#x1e81;" horiz-adv-x="842" d="M544 581l-60 -36q-46 28 -97.5 73.5t-92.5 101.5l152 67q13 -33 30 -70.5t35 -73t33 -62.5zM103 0l-91 500l209 10l38 -400h2l44 390h230l47 -390h2l35 400l203 -10q-19 -137 -47 -265t-61 -235h-267l-33 290h-2q-9 -79 -23 -148t-36 -142h-250z" />
<glyph unicode="&#x1e82;" horiz-adv-x="1010" d="M655 799q-58 -37 -126 -58t-127 -30l-48 50q53 35 105.5 71.5t98.5 75.5zM148 0l-113 650l206 10l71 -508h2l72 498h264l67 -498h2l73 508l183 -10l-141 -650h-288l-47 468h-2l-61 -468h-288z" />
<glyph unicode="&#x1e83;" horiz-adv-x="842" d="M544 720q-40 -56 -92 -101.5t-98 -73.5l-60 36q16 27 33.5 62.5t34.5 73t30 70.5zM103 0l-91 500l209 10l38 -400h2l44 390h230l47 -390h2l35 400l203 -10q-19 -137 -47 -265t-61 -235h-267l-33 290h-2q-9 -79 -23 -148t-36 -142h-250z" />
<glyph unicode="&#x1e84;" horiz-adv-x="1010" d="M475 812q0 -50 -34 -75t-82 -25q-43 0 -69.5 21t-26.5 62q0 45 32 73.5t84 28.5q44 0 70 -21t26 -64zM747 811q0 -49 -34.5 -74t-81.5 -25q-43 0 -69 21t-26 63q0 44 31.5 72.5t83.5 28.5q43 0 69.5 -21t26.5 -65zM148 0l-113 650l206 10l71 -508h2l72 498h264l67 -498h2 l73 508l183 -10l-141 -650h-288l-47 468h-2l-61 -468h-288z" />
<glyph unicode="&#x1e85;" horiz-adv-x="842" d="M382 669q0 -46 -32.5 -69t-76.5 -23q-40 0 -65.5 18.5t-25.5 57.5q0 43 30 69.5t79 26.5q41 0 66 -20t25 -60zM653 669q0 -46 -33 -69t-77 -23q-40 0 -65 18.5t-25 57.5q0 43 29.5 69.5t78.5 26.5q41 0 66.5 -20t25.5 -60zM103 0l-91 500l209 10l38 -400h2l44 390h230 l47 -390h2l35 400l203 -10q-19 -137 -47 -265t-61 -235h-267l-33 290h-2q-9 -79 -23 -148t-36 -142h-250z" />
<glyph unicode="&#x1e92;" horiz-adv-x="528" d="M493 0h-443l-25 107l234 399l-112 -4l-112 -4l10 152h423l25 -106l-234 -400l122 8l122 8zM378 -143q0 -49 -37.5 -74t-86.5 -25q-45 0 -74.5 21t-29.5 62q0 44 34.5 73t89.5 29q45 0 74.5 -21.5t29.5 -64.5z" />
<glyph unicode="&#x1e93;" horiz-adv-x="487" d="M452 0h-407l-20 120l210 230h-1q-51 0 -101.5 -2.5t-98.5 -7.5l12 160h395l8 -120l-209 -230h22q104 0 200 15zM358 -143q0 -49 -37.5 -74t-86.5 -25q-45 0 -74.5 21t-29.5 62q0 44 34.5 73t89.5 29q45 0 74.5 -21.5t29.5 -64.5z" />
<glyph unicode="&#x1e9e;" horiz-adv-x="719" d="M644 550v-36l-129 -135q75 -37 124.5 -86.5t49.5 -124.5q0 -59 -30.5 -98.5t-81 -59.5t-111.5 -20q-37 0 -75 7t-61 18v135q11 -7 34 -16t42 -9q26 0 39.5 18.5t13.5 42.5q0 69 -129 113v48l135 146q-14 13 -36 22.5t-51 9.5q-47 0 -74 -33t-27 -98v-276q0 -21 -3.5 -47 t-12 -48t-22.5 -33l-194 10q12 35 17 87.5t5 99.5v213q0 81 37 139t104.5 89.5t158.5 31.5q95 0 166.5 -31.5t110.5 -78.5z" />
<glyph unicode="&#x1ea0;" horiz-adv-x="677" d="M220 0h-195l154 520l33 131l262 9l178 -660h-206l-28 125h-170zM333 503l-62 -278h125l-61 278h-2zM453 -143q0 -49 -37.5 -74t-86.5 -25q-45 0 -74.5 21t-29.5 62q0 44 34.5 73t89.5 29q45 0 74.5 -21.5t29.5 -64.5z" />
<glyph unicode="&#x1ea1;" horiz-adv-x="549" d="M314 -10q-5 11 -12 33.5t-12 43.5q-17 -31 -54 -54t-91 -23q-61 0 -93 35.5t-32 87.5q0 85 73 124t196 39v14q1 65 -81 65q-36 0 -73 -11.5t-72 -29.5l-11 159q47 16 107 26.5t117 10.5q107 0 165 -46.5t58 -156.5q0 -28 -2.5 -73t-2.5 -81t4.5 -76.5t15.5 -76.5z M230 161q0 -30 10.5 -45.5t26.5 -15.5q13 0 19 6l2 127q-28 -3 -43 -20.5t-15 -51.5zM385 -143q0 -49 -37.5 -74t-86.5 -25q-45 0 -74.5 21t-29.5 62q0 44 34.5 73t89.5 29q45 0 74.5 -21.5t29.5 -64.5z" />
<glyph unicode="&#x1eb8;" horiz-adv-x="520" d="M485 0h-425v511l-10 139h420l-10 -130l-190 10v-150l170 5l-10 -120l-160 5v-150l215 10v-130zM374 -143q0 -49 -37.5 -74t-86.5 -25q-45 0 -74.5 21t-29.5 62q0 44 34.5 73t89.5 29q45 0 74.5 -21.5t29.5 -64.5z" />
<glyph unicode="&#x1eb9;" horiz-adv-x="540" d="M488 19q-26 -13 -75.5 -21t-97.5 -8q-82 0 -148 28t-104 85.5t-38 146.5t36.5 146.5t96.5 85.5t129 28q67 0 117 -24t78 -67t28 -100q0 -35 -9 -74l-15 -18h-240q9 -46 38.5 -67t88.5 -21q33 0 63.5 5.5t53.5 12.5zM240 297v-17l68 6q3 24 3 45q0 34 -8 53.5t-24 19.5 q-22 0 -30.5 -32t-8.5 -75zM401 -143q0 -49 -37.5 -74t-86.5 -25q-45 0 -74.5 21t-29.5 62q0 44 34.5 73t89.5 29q45 0 74.5 -21.5t29.5 -64.5z" />
<glyph unicode="&#x1ebc;" horiz-adv-x="520" d="M195 889q30 0 53 -10.5t43.5 -21t42.5 -10.5q21 0 33 12.5t25 34.5l44 -9q-1 -40 -13 -77.5t-35.5 -61t-60.5 -23.5q-26 0 -51.5 10.5t-48.5 21t-42 10.5q-16 0 -30 -10.5t-28 -36.5l-44 9q2 40 13 77t35 61t64 24zM485 0h-425v511l-10 139h420l-10 -130l-190 10v-150 l170 5l-10 -120l-160 5v-150l215 10v-130z" />
<glyph unicode="&#x1ebd;" horiz-adv-x="540" d="M218 753q33 0 57.5 -13t46.5 -26t46 -13q19 0 29.5 14t22.5 38l47 -9q-1 -41 -13 -79.5t-35 -63t-59 -24.5q-28 0 -55.5 13t-52.5 26t-45 13q-14 0 -26.5 -11.5t-25.5 -40.5l-47 9q2 41 12.5 79t34.5 63t63 25zM488 19q-26 -13 -75.5 -21t-97.5 -8q-82 0 -148 28 t-104 85.5t-38 146.5t36.5 146.5t96.5 85.5t129 28q67 0 117 -24t78 -67t28 -100q0 -35 -9 -74l-15 -18h-240q9 -46 38.5 -67t88.5 -21q33 0 63.5 5.5t53.5 12.5zM240 297v-17l68 6q3 24 3 45q0 34 -8 53.5t-24 19.5q-22 0 -30.5 -32t-8.5 -75z" />
<glyph unicode="&#x1eca;" horiz-adv-x="330" d="M270 0h-210v520l-10 130l220 10v-660zM279 -143q0 -49 -37.5 -74t-86.5 -25q-45 0 -74.5 21t-29.5 62q0 44 34.5 73t89.5 29q45 0 74.5 -21.5t29.5 -64.5z" />
<glyph unicode="&#x1ecb;" horiz-adv-x="317" d="M274 670q0 -49 -37.5 -74t-86.5 -25q-45 0 -74.5 21t-29.5 62q0 44 34.5 73t89.5 29q45 0 74.5 -21.5t29.5 -64.5zM265 0h-210v369l-10 131l220 10v-510zM274 -143q0 -49 -37.5 -74t-86.5 -25q-45 0 -74.5 21t-29.5 62q0 44 34.5 73t89.5 29q45 0 74.5 -21.5t29.5 -64.5z " />
<glyph unicode="&#x1ecc;" horiz-adv-x="655" d="M625 329q0 -112 -40 -187.5t-109.5 -113.5t-156.5 -38q-90 0 -154.5 39t-99.5 111.5t-35 174.5q0 107 38.5 184.5t107.5 119t161 41.5t156.5 -41t98 -115.5t33.5 -174.5zM260 328q0 -54 6 -100.5t21.5 -74.5t43.5 -28q27 0 40.5 26.5t18.5 72t5 101.5t-5 101.5t-19 72 t-41 26.5q-40 0 -55 -55.5t-15 -141.5zM442 -143q0 -49 -37.5 -74t-86.5 -25q-45 0 -74.5 21t-29.5 62q0 44 34.5 73t89.5 29q45 0 74.5 -21.5t29.5 -64.5z" />
<glyph unicode="&#x1ecd;" horiz-adv-x="560" d="M535 254q0 -91 -36 -149.5t-95.5 -86.5t-129.5 -28t-126.5 28t-89.5 85t-33 143q0 92 36 150t95.5 86t129.5 28q71 0 127 -28t89 -84.5t33 -143.5zM240 248q0 -64 7 -106t35 -42q22 0 30 32.5t8 122.5q0 85 -8 115t-31 30q-25 0 -33 -32t-8 -120zM394 -143 q0 -49 -37.5 -74t-86.5 -25q-45 0 -74.5 21t-29.5 62q0 44 34.5 73t89.5 29q45 0 74.5 -21.5t29.5 -64.5z" />
<glyph unicode="&#x1ee4;" horiz-adv-x="655" d="M327 125q32 0 47.5 24.5t15.5 65.5v305l-10 130l220 10v-436q0 -77 -39 -129.5t-103 -78.5t-140 -26q-78 0 -137.5 27t-92.5 79.5t-33 127.5v296l-10 130l220 9v-446q0 -39 14.5 -63.5t47.5 -24.5zM442 -143q0 -49 -37.5 -74t-86.5 -25q-45 0 -74.5 21t-29.5 62 q0 44 34.5 73t89.5 29q45 0 74.5 -21.5t29.5 -64.5z" />
<glyph unicode="&#x1ee5;" horiz-adv-x="588" d="M52 124v376l210 10v-363q0 -43 35 -43q13 0 29 5v391l210 10v-357q0 -36 4.5 -76.5t15.5 -76.5l-200 -10q-6 13 -15 40.5t-13 49.5q-20 -37 -60.5 -63.5t-93.5 -26.5q-58 0 -90 35t-32 99zM415 -143q0 -49 -37.5 -74t-86.5 -25q-45 0 -74.5 21t-29.5 62q0 44 34.5 73 t89.5 29q45 0 74.5 -21.5t29.5 -64.5z" />
<glyph unicode="&#x1ef2;" horiz-adv-x="617" d="M459 760l-48 -50q-58 9 -126 30t-127 58l97 109q47 -39 99.5 -75.5t104.5 -71.5zM414 0h-210v202l-189 448l206 10l91 -292h2l93 292l195 -10l-188 -448v-202z" />
<glyph unicode="&#x1ef3;" horiz-adv-x="550" d="M402 581l-60 -36q-46 28 -97.5 73.5t-92.5 101.5l152 67q13 -33 30 -70.5t35 -73t33 -62.5zM107 -195q-45 0 -76.5 3.5t-60.5 10.5v155q37 -8 82.5 -13t78.5 -5q40 0 77 7.5t64 23t33 37.5h-197l-91 476l219 10l53 -400h2l40 400l199 -10q-9 -66 -22 -138.5t-28.5 -142 t-30.5 -127t-27 -92.5q-26 -75 -67 -117.5t-101.5 -60t-146.5 -17.5z" />
<glyph unicode="&#x1ef8;" horiz-adv-x="617" d="M244 889q30 0 53 -10.5t43.5 -21t42.5 -10.5q21 0 33 12.5t25 34.5l44 -9q-1 -40 -13 -77.5t-35.5 -61t-60.5 -23.5q-26 0 -51.5 10.5t-48.5 21t-42 10.5q-16 0 -30 -10.5t-28 -36.5l-44 9q2 40 13 77t35 61t64 24zM414 0h-210v202l-189 448l206 10l91 -292h2l93 292 l195 -10l-188 -448v-202z" />
<glyph unicode="&#x1ef9;" horiz-adv-x="550" d="M205 753q33 0 57.5 -13t46.5 -26t46 -13q19 0 29.5 14t22.5 38l47 -9q-1 -41 -13 -79.5t-35 -63t-59 -24.5q-28 0 -55.5 13t-52.5 26t-45 13q-14 0 -26.5 -11.5t-25.5 -40.5l-47 9q2 41 12.5 79t34.5 63t63 25zM107 -195q-45 0 -76.5 3.5t-60.5 10.5v155q37 -8 82.5 -13 t78.5 -5q40 0 77 7.5t64 23t33 37.5h-197l-91 476l219 10l53 -400h2l40 400l199 -10q-9 -66 -22 -138.5t-28.5 -142t-30.5 -127t-27 -92.5q-26 -75 -67 -117.5t-101.5 -60t-146.5 -17.5z" />
<glyph unicode="&#x2013;" horiz-adv-x="556" d="M30 241v60h496v-60h-496z" />
<glyph unicode="&#x2014;" horiz-adv-x="860" d="M30 241v60h800v-60h-800z" />
<glyph unicode="&#x2018;" horiz-adv-x="286" d="M65 464q0 50 26 96.5t65.5 82.5t78.5 52l26 -31q-23 -21 -46.5 -53t-33.5 -67q28 -6 46 -26t18 -51q0 -45 -26.5 -70t-64.5 -25q-40 0 -64.5 26t-24.5 66z" />
<glyph unicode="&#x2019;" horiz-adv-x="286" d="M221 603q0 -49 -26 -96t-65 -83t-79 -52l-26 31q23 21 46.5 53t33.5 67q-28 6 -46 26t-18 51q0 45 27 70t64 25q41 0 65 -26t24 -66z" />
<glyph unicode="&#x201a;" horiz-adv-x="261" d="M196 72q0 -49 -26 -96t-65 -83t-79 -52l-26 31q23 21 46.5 53t33.5 67q-28 6 -46 26t-18 51q0 45 27 70t64 25q41 0 65 -26t24 -66z" />
<glyph unicode="&#x201c;" horiz-adv-x="506" d="M65 464q0 50 26 96.5t65.5 82.5t78.5 52l26 -31q-23 -21 -46.5 -53t-33.5 -67q28 -6 46 -26t18 -51q0 -45 -26.5 -70t-64.5 -25q-40 0 -64.5 26t-24.5 66zM285 464q0 50 26 96.5t65.5 82.5t78.5 52l26 -31q-23 -21 -46.5 -53t-33.5 -67q28 -6 46 -26t18 -51 q0 -45 -26.5 -70t-64.5 -25q-40 0 -64.5 26t-24.5 66z" />
<glyph unicode="&#x201d;" horiz-adv-x="506" d="M441 603q0 -49 -26 -96t-65 -83t-79 -52l-26 31q23 21 46.5 53t33.5 67q-28 6 -46 26t-18 51q0 45 27 70t64 25q41 0 65 -26t24 -66zM221 603q0 -49 -26 -96t-65 -83t-79 -52l-26 31q23 21 46.5 53t33.5 67q-28 6 -46 26t-18 51q0 45 27 70t64 25q41 0 65 -26t24 -66z " />
<glyph unicode="&#x201e;" horiz-adv-x="468" d="M196 72q0 -49 -26 -96t-65 -83t-79 -52l-26 31q23 21 46.5 53t33.5 67q-28 6 -46 26t-18 51q0 45 27 70t64 25q41 0 65 -26t24 -66zM403 72q0 -49 -26 -96t-65 -83t-79 -52l-26 31q23 21 46.5 53t33.5 67q-28 6 -46 26t-18 51q0 45 27 70t64 25q41 0 65 -26t24 -66z" />
<glyph unicode="&#x2020;" horiz-adv-x="466" d="M333 -5l-200 -5l17 364l-129 -8l3 154l123 -8l-14 163l200 5l-14 -168l126 8l-3 -154l-126 8z" />
<glyph unicode="&#x2021;" horiz-adv-x="466" d="M333 -5l-200 -5l20 139l-132 -11l3 154l132 -11l-8 68l6 51l-133 -11l3 154l130 -11l-21 143l200 5l-21 -148l133 11l-3 -154l-130 11l6 -50l-8 -69l135 11l-3 -154l-129 11z" />
<glyph unicode="&#x2022;" horiz-adv-x="479" d="M399 275q0 -49 -23 -87t-62 -60t-88 -22q-62 0 -104 36.5t-42 103.5q0 49 23 87t63 60.5t89 22.5q62 0 103 -36.5t41 -104.5z" />
<glyph unicode="&#x2026;" horiz-adv-x="868" d="M711 -10q-38 0 -63 22.5t-25 59.5q0 40 28.5 66t68.5 26q35 0 59 -21.5t24 -56.5q0 -40 -26 -68t-66 -28zM432 -10q-38 0 -63 22.5t-25 59.5q0 40 28.5 66t68.5 26q35 0 59 -21.5t24 -56.5q0 -40 -26 -68t-66 -28zM153 -10q-38 0 -63 22.5t-25 59.5q0 40 28.5 66t68.5 26 q35 0 59 -21.5t24 -56.5q0 -40 -26 -68t-66 -28z" />
<glyph unicode="&#x2030;" horiz-adv-x="1376" d="M337 -10h-115l400 670h116zM403 473q0 -65 -26.5 -106t-70 -60.5t-94.5 -19.5t-92.5 19t-65.5 58.5t-24 100.5q0 62 25.5 104t69 64t97.5 22q83 0 132 -48t49 -134zM173 474q0 -54 9 -84.5t36 -30.5q19 0 28 14.5t11.5 37.5t2.5 48q0 64 -9 94t-35 30q-25 0 -34 -27 t-9 -82zM923 181q0 -65 -26.5 -106t-70 -60.5t-94.5 -19.5t-92.5 19t-65.5 58.5t-24 100.5q0 62 25.5 104t69 64t97.5 22q83 0 132 -48t49 -134zM1346 181q0 -65 -26.5 -106t-70 -60.5t-94.5 -19.5t-92.5 19t-65.5 58.5t-24 100.5q0 62 25.5 104t69 64t97.5 22q83 0 132 -48 t49 -134zM693 182q0 -54 9 -84.5t36 -30.5q19 0 28 14.5t11.5 37.5t2.5 48q0 64 -9 94t-35 30q-25 0 -34 -27t-9 -82zM1116 182q0 -54 9 -84.5t36 -30.5q19 0 28 14.5t11.5 37.5t2.5 48q0 64 -9 94t-35 30q-25 0 -34 -27t-9 -82z" />
<glyph unicode="&#x2039;" horiz-adv-x="336" d="M37 253v54q65 50 118.5 98.5t105.5 104.5l38 -22q-20 -60 -46 -109.5t-56 -98.5q30 -49 56 -98.5t46 -109.5l-38 -22q-52 56 -105.5 105t-118.5 98z" />
<glyph unicode="&#x203a;" horiz-adv-x="336" d="M299 253q-64 -49 -117.5 -98t-106.5 -105l-38 22q20 60 46 109.5t56 98.5q-30 49 -56 98.5t-46 109.5l38 22q53 -56 106.5 -104.5t117.5 -98.5v-54z" />
<glyph unicode="&#x2044;" horiz-adv-x="656" d="M185 -10h-115l400 670h116z" />
<glyph unicode="&#x2070;" horiz-adv-x="433" d="M403 553q0 -65 -26.5 -106t-70 -60.5t-94.5 -19.5t-92.5 19t-65.5 58.5t-24 100.5q0 62 25.5 104t69 64t97.5 22q83 0 132 -48t49 -134zM173 554q0 -54 9 -84.5t36 -30.5q19 0 28 14.5t11.5 37.5t2.5 48q0 64 -9 94t-35 30q-25 0 -34 -27t-9 -82z" />
<glyph unicode="&#x2074;" horiz-adv-x="440" d="M331 372h-140v44h-165l-6 57l211 264l100 -5v-203q31 2 54 5l-6 -118h-48v-44zM191 631l-83 -105h83v105z" />
<glyph unicode="&#x2075;" horiz-adv-x="412" d="M367 482q0 -59 -55.5 -88t-142.5 -29q-25 0 -57 2.5t-57 9.5l11 72q16 -5 41.5 -8.5t39.5 -3.5q27 0 45 10.5t18 32.5q0 21 -17 31.5t-42 10.5q-16 0 -34.5 -4t-32.5 -6l-10 5v213h156q27 0 58.5 1t59.5 4l-6 -115h-201v-52q19 5 41 8.5t47 3.5q63 0 100.5 -26t37.5 -72z " />
<glyph unicode="&#x2076;" horiz-adv-x="409" d="M206 365q-48 0 -88 17t-64 53t-24 91q0 64 32 111t88.5 73.5t130.5 26.5q17 0 32 -1.5t22 -3.5l-10 -73q-9 2 -21.5 4t-22.5 2q-34 0 -64 -22.5t-41 -72.5q14 14 37 21.5t47 7.5q47 0 83 -27.5t36 -78.5q0 -41 -24 -69.5t-63 -43.5t-86 -15zM203 437q20 0 29.5 14t9.5 36 t-9.5 38.5t-32.5 16.5q-16 0 -27 -8q0 -41 3 -62t10 -28t17 -7z" />
<glyph unicode="&#x2077;" horiz-adv-x="379" d="M223 372h-156q6 67 52 134.5t135 113.5h-89q-35 0 -67 -2t-61 -6l6 118h294l8 -7l4 -67q-64 -67 -94 -134t-32 -150z" />
<glyph unicode="&#x2078;" horiz-adv-x="423" d="M203 365q-81 0 -127 27t-46 64q0 28 27.5 49.5t75.5 27.5q-38 16 -62.5 40.5t-24.5 58.5q0 47 47 76t122 29q74 0 118 -26.5t44 -66.5q0 -25 -21.5 -43.5t-63.5 -25.5q54 -18 77.5 -46t23.5 -55q0 -26 -21 -51t-63 -41.5t-106 -16.5zM211 665q-12 0 -21.5 -5.5 t-9.5 -16.5q0 -12 12.5 -23t34.5 -20q16 16 16 34q0 15 -9 23t-23 8zM209 437q20 0 33.5 9.5t13.5 22.5q0 24 -62 36q-27 -16 -27 -36q0 -13 11 -22.5t31 -9.5z" />
<glyph unicode="&#x2079;" horiz-adv-x="419" d="M40 606q0 43 24 72t63 44t85 15q49 0 89 -17t64 -52.5t24 -91.5q0 -63 -32 -110.5t-88.5 -74t-130.5 -26.5q-17 0 -32 1.5t-22 3.5l10 73q9 -2 21.5 -4t22.5 -2q35 0 66 20.5t39 62.5q-15 -14 -37.5 -21.5t-45.5 -7.5q-48 0 -84 31t-36 84zM177 612q0 -23 10 -43.5 t33 -20.5q8 0 15 2.5t11 5.5q0 47 -3.5 70.5t-10.5 31t-18 7.5q-18 0 -27.5 -14t-9.5 -39z" />
<glyph unicode="&#x207f;" horiz-adv-x="482" d="M214 372h-168v265l-8 95l176 7v-68q15 32 48 50t75 18t71.5 -23.5t29.5 -77.5v-266h-168v229q0 11 -6 16t-22 5h-28v-250z" />
<glyph unicode="&#x2080;" horiz-adv-x="433" d="M403 16q0 -65 -26.5 -106t-70 -60.5t-94.5 -19.5t-92.5 19t-65.5 58.5t-24 100.5q0 62 25.5 104t69 64t97.5 22q83 0 132 -48t49 -134zM173 17q0 -54 9 -84.5t36 -30.5q19 0 28 14.5t11.5 37.5t2.5 48q0 64 -9 94t-35 30q-25 0 -34 -27t-9 -82z" />
<glyph unicode="&#x2081;" horiz-adv-x="328" d="M238 -168h-140v277l-61 -23l-17 60l210 51l8 -7v-358z" />
<glyph unicode="&#x2082;" horiz-adv-x="414" d="M336 -168h-286l-10 79q18 9 43.5 28t50.5 42.5t41.5 47.5t16.5 43q0 17 -13 26.5t-33 9.5q-23 0 -48.5 -10t-45.5 -25l-12 94q24 11 64 20.5t85 9.5q74 0 117 -29t43 -73q0 -32 -24 -62t-64.5 -53.5t-91.5 -38.5h45q31 0 64 2.5t64 6.5z" />
<glyph unicode="&#x2083;" horiz-adv-x="373" d="M343 -68q0 -47 -49 -75.5t-132 -28.5q-29 0 -59 3t-53 9l11 75q14 -7 33.5 -11t35.5 -4q26 0 41 11t15 30q0 20 -17.5 29t-44.5 9q-11 0 -23 -1t-17 -2v43q38 11 67 27.5t29 35.5q0 14 -13 21.5t-33 7.5q-38 0 -76 -18l-4 80q25 11 60.5 19t75.5 8q68 0 107.5 -24.5 t39.5 -59.5q0 -34 -33.5 -57t-93.5 -35q60 -5 96.5 -29t36.5 -63z" />
<glyph unicode="&#x2084;" horiz-adv-x="440" d="M331 -168h-140v44h-165l-6 57l211 264l100 -5v-203q31 2 54 5l-6 -118h-48v-44zM191 91l-83 -105h83v105z" />
<glyph unicode="&#x2085;" horiz-adv-x="412" d="M367 -55q0 -59 -55.5 -88t-142.5 -29q-25 0 -57 2.5t-57 9.5l11 72q16 -5 41.5 -8.5t39.5 -3.5q27 0 45 10.5t18 32.5q0 21 -17 31.5t-42 10.5q-16 0 -34.5 -4t-32.5 -6l-10 5v213h156q27 0 58.5 1t59.5 4l-6 -115h-201v-52q19 5 41 8.5t47 3.5q63 0 100.5 -26t37.5 -72z " />
<glyph unicode="&#x2086;" horiz-adv-x="409" d="M206 -172q-48 0 -88 17t-64 53t-24 91q0 63 32 110.5t88.5 74t130.5 26.5q17 0 32 -1.5t22 -3.5l-10 -73q-9 2 -21.5 4t-22.5 2q-34 0 -64 -22.5t-41 -72.5q14 14 37 21.5t47 7.5q47 0 83 -27.5t36 -78.5q0 -41 -24 -69.5t-63 -43.5t-86 -15zM203 -100q20 0 29.5 14 t9.5 36t-9.5 38.5t-32.5 16.5q-16 0 -27 -8q0 -41 3 -62t10 -28t17 -7z" />
<glyph unicode="&#x2087;" horiz-adv-x="379" d="M223 -168h-156q6 67 52 134.5t135 113.5h-89q-35 0 -67 -2t-61 -6l6 118h294l8 -7l4 -67q-64 -67 -94 -134t-32 -150z" />
<glyph unicode="&#x2088;" horiz-adv-x="423" d="M203 -172q-81 0 -127 27t-46 64q0 28 27.5 49.5t75.5 27.5q-38 16 -62.5 40.5t-24.5 58.5q0 47 47 76t122 29q74 0 118 -26.5t44 -66.5q0 -25 -21.5 -43.5t-63.5 -25.5q54 -18 77.5 -46t23.5 -55q0 -26 -21 -51t-63 -41.5t-106 -16.5zM211 128q-12 0 -21.5 -5.5 t-9.5 -16.5q0 -12 12.5 -23t34.5 -20q16 16 16 34q0 15 -9 23t-23 8zM209 -100q20 0 33.5 9.5t13.5 22.5q0 24 -62 36q-27 -16 -27 -36q0 -13 11 -22.5t31 -9.5z" />
<glyph unicode="&#x2089;" horiz-adv-x="419" d="M40 69q0 43 24 72t63 44t85 15q49 0 89 -17t64 -52.5t24 -91.5q0 -63 -32 -110.5t-88.5 -74t-130.5 -26.5q-17 0 -32 1.5t-22 3.5l10 73q9 -2 21.5 -4t22.5 -2q35 0 66 20.5t39 62.5q-15 -14 -37.5 -21.5t-45.5 -7.5q-48 0 -84 31t-36 84zM177 75q0 -23 10 -43.5 t33 -20.5q8 0 15 2.5t11 5.5q0 47 -3.5 70.5t-10.5 31t-18 7.5q-18 0 -27.5 -14t-9.5 -39z" />
<glyph unicode="&#x20ac;" horiz-adv-x="563" d="M10 243l5 61h43v11q0 17 1 34h-40l5 61h43q23 117 101.5 183.5t194.5 66.5q48 0 95.5 -10.5t79.5 -25.5l-25 -154q-19 12 -53 23.5t-68 11.5q-47 0 -73 -25t-36 -70h159l-5 -61h-161v-20q0 -13 1 -25h156l-5 -61h-143q10 -43 39 -67t85 -24q27 0 57 5t46 10l23 -145 q-81 -32 -171 -32q-129 0 -206 67.5t-95 185.5h-53z" />
<glyph unicode="&#x2122;" horiz-adv-x="647" d="M341 567h-1l-14 -142h-75l32 225l127 3l14 -156h1l12 153l129 3l31 -228h-97l-12 142h-1l-21 -142h-107zM183 425h-95v163l-58 -4l4 66h204l3 -66l-58 4v-163z" />
<glyph unicode="&#x2212;" horiz-adv-x="591" d="M510 256h-430v132q36 2 92 3t119 1.5t121 1t99 0.5z" />
<glyph unicode="&#x221e;" horiz-adv-x="843" d="M783 326q0 -56 -23.5 -100.5t-65 -70t-96.5 -25.5q-61 0 -103.5 28t-74.5 67q-31 -44 -77 -69.5t-105 -25.5q-52 0 -92.5 25t-63 69t-22.5 100t23.5 100.5t65 70t96.5 25.5q61 0 103 -28t75 -67q31 44 77 69.5t105 25.5q53 0 93 -25t62.5 -68.5t22.5 -100.5zM572 401 q-25 0 -49 -17.5t-39 -39.5q26 -38 51 -65t54 -27q21 0 38 19.5t17 53.5q0 35 -20 55.5t-52 20.5zM199 325q0 -35 20 -55.5t52 -20.5q25 0 49 17.5t39 39.5q-26 38 -51 65t-54 27q-21 0 -38 -19t-17 -54z" />
<glyph unicode="&#x2248;" horiz-adv-x="644" d="M205 388q-7 0 -21 -14t-32 -35l-72 34q15 32 35 68t44.5 61.5t51.5 25.5q21 0 54.5 -6.5t69 -15.5t64.5 -15.5t40 -6.5q8 0 21.5 14t32.5 35l71 -34q-15 -32 -35 -68t-44 -61.5t-52 -25.5q-21 0 -54 6.5t-69 15.5t-64.5 15.5t-40.5 6.5zM205 164q-7 0 -21 -14t-32 -35 l-72 34q15 32 35 68t44.5 61.5t51.5 25.5q21 0 54.5 -6.5t69 -15.5t64.5 -15.5t40 -6.5q8 0 21.5 14t32.5 35l71 -34q-15 -32 -35 -68t-44 -61.5t-52 -25.5q-21 0 -54 6.5t-69 15.5t-64.5 15.5t-40.5 6.5z" />
<glyph unicode="&#x2260;" horiz-adv-x="599" d="M184 23l-69 39l46 87h-81v132q28 1 68 2t85 2l42 78h-195v132q30 1 73.5 2t94 2t100.5 1l66 125l11 3l69 -39l-47 -88h64l-1 -138h-136l-41 -77q51 0 97.5 0.5t80.5 0.5l-1 -138h-250l-65 -123z" />
<glyph unicode="&#x2264;" horiz-adv-x="605" d="M520 615v-147l-227 -53l226 -50v-152q-31 8 -75 21t-95 28.5t-101 32t-92.5 31.5t-70.5 25v125zM515 36h-430v132q36 2 92 3t119 1.5t121 1t99 0.5z" />
<glyph unicode="&#x2265;" horiz-adv-x="609" d="M89 213v147l227 53l-226 50v152q31 -8 75 -21t95 -28.5t101 -32t92.5 -31t70.5 -25.5v-125zM515 36h-430v132q36 2 92 3t119 1.5t121 1t99 0.5z" />
<glyph unicode="&#x25fc;" horiz-adv-x="510" d="M0 510h510v-510h-510v510z" />
<glyph unicode="&#xfb00;" horiz-adv-x="705" d="M278 0h-210v387l-55 2v53l65 20v2q-10 14 -18 35t-8 45q0 64 58 100t150 36q49 0 91.5 -9t71.5 -19q56 43 158 43q43 0 80.5 -7t58.5 -18l-22 -139q-19 7 -40.5 10.5t-38.5 3.5q-52 0 -52 -51q0 -5 1 -14t3 -18h132l-8 -83l-97 3v-382h-210v387l-110 3v-390zM247 490 q0 -5 1 -12.5t3 -15.5h147v2q-20 25 -25 67q-16 7 -35 10.5t-32 3.5q-27 0 -43 -14t-16 -41z" />
<glyph unicode="&#xfb01;" horiz-adv-x="650" d="M278 0h-210v388l-55 1v53l65 20v2q-11 14 -18.5 36.5t-7.5 46.5q0 72 69.5 110t186.5 38q57 0 111 -7.5t81 -17.5l-22 -139q-34 7 -71 10.5t-66 3.5q-44 0 -69 -12t-25 -39q0 -5 1 -14t3 -18h127l190 38l30 -4v-496h-210v369l-1 10l-109 3v-382z" />
<glyph unicode="&#xfb02;" horiz-adv-x="650" d="M278 0h-210v387l-55 2v53l65 20v2q-10 14 -18 35t-8 45q0 64 61 100t161 36q32 0 61.5 -3.5t53.5 -7.5l209 26v-695h-210v387l-110 2v-389zM247 491q0 -6 1 -13.5t3 -15.5h137v70q-17 6 -40 9.5t-40 3.5q-61 0 -61 -54z" />
<glyph unicode="&#xfb03;" horiz-adv-x="961" d="M278 0h-210v387l-55 2v53l65 20v2q-10 14 -18 35t-8 45q0 64 58 100t150 36q52 0 97 -10t72 -20q68 45 199 45q57 0 111 -7.5t81 -17.5l-22 -139q-34 7 -71 10.5t-66 3.5q-44 0 -69 -12t-25 -39q0 -5 1 -14t3 -18h127l190 38l30 -4v-496h-210v369l-1 10l-109 3v-382h-210 v387l-110 3v-390zM247 490q0 -5 1 -12.5t3 -15.5h147v2q-21 26 -25 67q-16 7 -35 10.5t-32 3.5q-27 0 -43 -14t-16 -41z" />
<glyph unicode="&#xfb04;" horiz-adv-x="970" d="M278 0h-210v387l-55 2v53l65 20v2q-10 14 -18 35t-8 45q0 64 58 100t150 36q56 0 102.5 -11t73.5 -22l-1 -2q60 35 159 35q32 0 61.5 -3.5t53.5 -7.5l209 26v-695h-210v387l-110 2v-389h-210v387l-110 3v-390zM247 490q0 -5 1 -12.5t3 -15.5h147v2q-9 12 -16 29.5 t-9 37.5q-17 7 -35.5 10.5t-31.5 3.5q-27 0 -43 -14t-16 -41zM567 491q0 -6 1 -13.5t3 -15.5h137v70q-17 6 -40 9.5t-40 3.5q-61 0 -61 -54z" />
<glyph unicode="&#xfb06;" horiz-adv-x="902" d="M459 147q0 -70 -59.5 -113.5t-174.5 -43.5q-46 0 -100 7t-90 19l10 160q26 -14 57.5 -23.5t62 -14.5t51.5 -5t29.5 4.5t8.5 14.5q0 14 -14 22t-37.5 16.5t-53.5 21.5q-44 20 -75.5 51.5t-31.5 83.5q0 51 31 87.5t84 56t119 19.5q45 0 86 -9q-16 25 -16 56q0 44 29 79 t80 55.5t117 20.5q87 0 139.5 -35.5t52.5 -97.5q0 -28 -10 -51.5t-23 -37.5h146l-8 -83l-120 3v-186q0 -37 15 -60t44 -23q15 0 35.5 5t33.5 11l-2 -139q-16 -9 -55 -18.5t-86 -9.5q-94 0 -144.5 47t-50.5 153v226l-55 1l6 55l69 18q6 5 10.5 17t4.5 27q0 28 -17 46t-52 18 t-58.5 -19t-23.5 -47q0 -30 24 -62l-15 -144q-43 20 -85 30.5t-65 10.5q-16 0 -25.5 -5t-9.5 -16q0 -13 14 -22.5t34 -16.5t39 -15q31 -12 59.5 -30.5t47 -46t18.5 -68.5z" />
<glyph horiz-adv-x="441" d="M255 5q-4 8 -9.5 24.5t-9.5 32.5q-13 -25 -43 -41t-73 -16q-49 0 -74.5 26t-25.5 63q0 61 58.5 89t156.5 28v3q0 20 -14.5 30.5t-50.5 10.5q-30 0 -58.5 -8t-57.5 -20l-8 127q38 11 85 18t94 7q85 0 131.5 -34.5t46.5 -117.5q0 -21 -2 -48t-2 -54q0 -23 3.5 -55t12.5 -58 zM188 133q0 -22 8.5 -34t21.5 -12q9 0 15 3l1 88q-20 -2 -33 -12.5t-13 -32.5z" />
<glyph horiz-adv-x="478" d="M38 505l176 7v-188q14 24 41.5 39.5t60.5 15.5q56 0 94 -46t38 -132q0 -67 -23.5 -110.5t-64.5 -64.5t-92 -21q-23 0 -46 4t-41 10l-135 -14v405zM233 288q-10 0 -19 -1v-194q7 -1 14 -1q30 0 39 20.5t9 79.5q0 39 -7 67.5t-36 28.5z" />
<glyph horiz-adv-x="385" d="M360 361l-12 -129q-19 14 -40.5 23t-41.5 9q-25 0 -44.5 -15.5t-19.5 -55.5q0 -28 16.5 -48.5t60.5 -20.5q37 0 76 12l-2 -111q-16 -9 -45 -14.5t-64 -5.5q-56 0 -105 20t-79 61.5t-30 106.5q0 64 30.5 105t80 61t107.5 20q35 0 62.5 -5t49.5 -13z" />
<glyph horiz-adv-x="486" d="M287 5q-3 6 -8.5 20.5t-9.5 30.5q-16 -22 -44.5 -36.5t-61.5 -14.5q-59 0 -96 48.5t-37 129.5q0 67 24 110.5t64 64.5t86 21q18 0 33 -3t27 -7v41l-8 95l176 7v-383q0 -31 3.5 -60.5t12.5 -56.5zM202 190q0 -38 7 -68t36 -30q9 0 19 1v199h-7.5h-5.5q-30 0 -39.5 -19.5 t-9.5 -82.5z" />
<glyph horiz-adv-x="446" d="M400 25q-21 -9 -60.5 -14.5t-77.5 -5.5q-66 0 -118.5 20t-83 61.5t-30.5 106.5t29.5 106t77.5 60.5t103 19.5q80 0 129 -38.5t49 -99.5q0 -14 -2 -28t-5 -27l-12 -13h-189q9 -26 32 -37.5t66 -11.5q52 0 94 11zM202 230v-16l54 4q3 18 3 33q0 20 -6.5 32t-19.5 12 q-17 0 -24 -20.5t-7 -44.5z" />
<glyph horiz-adv-x="330" d="M226 12h-168v273l-44 1v42l52 15v2q-9 9 -15 26t-6 31q0 54 46 82t121 28q35 0 65 -5.5t47 -13.5l-18 -110q-16 5 -32.5 7.5t-30.5 2.5q-42 0 -42 -33q0 -5 3 -17h106l-6 -65l-78 2v-268z" />
<glyph horiz-adv-x="454" d="M74 54q0 26 22.5 46.5t66.5 29.5q-67 8 -103 36.5t-36 80.5q0 62 50 97t133 35q47 0 83 0.5t70 2t72 5.5v-96l-89 7l-1 -1q34 -6 50 -25t16 -44q0 -35 -26 -57t-70 -32.5t-100 -10.5h-11q-2 -3 -2 -7q0 -10 11.5 -13.5t20.5 -3.5l66 -1q65 -1 104 -24t39 -78 q0 -61 -58 -93t-186 -32q-81 0 -131.5 14t-50.5 51q0 28 29 41t67 15q-36 22 -36 57zM188 245q0 -22 6 -39t23 -17q14 0 20.5 12t6.5 40q0 53 -29 53q-13 0 -20 -11t-7 -38zM174 -27q0 -23 13.5 -37t40.5 -14q26 0 43 9.5t17 25.5q0 25 -47 25h-65q-2 -5 -2 -9z" />
<glyph horiz-adv-x="482" d="M214 12h-168v398l-8 95l176 7v-201q15 31 47.5 49.5t73.5 18.5q44 0 73.5 -23.5t29.5 -77.5v-266h-168v229q0 11 -6 16t-22 5h-28v-250z" />
<glyph horiz-adv-x="258" d="M226 483q0 -40 -32 -60.5t-73 -20.5q-37 0 -62 17t-25 50q0 37 29.5 60.5t75.5 23.5q38 0 62.5 -17.5t24.5 -52.5zM214 12h-168v264l-8 96l176 7v-367z" />
<glyph horiz-adv-x="258" d="M226 483q0 -40 -32 -60.5t-73 -20.5q-37 0 -62 17t-25 50q0 37 29.5 60.5t75.5 23.5q38 0 62.5 -17.5t24.5 -52.5zM7 -69q22 32 30.5 78t8.5 102v165l-8 96l176 7v-235q0 -39 -5 -80.5t-22 -79t-51.5 -66t-93.5 -42.5z" />
<glyph horiz-adv-x="487" d="M214 12h-168v398l-8 95l176 7v-291h14l66 158l172 -7l-94 -161l101 -199l-185 -7l-56 158h-18v-151z" />
<glyph horiz-adv-x="292" d="M230 12h-168v398l-8 95l176 7v-500z" />
<glyph horiz-adv-x="698" d="M214 12h-168v265l-8 95l176 7v-68q15 33 47.5 50.5t70.5 17.5t65 -17t34 -56q14 35 47.5 54t73.5 19q44 0 73 -23.5t29 -77.5v-266h-168v229q0 10 -5 15.5t-21 5.5h-12t-14 1v-251h-168v229q0 10 -5 15.5t-21 5.5h-26v-250z" />
<glyph horiz-adv-x="482" d="M214 12h-168v265l-8 95l176 7v-68q15 32 48 50t75 18t71.5 -23.5t29.5 -77.5v-266h-168v229q0 11 -6 16t-22 5h-28v-250z" />
<glyph horiz-adv-x="468" d="M438 194q0 -66 -29 -107.5t-76.5 -61.5t-103.5 -20t-101 20t-71.5 61t-26.5 104q0 66 29 108t76.5 61.5t103.5 19.5t101 -20t71.5 -61t26.5 -104zM202 191q0 -40 5.5 -69.5t28.5 -29.5q17 0 23.5 21t6.5 82q0 58 -6 77.5t-25 19.5q-20 0 -26.5 -21t-6.5 -80z" />
<glyph horiz-adv-x="478" d="M46 277l-8 95l176 7v-52q15 22 42 37t60 15q56 0 94 -46t38 -132q0 -67 -24 -110.5t-63.5 -64.5t-86.5 -21q-18 0 -33 3t-27 7v-44q0 -19 2 -43.5t6 -48.5l-176 -7v405zM233 292q-9 0 -19 -1v-199h7.5h6.5q30 0 39 20t9 82q0 40 -7 69t-36 29z" />
<glyph horiz-adv-x="475" d="M440 -117l-176 -7v185q-14 -25 -42 -40.5t-62 -15.5q-57 0 -93.5 45t-36.5 124q0 69 27.5 114.5t74.5 68t106 22.5q15 0 30 -1.5t29 -4.5l135 6v-404q0 -22 2.5 -45.5t5.5 -46.5zM202 173q0 -28 7 -52.5t36 -24.5q9 0 19 1v195h-5q-32 0 -44.5 -24t-12.5 -95z" />
<glyph horiz-adv-x="353" d="M214 12h-168v265l-8 95l176 7v-111q5 24 17 49.5t30.5 43.5t44.5 18q11 0 20 -2.5t13 -5.5l-11 -165q-17 4 -30 6t-28 3q-12 2 -28.5 5.5t-27.5 9.5v-218z" />
<glyph horiz-adv-x="399" d="M369 121q0 -52 -47.5 -84t-139.5 -32q-38 0 -81.5 5t-70.5 13l8 126q34 -16 74.5 -23t62.5 -7q18 0 24 1t6 5q0 13 -24.5 18t-59.5 19t-60 37t-25 61q0 56 54.5 87.5t136.5 31.5q34 0 67 -5t62 -13l-8 -125q-34 14 -68.5 21.5t-51.5 7.5q-11 0 -19.5 -1.5t-8.5 -6.5 q0 -12 23 -18.5t45 -13.5q38 -12 69.5 -36t31.5 -68z" />
<glyph horiz-adv-x="358" d="M326 301l-92 2v-121q0 -26 12 -41.5t35 -15.5q11 0 28 3t27 7l-1 -110q-14 -7 -46.5 -13.5t-70.5 -6.5q-76 0 -116 35.5t-40 114.5v153l-44 1v41l60 16v1l38 81l118 7v-89h98z" />
<glyph horiz-adv-x="485" d="M44 98v274l168 7v-263q0 -10 6 -15.5t22 -5.5h11.5h11.5v277l168 7v-252q0 -25 3.5 -56.5t12.5 -58.5l-160 -7q-5 8 -12 29t-10 37q-17 -27 -49 -46.5t-74 -19.5q-46 0 -72 23.5t-26 69.5z" />
<glyph horiz-adv-x="446" d="M428 372q-16 -102 -38 -193t-48 -167h-247l-77 360l175 7l43 -281h1l32 281z" />
<glyph horiz-adv-x="684" d="M91 12l-73 360l167 7l31 -281h1l35 273h184l38 -273h2l28 281l162 -7q-16 -100 -38 -193.5t-48 -166.5h-214l-26 192h-2q-7 -55 -18.5 -100t-28.5 -92h-200z" />
<glyph horiz-adv-x="442" d="M250 12l-49 104l-37 -104h-148q14 29 27.5 56t31 59t43.5 76l-94 169l166 7l51 -118l37 118l148 -7q-22 -48 -47.5 -96t-53.5 -96l93 -168h-168z" />
<glyph horiz-adv-x="444" d="M88 -128q-34 0 -59.5 2.5t-50.5 7.5v124q29 -7 67.5 -10.5t61.5 -3.5q32 0 61.5 4.5t51 13.5t26.5 22h-158l-72 340l175 7l42 -281h2l32 281l159 -7q-9 -65 -24 -135.5t-31.5 -130t-30.5 -94.5q-22 -54 -54 -84.5t-80 -43t-118 -12.5z" />
<glyph horiz-adv-x="390" d="M362 12h-326l-16 96l159 144q-38 0 -77 -1.5t-75 -5.5l10 127h316l6 -96l-159 -144h10q44 0 84 3t76 8z" />
<glyph horiz-adv-x="441" d="M255 365q-4 8 -9.5 24.5t-9.5 32.5q-13 -25 -43 -41t-73 -16q-49 0 -74.5 26t-25.5 63q0 61 58.5 89t156.5 28v3q0 20 -14.5 30.5t-50.5 10.5q-30 0 -58.5 -8t-57.5 -20l-8 127q38 11 85 18t94 7q85 0 131.5 -34.5t46.5 -117.5q0 -21 -2 -48t-2 -54q0 -23 3.5 -55 t12.5 -58zM188 493q0 -22 8.5 -34t21.5 -12q9 0 15 3l1 88q-20 -2 -33 -12.5t-13 -32.5z" />
<glyph horiz-adv-x="478" d="M38 865l176 7v-188q14 24 41.5 39.5t60.5 15.5q56 0 94 -46t38 -132q0 -67 -23.5 -110.5t-64.5 -64.5t-92 -21q-23 0 -46 4t-41 10l-135 -14v405zM233 648q-10 0 -19 -1v-194q7 -1 14 -1q30 0 39 20.5t9 79.5q0 39 -7 67.5t-36 28.5z" />
<glyph horiz-adv-x="385" d="M360 721l-12 -129q-19 14 -40.5 23t-41.5 9q-25 0 -44.5 -15.5t-19.5 -55.5q0 -28 16.5 -48.5t60.5 -20.5q37 0 76 12l-2 -111q-16 -9 -45 -14.5t-64 -5.5q-56 0 -105 20t-79 61.5t-30 106.5q0 64 30.5 105t80 61t107.5 20q35 0 62.5 -5t49.5 -13z" />
<glyph horiz-adv-x="486" d="M287 365q-3 6 -8.5 20.5t-9.5 30.5q-16 -22 -44.5 -36.5t-61.5 -14.5q-59 0 -96 48.5t-37 129.5q0 67 24 110.5t64 64.5t86 21q18 0 33 -3t27 -7v41l-8 95l176 7v-383q0 -31 3.5 -60.5t12.5 -56.5zM202 550q0 -38 7 -68t36 -30q9 0 19 1v199h-7.5h-5.5q-30 0 -39.5 -19.5 t-9.5 -82.5z" />
<glyph horiz-adv-x="446" d="M400 385q-21 -9 -60.5 -14.5t-77.5 -5.5q-66 0 -118.5 20t-83 61.5t-30.5 106.5t29.5 106t77.5 60.5t103 19.5q80 0 129 -38.5t49 -99.5q0 -14 -2 -28t-5 -27l-12 -13h-189q9 -26 32 -37.5t66 -11.5q52 0 94 11zM202 590v-16l54 4q3 18 3 33q0 20 -6.5 32t-19.5 12 q-17 0 -24 -20.5t-7 -44.5z" />
<glyph horiz-adv-x="330" d="M226 372h-168v273l-44 1v42l52 15v2q-9 9 -15 26t-6 31q0 54 46 82t121 28q35 0 65 -5.5t47 -13.5l-18 -110q-16 5 -32.5 7.5t-30.5 2.5q-42 0 -42 -33q0 -5 3 -17h106l-6 -65l-78 2v-268z" />
<glyph horiz-adv-x="454" d="M74 414q0 26 22.5 46.5t66.5 29.5q-67 8 -103 36.5t-36 80.5q0 62 50 97t133 35q47 0 83 0.5t70 2t72 5.5v-96l-89 7l-1 -1q34 -6 50 -25t16 -44q0 -35 -26 -57t-70 -32.5t-100 -10.5h-11q-2 -3 -2 -7q0 -10 11.5 -13.5t20.5 -3.5l66 -1q65 -1 104 -24t39 -78 q0 -61 -58 -93t-186 -32q-81 0 -131.5 14t-50.5 51q0 28 29 41t67 15q-36 22 -36 57zM188 605q0 -22 6 -39t23 -17q14 0 20.5 12t6.5 40q0 53 -29 53q-13 0 -20 -11t-7 -38zM174 333q0 -23 13.5 -37t40.5 -14q26 0 43 9.5t17 25.5q0 25 -47 25h-65q-2 -5 -2 -9z" />
<glyph horiz-adv-x="482" d="M214 372h-168v398l-8 95l176 7v-201q15 31 47.5 49.5t73.5 18.5q44 0 73.5 -23.5t29.5 -77.5v-266h-168v229q0 11 -6 16t-22 5h-28v-250z" />
<glyph horiz-adv-x="258" d="M226 843q0 -40 -32 -60.5t-73 -20.5q-37 0 -62 17t-25 50q0 37 29.5 60.5t75.5 23.5q38 0 62.5 -17.5t24.5 -52.5zM214 372h-168v264l-8 96l176 7v-367z" />
<glyph horiz-adv-x="258" d="M226 843q0 -40 -32 -60.5t-73 -20.5q-37 0 -62 17t-25 50q0 37 29.5 60.5t75.5 23.5q38 0 62.5 -17.5t24.5 -52.5zM7 291q22 32 30.5 78t8.5 102v165l-8 96l176 7v-235q0 -39 -5 -80.5t-22 -79t-51.5 -66t-93.5 -42.5z" />
<glyph horiz-adv-x="487" d="M214 372h-168v398l-8 95l176 7v-291h14l66 158l172 -7l-94 -161l101 -199l-185 -7l-56 158h-18v-151z" />
<glyph horiz-adv-x="292" d="M230 372h-168v398l-8 95l176 7v-500z" />
<glyph horiz-adv-x="698" d="M214 372h-168v265l-8 95l176 7v-68q15 33 47.5 50.5t70.5 17.5t65 -17t34 -56q14 35 47.5 54t73.5 19q44 0 73 -23.5t29 -77.5v-266h-168v229q0 10 -5 15.5t-21 5.5h-12t-14 1v-251h-168v229q0 10 -5 15.5t-21 5.5h-26v-250z" />
<glyph horiz-adv-x="468" d="M438 554q0 -66 -29 -107.5t-76.5 -61.5t-103.5 -20t-101 20t-71.5 61t-26.5 104q0 66 29 108t76.5 61.5t103.5 19.5t101 -20t71.5 -61t26.5 -104zM202 551q0 -40 5.5 -69.5t28.5 -29.5q17 0 23.5 21t6.5 82q0 58 -6 77.5t-25 19.5q-20 0 -26.5 -21t-6.5 -80z" />
<glyph horiz-adv-x="478" d="M46 637l-8 95l176 7v-52q15 22 42 37t60 15q56 0 94 -46t38 -132q0 -67 -24 -110.5t-63.5 -64.5t-86.5 -21q-18 0 -33 3t-27 7v-44q0 -19 2 -43.5t6 -48.5l-176 -7v405zM233 652q-9 0 -19 -1v-199h7.5h6.5q30 0 39 20t9 82q0 40 -7 69t-36 29z" />
<glyph horiz-adv-x="475" d="M440 243l-176 -7v185q-14 -25 -42 -40.5t-62 -15.5q-57 0 -93.5 45t-36.5 124q0 69 27.5 114.5t74.5 68t106 22.5q15 0 30 -1.5t29 -4.5l135 6v-404q0 -22 2.5 -45.5t5.5 -46.5zM202 533q0 -28 7 -52.5t36 -24.5q9 0 19 1v195h-5q-32 0 -44.5 -24t-12.5 -95z" />
<glyph horiz-adv-x="353" d="M214 372h-168v265l-8 95l176 7v-111q5 24 17 49.5t30.5 43.5t44.5 18q11 0 20 -2.5t13 -5.5l-11 -165q-17 4 -30 6t-28 3q-12 2 -28.5 5.5t-27.5 9.5v-218z" />
<glyph horiz-adv-x="399" d="M369 481q0 -52 -47.5 -84t-139.5 -32q-38 0 -81.5 5t-70.5 13l8 126q34 -16 74.5 -23t62.5 -7q18 0 24 1t6 5q0 13 -24.5 18t-59.5 19t-60 37t-25 61q0 56 54.5 87.5t136.5 31.5q34 0 67 -5t62 -13l-8 -125q-34 14 -68.5 21.5t-51.5 7.5q-11 0 -19.5 -1.5t-8.5 -6.5 q0 -12 23 -18.5t45 -13.5q38 -12 69.5 -36t31.5 -68z" />
<glyph horiz-adv-x="358" d="M326 661l-92 2v-121q0 -26 12 -41.5t35 -15.5q11 0 28 3t27 7l-1 -110q-14 -7 -46.5 -13.5t-70.5 -6.5q-76 0 -116 35.5t-40 114.5v153l-44 1v41l60 16v1l38 81l118 7v-89h98z" />
<glyph horiz-adv-x="485" d="M44 458v274l168 7v-263q0 -10 6 -15.5t22 -5.5h11.5h11.5v277l168 7v-252q0 -25 3.5 -56.5t12.5 -58.5l-160 -7q-5 8 -12 29t-10 37q-17 -27 -49 -46.5t-74 -19.5q-46 0 -72 23.5t-26 69.5z" />
<glyph horiz-adv-x="446" d="M428 732q-16 -102 -38 -193t-48 -167h-247l-77 360l175 7l43 -281h1l32 281z" />
<glyph horiz-adv-x="684" d="M91 372l-73 360l167 7l31 -281h1l35 273h184l38 -273h2l28 281l162 -7q-16 -100 -38 -193.5t-48 -166.5h-214l-26 192h-2q-7 -55 -18.5 -100t-28.5 -92h-200z" />
<glyph horiz-adv-x="442" d="M250 372l-49 104l-37 -104h-148q14 29 27.5 56t31 59t43.5 76l-94 169l166 7l51 -118l37 118l148 -7q-22 -48 -47.5 -96t-53.5 -96l93 -168h-168z" />
<glyph horiz-adv-x="444" d="M88 232q-34 0 -59.5 2.5t-50.5 7.5v124q29 -7 67.5 -10.5t61.5 -3.5q32 0 61.5 4.5t51 13.5t26.5 22h-158l-72 340l175 7l42 -281h2l32 281l159 -7q-9 -65 -24 -135.5t-31.5 -130t-30.5 -94.5q-22 -53 -54 -84t-80 -43.5t-118 -12.5z" />
<glyph horiz-adv-x="390" d="M362 372h-326l-16 96l159 144q-38 0 -77 -1.5t-75 -5.5l10 127h316l6 -96l-159 -144h10q44 0 84 3t76 8z" />
<glyph horiz-adv-x="1050" d="M718 0h-210v555q-12 1 -21 1q-54 0 -54 -44q0 -28 15 -58l-26 -133q-23 20 -49.5 32t-52.5 12q-31 0 -55.5 -25.5t-24.5 -88.5q0 -48 20.5 -80t75.5 -32q25 0 49 5.5t46 13.5l-2 -139q-19 -13 -56 -21t-78 -8q-71 0 -133 28t-99.5 85.5t-37.5 145.5q0 67 22 116.5 t59.5 81.5t84.5 47.5t96 15.5q35 0 66 -7q-7 24 -7 47q0 69 56.5 115.5t164.5 46.5q29 0 71.5 -4t79.5 -13v-279q19 44 60 69t91 25q56 0 92.5 -35t36.5 -109v-366h-210v320q0 43 -35 43q-16 0 -35 -7v-356z" />
<glyph horiz-adv-x="876" d="M448 454l-26 -133q-23 20 -49.5 32t-52.5 12q-31 0 -55.5 -25.5t-24.5 -88.5q0 -48 20.5 -80t75.5 -32q25 0 49 5.5t46 13.5l-2 -139q-19 -13 -56 -21t-78 -8q-71 0 -133 28t-99.5 85.5t-37.5 145.5q0 67 22 116.5t59.5 81.5t84.5 47.5t96 15.5q35 0 66 -7q-11 23 -11 54 q0 41 24.5 76.5t71 57t111.5 21.5q84 0 136.5 -35.5t52.5 -96.5q0 -29 -10 -52.5t-23 -37.5h146l-8 -83l-120 3v-186q0 -37 15 -60t44 -23q15 0 35.5 5t33.5 11l-2 -139q-16 -9 -55 -18.5t-86 -9.5q-94 0 -144.5 47t-50.5 153v226l-41 1l11 55l50 18q6 5 10.5 17t4.5 26 q0 29 -17 47t-47 18t-47.5 -19.5t-17.5 -48.5q0 -17 7 -36.5t22 -39.5z" />
<glyph horiz-adv-x="1076" d="M459 147q0 -70 -59.5 -113.5t-174.5 -43.5q-46 0 -100 7t-90 19l10 160q26 -14 57.5 -23.5t62 -14.5t51.5 -5t29.5 4.5t8.5 14.5q0 14 -14 22t-37.5 16.5t-53.5 21.5q-44 20 -75.5 51.5t-31.5 83.5q0 51 31 87.5t84 56t119 19.5q39 0 75 -7q-14 23 -14 51q0 43 29 79 t85.5 57.5t138.5 21.5q32 0 74.5 -4t79.5 -13v-279q19 44 60 69t91 25q56 0 92.5 -35t36.5 -109v-366h-210v320q0 43 -35 43q-16 0 -35 -7v-356h-210v551q-23 5 -45 5q-31 0 -48.5 -13.5t-17.5 -33.5q0 -9 5.5 -19.5t18.5 -19.5l-15 -144q-43 20 -85 30.5t-65 10.5 q-16 0 -25.5 -5t-9.5 -16q0 -13 14 -22.5t34 -16.5t39 -15q31 -12 59.5 -30.5t47 -46t18.5 -68.5z" />
<glyph horiz-adv-x="433" d="M403 181q0 -65 -26.5 -106t-70 -60.5t-94.5 -19.5t-92.5 19t-65.5 58.5t-24 100.5q0 62 25.5 104t69 64t97.5 22q83 0 132 -48t49 -134zM173 182q0 -54 9 -84.5t36 -30.5q19 0 28 14.5t11.5 37.5t2.5 48q0 64 -9 94t-35 30q-25 0 -34 -27t-9 -82z" />
<glyph horiz-adv-x="328" d="M238 0h-140v277l-61 -23l-17 60l210 51l8 -7v-358z" />
<glyph horiz-adv-x="414" d="M336 0h-286l-10 79q18 9 43.5 28t50.5 42.5t41.5 47.5t16.5 43q0 17 -13 26.5t-33 9.5q-23 0 -48.5 -10t-45.5 -25l-12 94q24 11 64 20.5t85 9.5q74 0 117 -29t43 -73q0 -32 -24 -62t-64.5 -53.5t-91.5 -38.5h45q31 0 64 2.5t64 6.5z" />
<glyph horiz-adv-x="373" d="M343 97q0 -47 -49 -75.5t-132 -28.5q-29 0 -59 3t-53 9l11 75q14 -7 33.5 -11t35.5 -4q26 0 41 11t15 30q0 20 -17.5 29t-44.5 9q-11 0 -23 -1t-17 -2v43q38 11 67 27.5t29 35.5q0 14 -13 21.5t-33 7.5q-38 0 -76 -18l-4 80q25 11 60.5 19t75.5 8q68 0 107.5 -24.5 t39.5 -59.5q0 -34 -33.5 -57t-93.5 -35q60 -5 96.5 -29t36.5 -63z" />
<glyph horiz-adv-x="440" d="M331 0h-140v44h-165l-6 57l211 264l100 -5v-203q31 2 54 5l-6 -118h-48v-44zM191 259l-83 -105h83v105z" />
<glyph horiz-adv-x="412" d="M367 110q0 -59 -55.5 -88t-142.5 -29q-25 0 -57 2.5t-57 9.5l11 72q16 -5 41.5 -8.5t39.5 -3.5q27 0 45 10.5t18 32.5q0 21 -17 31.5t-42 10.5q-16 0 -34.5 -4t-32.5 -6l-10 5v213h156q27 0 58.5 1t59.5 4l-6 -115h-201v-52q19 5 41 8.5t47 3.5q63 0 100.5 -26t37.5 -72z " />
<glyph horiz-adv-x="409" d="M206 -7q-48 0 -88 17t-64 53t-24 91q0 64 32 111t88.5 73.5t130.5 26.5q17 0 32 -1.5t22 -3.5l-10 -73q-9 2 -21.5 4t-22.5 2q-34 0 -64 -22.5t-41 -72.5q14 14 37 21.5t47 7.5q47 0 83 -27.5t36 -78.5q0 -41 -24 -69.5t-63 -43.5t-86 -15zM203 65q20 0 29.5 14t9.5 36 t-9.5 38.5t-32.5 16.5q-16 0 -27 -8q0 -41 3 -62t10 -28t17 -7z" />
<glyph horiz-adv-x="379" d="M223 0h-156q6 67 52 134.5t135 113.5h-89q-35 0 -67 -2t-61 -6l6 118h294l8 -7l4 -67q-64 -67 -94 -134t-32 -150z" />
<glyph horiz-adv-x="423" d="M203 -7q-81 0 -127 27t-46 64q0 28 27.5 49.5t75.5 27.5q-38 16 -62.5 40.5t-24.5 58.5q0 47 47 76t122 29q74 0 118 -26.5t44 -66.5q0 -25 -21.5 -43.5t-63.5 -25.5q54 -18 77.5 -46t23.5 -55q0 -26 -21 -51t-63 -41.5t-106 -16.5zM211 293q-12 0 -21.5 -5.5t-9.5 -16.5 q0 -12 12.5 -23t34.5 -20q16 16 16 34q0 15 -9 23t-23 8zM209 65q20 0 33.5 9.5t13.5 22.5q0 24 -62 36q-27 -16 -27 -36q0 -13 11 -22.5t31 -9.5z" />
<glyph horiz-adv-x="419" d="M40 234q0 43 24 72t63 44t85 15q49 0 89 -17t64 -52.5t24 -91.5q0 -63 -32 -110.5t-88.5 -74t-130.5 -26.5q-17 0 -32 1.5t-22 3.5l10 73q9 -2 21.5 -4t22.5 -2q35 0 66 20.5t39 62.5q-15 -14 -37.5 -21.5t-45.5 -7.5q-48 0 -84 31t-36 84zM177 240q0 -23 10 -43.5 t33 -20.5q8 0 15 2.5t11 5.5q0 47 -3.5 70.5t-10.5 31t-18 7.5q-18 0 -27.5 -14t-9.5 -39z" />
<glyph horiz-adv-x="631" d="M601 329q0 -117 -40.5 -192t-107.5 -111t-145 -36q-79 0 -142 35.5t-99.5 107.5t-36.5 182q0 113 38.5 189.5t105 116t150.5 39.5q85 0 147 -39.5t96 -113.5t34 -178zM245 330q0 -106 15 -168t58 -62q30 0 44.5 28t19 75.5t4.5 104.5q0 119 -14.5 180.5t-57.5 61.5 q-40 0 -54.5 -54.5t-14.5 -165.5z" />
<glyph horiz-adv-x="440" d="M350 0h-210v525l-95 -45l-25 93l318 87l12 -10v-650z" />
<glyph horiz-adv-x="578" d="M494 0h-439l-15 118q22 17 52.5 45t63 63t60 74t45 78t17.5 74q0 32 -20.5 52.5t-58.5 20.5q-34 0 -72.5 -16.5t-68.5 -45.5l-17 142q37 20 97.5 37.5t130.5 17.5q111 0 177.5 -49.5t66.5 -134.5q0 -47 -25.5 -91.5t-70 -85.5t-102.5 -75.5t-123 -59.5h113q104 0 198 15z " />
<glyph horiz-adv-x="529" d="M499 176q0 -56 -34 -98t-96 -65t-148 -23q-43 0 -89 6t-82 17l16 114q20 -11 50.5 -19t55.5 -8q42 0 67 24.5t25 66.5q0 44 -28.5 62.5t-70.5 18.5q-16 0 -33.5 -2t-28.5 -4v67q40 15 74.5 35.5t55.5 45t21 50.5q0 29 -20.5 45t-53.5 16q-27 0 -59 -9.5t-58 -25.5l-7 121 q35 19 89.5 34t118.5 15q106 0 165.5 -42.5t59.5 -104.5q0 -61 -56 -104.5t-152 -66.5q98 -7 158 -49.5t60 -116.5z" />
<glyph horiz-adv-x="633" d="M494 0h-210v97h-255l-9 86l324 477l150 -10v-394q43 4 84 10l-9 -169h-75v-97zM284 479l-162 -228h162v228z" />
<glyph horiz-adv-x="577" d="M532 199q0 -68 -38.5 -115t-106.5 -70.5t-157 -23.5q-45 0 -91 6t-84 17l16 110q17 -6 40 -11.5t46.5 -8.5t39.5 -3q44 0 72 24t28 72q0 47 -26.5 69.5t-67.5 22.5q-24 0 -52.5 -6.5t-51.5 -11.5l-14 9v371h238q46 0 91.5 2.5t88.5 7.5l-9 -174h-308v-129q28 9 62.5 15 t71.5 6q98 0 155 -48t57 -131z" />
<glyph horiz-adv-x="593" d="M301 -10q-75 0 -136.5 31.5t-98 96.5t-36.5 164q0 115 49 200t135 131.5t196 46.5q27 0 51 -2.5t35 -7.5l-15 -111q-14 5 -33.5 8t-34.5 3q-35 0 -69 -21t-59.5 -66t-34.5 -118q21 29 56.5 44.5t76.5 15.5q48 0 89 -22.5t66 -65t25 -102.5q0 -71 -36 -121.5t-95.5 -77 t-130.5 -26.5zM296 100q31 0 46.5 29.5t15.5 75.5t-16 78.5t-49 32.5q-27 0 -48 -16q0 -78 4 -121.5t15 -61t32 -17.5z" />
<glyph horiz-adv-x="544" d="M319 0h-235q6 88 41 178t99 170t157 138h-146q-103 0 -198 -15l9 179h450l12 -10l6 -100q-99 -120 -145.5 -253t-49.5 -287z" />
<glyph horiz-adv-x="614" d="M30 152q0 51 45 91t122 53q-62 29 -102 75.5t-40 107.5q0 55 32.5 95.5t91 63t134.5 22.5q74 0 129.5 -21t86 -57.5t30.5 -83.5q0 -50 -36 -85t-105 -49q88 -31 127 -81t39 -102q0 -48 -32 -92t-95.5 -71.5t-159.5 -27.5q-82 0 -142 21.5t-92.5 58t-32.5 82.5zM255 497 q0 -28 19.5 -51.5t53.5 -42.5q31 37 31 81q0 32 -15 49t-38 17q-20 0 -35.5 -13.5t-15.5 -39.5zM235 170q0 -28 18 -49t50 -21t54 20.5t22 50.5q0 29 -24 48t-71 35q-25 -18 -37 -39.5t-12 -44.5z" />
<glyph horiz-adv-x="603" d="M573 368q0 -115 -49 -200t-134.5 -131.5t-196.5 -46.5q-27 0 -51 3t-35 7l15 111q14 -4 33.5 -7.5t34.5 -3.5q35 0 69 19t59 59.5t35 105.5q-22 -28 -56.5 -43.5t-73.5 -15.5q-49 0 -90.5 24.5t-67 69.5t-25.5 107q0 71 34 123.5t93 81.5t135 29t137 -31.5t97.5 -96 t36.5 -164.5zM245 436q0 -48 16 -85t50 -37q26 0 47 16q0 86 -4 134t-15 67t-32 19q-31 0 -46.5 -30.5t-15.5 -83.5z" />
<glyph horiz-adv-x="433" d="M403 473q0 -65 -26.5 -106t-70 -60.5t-94.5 -19.5t-92.5 19t-65.5 58.5t-24 100.5q0 62 25.5 104t69 64t97.5 22q83 0 132 -48t49 -134zM173 474q0 -54 9 -84.5t36 -30.5q19 0 28 14.5t11.5 37.5t2.5 48q0 64 -9 94t-35 30q-25 0 -34 -27t-9 -82z" />
<glyph horiz-adv-x="328" d="M238 292h-140v277l-61 -23l-17 60l210 51l8 -7v-358z" />
<glyph horiz-adv-x="414" d="M336 292h-286l-10 79q18 9 43.5 28t50.5 42.5t41.5 47.5t16.5 43q0 17 -13 26.5t-33 9.5q-23 0 -48.5 -10t-45.5 -25l-12 94q24 11 64 20.5t85 9.5q74 0 117 -29t43 -73q0 -32 -24 -62t-64.5 -53.5t-91.5 -38.5h45q31 0 64 2.5t64 6.5z" />
<glyph horiz-adv-x="373" d="M343 389q0 -47 -49 -75.5t-132 -28.5q-29 0 -59 3t-53 9l11 75q14 -7 33.5 -11t35.5 -4q26 0 41 11t15 30q0 20 -17.5 29t-44.5 9q-11 0 -23 -1t-17 -2v43q38 11 67 27.5t29 35.5q0 14 -13 21.5t-33 7.5q-38 0 -76 -18l-4 80q25 11 60.5 19t75.5 8q68 0 107.5 -24.5 t39.5 -59.5q0 -34 -33.5 -57t-93.5 -35q60 -5 96.5 -29t36.5 -63z" />
<glyph horiz-adv-x="440" d="M331 292h-140v44h-165l-6 57l211 264l100 -5v-203q31 2 54 5l-6 -118h-48v-44zM191 551l-83 -105h83v105z" />
<glyph horiz-adv-x="412" d="M367 402q0 -59 -55.5 -88t-142.5 -29q-25 0 -57 2.5t-57 9.5l11 72q16 -5 41.5 -8.5t39.5 -3.5q27 0 45 10.5t18 32.5q0 21 -17 31.5t-42 10.5q-16 0 -34.5 -4t-32.5 -6l-10 5v213h156q27 0 58.5 1t59.5 4l-6 -115h-201v-52q19 5 41 8.5t47 3.5q63 0 100.5 -26t37.5 -72z " />
<glyph horiz-adv-x="409" d="M206 285q-48 0 -88 17t-64 53t-24 91q0 64 32 111t88.5 73.5t130.5 26.5q17 0 32 -1.5t22 -3.5l-10 -73q-9 2 -21.5 4t-22.5 2q-34 0 -64 -22.5t-41 -72.5q14 14 37 21.5t47 7.5q47 0 83 -27.5t36 -78.5q0 -41 -24 -69.5t-63 -43.5t-86 -15zM203 357q20 0 29.5 14t9.5 36 t-9.5 38.5t-32.5 16.5q-16 0 -27 -8q0 -41 3 -62t10 -28t17 -7z" />
<glyph horiz-adv-x="379" d="M223 292h-156q6 67 52 134.5t135 113.5h-89q-35 0 -67 -2t-61 -6l6 118h294l8 -7l4 -67q-64 -67 -94 -134t-32 -150z" />
<glyph horiz-adv-x="423" d="M203 285q-81 0 -127 27t-46 64q0 28 27.5 49.5t75.5 27.5q-38 16 -62.5 40.5t-24.5 58.5q0 47 47 76t122 29q74 0 118 -26.5t44 -66.5q0 -25 -21.5 -43.5t-63.5 -25.5q54 -18 77.5 -46t23.5 -55q0 -26 -21 -51t-63 -41.5t-106 -16.5zM211 585q-12 0 -21.5 -5.5 t-9.5 -16.5q0 -12 12.5 -23t34.5 -20q16 16 16 34q0 15 -9 23t-23 8zM209 357q20 0 33.5 9.5t13.5 22.5q0 24 -62 36q-27 -16 -27 -36q0 -13 11 -22.5t31 -9.5z" />
<glyph horiz-adv-x="419" d="M40 526q0 43 24 72t63 44t85 15q49 0 89 -17t64 -52.5t24 -91.5q0 -63 -32 -110.5t-88.5 -74t-130.5 -26.5q-17 0 -32 1.5t-22 3.5l10 73q9 -2 21.5 -4t22.5 -2q35 0 66 20.5t39 62.5q-15 -14 -37.5 -21.5t-45.5 -7.5q-48 0 -84 31t-36 84zM177 532q0 -23 10 -43.5 t33 -20.5q8 0 15 2.5t11 5.5q0 47 -3.5 70.5t-10.5 31t-18 7.5q-18 0 -27.5 -14t-9.5 -39z" />
<glyph horiz-adv-x="601" d="M571 254q0 -91 -38.5 -149.5t-102 -86.5t-138.5 -28q-74 0 -133.5 27t-94 82.5t-34.5 140.5q0 88 37 148t100 91t142 31q121 0 191.5 -67.5t70.5 -188.5zM245 255q0 -71 12 -113t47 -42q34 0 43 38.5t9 98.5q0 79 -11.5 121t-45.5 42q-31 0 -42.5 -35.5t-11.5 -109.5z " />
<glyph horiz-adv-x="440" d="M350 0h-210v375l-95 -45l-25 93l318 87l12 -10v-500z" />
<glyph horiz-adv-x="558" d="M484 0h-429l-15 105q26 14 62.5 38t71.5 53t58.5 60.5t23.5 60.5q0 22 -14.5 40t-47.5 18q-29 0 -67.5 -16.5t-68.5 -45.5l-17 142q38 20 103.5 37.5t139.5 17.5q93 0 150 -36t57 -103q0 -56 -39.5 -99.5t-104 -75t-140.5 -52.5h88q104 0 198 15z" />
<glyph horiz-adv-x="529" d="M499 26q0 -56 -34 -98t-96 -65t-148 -23q-43 0 -89 6t-82 17l16 114q20 -11 50.5 -19t55.5 -8q42 0 67 24.5t25 66.5q0 44 -28.5 62.5t-70.5 18.5q-16 0 -33.5 -2t-28.5 -4v67q40 15 74.5 35.5t55.5 45t21 50.5q0 29 -20.5 45t-53.5 16q-27 0 -59 -9.5t-58 -25.5l-7 121 q35 19 89.5 34t118.5 15q106 0 165.5 -42.5t59.5 -104.5q0 -61 -56 -104.5t-152 -66.5q98 -7 158 -49.5t60 -116.5z" />
<glyph horiz-adv-x="633" d="M494 -185h-210v175h-255l-9 86l324 434l150 -10v-351q43 4 84 10l-9 -169h-75v-175zM284 349l-153 -205h153v205z" />
<glyph horiz-adv-x="577" d="M532 49q0 -68 -38.5 -115t-106.5 -70.5t-157 -23.5q-45 0 -91 6t-84 17l16 110q17 -6 40 -11.5t46.5 -8.5t39.5 -3q44 0 72 24t28 72q0 47 -26.5 69.5t-67.5 22.5q-24 0 -52.5 -6.5t-51.5 -11.5l-14 9v371h238q46 0 91.5 2.5t88.5 7.5l-9 -174h-308v-129q28 9 62.5 15 t71.5 6q98 0 155 -48t57 -131z" />
<glyph horiz-adv-x="593" d="M301 -10q-75 0 -136.5 31.5t-98 96.5t-36.5 164q0 115 49 200t135 131.5t196 46.5q27 0 51 -2.5t35 -7.5l-15 -111q-14 5 -33.5 8t-34.5 3q-35 0 -69 -21t-59.5 -66t-34.5 -118q21 29 56.5 44.5t76.5 15.5q48 0 89 -22.5t66 -65t25 -102.5q0 -71 -36 -121.5t-95.5 -77 t-130.5 -26.5zM296 100q31 0 46.5 29.5t15.5 75.5t-16 78.5t-49 32.5q-27 0 -48 -16q0 -78 4 -121.5t15 -61t32 -17.5z" />
<glyph horiz-adv-x="544" d="M319 -150h-235q6 88 41 178t99 170t157 138h-146q-103 0 -198 -15l9 179h450l12 -10l6 -100q-99 -120 -145.5 -253t-49.5 -287z" />
<glyph horiz-adv-x="614" d="M30 152q0 51 45 91t122 53q-62 29 -102 75.5t-40 107.5q0 55 32.5 95.5t91 63t134.5 22.5q74 0 129.5 -21t86 -57.5t30.5 -83.5q0 -50 -36 -85t-105 -49q88 -31 127 -81t39 -102q0 -48 -32 -92t-95.5 -71.5t-159.5 -27.5q-82 0 -142 21.5t-92.5 58t-32.5 82.5zM255 497 q0 -28 19.5 -51.5t53.5 -42.5q31 37 31 81q0 32 -15 49t-38 17q-20 0 -35.5 -13.5t-15.5 -39.5zM235 170q0 -28 18 -49t50 -21t54 20.5t22 50.5q0 29 -24 48t-71 35q-25 -18 -37 -39.5t-12 -44.5z" />
<glyph horiz-adv-x="593" d="M563 218q0 -115 -49 -200t-134.5 -131.5t-196.5 -46.5q-27 0 -51 3t-35 7l15 111q14 -4 33.5 -7.5t34.5 -3.5q35 0 69 19t59 59.5t35 105.5q-22 -28 -56.5 -43.5t-73.5 -15.5q-49 0 -90.5 24.5t-67 69.5t-25.5 107q0 71 34 123.5t93 81.5t135 29t137 -31.5t97.5 -96 t36.5 -164.5zM235 286q0 -48 16 -85t50 -37q26 0 47 16q0 86 -4 134t-15 67t-32 19q-31 0 -46.5 -30.5t-15.5 -83.5z" />
<glyph horiz-adv-x="319" d="M233 204h-140q-5 85 -10.5 158.5t-13.5 143.5t-19 144l215 10q2 -18 3 -39t1 -44q0 -55 -4.5 -122.5t-12.5 -133.5t-19 -117zM264 70q0 -43 -34 -66t-78 -23q-40 0 -67 19t-27 56q0 40 31.5 66t80.5 26q41 0 67.5 -19.5t26.5 -58.5z" />
<glyph horiz-adv-x="319" d="M55 564q0 44 34.5 66.5t77.5 22.5q41 0 67.5 -18.5t26.5 -56.5q0 -40 -31 -66t-81 -26q-40 0 -67 19.5t-27 58.5zM86 446h140q5 -91 11 -170.5t13.5 -154.5t18.5 -156l-215 -10q-2 26 -3 56t-1 54q0 61 4.5 130t13 134.5t18.5 116.5z" />
<glyph horiz-adv-x="530" d="M304 197h-140q-15 27 -15 64q0 43 19 74.5t44 56t44 45.5t19 42q0 17 -14.5 24t-32.5 7q-29 0 -64.5 -15t-64.5 -41l-79 115q44 37 107 64t136 27q65 0 116.5 -22.5t81 -63.5t29.5 -95q0 -45 -19 -76t-46.5 -53.5t-55 -41t-46.5 -38.5t-19 -46v-27zM342 70q0 -43 -34 -66 t-78 -23q-40 0 -67 19t-27 56q0 40 31.5 66t80.5 26q41 0 67.5 -19.5t26.5 -58.5z" />
<glyph horiz-adv-x="530" d="M188 580q0 44 34.5 66.5t77.5 22.5q41 0 67.5 -18.5t26.5 -56.5q0 -40 -31 -66t-81 -26q-40 0 -67 19.5t-27 58.5zM226 453h140q15 -27 15 -64q0 -43 -19 -74.5t-44 -56t-44 -45.5t-19 -42q0 -17 14.5 -24t32.5 -7q29 0 65 15.5t64 40.5l79 -115q-44 -37 -106.5 -64 t-136.5 -27q-65 0 -116.5 23t-81 63.5t-29.5 94.5q0 45 19 76t46.5 53.5t55 41t46.5 38.5t19 46v27z" />
<glyph horiz-adv-x="348" d="M177 177q-38 0 -63 22.5t-25 59.5q0 40 28.5 66t68.5 26q35 0 59 -21.5t24 -56.5q0 -40 -26 -68t-66 -28z" />
<glyph horiz-adv-x="479" d="M399 275q0 -49 -23 -87t-62 -60t-88 -22q-62 0 -104 36.5t-42 103.5q0 49 23 87t63 60.5t89 22.5q62 0 103 -36.5t41 -104.5z" />
<glyph horiz-adv-x="442" d="M185 376l18 111l-87 -71l-36 62l106 40l-106 40l36 62l87 -71l-18 111h72l-18 -111l87 71l36 -62l-105 -40l105 -40l-36 -62l-87 71l18 -111h-72z" />
<glyph horiz-adv-x="438" d="M181 -10l-83 20l-3 7l162 643l83 -20l3 -7z" />
<glyph horiz-adv-x="438" d="M257 -10l-162 643l3 7l83 20l162 -643l-3 -7z" />
<glyph horiz-adv-x="686" d="M580 164h-113l-43 -174l-91 16l-6 6l38 152h-112l-43 -174l-91 16l-6 6l38 152h-105l-6 6l13 84h120l35 142h-109l-6 6l13 84h124l43 174l91 -16l6 -6l-38 -152h112l43 174l91 -16l6 -6l-38 -152h94l6 -6l-13 -84h-109l-35 -142h98l6 -6zM275 254h112l35 142h-112z" />
<glyph horiz-adv-x="680" d="M580 104h-119l-28 -114l-91 16l-6 6l23 92h-112l-28 -114l-91 16l-6 6l23 92h-99l-6 6l13 84h114l28 112h-102l-6 6l13 84h117l28 114l91 -16l6 -6l-23 -92h112l28 114l91 -16l6 -6l-23 -92h101l6 -6l-13 -84h-116l-28 -112h104l6 -6zM269 194h112l28 112h-112z" />
<glyph horiz-adv-x="414" d="M331 -49q-85 34 -148 91.5t-98 130t-35 150.5t35 150.5t98 130.5t148 91l53 -69q-61 -62 -88 -143.5t-27 -159.5q0 -77 27 -159t88 -144z" />
<glyph horiz-adv-x="414" d="M364 323q0 -78 -35 -150.5t-98 -130t-148 -91.5l-53 69q61 62 88 144t27 159q0 78 -27 159.5t-88 143.5l53 69q85 -33 148 -91t98 -130.5t35 -150.5z" />
<glyph horiz-adv-x="464" d="M149 208q0 28 -17.5 43t-61.5 19v100q44 6 61.5 20t17.5 42q0 23 -7.5 42.5t-15.5 40.5t-8 48q0 68 69.5 100t223.5 32l3 -100q-43 0 -66.5 -14.5t-23.5 -43.5q0 -25 12.5 -51.5t12.5 -55.5q0 -45 -40 -72.5t-102 -37.5q62 -10 102 -37.5t40 -72.5q0 -29 -12.5 -55.5 t-12.5 -51.5q0 -28 23.5 -43t66.5 -15l-3 -100q-154 0 -223.5 32t-69.5 99q0 27 8 48.5t15.5 41.5t7.5 42z" />
<glyph horiz-adv-x="464" d="M394 270l-79 -62q0 -22 8 -42t15.5 -41.5t7.5 -48.5q0 -67 -69 -99t-224 -32l-3 100q43 0 66.5 15t23.5 43q0 25 -12.5 51.5t-12.5 55.5q0 45 40 72.5t102 37.5q-62 10 -102 37.5t-40 72.5q0 29 12.5 55.5t12.5 51.5q0 29 -23.5 43.5t-66.5 14.5l3 100q155 0 224 -32 t69 -100q0 -27 -7.5 -48t-15.5 -40.5t-8 -42.5q0 -28 18 -42t61 -20v-100z" />
<glyph horiz-adv-x="444" d="M88 695h300v-115h-104v-511h104v-115h-300v741z" />
<glyph horiz-adv-x="444" d="M356 695v-741h-300v115h104v511h-104v115h300z" />
<glyph horiz-adv-x="388" d="M30 294v60h328v-60h-328z" />
<glyph horiz-adv-x="556" d="M30 294v60h496v-60h-496z" />
<glyph horiz-adv-x="860" d="M30 294v60h800v-60h-800z" />
<glyph horiz-adv-x="261" d="M196 72q0 -49 -26 -96t-65 -83t-79 -52l-26 31q23 21 46.5 53t33.5 67q-28 6 -46 26t-18 51q0 45 27 70t64 25q41 0 65 -26t24 -66z" />
<glyph horiz-adv-x="508" d="M236 72q0 -49 -26 -96t-65 -83t-79 -52l-26 31q23 21 46.5 53t33.5 67q-28 6 -46 26t-18 51q0 45 27 70t64 25q41 0 65 -26t24 -66zM443 72q0 -49 -26 -96t-65 -83t-79 -52l-26 31q23 21 46.5 53t33.5 67q-28 6 -46 26t-18 51q0 45 27 70t64 25q41 0 65 -26t24 -66z" />
<glyph horiz-adv-x="481" d="M65 429q0 50 26 96.5t65.5 82.5t78.5 52l26 -31q-23 -21 -46.5 -53t-33.5 -67q28 -6 46 -26t18 -51q0 -45 -26.5 -70t-64.5 -25q-40 0 -64.5 26t-24.5 66zM285 429q0 50 26 96.5t65.5 82.5t78.5 52l26 -31q-23 -21 -46.5 -53t-33.5 -67q28 -6 46 -26t18 -51 q0 -45 -26.5 -70t-64.5 -25q-40 0 -64.5 26t-24.5 66z" />
<glyph horiz-adv-x="481" d="M416 568q0 -49 -26 -96t-65 -83t-79 -52l-26 31q23 21 46.5 53t33.5 67q-28 6 -46 26t-18 51q0 45 27 70t64 25q41 0 65 -26t24 -66zM196 568q0 -49 -26 -96t-65 -83t-79 -52l-26 31q23 21 46.5 53t33.5 67q-28 6 -46 26t-18 51q0 45 27 70t64 25q41 0 65 -26t24 -66z " />
<glyph horiz-adv-x="261" d="M65 429q0 50 26 96.5t65.5 82.5t78.5 52l26 -31q-23 -21 -46.5 -53t-33.5 -67q28 -6 46 -26t18 -51q0 -45 -26.5 -70t-64.5 -25q-40 0 -64.5 26t-24.5 66z" />
<glyph horiz-adv-x="261" d="M196 568q0 -49 -26 -96t-65 -83t-79 -52l-26 31q23 21 46.5 53t33.5 67q-28 6 -46 26t-18 51q0 45 27 70t64 25q41 0 65 -26t24 -66z" />
<glyph horiz-adv-x="586" d="M287 327v54q65 50 118.5 98.5t105.5 104.5l38 -22q-20 -60 -46 -109.5t-56 -98.5q30 -49 56 -98.5t46 -109.5l-38 -22q-52 56 -105.5 105t-118.5 98zM37 327v54q65 50 118.5 98.5t105.5 104.5l38 -22q-20 -60 -46 -109.5t-56 -98.5q30 -49 56 -98.5t46 -109.5l-38 -22 q-52 56 -105.5 105t-118.5 98z" />
<glyph horiz-adv-x="586" d="M299 327q-64 -49 -117.5 -98t-106.5 -105l-38 22q20 60 46 109.5t56 98.5q-30 49 -56 98.5t-46 109.5l38 22q53 -56 106.5 -104.5t117.5 -98.5v-54zM549 327q-64 -49 -117.5 -98t-106.5 -105l-38 22q20 60 46 109.5t56 98.5q-30 49 -56 98.5t-46 109.5l38 22 q53 -56 106.5 -104.5t117.5 -98.5v-54z" />
<glyph horiz-adv-x="336" d="M37 324v54q65 50 118.5 98.5t105.5 104.5l38 -22q-20 -60 -46 -109.5t-56 -98.5q30 -49 56 -98.5t46 -109.5l-38 -22q-52 56 -105.5 105t-118.5 98z" />
<glyph horiz-adv-x="336" d="M299 324q-64 -49 -117.5 -98t-106.5 -105l-38 22q20 60 46 109.5t56 98.5q-30 49 -56 98.5t-46 109.5l38 22q53 -56 106.5 -104.5t117.5 -98.5v-54z" />
<glyph horiz-adv-x="438" d="M188 660l-42 -317h-59l-42 317h143zM393 660l-42 -317h-59l-42 317h143z" />
<glyph horiz-adv-x="233" d="M188 660l-42 -317h-59l-42 317h143z" />
<glyph horiz-adv-x="463" d="M285 -120l-50 -3v118q-58 10 -105.5 41t-76 84t-28.5 130q0 80 31 134.5t83 85t116 38.5v112l50 3v-113q40 -1 73 -8t60 -18l-16 -163q-23 20 -49.5 32t-52.5 12q-31 0 -55.5 -25.5t-24.5 -88.5q0 -48 20.5 -80t75.5 -32q25 0 49 5.5t46 13.5l-2 -139q-19 -13 -56 -21 t-80 -8h-8v-110z" />
<glyph horiz-adv-x="460" d="M393 67l-62 64q-21 -17 -48.5 -26.5t-60.5 -9.5q-30 0 -55.5 7.5t-45.5 20.5l-56 -56l-40 40l55 55q-33 46 -33 109q0 61 40 111l-58 59l36 36q12 -12 27.5 -26.5t32.5 -32.5q21 15 46.5 23t54.5 8q33 0 60 -9t48 -24l61 61l40 -40l-63 -63q29 -43 29 -98q0 -58 -32 -105 q19 -18 35.5 -34t29.5 -29zM137 271q0 -23 9.5 -45.5t29.5 -37t49 -14.5q32 0 51 14.5t27 37.5t8 47q0 35 -21 63t-65 28q-45 0 -66.5 -28t-21.5 -65z" />
<glyph horiz-adv-x="511" d="M216 -123v114q-30 1 -64.5 5.5t-67 11.5t-54.5 17l28 178q39 -25 84 -41.5t78 -16.5q23 0 35.5 9t12.5 24q0 19 -17 33.5t-43.5 29.5t-56 32.5t-56 42t-43.5 58.5t-17 82q0 58 26.5 100.5t71.5 68t103 32.5v113l70 3v-114q42 -2 89 -11t77 -23l-36 -165q-34 20 -72 32.5 t-67 12.5q-49 0 -49 -36q0 -21 17 -37t43.5 -31t56 -32.5t56 -41.5t43.5 -58t17 -82q0 -83 -53 -133.5t-142 -60.5v-113z" />
<glyph horiz-adv-x="563" d="M10 243l5 61h43v11q0 17 1 34h-40l5 61h43q23 117 101.5 183.5t194.5 66.5q48 0 95.5 -10.5t79.5 -25.5l-25 -154q-19 12 -53 23.5t-68 11.5q-47 0 -73 -25t-36 -70h159l-5 -61h-161v-20q0 -13 1 -25h156l-5 -61h-143q10 -43 39 -67t85 -24q27 0 57 5t46 10l23 -145 q-81 -32 -171 -32q-129 0 -206 67.5t-95 185.5h-53z" />
<glyph horiz-adv-x="600" d="M478 247l-139 3l-20 -171q-2 -18 -7.5 -48t-19.5 -63t-41.5 -62.5t-73 -48t-113.5 -18.5q-25 0 -52 3.5t-57 10.5l40 111q42 -15 66 -15q27 0 41 14t19.5 36t5.5 44l5 212l-91 2l9 53l84 20q1 29 2 56.5t8 61.5q8 38 25 75.5t48.5 68.5t82 49.5t124.5 18.5 q51 0 87.5 -8.5t57.5 -20.5l-48 -133q-16 17 -44 34.5t-52 17.5q-31 0 -47 -31t-21 -77q-5 -47 -8 -70t-3.5 -30.5t-0.5 -11.5h149z" />
<glyph horiz-adv-x="629" d="M520 252l-136 3q-12 -52 -35.5 -105.5t-65.5 -93.5q50 -25 108.5 -45.5t130.5 -20.5q18 0 39.5 2t45.5 8l-56 -154q-15 -6 -41 -6q-68 0 -125.5 27t-106 64.5t-87.5 69.5q-37 -11 -80 -11q-58 0 -79.5 19.5t-21.5 49.5q0 35 23.5 54.5t59.5 19.5q21 0 42 -6t43 -17 q2 16 2.5 35t0.5 42l1 73l-96 2l10 53l87 20q4 152 73 238.5t212 86.5q53 0 91 -9t60 -20l-48 -132q-21 20 -48 35.5t-50 15.5q-21 0 -36.5 -19.5t-25.5 -66t-14 -129.5h141z" />
<glyph horiz-adv-x="617" d="M91 96v61h113v45h-113v61h87l-163 387l206 10l91 -292h2l93 292l195 -10l-162 -387h87v-61h-113v-45h113v-61h-113v-96h-210v96h-113z" />
<glyph horiz-adv-x="463" d="M285 -120l-50 -3v118q-58 10 -105.5 41t-76 84t-28.5 130q0 80 31 134.5t83 85t116 38.5v112l50 3v-113q40 -1 73 -8t60 -18l-16 -163q-23 20 -49.5 32t-52.5 12q-31 0 -55.5 -25.5t-24.5 -88.5q0 -48 20.5 -80t75.5 -32q25 0 49 5.5t46 13.5l-2 -139q-19 -13 -56 -21 t-80 -8h-8v-110z" />
<glyph horiz-adv-x="460" d="M393 42l-62 64q-21 -17 -48.5 -26.5t-60.5 -9.5q-30 0 -55.5 7.5t-45.5 20.5l-56 -56l-40 40l55 55q-33 46 -33 109q0 61 40 111l-58 59l36 36q12 -12 27.5 -26.5t32.5 -32.5q21 15 46.5 23t54.5 8q33 0 60 -9t48 -24l61 61l40 -40l-63 -63q29 -43 29 -98q0 -58 -32 -105 q19 -18 35.5 -34t29.5 -29zM137 246q0 -23 9.5 -45.5t29.5 -37t49 -14.5q32 0 51 14.5t27 37.5t8 47q0 35 -21 63t-65 28q-45 0 -66.5 -28t-21.5 -65z" />
<glyph horiz-adv-x="494" d="M197 -123v114q-42 1 -86.5 8t-75.5 17l10 160q26 -14 57.5 -23.5t62 -14.5t51.5 -5t29.5 4.5t8.5 14.5q0 14 -14 22t-37.5 16.5t-53.5 21.5q-44 20 -75.5 51.5t-31.5 85.5q0 63 48 103.5t127 52.5v115l50 3v-113h14q42 0 83.5 -7t77.5 -19l-10 -158q-43 20 -85 30.5 t-65 10.5q-16 0 -25.5 -5t-9.5 -16q0 -13 14 -22.5t34 -16.5t39 -15q31 -12 59.5 -30.5t47 -46t18.5 -68.5q0 -66 -54 -109t-158 -48v-110z" />
<glyph horiz-adv-x="512" d="M398 183h-96q10 -20 30 -32t53 -12q25 0 49 5.5t46 13.5l-2 -139q-19 -13 -56 -21t-80 -8q-61 0 -115.5 21t-93 63.5t-52.5 108.5h-71l5 49h59v18q0 10 1 19h-54l5 49h55q14 66 53 108.5t94.5 63t118.5 20.5q42 0 77 -7.5t63 -18.5l-16 -163q-23 20 -49.5 32t-52.5 12 q-21 0 -39.5 -11t-29.5 -36h114l-5 -49h-119q-1 -8 -1 -18t1 -19h113z" />
<glyph horiz-adv-x="600" d="M508 173l-144 3l-17 -93q-3 -18 -10 -46t-22 -58t-42 -56.5t-70 -43t-107 -16.5q-25 0 -52 3.5t-57 10.5l40 111q42 -15 66 -15q26 0 45.5 19.5t20.5 54.5l3 134l-91 2l9 53l84 20q1 18 4.5 41.5t7.5 39.5q7 30 23.5 60.5t47.5 56t80.5 41t122.5 15.5q55 0 91.5 -8.5 t57.5 -20.5l-48 -133q-16 17 -44 34.5t-54 17.5q-29 0 -43.5 -23t-22.5 -55q-3 -13 -6.5 -31.5t-5.5 -34.5h149z" />
<glyph horiz-adv-x="537" d="M465 184l-137 3q-11 -35 -30 -70t-49 -63q49 -25 106 -44.5t127 -19.5q18 0 39.5 2t45.5 8l-56 -154q-15 -6 -41 -6q-67 0 -124.5 26.5t-105.5 63.5t-88 70q-36 -10 -77 -10q-61 0 -83 19.5t-22 49.5q0 35 23.5 54.5t59.5 19.5q21 0 42 -6t43 -16q1 16 1.5 34.5t1.5 41.5 v4l-110 3l10 53l102 20q4 113 69 178t198 65q56 0 94 -9t60 -20l-48 -132q-21 20 -48.5 35.5t-53.5 15.5q-28 0 -47 -28t-25 -105h141z" />
<glyph horiz-adv-x="609" d="M86 54v61h120v45h-120v61h108l-179 279l196 10l103 -193h2l93 193l185 -10l-167 -279h109v-61h-120v-45h120v-61h-120v-54h-210v54h-120z" />
<glyph d="M520 256h-139v-144h-147l-1 144h-143v132q26 1 63 2t79 2l-1 147h150v-146q40 1 76.5 1h63.5z" />
<glyph d="M520 256h-430v132q36 2 92 3t119 1.5t121 1t99 0.5z" />
<glyph d="M422 114l-112 113l-115 -114l-98 98l114 115l-115 116l96 96q21 -20 52 -49.5t65 -62.5l111 112l101 -100l-111 -111l62.5 -62.5l50.5 -50.5v-12z" />
<glyph d="M396 534q0 -40 -27.5 -68t-68.5 -28q-34 0 -55.5 22.5t-21.5 53.5q0 40 29 67.5t69 27.5q32 0 53.5 -20.5t21.5 -54.5zM520 256h-430v132q36 2 92 3t119 1.5t121 1t99 0.5zM396 137q0 -40 -27.5 -67.5t-68.5 -27.5q-34 0 -55.5 22t-21.5 53q0 40 29 68t69 28 q32 0 53.5 -21t21.5 -55z" />
<glyph d="M520 363h-430v132q36 2 92 3t119 1.5t121 1t99 0.5zM520 149h-430v132q36 2 92 3t119 1.5t121 1t99 0.5z" />
<glyph d="M194 23l-69 39l46 87h-81v132q28 1 68 2t85 2l42 78h-195v132q30 1 73.5 2t94 2t100.5 1l66 125l11 3l69 -39l-47 -88h64l-1 -138h-136l-41 -77q51 0 97.5 0.5t80.5 0.5l-1 -138h-250l-65 -123z" />
<glyph d="M80 85v160l243 81l-242 77v160q27 -9 68.5 -25t91.5 -36t100.5 -41t96 -40.5t77.5 -34.5v-124z" />
<glyph d="M528 85l-435 177v124q32 15 77.5 34.5t96 40.5t100.5 41t91.5 36t68.5 25v-160l-242 -77l243 -81v-160z" />
<glyph d="M94 213v147l227 53l-226 50v152q31 -8 75 -21t95 -28.5t101 -32t92.5 -31t70.5 -25.5v-125zM520 36h-430v132q36 2 92 3t119 1.5t121 1t99 0.5z" />
<glyph d="M526 615v-147l-227 -53l226 -50v-152q-31 8 -75 21t-95 28.5t-101 32t-92.5 31.5t-70.5 25v125zM521 36h-430v132q36 2 92 3t119 1.5t121 1t99 0.5z" />
<glyph d="M520 332h-135v-114h-147l-1 114h-147v132q27 1 65 2t81 2l-1 117h150v-116q39 1 74 1h62zM520 15h-430v132q36 2 92 3t119 1.5t121 1t99 0.5z" />
<glyph d="M193 388q-7 0 -21 -14t-32 -35l-72 34q15 32 35 68t44.5 61.5t51.5 25.5q21 0 54.5 -6.5t69 -15.5t64.5 -15.5t40 -6.5q8 0 21.5 14t32.5 35l71 -34q-15 -32 -35 -68t-44 -61.5t-52 -25.5q-21 0 -54 6.5t-69 15.5t-64.5 15.5t-40.5 6.5zM193 164q-7 0 -21 -14t-32 -35 l-72 34q15 32 35 68t44.5 61.5t51.5 25.5q21 0 54.5 -6.5t69 -15.5t64.5 -15.5t40 -6.5q8 0 21.5 14t32.5 35l71 -34q-15 -32 -35 -68t-44 -61.5t-52 -25.5q-21 0 -54 6.5t-69 15.5t-64.5 15.5t-40.5 6.5z" />
<glyph d="M529 433v-271h-145v133h-294v132q36 2 93.5 3t121.5 1.5t123.5 1t100.5 0.5z" />
<glyph horiz-adv-x="843" d="M774 326q0 -56 -23.5 -100.5t-65 -70t-96.5 -25.5q-61 0 -103.5 28t-74.5 67q-31 -44 -77 -69.5t-105 -25.5q-52 0 -92.5 25t-63 69t-22.5 100t23.5 100.5t65 70t96.5 25.5q61 0 103 -28t75 -67q31 44 77 69.5t105 25.5q53 0 93 -25t62.5 -68.5t22.5 -100.5zM563 401 q-25 0 -49 -17.5t-39 -39.5q26 -38 51 -65t54 -27q21 0 38 19.5t17 53.5q0 35 -20 55.5t-52 20.5zM190 325q0 -35 20 -55.5t52 -20.5q25 0 49 17.5t39 39.5q-26 38 -51 65t-54 27q-21 0 -38 -19t-17 -54z" />
<glyph horiz-adv-x="953" d="M337 -10h-115l400 670h116zM403 473q0 -65 -26.5 -106t-70 -60.5t-94.5 -19.5t-92.5 19t-65.5 58.5t-24 100.5q0 62 25.5 104t69 64t97.5 22q83 0 132 -48t49 -134zM173 474q0 -54 9 -84.5t36 -30.5q19 0 28 14.5t11.5 37.5t2.5 48q0 64 -9 94t-35 30q-25 0 -34 -27 t-9 -82zM923 181q0 -65 -26.5 -106t-70 -60.5t-94.5 -19.5t-92.5 19t-65.5 58.5t-24 100.5q0 62 25.5 104t69 64t97.5 22q83 0 132 -48t49 -134zM693 182q0 -54 9 -84.5t36 -30.5q19 0 28 14.5t11.5 37.5t2.5 48q0 64 -9 94t-35 30q-25 0 -34 -27t-9 -82z" />
<glyph horiz-adv-x="1376" d="M337 -10h-115l400 670h116zM403 473q0 -65 -26.5 -106t-70 -60.5t-94.5 -19.5t-92.5 19t-65.5 58.5t-24 100.5q0 62 25.5 104t69 64t97.5 22q83 0 132 -48t49 -134zM173 474q0 -54 9 -84.5t36 -30.5q19 0 28 14.5t11.5 37.5t2.5 48q0 64 -9 94t-35 30q-25 0 -34 -27 t-9 -82zM923 181q0 -65 -26.5 -106t-70 -60.5t-94.5 -19.5t-92.5 19t-65.5 58.5t-24 100.5q0 62 25.5 104t69 64t97.5 22q83 0 132 -48t49 -134zM1346 181q0 -65 -26.5 -106t-70 -60.5t-94.5 -19.5t-92.5 19t-65.5 58.5t-24 100.5q0 62 25.5 104t69 64t97.5 22q83 0 132 -48 t49 -134zM693 182q0 -54 9 -84.5t36 -30.5q19 0 28 14.5t11.5 37.5t2.5 48q0 64 -9 94t-35 30q-25 0 -34 -27t-9 -82zM1116 182q0 -54 9 -84.5t36 -30.5q19 0 28 14.5t11.5 37.5t2.5 48q0 64 -9 94t-35 30q-25 0 -34 -27t-9 -82z" />
<glyph d="M520 181h-139v-144h-147l-1 144h-143v132q26 1 63 2t79 2l-1 147h150v-146q40 1 76.5 1h63.5z" />
<glyph d="M520 181h-430v132q36 2 92 3t119 1.5t121 1t99 0.5z" />
<glyph d="M422 39l-112 113l-115 -114l-98 98l114 115l-115 116l96 96q21 -20 52 -49.5t65 -62.5l111 112l101 -100l-111 -111l62.5 -62.5l50.5 -50.5v-12z" />
<glyph d="M386 459q0 -40 -27.5 -68t-68.5 -28q-34 0 -55.5 22.5t-21.5 53.5q0 40 29 67.5t69 27.5q32 0 53.5 -20.5t21.5 -54.5zM510 181h-430v132q36 2 92 3t119 1.5t121 1t99 0.5zM386 62q0 -40 -27.5 -67.5t-68.5 -27.5q-34 0 -55.5 22t-21.5 53q0 40 29 68t69 28 q32 0 53.5 -21t21.5 -55z" />
<glyph d="M520 288h-430v132q36 2 92 3t119 1.5t121 1t99 0.5zM520 74h-430v132q36 2 92 3t119 1.5t121 1t99 0.5z" />
<glyph d="M194 -52l-69 39l46 87h-81v132q28 1 68 2t85 2l42 78h-195v132q30 1 73.5 2t94 2t100.5 1l66 125l11 3l69 -39l-47 -88h64l-1 -138h-136l-41 -77q51 0 97.5 0.5t80.5 0.5l-1 -138h-250l-65 -123z" />
<glyph d="M93 9v160l243 81l-242 77v160q27 -9 68.5 -25t91.5 -36t100.5 -41t96 -40.5t77.5 -34.5v-124z" />
<glyph d="M528 9l-435 177v124q32 15 77.5 34.5t96 40.5t100.5 41t91.5 36t68.5 25v-160l-242 -77l243 -81v-160z" />
<glyph d="M90 157v132l237 44l-236 44v133q30 -7 74.5 -19t95 -25.5t100.5 -27.5t93 -26t71 -20v-116zM520 0h-430v122q36 2 93.5 3t121.5 1.5t122 1t96 0.5z" />
<glyph d="M527 510v-133l-236 -44l237 -44v-132l-435 119v116q28 8 71 20t93 26t100.5 27.5t95 25.5t74.5 19zM523 0h-430v122q36 2 93.5 3t121.5 1.5t122 1t96 0.5z" />
<glyph horiz-adv-x="613" d="M521 271h-140v-110h-147l-1 110h-142v122q26 1 62.5 2t78.5 2l-1 113h150v-112q40 1 76.5 1h64.5zM520 0h-430v122q36 2 93.5 3t121.5 1.5t122 1t96 0.5z" />
<glyph d="M193 313q-7 0 -21 -14t-32 -35l-72 34q15 32 35 68t44.5 61.5t51.5 25.5q21 0 54.5 -6.5t69 -15.5t64.5 -15.5t40 -6.5q8 0 21.5 14t32.5 35l71 -34q-15 -32 -35 -68t-44 -61.5t-52 -25.5q-21 0 -54 6.5t-69 15.5t-64.5 15.5t-40.5 6.5zM193 89q-7 0 -21 -14t-32 -35 l-72 34q15 32 35 68t44.5 61.5t51.5 25.5q21 0 54.5 -6.5t69 -15.5t64.5 -15.5t40 -6.5q8 0 21.5 14t32.5 35l71 -34q-15 -32 -35 -68t-44 -61.5t-52 -25.5q-21 0 -54 6.5t-69 15.5t-64.5 15.5t-40.5 6.5z" />
<glyph d="M529 432v-271h-145v133h-294v132q36 2 93.5 3t121.5 1.5t123.5 1t100.5 0.5z" />
<glyph horiz-adv-x="843" d="M783 310q0 -56 -23.5 -100.5t-65 -70t-96.5 -25.5q-61 0 -103.5 28t-74.5 67q-31 -44 -77 -69.5t-105 -25.5q-52 0 -92.5 25t-63 68.5t-22.5 100.5q0 56 23.5 100.5t65 70t96.5 25.5q61 0 103 -28t75 -67q31 44 77 69.5t105 25.5q53 0 93 -25t62.5 -68.5t22.5 -100.5z M572 385q-25 0 -49 -17.5t-39 -39.5q26 -38 51 -65t54 -27q21 0 38 19.5t17 53.5q0 35 -20 55.5t-52 20.5zM199 309q0 -35 20 -55.5t52 -20.5q25 0 49 17.5t39 39.5q-26 38 -51 65t-54 27q-21 0 -38 -19t-17 -54z" />
<glyph horiz-adv-x="953" d="M403 376q0 -47 -26.5 -78t-70.5 -45.5t-96 -14.5q-50 0 -91 14t-65 43t-24 73q0 46 25.5 77.5t69 48t97.5 16.5q83 0 132 -35.5t49 -98.5zM605 510h101l-358 -520h-103zM173 377q0 -34 11.5 -54t34.5 -20q24 0 32.5 19.5t8.5 47.5q0 35 -11 55t-34 20q-42 0 -42 -68z M923 128q0 -47 -26.5 -78t-70.5 -45.5t-96 -14.5q-50 0 -91 14t-65 43t-24 73q0 46 25.5 77.5t69 48t97.5 16.5q83 0 132 -35.5t49 -98.5zM693 129q0 -34 11.5 -54t34.5 -20q24 0 32.5 19.5t8.5 47.5q0 35 -11 55t-34 20q-42 0 -42 -68z" />
<glyph horiz-adv-x="1368" d="M403 376q0 -47 -26.5 -78t-70.5 -45.5t-96 -14.5q-50 0 -91 14t-65 43t-24 73q0 46 25.5 77.5t69 48t97.5 16.5q83 0 132 -35.5t49 -98.5zM605 510h101l-358 -520h-103zM173 377q0 -34 11.5 -54t34.5 -20q24 0 32.5 19.5t8.5 47.5q0 35 -11 55t-34 20q-42 0 -42 -68z M1338 128q0 -47 -26.5 -78t-70.5 -45.5t-96 -14.5q-50 0 -91 14t-65 43t-24 73q0 46 25.5 77.5t69 48t97.5 16.5q83 0 132 -35.5t49 -98.5zM923 128q0 -47 -26.5 -78t-70.5 -45.5t-96 -14.5q-50 0 -91 14t-65 43t-24 73q0 46 25.5 77.5t69 48t97.5 16.5q83 0 132 -35.5 t49 -98.5zM1108 129q0 -34 11.5 -54t34.5 -20q24 0 32.5 19.5t8.5 47.5q0 35 -11 55t-34 20q-42 0 -42 -68zM693 129q0 -34 11.5 -54t34.5 -20q24 0 32.5 19.5t8.5 47.5q0 35 -11 55t-34 20q-42 0 -42 -68z" />
<glyph horiz-adv-x="844" d="M423 550q-16 0 -31.5 -12t-15.5 -38q0 -31 21 -62t40 -56l83 -105q9 -11 19.5 -23t21.5 -23q6 30 6 62q0 20 -2 43t-6 42l195 19q-4 -74 -26.5 -134.5t-59.5 -108.5q31 -13 58 -13q15 0 33.5 3.5t24.5 5.5l10 -134q-16 -9 -48 -17.5t-70 -8.5q-44 0 -81.5 13t-70.5 35 q-98 -48 -213 -48q-76 0 -132.5 20.5t-87.5 56.5t-31 81q0 46 29 80t74 56.5t93 32.5q-24 27 -47 55.5t-38 59.5t-15 65q0 42 26.5 79.5t79 60.5t129.5 23q71 0 126.5 -18t88.5 -41l-82 -139q-54 88 -101 88zM290 214q0 -60 38 -97t91 -37q23 0 44 8q-20 18 -39.5 39 t-38.5 43l-87 99q-8 -27 -8 -55z" />
<glyph horiz-adv-x="389" d="M196 295q-62 0 -101 38.5t-39 101.5q0 67 42 108t106 41q62 0 101.5 -39t39.5 -101q0 -64 -41.5 -106.5t-107.5 -42.5zM201 514q-32 0 -51 -22.5t-19 -54.5q0 -31 19.5 -51.5t49.5 -20.5q32 0 51 22.5t19 55.5q0 30 -18.5 50.5t-50.5 20.5z" />
<glyph horiz-adv-x="389" d="M196 145q-62 0 -101 38.5t-39 101.5q0 67 42 108t106 41q62 0 101.5 -39t39.5 -101q0 -64 -41.5 -106.5t-107.5 -42.5zM201 364q-32 0 -51 -22.5t-19 -54.5q0 -31 19.5 -51.5t49.5 -20.5q32 0 51 22.5t19 55.5q0 30 -18.5 50.5t-50.5 20.5z" />
</font>
</defs>
</svg>
