<?xml version="1.0" standalone="no"?>
<!DOCTYPE svg PUBLIC "-//W3C//DTD SVG 1.1//EN" "http://www.w3.org/Graphics/SVG/1.1/DTD/svg11.dtd" >
<svg xmlns="http://www.w3.org/2000/svg" xmlns:xlink="http://www.w3.org/1999/xlink" version="1.1">
<metadata></metadata>
<defs>
<font id="indivisa_display_sansHvIt" horiz-adv-x="617" >
<font-face units-per-em="1000" ascent="800" descent="-200" />
<missing-glyph horiz-adv-x="210" />
<glyph unicode="&#x2f;symbol&#x31;&#x2f;" horiz-adv-x="5534" d="M1865 412q-25 0 -40.5 14.5t-15.5 37.5q0 24 15.5 45t39 34.5t48.5 13.5q24 0 39 -13.5t15 -37.5t-14.5 -45.5t-37.5 -35t-49 -13.5zM1284 412q-26 0 -41.5 14.5t-15.5 37.5q0 24 15.5 45t39.5 34.5t49 13.5q24 0 38.5 -13.5t14.5 -37.5t-14.5 -45.5t-37 -35t-48.5 -13.5 zM959 0q0 21 2.5 46.5t8.5 61.5q-16 -49 -51 -82t-79 -33q-41 0 -63 30t-22 82q0 45 15.5 91t46.5 85.5t76.5 63.5t104.5 24h12.5t12.5 -1l16 73l6 102l136 7q0 -40 -9.5 -95t-23 -116.5t-27 -123.5t-23 -117.5t-9.5 -97.5h-130zM100 0l78 364q8 38 13.5 72.5t7.5 63.5 l128 7l11 -15l-104 -492h-134zM3503 492l-57 -492h-131l20 175q3 30 9 69t12.5 78t11.5 68h-3q-16 -53 -37 -107.5t-44 -107.5l-76 -175h-149l-2 175q-1 56 1 109t8 106h-2q-15 -61 -30 -115.5t-29 -99.5l-53 -175h-109l154 500l184 6l1 -137q1 -50 -2.5 -121.5 t-12.5 -137.5h2q20 65 36 111t30.5 81t27.5 67l56 131l169 7zM5316 300q-15 -74 -23 -110.5t-11 -51t-3 -21.5q0 -34 36 -34q13 0 28 5t31 13l-9 -79q-20 -11 -50 -20t-64 -9q-50 0 -77.5 25t-27.5 75q0 11 1.5 23.5t6 33.5t12.5 57.5t20 95.5l-47 1l9 44l54 14l53 95l81 6 l13 -15l-20 -86h99l6 -14l-17 -51zM336 0q0 28 4 62t13 82t24 116l6 102l137 7q0 -18 -2 -41t-5 -48h2q29 49 65.5 69t68.5 20q35 0 53.5 -19.5t18.5 -51.5q0 -23 -8 -62.5t-18 -84.5q-7 -33 -11 -57t-5.5 -45.5t-1.5 -48.5h-131q0 38 4.5 69.5t14.5 80.5q7 35 11 55.5 t4 31.5q0 24 -17 24t-34 -22.5t-30.5 -60.5t-22 -84t-9.5 -94h-131zM1170 0q0 39 7 87.5t20 105.5l14 67l6 102l137 7q0 -36 -8 -81.5t-19 -95.5t-19 -99t-8 -93h-130zM1399 362l140 7q6 -59 4.5 -137.5t-9.5 -151.5h2q23 45 42 95t32 99t17 90q17 4 28.5 4.5t21.5 0.5 q28 0 46.5 -7t18.5 -35q0 -22 -13.5 -60.5t-36.5 -85t-53.5 -94t-63.5 -87.5h-149q-2 111 -9.5 207.5t-17.5 154.5zM1752 0q0 39 7 87.5t19 105.5l15 67l6 102l137 7q0 -36 -8 -81.5t-19 -95.5t-19 -99t-8 -93h-130zM4716 0q0 28 4 62t13 82t24 116l6 102l137 7 q0 -18 -2.5 -41t-4.5 -48h2q29 49 65 69t69 20q35 0 53.5 -19.5t18.5 -51.5q0 -23 -8 -62.5t-18 -84.5q-7 -33 -11 -57t-6 -45.5t-2 -48.5h-130q0 38 4.5 69.5t14.5 80.5q7 35 11 55.5t4 31.5q0 24 -17 24q-18 0 -34.5 -22.5t-30.5 -60.5t-22.5 -84t-9.5 -94h-130zM2245 256 q-25 14 -51.5 22t-45.5 8q-17 0 -29.5 -7t-12.5 -19q0 -13 13 -22t32 -17.5t38 -20.5t32 -30.5t13 -47.5q0 -39 -25 -68t-66.5 -45t-89.5 -16q-33 0 -66.5 7.5t-51.5 20.5l27 93q27 -18 58.5 -28t52.5 -10q20 0 30 8t10 18q0 13 -13 22t-32 18t-38 21t-32 30t-13 46 q0 39 25.5 68t67.5 45.5t90 16.5q20 0 48.5 -3.5t55.5 -14.5zM2525 369q32 0 73.5 -7.5t72.5 -24.5l-29 -128q-20 -94 -25.5 -140.5t-5.5 -68.5h-130q0 20 2.5 45t9.5 67q-15 -50 -50.5 -84.5t-81.5 -34.5q-41 0 -62.5 30t-21.5 83q0 44 15.5 90.5t46.5 85.5t77.5 63 t108.5 24zM4653 51q-32 -28 -74 -43t-85 -15q-62 0 -102 33.5t-40 103.5q0 46 17.5 88.5t49.5 76.5t75 54t94 20q53 0 86 -23t33 -65q0 -56 -59 -95.5t-162 -44.5v-1q0 -29 15 -46.5t48 -17.5q22 0 45 7.5t45 20.5zM3936 0q0 28 4 62t13.5 82t24.5 116l5 102l137 7 q0 -18 -2 -41t-5 -48h2q29 49 65.5 69t68.5 20q35 0 53.5 -19.5t18.5 -51.5q0 -23 -8 -62.5t-18 -84.5q-7 -33 -11 -57t-5.5 -45.5t-1.5 -48.5h-131q0 38 4.5 69.5t14.5 80.5q8 35 11.5 55.5t3.5 31.5q0 24 -17 24t-34 -22.5t-30.5 -60.5t-22 -84t-9.5 -94h-131zM3768 369 q32 0 73 -7.5t72 -24.5l-28 -128q-20 -94 -25.5 -140.5t-5.5 -68.5h-130q0 20 2.5 45t9.5 67q-15 -50 -50.5 -84.5t-81.5 -34.5q-41 0 -63 30t-22 83q0 44 15.5 90.5t47 85.5t78 63t108.5 24zM4490 177q46 10 72.5 33.5t26.5 59.5q0 17 -5.5 24t-16.5 7q-20 0 -36 -20 t-26 -48.5t-15 -55.5zM3677 101q17 0 33 21t30 54t22 69q2 11 4.5 22t4.5 22q-16 8 -27 8q-18 0 -34.5 -16t-29 -40.5t-20 -51.5t-7.5 -48q0 -40 24 -40zM913 101q16 0 31 19.5t28.5 50t22.5 64.5l4 20l4 20l3 14q-14 8 -27 8q-18 0 -34 -16t-28.5 -40.5t-20 -51.5t-7.5 -48 q0 -40 24 -40zM2435 101q16 0 32.5 21t30 54t21.5 69q2 11 4.5 22t4.5 22q-14 8 -27 8q-18 0 -34 -16t-29 -40.5t-20 -51.5t-7 -48q0 -40 24 -40z" />
<glyph unicode="&#x2f;symbol&#x32;&#x2f;" horiz-adv-x="932" d="M494 570l52 -90l-137 -240h-103l137 240l-52 90h103zM357 570l52 -90l-138 -240h-103l138 240l-52 90h103zM752 120h-103l-137 240l51 90l137 -240h103zM683 0h-103l-137 240l51 90l138 -240h103zM100 120l51 90h275l51 -90h-274l-52 -90zM168 0l52 90h274l52 -90h-275 l-51 -90zM789 88q18 0 30.5 -13t12.5 -31t-12.5 -31t-30.5 -13t-30.5 13t-12.5 31t12.5 31t30.5 13zM829 44q0 17 -11.5 28.5t-28.5 11.5q-16 0 -28 -11.5t-12 -28.5q0 -16 12 -28t28 -12q17 0 28.5 12t11.5 28zM771 69h18h5t6 -2q5 -4 5 -11q0 -5 -3 -8q-1 -2 -2.5 -2.5 t-3.5 -1.5q7 -1 8 -9q0 -8 3 -16h-8q-1 2 -1 6t-1 7q-1 5 -2.5 7.5t-8.5 2.5h-8v-23h-7v50zM778 47h10h3.5t3.5 1q3 3 3 7q0 6 -4 7t-6 1h-10v-16z" />
<glyph unicode="&#x2f;symbol&#x33;&#x2f;" horiz-adv-x="957" d="M505 638l68 -270h270l-203 -135l136 -270l-271 135l-270 -270l135 405l-270 203l338 -68zM814 87q18 0 30.5 -12.5t12.5 -31.5q0 -18 -12.5 -30.5t-30.5 -12.5t-30.5 12.5t-12.5 30.5q0 19 12.5 31.5t30.5 12.5zM854 43q0 17 -11.5 29t-28.5 12q-16 0 -28 -12t-12 -29 q0 -16 12 -28t28 -12q17 0 28.5 12t11.5 28zM796 68h18h5.5t5.5 -2q6 -3 6 -10q0 -5 -4 -9q-3 -3 -6 -3q7 -3 8 -10q1 -4 1.5 -7.5t1.5 -8.5h-7q-1 3 -1.5 7t-1.5 7q0 9 -10 9h-9v-23h-7v50zM803 47h10h3.5t3.5 1l2 2t1 4q0 7 -4 8t-6 1h-10v-16z" />
<glyph unicode="&#x2f;symbol&#x34;&#x2f;" horiz-adv-x="2607" d="M1684 406q0 32 -2.5 63t-8.5 65l126 14l15 -15v-533h-130v406zM1889 406q0 62 -10 128l126 14l14 -15v-533h-130v406zM427 101v-101h-320v362q0 38 -1.5 72t-5.5 63l126 7l14 -14v-396zM925 21l7 109q31 -18 72 -27t72 -9q50 0 50 36q0 19 -20.5 34t-50 31t-59.5 37 t-50.5 51t-20.5 74q0 48 26 80.5t70 49.5t97 17q81 0 127 -18l-14 -111q-28 14 -55 21.5t-56 7.5q-28 0 -43 -11t-15 -29q0 -22 20.5 -38.5t50.5 -32.5t59.5 -36.5t50 -49.5t20.5 -73q0 -67 -54 -104t-139 -37q-40 0 -82.5 8t-62.5 20zM795 0l-106 -7q-7 11 -12 24t-9 25h-4 q-15 -22 -42.5 -35.5t-61.5 -13.5q-41 0 -69 22t-28 67q0 61 53.5 88.5t137.5 29.5v20q0 54 -58 54q-55 0 -108 -29l-8 97q27 10 68.5 18t81.5 8q154 0 154 -135q0 -38 -2 -69.5t-2 -69.5q0 -24 4.5 -50.5t10.5 -43.5zM1626 0l-107 -7q-7 11 -12 24t-9 25h-3 q-15 -22 -42.5 -35.5t-62.5 -13.5q-40 0 -68 22t-28 67q0 61 53 88.5t138 29.5v20q0 54 -58 54q-54 0 -109 -29l-7 97q27 10 68.5 18t81.5 8q153 0 153 -135q0 -38 -1.5 -69.5t-1.5 -69.5q0 -24 4.5 -50.5t10.5 -43.5zM2405 213v-17t-1 -19l-11 -11h-191q8 -45 33.5 -64 t64.5 -19q24 0 45.5 6t38.5 15l7 -81q-17 -11 -49.5 -20.5t-77.5 -9.5q-88 0 -143 47t-55 135q0 58 24 101t66 67.5t94 24.5q73 0 114 -43.5t41 -111.5zM2199 207l78 4q1 5 1.5 11t0.5 15q0 23 -7.5 41t-26.5 18q-23 0 -34 -25.5t-12 -63.5zM654 74v88q-27 -3 -46 -17 t-19 -40q0 -18 10.5 -29t26.5 -11t28 9zM1485 74v88q-27 -3 -46 -17t-19 -40q0 -18 10 -29t27 -11q16 0 28 9zM2464 85q18 0 30.5 -13t12.5 -31t-12.5 -31t-30.5 -13t-31 13t-13 31t13 31t31 13zM2504 41q0 17 -11.5 28.5t-28.5 11.5q-16 0 -28 -11.5t-12 -28.5 q0 -16 12 -28t28 -12q17 0 28.5 12t11.5 28zM2446 66h18q2 0 5 -0.5t6 -2.5q5 -2 5 -10q0 -4 -3 -9q-3 -3 -6 -3q7 -1 8 -10q0 -7 3 -15h-8q-1 2 -1 6t-1 7q-1 5 -2.5 7t-8.5 2h-8v-22h-7v50zM2453 44h10h3.5t3.5 1q3 3 3 7q0 6 -4 7t-6 1h-10v-16z" />
<glyph unicode="&#x2f;symbol&#x35;&#x2f;" horiz-adv-x="705" d="M232 -6l-132 136l124 234l129 -136zM474 -6l-121 234l128 136l124 -234z" />
<glyph unicode=" "  horiz-adv-x="210" />
<glyph unicode="&#x09;" horiz-adv-x="210" />
<glyph unicode="&#xa0;" horiz-adv-x="210" />
<glyph unicode="!" horiz-adv-x="316" d="M220 204h-140q15 92 26 171t19 154.5t14 155.5l218 10q-4 -25 -9.5 -55.5t-10.5 -54.5q-13 -61 -32.5 -130t-41 -134.5t-43.5 -116.5zM219 104q0 -27 -19 -51.5t-50 -40t-67 -15.5q-34 0 -55 15t-21 43q0 27 19 52t50.5 41t67.5 16q33 0 54 -15.5t21 -44.5z" />
<glyph unicode="&#x22;" horiz-adv-x="438" d="M283 695l-110 -317h-59l26 317h143zM488 695l-110 -317h-59l26 317h143z" />
<glyph unicode="#" horiz-adv-x="771" d="M562 164h-113l-80 -174l-88 16l-5 6l70 152h-111l-80 -174l-88 16l-5 6l70 152h-104l-5 6l31 84h119l66 142h-109l-5 6l31 84h124l80 174l88 -16l4 -6l-70 -152h112l80 174l88 -16l4 -6l-70 -152h94l5 -6l-31 -84h-109l-65 -142h98l5 -6zM276 254h111l66 142h-112z" />
<glyph unicode="$" horiz-adv-x="534" d="M135 -123l24 114q-28 1 -61 4.5t-63 9t-49 12.5l67 186q35 -32 77.5 -52.5t75.5 -20.5q27 0 42.5 11.5t15.5 28.5q0 20 -19 37t-46.5 35.5t-55.5 43t-47 58.5t-19 82q0 58 30.5 105t85 78.5t127.5 43.5l25 117l70 3l-24 -113h15q43 0 84.5 -6t74.5 -17l-71 -177 q-31 26 -67.5 43t-65.5 17q-28 0 -43.5 -12t-15.5 -31q0 -22 19 -40t46.5 -37t55 -42.5t46.5 -57t19 -82.5q0 -65 -35.5 -112.5t-94.5 -76.5t-129 -36l-24 -113z" />
<glyph unicode="%" horiz-adv-x="978" d="M293 -10h-115l542 670h116zM473 509q0 -58 -29.5 -109t-84.5 -82t-130 -31q-73 0 -112 36t-39 105q0 59 30.5 111t85.5 84t129 32q72 0 111 -37.5t39 -108.5zM226 397q0 -38 24 -38q18 0 31.5 20t23.5 50.5t15 62t5 55.5q0 20 -5 28t-17 8q-19 0 -33 -20.5t-24 -51.5 t-15 -62t-5 -52zM931 217q0 -58 -30 -109t-84.5 -82t-129.5 -31q-73 0 -112 36t-39 105q0 59 30.5 111t85.5 84t129 32q72 0 111 -37.5t39 -108.5zM684 105q0 -38 24 -38q18 0 31.5 20t23.5 50.5t15 62t5 55.5q0 20 -5 28t-17 8q-19 0 -33 -20.5t-24 -51.5t-15 -62t-5 -52z " />
<glyph unicode="&#x26;" horiz-adv-x="860" d="M755 98q0 -49 -35.5 -76.5t-88.5 -31.5l-7 7q5 10 5 23q0 25 -24 47t-62 44q-62 -54 -141 -87.5t-170 -33.5q-71 0 -118.5 20.5t-71 54t-23.5 73.5q0 42 24 80.5t66 67t95 40.5q-19 25 -30 54t-11 63q0 66 40.5 114.5t109.5 75.5t154 27q86 0 141 -27.5t55 -79.5 q0 -31 -20 -52t-53 -32.5t-72 -14.5q29 1 72 2.5t88 3t82 3.5t54 4q0 -30 -6.5 -71.5t-15.5 -75.5q-49 4 -98 15q-15 -44 -40 -88q43 -32 72 -68t29 -81zM378 486q0 -37 28 -68t72 -59.5t92 -56.5q6 33 8 69q-58 23 -110 55v21q6 13 10.5 27.5t4.5 29.5q0 18 -9.5 32 t-34.5 14q-27 0 -44 -18t-17 -46zM234 199q0 -52 35.5 -80.5t92.5 -28.5q75 0 128 49q-57 29 -121.5 61.5t-114.5 74.5q-20 -35 -20 -76z" />
<glyph unicode="'" horiz-adv-x="233" d="M283 695l-110 -317h-59l26 317h143z" />
<glyph unicode="(" horiz-adv-x="414" d="M49 201q0 79 29.5 154.5t81.5 141t120 116.5t146 82l36 -76q-60 -55 -104.5 -130t-69 -158.5t-24.5 -166.5q0 -58 13.5 -112.5t43.5 -98.5l-69 -76q-97 47 -150 133.5t-53 190.5z" />
<glyph unicode=")" horiz-adv-x="413" d="M380 371q0 -79 -29.5 -154.5t-81.5 -141t-120 -116.5t-146 -82l-36 76q61 55 105 130t68.5 159t24.5 166q0 58 -13.5 112.5t-43.5 98.5l69 76q97 -46 150 -133t53 -191z" />
<glyph unicode="*" horiz-adv-x="442" d="M219 411l41 111l-101 -71l-23 62l114 40l-97 40l49 62l72 -70l6 110h72l-42 -112l102 72l23 -62l-114 -40l97 -40l-49 -62l-72 72l-6 -112h-72z" />
<glyph unicode="+" horiz-adv-x="591" d="M511 256h-143l-30 -144h-147l29 144h-139l28 132q26 1 62 2t77 1l30 148h150l-31 -146q42 1 79.5 1h65.5z" />
<glyph unicode="," horiz-adv-x="296" d="M195 95q0 -36 -20.5 -75t-53.5 -75t-72 -63t-75 -41l-23 38q27 19 57 50t49 64q-20 5 -33 20t-13 41q0 28 15.5 53t41.5 41t57 16q34 0 52 -19t18 -50z" />
<glyph unicode="-" horiz-adv-x="388" d="M29 241l6 60h328l-6 -60h-328z" />
<glyph unicode="." horiz-adv-x="311" d="M96 -10q-31 0 -50.5 17.5t-19.5 48.5q0 28 16.5 52.5t44 40t58.5 15.5t49.5 -16t18.5 -44q0 -29 -16.5 -55t-43 -42.5t-57.5 -16.5z" />
<glyph unicode="/" horiz-adv-x="369" d="M310 703l109 -28l-322 -697l-109 28z" />
<glyph unicode="0" horiz-adv-x="657" d="M648 421q0 -81 -27 -157.5t-78 -138.5t-122.5 -98.5t-159.5 -36.5q-64 0 -114 23.5t-78.5 75.5t-28.5 135q0 81 28 158.5t79 140t122.5 100t158.5 37.5q104 0 162 -60t58 -179zM260 183q0 -83 38 -83q23 0 43 26.5t36 69t27.5 92.5t17.5 98.5t6 85.5q0 78 -35 78 q-24 0 -45 -26.5t-37 -69.5t-27.5 -92.5t-17.5 -97t-6 -81.5z" />
<glyph unicode="1" horiz-adv-x="440" d="M282 0h-210l111 525l-104 -45l-5 93l336 87l10 -10z" />
<glyph unicode="2" horiz-adv-x="573" d="M441 0h-439l10 118q29 19 69 50t82.5 69.5t79.5 79.5t59.5 80t22.5 70q0 26 -18.5 42t-54.5 16q-33 0 -73.5 -16.5t-75.5 -45.5l13 142q41 20 105.5 37.5t131.5 17.5q94 0 145.5 -38.5t51.5 -104.5q0 -56 -34 -107.5t-91 -97t-125.5 -83t-138.5 -65.5h126q104 0 201 15z " />
<glyph unicode="3" horiz-adv-x="520" d="M456 200q0 -49 -26 -87.5t-70 -66t-100 -42t-117 -14.5q-40 0 -85 6t-78 17l40 114q18 -11 47 -19t54 -8q35 0 61 15.5t40 39.5t14 49q0 38 -28 53t-61 15q-13 0 -31 -2t-30 -4l15 67q50 16 93 39t70 50.5t27 56.5q0 22 -18.5 34t-49.5 12q-28 0 -63 -9.5t-66 -25.5 l19 121q38 19 96.5 34t119.5 15q89 0 135.5 -34.5t46.5 -90.5q0 -49 -32.5 -86.5t-86 -63.5t-114.5 -42q51 -3 91 -19.5t63.5 -46.5t23.5 -77z" />
<glyph unicode="4" horiz-adv-x="633" d="M436 0h-210l21 97h-256l10 86l425 477l148 -10l-84 -394q23 2 44.5 4.5t41.5 5.5l-45 -169h-74zM328 479l-211 -228h162z" />
<glyph unicode="5" horiz-adv-x="564" d="M506 234q0 -58 -27.5 -103.5t-75 -77t-109 -47.5t-129.5 -16q-40 0 -85 6t-80 17l39 110q15 -6 37 -11.5t44.5 -8.5t38.5 -3q59 0 93 36t34 82q0 37 -22 53.5t-57 16.5q-25 0 -55 -6.5t-54 -11.5l-12 9l79 371h238q46 0 92.5 2.5t89.5 7.5l-46 -174h-308l-27 -129 q30 9 65 15t70 6q80 0 123.5 -36t43.5 -108z" />
<glyph unicode="6" horiz-adv-x="602" d="M580 263q0 -54 -24 -103t-67.5 -87.5t-101.5 -60.5t-127 -22q-62 0 -113.5 22t-81.5 70.5t-30 127.5q0 87 37 167.5t102 144.5t150 101t181 37q27 0 58.5 -2.5t41.5 -7.5l-39 -111q-13 5 -31.5 8t-33.5 3q-36 0 -74.5 -21t-73.5 -66.5t-61 -118.5q29 30 68.5 45.5 t81.5 15.5q67 0 102.5 -38.5t35.5 -103.5zM255 154q0 -31 7.5 -42.5t22.5 -11.5q27 0 44.5 24t26.5 59t9 68q0 29 -8 47t-28 18q-10 0 -24.5 -4.5t-25.5 -11.5q-15 -52 -19.5 -89t-4.5 -57z" />
<glyph unicode="7" horiz-adv-x="547" d="M264 0h-235q25 88 79 178t135 170t186 138h-146q-103 0 -201 -15l47 179h450l10 -10l-15 -100q-124 -120 -199.5 -253t-110.5 -287z" />
<glyph unicode="8" horiz-adv-x="626" d="M11 125q0 39 25.5 73t71 60.5t104.5 40.5q-48 30 -77.5 68.5t-29.5 87.5q0 58 40.5 104.5t110 73.5t154.5 27q96 0 153 -35.5t57 -97.5q0 -60 -50 -102t-126 -62q72 -32 102.5 -75t30.5 -87q0 -58 -44.5 -106t-120.5 -76.5t-170 -28.5q-107 0 -169 37t-62 98zM311 492 q0 -45 57 -87q25 26 36.5 53t11.5 52q0 24 -11 37t-30 13q-23 0 -43.5 -18t-20.5 -50zM221 149q0 -24 15 -41.5t48 -17.5q32 0 58.5 20t26.5 57q0 31 -21 50.5t-62 38.5q-32 -25 -48.5 -53t-16.5 -54z" />
<glyph unicode="9" horiz-adv-x="601" d="M598 441q0 -87 -37.5 -168t-104 -145t-153.5 -101t-187 -37q-26 0 -49 3t-34 7l38 111q14 -4 32.5 -7.5t33.5 -3.5q52 0 108 42t92 136q-29 -25 -66 -39t-75 -14q-61 0 -102 40t-41 116q0 58 25 108.5t69.5 89t103 60t124.5 21.5q63 0 113.5 -22t80 -70t29.5 -127z M268 386q0 -32 9.5 -52t31.5 -20q12 0 24 5.5t22 13.5q15 53 19 94.5t4 60.5q0 35 -7.5 48.5t-22.5 13.5q-19 0 -34 -16t-25.5 -41.5t-15.5 -54t-5 -52.5z" />
<glyph unicode=":" horiz-adv-x="311" d="M162 300q-31 0 -50.5 17.5t-19.5 48.5q0 28 16.5 52.5t44 40t58.5 15.5t49.5 -16t18.5 -44q0 -29 -16.5 -55t-43 -42.5t-57.5 -16.5zM96 -10q-31 0 -50.5 17.5t-19.5 48.5q0 28 16.5 52.5t44 40t58.5 15.5t49.5 -16t18.5 -44q0 -29 -16.5 -55t-43 -42.5t-57.5 -16.5z" />
<glyph unicode=";" horiz-adv-x="311" d="M159 300q-31 0 -50.5 17.5t-19.5 48.5q0 28 16.5 52.5t44 40t58.5 15.5t49.5 -16t18.5 -44q0 -29 -16.5 -55t-43 -42.5t-57.5 -16.5zM210 95q0 -36 -20.5 -75t-53.5 -75t-72 -63t-75 -41l-23 38q27 19 57 50t49 64q-20 5 -33 20t-13 41q0 28 15.5 53t41.5 41t57 16 q34 0 52 -19t18 -50z" />
<glyph unicode="&#x3c;" horiz-adv-x="595" d="M582 563l-34 -160l-261 -81l227 -77l-35 -160q-25 9 -63 25t-83.5 36t-92 41t-87.5 40.5t-70 34.5l26 124z" />
<glyph unicode="=" horiz-adv-x="592" d="M534 363h-430l28 132q37 2 93 3t119 1.5t121.5 1t99.5 0.5zM489 149h-430l28 132q37 2 93 3t119 1.5t121.5 1t99.5 0.5z" />
<glyph unicode="&#x3e;" horiz-adv-x="595" d="M45 85l34 160l261 81l-227 77l35 160q25 -9 63 -25t83.5 -36t92 -41t87.5 -40.5t70 -34.5l-26 -124z" />
<glyph unicode="?" horiz-adv-x="530" d="M294 204h-140q-10 27 -2 61q9 42 35 73t56 55t53.5 44.5t27.5 41.5q4 17 -9.5 24t-31.5 7q-29 0 -67.5 -15t-73.5 -41l-54 115q52 37 120.5 64t141.5 27q66 0 112 -23t67 -63t10 -93q-10 -46 -36 -77t-59 -52.5t-65 -40t-54.5 -38t-25.5 -45.5q-1 -12 -5 -24zM290 102 q0 -27 -19 -51.5t-50 -40t-67 -15.5q-34 0 -55 15t-21 43q0 27 19 52t50.5 41t67.5 16q33 0 54 -15.5t21 -44.5z" />
<glyph unicode="@" horiz-adv-x="1103" d="M783 -124q-51 -29 -129.5 -50t-164.5 -21q-126 0 -220 47.5t-146.5 131.5t-52.5 195q0 83 29 159.5t82 141.5t124 113t155 75t176 27q117 0 207.5 -44t142.5 -123.5t52 -186.5q0 -67 -20.5 -129.5t-57.5 -112.5t-86.5 -79.5t-107.5 -29.5q-56 0 -93 26t-54 65t-14 79h-2 q-13 -38 -42.5 -77.5t-72.5 -66t-95 -26.5q-65 0 -104 46t-39 122q0 62 27 124.5t76.5 114t119 82.5t154.5 31q30 0 70 -4.5t81.5 -14t74.5 -25.5l-56 -265q-15 -70 -3.5 -103.5t41.5 -33.5q26 0 53 23t49.5 62.5t36.5 89t14 101.5q0 91 -44 161t-123 109.5t-184 39.5 q-79 0 -154.5 -23t-141 -65t-115.5 -100t-78 -128t-28 -148q0 -101 47 -176.5t132.5 -117.5t198.5 -42q83 0 148.5 20t117.5 42zM497 140q23 0 45 25t40 65t27 85l16 77q-19 8 -34 8q-26 0 -49 -21t-40.5 -53.5t-27.5 -68t-10 -63.5q0 -54 33 -54z" />
<glyph unicode="A" horiz-adv-x="647" d="M152 0h-195l264 520l61 131l264 9l38 -660h-206l-1 125h-170zM372 503l-122 -278h126l-2 278h-2z" />
<glyph unicode="B" horiz-adv-x="646" d="M329 0h-297l110 520l18 130h296q89 0 135 -38t46 -103q0 -58 -34.5 -105.5t-90.5 -74.5q43 -16 65.5 -44t22.5 -71q0 -57 -35.5 -106t-97 -78.5t-138.5 -29.5zM372 540h-15l-35 -165h15q49 0 73.5 31.5t24.5 71.5q0 31 -12 44t-27 15.5t-24 2.5zM328 265h-30l-33 -155h30 q31 0 53 15t34 38.5t12 47.5q0 27 -12.5 38.5t-28 13.5t-25.5 2z" />
<glyph unicode="C" horiz-adv-x="574" d="M504 172l-10 -150q-93 -32 -189 -32q-129 0 -196 61.5t-67 184.5q0 87 32 164t89 135.5t132.5 91.5t162.5 33q50 0 96.5 -9.5t70.5 -18.5l-55 -167q-19 19 -54 37t-74 18q-41 0 -72 -23t-51.5 -60.5t-31 -82.5t-10.5 -90q0 -58 22 -92.5t82 -34.5q37 0 70.5 11.5 t52.5 23.5z" />
<glyph unicode="D" horiz-adv-x="694" d="M142 520l18 130h268q125 0 189.5 -61t64.5 -182q0 -79 -27 -152.5t-79 -130.5t-126 -90.5t-168 -33.5h-250zM454 416q0 49 -13.5 72t-36.5 30t-51 7l-84 -400h12q45 0 77.5 29.5t53.5 75.5t31.5 96t10.5 90z" />
<glyph unicode="E" horiz-adv-x="550" d="M457 0h-425l108 511l20 139h420l-38 -130l-187 10l-32 -150l171 5l-36 -120l-159 5l-32 -150l217 10z" />
<glyph unicode="F" horiz-adv-x="525" d="M242 0h-210l108 511l20 139h420l-38 -130l-187 10l-41 -193l5 25l171 5l-36 -120l-159 5z" />
<glyph unicode="G" horiz-adv-x="627" d="M534 22q-54 -16 -110.5 -24t-106.5 -8q-135 0 -205.5 61t-70.5 184q0 85 32 161.5t91 136t138.5 93.5t173.5 34q48 0 94 -8.5t77 -19.5l-55 -167q-19 19 -54.5 37t-76.5 18q-46 0 -81 -22.5t-58.5 -60.5t-35.5 -85t-12 -95q0 -63 22.5 -100t76.5 -44l15 72l18 130l192 10 z" />
<glyph unicode="H" horiz-adv-x="725" d="M242 0h-210l110 520l18 130l222 10l-64 -303h145l34 163l18 130l222 11l-140 -661h-210l53 252h-145z" />
<glyph unicode="I" horiz-adv-x="370" d="M242 0h-210l110 520l18 130l222 10z" />
<glyph unicode="J" horiz-adv-x="370" d="M-81 -109q50 14 80 54.5t40 90.5l103 484l18 130l222 10l-107 -504q-14 -66 -33.5 -126t-56.5 -108.5t-101.5 -79t-168.5 -37.5z" />
<glyph unicode="K" horiz-adv-x="659" d="M142 520l18 130l222 10l-62 -292h52l164 292l193 -10l-205 -330l77 -320l-221 -10l-32 273h-50l-56 -263h-210z" />
<glyph unicode="L" horiz-adv-x="515" d="M452 0h-420l110 520l18 130l222 10l-115 -540l215 20z" />
<glyph unicode="M" horiz-adv-x="939" d="M297 471h-1l-144 -471h-165l222 650l281 10l-39 -505h2l170 495l285 10l-57 -660h-215l60 471h-1l-183 -471h-236z" />
<glyph unicode="N" horiz-adv-x="705" d="M142 520l18 130l161 10l165 -372h2l62 362l167 10l-140 -660h-170l-150 342h-2l-58 -342h-165z" />
<glyph unicode="O" horiz-adv-x="678" d="M670 425q0 -82 -28.5 -160t-81.5 -140t-127 -98.5t-165 -36.5q-108 0 -168.5 57t-60.5 175q0 83 29 161t82.5 140.5t128 99.5t164.5 37q110 0 168.5 -59t58.5 -176zM269 192q0 -43 10.5 -67.5t32.5 -24.5q23 0 42.5 26.5t35.5 68.5t27 91.5t17 96.5t6 82q0 85 -39 85 q-24 0 -44 -25.5t-36.5 -66.5t-28 -89t-17.5 -94.5t-6 -82.5z" />
<glyph unicode="P" horiz-adv-x="635" d="M242 0h-210l110 520l18 130h238q28 0 62 -2t67.5 -10.5t62 -28.5t45.5 -56.5t17 -93.5q0 -85 -42.5 -152.5t-122.5 -106t-194 -38.5h-17zM362 535h-6l-55 -259h13q33 0 56 18t38 45.5t22 58.5t7 58q0 40 -12.5 56t-29.5 19.5t-33 3.5z" />
<glyph unicode="Q" horiz-adv-x="657" d="M702 -68q0 -40 -25.5 -68.5t-68 -43.5t-94.5 -15q-66 0 -128.5 23.5t-113 66.5t-79.5 102q-69 16 -111 70.5t-42 156.5q0 81 28 158.5t79 140t122.5 100t158.5 37.5q104 0 162 -60t58 -179q0 -74 -23 -145t-66.5 -130.5t-104.5 -99.5t-137 -52q37 -17 85 -27.5t102 -10.5 q62 0 111 12t65 19q11 -10 16.5 -23t5.5 -32zM298 100q23 0 43 26.5t36 69t27.5 92.5t17.5 98.5t6 85.5q0 78 -35 78q-24 0 -45 -26.5t-37 -69.5t-27.5 -92.5t-17.5 -97t-6 -81.5q0 -83 38 -83z" />
<glyph unicode="R" horiz-adv-x="646" d="M242 0h-210l110 520l18 130h265q120 0 175 -45.5t55 -127.5q0 -78 -43.5 -137.5t-115.5 -93.5l77 -246l-225 -10l-28 213q-14 -1 -28 -1h-7zM359 535h-3l-47 -219h12q41 0 67 23.5t38.5 58t12.5 65.5q0 36 -13 51t-31.5 18t-35.5 3z" />
<glyph unicode="S" horiz-adv-x="547" d="M501 218q0 -54 -26 -96.5t-70.5 -71.5t-100.5 -44.5t-117 -15.5q-29 0 -67.5 3.5t-75 9.5t-59.5 14l69 186q36 -32 79.5 -52.5t77.5 -20.5q28 0 44 11.5t16 28.5q0 20 -19.5 37t-48 35.5t-57 43t-48 58.5t-19.5 82q0 69 43.5 122t120 82.5t173.5 29.5q44 0 87 -6t77 -17 l-73 -177q-31 26 -69 43t-68 17q-29 0 -44.5 -12t-15.5 -31q0 -22 19.5 -40t48 -37t56.5 -42.5t47.5 -57t19.5 -82.5z" />
<glyph unicode="T" horiz-adv-x="548" d="M326 0h-210l109 515l-161 -10l40 145h510l-22 -145l-157 10z" />
<glyph unicode="U" horiz-adv-x="705" d="M328 110q32 0 54 28.5t32 76.5l63 305l18 130l222 10l-93 -436q-16 -77 -66 -129.5t-120 -78.5t-146 -26q-100 0 -159.5 45.5t-59.5 134.5q0 11 1.5 23t5 32t11 55.5t20 93.5t31.5 146l18 130l222 9q-28 -130 -46 -214.5t-28.5 -135t-16 -77.5t-7 -41t-1.5 -26 q0 -21 10.5 -38t34.5 -17z" />
<glyph unicode="V" horiz-adv-x="628" d="M515 660l193 -10l-306 -650h-295l-12 650l208 10l-4 -508h2z" />
<glyph unicode="W" horiz-adv-x="955" d="M70 0l25 650l208 10l-37 -508h2l178 498h264l-39 -498h2l181 508l181 -10l-279 -650h-288l52 468h-2l-160 -468h-288z" />
<glyph unicode="X" horiz-adv-x="627" d="M-43 0l251 315l-109 330l233 15l37 -210l156 210l176 -15l-244 -303l112 -342h-230l-50 200l-148 -200h-184z" />
<glyph unicode="Y" horiz-adv-x="602" d="M356 0h-210l43 202v0l-94 448l208 10l29 -292h2l155 292l193 -10l-283 -448z" />
<glyph unicode="Z" horiz-adv-x="538" d="M445 0h-443l-2 107l318 399q-56 -2 -112.5 -4t-112.5 -4l42 152h423l2 -106l-319 -400l124 8l124 8z" />
<glyph unicode="[" horiz-adv-x="444" d="M34 -3v0l125 583h-1l25 115h300l-25 -115h-103l-125 -583h104l-24 -115h-300z" />
<glyph unicode="\" horiz-adv-x="454" d="M156 -22l-26 697l121 28l26 -697z" />
<glyph unicode="]" horiz-adv-x="445" d="M278 -118h-300l25 115h103l125 583h-104l24 115h300l-24 -115v0l-125 -583h1z" />
<glyph unicode="^" horiz-adv-x="625" d="M229 200h-200l258 340h175l112 -340h-199l-41 154z" />
<glyph unicode="_" horiz-adv-x="470" d="M-92 -185l27 130h470l-27 -130h-470z" />
<glyph unicode="`" horiz-adv-x="351" d="M398 611l-31 -62q-59 13 -125.5 39.5t-126.5 63.5l91 124q47 -47 96 -88t96 -77z" />
<glyph unicode="a" horiz-adv-x="621" d="M11 128q0 48 15.5 101t46.5 103t76.5 90t105.5 64t134 24q54 0 111.5 -12.5t100.5 -31.5l-38 -178q-9 -41 -18.5 -96t-9.5 -110q0 -20 2 -40.5t6 -41.5h-210q-4 20 -6 39t-2 39q0 41 10 102q-25 -54 -62 -97t-79 -68t-82 -25q-46 0 -73.5 36t-27.5 102zM226 176 q0 -47 22 -47q21 0 45 39t47 103t40 140v0q-13 4 -22 4q-26 0 -49.5 -25t-42 -63t-29.5 -78.5t-11 -72.5z" />
<glyph unicode="b" horiz-adv-x="607" d="M596 372q0 -48 -15.5 -101t-46.5 -103t-76.5 -90t-105.5 -64t-134 -24q-54 0 -111.5 12.5t-100.5 31.5l108 510l8 141l230 10q-5 -38 -16.5 -96.5t-27 -128.5t-31.5 -141q25 52 61.5 93t77 64.5t79.5 23.5q47 0 74 -36t27 -102zM359 371q-20 0 -44.5 -38.5t-47.5 -102.5 t-40 -141q13 -4 22 -4q26 0 49.5 25t42 63t29.5 78.5t11 72.5q0 47 -22 47z" />
<glyph unicode="c" horiz-adv-x="483" d="M422 160l-8 -115q-38 -26 -89 -40.5t-104 -14.5q-88 0 -144 44.5t-56 140.5q0 67 27 127t76 107t114 74t141 27q34 0 67.5 -6t61.5 -18l-52 -165q-26 41 -53 60t-50 19q-24 0 -45.5 -19t-37.5 -49t-25 -64t-9 -64q0 -41 15 -67.5t49 -26.5q26 0 58.5 14t63.5 36z" />
<glyph unicode="d" horiz-adv-x="616" d="M11 128q0 48 15.5 101t46.5 103t76.5 90t105.5 64t134 24h13q3 15 7 34l8 141l230 10q-5 -38 -17.5 -98.5t-28.5 -130.5v0v0q-16 -70 -31 -142t-25 -135.5t-10 -106.5q0 -20 2 -40.5t6 -41.5h-210q-4 20 -6 39t-2 43q0 20 2 42t8 56q-25 -54 -62 -97t-79 -68t-82 -25 q-46 0 -73.5 36t-27.5 102zM226 176q0 -47 22 -47q21 0 45 39t47 103t40 140q-13 4 -22 4q-26 0 -49.5 -25t-42 -63t-29.5 -78.5t-11 -72.5z" />
<glyph unicode="e" horiz-adv-x="519" d="M458 160l-8 -115q-21 -14 -60 -26.5t-84.5 -20.5t-86.5 -8q-88 0 -143.5 43.5t-55.5 138.5q0 63 25.5 123.5t71 109t106 77t130.5 28.5q74 0 119.5 -32.5t45.5 -88.5q0 -39 -21.5 -73.5t-57 -60t-79.5 -40t-89 -14.5q-18 0 -36 3v-4q0 -49 20.5 -69.5t56.5 -20.5 q32 0 72 13.5t74 36.5zM320 415q-18 0 -35 -27.5t-29.5 -67.5t-17.5 -79q29 15 51.5 40t35.5 53.5t13 52.5q0 28 -18 28z" />
<glyph unicode="f" horiz-adv-x="396" d="M406 379l-96 3l-71 -338q-22 -106 -92.5 -168.5t-207.5 -70.5l-29 70q46 21 69.5 49.5t33.5 61.5t17 65l71 336l-54 2l11 53l60 20v2q-1 5 -4 23t-3 38q0 55 28 93t74.5 57.5t102.5 19.5q50 0 96.5 -13t74.5 -28l-47 -125q-19 21 -42 34t-49 13q-29 0 -47 -18.5 t-18 -43.5q0 -13 4 -26.5t12 -25.5h132z" />
<glyph unicode="g" horiz-adv-x="561" d="M474 -46q0 -49 -36.5 -82.5t-103 -50t-156.5 -16.5q-69 0 -122.5 11t-84.5 34.5t-31 62.5q0 36 26.5 61t71.5 36l13 -10q0 -30 10 -55t27 -45q41 -46 101 -46q30 0 47 12.5t17 28.5q0 18 -20.5 30t-50.5 22.5t-60 23t-50.5 32t-20.5 50.5q0 44 49 79t134 38v4 q-98 0 -150.5 36t-52.5 103q0 50 31 95t97.5 73.5t172.5 28.5q52 0 91 0.5t75 2.5t77 7q15 -12 22 -27.5t7 -30.5q0 -25 -16 -44.5t-43 -19.5q-19 0 -37.5 10t-41.5 25t-58 29l-2 -5q34 -15 63 -33t47 -41.5t18 -57.5q0 -37 -22.5 -66.5t-59 -50t-78.5 -30.5q-9 -2 -27 -6.5 t-36.5 -11t-31.5 -14.5t-13 -19q0 -13 21 -22.5t52 -20t62 -26.5t52 -40.5t21 -63.5zM236 279q0 -22 5.5 -34t20.5 -12q17 0 29.5 15.5t21 39.5t12.5 49t4 44q0 43 -26 43q-18 0 -31 -16t-21 -39.5t-11.5 -48t-3.5 -41.5z" />
<glyph unicode="h" d="M544 0h-210q-5 29 -6.5 45.5t-1.5 44.5q0 21 6.5 56.5t14.5 74t14.5 70t6.5 44.5q0 11 -4 18t-14 7q-25 0 -53 -46t-44 -116q-6 -36 -9.5 -67.5t-3.5 -54.5q0 -14 2 -34.5t6 -41.5h-210q-3 14 -5.5 36t-2.5 40q0 26 5.5 67.5t14 87.5t17 88t14.5 70l33 155l8 141l230 10 q-5 -38 -17 -96.5t-27 -127.5t-30 -139q23 52 56.5 92t73 63t82.5 23q44 0 72.5 -24.5t28.5 -76.5q0 -22 -8.5 -62.5t-19 -89t-19 -96t-8.5 -85.5q0 -15 2 -35t6 -41z" />
<glyph unicode="i" horiz-adv-x="327" d="M365 690q0 -31 -21.5 -58t-55.5 -44t-74 -17q-37 0 -61 16.5t-24 47.5q0 30 21.5 57.5t56.5 45.5t75 18q37 0 60 -17t23 -49zM313 509q-3 -29 -11 -70.5t-18.5 -90.5t-20 -99t-16 -94.5t-6.5 -77.5q0 -15 2 -35.5t6 -41.5h-210q-6 29 -7 51.5t-1 30.5q0 26 1 52t10 69 l33 155l8 141z" />
<glyph unicode="j" horiz-adv-x="323" d="M370 690q0 -31 -21.5 -58t-55.5 -44t-74 -17q-37 0 -61 16.5t-24 47.5q0 30 21.5 57.5t56.5 45.5t75 18q37 0 60 -17t23 -49zM318 509q-1 -9 -3 -20.5t-6.5 -36.5t-14.5 -73t-27 -129t-43 -206q-22 -106 -92.5 -168.5t-207.5 -70.5l-29 70q46 21 69.5 49.5t33.5 61.5 t17 65l65 307l8 141z" />
<glyph unicode="k" horiz-adv-x="622" d="M248 0h-210q-3 15 -5.5 35.5t-2.5 39.5q0 26 5 64t12.5 82t16.5 87.5t17 80.5l33 155l8 141l230 10q-5 -39 -18 -100.5t-29.5 -134t-31.5 -144.5h5q29 50 70 94t89.5 72t98.5 28q44 0 69 -23t25 -65q0 -49 -38.5 -97t-121.5 -101q17 -53 44 -109.5t65 -114.5l-231 -10 q-23 39 -42.5 86t-27.5 99q74 58 103.5 99.5t29.5 69.5q0 31 -26 31q-22 0 -46.5 -25t-46.5 -67t-36.5 -93.5t-15.5 -104.5v-1v-6q0 -16 2 -36.5t6 -41.5z" />
<glyph unicode="l" horiz-adv-x="326" d="M352 695q-5 -39 -17.5 -98.5t-28.5 -130t-31 -142.5t-25 -136t-10 -110q0 -16 2 -36.5t6 -41.5h-210q-3 15 -5.5 35.5t-2.5 39.5q0 26 5 64t12.5 82t16.5 87.5t17 80.5l33 155l8 141z" />
<glyph unicode="m" horiz-adv-x="885" d="M248 0h-210q-4 20 -6 38t-2 37q0 26 5 63.5t12 79t14.5 79t13.5 62.5l8 141l230 10q-4 -33 -15 -81t-22 -102q21 53 54 94.5t72 65t79 23.5q50 0 78.5 -35.5t12.5 -109.5q-1 -6 -2 -11q33 69 86 112.5t107 43.5q50 0 78.5 -35.5t12.5 -109.5q-21 -98 -35.5 -167 t-14.5 -121q0 -16 2 -36t6 -41h-210q-4 17 -6 34t-2 39q0 18 2.5 43t11 71t25.5 127q2 7 3 18t-1 19.5t-10 8.5q-12 0 -28.5 -21.5t-33 -58t-27.5 -83.5q-6 -34 -10 -62.5t-4 -53.5v-1v-3q0 -16 2 -36t6 -41h-210q-4 17 -6 34t-2 39q0 18 2.5 43t11 71t25.5 127q2 7 3 18 t-1 19.5t-10 8.5q-15 0 -36.5 -32.5t-40 -86.5t-24.5 -118q-2 -26 -2 -47q0 -18 2 -37t6 -39z" />
<glyph unicode="n" d="M248 0h-210q-4 20 -6 38t-2 37q0 26 5 63.5t12 79t14.5 79t13.5 62.5l8 141l230 10q-4 -33 -15 -81t-22 -103q22 53 55.5 94.5t74 65.5t84.5 24q52 0 82 -35.5t14 -109.5q-21 -98 -35.5 -168.5t-14.5 -120.5q0 -15 2 -35t6 -41h-210q-5 29 -6.5 45.5t-1.5 44.5 q0 10 0.5 19.5t4 29.5t11.5 60.5t23 112.5q4 17 2 32.5t-17 15.5q-19 0 -39.5 -26t-38 -70.5t-25.5 -99.5q-4 -23 -5.5 -45.5t-1.5 -42.5q0 -18 2 -37t6 -39z" />
<glyph unicode="o" horiz-adv-x="607" d="M584 314q0 -63 -26 -121.5t-73 -104t-110 -72t-137 -26.5q-62 0 -111 20.5t-77 63t-28 107.5q0 63 26.5 121.5t73.5 105.5t110.5 74.5t137.5 27.5q98 0 156 -50.5t58 -145.5zM237 156q0 -35 7 -53t25 -18q24 0 43 27t31.5 69t19 86.5t6.5 78.5q0 69 -33 69 q-24 0 -42.5 -26.5t-31 -67t-19 -85t-6.5 -80.5z" />
<glyph unicode="p" horiz-adv-x="607" d="M313 510q-4 -31 -13 -77t-22 -100q26 51 62 91t76.5 63t78.5 23q47 0 74 -36t27 -102q0 -48 -15.5 -101t-46.5 -103t-76.5 -90t-105.5 -64t-134 -24h-9q-4 -27 -6 -50.5t-2 -42.5q0 -20 2 -40.5t6 -41.5h-210q-4 20 -6 39t-2 43q0 32 13 110t38 197l33 155l8 141z M359 371q-20 0 -45 -37.5t-48 -101t-39 -140.5q-1 -2 -1 -3q13 -4 23 -4q26 0 49.5 25t42 63t29.5 78.5t11 72.5q0 47 -22 47z" />
<glyph unicode="q" horiz-adv-x="606" d="M11 128q0 48 15.5 101t46.5 103t76.5 90t105.5 64t134 24q54 0 111.5 -12.5t100.5 -31.5q-26 -123 -44.5 -210.5t-30 -147.5t-18.5 -99.5t-9.5 -65.5t-2.5 -47q0 -19 2 -39.5t6 -41.5h-210q-4 20 -6 39t-2 39q0 44 10.5 109t31.5 165q-25 -51 -61 -91t-76.5 -63 t-78.5 -23q-46 0 -73.5 36t-27.5 102zM226 176q0 -47 22 -47q20 0 43.5 37t46.5 99t40 136l2 10q-13 4 -22 4q-26 0 -49.5 -25t-42 -63t-29.5 -78.5t-11 -72.5z" />
<glyph unicode="r" horiz-adv-x="456" d="M248 0h-210q-4 20 -6 38t-2 37q0 26 5 63.5t12 79t14.5 79t13.5 62.5l8 141l230 10q-5 -36 -17 -91t-25 -116q19 55 43.5 102t54.5 76t65 29q23 0 41.5 -11.5t27.5 -25.5l-85 -166q-9 4 -25.5 7.5t-29.5 3.5q-28 0 -50.5 -21.5t-38.5 -57.5t-24.5 -81t-9.5 -92 q1 -16 2.5 -32.5t5.5 -33.5z" />
<glyph unicode="s" horiz-adv-x="486" d="M441 173q0 -55 -37 -96.5t-101 -64t-146 -22.5q-27 0 -59 2.5t-62 7.5t-52 11l44 157q24 -14 53.5 -24t59 -15.5t51.5 -5.5q43 0 43 22q0 15 -13 23.5t-34 17t-46 21.5q-34 18 -57.5 44t-23.5 71q0 55 37.5 97.5t103.5 66.5t150 24q38 0 75.5 -5t67.5 -14l-44 -158 q-39 21 -79.5 32.5t-63.5 11.5q-17 0 -28.5 -6t-11.5 -19t12 -22.5t30 -17t34 -15.5q38 -17 67.5 -44t29.5 -80z" />
<glyph unicode="t" horiz-adv-x="421" d="M367 45q-74 -55 -180 -55q-73 0 -113.5 31.5t-40.5 95.5q0 23 5.5 57.5t18 92t31.5 149.5l-53 1l12 53l79 20l76 119l141 9q-7 -35 -14 -67t-14 -61h129l-26 -83l-121 3q-23 -108 -36.5 -172t-13.5 -84q0 -19 11 -25.5t27 -6.5q25 0 44.5 10.5t45.5 27.5z" />
<glyph unicode="u" d="M75 358l8 141l230 10q-7 -58 -18 -115t-22 -105.5t-18.5 -83t-7.5 -48.5q0 -17 11 -17q15 0 46.5 46.5t56.5 151.5q2 11 4 20q5 23 7.5 47.5t2.5 49.5q0 11 -0.5 22t-1.5 22l230 10q-3 -29 -11 -70.5t-18.5 -90.5t-20 -99t-16 -94.5t-6.5 -77.5q0 -15 2 -35.5t6 -41.5 h-210q-6 29 -7 51.5t-1 30.5q0 21 0.5 36.5t1.5 30.5q-38 -80 -96.5 -119.5t-110.5 -39.5q-47 0 -67.5 30t-20.5 82q0 16 2 33t7 43.5t14 69.5t24 110z" />
<glyph unicode="v" horiz-adv-x="548" d="M67 236q0 74 -4.5 144.5t-14.5 119.5l215 10q6 -28 8.5 -59t2.5 -65q0 -75 -9 -156.5t-23 -153.5h3q38 70 64 145.5t40.5 147.5t15.5 131q29 5 52 7.5t42 2.5q43 0 71 -15.5t28 -62.5q0 -36 -20.5 -90.5t-61.5 -117.5t-104 -124.5t-147 -109.5l-169 10q5 47 8 109.5 t3 126.5z" />
<glyph unicode="w" horiz-adv-x="850" d="M67 236q0 74 -4.5 144.5t-14.5 119.5l215 10q6 -28 8.5 -59t2.5 -65q0 -75 -9 -156.5t-23 -153.5h3q38 70 64 145.5t40.5 147.5t15.5 131l200 10q6 -28 8.5 -59t2.5 -65q0 -75 -9 -156.5t-23 -153.5h3q38 70 64 145.5t40.5 147.5t15.5 131q29 5 52 7.5t42 2.5 q43 0 71 -15.5t28 -62.5q0 -36 -20.5 -90.5t-61.5 -117.5t-104 -124.5t-147 -109.5l-154 10q8 43 14 98t10 114t6 113q-20 -58 -49 -123.5t-62.5 -122t-66.5 -89.5l-169 10q5 47 8 109.5t3 126.5z" />
<glyph unicode="x" horiz-adv-x="532" d="M-27 58q0 28 24 61t68.5 61t107.5 41q-20 69 -45.5 140t-74.5 139l215 10q29 -44 47.5 -94t33.5 -103q12 33 20.5 80t8.5 97q17 9 42.5 14.5t47.5 5.5q44 0 68 -20t24 -49q0 -28 -24 -59.5t-69 -59.5t-108 -42q20 -69 45.5 -140.5t74.5 -139.5l-215 -10q-29 44 -47 93.5 t-34 101.5q-11 -33 -19.5 -79t-8.5 -96q-17 -9 -42 -14.5t-48 -5.5q-44 0 -68 20t-24 48z" />
<glyph unicode="y" horiz-adv-x="558" d="M356 14q-84 -103 -176.5 -156t-184.5 -53q-53 0 -85 19t-32 60q0 24 11 50.5t32 39.5q27 -8 61.5 -13t64.5 -5q38 0 75 8.5t65 24t39 36.5l-160 9q11 85 11 205q0 71 -4.5 141.5t-14.5 119.5l215 10q6 -28 8.5 -59t2.5 -65q0 -67 -9 -139.5t-23 -136.5h3q38 65 64 134 t40.5 135.5t15.5 120.5q29 5 52 7.5t42 2.5q43 0 71 -15.5t28 -60.5q0 -36 -18.5 -88.5t-49.5 -111t-68.5 -116t-75.5 -104.5z" />
<glyph unicode="z" horiz-adv-x="502" d="M3 -10l-33 48q171 147 296 286q-25 10 -51.5 15t-50.5 5q-31 0 -57.5 -11.5t-43.5 -34.5l-28 10q10 80 31.5 124t51 61t61.5 17q45 0 90.5 -24.5t83.5 -59.5q35 43 64 84q18 0 37 -5.5t32 -19t13 -37.5q0 -36 -28 -74t-72.5 -74.5t-95.5 -68.5t-98 -57q29 -2 57 -10 t64 -8q44 0 79 15t53 43l28 -10q-20 -88 -49 -134t-65 -63t-79 -17q-37 0 -67.5 7.5t-58 15t-55.5 7.5q-20 0 -47.5 -6.5t-61.5 -23.5z" />
<glyph unicode="{" horiz-adv-x="464" d="M132 179q0 22 -15.5 34.5t-50.5 16.5l21 100q50 8 73.5 30.5t23.5 71.5q0 22 -3 40.5t-3 40.5q0 56 25 91.5t70 55.5t104.5 27.5t128.5 7.5l-19 -100q-49 0 -77.5 -23t-28.5 -73q0 -13 1.5 -31t1.5 -32q0 -48 -24 -80t-63 -50.5t-86 -25.5q55 -9 88 -34t33 -65 q0 -29 -14 -57.5t-28 -55t-14 -51.5q0 -52 77 -52l-24 -100q-139 0 -202.5 27.5t-63.5 87.5q0 28 10.5 54.5t24 52t24 48.5t10.5 44z" />
<glyph unicode="|" horiz-adv-x="320" d="M124 -202l-121 -3l191 897l121 3z" />
<glyph unicode="}" horiz-adv-x="463" d="M344 381q0 -22 15.5 -34t50.5 -17l-21 -100q-50 -7 -73.5 -29.5t-23.5 -72.5q0 -22 3 -40t3 -41q0 -56 -25 -91.5t-70 -55.5t-104.5 -27.5t-128.5 -7.5l19 100q49 0 77.5 23t28.5 73q0 14 -1.5 32t-1.5 31q0 48 24 80t63 50.5t86 25.5q-55 9 -88 34t-33 65q0 29 14 57.5 t28 55.5t14 51q0 52 -77 52l24 100q140 0 203 -27.5t63 -87.5q0 -28 -10.5 -54.5t-24 -52t-24 -48.5t-10.5 -44z" />
<glyph unicode="~" horiz-adv-x="644" d="M198 217q-7 0 -24 -14t-39 -35l-65 34q22 32 49.5 68t57.5 61.5t57 25.5q21 0 53 -6.5t65.5 -15.5t61 -15.5t38.5 -6.5q8 0 25 14t40 35l64 -34q-22 -32 -49.5 -68t-57 -61.5t-57.5 -25.5q-21 0 -53 6.5t-65.5 15.5t-61 15.5t-39.5 6.5z" />
<glyph unicode="&#xa1;" horiz-adv-x="315" d="M97 398q0 28 19 52t50.5 39.5t66.5 15.5q34 0 55 -15t21 -43q0 -26 -19 -51.5t-50 -41.5t-68 -16q-33 0 -54 15.5t-21 44.5zM96 298h140q-14 -91 -25.5 -170.5t-19.5 -155t-14 -155.5l-218 -10q4 26 9.5 56t10.5 54q14 61 33 130t41 134.5t43 116.5z" />
<glyph unicode="&#xa2;" horiz-adv-x="483" d="M185 -123l24 113q-83 3 -135.5 47.5t-52.5 137.5q0 62 24 119t67 102.5t101 75t126 36.5l24 112l50 3l-24 -113q32 -1 62.5 -7t56.5 -17l-52 -165q-26 41 -53 60t-50 19q-24 0 -45.5 -19t-37.5 -49t-25 -64t-9 -64q0 -41 15 -67.5t49 -26.5q26 0 58.5 14t63.5 36l-8 -115 q-31 -22 -71.5 -35.5t-83.5 -17.5l-24 -112z" />
<glyph unicode="&#xa3;" horiz-adv-x="609" d="M510 252l-135 3q-22 -52 -57.5 -105.5t-85.5 -93.5q45 -25 99 -45.5t126 -20.5q18 0 40 2t47 8l-89 -154q-16 -6 -42 -6q-51 0 -92.5 15.5t-76 40.5t-63.5 53t-53 52q-40 -11 -82 -11q-58 0 -75.5 19.5t-11.5 49.5q8 35 35.5 54.5t63.5 19.5q21 0 40.5 -6t40.5 -17 q4 16 9 35t10 42l16 73l-95 2l21 53l91 20q36 152 123.5 238.5t230.5 86.5q53 0 89.5 -9t55.5 -20l-76 -132q-17 20 -40.5 35.5t-46.5 15.5q-21 0 -41 -19.5t-39.5 -66t-41.5 -129.5h141z" />
<glyph unicode="&#xa4;" horiz-adv-x="470" d="M359 67l-48 65q-27 -18 -58 -27.5t-64 -9.5q-28 0 -51 7.5t-39 20.5l-68 -56l-31 40l67 55q-15 30 -15 68q0 44 18.5 83t48.5 69l-44 59l43 36l22.5 -27t25.5 -32q26 15 54 23t58 8q31 0 55 -9t41 -24l74 61l32 -40l-76 -62q12 -28 12 -62q0 -39 -15.5 -75.5t-42.5 -66.5 q14 -18 27.5 -34t23.5 -29zM144 249q0 -29 16.5 -52t53.5 -23q33 0 58 18t38.5 46t13.5 56q0 30 -16.5 50t-53.5 20q-32 0 -57 -16.5t-39 -42.5t-14 -56z" />
<glyph unicode="&#xa5;" horiz-adv-x="602" d="M52 88l13 61h113l11 53h-113l13 61h87l-81 387l208 10l29 -292h2l155 292l193 -10l-244 -387h87l-13 -61h-113l-11 -53h113l-13 -61h-113l-19 -88h-210l19 88h-113z" />
<glyph unicode="&#xa6;" horiz-adv-x="320" d="M241 349l-121 -5l74 348l121 3zM124 -202l-121 -3l75 352l121 5z" />
<glyph unicode="&#xa7;" horiz-adv-x="606" d="M535 109q0 -64 -28 -116t-77.5 -88t-114.5 -55.5t-139 -19.5q-34 0 -74.5 4t-76.5 12t-60 19l48 160q18 -10 44.5 -19.5t53 -15t43.5 -5.5q33 0 49 20t16 45q0 27 -15.5 52.5t-38 52.5t-45.5 58t-38.5 69.5t-15.5 87.5q0 62 27.5 115t77.5 92t117.5 61t146.5 22 q32 0 67 -3.5t67 -10t54 -16.5l-64 -155q-23 12 -55.5 21t-54.5 9q-35 0 -50.5 -22t-15.5 -48q0 -29 15.5 -55.5t38 -53.5t45 -58t38 -70t15.5 -89zM204 -83l-1 -6q101 5 161.5 52t60.5 129q0 45 -16.5 79t-40.5 62.5t-48 55.5t-40.5 56.5t-16.5 67.5q0 43 21 75.5 t53.5 54.5t65.5 30l1 6q-62 -3 -112 -27.5t-78.5 -67t-28.5 -100.5q0 -43 14.5 -76t36 -61.5t43 -55t36 -55.5t14.5 -64q0 -34 -14 -61t-35 -46.5t-41.5 -31.5t-34.5 -16z" />
<glyph unicode="&#xa8;" horiz-adv-x="548" d="M333 685q0 -30 -20 -57t-52 -43.5t-69 -15.5q-34 1 -56.5 17t-22.5 46q0 29 20 55t52.5 43.5t70.5 18.5q34 1 55.5 -15.5t21.5 -48.5zM605 685q0 -30 -20 -57t-52 -43.5t-69 -15.5q-34 1 -56.5 17t-22.5 46q0 29 20 55t52.5 43.5t70.5 18.5q34 1 55.5 -15.5t21.5 -48.5z " />
<glyph unicode="&#xa9;" horiz-adv-x="700" d="M43 184q0 71 30.5 136.5t83 117t119.5 82t139 30.5q70 0 124.5 -29.5t86 -82.5t31.5 -124q0 -69 -30.5 -134.5t-83 -117t-119.5 -82t-141 -30.5q-72 0 -126 30t-84 83t-30 121zM295 0q62 0 118 26t99.5 69.5t68.5 97t25 109.5q0 57 -26 101.5t-71.5 70.5t-105.5 26 t-115 -25t-99 -68t-69.5 -97.5t-25.5 -113.5q0 -57 25 -101.5t70.5 -69.5t105.5 -25zM439 185l-4 -85q-28 -9 -55 -12.5t-50 -3.5q-153 0 -153 128q0 57 29.5 106t80.5 78.5t115 29.5q29 0 55.5 -5.5t44.5 -13.5l-35 -90q-10 5 -28.5 11t-37.5 6q-29 0 -48 -15t-27.5 -38 t-8.5 -47q0 -26 12.5 -40t48.5 -14q19 0 39.5 2.5t21.5 2.5z" />
<glyph unicode="&#xaa;" horiz-adv-x="523" d="M88 469q0 43 19 90t56.5 88t92.5 66.5t128 25.5q43 0 88.5 -9.5t81.5 -24.5l-27 -128q-6 -28 -12.5 -64t-6.5 -70q0 -16 2 -34.5t6 -36.5h-168q-4 20 -6 36.5t-2 30.5q0 21 4 48q-29 -51 -77 -86.5t-96 -35.5q-38 0 -60.5 27.5t-22.5 76.5zM259 506q0 -16 5.5 -23 t12.5 -7q15 0 32 21t33 57t29 80q3 13 6 27q-9 3 -16 3q-20 0 -38.5 -16.5t-33 -42t-22.5 -52t-8 -47.5z" />
<glyph unicode="&#xab;" horiz-adv-x="586" d="M288 253l11 54q75 50 139 98.5t128 104.5l34 -22q-33 -60 -70 -109.5t-77 -98.5q20 -49 35.5 -98.5t22.5 -109.5l-43 -22q-40 56 -83 105t-97 98zM38 253l11 54q75 50 139 98.5t128 104.5l34 -22q-33 -60 -70 -109.5t-77 -98.5q20 -49 35.5 -98.5t22.5 -109.5l-43 -22 q-40 56 -83 105t-97 98z" />
<glyph unicode="&#xac;" horiz-adv-x="619" d="M558 433l-58 -271h-145l29 133h-294l28 132q36 2 93.5 3t122 1.5t124 1t100.5 0.5z" />
<glyph unicode="&#xae;" horiz-adv-x="700" d="M43 184q0 71 30.5 136.5t83 117t119.5 82t139 30.5q70 0 124.5 -29.5t86 -82.5t31.5 -124q0 -69 -30.5 -134.5t-83 -117t-119.5 -82t-141 -30.5q-72 0 -126 30t-84 83t-30 121zM295 0q62 0 118 26t99.5 69.5t68.5 97t25 109.5q0 57 -26 101.5t-71.5 70.5t-105.5 26 t-115 -25t-99 -68t-69.5 -97.5t-25.5 -113.5q0 -57 25 -101.5t70.5 -69.5t105.5 -25zM301 89h-125l56 264l8 68h154q64 0 98 -24.5t34 -71.5q0 -40 -23 -70t-60 -47l43 -119l-134 -5l-15 101h-2h-14zM398 321q0 24 -14.5 28t-26.5 4l-22 -101q34 1 48.5 24t14.5 45z" />
<glyph unicode="&#xaf;" horiz-adv-x="351" d="M105 602l26 120h290l-26 -120h-290z" />
<glyph unicode="&#xb0;" horiz-adv-x="363" d="M365 475q0 -47 -25 -88t-67 -66.5t-93 -25.5q-52 0 -83 28.5t-31 80.5q0 47 25 88t66.5 66.5t92.5 25.5q53 0 84 -29t31 -80zM144 419q0 -24 15 -39t40 -15q24 0 44 13.5t32.5 34.5t12.5 45q0 26 -14.5 41t-40.5 15t-46 -14.5t-31.5 -36t-11.5 -44.5z" />
<glyph unicode="&#xb1;" horiz-adv-x="592" d="M528 332h-141l-24 -114h-147l23 114h-141l28 132q26 1 62.5 2t78.5 1l24 118h150l-25 -116q41 1 78 1h65zM460 15h-430l28 132q37 2 93 3t119 1.5t121.5 1t99.5 0.5z" />
<glyph unicode="&#xb2;" horiz-adv-x="452" d="M386 372h-287l4 79q23 8 55.5 28t64.5 45.5t53.5 51t21.5 43.5q0 13 -13 20t-35 7t-48.5 -9.5t-46.5 -25.5l5 94q26 11 68 20.5t86 9.5q62 0 97 -22.5t35 -61.5q0 -37 -33 -70t-85 -58.5t-107 -41.5h62q30 0 64.5 2.5t65.5 6.5z" />
<glyph unicode="&#xb3;" horiz-adv-x="419" d="M395 478q0 -35 -29 -60t-74.5 -38t-97.5 -13q-28 0 -56.5 3t-50.5 9l24 75q11 -6 29.5 -10.5t36.5 -4.5q33 0 52 14.5t19 30.5q0 18 -18.5 25t-39.5 7q-10 0 -21.5 -1t-18.5 -2l8 43q47 13 83.5 32t36.5 38q0 9 -12 14.5t-32 5.5q-17 0 -40 -5t-43 -13l10 80 q26 11 64.5 19t75.5 8q58 0 90 -20.5t32 -53.5q0 -38 -41 -63t-98 -36q47 -4 79 -23.5t32 -60.5z" />
<glyph unicode="&#xb4;" horiz-adv-x="335" d="M390 652q-60 -37 -126.5 -63.5t-125.5 -39.5l-31 62q47 36 96.5 77t95.5 88z" />
<glyph unicode="&#xb6;" horiz-adv-x="662" d="M184 -70q54 0 87.5 21t52.5 51.5t28.5 61.5t13.5 52l93 437v2h-69l-82 -385h-32q-101 0 -163.5 50t-62.5 144q0 62 27.5 114.5t76 91t111 59.5t132.5 21h243l-21 -97l-86 -408q-32 -154 -122 -234.5t-232 -80.5q-43 0 -87.5 7t-84.5 19l31 105q41 -15 78 -23t68 -8z" />
<glyph unicode="&#xb7;" horiz-adv-x="310" d="M135 177q-31 0 -50.5 17.5t-19.5 48.5q0 28 16.5 52.5t44 40t58.5 15.5t49.5 -16t18.5 -44q0 -29 -16.5 -55t-43 -42.5t-57.5 -16.5z" />
<glyph unicode="&#xb8;" horiz-adv-x="278" d="M25 -124q7 26 -40 38l50 86h57l-20 -35q57 -6 85.5 -28.5t21.5 -56.5q-10 -47 -72 -74.5t-176 -27.5l5 54q32 3 58 12.5t31 31.5z" />
<glyph unicode="&#xb9;" horiz-adv-x="369" d="M287 372h-140l61 275l-66 -23l-6 60l220 51l7 -7z" />
<glyph unicode="&#xba;" horiz-adv-x="514" d="M545 590q0 -60 -35.5 -111.5t-97 -83t-139.5 -31.5q-76 0 -126 36.5t-50 110.5q0 60 36 112t97.5 84.5t139.5 32.5q82 0 128.5 -39.5t46.5 -110.5zM269 491q0 -51 27 -51q19 0 33.5 18.5t24 46.5t14 58t4.5 53q0 26 -6.5 37t-20.5 11q-19 0 -33 -17.5t-23.5 -44.5 t-14.5 -57t-5 -54z" />
<glyph unicode="&#xbb;" horiz-adv-x="586" d="M311 307l-11 -54q-75 -49 -138.5 -98t-128.5 -105l-34 22q33 60 70 109.5t77 98.5q-20 49 -35.5 98.5t-22.5 109.5l43 22q41 -56 83.5 -104.5t96.5 -98.5zM561 307l-11 -54q-75 -49 -138.5 -98t-128.5 -105l-34 22q33 60 70 109.5t77 98.5q-20 49 -35.5 98.5t-22.5 109.5 l43 22q41 -56 83.5 -104.5t96.5 -98.5z" />
<glyph unicode="&#xbc;" horiz-adv-x="932" d="M213 -10h-115l542 670h116zM270 292h-140l61 275l-66 -23l-6 60l220 51l7 -7zM719 0h-140l10 44h-165l5 57l267 262l99 -5l-44 -208q27 2 53 5l-26 -111h-50zM635 247l-125 -100h102z" />
<glyph unicode="&#xbd;" horiz-adv-x="958" d="M234 -10h-115l542 670h116zM270 292h-140l61 275l-66 -23l-6 60l220 51l7 -7zM813 0h-287l4 79q23 8 55.5 28t64.5 45.5t53.5 51t21.5 43.5q0 13 -13 20t-35 7t-48.5 -9.5t-46.5 -25.5l5 94q26 11 68 20.5t86 9.5q62 0 97 -22.5t35 -61.5q0 -37 -33 -70t-85 -58.5 t-107 -41.5h62q30 0 64.5 2.5t65.5 6.5z" />
<glyph unicode="&#xbe;" horiz-adv-x="970" d="M270 -10h-115l542 670h116zM378 398q0 -35 -29 -60t-74.5 -38t-97.5 -13q-28 0 -56.5 3t-50.5 9l24 75q11 -6 29.5 -10.5t36.5 -4.5q33 0 52 14.5t19 30.5q0 18 -18.5 25t-39.5 7q-10 0 -21.5 -1t-18.5 -2l8 43q47 13 83.5 32t36.5 38q0 9 -12 14.5t-32 5.5q-17 0 -40 -5 t-43 -13l10 80q26 11 64.5 19t75.5 8q58 0 90 -20.5t32 -53.5q0 -38 -41 -63t-98 -36q47 -4 79 -23.5t32 -60.5zM784 0h-140l10 44h-165l5 57l267 262l99 -5l-44 -208q27 2 53 5l-26 -111h-50zM700 247l-125 -100h102z" />
<glyph unicode="&#xbf;" horiz-adv-x="530" d="M240 398q0 28 19 52t50.5 39.5t66.5 15.5q34 0 55 -15t21 -43q0 -26 -19 -51.5t-50 -41.5t-68 -16q-33 0 -54 15.5t-21 44.5zM236 296h140q10 -27 2 -61q-9 -42 -35 -73t-56 -55t-53 -44.5t-28 -41.5q-4 -17 9.5 -24t31.5 -7q29 0 68 15.5t73 40.5l54 -115 q-52 -37 -120 -64t-142 -27q-65 0 -111.5 23t-67.5 63.5t-10 92.5q10 46 36 77t59 52.5t65 40t54.5 38t25.5 45.5q1 12 5 24z" />
<glyph unicode="&#xc0;" horiz-adv-x="647" d="M592 751l-27 -55q-58 11 -125 35.5t-129 59.5l88 128q47 -49 96.5 -90.5t96.5 -77.5zM152 0h-195l264 520l61 131l264 9l38 -660h-206l-1 125h-170zM372 503l-122 -278h126l-2 278h-2z" />
<glyph unicode="&#xc1;" horiz-adv-x="647" d="M592 792q-61 -35 -128 -59.5t-126 -35.5l-27 55q47 36 97 77.5t96 90.5zM152 0h-195l264 520l61 131l264 9l38 -660h-206l-1 125h-170zM372 503l-122 -278h126l-2 278h-2z" />
<glyph unicode="&#xc2;" horiz-adv-x="647" d="M300 708l-49 24q34 34 71 76t65 79l160 10q14 -41 32.5 -82.5t43.5 -82.5l-59 -24q-65 36 -116 83q-70 -46 -148 -83zM152 0h-195l264 520l61 131l264 9l38 -660h-206l-1 125h-170zM372 503l-122 -278h126l-2 278h-2z" />
<glyph unicode="&#xc3;" horiz-adv-x="647" d="M401 892q30 0 51 -10.5t39 -21t40 -10.5q21 0 35.5 12.5t32.5 34.5l42 -9q-10 -40 -29.5 -77.5t-48 -61t-65.5 -23.5q-26 0 -49.5 10.5t-44 21t-39.5 10.5q-16 0 -32 -10.5t-36 -36.5l-43 9q10 40 29.5 77t48.5 61t69 24zM152 0h-195l264 520l61 131l264 9l38 -660h-206 l-1 125h-170zM372 503l-122 -278h126l-2 278h-2z" />
<glyph unicode="&#xc4;" horiz-adv-x="647" d="M434 836q0 -30 -20 -57t-52 -43.5t-69 -15.5q-34 1 -56.5 17t-22.5 46q0 29 20 55t52.5 43.5t70.5 18.5q34 1 55.5 -15.5t21.5 -48.5zM683 836q0 -30 -20 -57t-52 -43.5t-69 -15.5q-34 1 -56.5 17t-22.5 46q0 29 20 55t52.5 43.5t70.5 18.5q34 1 55.5 -15.5t21.5 -48.5z M152 0h-195l264 520l61 131l264 9l38 -660h-206l-1 125h-170zM372 503l-122 -278h126l-2 278h-2z" />
<glyph unicode="&#xc5;" horiz-adv-x="647" d="M580 840q0 -37 -23.5 -68t-61.5 -49t-82 -18q-49 0 -72.5 22t-23.5 54q0 35 23 65.5t62 50t85 19.5t69.5 -20t23.5 -56zM400 801q0 -12 10 -19.5t26 -7.5q24 0 42.5 14.5t18.5 32.5q0 13 -10 19.5t-25 6.5q-22 0 -42 -14t-20 -32zM152 0h-195l264 520l61 131l264 9 l38 -660h-206l-1 125h-170zM372 503l-122 -278h126l-2 278h-2z" />
<glyph unicode="&#xc6;" horiz-adv-x="897" d="M152 0h-195l342 520l61 130h567l-38 -130l-252 7l-9 -146l213 4l-36 -120l-184 4l-9 -147l219 8l-27 -130h-406l18 125h-185zM468 503l-175 -278h137l40 278h-2z" />
<glyph unicode="&#xc7;" horiz-adv-x="574" d="M241 -124q7 26 -40 38l46 79q-101 13 -153 74t-52 169q0 87 32 164t89 135.5t132.5 91.5t162.5 33q50 0 96.5 -9.5t70.5 -18.5l-55 -167q-19 19 -54 37t-74 18q-41 0 -72 -23t-51.5 -60.5t-31 -82.5t-10.5 -90q0 -58 22 -92.5t82 -34.5q37 0 70.5 11.5t52.5 23.5 l-10 -150q-93 -32 -189 -32h-3l-14 -25q57 -6 85.5 -28.5t21.5 -56.5q-10 -47 -72 -74.5t-176 -27.5l5 54q32 3 58 12.5t31 31.5z" />
<glyph unicode="&#xc8;" horiz-adv-x="550" d="M541 751l-27 -55q-58 11 -125 35.5t-129 59.5l88 128q47 -49 96.5 -90.5t96.5 -77.5zM457 0h-425l108 511l20 139h420l-38 -130l-187 10l-32 -150l171 5l-36 -120l-159 5l-32 -150l217 10z" />
<glyph unicode="&#xc9;" horiz-adv-x="550" d="M541 792q-61 -35 -128 -59.5t-126 -35.5l-27 55q47 36 97 77.5t96 90.5zM457 0h-425l108 511l20 139h420l-38 -130l-187 10l-32 -150l171 5l-36 -120l-159 5l-32 -150l217 10z" />
<glyph unicode="&#xca;" horiz-adv-x="550" d="M249 708l-49 24q34 34 71 76t65 79l160 10q14 -41 32.5 -82.5t43.5 -82.5l-59 -24q-65 36 -116 83q-70 -46 -148 -83zM457 0h-425l108 511l20 139h420l-38 -130l-187 10l-32 -150l171 5l-36 -120l-159 5l-32 -150l217 10z" />
<glyph unicode="&#xcb;" horiz-adv-x="550" d="M383 836q0 -30 -20 -57t-52 -43.5t-69 -15.5q-34 1 -56.5 17t-22.5 46q0 29 20 55t52.5 43.5t70.5 18.5q34 1 55.5 -15.5t21.5 -48.5zM632 836q0 -30 -20 -57t-52 -43.5t-69 -15.5q-34 1 -56.5 17t-22.5 46q0 29 20 55t52.5 43.5t70.5 18.5q34 1 55.5 -15.5t21.5 -48.5z M457 0h-425l108 511l20 139h420l-38 -130l-187 10l-32 -150l171 5l-36 -120l-159 5l-32 -150l217 10z" />
<glyph unicode="&#xcc;" horiz-adv-x="370" d="M448 751l-27 -55q-58 11 -125 35.5t-129 59.5l88 128q47 -49 96.5 -90.5t96.5 -77.5zM242 0h-210l110 520l18 130l222 10z" />
<glyph unicode="&#xcd;" horiz-adv-x="370" d="M448 792q-61 -35 -128 -59.5t-126 -35.5l-27 55q47 36 97 77.5t96 90.5zM242 0h-210l110 520l18 130l222 10z" />
<glyph unicode="&#xce;" horiz-adv-x="370" d="M156 708l-49 24q34 34 71 76t65 79l160 10q14 -41 32.5 -82.5t43.5 -82.5l-59 -24q-65 36 -116 83q-70 -46 -148 -83zM242 0h-210l110 520l18 130l222 10z" />
<glyph unicode="&#xcf;" horiz-adv-x="475" d="M342 820q0 -30 -18 -57t-47 -43.5t-63 -15.5q-31 1 -51.5 17t-20.5 46q0 29 18 55t48 43.5t64 18.5q31 1 50.5 -15.5t19.5 -48.5zM564 820q0 -30 -18 -57t-47 -43.5t-63 -15.5q-31 1 -51.5 17t-20.5 46q0 29 18 55t48 43.5t64 18.5q31 1 50.5 -15.5t19.5 -48.5zM283 0 h-210l110 520l18 130l222 10z" />
<glyph unicode="&#xd0;" horiz-adv-x="694" d="M142 520l18 130h268q125 0 189.5 -61t64.5 -182q0 -79 -27 -152.5t-79 -130.5t-126 -90.5t-168 -33.5h-250l60 285h-53l15 80h55zM386 285h-83l-34 -160h12q45 0 77.5 29.5t53.5 75.5t31.5 96t10.5 90q0 49 -13.5 72t-36.5 30t-51 7l-34 -160h83z" />
<glyph unicode="&#xd1;" horiz-adv-x="705" d="M425 892q30 0 51 -10.5t39 -21t40 -10.5q21 0 35.5 12.5t32.5 34.5l42 -9q-10 -40 -29.5 -77.5t-48 -61t-65.5 -23.5q-26 0 -49.5 10.5t-44 21t-39.5 10.5q-16 0 -32 -10.5t-36 -36.5l-43 9q10 40 29.5 77t48.5 61t69 24zM142 520l18 130l161 10l165 -372h2l62 362 l167 10l-140 -660h-170l-150 342h-2l-58 -342h-165z" />
<glyph unicode="&#xd2;" horiz-adv-x="678" d="M602 751l-27 -55q-58 11 -125 35.5t-129 59.5l88 128q47 -49 96.5 -90.5t96.5 -77.5zM670 425q0 -82 -28.5 -160t-81.5 -140t-127 -98.5t-165 -36.5q-108 0 -168.5 57t-60.5 175q0 83 29 161t82.5 140.5t128 99.5t164.5 37q110 0 168.5 -59t58.5 -176zM269 192 q0 -43 10.5 -67.5t32.5 -24.5q23 0 42.5 26.5t35.5 68.5t27 91.5t17 96.5t6 82q0 85 -39 85q-24 0 -44 -25.5t-36.5 -66.5t-28 -89t-17.5 -94.5t-6 -82.5z" />
<glyph unicode="&#xd3;" horiz-adv-x="678" d="M602 792q-61 -35 -128 -59.5t-126 -35.5l-27 55q47 36 97 77.5t96 90.5zM670 425q0 -82 -28.5 -160t-81.5 -140t-127 -98.5t-165 -36.5q-108 0 -168.5 57t-60.5 175q0 83 29 161t82.5 140.5t128 99.5t164.5 37q110 0 168.5 -59t58.5 -176zM269 192q0 -43 10.5 -67.5 t32.5 -24.5q23 0 42.5 26.5t35.5 68.5t27 91.5t17 96.5t6 82q0 85 -39 85q-24 0 -44 -25.5t-36.5 -66.5t-28 -89t-17.5 -94.5t-6 -82.5z" />
<glyph unicode="&#xd4;" horiz-adv-x="678" d="M310 708l-49 24q34 34 71 76t65 79l160 10q14 -41 32.5 -82.5t43.5 -82.5l-59 -24q-65 36 -116 83q-70 -46 -148 -83zM670 425q0 -82 -28.5 -160t-81.5 -140t-127 -98.5t-165 -36.5q-108 0 -168.5 57t-60.5 175q0 83 29 161t82.5 140.5t128 99.5t164.5 37 q110 0 168.5 -59t58.5 -176zM269 192q0 -43 10.5 -67.5t32.5 -24.5q23 0 42.5 26.5t35.5 68.5t27 91.5t17 96.5t6 82q0 85 -39 85q-24 0 -44 -25.5t-36.5 -66.5t-28 -89t-17.5 -94.5t-6 -82.5z" />
<glyph unicode="&#xd5;" horiz-adv-x="678" d="M411 892q30 0 51 -10.5t39 -21t40 -10.5q21 0 35.5 12.5t32.5 34.5l42 -9q-10 -40 -29.5 -77.5t-48 -61t-65.5 -23.5q-26 0 -49.5 10.5t-44 21t-39.5 10.5q-16 0 -32 -10.5t-36 -36.5l-43 9q10 40 29.5 77t48.5 61t69 24zM670 425q0 -82 -28.5 -160t-81.5 -140 t-127 -98.5t-165 -36.5q-108 0 -168.5 57t-60.5 175q0 83 29 161t82.5 140.5t128 99.5t164.5 37q110 0 168.5 -59t58.5 -176zM269 192q0 -43 10.5 -67.5t32.5 -24.5q23 0 42.5 26.5t35.5 68.5t27 91.5t17 96.5t6 82q0 85 -39 85q-24 0 -44 -25.5t-36.5 -66.5t-28 -89 t-17.5 -94.5t-6 -82.5z" />
<glyph unicode="&#xd6;" horiz-adv-x="678" d="M444 836q0 -30 -20 -57t-52 -43.5t-69 -15.5q-34 1 -56.5 17t-22.5 46q0 29 20 55t52.5 43.5t70.5 18.5q34 1 55.5 -15.5t21.5 -48.5zM693 836q0 -30 -20 -57t-52 -43.5t-69 -15.5q-34 1 -56.5 17t-22.5 46q0 29 20 55t52.5 43.5t70.5 18.5q34 1 55.5 -15.5t21.5 -48.5z M670 425q0 -82 -28.5 -160t-81.5 -140t-127 -98.5t-165 -36.5q-108 0 -168.5 57t-60.5 175q0 83 29 161t82.5 140.5t128 99.5t164.5 37q110 0 168.5 -59t58.5 -176zM269 192q0 -43 10.5 -67.5t32.5 -24.5q23 0 42.5 26.5t35.5 68.5t27 91.5t17 96.5t6 82q0 85 -39 85 q-24 0 -44 -25.5t-36.5 -66.5t-28 -89t-17.5 -94.5t-6 -82.5z" />
<glyph unicode="&#xd7;" horiz-adv-x="587" d="M377 114l-88 113l-139 -114l-77 98l138 115l-90 116l116 96q17 -20 41.5 -49.5t51.5 -62.5l135 112l80 -100l-135 -111q26 -33 49.5 -62.5t39.5 -50.5l-2 -12z" />
<glyph unicode="&#xd8;" horiz-adv-x="678" d="M670 425q0 -82 -28.5 -160t-81.5 -140t-127 -98.5t-165 -36.5q-105 0 -163 52l-83 -77l-53 56l91 84q-21 49 -21 117q0 83 29 161t82.5 140.5t128 99.5t164.5 37q103 0 161 -52l83 77l54 -55l-92 -85q21 -50 21 -120zM401 550q-22 0 -40.5 -21t-34 -56.5t-27 -78 t-19.5 -85.5l160 147v9q0 85 -39 85zM269 192q0 -43 10.5 -67.5t32.5 -24.5q20 0 38 21t32.5 56t26 77.5t19.5 85.5l-159 -147v-1z" />
<glyph unicode="&#xd9;" horiz-adv-x="705" d="M621 751l-27 -55q-58 11 -125 35.5t-129 59.5l88 128q47 -49 96.5 -90.5t96.5 -77.5zM328 110q32 0 54 28.5t32 76.5l63 305l18 130l222 10l-93 -436q-16 -77 -66 -129.5t-120 -78.5t-146 -26q-100 0 -159.5 45.5t-59.5 134.5q0 11 1.5 23t5 32t11 55.5t20 93.5t31.5 146 l18 130l222 9q-28 -130 -46 -214.5t-28.5 -135t-16 -77.5t-7 -41t-1.5 -26q0 -21 10.5 -38t34.5 -17z" />
<glyph unicode="&#xda;" horiz-adv-x="705" d="M621 792q-61 -35 -128 -59.5t-126 -35.5l-27 55q47 36 97 77.5t96 90.5zM328 110q32 0 54 28.5t32 76.5l63 305l18 130l222 10l-93 -436q-16 -77 -66 -129.5t-120 -78.5t-146 -26q-100 0 -159.5 45.5t-59.5 134.5q0 11 1.5 23t5 32t11 55.5t20 93.5t31.5 146l18 130 l222 9q-28 -130 -46 -214.5t-28.5 -135t-16 -77.5t-7 -41t-1.5 -26q0 -21 10.5 -38t34.5 -17z" />
<glyph unicode="&#xdb;" horiz-adv-x="705" d="M329 708l-49 24q34 34 71 76t65 79l160 10q14 -41 32.5 -82.5t43.5 -82.5l-59 -24q-65 36 -116 83q-70 -46 -148 -83zM328 110q32 0 54 28.5t32 76.5l63 305l18 130l222 10l-93 -436q-16 -77 -66 -129.5t-120 -78.5t-146 -26q-100 0 -159.5 45.5t-59.5 134.5q0 11 1.5 23 t5 32t11 55.5t20 93.5t31.5 146l18 130l222 9q-28 -130 -46 -214.5t-28.5 -135t-16 -77.5t-7 -41t-1.5 -26q0 -21 10.5 -38t34.5 -17z" />
<glyph unicode="&#xdc;" horiz-adv-x="705" d="M463 836q0 -30 -20 -57t-52 -43.5t-69 -15.5q-34 1 -56.5 17t-22.5 46q0 29 20 55t52.5 43.5t70.5 18.5q34 1 55.5 -15.5t21.5 -48.5zM712 836q0 -30 -20 -57t-52 -43.5t-69 -15.5q-34 1 -56.5 17t-22.5 46q0 29 20 55t52.5 43.5t70.5 18.5q34 1 55.5 -15.5t21.5 -48.5z M328 110q32 0 54 28.5t32 76.5l63 305l18 130l222 10l-93 -436q-16 -77 -66 -129.5t-120 -78.5t-146 -26q-100 0 -159.5 45.5t-59.5 134.5q0 11 1.5 23t5 32t11 55.5t20 93.5t31.5 146l18 130l222 9q-28 -130 -46 -214.5t-28.5 -135t-16 -77.5t-7 -41t-1.5 -26 q0 -21 10.5 -38t34.5 -17z" />
<glyph unicode="&#xdd;" horiz-adv-x="602" d="M567 792q-61 -35 -128 -59.5t-126 -35.5l-27 55q47 36 97 77.5t96 90.5zM356 0h-210l43 202v0l-94 448l208 10l29 -292h2l155 292l193 -10l-283 -448z" />
<glyph unicode="&#xde;" horiz-adv-x="634" d="M242 0h-210l110 520l18 130h220l-15 -70h18q28 0 62 -2t67.5 -10.5t62 -28.5t45.5 -56.5t17 -93.5q0 -85 -42.5 -152.5t-122.5 -106t-194 -38.5h-16zM347 465h-6l-55 -259h13q33 0 56 18t38 45.5t22 58.5t7 58q0 40 -12.5 56t-29.5 19.5t-33 3.5z" />
<glyph unicode="&#xdf;" horiz-adv-x="662" d="M-76 -195l-29 70q46 21 69.5 49.5t33.5 61.5t17 65l74 349l-70 2l12 53l74 18v1q15 71 58 120t107 75t142 26q61 0 108.5 -16t75 -47.5t27.5 -78.5q0 -58 -41 -100t-105 -68q60 -27 98.5 -74t38.5 -121q0 -55 -22 -93.5t-58 -62t-79 -34t-84 -10.5q-17 0 -41 1.5t-45 4 t-31 4.5l23 110q8 -3 27 -6.5t30 -3.5q20 0 42.5 18t22.5 64q0 42 -19.5 86t-47.5 74l14 64q35 23 59 57t24 74q0 20 -7.5 34t-26.5 14q-32 0 -50.5 -29.5t-26.5 -64.5l-94 -447q-22 -106 -92.5 -168.5t-207.5 -70.5z" />
<glyph unicode="&#xe0;" horiz-adv-x="621" d="M547 611l-31 -62q-59 13 -125.5 39.5t-126.5 63.5l91 124q47 -47 96 -88t96 -77zM11 128q0 48 15.5 101t46.5 103t76.5 90t105.5 64t134 24q54 0 111.5 -12.5t100.5 -31.5l-38 -178q-9 -41 -18.5 -96t-9.5 -110q0 -20 2 -40.5t6 -41.5h-210q-4 20 -6 39t-2 39 q0 41 10 102q-25 -54 -62 -97t-79 -68t-82 -25q-46 0 -73.5 36t-27.5 102zM226 176q0 -47 22 -47q21 0 45 39t47 103t40 140v0q-13 4 -22 4q-26 0 -49.5 -25t-42 -63t-29.5 -78.5t-11 -72.5z" />
<glyph unicode="&#xe1;" horiz-adv-x="621" d="M547 652q-60 -37 -126.5 -63.5t-125.5 -39.5l-31 62q47 36 96.5 77t95.5 88zM11 128q0 48 15.5 101t46.5 103t76.5 90t105.5 64t134 24q54 0 111.5 -12.5t100.5 -31.5l-38 -178q-9 -41 -18.5 -96t-9.5 -110q0 -20 2 -40.5t6 -41.5h-210q-4 20 -6 39t-2 39q0 41 10 102 q-25 -54 -62 -97t-79 -68t-82 -25q-46 0 -73.5 36t-27.5 102zM226 176q0 -47 22 -47q21 0 45 39t47 103t40 140v0q-13 4 -22 4q-26 0 -49.5 -25t-42 -63t-29.5 -78.5t-11 -72.5z" />
<glyph unicode="&#xe2;" horiz-adv-x="621" d="M308 539l-60 36q32 35 67 78t63 82l160 10q11 -43 24.5 -85.5t33.5 -84.5l-74 -36q-26 20 -47.5 43t-40.5 48q-30 -25 -61.5 -48t-64.5 -43zM11 128q0 48 15.5 101t46.5 103t76.5 90t105.5 64t134 24q54 0 111.5 -12.5t100.5 -31.5l-38 -178q-9 -41 -18.5 -96t-9.5 -110 q0 -20 2 -40.5t6 -41.5h-210q-4 20 -6 39t-2 39q0 41 10 102q-25 -54 -62 -97t-79 -68t-82 -25q-46 0 -73.5 36t-27.5 102zM226 176q0 -47 22 -47q21 0 45 39t47 103t40 140v0q-13 4 -22 4q-26 0 -49.5 -25t-42 -63t-29.5 -78.5t-11 -72.5z" />
<glyph unicode="&#xe3;" horiz-adv-x="621" d="M358 753q31 0 52 -13t39.5 -26t41.5 -13q18 0 31 14t29 38l43 -9q-10 -41 -29 -79.5t-46 -63t-62 -24.5q-26 0 -50 13t-45 26t-40 13q-13 0 -27.5 -11.5t-32.5 -40.5l-43 9q10 41 28 79t46 63t65 25zM11 128q0 48 15.5 101t46.5 103t76.5 90t105.5 64t134 24 q54 0 111.5 -12.5t100.5 -31.5l-38 -178q-9 -41 -18.5 -96t-9.5 -110q0 -20 2 -40.5t6 -41.5h-210q-4 20 -6 39t-2 39q0 41 10 102q-25 -54 -62 -97t-79 -68t-82 -25q-46 0 -73.5 36t-27.5 102zM226 176q0 -47 22 -47q21 0 45 39t47 103t40 140v0q-13 4 -22 4 q-26 0 -49.5 -25t-42 -63t-29.5 -78.5t-11 -72.5z" />
<glyph unicode="&#xe4;" horiz-adv-x="621" d="M379 685q0 -30 -20 -57t-52 -43.5t-69 -15.5q-34 1 -56.5 17t-22.5 46q0 29 20 55t52.5 43.5t70.5 18.5q34 1 55.5 -15.5t21.5 -48.5zM651 685q0 -30 -20 -57t-52 -43.5t-69 -15.5q-34 1 -56.5 17t-22.5 46q0 29 20 55t52.5 43.5t70.5 18.5q34 1 55.5 -15.5t21.5 -48.5z M11 128q0 48 15.5 101t46.5 103t76.5 90t105.5 64t134 24q54 0 111.5 -12.5t100.5 -31.5l-38 -178q-9 -41 -18.5 -96t-9.5 -110q0 -20 2 -40.5t6 -41.5h-210q-4 20 -6 39t-2 39q0 41 10 102q-25 -54 -62 -97t-79 -68t-82 -25q-46 0 -73.5 36t-27.5 102zM226 176 q0 -47 22 -47q21 0 45 39t47 103t40 140v0q-13 4 -22 4q-26 0 -49.5 -25t-42 -63t-29.5 -78.5t-11 -72.5z" />
<glyph unicode="&#xe5;" horiz-adv-x="621" d="M533 696q0 -40 -22.5 -73.5t-60 -53.5t-81.5 -20q-50 0 -75 27t-15 75q7 35 29.5 64t57 46.5t75.5 17.5t66.5 -20t25.5 -63zM355 646q0 -32 35 -32q27 0 46 19.5t19 46.5q0 34 -35 34q-27 0 -46 -20.5t-19 -47.5zM11 128q0 48 15.5 101t46.5 103t76.5 90t105.5 64t134 24 q54 0 111.5 -12.5t100.5 -31.5l-38 -178q-9 -41 -18.5 -96t-9.5 -110q0 -20 2 -40.5t6 -41.5h-210q-4 20 -6 39t-2 39q0 41 10 102q-25 -54 -62 -97t-79 -68t-82 -25q-46 0 -73.5 36t-27.5 102zM226 176q0 -47 22 -47q21 0 45 39t47 103t40 140v0q-13 4 -22 4 q-26 0 -49.5 -25t-42 -63t-29.5 -78.5t-11 -72.5z" />
<glyph unicode="&#xe6;" horiz-adv-x="823" d="M11 128q0 48 15.5 101t46.5 103t76.5 90t105.5 64t134 24q37 0 76.5 -6t75.5 -17q56 23 116 23q74 0 119.5 -32.5t45.5 -88.5q0 -39 -21.5 -73.5t-57 -60t-79.5 -40t-89 -14.5q-18 0 -36 3v-4q0 -49 20.5 -69.5t56.5 -20.5q32 0 72 13.5t74 36.5l-8 -115 q-21 -14 -60 -26.5t-84.5 -20.5t-86.5 -8q-85 0 -140 40.5t-59 128.5q-26 -49 -61 -87t-74.5 -60t-76.5 -22q-46 0 -73.5 36t-27.5 102zM226 176q0 -47 22 -47q14 0 30.5 18t31.5 47t26 64q22 77 77 138q-33 19 -55 19q-26 0 -49.5 -25t-42 -63t-29.5 -78.5t-11 -72.5z M624 415q-18 0 -35 -27.5t-29.5 -67.5t-17.5 -79q29 15 51.5 40t35.5 53.5t13 52.5q0 28 -18 28z" />
<glyph unicode="&#xe7;" horiz-adv-x="483" d="M173 -124q7 26 -40 38l46 79q-71 9 -114.5 53.5t-43.5 128.5q0 67 27 127t76 107t114 74t141 27q34 0 67.5 -6t61.5 -18l-52 -165q-26 41 -53 60t-50 19q-24 0 -45.5 -19t-37.5 -49t-25 -64t-9 -64q0 -41 15 -67.5t49 -26.5q26 0 58.5 14t63.5 36l-8 -115 q-36 -25 -83 -39t-97 -16l-14 -25q57 -6 85.5 -28.5t21.5 -56.5q-10 -47 -72 -74.5t-176 -27.5l5 54q32 3 58 12.5t31 31.5z" />
<glyph unicode="&#xe8;" horiz-adv-x="519" d="M480 611l-31 -62q-59 13 -125.5 39.5t-126.5 63.5l91 124q47 -47 96 -88t96 -77zM458 160l-8 -115q-21 -14 -60 -26.5t-84.5 -20.5t-86.5 -8q-88 0 -143.5 43.5t-55.5 138.5q0 63 25.5 123.5t71 109t106 77t130.5 28.5q74 0 119.5 -32.5t45.5 -88.5q0 -39 -21.5 -73.5 t-57 -60t-79.5 -40t-89 -14.5q-18 0 -36 3v-4q0 -49 20.5 -69.5t56.5 -20.5q32 0 72 13.5t74 36.5zM320 415q-18 0 -35 -27.5t-29.5 -67.5t-17.5 -79q29 15 51.5 40t35.5 53.5t13 52.5q0 28 -18 28z" />
<glyph unicode="&#xe9;" horiz-adv-x="519" d="M480 652q-60 -37 -126.5 -63.5t-125.5 -39.5l-31 62q47 36 96.5 77t95.5 88zM458 160l-8 -115q-21 -14 -60 -26.5t-84.5 -20.5t-86.5 -8q-88 0 -143.5 43.5t-55.5 138.5q0 63 25.5 123.5t71 109t106 77t130.5 28.5q74 0 119.5 -32.5t45.5 -88.5q0 -39 -21.5 -73.5 t-57 -60t-79.5 -40t-89 -14.5q-18 0 -36 3v-4q0 -49 20.5 -69.5t56.5 -20.5q32 0 72 13.5t74 36.5zM320 415q-18 0 -35 -27.5t-29.5 -67.5t-17.5 -79q29 15 51.5 40t35.5 53.5t13 52.5q0 28 -18 28z" />
<glyph unicode="&#xea;" horiz-adv-x="519" d="M241 539l-60 36q32 35 67 78t63 82l160 10q11 -43 24.5 -85.5t33.5 -84.5l-74 -36q-26 20 -47.5 43t-40.5 48q-30 -25 -61.5 -48t-64.5 -43zM458 160l-8 -115q-21 -14 -60 -26.5t-84.5 -20.5t-86.5 -8q-88 0 -143.5 43.5t-55.5 138.5q0 63 25.5 123.5t71 109t106 77 t130.5 28.5q74 0 119.5 -32.5t45.5 -88.5q0 -39 -21.5 -73.5t-57 -60t-79.5 -40t-89 -14.5q-18 0 -36 3v-4q0 -49 20.5 -69.5t56.5 -20.5q32 0 72 13.5t74 36.5zM320 415q-18 0 -35 -27.5t-29.5 -67.5t-17.5 -79q29 15 51.5 40t35.5 53.5t13 52.5q0 28 -18 28z" />
<glyph unicode="&#xeb;" horiz-adv-x="519" d="M312 685q0 -30 -20 -57t-52 -43.5t-69 -15.5q-34 1 -56.5 17t-22.5 46q0 29 20 55t52.5 43.5t70.5 18.5q34 1 55.5 -15.5t21.5 -48.5zM584 685q0 -30 -20 -57t-52 -43.5t-69 -15.5q-34 1 -56.5 17t-22.5 46q0 29 20 55t52.5 43.5t70.5 18.5q34 1 55.5 -15.5t21.5 -48.5z M458 160l-8 -115q-21 -14 -60 -26.5t-84.5 -20.5t-86.5 -8q-88 0 -143.5 43.5t-55.5 138.5q0 63 25.5 123.5t71 109t106 77t130.5 28.5q74 0 119.5 -32.5t45.5 -88.5q0 -39 -21.5 -73.5t-57 -60t-79.5 -40t-89 -14.5q-18 0 -36 3v-4q0 -49 20.5 -69.5t56.5 -20.5 q32 0 72 13.5t74 36.5zM320 415q-18 0 -35 -27.5t-29.5 -67.5t-17.5 -79q29 15 51.5 40t35.5 53.5t13 52.5q0 28 -18 28z" />
<glyph unicode="&#xec;" horiz-adv-x="327" d="M388 611l-31 -62q-59 13 -125.5 39.5t-126.5 63.5l91 124q47 -47 96 -88t96 -77zM313 509q-3 -29 -11 -70.5t-18.5 -90.5t-20 -99t-16 -94.5t-6.5 -77.5q0 -15 2 -35.5t6 -41.5h-210q-6 29 -7 51.5t-1 30.5q0 26 1 52t10 69l33 155l8 141z" />
<glyph unicode="&#xed;" horiz-adv-x="327" d="M388 652q-60 -37 -126.5 -63.5t-125.5 -39.5l-31 62q47 36 96.5 77t95.5 88zM313 509q-3 -29 -11 -70.5t-18.5 -90.5t-20 -99t-16 -94.5t-6.5 -77.5q0 -15 2 -35.5t6 -41.5h-210q-6 29 -7 51.5t-1 30.5q0 26 1 52t10 69l33 155l8 141z" />
<glyph unicode="&#xee;" horiz-adv-x="327" d="M127 554l-49 28q23 41 48 90.5t46 94.5l160 10q2 -49 5.5 -98t12.5 -97l-59 -28q-19 22 -34 47.5t-28 54.5q-25 -29 -50 -54.5t-52 -47.5zM313 509q-3 -29 -11 -70.5t-18.5 -90.5t-20 -99t-16 -94.5t-6.5 -77.5q0 -15 2 -35.5t6 -41.5h-210q-6 29 -7 51.5t-1 30.5 q0 26 1 52t10 69l33 155l8 141z" />
<glyph unicode="&#xef;" horiz-adv-x="327" d="M235 689q0 -31 -17 -57.5t-46 -42t-66 -15.5q-32 0 -52 14.5t-20 48.5q0 32 17.5 58.5t47 42.5t64.5 16q32 0 52 -15t20 -50zM460 689q0 -31 -17 -57.5t-46.5 -42t-66.5 -15.5q-32 0 -51.5 14.5t-19.5 47.5q0 32 17.5 59t47.5 43t65 16q32 0 51.5 -15t19.5 -50zM313 509 q-3 -29 -11 -70.5t-18.5 -90.5t-20 -99t-16 -94.5t-6.5 -77.5q0 -15 2 -35.5t6 -41.5h-210q-6 29 -7 51.5t-1 30.5q0 26 1 52t10 69l33 155l8 141z" />
<glyph unicode="&#xf0;" horiz-adv-x="578" d="M559 377q0 -78 -23 -148t-66.5 -123.5t-106 -84.5t-142.5 -31q-58 0 -103.5 19t-71.5 59t-26 104q0 59 22.5 113t62.5 96.5t94.5 67.5t117.5 25q17 0 28 -2q-11 39 -34 75l-132 -56l-23 66l109 46q-36 36 -82 61l77 96q100 -29 169 -87l129 55l25 -67l-101 -42 q77 -99 77 -242zM229 148q0 -48 24 -48q16 0 29 17.5t23.5 45t18 58.5t11 59t3.5 46q0 22 -5.5 30t-16.5 8q-21 0 -37.5 -24.5t-27.5 -60.5t-16.5 -72t-5.5 -59z" />
<glyph unicode="&#xf1;" d="M333 753q31 0 52 -13t39.5 -26t41.5 -13q18 0 31 14t29 38l43 -9q-10 -41 -29 -79.5t-46 -63t-62 -24.5q-26 0 -50 13t-45 26t-40 13q-13 0 -27.5 -11.5t-32.5 -40.5l-43 9q10 41 28 79t46 63t65 25zM248 0h-210q-4 20 -6 38t-2 37q0 26 5 63.5t12 79t14.5 79t13.5 62.5 l8 141l230 10q-4 -33 -15 -81t-22 -103q22 53 55.5 94.5t74 65.5t84.5 24q52 0 82 -35.5t14 -109.5q-21 -98 -35.5 -168.5t-14.5 -120.5q0 -15 2 -35t6 -41h-210q-5 29 -6.5 45.5t-1.5 44.5q0 10 0.5 19.5t4 29.5t11.5 60.5t23 112.5q4 17 2 32.5t-17 15.5q-19 0 -39.5 -26 t-38 -70.5t-25.5 -99.5q-4 -23 -5.5 -45.5t-1.5 -42.5q0 -18 2 -37t6 -39z" />
<glyph unicode="&#xf2;" horiz-adv-x="607" d="M516 611l-31 -62q-59 13 -125.5 39.5t-126.5 63.5l91 124q47 -47 96 -88t96 -77zM584 314q0 -63 -26 -121.5t-73 -104t-110 -72t-137 -26.5q-62 0 -111 20.5t-77 63t-28 107.5q0 63 26.5 121.5t73.5 105.5t110.5 74.5t137.5 27.5q98 0 156 -50.5t58 -145.5zM237 156 q0 -35 7 -53t25 -18q24 0 43 27t31.5 69t19 86.5t6.5 78.5q0 69 -33 69q-24 0 -42.5 -26.5t-31 -67t-19 -85t-6.5 -80.5z" />
<glyph unicode="&#xf3;" horiz-adv-x="607" d="M516 652q-60 -37 -126.5 -63.5t-125.5 -39.5l-31 62q47 36 96.5 77t95.5 88zM584 314q0 -63 -26 -121.5t-73 -104t-110 -72t-137 -26.5q-62 0 -111 20.5t-77 63t-28 107.5q0 63 26.5 121.5t73.5 105.5t110.5 74.5t137.5 27.5q98 0 156 -50.5t58 -145.5zM237 156 q0 -35 7 -53t25 -18q24 0 43 27t31.5 69t19 86.5t6.5 78.5q0 69 -33 69q-24 0 -42.5 -26.5t-31 -67t-19 -85t-6.5 -80.5z" />
<glyph unicode="&#xf4;" horiz-adv-x="607" d="M277 539l-60 36q32 35 67 78t63 82l160 10q11 -43 24.5 -85.5t33.5 -84.5l-74 -36q-26 20 -47.5 43t-40.5 48q-30 -25 -61.5 -48t-64.5 -43zM584 314q0 -63 -26 -121.5t-73 -104t-110 -72t-137 -26.5q-62 0 -111 20.5t-77 63t-28 107.5q0 63 26.5 121.5t73.5 105.5 t110.5 74.5t137.5 27.5q98 0 156 -50.5t58 -145.5zM237 156q0 -35 7 -53t25 -18q24 0 43 27t31.5 69t19 86.5t6.5 78.5q0 69 -33 69q-24 0 -42.5 -26.5t-31 -67t-19 -85t-6.5 -80.5z" />
<glyph unicode="&#xf5;" horiz-adv-x="607" d="M327 753q31 0 52 -13t39.5 -26t41.5 -13q18 0 31 14t29 38l43 -9q-10 -41 -29 -79.5t-46 -63t-62 -24.5q-26 0 -50 13t-45 26t-40 13q-13 0 -27.5 -11.5t-32.5 -40.5l-43 9q10 41 28 79t46 63t65 25zM584 314q0 -63 -26 -121.5t-73 -104t-110 -72t-137 -26.5 q-62 0 -111 20.5t-77 63t-28 107.5q0 63 26.5 121.5t73.5 105.5t110.5 74.5t137.5 27.5q98 0 156 -50.5t58 -145.5zM237 156q0 -35 7 -53t25 -18q24 0 43 27t31.5 69t19 86.5t6.5 78.5q0 69 -33 69q-24 0 -42.5 -26.5t-31 -67t-19 -85t-6.5 -80.5z" />
<glyph unicode="&#xf6;" horiz-adv-x="607" d="M348 685q0 -30 -20 -57t-52 -43.5t-69 -15.5q-34 1 -56.5 17t-22.5 46q0 29 20 55t52.5 43.5t70.5 18.5q34 1 55.5 -15.5t21.5 -48.5zM620 685q0 -30 -20 -57t-52 -43.5t-69 -15.5q-34 1 -56.5 17t-22.5 46q0 29 20 55t52.5 43.5t70.5 18.5q34 1 55.5 -15.5t21.5 -48.5z M584 314q0 -63 -26 -121.5t-73 -104t-110 -72t-137 -26.5q-62 0 -111 20.5t-77 63t-28 107.5q0 63 26.5 121.5t73.5 105.5t110.5 74.5t137.5 27.5q98 0 156 -50.5t58 -145.5zM237 156q0 -35 7 -53t25 -18q24 0 43 27t31.5 69t19 86.5t6.5 78.5q0 69 -33 69 q-24 0 -42.5 -26.5t-31 -67t-19 -85t-6.5 -80.5z" />
<glyph unicode="&#xf7;" horiz-adv-x="591" d="M439 534q-8 -40 -41.5 -68t-74.5 -28q-34 0 -51 22.5t-10 53.5q8 40 43 67.5t75 27.5q32 0 49 -20.5t10 -54.5zM511 256h-430l28 132q37 2 93 3t119 1.5t121.5 1t99.5 0.5zM355 137q-9 -40 -42 -67.5t-74 -27.5q-34 0 -51 22t-10 53q9 40 43.5 68t74.5 28q32 0 49.5 -21 t9.5 -55z" />
<glyph unicode="&#xf8;" horiz-adv-x="607" d="M584 314q0 -63 -26 -121.5t-73 -104t-110 -72t-137 -26.5q-82 0 -136 33l-60 -52l-47 56l55 48q-28 43 -28 106t26.5 121.5t73.5 105.5t110.5 74.5t137.5 27.5q83 0 137 -36l63 55l48 -55l-61 -53q27 -45 27 -107zM336 415q-23 0 -41 -25t-30.5 -64t-19.5 -81l124 108 q-2 62 -33 62zM269 85q23 0 40.5 24t30 61.5t20.5 77.5l-123 -106q3 -57 32 -57z" />
<glyph unicode="&#xf9;" d="M523 611l-31 -62q-59 13 -125.5 39.5t-126.5 63.5l91 124q47 -47 96 -88t96 -77zM75 358l8 141l230 10q-7 -58 -18 -115t-22 -105.5t-18.5 -83t-7.5 -48.5q0 -17 11 -17q15 0 46.5 46.5t56.5 151.5q2 11 4 20q5 23 7.5 47.5t2.5 49.5q0 11 -0.5 22t-1.5 22l230 10 q-3 -29 -11 -70.5t-18.5 -90.5t-20 -99t-16 -94.5t-6.5 -77.5q0 -15 2 -35.5t6 -41.5h-210q-6 29 -7 51.5t-1 30.5q0 21 0.5 36.5t1.5 30.5q-38 -80 -96.5 -119.5t-110.5 -39.5q-47 0 -67.5 30t-20.5 82q0 16 2 33t7 43.5t14 69.5t24 110z" />
<glyph unicode="&#xfa;" d="M523 652q-60 -37 -126.5 -63.5t-125.5 -39.5l-31 62q47 36 96.5 77t95.5 88zM75 358l8 141l230 10q-7 -58 -18 -115t-22 -105.5t-18.5 -83t-7.5 -48.5q0 -17 11 -17q15 0 46.5 46.5t56.5 151.5q2 11 4 20q5 23 7.5 47.5t2.5 49.5q0 11 -0.5 22t-1.5 22l230 10 q-3 -29 -11 -70.5t-18.5 -90.5t-20 -99t-16 -94.5t-6.5 -77.5q0 -15 2 -35.5t6 -41.5h-210q-6 29 -7 51.5t-1 30.5q0 21 0.5 36.5t1.5 30.5q-38 -80 -96.5 -119.5t-110.5 -39.5q-47 0 -67.5 30t-20.5 82q0 16 2 33t7 43.5t14 69.5t24 110z" />
<glyph unicode="&#xfb;" d="M284 539l-60 36q32 35 67 78t63 82l160 10q11 -43 24.5 -85.5t33.5 -84.5l-74 -36q-26 20 -47.5 43t-40.5 48q-30 -25 -61.5 -48t-64.5 -43zM75 358l8 141l230 10q-7 -58 -18 -115t-22 -105.5t-18.5 -83t-7.5 -48.5q0 -17 11 -17q15 0 46.5 46.5t56.5 151.5q2 11 4 20 q5 23 7.5 47.5t2.5 49.5q0 11 -0.5 22t-1.5 22l230 10q-3 -29 -11 -70.5t-18.5 -90.5t-20 -99t-16 -94.5t-6.5 -77.5q0 -15 2 -35.5t6 -41.5h-210q-6 29 -7 51.5t-1 30.5q0 21 0.5 36.5t1.5 30.5q-38 -80 -96.5 -119.5t-110.5 -39.5q-47 0 -67.5 30t-20.5 82q0 16 2 33 t7 43.5t14 69.5t24 110z" />
<glyph unicode="&#xfc;" d="M355 685q0 -30 -20 -57t-52 -43.5t-69 -15.5q-34 1 -56.5 17t-22.5 46q0 29 20 55t52.5 43.5t70.5 18.5q34 1 55.5 -15.5t21.5 -48.5zM627 685q0 -30 -20 -57t-52 -43.5t-69 -15.5q-34 1 -56.5 17t-22.5 46q0 29 20 55t52.5 43.5t70.5 18.5q34 1 55.5 -15.5t21.5 -48.5z M75 358l8 141l230 10q-7 -58 -18 -115t-22 -105.5t-18.5 -83t-7.5 -48.5q0 -17 11 -17q15 0 46.5 46.5t56.5 151.5q2 11 4 20q5 23 7.5 47.5t2.5 49.5q0 11 -0.5 22t-1.5 22l230 10q-3 -29 -11 -70.5t-18.5 -90.5t-20 -99t-16 -94.5t-6.5 -77.5q0 -15 2 -35.5t6 -41.5h-210 q-6 29 -7 51.5t-1 30.5q0 21 0.5 36.5t1.5 30.5q-38 -80 -96.5 -119.5t-110.5 -39.5q-47 0 -67.5 30t-20.5 82q0 16 2 33t7 43.5t14 69.5t24 110z" />
<glyph unicode="&#xfd;" horiz-adv-x="558" d="M492 652q-60 -37 -126.5 -63.5t-125.5 -39.5l-31 62q47 36 96.5 77t95.5 88zM356 14q-84 -103 -176.5 -156t-184.5 -53q-53 0 -85 19t-32 60q0 24 11 50.5t32 39.5q27 -8 61.5 -13t64.5 -5q38 0 75 8.5t65 24t39 36.5l-160 9q11 85 11 205q0 71 -4.5 141.5t-14.5 119.5 l215 10q6 -28 8.5 -59t2.5 -65q0 -67 -9 -139.5t-23 -136.5h3q38 65 64 134t40.5 135.5t15.5 120.5q29 5 52 7.5t42 2.5q43 0 71 -15.5t28 -60.5q0 -36 -18.5 -88.5t-49.5 -111t-68.5 -116t-75.5 -104.5z" />
<glyph unicode="&#xfe;" horiz-adv-x="607" d="M596 372q0 -48 -15.5 -101t-46.5 -103t-76.5 -90t-105.5 -64t-134 -24h-9q-4 -27 -6 -50.5t-2 -42.5q0 -20 2 -40.5t6 -41.5h-210q-4 20 -6 39t-2 43q0 32 13 110t38 197l72 340l8 141l230 10q-6 -47 -22 -125t-36 -165q-4 -17 -8 -36l-8 -38q25 51 61 91.5t76.5 64 t79.5 23.5q47 0 74 -36t27 -102zM359 371q-20 0 -44 -36.5t-47 -98t-40 -137.5l-2 -10q14 -4 23 -4q26 0 49.5 25t42 63t29.5 78.5t11 72.5q0 47 -22 47z" />
<glyph unicode="&#xff;" horiz-adv-x="558" d="M324 685q0 -30 -20 -57t-52 -43.5t-69 -15.5q-34 1 -56.5 17t-22.5 46q0 29 20 55t52.5 43.5t70.5 18.5q34 1 55.5 -15.5t21.5 -48.5zM596 685q0 -30 -20 -57t-52 -43.5t-69 -15.5q-34 1 -56.5 17t-22.5 46q0 29 20 55t52.5 43.5t70.5 18.5q34 1 55.5 -15.5t21.5 -48.5z M356 14q-84 -103 -176.5 -156t-184.5 -53q-53 0 -85 19t-32 60q0 24 11 50.5t32 39.5q27 -8 61.5 -13t64.5 -5q38 0 75 8.5t65 24t39 36.5l-160 9q11 85 11 205q0 71 -4.5 141.5t-14.5 119.5l215 10q6 -28 8.5 -59t2.5 -65q0 -67 -9 -139.5t-23 -136.5h3q38 65 64 134 t40.5 135.5t15.5 120.5q29 5 52 7.5t42 2.5q43 0 71 -15.5t28 -60.5q0 -36 -18.5 -88.5t-49.5 -111t-68.5 -116t-75.5 -104.5z" />
<glyph unicode="&#x100;" horiz-adv-x="647" d="M271 754l23 110h330l-23 -110h-330zM152 0h-195l264 520l61 131l264 9l38 -660h-206l-1 125h-170zM372 503l-122 -278h126l-2 278h-2z" />
<glyph unicode="&#x101;" horiz-adv-x="621" d="M247 602l26 120h290l-26 -120h-290zM11 128q0 48 15.5 101t46.5 103t76.5 90t105.5 64t134 24q54 0 111.5 -12.5t100.5 -31.5l-38 -178q-9 -41 -18.5 -96t-9.5 -110q0 -20 2 -40.5t6 -41.5h-210q-4 20 -6 39t-2 39q0 41 10 102q-25 -54 -62 -97t-79 -68t-82 -25 q-46 0 -73.5 36t-27.5 102zM226 176q0 -47 22 -47q21 0 45 39t47 103t40 140v0q-13 4 -22 4q-26 0 -49.5 -25t-42 -63t-29.5 -78.5t-11 -72.5z" />
<glyph unicode="&#x102;" horiz-adv-x="647" d="M406 713q-66 0 -101 47.5t-22 126.5l72 10q1 -36 21 -56t59 -20q41 0 69 21.5t43 53.5l70 9q-14 -55 -44 -98.5t-72.5 -68.5t-94.5 -25zM152 0h-195l264 520l61 131l264 9l38 -660h-206l-1 125h-170zM372 503l-122 -278h126l-2 278h-2z" />
<glyph unicode="&#x103;" horiz-adv-x="621" d="M360 557q-43 0 -72 24.5t-39.5 67t0.5 96.5l72 10q-2 -34 16.5 -58.5t50.5 -24.5q34 0 63.5 26t45.5 56l70 9q-16 -56 -46.5 -103t-71.5 -75t-89 -28zM11 128q0 48 15.5 101t46.5 103t76.5 90t105.5 64t134 24q54 0 111.5 -12.5t100.5 -31.5l-38 -178q-9 -41 -18.5 -96 t-9.5 -110q0 -20 2 -40.5t6 -41.5h-210q-4 20 -6 39t-2 39q0 41 10 102q-25 -54 -62 -97t-79 -68t-82 -25q-46 0 -73.5 36t-27.5 102zM226 176q0 -47 22 -47q21 0 45 39t47 103t40 140v0q-13 4 -22 4q-26 0 -49.5 -25t-42 -63t-29.5 -78.5t-11 -72.5z" />
<glyph unicode="&#x104;" horiz-adv-x="647" d="M152 0h-195l264 520l61 131l264 9l38 -660q-49 -19 -82 -49t-33 -56q0 -25 35 -25q19 0 49 9l7 -52q-27 -21 -65 -35t-83 -14q-42 0 -68 15t-26 47q0 49 45 91t119 69h-104l-1 125h-170zM372 503l-122 -278h126l-2 278h-2z" />
<glyph unicode="&#x105;" horiz-adv-x="621" d="M11 128q0 48 15.5 101t46.5 103t76.5 90t105.5 64t134 24q54 0 111.5 -12.5t100.5 -31.5l-38 -178q-9 -41 -18.5 -96t-9.5 -110q0 -20 2 -40.5t6 -41.5q-49 -19 -82 -49t-33 -56q0 -25 35 -25q19 0 49 9l7 -52q-27 -21 -65 -35t-83 -14q-42 0 -68 15t-26 47q0 49 45 91 t119 69h-108q-4 20 -6 39t-2 39q0 41 10 102q-25 -54 -62 -97t-79 -68t-82 -25q-46 0 -73.5 36t-27.5 102zM226 176q0 -47 22 -47q21 0 45 39t47 103t40 140v0q-13 4 -22 4q-26 0 -49.5 -25t-42 -63t-29.5 -78.5t-11 -72.5z" />
<glyph unicode="&#x106;" horiz-adv-x="574" d="M584 792q-61 -35 -128 -59.5t-126 -35.5l-27 55q47 36 97 77.5t96 90.5zM504 172l-10 -150q-93 -32 -189 -32q-129 0 -196 61.5t-67 184.5q0 87 32 164t89 135.5t132.5 91.5t162.5 33q50 0 96.5 -9.5t70.5 -18.5l-55 -167q-19 19 -54 37t-74 18q-41 0 -72 -23 t-51.5 -60.5t-31 -82.5t-10.5 -90q0 -58 22 -92.5t82 -34.5q37 0 70.5 11.5t52.5 23.5z" />
<glyph unicode="&#x107;" horiz-adv-x="483" d="M492 652q-60 -37 -126.5 -63.5t-125.5 -39.5l-31 62q47 36 96.5 77t95.5 88zM422 160l-8 -115q-38 -26 -89 -40.5t-104 -14.5q-88 0 -144 44.5t-56 140.5q0 67 27 127t76 107t114 74t141 27q34 0 67.5 -6t61.5 -18l-52 -165q-26 41 -53 60t-50 19q-24 0 -45.5 -19 t-37.5 -49t-25 -64t-9 -64q0 -41 15 -67.5t49 -26.5q26 0 58.5 14t63.5 36z" />
<glyph unicode="&#x108;" horiz-adv-x="574" d="M292 708l-49 24q34 34 71 76t65 79l160 10q14 -41 32.5 -82.5t43.5 -82.5l-59 -24q-65 36 -116 83q-70 -46 -148 -83zM504 172l-10 -150q-93 -32 -189 -32q-129 0 -196 61.5t-67 184.5q0 87 32 164t89 135.5t132.5 91.5t162.5 33q50 0 96.5 -9.5t70.5 -18.5l-55 -167 q-19 19 -54 37t-74 18q-41 0 -72 -23t-51.5 -60.5t-31 -82.5t-10.5 -90q0 -58 22 -92.5t82 -34.5q37 0 70.5 11.5t52.5 23.5z" />
<glyph unicode="&#x109;" horiz-adv-x="483" d="M253 539l-60 36q32 35 67 78t63 82l160 10q11 -43 24.5 -85.5t33.5 -84.5l-74 -36q-26 20 -47.5 43t-40.5 48q-30 -25 -61.5 -48t-64.5 -43zM422 160l-8 -115q-38 -26 -89 -40.5t-104 -14.5q-88 0 -144 44.5t-56 140.5q0 67 27 127t76 107t114 74t141 27q34 0 67.5 -6 t61.5 -18l-52 -165q-26 41 -53 60t-50 19q-24 0 -45.5 -19t-37.5 -49t-25 -64t-9 -64q0 -41 15 -67.5t49 -26.5q26 0 58.5 14t63.5 36z" />
<glyph unicode="&#x10a;" horiz-adv-x="574" d="M557 834q0 -31 -21.5 -58t-55.5 -44t-74 -17q-37 0 -61 16.5t-24 47.5q0 30 21.5 57.5t56.5 45.5t75 18q37 0 60 -17t23 -49zM504 172l-10 -150q-93 -32 -189 -32q-129 0 -196 61.5t-67 184.5q0 87 32 164t89 135.5t132.5 91.5t162.5 33q50 0 96.5 -9.5t70.5 -18.5 l-55 -167q-19 19 -54 37t-74 18q-41 0 -72 -23t-51.5 -60.5t-31 -82.5t-10.5 -90q0 -58 22 -92.5t82 -34.5q37 0 70.5 11.5t52.5 23.5z" />
<glyph unicode="&#x10b;" horiz-adv-x="483" d="M469 690q0 -31 -21.5 -58t-55.5 -44t-74 -17q-37 0 -61 16.5t-24 47.5q0 30 21.5 57.5t56.5 45.5t75 18q37 0 60 -17t23 -49zM422 160l-8 -115q-38 -26 -89 -40.5t-104 -14.5q-88 0 -144 44.5t-56 140.5q0 67 27 127t76 107t114 74t141 27q34 0 67.5 -6t61.5 -18 l-52 -165q-26 41 -53 60t-50 19q-24 0 -45.5 -19t-37.5 -49t-25 -64t-9 -64q0 -41 15 -67.5t49 -26.5q26 0 58.5 14t63.5 36z" />
<glyph unicode="&#x10c;" horiz-adv-x="574" d="M579 904l49 -24q-34 -34 -70.5 -75.5t-65.5 -79.5l-160 -10q-13 41 -31.5 83t-44.5 82l59 24q65 -36 116 -83q70 46 148 83zM504 172l-10 -150q-93 -32 -189 -32q-129 0 -196 61.5t-67 184.5q0 87 32 164t89 135.5t132.5 91.5t162.5 33q50 0 96.5 -9.5t70.5 -18.5 l-55 -167q-19 19 -54 37t-74 18q-41 0 -72 -23t-51.5 -60.5t-31 -82.5t-10.5 -90q0 -58 22 -92.5t82 -34.5q37 0 70.5 11.5t52.5 23.5z" />
<glyph unicode="&#x10d;" horiz-adv-x="483" d="M462 756l60 -36q-31 -35 -66 -78t-64 -82l-160 -10q-10 43 -24 85.5t-34 84.5l74 36q26 -20 47.5 -43t40.5 -48q30 25 61.5 48t64.5 43zM422 160l-8 -115q-38 -26 -89 -40.5t-104 -14.5q-88 0 -144 44.5t-56 140.5q0 67 27 127t76 107t114 74t141 27q34 0 67.5 -6 t61.5 -18l-52 -165q-26 41 -53 60t-50 19q-24 0 -45.5 -19t-37.5 -49t-25 -64t-9 -64q0 -41 15 -67.5t49 -26.5q26 0 58.5 14t63.5 36z" />
<glyph unicode="&#x10e;" horiz-adv-x="694" d="M593 904l49 -24q-34 -34 -70.5 -75.5t-65.5 -79.5l-160 -10q-13 41 -31.5 83t-44.5 82l59 24q65 -36 116 -83q70 46 148 83zM142 520l18 130h268q125 0 189.5 -61t64.5 -182q0 -79 -27 -152.5t-79 -130.5t-126 -90.5t-168 -33.5h-250zM454 416q0 49 -13.5 72t-36.5 30 t-51 7l-84 -400h12q45 0 77.5 29.5t53.5 75.5t31.5 96t10.5 90z" />
<glyph unicode="&#x10f;" horiz-adv-x="616" d="M909 711q-34 -67 -79.5 -127.5t-88.5 -102.5l-65 13q12 31 25 70.5t25 80.5t20 76zM11 128q0 48 15.5 101t46.5 103t76.5 90t105.5 64t134 24h13q3 15 7 34l8 141l230 10q-5 -38 -17.5 -98.5t-28.5 -130.5v0v0q-16 -70 -31 -142t-25 -135.5t-10 -106.5q0 -20 2 -40.5 t6 -41.5h-210q-4 20 -6 39t-2 43q0 20 2 42t8 56q-25 -54 -62 -97t-79 -68t-82 -25q-46 0 -73.5 36t-27.5 102zM226 176q0 -47 22 -47q21 0 45 39t47 103t40 140q-13 4 -22 4q-26 0 -49.5 -25t-42 -63t-29.5 -78.5t-11 -72.5z" />
<glyph unicode="&#x110;" horiz-adv-x="694" d="M142 520l18 130h268q125 0 189.5 -61t64.5 -182q0 -79 -27 -152.5t-79 -130.5t-126 -90.5t-168 -33.5h-250l60 285h-53l15 80h55zM386 285h-83l-34 -160h12q45 0 77.5 29.5t53.5 75.5t31.5 96t10.5 90q0 49 -13.5 72t-36.5 30t-51 7l-34 -160h83z" />
<glyph unicode="&#x111;" horiz-adv-x="616" d="M11 128q0 48 15.5 101t46.5 103t76.5 90t105.5 64t134 24h13q3 16 7 32h-110l17 80h97l4 63l230 10q-2 -15 -5 -33.5t-7 -39.5h67l-17 -80h-67q-4 -18 -8.5 -37t-8.5 -39v0v0q-16 -70 -31 -142t-25 -135.5t-10 -106.5q0 -20 2 -40.5t6 -41.5h-210q-4 20 -6 39t-2 43 q0 20 2 42t8 56q-25 -54 -62 -97t-79 -68t-82 -25q-46 0 -73.5 36t-27.5 102zM226 176q0 -47 22 -47q21 0 45 39t47 103t40 140q-13 4 -22 4q-26 0 -49.5 -25t-42 -63t-29.5 -78.5t-11 -72.5z" />
<glyph unicode="&#x112;" horiz-adv-x="550" d="M220 754l23 110h330l-23 -110h-330zM457 0h-425l108 511l20 139h420l-38 -130l-187 10l-32 -150l171 5l-36 -120l-159 5l-32 -150l217 10z" />
<glyph unicode="&#x113;" horiz-adv-x="519" d="M180 602l26 120h290l-26 -120h-290zM458 160l-8 -115q-21 -14 -60 -26.5t-84.5 -20.5t-86.5 -8q-88 0 -143.5 43.5t-55.5 138.5q0 63 25.5 123.5t71 109t106 77t130.5 28.5q74 0 119.5 -32.5t45.5 -88.5q0 -39 -21.5 -73.5t-57 -60t-79.5 -40t-89 -14.5q-18 0 -36 3v-4 q0 -49 20.5 -69.5t56.5 -20.5q32 0 72 13.5t74 36.5zM320 415q-18 0 -35 -27.5t-29.5 -67.5t-17.5 -79q29 15 51.5 40t35.5 53.5t13 52.5q0 28 -18 28z" />
<glyph unicode="&#x114;" horiz-adv-x="550" d="M355 713q-66 0 -101 47.5t-22 126.5l72 10q1 -36 21 -56t59 -20q41 0 69 21.5t43 53.5l70 9q-14 -55 -44 -98.5t-72.5 -68.5t-94.5 -25zM457 0h-425l108 511l20 139h420l-38 -130l-187 10l-32 -150l171 5l-36 -120l-159 5l-32 -150l217 10z" />
<glyph unicode="&#x115;" horiz-adv-x="519" d="M293 557q-43 0 -72 24.5t-39.5 67t0.5 96.5l72 10q-2 -34 16.5 -58.5t50.5 -24.5q34 0 63.5 26t45.5 56l70 9q-16 -56 -46.5 -103t-71.5 -75t-89 -28zM458 160l-8 -115q-21 -14 -60 -26.5t-84.5 -20.5t-86.5 -8q-88 0 -143.5 43.5t-55.5 138.5q0 63 25.5 123.5t71 109 t106 77t130.5 28.5q74 0 119.5 -32.5t45.5 -88.5q0 -39 -21.5 -73.5t-57 -60t-79.5 -40t-89 -14.5q-18 0 -36 3v-4q0 -49 20.5 -69.5t56.5 -20.5q32 0 72 13.5t74 36.5zM320 415q-18 0 -35 -27.5t-29.5 -67.5t-17.5 -79q29 15 51.5 40t35.5 53.5t13 52.5q0 28 -18 28z" />
<glyph unicode="&#x116;" horiz-adv-x="550" d="M514 834q0 -31 -21.5 -58t-55.5 -44t-74 -17q-37 0 -61 16.5t-24 47.5q0 30 21.5 57.5t56.5 45.5t75 18q37 0 60 -17t23 -49zM457 0h-425l108 511l20 139h420l-38 -130l-187 10l-32 -150l171 5l-36 -120l-159 5l-32 -150l217 10z" />
<glyph unicode="&#x117;" horiz-adv-x="519" d="M457 690q0 -31 -21.5 -58t-55.5 -44t-74 -17q-37 0 -61 16.5t-24 47.5q0 30 21.5 57.5t56.5 45.5t75 18q37 0 60 -17t23 -49zM458 160l-8 -115q-21 -14 -60 -26.5t-84.5 -20.5t-86.5 -8q-88 0 -143.5 43.5t-55.5 138.5q0 63 25.5 123.5t71 109t106 77t130.5 28.5 q74 0 119.5 -32.5t45.5 -88.5q0 -39 -21.5 -73.5t-57 -60t-79.5 -40t-89 -14.5q-18 0 -36 3v-4q0 -49 20.5 -69.5t56.5 -20.5q32 0 72 13.5t74 36.5zM320 415q-18 0 -35 -27.5t-29.5 -67.5t-17.5 -79q29 15 51.5 40t35.5 53.5t13 52.5q0 28 -18 28z" />
<glyph unicode="&#x118;" horiz-adv-x="550" d="M440 0q-49 -19 -82 -49t-33 -56q0 -25 35 -25q19 0 49 9l7 -52q-27 -21 -65 -35t-83 -14q-42 0 -68 15t-26 47q0 49 45 91t119 69h-306l108 511l20 139h420l-38 -130l-187 10l-32 -150l171 5l-36 -120l-159 5l-32 -150l217 10l-27 -130h-17z" />
<glyph unicode="&#x119;" horiz-adv-x="523" d="M458 160l-8 -115q-16 -11 -44 -21q-58 -25 -86 -61t-28 -63q0 -30 35 -30q19 0 49 9l7 -52q-27 -21 -65 -35t-83 -14q-42 0 -68 15t-26 47q0 43 27.5 81.5t76.5 69.5q-14 -1 -26 -1q-88 0 -143.5 43.5t-55.5 138.5q0 63 25.5 123.5t71 109t106 77t130.5 28.5 q74 0 119.5 -32.5t45.5 -88.5q0 -39 -21.5 -73.5t-57 -60t-79.5 -40t-89 -14.5q-18 0 -36 3v-4q0 -49 20.5 -69.5t56.5 -20.5q32 0 72 13.5t74 36.5zM320 415q-18 0 -35 -27.5t-29.5 -67.5t-17.5 -79q29 15 51.5 40t35.5 53.5t13 52.5q0 28 -18 28z" />
<glyph unicode="&#x11a;" horiz-adv-x="550" d="M536 904l49 -24q-34 -34 -70.5 -75.5t-65.5 -79.5l-160 -10q-13 41 -31.5 83t-44.5 82l59 24q65 -36 116 -83q70 46 148 83zM457 0h-425l108 511l20 139h420l-38 -130l-187 10l-32 -150l171 5l-36 -120l-159 5l-32 -150l217 10z" />
<glyph unicode="&#x11b;" horiz-adv-x="519" d="M450 756l60 -36q-31 -35 -66 -78t-64 -82l-160 -10q-10 43 -24 85.5t-34 84.5l74 36q26 -20 47.5 -43t40.5 -48q30 25 61.5 48t64.5 43zM458 160l-8 -115q-21 -14 -60 -26.5t-84.5 -20.5t-86.5 -8q-88 0 -143.5 43.5t-55.5 138.5q0 63 25.5 123.5t71 109t106 77 t130.5 28.5q74 0 119.5 -32.5t45.5 -88.5q0 -39 -21.5 -73.5t-57 -60t-79.5 -40t-89 -14.5q-18 0 -36 3v-4q0 -49 20.5 -69.5t56.5 -20.5q32 0 72 13.5t74 36.5zM320 415q-18 0 -35 -27.5t-29.5 -67.5t-17.5 -79q29 15 51.5 40t35.5 53.5t13 52.5q0 28 -18 28z" />
<glyph unicode="&#x11c;" horiz-adv-x="627" d="M316 708l-49 24q34 34 71 76t65 79l160 10q14 -41 32.5 -82.5t43.5 -82.5l-59 -24q-65 36 -116 83q-70 -46 -148 -83zM534 22q-54 -16 -110.5 -24t-106.5 -8q-135 0 -205.5 61t-70.5 184q0 85 32 161.5t91 136t138.5 93.5t173.5 34q48 0 94 -8.5t77 -19.5l-55 -167 q-19 19 -54.5 37t-76.5 18q-46 0 -81 -22.5t-58.5 -60.5t-35.5 -85t-12 -95q0 -63 22.5 -100t76.5 -44l15 72l18 130l192 10z" />
<glyph unicode="&#x11d;" horiz-adv-x="561" d="M238 539l-60 36q32 35 67 78t63 82l160 10q11 -43 24.5 -85.5t33.5 -84.5l-74 -36q-26 20 -47.5 43t-40.5 48q-30 -25 -61.5 -48t-64.5 -43zM474 -46q0 -49 -36.5 -82.5t-103 -50t-156.5 -16.5q-69 0 -122.5 11t-84.5 34.5t-31 62.5q0 36 26.5 61t71.5 36l13 -10 q0 -30 10 -55t27 -45q41 -46 101 -46q30 0 47 12.5t17 28.5q0 18 -20.5 30t-50.5 22.5t-60 23t-50.5 32t-20.5 50.5q0 44 49 79t134 38v4q-98 0 -150.5 36t-52.5 103q0 50 31 95t97.5 73.5t172.5 28.5q52 0 91 0.5t75 2.5t77 7q15 -12 22 -27.5t7 -30.5q0 -25 -16 -44.5 t-43 -19.5q-19 0 -37.5 10t-41.5 25t-58 29l-2 -5q34 -15 63 -33t47 -41.5t18 -57.5q0 -37 -22.5 -66.5t-59 -50t-78.5 -30.5q-9 -2 -27 -6.5t-36.5 -11t-31.5 -14.5t-13 -19q0 -13 21 -22.5t52 -20t62 -26.5t52 -40.5t21 -63.5zM236 279q0 -22 5.5 -34t20.5 -12 q17 0 29.5 15.5t21 39.5t12.5 49t4 44q0 43 -26 43q-18 0 -31 -16t-21 -39.5t-11.5 -48t-3.5 -41.5z" />
<glyph unicode="&#x11e;" horiz-adv-x="627" d="M422 713q-66 0 -101 47.5t-22 126.5l72 10q1 -36 21 -56t59 -20q41 0 69 21.5t43 53.5l70 9q-14 -55 -44 -98.5t-72.5 -68.5t-94.5 -25zM534 22q-54 -16 -110.5 -24t-106.5 -8q-135 0 -205.5 61t-70.5 184q0 85 32 161.5t91 136t138.5 93.5t173.5 34q48 0 94 -8.5 t77 -19.5l-55 -167q-19 19 -54.5 37t-76.5 18q-46 0 -81 -22.5t-58.5 -60.5t-35.5 -85t-12 -95q0 -63 22.5 -100t76.5 -44l15 72l18 130l192 10z" />
<glyph unicode="&#x11f;" horiz-adv-x="561" d="M327 557q-43 0 -72 24.5t-39.5 67t0.5 96.5l72 10q-2 -34 16.5 -58.5t50.5 -24.5q34 0 63.5 26t45.5 56l70 9q-16 -56 -46.5 -103t-71.5 -75t-89 -28zM474 -46q0 -49 -36.5 -82.5t-103 -50t-156.5 -16.5q-69 0 -122.5 11t-84.5 34.5t-31 62.5q0 36 26.5 61t71.5 36 l13 -10q0 -30 10 -55t27 -45q41 -46 101 -46q30 0 47 12.5t17 28.5q0 18 -20.5 30t-50.5 22.5t-60 23t-50.5 32t-20.5 50.5q0 44 49 79t134 38v4q-98 0 -150.5 36t-52.5 103q0 50 31 95t97.5 73.5t172.5 28.5q52 0 91 0.5t75 2.5t77 7q15 -12 22 -27.5t7 -30.5 q0 -25 -16 -44.5t-43 -19.5q-19 0 -37.5 10t-41.5 25t-58 29l-2 -5q34 -15 63 -33t47 -41.5t18 -57.5q0 -37 -22.5 -66.5t-59 -50t-78.5 -30.5q-9 -2 -27 -6.5t-36.5 -11t-31.5 -14.5t-13 -19q0 -13 21 -22.5t52 -20t62 -26.5t52 -40.5t21 -63.5zM236 279q0 -22 5.5 -34 t20.5 -12q17 0 29.5 15.5t21 39.5t12.5 49t4 44q0 43 -26 43q-18 0 -31 -16t-21 -39.5t-11.5 -48t-3.5 -41.5z" />
<glyph unicode="&#x120;" horiz-adv-x="627" d="M581 834q0 -31 -21.5 -58t-55.5 -44t-74 -17q-37 0 -61 16.5t-24 47.5q0 30 21.5 57.5t56.5 45.5t75 18q37 0 60 -17t23 -49zM534 22q-54 -16 -110.5 -24t-106.5 -8q-135 0 -205.5 61t-70.5 184q0 85 32 161.5t91 136t138.5 93.5t173.5 34q48 0 94 -8.5t77 -19.5 l-55 -167q-19 19 -54.5 37t-76.5 18q-46 0 -81 -22.5t-58.5 -60.5t-35.5 -85t-12 -95q0 -63 22.5 -100t76.5 -44l15 72l18 130l192 10z" />
<glyph unicode="&#x121;" horiz-adv-x="561" d="M466 690q0 -31 -21.5 -58t-55.5 -44t-74 -17q-37 0 -61 16.5t-24 47.5q0 30 21.5 57.5t56.5 45.5t75 18q37 0 60 -17t23 -49zM474 -46q0 -49 -36.5 -82.5t-103 -50t-156.5 -16.5q-69 0 -122.5 11t-84.5 34.5t-31 62.5q0 36 26.5 61t71.5 36l13 -10q0 -30 10 -55t27 -45 q41 -46 101 -46q30 0 47 12.5t17 28.5q0 18 -20.5 30t-50.5 22.5t-60 23t-50.5 32t-20.5 50.5q0 44 49 79t134 38v4q-98 0 -150.5 36t-52.5 103q0 50 31 95t97.5 73.5t172.5 28.5q52 0 91 0.5t75 2.5t77 7q15 -12 22 -27.5t7 -30.5q0 -25 -16 -44.5t-43 -19.5 q-19 0 -37.5 10t-41.5 25t-58 29l-2 -5q34 -15 63 -33t47 -41.5t18 -57.5q0 -37 -22.5 -66.5t-59 -50t-78.5 -30.5q-9 -2 -27 -6.5t-36.5 -11t-31.5 -14.5t-13 -19q0 -13 21 -22.5t52 -20t62 -26.5t52 -40.5t21 -63.5zM236 279q0 -22 5.5 -34t20.5 -12q17 0 29.5 15.5 t21 39.5t12.5 49t4 44q0 43 -26 43q-18 0 -31 -16t-21 -39.5t-11.5 -48t-3.5 -41.5z" />
<glyph unicode="&#x122;" horiz-adv-x="627" d="M534 22q-54 -16 -110.5 -24t-106.5 -8q-135 0 -205.5 61t-70.5 184q0 85 32 161.5t91 136t138.5 93.5t173.5 34q48 0 94 -8.5t77 -19.5l-55 -167q-19 19 -54.5 37t-76.5 18q-46 0 -81 -22.5t-58.5 -60.5t-35.5 -85t-12 -95q0 -63 22.5 -100t76.5 -44l15 72l18 130l192 10 zM404 -123q0 -41 -24.5 -81.5t-59 -74t-65.5 -52.5l-43 34q12 14 27.5 33t27.5 40q-20 5 -33.5 19.5t-13.5 41.5q0 30 16 55t42.5 40t55.5 15q33 0 51.5 -19t18.5 -51z" />
<glyph unicode="&#x123;" horiz-adv-x="561" d="M249 625q0 41 24.5 81.5t59.5 74t65 52.5l43 -34q-12 -14 -27.5 -33t-27.5 -40q20 -5 33.5 -19.5t13.5 -41.5q0 -30 -16 -55t-42 -40t-56 -15q-33 0 -51.5 19t-18.5 51zM474 -46q0 -49 -36.5 -82.5t-103 -50t-156.5 -16.5q-69 0 -122.5 11t-84.5 34.5t-31 62.5 q0 36 26.5 61t71.5 36l13 -10q0 -30 10 -55t27 -45q41 -46 101 -46q30 0 47 12.5t17 28.5q0 18 -20.5 30t-50.5 22.5t-60 23t-50.5 32t-20.5 50.5q0 44 49 79t134 38v4q-98 0 -150.5 36t-52.5 103q0 50 31 95t97.5 73.5t172.5 28.5q52 0 91 0.5t75 2.5t77 7q15 -12 22 -27.5 t7 -30.5q0 -25 -16 -44.5t-43 -19.5q-19 0 -37.5 10t-41.5 25t-58 29l-2 -5q34 -15 63 -33t47 -41.5t18 -57.5q0 -37 -22.5 -66.5t-59 -50t-78.5 -30.5q-9 -2 -27 -6.5t-36.5 -11t-31.5 -14.5t-13 -19q0 -13 21 -22.5t52 -20t62 -26.5t52 -40.5t21 -63.5zM236 279 q0 -22 5.5 -34t20.5 -12q17 0 29.5 15.5t21 39.5t12.5 49t4 44q0 43 -26 43q-18 0 -31 -16t-21 -39.5t-11.5 -48t-3.5 -41.5z" />
<glyph unicode="&#x124;" horiz-adv-x="725" d="M334 708l-49 24q34 34 71 76t65 79l160 10q14 -41 32.5 -82.5t43.5 -82.5l-59 -24q-65 36 -116 83q-70 -46 -148 -83zM242 0h-210l110 520l18 130l222 10l-64 -303h145l34 163l18 130l222 11l-140 -661h-210l53 252h-145z" />
<glyph unicode="&#x125;" d="M103 709l-49 24q34 34 71 76t65 79l160 10q14 -41 32.5 -82.5t43.5 -82.5l-59 -24q-65 36 -116 83q-70 -46 -148 -83zM544 0h-210q-5 29 -6.5 45.5t-1.5 44.5q0 21 6.5 56.5t14.5 74t14.5 70t6.5 44.5q0 11 -4 18t-14 7q-25 0 -53 -46t-44 -116q-6 -36 -9.5 -67.5 t-3.5 -54.5q0 -14 2 -34.5t6 -41.5h-210q-3 14 -5.5 36t-2.5 40q0 26 5.5 67.5t14 87.5t17 88t14.5 70l33 155l8 141l230 10q-5 -38 -17 -96.5t-27 -127.5t-30 -139q23 52 56.5 92t73 63t82.5 23q44 0 72.5 -24.5t28.5 -76.5q0 -22 -8.5 -62.5t-19 -89t-19 -96t-8.5 -85.5 q0 -15 2 -35t6 -41z" />
<glyph unicode="&#x126;" horiz-adv-x="725" d="M242 0h-210l95 449h-56l17 90h57l15 111l222 10l-26 -121h144l15 111l222 11l-26 -122h47l-18 -90h-48l-95 -449h-210l53 252h-145zM318 357h145l19 92h-145z" />
<glyph unicode="&#x127;" d="M544 0h-210q-5 29 -6.5 45.5t-1.5 44.5q0 21 6.5 56.5t14.5 74t14.5 70t6.5 44.5q0 11 -4 18t-14 7q-25 0 -53 -46t-44 -116q-6 -36 -9.5 -67.5t-3.5 -54.5q0 -14 2 -34.5t6 -41.5h-210q-3 14 -5.5 36t-2.5 40q0 26 5.5 67.5t14 87.5t17 88t14.5 70l33 155v5h-61l17 80 h49l3 56l230 10q-2 -14 -4.5 -30.5t-6.5 -35.5h115l-17 -80h-114q-11 -50 -23 -106t-24 -111q23 52 56.5 92t73 63t82.5 23q44 0 72.5 -24.5t28.5 -76.5q0 -22 -8.5 -62.5t-19 -89t-19 -96t-8.5 -85.5q0 -15 2 -35t6 -41z" />
<glyph unicode="&#x128;" horiz-adv-x="370" d="M257 892q30 0 51 -10.5t39 -21t40 -10.5q21 0 35.5 12.5t32.5 34.5l42 -9q-10 -40 -29.5 -77.5t-48 -61t-65.5 -23.5q-26 0 -49.5 10.5t-44 21t-39.5 10.5q-16 0 -32 -10.5t-36 -36.5l-43 9q10 40 29.5 77t48.5 61t69 24zM242 0h-210l110 520l18 130l222 10z" />
<glyph unicode="&#x129;" horiz-adv-x="327" d="M217 756q24 0 38 -11.5t25 -23.5t25 -12q15 0 29.5 14.5t24.5 33.5l52 -9q-12 -49 -31.5 -89t-44.5 -63.5t-56 -23.5q-24 0 -38.5 12t-26 23.5t-26.5 11.5t-29 -14t-25 -34l-52 9q12 50 32 89.5t46.5 63t56.5 23.5zM313 509q-3 -29 -11 -70.5t-18.5 -90.5t-20 -99 t-16 -94.5t-6.5 -77.5q0 -15 2 -35.5t6 -41.5h-210q-6 29 -7 51.5t-1 30.5q0 26 1 52t10 69l33 155l8 141z" />
<glyph unicode="&#x12a;" horiz-adv-x="370" d="M141 754l21 110h297l-21 -110h-297zM242 0h-210l110 520l18 130l222 10z" />
<glyph unicode="&#x12b;" horiz-adv-x="327" d="M120 602l22 120h247l-22 -120h-247zM313 509q-3 -29 -11 -70.5t-18.5 -90.5t-20 -99t-16 -94.5t-6.5 -77.5q0 -15 2 -35.5t6 -41.5h-210q-6 29 -7 51.5t-1 30.5q0 26 1 52t10 69l33 155l8 141z" />
<glyph unicode="&#x12c;" horiz-adv-x="370" d="M262 713q-66 0 -101 47.5t-22 126.5l72 10q1 -36 21 -56t59 -20q41 0 69 21.5t43 53.5l70 9q-14 -55 -44 -98.5t-72.5 -68.5t-94.5 -25zM242 0h-210l110 520l18 130l222 10z" />
<glyph unicode="&#x12d;" horiz-adv-x="327" d="M203 554q-61 0 -86 55t-5 148l74 10q-4 -40 9 -63.5t38 -23.5q27 0 50 25t35 61l72 9q-13 -63 -40.5 -113t-64.5 -79t-82 -29zM313 509q-3 -29 -11 -70.5t-18.5 -90.5t-20 -99t-16 -94.5t-6.5 -77.5q0 -15 2 -35.5t6 -41.5h-210q-6 29 -7 51.5t-1 30.5q0 26 1 52t10 69 l33 155l8 141z" />
<glyph unicode="&#x12e;" horiz-adv-x="330" d="M242 0q-46 -18 -77.5 -45t-36.5 -52q-3 -14 4.5 -23.5t29.5 -9.5q19 0 49 9l7 -52q-27 -21 -65 -35t-83 -14q-48 0 -74.5 19.5t-17.5 60.5q9 44 52 81t110 61h-108l110 520l18 130l222 10z" />
<glyph unicode="&#x12f;" horiz-adv-x="327" d="M365 690q0 -31 -21.5 -58t-55.5 -44t-74 -17q-37 0 -61 16.5t-24 47.5q0 30 21.5 57.5t56.5 45.5t75 18q37 0 60 -17t23 -49zM249 0q-49 -19 -82 -49t-33 -56q0 -25 35 -25q19 0 49 9l7 -52q-27 -21 -65 -35t-83 -14q-42 0 -68 15t-26 47q0 49 45 91t119 69h-108 q-6 29 -7 51.5t-1 30.5q0 26 1 52t10 69l33 155l8 141l230 10q-3 -29 -11 -70.5t-18.5 -90.5t-20 -99t-16 -94.5t-6.5 -77.5q0 -15 2 -35.5t6 -41.5z" />
<glyph unicode="&#x130;" horiz-adv-x="370" d="M421 834q0 -31 -21.5 -58t-55.5 -44t-74 -17q-37 0 -61 16.5t-24 47.5q0 30 21.5 57.5t56.5 45.5t75 18q37 0 60 -17t23 -49zM242 0h-210l110 520l18 130l222 10z" />
<glyph unicode="&#x131;" horiz-adv-x="327" d="M313 509q-3 -29 -11 -70.5t-18.5 -90.5t-20 -99t-16 -94.5t-6.5 -77.5q0 -15 2 -35.5t6 -41.5h-210q-6 29 -7 51.5t-1 30.5q0 26 1 52t10 69l33 155l8 141z" />
<glyph unicode="&#x132;" horiz-adv-x="740" d="M242 0h-210l110 520l18 130l222 10zM289 -109q50 14 80 54.5t40 90.5l103 484l18 130l222 10l-107 -504q-14 -66 -33.5 -126t-56.5 -108.5t-101.5 -79t-168.5 -37.5z" />
<glyph unicode="&#x133;" horiz-adv-x="650" d="M365 690q0 -31 -21.5 -58t-55.5 -44t-74 -17q-37 0 -61 16.5t-24 47.5q0 30 21.5 57.5t56.5 45.5t75 18q37 0 60 -17t23 -49zM697 690q0 -31 -21.5 -58t-55.5 -44t-74 -17q-37 0 -61 16.5t-24 47.5q0 30 21.5 57.5t56.5 45.5t75 18q37 0 60 -17t23 -49zM313 509 q-3 -29 -11 -70.5t-18.5 -90.5t-20 -99t-16 -94.5t-6.5 -77.5q0 -15 2 -35.5t6 -41.5h-210q-6 29 -7 51.5t-1 30.5q0 26 1 52t10 69l33 155l8 141zM645 509q-1 -9 -3 -20.5t-6.5 -36.5t-14.5 -73t-27 -129t-43 -206q-22 -106 -92.5 -168.5t-207.5 -70.5l-29 70 q46 21 69.5 49.5t33.5 61.5t17 65l65 307l8 141z" />
<glyph unicode="&#x134;" horiz-adv-x="370" d="M148 708l-49 24q34 34 71 76t65 79l160 10q14 -41 32.5 -82.5t43.5 -82.5l-59 -24q-65 36 -116 83q-70 -46 -148 -83zM-81 -109q50 14 80 54.5t40 90.5l103 484l18 130l222 10l-107 -504q-14 -66 -33.5 -126t-56.5 -108.5t-101.5 -79t-168.5 -37.5z" />
<glyph unicode="&#x135;" horiz-adv-x="323" d="M132 554l-49 28q23 41 48 90.5t46 94.5l160 10q2 -49 5.5 -98t12.5 -97l-59 -28q-19 22 -34 47.5t-28 54.5q-25 -29 -50 -54.5t-52 -47.5zM318 509q-1 -9 -3 -20.5t-6.5 -36.5t-14.5 -73t-27 -129t-43 -206q-22 -106 -92.5 -168.5t-207.5 -70.5l-29 70q46 21 69.5 49.5 t33.5 61.5t17 65l65 307l8 141z" />
<glyph unicode="&#x136;" horiz-adv-x="659" d="M142 520l18 130l222 10l-62 -292h52l164 292l193 -10l-205 -330l77 -320l-221 -10l-32 273h-50l-56 -263h-210zM349 -123q0 -41 -24.5 -81.5t-59 -74t-65.5 -52.5l-43 34q12 14 27.5 33t27.5 40q-20 5 -33.5 19.5t-13.5 41.5q0 30 16 55t42 40t56 15q33 0 51.5 -19 t18.5 -51z" />
<glyph unicode="&#x137;" horiz-adv-x="622" d="M248 0h-210q-3 15 -5.5 35.5t-2.5 39.5q0 26 5 64t12.5 82t16.5 87.5t17 80.5l33 155l8 141l230 10q-5 -39 -18 -100.5t-29.5 -134t-31.5 -144.5h5q29 50 70 94t89.5 72t98.5 28q44 0 69 -23t25 -65q0 -49 -38.5 -97t-121.5 -101q17 -53 44 -109.5t65 -114.5l-231 -10 q-23 39 -42.5 86t-27.5 99q74 58 103.5 99.5t29.5 69.5q0 31 -26 31q-22 0 -46.5 -25t-46.5 -67t-36.5 -93.5t-15.5 -104.5v-1v-6q0 -16 2 -36.5t6 -41.5zM368 -123q0 -41 -24.5 -81.5t-59 -74t-65.5 -52.5l-43 34q12 14 27.5 33t27.5 40q-20 5 -33.5 19.5t-13.5 41.5 q0 30 16 55t42.5 40t55.5 15q33 0 51.5 -19t18.5 -51z" />
<glyph unicode="&#x138;" horiz-adv-x="629" d="M248 0h-210q-4 20 -6 38t-2 37q0 26 5 63.5t12 79t14.5 79t13.5 62.5l8 141l230 10q-4 -32 -14 -77.5t-21.5 -98t-20.5 -105.5h1q65 139 132.5 210t136.5 71q30 0 56.5 -9t38.5 -20l-89 -174q-25 12 -47.5 17t-39.5 5h-9q11 -82 48.5 -166t91.5 -163l-231 -10 q-27 44 -46.5 100t-28.5 112q-14 -26 -22.5 -57.5t-8.5 -68.5q0 -18 2 -37t6 -39z" />
<glyph unicode="&#x139;" horiz-adv-x="515" d="M450 792q-61 -35 -128 -59.5t-126 -35.5l-27 55q47 36 97 77.5t96 90.5zM452 0h-420l110 520l18 130l222 10l-115 -540l215 20z" />
<glyph unicode="&#x13a;" horiz-adv-x="326" d="M419 818q-61 -35 -128 -59.5t-126 -35.5l-27 55q47 36 97 77.5t96 90.5zM352 695q-5 -39 -17.5 -98.5t-28.5 -130t-31 -142.5t-25 -136t-10 -110q0 -16 2 -36.5t6 -41.5h-210q-3 15 -5.5 35.5t-2.5 39.5q0 26 5 64t12.5 82t16.5 87.5t17 80.5l33 155l8 141z" />
<glyph unicode="&#x13b;" horiz-adv-x="515" d="M452 0h-420l110 520l18 130l222 10l-115 -540l215 20zM284 -123q0 -41 -24.5 -81.5t-59 -74t-65.5 -52.5l-43 34q12 14 27.5 33t27.5 40q-20 5 -33.5 19.5t-13.5 41.5q0 30 16 55t42.5 40t55.5 15q33 0 51.5 -19t18.5 -51z" />
<glyph unicode="&#x13c;" horiz-adv-x="326" d="M352 695q-5 -39 -17.5 -98.5t-28.5 -130t-31 -142.5t-25 -136t-10 -110q0 -16 2 -36.5t6 -41.5h-210q-3 15 -5.5 35.5t-2.5 39.5q0 26 5 64t12.5 82t16.5 87.5t17 80.5l33 155l8 141zM160 -123q0 -41 -24.5 -81.5t-59 -74t-65.5 -52.5l-43 34q12 14 27.5 33t27.5 40 q-20 5 -33.5 19.5t-13.5 41.5q0 30 16 55t42 40t56 15q33 0 51.5 -19t18.5 -51z" />
<glyph unicode="&#x13d;" horiz-adv-x="515" d="M654 708q-34 -67 -79.5 -127.5t-88.5 -102.5l-65 13q12 31 24.5 70.5t25 80.5t20.5 76zM452 0h-420l110 520l18 130l222 10l-115 -540l215 20z" />
<glyph unicode="&#x13e;" horiz-adv-x="326" d="M603 705q-34 -67 -79.5 -127.5t-88.5 -102.5l-65 13q12 31 24.5 70.5t25 80.5t20.5 76zM352 695q-5 -39 -17.5 -98.5t-28.5 -130t-31 -142.5t-25 -136t-10 -110q0 -16 2 -36.5t6 -41.5h-210q-3 15 -5.5 35.5t-2.5 39.5q0 26 5 64t12.5 82t16.5 87.5t17 80.5l33 155l8 141 z" />
<glyph unicode="&#x13f;" horiz-adv-x="601" d="M452 0h-420l110 520l18 130l222 10l-115 -540l215 20zM474 251q-31 0 -50.5 17.5t-19.5 48.5q0 28 16.5 52.5t44 40t58.5 15.5t49.5 -16t18.5 -44q0 -29 -16.5 -55t-43 -42.5t-57.5 -16.5z" />
<glyph unicode="&#x140;" horiz-adv-x="604" d="M352 695q-5 -39 -17.5 -98.5t-28.5 -130t-31 -142.5t-25 -136t-10 -110q0 -16 2 -36.5t6 -41.5h-210q-3 15 -5.5 35.5t-2.5 39.5q0 26 5 64t12.5 82t16.5 87.5t17 80.5l33 155l8 141zM433 196q-31 0 -50.5 17.5t-19.5 48.5q0 28 16.5 52.5t44 40t58.5 15.5t49.5 -16 t18.5 -44q0 -29 -16.5 -55t-43 -42.5t-57.5 -16.5z" />
<glyph unicode="&#x141;" horiz-adv-x="515" d="M452 0h-420l45 210l-68 -33l-24 74l112 55l45 214l18 130l222 10l-50 -237l99 49l25 -74l-145 -72l-44 -206l215 20z" />
<glyph unicode="&#x142;" horiz-adv-x="326" d="M427 493l-129 -64q-15 -64 -28 -129t-21.5 -122.5t-8.5 -99.5q0 -16 2 -36.5t6 -41.5h-210q-3 15 -5.5 35.5t-2.5 39.5q0 26 5 65.5t13.5 84.5t16.5 89l-85 -42l-24 74l130 64l28 134l8 141l230 10q-4 -30 -12.5 -74t-19.5 -95l82 41z" />
<glyph unicode="&#x143;" horiz-adv-x="705" d="M616 792q-61 -35 -128 -59.5t-126 -35.5l-27 55q47 36 97 77.5t96 90.5zM142 520l18 130l161 10l165 -372h2l62 362l167 10l-140 -660h-170l-150 342h-2l-58 -342h-165z" />
<glyph unicode="&#x144;" d="M522 652q-60 -37 -126.5 -63.5t-125.5 -39.5l-31 62q47 36 96.5 77t95.5 88zM248 0h-210q-4 20 -6 38t-2 37q0 26 5 63.5t12 79t14.5 79t13.5 62.5l8 141l230 10q-4 -33 -15 -81t-22 -103q22 53 55.5 94.5t74 65.5t84.5 24q52 0 82 -35.5t14 -109.5q-21 -98 -35.5 -168.5 t-14.5 -120.5q0 -15 2 -35t6 -41h-210q-5 29 -6.5 45.5t-1.5 44.5q0 10 0.5 19.5t4 29.5t11.5 60.5t23 112.5q4 17 2 32.5t-17 15.5q-19 0 -39.5 -26t-38 -70.5t-25.5 -99.5q-4 -23 -5.5 -45.5t-1.5 -42.5q0 -18 2 -37t6 -39z" />
<glyph unicode="&#x145;" horiz-adv-x="705" d="M142 520l18 130l161 10l165 -372h2l62 362l167 10l-140 -660h-170l-150 342h-2l-58 -342h-165zM397 -123q0 -41 -24.5 -81.5t-59 -74t-65.5 -52.5l-43 34q12 14 27.5 33t27.5 40q-20 5 -33.5 19.5t-13.5 41.5q0 30 16 55t42.5 40t55.5 15q33 0 51.5 -19t18.5 -51z" />
<glyph unicode="&#x146;" d="M248 0h-210q-4 20 -6 38t-2 37q0 26 5 63.5t12 79t14.5 79t13.5 62.5l8 141l230 10q-4 -33 -15 -81t-22 -103q22 53 55.5 94.5t74 65.5t84.5 24q52 0 82 -35.5t14 -109.5q-21 -98 -35.5 -168.5t-14.5 -120.5q0 -15 2 -35t6 -41h-210q-5 29 -6.5 45.5t-1.5 44.5 q0 10 0.5 19.5t4 29.5t11.5 60.5t23 112.5q4 17 2 32.5t-17 15.5q-19 0 -39.5 -26t-38 -70.5t-25.5 -99.5q-4 -23 -5.5 -45.5t-1.5 -42.5q0 -18 2 -37t6 -39zM313 -123q0 -41 -24.5 -81.5t-59 -74t-65.5 -52.5l-43 34q12 14 27.5 33t27.5 40q-20 5 -33.5 19.5t-13.5 41.5 q0 30 16 55t42.5 40t55.5 15q33 0 51.5 -19t18.5 -51z" />
<glyph unicode="&#x147;" horiz-adv-x="705" d="M611 904l49 -24q-34 -34 -70.5 -75.5t-65.5 -79.5l-160 -10q-13 41 -31.5 83t-44.5 82l59 24q65 -36 116 -83q70 46 148 83zM142 520l18 130l161 10l165 -372h2l62 362l167 10l-140 -660h-170l-150 342h-2l-58 -342h-165z" />
<glyph unicode="&#x148;" d="M492 756l60 -36q-31 -35 -66 -78t-64 -82l-160 -10q-10 43 -24 85.5t-34 84.5l74 36q26 -20 47.5 -43t40.5 -48q30 25 61.5 48t64.5 43zM248 0h-210q-4 20 -6 38t-2 37q0 26 5 63.5t12 79t14.5 79t13.5 62.5l8 141l230 10q-4 -33 -15 -81t-22 -103q22 53 55.5 94.5 t74 65.5t84.5 24q52 0 82 -35.5t14 -109.5q-21 -98 -35.5 -168.5t-14.5 -120.5q0 -15 2 -35t6 -41h-210q-5 29 -6.5 45.5t-1.5 44.5q0 10 0.5 19.5t4 29.5t11.5 60.5t23 112.5q4 17 2 32.5t-17 15.5q-19 0 -39.5 -26t-38 -70.5t-25.5 -99.5q-4 -23 -5.5 -45.5t-1.5 -42.5 q0 -18 2 -37t6 -39z" />
<glyph unicode="&#x14a;" horiz-adv-x="705" d="M254 -109q50 14 80 54.5t40 90.5l6 26l-123 280h-2l-58 -342h-165l110 520l18 130l161 10l165 -372h2l62 362l167 10l-93 -440v0l-14 -64q-14 -66 -34 -126t-57 -108t-101 -79t-168 -38z" />
<glyph unicode="&#x14b;" horiz-adv-x="584" d="M248 0h-210q-4 20 -6 38t-2 37q0 26 5 63.5t12 79t14.5 79t13.5 62.5l8 141l230 10q-4 -33 -15 -81t-22 -103q22 53 55.5 94.5t73.5 65.5t83 24q50 0 76.5 -27t26.5 -70q0 -16 -6 -53t-16.5 -88.5t-23.5 -110t-26 -118.5q-22 -105 -92.5 -167.5t-207.5 -70.5l-29 70 q46 21 69.5 49.5t33.5 61.5t17 65q28 130 43 202t15 85q0 7 -4 14.5t-15 7.5q-18 0 -38.5 -26t-38 -71t-26.5 -100q-3 -23 -4.5 -45t-1.5 -42q0 -18 2 -37t6 -39z" />
<glyph unicode="&#x14c;" horiz-adv-x="678" d="M281 754l23 110h330l-23 -110h-330zM670 425q0 -82 -28.5 -160t-81.5 -140t-127 -98.5t-165 -36.5q-108 0 -168.5 57t-60.5 175q0 83 29 161t82.5 140.5t128 99.5t164.5 37q110 0 168.5 -59t58.5 -176zM269 192q0 -43 10.5 -67.5t32.5 -24.5q23 0 42.5 26.5t35.5 68.5 t27 91.5t17 96.5t6 82q0 85 -39 85q-24 0 -44 -25.5t-36.5 -66.5t-28 -89t-17.5 -94.5t-6 -82.5z" />
<glyph unicode="&#x14d;" horiz-adv-x="607" d="M216 602l26 120h290l-26 -120h-290zM584 314q0 -63 -26 -121.5t-73 -104t-110 -72t-137 -26.5q-62 0 -111 20.5t-77 63t-28 107.5q0 63 26.5 121.5t73.5 105.5t110.5 74.5t137.5 27.5q98 0 156 -50.5t58 -145.5zM237 156q0 -35 7 -53t25 -18q24 0 43 27t31.5 69t19 86.5 t6.5 78.5q0 69 -33 69q-24 0 -42.5 -26.5t-31 -67t-19 -85t-6.5 -80.5z" />
<glyph unicode="&#x14e;" horiz-adv-x="678" d="M416 713q-66 0 -101 47.5t-22 126.5l72 10q1 -36 21 -56t59 -20q41 0 69 21.5t43 53.5l70 9q-14 -55 -44 -98.5t-72.5 -68.5t-94.5 -25zM670 425q0 -82 -28.5 -160t-81.5 -140t-127 -98.5t-165 -36.5q-108 0 -168.5 57t-60.5 175q0 83 29 161t82.5 140.5t128 99.5 t164.5 37q110 0 168.5 -59t58.5 -176zM269 192q0 -43 10.5 -67.5t32.5 -24.5q23 0 42.5 26.5t35.5 68.5t27 91.5t17 96.5t6 82q0 85 -39 85q-24 0 -44 -25.5t-36.5 -66.5t-28 -89t-17.5 -94.5t-6 -82.5z" />
<glyph unicode="&#x14f;" horiz-adv-x="607" d="M329 557q-43 0 -72 24.5t-39.5 67t0.5 96.5l72 10q-2 -34 16.5 -58.5t50.5 -24.5q34 0 63.5 26t45.5 56l70 9q-16 -56 -46.5 -103t-71.5 -75t-89 -28zM584 314q0 -63 -26 -121.5t-73 -104t-110 -72t-137 -26.5q-62 0 -111 20.5t-77 63t-28 107.5q0 63 26.5 121.5 t73.5 105.5t110.5 74.5t137.5 27.5q98 0 156 -50.5t58 -145.5zM237 156q0 -35 7 -53t25 -18q24 0 43 27t31.5 69t19 86.5t6.5 78.5q0 69 -33 69q-24 0 -42.5 -26.5t-31 -67t-19 -85t-6.5 -80.5z" />
<glyph unicode="&#x150;" horiz-adv-x="678" d="M465 807q-59 -40 -124 -67.5t-121 -40.5l-27 55q47 36 97 77.5t96 90.5zM724 807q-59 -40 -124 -67.5t-121 -40.5l-27 55q47 36 97 77.5t96 90.5zM670 425q0 -82 -28.5 -160t-81.5 -140t-127 -98.5t-165 -36.5q-108 0 -168.5 57t-60.5 175q0 83 29 161t82.5 140.5 t128 99.5t164.5 37q110 0 168.5 -59t58.5 -176zM269 192q0 -43 10.5 -67.5t32.5 -24.5q23 0 42.5 26.5t35.5 68.5t27 91.5t17 96.5t6 82q0 85 -39 85q-24 0 -44 -25.5t-36.5 -66.5t-28 -89t-17.5 -94.5t-6 -82.5z" />
<glyph unicode="&#x151;" horiz-adv-x="607" d="M402 748q-38 -61 -87 -111.5t-93 -85.5l-56 19q29 50 58.5 102t54.5 104zM583 748q-38 -61 -87 -111.5t-93 -85.5l-56 19q29 50 58.5 102t54.5 104zM584 314q0 -63 -26 -121.5t-73 -104t-110 -72t-137 -26.5q-62 0 -111 20.5t-77 63t-28 107.5q0 63 26.5 121.5 t73.5 105.5t110.5 74.5t137.5 27.5q98 0 156 -50.5t58 -145.5zM237 156q0 -35 7 -53t25 -18q24 0 43 27t31.5 69t19 86.5t6.5 78.5q0 69 -33 69q-24 0 -42.5 -26.5t-31 -67t-19 -85t-6.5 -80.5z" />
<glyph unicode="&#x152;" horiz-adv-x="868" d="M775 0h-419q-42 -10 -87 -10q-109 0 -168.5 60t-59.5 178q0 83 28.5 160t81 138.5t125 97.5t159.5 36q44 0 80 -10h383l-38 -130l-214 6q16 -46 16 -107q0 -19 -2 -38l152 4l-36 -120l-139 4q-28 -82 -82 -145l247 6zM268 198q0 -41 9.5 -64.5t31.5 -23.5q23 0 42.5 25 t35.5 65.5t27 88t17 92.5t6 78q0 39 -9 60t-30 21q-23 0 -43 -24t-36 -63.5t-27.5 -85.5t-17.5 -90.5t-6 -78.5z" />
<glyph unicode="&#x153;" horiz-adv-x="857" d="M796 160l-8 -115q-19 -13 -59 -26t-85.5 -21t-83.5 -8q-46 0 -82 14t-59 43q-38 -27 -85 -42t-100 -15q-60 0 -108 20.5t-76 63.5t-28 108t27.5 124t75.5 105t109.5 72.5t129.5 26.5q103 0 154 -62q37 29 82 45.5t95 16.5q71 0 116 -32.5t45 -89.5q0 -39 -21.5 -73 t-57 -59.5t-79.5 -40t-89 -14.5q-18 0 -36 3v-4q0 -49 20.5 -69.5t56.5 -20.5q32 0 72 13.5t74 36.5zM237 155q0 -35 7 -52.5t25 -17.5q24 0 43 27t31.5 69t19 86.5t6.5 78.5q0 69 -33 69q-24 0 -42.5 -26.5t-31 -67t-19 -85.5t-6.5 -81zM658 415q-18 0 -35 -27.5 t-29.5 -67.5t-17.5 -79q29 15 51.5 40t35.5 53.5t13 52.5q0 28 -18 28z" />
<glyph unicode="&#x154;" horiz-adv-x="646" d="M599 792q-61 -35 -128 -59.5t-126 -35.5l-27 55q47 36 97 77.5t96 90.5zM242 0h-210l110 520l18 130h265q120 0 175 -45.5t55 -127.5q0 -78 -43.5 -137.5t-115.5 -93.5l77 -246l-225 -10l-28 213q-14 -1 -28 -1h-7zM359 535h-3l-47 -219h12q41 0 67 23.5t38.5 58 t12.5 65.5q0 36 -13 51t-31.5 18t-35.5 3z" />
<glyph unicode="&#x155;" horiz-adv-x="456" d="M457 652q-60 -37 -126.5 -63.5t-125.5 -39.5l-31 62q47 36 96.5 77t95.5 88zM248 0h-210q-4 20 -6 38t-2 37q0 26 5 63.5t12 79t14.5 79t13.5 62.5l8 141l230 10q-5 -36 -17 -91t-25 -116q19 55 43.5 102t54.5 76t65 29q23 0 41.5 -11.5t27.5 -25.5l-85 -166 q-9 4 -25.5 7.5t-29.5 3.5q-28 0 -50.5 -21.5t-38.5 -57.5t-24.5 -81t-9.5 -92q1 -16 2.5 -32.5t5.5 -33.5z" />
<glyph unicode="&#x156;" horiz-adv-x="646" d="M242 0h-210l110 520l18 130h265q120 0 175 -45.5t55 -127.5q0 -78 -43.5 -137.5t-115.5 -93.5l77 -246l-225 -10l-28 213q-14 -1 -28 -1h-7zM359 535h-3l-47 -219h12q41 0 67 23.5t38.5 58t12.5 65.5q0 36 -13 51t-31.5 18t-35.5 3zM358 -123q0 -41 -24.5 -81.5t-59 -74 t-65.5 -52.5l-43 34q12 14 27.5 33t27.5 40q-20 5 -33.5 19.5t-13.5 41.5q0 30 16 55t42.5 40t55.5 15q33 0 51.5 -19t18.5 -51z" />
<glyph unicode="&#x157;" horiz-adv-x="456" d="M248 0h-210q-4 20 -6 38t-2 37q0 26 5 63.5t12 79t14.5 79t13.5 62.5l8 141l230 10q-5 -36 -17 -91t-25 -116q19 55 43.5 102t54.5 76t65 29q23 0 41.5 -11.5t27.5 -25.5l-85 -166q-9 4 -25.5 7.5t-29.5 3.5q-28 0 -50.5 -21.5t-38.5 -57.5t-24.5 -81t-9.5 -92 q1 -16 2.5 -32.5t5.5 -33.5zM204 -123q0 -41 -24.5 -81.5t-59 -74t-65.5 -52.5l-43 34q12 14 27.5 33t27.5 40q-20 5 -33.5 19.5t-13.5 41.5q0 30 16 55t42.5 40t55.5 15q33 0 51.5 -19t18.5 -51z" />
<glyph unicode="&#x158;" horiz-adv-x="646" d="M594 904l49 -24q-34 -34 -70.5 -75.5t-65.5 -79.5l-160 -10q-13 41 -31.5 83t-44.5 82l59 24q65 -36 116 -83q70 46 148 83zM242 0h-210l110 520l18 130h265q120 0 175 -45.5t55 -127.5q0 -78 -43.5 -137.5t-115.5 -93.5l77 -246l-225 -10l-28 213q-14 -1 -28 -1h-7z M359 535h-3l-47 -219h12q41 0 67 23.5t38.5 58t12.5 65.5q0 36 -13 51t-31.5 18t-35.5 3z" />
<glyph unicode="&#x159;" horiz-adv-x="456" d="M427 756l60 -36q-31 -35 -66 -78t-64 -82l-160 -10q-10 43 -24 85.5t-34 84.5l74 36q26 -20 47.5 -43t40.5 -48q30 25 61.5 48t64.5 43zM248 0h-210q-4 20 -6 38t-2 37q0 26 5 63.5t12 79t14.5 79t13.5 62.5l8 141l230 10q-5 -36 -17 -91t-25 -116q19 55 43.5 102 t54.5 76t65 29q23 0 41.5 -11.5t27.5 -25.5l-85 -166q-9 4 -25.5 7.5t-29.5 3.5q-28 0 -50.5 -21.5t-38.5 -57.5t-24.5 -81t-9.5 -92q1 -16 2.5 -32.5t5.5 -33.5z" />
<glyph unicode="&#x15a;" horiz-adv-x="547" d="M557 792q-61 -35 -128 -59.5t-126 -35.5l-27 55q47 36 97 77.5t96 90.5zM501 218q0 -54 -26 -96.5t-70.5 -71.5t-100.5 -44.5t-117 -15.5q-29 0 -67.5 3.5t-75 9.5t-59.5 14l69 186q36 -32 79.5 -52.5t77.5 -20.5q28 0 44 11.5t16 28.5q0 20 -19.5 37t-48 35.5t-57 43 t-48 58.5t-19.5 82q0 69 43.5 122t120 82.5t173.5 29.5q44 0 87 -6t77 -17l-73 -177q-31 26 -69 43t-68 17q-29 0 -44.5 -12t-15.5 -31q0 -22 19.5 -40t48 -37t56.5 -42.5t47.5 -57t19.5 -82.5z" />
<glyph unicode="&#x15b;" horiz-adv-x="486" d="M477 652q-60 -37 -126.5 -63.5t-125.5 -39.5l-31 62q47 36 96.5 77t95.5 88zM441 173q0 -55 -37 -96.5t-101 -64t-146 -22.5q-27 0 -59 2.5t-62 7.5t-52 11l44 157q24 -14 53.5 -24t59 -15.5t51.5 -5.5q43 0 43 22q0 15 -13 23.5t-34 17t-46 21.5q-34 18 -57.5 44 t-23.5 71q0 55 37.5 97.5t103.5 66.5t150 24q38 0 75.5 -5t67.5 -14l-44 -158q-39 21 -79.5 32.5t-63.5 11.5q-17 0 -28.5 -6t-11.5 -19t12 -22.5t30 -17t34 -15.5q38 -17 67.5 -44t29.5 -80z" />
<glyph unicode="&#x15c;" horiz-adv-x="547" d="M265 708l-49 24q34 34 71 76t65 79l160 10q14 -41 32.5 -82.5t43.5 -82.5l-59 -24q-65 36 -116 83q-70 -46 -148 -83zM501 218q0 -54 -26 -96.5t-70.5 -71.5t-100.5 -44.5t-117 -15.5q-29 0 -67.5 3.5t-75 9.5t-59.5 14l69 186q36 -32 79.5 -52.5t77.5 -20.5 q28 0 44 11.5t16 28.5q0 20 -19.5 37t-48 35.5t-57 43t-48 58.5t-19.5 82q0 69 43.5 122t120 82.5t173.5 29.5q44 0 87 -6t77 -17l-73 -177q-31 26 -69 43t-68 17q-29 0 -44.5 -12t-15.5 -31q0 -22 19.5 -40t48 -37t56.5 -42.5t47.5 -57t19.5 -82.5z" />
<glyph unicode="&#x15d;" horiz-adv-x="486" d="M238 539l-60 36q32 35 67 78t63 82l160 10q11 -43 24.5 -85.5t33.5 -84.5l-74 -36q-26 20 -47.5 43t-40.5 48q-30 -25 -61.5 -48t-64.5 -43zM441 173q0 -55 -37 -96.5t-101 -64t-146 -22.5q-27 0 -59 2.5t-62 7.5t-52 11l44 157q24 -14 53.5 -24t59 -15.5t51.5 -5.5 q43 0 43 22q0 15 -13 23.5t-34 17t-46 21.5q-34 18 -57.5 44t-23.5 71q0 55 37.5 97.5t103.5 66.5t150 24q38 0 75.5 -5t67.5 -14l-44 -158q-39 21 -79.5 32.5t-63.5 11.5q-17 0 -28.5 -6t-11.5 -19t12 -22.5t30 -17t34 -15.5q38 -17 67.5 -44t29.5 -80z" />
<glyph unicode="&#x15e;" horiz-adv-x="547" d="M178 -124q7 26 -40 38l44 76q-29 0 -67 3.5t-73 9.5t-57 14l69 186q36 -32 79.5 -52.5t77.5 -20.5q28 0 44 11.5t16 28.5q0 20 -19.5 37t-48 35.5t-57 43t-48 58.5t-19.5 82q0 69 43.5 122t120 82.5t173.5 29.5q44 0 87 -6t77 -17l-73 -177q-31 26 -69 43t-68 17 q-29 0 -44.5 -12t-15.5 -31q0 -22 19.5 -40t48 -37t56.5 -42.5t47.5 -57t19.5 -82.5q0 -64 -36 -111.5t-95 -76.5t-129 -37l-16 -28q57 -6 85.5 -28.5t21.5 -56.5q-10 -47 -72 -74.5t-176 -27.5l5 54q32 3 58 12.5t31 31.5z" />
<glyph unicode="&#x15f;" horiz-adv-x="486" d="M146 -124q7 26 -40 38l44 76q-40 1 -87.5 6.5t-78.5 14.5l44 157q24 -14 53.5 -24t59 -15.5t51.5 -5.5q43 0 43 22q0 15 -13 23.5t-34 17t-46 21.5q-34 18 -57.5 44t-23.5 71q0 55 37.5 97.5t103.5 66.5t150 24q38 0 75.5 -5t67.5 -14l-44 -158q-39 21 -79.5 32.5 t-63.5 11.5q-17 0 -28.5 -6t-11.5 -19t12 -22.5t30 -17t34 -15.5q38 -17 67.5 -44t29.5 -80q0 -49 -29.5 -87.5t-82 -62.5t-120.5 -31l-16 -27q57 -6 85.5 -28.5t21.5 -56.5q-10 -47 -72 -74.5t-176 -27.5l5 54q32 3 58 12.5t31 31.5z" />
<glyph unicode="&#x160;" horiz-adv-x="547" d="M552 904l49 -24q-34 -34 -70.5 -75.5t-65.5 -79.5l-160 -10q-13 41 -31.5 83t-44.5 82l59 24q65 -36 116 -83q70 46 148 83zM501 218q0 -54 -26 -96.5t-70.5 -71.5t-100.5 -44.5t-117 -15.5q-29 0 -67.5 3.5t-75 9.5t-59.5 14l69 186q36 -32 79.5 -52.5t77.5 -20.5 q28 0 44 11.5t16 28.5q0 20 -19.5 37t-48 35.5t-57 43t-48 58.5t-19.5 82q0 69 43.5 122t120 82.5t173.5 29.5q44 0 87 -6t77 -17l-73 -177q-31 26 -69 43t-68 17q-29 0 -44.5 -12t-15.5 -31q0 -22 19.5 -40t48 -37t56.5 -42.5t47.5 -57t19.5 -82.5z" />
<glyph unicode="&#x161;" horiz-adv-x="486" d="M447 756l60 -36q-31 -35 -66 -78t-64 -82l-160 -10q-10 43 -24 85.5t-34 84.5l74 36q26 -20 47.5 -43t40.5 -48q30 25 61.5 48t64.5 43zM441 173q0 -55 -37 -96.5t-101 -64t-146 -22.5q-27 0 -59 2.5t-62 7.5t-52 11l44 157q24 -14 53.5 -24t59 -15.5t51.5 -5.5 q43 0 43 22q0 15 -13 23.5t-34 17t-46 21.5q-34 18 -57.5 44t-23.5 71q0 55 37.5 97.5t103.5 66.5t150 24q38 0 75.5 -5t67.5 -14l-44 -158q-39 21 -79.5 32.5t-63.5 11.5q-17 0 -28.5 -6t-11.5 -19t12 -22.5t30 -17t34 -15.5q38 -17 67.5 -44t29.5 -80z" />
<glyph unicode="&#x162;" horiz-adv-x="548" d="M183 -124q7 26 -40 38l50 86h-77l109 515l-161 -10l40 145h510l-22 -145l-157 10l-109 -515h-76l-20 -35q57 -6 85.5 -28.5t21.5 -56.5q-10 -47 -72 -74.5t-176 -27.5l5 54q32 3 58 12.5t31 31.5z" />
<glyph unicode="&#x163;" horiz-adv-x="421" d="M120 -124q7 26 -40 38l48 82q-46 11 -70.5 41t-24.5 80q0 23 5.5 57.5t18 92t31.5 149.5l-53 1l12 53l79 20l76 119l141 9q-7 -35 -14 -67t-14 -61h129l-26 -83l-121 3q-23 -108 -36.5 -172t-13.5 -84q0 -19 11 -25.5t27 -6.5q25 0 44.5 10.5t45.5 27.5l-8 -115 q-74 -55 -180 -55h-6l-14 -25q57 -6 85.5 -28.5t21.5 -56.5q-10 -47 -72 -74.5t-176 -27.5l5 54q32 3 58 12.5t31 31.5z" />
<glyph unicode="&#x164;" horiz-adv-x="548" d="M532 904l49 -24q-34 -34 -70.5 -75.5t-65.5 -79.5l-160 -10q-13 41 -31.5 83t-44.5 82l59 24q65 -36 116 -83q70 46 148 83zM326 0h-210l109 515l-161 -10l40 145h510l-22 -145l-157 10z" />
<glyph unicode="&#x165;" horiz-adv-x="421" d="M598 753q-34 -67 -79.5 -127.5t-88.5 -102.5l-65 13q12 31 24.5 70.5t25 80.5t20.5 76zM367 45q-74 -55 -180 -55q-73 0 -113.5 31.5t-40.5 95.5q0 23 5.5 57.5t18 92t31.5 149.5l-53 1l12 53l79 20l76 119l141 9q-7 -35 -14 -67t-14 -61h129l-26 -83l-121 3 q-23 -108 -36.5 -172t-13.5 -84q0 -19 11 -25.5t27 -6.5q25 0 44.5 10.5t45.5 27.5z" />
<glyph unicode="&#x166;" horiz-adv-x="548" d="M326 0h-210l61 285h-89l17 80h88l32 150l-161 -10l40 145h510l-22 -145l-157 10l-32 -150h88l-17 -80h-87z" />
<glyph unicode="&#x167;" horiz-adv-x="421" d="M367 45q-74 -55 -180 -55q-73 0 -113.5 31.5t-40.5 95.5q0 18 4 44t12 67h-53l17 80h52q5 23 10.5 50t12.5 58l-53 1l12 53l79 20l76 119l141 9q-7 -35 -14 -67t-14 -61h129l-26 -83l-121 3q-6 -29 -11.5 -54.5t-10.5 -47.5h124l-17 -80h-124q-11 -57 -11 -74 q0 -19 11 -25.5t27 -6.5q25 0 44.5 10.5t45.5 27.5z" />
<glyph unicode="&#x168;" horiz-adv-x="705" d="M430 892q30 0 51 -10.5t39 -21t40 -10.5q21 0 35.5 12.5t32.5 34.5l42 -9q-10 -40 -29.5 -77.5t-48 -61t-65.5 -23.5q-26 0 -49.5 10.5t-44 21t-39.5 10.5q-16 0 -32 -10.5t-36 -36.5l-43 9q10 40 29.5 77t48.5 61t69 24zM328 110q32 0 54 28.5t32 76.5l63 305l18 130 l222 10l-93 -436q-16 -77 -66 -129.5t-120 -78.5t-146 -26q-100 0 -159.5 45.5t-59.5 134.5q0 11 1.5 23t5 32t11 55.5t20 93.5t31.5 146l18 130l222 9q-28 -130 -46 -214.5t-28.5 -135t-16 -77.5t-7 -41t-1.5 -26q0 -21 10.5 -38t34.5 -17z" />
<glyph unicode="&#x169;" d="M334 753q31 0 52 -13t39.5 -26t41.5 -13q18 0 31 14t29 38l43 -9q-10 -41 -29 -79.5t-46 -63t-62 -24.5q-26 0 -50 13t-45 26t-40 13q-13 0 -27.5 -11.5t-32.5 -40.5l-43 9q10 41 28 79t46 63t65 25zM75 358l8 141l230 10q-7 -58 -18 -115t-22 -105.5t-18.5 -83 t-7.5 -48.5q0 -17 11 -17q15 0 46.5 46.5t56.5 151.5q2 11 4 20q5 23 7.5 47.5t2.5 49.5q0 11 -0.5 22t-1.5 22l230 10q-3 -29 -11 -70.5t-18.5 -90.5t-20 -99t-16 -94.5t-6.5 -77.5q0 -15 2 -35.5t6 -41.5h-210q-6 29 -7 51.5t-1 30.5q0 21 0.5 36.5t1.5 30.5 q-38 -80 -96.5 -119.5t-110.5 -39.5q-47 0 -67.5 30t-20.5 82q0 16 2 33t7 43.5t14 69.5t24 110z" />
<glyph unicode="&#x16a;" horiz-adv-x="705" d="M300 754l23 110h330l-23 -110h-330zM328 110q32 0 54 28.5t32 76.5l63 305l18 130l222 10l-93 -436q-16 -77 -66 -129.5t-120 -78.5t-146 -26q-100 0 -159.5 45.5t-59.5 134.5q0 11 1.5 23t5 32t11 55.5t20 93.5t31.5 146l18 130l222 9q-28 -130 -46 -214.5t-28.5 -135 t-16 -77.5t-7 -41t-1.5 -26q0 -21 10.5 -38t34.5 -17z" />
<glyph unicode="&#x16b;" d="M223 602l26 120h290l-26 -120h-290zM75 358l8 141l230 10q-7 -58 -18 -115t-22 -105.5t-18.5 -83t-7.5 -48.5q0 -17 11 -17q15 0 46.5 46.5t56.5 151.5q2 11 4 20q5 23 7.5 47.5t2.5 49.5q0 11 -0.5 22t-1.5 22l230 10q-3 -29 -11 -70.5t-18.5 -90.5t-20 -99t-16 -94.5 t-6.5 -77.5q0 -15 2 -35.5t6 -41.5h-210q-6 29 -7 51.5t-1 30.5q0 21 0.5 36.5t1.5 30.5q-38 -80 -96.5 -119.5t-110.5 -39.5q-47 0 -67.5 30t-20.5 82q0 16 2 33t7 43.5t14 69.5t24 110z" />
<glyph unicode="&#x16c;" horiz-adv-x="705" d="M435 713q-66 0 -101 47.5t-22 126.5l72 10q1 -36 21 -56t59 -20q41 0 69 21.5t43 53.5l70 9q-14 -55 -44 -98.5t-72.5 -68.5t-94.5 -25zM328 110q32 0 54 28.5t32 76.5l63 305l18 130l222 10l-93 -436q-16 -77 -66 -129.5t-120 -78.5t-146 -26q-100 0 -159.5 45.5 t-59.5 134.5q0 11 1.5 23t5 32t11 55.5t20 93.5t31.5 146l18 130l222 9q-28 -130 -46 -214.5t-28.5 -135t-16 -77.5t-7 -41t-1.5 -26q0 -21 10.5 -38t34.5 -17z" />
<glyph unicode="&#x16d;" d="M336 557q-43 0 -72 24.5t-39.5 67t0.5 96.5l72 10q-2 -34 16.5 -58.5t50.5 -24.5q34 0 63.5 26t45.5 56l70 9q-16 -56 -46.5 -103t-71.5 -75t-89 -28zM75 358l8 141l230 10q-7 -58 -18 -115t-22 -105.5t-18.5 -83t-7.5 -48.5q0 -17 11 -17q15 0 46.5 46.5t56.5 151.5 q2 11 4 20q5 23 7.5 47.5t2.5 49.5q0 11 -0.5 22t-1.5 22l230 10q-3 -29 -11 -70.5t-18.5 -90.5t-20 -99t-16 -94.5t-6.5 -77.5q0 -15 2 -35.5t6 -41.5h-210q-6 29 -7 51.5t-1 30.5q0 21 0.5 36.5t1.5 30.5q-38 -80 -96.5 -119.5t-110.5 -39.5q-47 0 -67.5 30t-20.5 82 q0 16 2 33t7 43.5t14 69.5t24 110z" />
<glyph unicode="&#x16e;" horiz-adv-x="705" d="M609 840q0 -37 -23.5 -68t-61.5 -49t-82 -18q-49 0 -72.5 22t-23.5 54q0 35 23 65.5t62 50t85 19.5t69.5 -20t23.5 -56zM429 801q0 -12 10 -19.5t26 -7.5q24 0 42.5 14.5t18.5 32.5q0 13 -10 19.5t-25 6.5q-22 0 -42 -14t-20 -32zM328 110q32 0 54 28.5t32 76.5l63 305 l18 130l222 10l-93 -436q-16 -77 -66 -129.5t-120 -78.5t-146 -26q-100 0 -159.5 45.5t-59.5 134.5q0 11 1.5 23t5 32t11 55.5t20 93.5t31.5 146l18 130l222 9q-28 -130 -46 -214.5t-28.5 -135t-16 -77.5t-7 -41t-1.5 -26q0 -21 10.5 -38t34.5 -17z" />
<glyph unicode="&#x16f;" d="M509 696q0 -40 -22.5 -73.5t-60 -53.5t-81.5 -20q-50 0 -75 27t-15 75q7 35 29.5 64t57 46.5t75.5 17.5t66.5 -20t25.5 -63zM331 646q0 -32 35 -32q27 0 46 19.5t19 46.5q0 34 -35 34q-27 0 -46 -20.5t-19 -47.5zM75 358l8 141l230 10q-7 -58 -18 -115t-22 -105.5 t-18.5 -83t-7.5 -48.5q0 -17 11 -17q15 0 46.5 46.5t56.5 151.5q2 11 4 20q5 23 7.5 47.5t2.5 49.5q0 11 -0.5 22t-1.5 22l230 10q-3 -29 -11 -70.5t-18.5 -90.5t-20 -99t-16 -94.5t-6.5 -77.5q0 -15 2 -35.5t6 -41.5h-210q-6 29 -7 51.5t-1 30.5q0 21 0.5 36.5t1.5 30.5 q-38 -80 -96.5 -119.5t-110.5 -39.5q-47 0 -67.5 30t-20.5 82q0 16 2 33t7 43.5t14 69.5t24 110z" />
<glyph unicode="&#x170;" horiz-adv-x="705" d="M484 807q-59 -40 -124 -67.5t-121 -40.5l-27 55q47 36 97 77.5t96 90.5zM743 807q-59 -40 -124 -67.5t-121 -40.5l-27 55q47 36 97 77.5t96 90.5zM328 110q32 0 54 28.5t32 76.5l63 305l18 130l222 10l-93 -436q-16 -77 -66 -129.5t-120 -78.5t-146 -26 q-100 0 -159.5 45.5t-59.5 134.5q0 11 1.5 23t5 32t11 55.5t20 93.5t31.5 146l18 130l222 9q-28 -130 -46 -214.5t-28.5 -135t-16 -77.5t-7 -41t-1.5 -26q0 -21 10.5 -38t34.5 -17z" />
<glyph unicode="&#x171;" d="M409 748q-38 -61 -87 -111.5t-93 -85.5l-56 19q29 50 58.5 102t54.5 104zM590 748q-38 -61 -87 -111.5t-93 -85.5l-56 19q29 50 58.5 102t54.5 104zM75 358l8 141l230 10q-7 -58 -18 -115t-22 -105.5t-18.5 -83t-7.5 -48.5q0 -17 11 -17q15 0 46.5 46.5t56.5 151.5 q2 11 4 20q5 23 7.5 47.5t2.5 49.5q0 11 -0.5 22t-1.5 22l230 10q-3 -29 -11 -70.5t-18.5 -90.5t-20 -99t-16 -94.5t-6.5 -77.5q0 -15 2 -35.5t6 -41.5h-210q-6 29 -7 51.5t-1 30.5q0 21 0.5 36.5t1.5 30.5q-38 -80 -96.5 -119.5t-110.5 -39.5q-47 0 -67.5 30t-20.5 82 q0 16 2 33t7 43.5t14 69.5t24 110z" />
<glyph unicode="&#x172;" horiz-adv-x="655" d="M328 110q32 0 54 28.5t32 76.5l63 305l18 130l222 10l-93 -436q-13 -60 -47 -105t-81 -74q-55 -37 -89 -76t-34 -71q0 -13 7.5 -20.5t26.5 -7.5q20 0 50 9l7 -52q-27 -21 -65 -35t-82 -14q-43 0 -69 16.5t-26 54.5q0 39 27.5 75.5t77.5 66.5q-18 -1 -35 -1 q-100 0 -159.5 45.5t-59.5 134.5q0 11 1.5 23t5 32t11 55.5t20 93.5t31.5 146l18 130l222 9q-28 -130 -46 -214.5t-28.5 -135t-16 -77.5t-7 -41t-1.5 -26q0 -21 10.5 -38t34.5 -17z" />
<glyph unicode="&#x173;" d="M75 358l8 141l230 10q-7 -58 -18 -115t-22 -105.5t-18.5 -83t-7.5 -48.5q0 -17 11 -17q15 0 46.5 46.5t56.5 151.5q2 11 4 20q5 23 7.5 47.5t2.5 49.5q0 11 -0.5 22t-1.5 22l230 10q-3 -29 -11 -70.5t-18.5 -90.5t-20 -99t-16 -94.5t-6.5 -77.5q0 -15 2 -35.5t6 -41.5 q-49 -19 -82 -49t-33 -56q0 -25 35 -25q19 0 49 9l7 -52q-27 -21 -65 -35t-83 -14q-42 0 -68 15t-26 47q0 49 45 91t119 69h-108q-6 29 -7 51.5t-1 30.5q0 21 0.5 36.5t1.5 30.5q-38 -80 -96.5 -119.5t-110.5 -39.5q-47 0 -67.5 30t-20.5 82q0 16 2 33t7 43.5t14 69.5 t24 110z" />
<glyph unicode="&#x174;" horiz-adv-x="955" d="M456 708l-49 24q34 34 71 76t65 79l160 10q14 -41 32.5 -82.5t43.5 -82.5l-59 -24q-65 36 -116 83q-70 -46 -148 -83zM70 0l25 650l208 10l-37 -508h2l178 498h264l-39 -498h2l181 508l181 -10l-279 -650h-288l52 468h-2l-160 -468h-288z" />
<glyph unicode="&#x175;" horiz-adv-x="850" d="M387 539l-60 36q32 35 67 78t63 82l160 10q11 -43 24.5 -85.5t33.5 -84.5l-74 -36q-26 20 -47.5 43t-40.5 48q-30 -25 -61.5 -48t-64.5 -43zM67 236q0 74 -4.5 144.5t-14.5 119.5l215 10q6 -28 8.5 -59t2.5 -65q0 -75 -9 -156.5t-23 -153.5h3q38 70 64 145.5t40.5 147.5 t15.5 131l200 10q6 -28 8.5 -59t2.5 -65q0 -75 -9 -156.5t-23 -153.5h3q38 70 64 145.5t40.5 147.5t15.5 131q29 5 52 7.5t42 2.5q43 0 71 -15.5t28 -62.5q0 -36 -20.5 -90.5t-61.5 -117.5t-104 -124.5t-147 -109.5l-154 10q8 43 14 98t10 114t6 113q-20 -58 -49 -123.5 t-62.5 -122t-66.5 -89.5l-169 10q5 47 8 109.5t3 126.5z" />
<glyph unicode="&#x176;" horiz-adv-x="602" d="M275 708l-49 24q34 34 71 76t65 79l160 10q14 -41 32.5 -82.5t43.5 -82.5l-59 -24q-65 36 -116 83q-70 -46 -148 -83zM356 0h-210l43 202v0l-94 448l208 10l29 -292h2l155 292l193 -10l-283 -448z" />
<glyph unicode="&#x177;" horiz-adv-x="558" d="M253 539l-60 36q32 35 67 78t63 82l160 10q11 -43 24.5 -85.5t33.5 -84.5l-74 -36q-26 20 -47.5 43t-40.5 48q-30 -25 -61.5 -48t-64.5 -43zM356 14q-84 -103 -176.5 -156t-184.5 -53q-53 0 -85 19t-32 60q0 24 11 50.5t32 39.5q27 -8 61.5 -13t64.5 -5q38 0 75 8.5 t65 24t39 36.5l-160 9q11 85 11 205q0 71 -4.5 141.5t-14.5 119.5l215 10q6 -28 8.5 -59t2.5 -65q0 -67 -9 -139.5t-23 -136.5h3q38 65 64 134t40.5 135.5t15.5 120.5q29 5 52 7.5t42 2.5q43 0 71 -15.5t28 -60.5q0 -36 -18.5 -88.5t-49.5 -111t-68.5 -116t-75.5 -104.5z " />
<glyph unicode="&#x178;" horiz-adv-x="602" d="M409 836q0 -30 -20 -57t-52 -43.5t-69 -15.5q-34 1 -56.5 17t-22.5 46q0 29 20 55t52.5 43.5t70.5 18.5q34 1 55.5 -15.5t21.5 -48.5zM658 836q0 -30 -20 -57t-52 -43.5t-69 -15.5q-34 1 -56.5 17t-22.5 46q0 29 20 55t52.5 43.5t70.5 18.5q34 1 55.5 -15.5t21.5 -48.5z M356 0h-210l43 202v0l-94 448l208 10l29 -292h2l155 292l193 -10l-283 -448z" />
<glyph unicode="&#x179;" horiz-adv-x="538" d="M532 792q-61 -35 -128 -59.5t-126 -35.5l-27 55q47 36 97 77.5t96 90.5zM445 0h-443l-2 107l318 399q-56 -2 -112.5 -4t-112.5 -4l42 152h423l2 -106l-319 -400l124 8l124 8z" />
<glyph unicode="&#x17a;" horiz-adv-x="502" d="M480 652q-60 -37 -126.5 -63.5t-125.5 -39.5l-31 62q47 36 96.5 77t95.5 88zM3 -10l-33 48q171 147 296 286q-25 10 -51.5 15t-50.5 5q-31 0 -57.5 -11.5t-43.5 -34.5l-28 10q10 80 31.5 124t51 61t61.5 17q45 0 90.5 -24.5t83.5 -59.5q35 43 64 84q18 0 37 -5.5t32 -19 t13 -37.5q0 -36 -28 -74t-72.5 -74.5t-95.5 -68.5t-98 -57q29 -2 57 -10t64 -8q44 0 79 15t53 43l28 -10q-20 -88 -49 -134t-65 -63t-79 -17q-37 0 -67.5 7.5t-58 15t-55.5 7.5q-20 0 -47.5 -6.5t-61.5 -23.5z" />
<glyph unicode="&#x17b;" horiz-adv-x="538" d="M505 834q0 -31 -21.5 -58t-55.5 -44t-74 -17q-37 0 -61 16.5t-24 47.5q0 30 21.5 57.5t56.5 45.5t75 18q37 0 60 -17t23 -49zM445 0h-443l-2 107l318 399q-56 -2 -112.5 -4t-112.5 -4l42 152h423l2 -106l-319 -400l124 8l124 8z" />
<glyph unicode="&#x17c;" horiz-adv-x="502" d="M457 690q0 -31 -21.5 -58t-55.5 -44t-74 -17q-37 0 -61 16.5t-24 47.5q0 30 21.5 57.5t56.5 45.5t75 18q37 0 60 -17t23 -49zM3 -10l-33 48q171 147 296 286q-25 10 -51.5 15t-50.5 5q-31 0 -57.5 -11.5t-43.5 -34.5l-28 10q10 80 31.5 124t51 61t61.5 17 q45 0 90.5 -24.5t83.5 -59.5q35 43 64 84q18 0 37 -5.5t32 -19t13 -37.5q0 -36 -28 -74t-72.5 -74.5t-95.5 -68.5t-98 -57q29 -2 57 -10t64 -8q44 0 79 15t53 43l28 -10q-20 -88 -49 -134t-65 -63t-79 -17q-37 0 -67.5 7.5t-58 15t-55.5 7.5q-20 0 -47.5 -6.5t-61.5 -23.5z " />
<glyph unicode="&#x17d;" horiz-adv-x="538" d="M527 904l49 -24q-34 -34 -70.5 -75.5t-65.5 -79.5l-160 -10q-13 41 -31.5 83t-44.5 82l59 24q65 -36 116 -83q70 46 148 83zM445 0h-443l-2 107l318 399q-56 -2 -112.5 -4t-112.5 -4l42 152h423l2 -106l-319 -400l124 8l124 8z" />
<glyph unicode="&#x17e;" horiz-adv-x="502" d="M450 756l60 -36q-31 -35 -66 -78t-64 -82l-160 -10q-10 43 -24 85.5t-34 84.5l74 36q26 -20 47.5 -43t40.5 -48q30 25 61.5 48t64.5 43zM3 -10l-33 48q171 147 296 286q-25 10 -51.5 15t-50.5 5q-31 0 -57.5 -11.5t-43.5 -34.5l-28 10q10 80 31.5 124t51 61t61.5 17 q45 0 90.5 -24.5t83.5 -59.5q35 43 64 84q18 0 37 -5.5t32 -19t13 -37.5q0 -36 -28 -74t-72.5 -74.5t-95.5 -68.5t-98 -57q29 -2 57 -10t64 -8q44 0 79 15t53 43l28 -10q-20 -88 -49 -134t-65 -63t-79 -17q-37 0 -67.5 7.5t-58 15t-55.5 7.5q-20 0 -47.5 -6.5t-61.5 -23.5z " />
<glyph unicode="&#x18f;" horiz-adv-x="633" d="M86 445l11 144q28 18 70.5 34t94.5 26.5t106 10.5q118 0 187.5 -58t69.5 -180q0 -84 -32.5 -161.5t-88.5 -138.5t-128.5 -96.5t-153.5 -35.5q-86 0 -135.5 42t-49.5 114q0 54 27.5 98.5t73 76.5t102 49.5t114.5 17.5q23 0 46 -3v2q0 69 -34.5 96t-91.5 27 q-45 0 -94 -16.5t-94 -48.5zM247 136q0 -36 24 -36q21 0 41.5 23t38 60t29.5 79.5t17 82.5q-43 -15 -77 -51t-53.5 -79t-19.5 -79z" />
<glyph unicode="&#x192;" horiz-adv-x="594" d="M477 247l-138 3l-56 -171q-6 -18 -18 -48t-33 -63t-54.5 -62.5t-83 -48t-117.5 -18.5q-25 0 -51.5 3.5t-54.5 10.5l63 111q39 -15 63 -15q26 0 43.5 14t27.5 36t15 44l50 212l-91 2l21 53l88 20q7 29 14 56.5t21 61.5q16 38 41 75.5t63 68.5t92.5 49.5t128.5 18.5 q51 0 85.5 -8.5t53.5 -20.5l-76 -133q-12 17 -36.5 34.5t-48.5 17.5q-31 0 -53.5 -31t-37.5 -77q-15 -47 -22.5 -70t-10 -30.5t-3.5 -11.5h149z" />
<glyph unicode="&#x19d;" horiz-adv-x="705" d="M-85 -195l4 86q50 14 80 54.5t40 90.5l103 484l18 130l161 10l165 -372h2l62 362l167 10l-140 -660h-170l-150 342h-2q-13 -76 -21 -123t-13 -74.5t-9 -43.5q-19 -89 -53.5 -152.5t-93 -99.5t-150.5 -44z" />
<glyph unicode="&#x1cd;" horiz-adv-x="647" d="M587 904l49 -24q-34 -34 -70.5 -75.5t-65.5 -79.5l-160 -10q-13 41 -31.5 83t-44.5 82l59 24q65 -36 116 -83q70 46 148 83zM152 0h-195l264 520l61 131l264 9l38 -660h-206l-1 125h-170zM372 503l-122 -278h126l-2 278h-2z" />
<glyph unicode="&#x1ce;" horiz-adv-x="621" d="M517 756l60 -36q-31 -35 -66 -78t-64 -82l-160 -10q-10 43 -24 85.5t-34 84.5l74 36q26 -20 47.5 -43t40.5 -48q30 25 61.5 48t64.5 43zM11 128q0 48 15.5 101t46.5 103t76.5 90t105.5 64t134 24q54 0 111.5 -12.5t100.5 -31.5l-38 -178q-9 -41 -18.5 -96t-9.5 -110 q0 -20 2 -40.5t6 -41.5h-210q-4 20 -6 39t-2 39q0 41 10 102q-25 -54 -62 -97t-79 -68t-82 -25q-46 0 -73.5 36t-27.5 102zM226 176q0 -47 22 -47q21 0 45 39t47 103t40 140v0q-13 4 -22 4q-26 0 -49.5 -25t-42 -63t-29.5 -78.5t-11 -72.5z" />
<glyph unicode="&#x1cf;" horiz-adv-x="370" d="M443 904l49 -24q-34 -34 -70.5 -75.5t-65.5 -79.5l-160 -10q-13 41 -31.5 83t-44.5 82l59 24q65 -36 116 -83q70 46 148 83zM242 0h-210l110 520l18 130l222 10z" />
<glyph unicode="&#x1d0;" horiz-adv-x="327" d="M344 777l49 -28q-22 -40 -47.5 -90t-46.5 -95l-160 -10q-1 49 -5 98t-13 97l59 28q19 -22 34 -47.5t28 -54.5q25 29 50 54.5t52 47.5zM313 509q-3 -29 -11 -70.5t-18.5 -90.5t-20 -99t-16 -94.5t-6.5 -77.5q0 -15 2 -35.5t6 -41.5h-210q-6 29 -7 51.5t-1 30.5q0 26 1 52 t10 69l33 155l8 141z" />
<glyph unicode="&#x1d1;" horiz-adv-x="678" d="M597 904l49 -24q-34 -34 -70.5 -75.5t-65.5 -79.5l-160 -10q-13 41 -31.5 83t-44.5 82l59 24q65 -36 116 -83q70 46 148 83zM670 425q0 -82 -28.5 -160t-81.5 -140t-127 -98.5t-165 -36.5q-108 0 -168.5 57t-60.5 175q0 83 29 161t82.5 140.5t128 99.5t164.5 37 q110 0 168.5 -59t58.5 -176zM269 192q0 -43 10.5 -67.5t32.5 -24.5q23 0 42.5 26.5t35.5 68.5t27 91.5t17 96.5t6 82q0 85 -39 85q-24 0 -44 -25.5t-36.5 -66.5t-28 -89t-17.5 -94.5t-6 -82.5z" />
<glyph unicode="&#x1d2;" horiz-adv-x="607" d="M486 756l60 -36q-31 -35 -66 -78t-64 -82l-160 -10q-10 43 -24 85.5t-34 84.5l74 36q26 -20 47.5 -43t40.5 -48q30 25 61.5 48t64.5 43zM584 314q0 -63 -26 -121.5t-73 -104t-110 -72t-137 -26.5q-62 0 -111 20.5t-77 63t-28 107.5q0 63 26.5 121.5t73.5 105.5 t110.5 74.5t137.5 27.5q98 0 156 -50.5t58 -145.5zM237 156q0 -35 7 -53t25 -18q24 0 43 27t31.5 69t19 86.5t6.5 78.5q0 69 -33 69q-24 0 -42.5 -26.5t-31 -67t-19 -85t-6.5 -80.5z" />
<glyph unicode="&#x1d3;" horiz-adv-x="705" d="M616 904l49 -24q-34 -34 -70.5 -75.5t-65.5 -79.5l-160 -10q-13 41 -31.5 83t-44.5 82l59 24q65 -36 116 -83q70 46 148 83zM328 110q32 0 54 28.5t32 76.5l63 305l18 130l222 10l-93 -436q-16 -77 -66 -129.5t-120 -78.5t-146 -26q-100 0 -159.5 45.5t-59.5 134.5 q0 11 1.5 23t5 32t11 55.5t20 93.5t31.5 146l18 130l222 9q-28 -130 -46 -214.5t-28.5 -135t-16 -77.5t-7 -41t-1.5 -26q0 -21 10.5 -38t34.5 -17z" />
<glyph unicode="&#x1d4;" d="M493 756l60 -36q-31 -35 -66 -78t-64 -82l-160 -10q-10 43 -24 85.5t-34 84.5l74 36q26 -20 47.5 -43t40.5 -48q30 25 61.5 48t64.5 43zM75 358l8 141l230 10q-7 -58 -18 -115t-22 -105.5t-18.5 -83t-7.5 -48.5q0 -17 11 -17q15 0 46.5 46.5t56.5 151.5q2 11 4 20 q5 23 7.5 47.5t2.5 49.5q0 11 -0.5 22t-1.5 22l230 10q-3 -29 -11 -70.5t-18.5 -90.5t-20 -99t-16 -94.5t-6.5 -77.5q0 -15 2 -35.5t6 -41.5h-210q-6 29 -7 51.5t-1 30.5q0 21 0.5 36.5t1.5 30.5q-38 -80 -96.5 -119.5t-110.5 -39.5q-47 0 -67.5 30t-20.5 82q0 16 2 33 t7 43.5t14 69.5t24 110z" />
<glyph unicode="&#x1d5;" horiz-adv-x="705" d="M354 1004l23 110h330l-23 -110h-330zM463 836q0 -30 -20 -57t-52 -43.5t-69 -15.5q-34 1 -56.5 17t-22.5 46q0 29 20 55t52.5 43.5t70.5 18.5q34 1 55.5 -15.5t21.5 -48.5zM712 836q0 -30 -20 -57t-52 -43.5t-69 -15.5q-34 1 -56.5 17t-22.5 46q0 29 20 55t52.5 43.5 t70.5 18.5q34 1 55.5 -15.5t21.5 -48.5zM328 110q32 0 54 28.5t32 76.5l63 305l18 130l222 10l-93 -436q-16 -77 -66 -129.5t-120 -78.5t-146 -26q-100 0 -159.5 45.5t-59.5 134.5q0 11 1.5 23t5 32t11 55.5t20 93.5t31.5 146l18 130l222 9q-28 -130 -46 -214.5t-28.5 -135 t-16 -77.5t-7 -41t-1.5 -26q0 -21 10.5 -38t34.5 -17z" />
<glyph unicode="&#x1d6;" d="M276 851l26 120h290l-26 -120h-290zM355 685q0 -30 -20 -57t-52 -43.5t-69 -15.5q-34 1 -56.5 17t-22.5 46q0 29 20 55t52.5 43.5t70.5 18.5q34 1 55.5 -15.5t21.5 -48.5zM627 685q0 -30 -20 -57t-52 -43.5t-69 -15.5q-34 1 -56.5 17t-22.5 46q0 29 20 55t52.5 43.5 t70.5 18.5q34 1 55.5 -15.5t21.5 -48.5zM75 358l8 141l230 10q-7 -58 -18 -115t-22 -105.5t-18.5 -83t-7.5 -48.5q0 -17 11 -17q15 0 46.5 46.5t56.5 151.5q2 11 4 20q5 23 7.5 47.5t2.5 49.5q0 11 -0.5 22t-1.5 22l230 10q-3 -29 -11 -70.5t-18.5 -90.5t-20 -99t-16 -94.5 t-6.5 -77.5q0 -15 2 -35.5t6 -41.5h-210q-6 29 -7 51.5t-1 30.5q0 21 0.5 36.5t1.5 30.5q-38 -80 -96.5 -119.5t-110.5 -39.5q-47 0 -67.5 30t-20.5 82q0 16 2 33t7 43.5t14 69.5t24 110z" />
<glyph unicode="&#x1d7;" horiz-adv-x="705" d="M675 1042q-61 -35 -128 -59.5t-126 -35.5l-27 55q47 36 97 77.5t96 90.5zM463 836q0 -30 -20 -57t-52 -43.5t-69 -15.5q-34 1 -56.5 17t-22.5 46q0 29 20 55t52.5 43.5t70.5 18.5q34 1 55.5 -15.5t21.5 -48.5zM712 836q0 -30 -20 -57t-52 -43.5t-69 -15.5q-34 1 -56.5 17 t-22.5 46q0 29 20 55t52.5 43.5t70.5 18.5q34 1 55.5 -15.5t21.5 -48.5zM328 110q32 0 54 28.5t32 76.5l63 305l18 130l222 10l-93 -436q-16 -77 -66 -129.5t-120 -78.5t-146 -26q-100 0 -159.5 45.5t-59.5 134.5q0 11 1.5 23t5 32t11 55.5t20 93.5t31.5 146l18 130l222 9 q-28 -130 -46 -214.5t-28.5 -135t-16 -77.5t-7 -41t-1.5 -26q0 -21 10.5 -38t34.5 -17z" />
<glyph unicode="&#x1d8;" d="M576 901q-60 -37 -126.5 -63.5t-125.5 -39.5l-31 62q47 36 96.5 77t95.5 88zM355 685q0 -30 -20 -57t-52 -43.5t-69 -15.5q-34 1 -56.5 17t-22.5 46q0 29 20 55t52.5 43.5t70.5 18.5q34 1 55.5 -15.5t21.5 -48.5zM627 685q0 -30 -20 -57t-52 -43.5t-69 -15.5 q-34 1 -56.5 17t-22.5 46q0 29 20 55t52.5 43.5t70.5 18.5q34 1 55.5 -15.5t21.5 -48.5zM75 358l8 141l230 10q-7 -58 -18 -115t-22 -105.5t-18.5 -83t-7.5 -48.5q0 -17 11 -17q15 0 46.5 46.5t56.5 151.5q2 11 4 20q5 23 7.5 47.5t2.5 49.5q0 11 -0.5 22t-1.5 22l230 10 q-3 -29 -11 -70.5t-18.5 -90.5t-20 -99t-16 -94.5t-6.5 -77.5q0 -15 2 -35.5t6 -41.5h-210q-6 29 -7 51.5t-1 30.5q0 21 0.5 36.5t1.5 30.5q-38 -80 -96.5 -119.5t-110.5 -39.5q-47 0 -67.5 30t-20.5 82q0 16 2 33t7 43.5t14 69.5t24 110z" />
<glyph unicode="&#x1d9;" horiz-adv-x="705" d="M670 1154l49 -24q-34 -34 -70.5 -75.5t-65.5 -79.5l-160 -10q-13 41 -31.5 83t-44.5 82l59 24q65 -36 116 -83q70 46 148 83zM463 836q0 -30 -20 -57t-52 -43.5t-69 -15.5q-34 1 -56.5 17t-22.5 46q0 29 20 55t52.5 43.5t70.5 18.5q34 1 55.5 -15.5t21.5 -48.5zM712 836 q0 -30 -20 -57t-52 -43.5t-69 -15.5q-34 1 -56.5 17t-22.5 46q0 29 20 55t52.5 43.5t70.5 18.5q34 1 55.5 -15.5t21.5 -48.5zM328 110q32 0 54 28.5t32 76.5l63 305l18 130l222 10l-93 -436q-16 -77 -66 -129.5t-120 -78.5t-146 -26q-100 0 -159.5 45.5t-59.5 134.5 q0 11 1.5 23t5 32t11 55.5t20 93.5t31.5 146l18 130l222 9q-28 -130 -46 -214.5t-28.5 -135t-16 -77.5t-7 -41t-1.5 -26q0 -21 10.5 -38t34.5 -17z" />
<glyph unicode="&#x1da;" d="M546 1005l60 -36q-31 -35 -66 -78t-64 -82l-160 -10q-10 43 -24 85.5t-34 84.5l74 36q26 -20 47.5 -43t40.5 -48q30 25 61.5 48t64.5 43zM355 685q0 -30 -20 -57t-52 -43.5t-69 -15.5q-34 1 -56.5 17t-22.5 46q0 29 20 55t52.5 43.5t70.5 18.5q34 1 55.5 -15.5 t21.5 -48.5zM627 685q0 -30 -20 -57t-52 -43.5t-69 -15.5q-34 1 -56.5 17t-22.5 46q0 29 20 55t52.5 43.5t70.5 18.5q34 1 55.5 -15.5t21.5 -48.5zM75 358l8 141l230 10q-7 -58 -18 -115t-22 -105.5t-18.5 -83t-7.5 -48.5q0 -17 11 -17q15 0 46.5 46.5t56.5 151.5q2 11 4 20 q5 23 7.5 47.5t2.5 49.5q0 11 -0.5 22t-1.5 22l230 10q-3 -29 -11 -70.5t-18.5 -90.5t-20 -99t-16 -94.5t-6.5 -77.5q0 -15 2 -35.5t6 -41.5h-210q-6 29 -7 51.5t-1 30.5q0 21 0.5 36.5t1.5 30.5q-38 -80 -96.5 -119.5t-110.5 -39.5q-47 0 -67.5 30t-20.5 82q0 16 2 33 t7 43.5t14 69.5t24 110z" />
<glyph unicode="&#x1db;" horiz-adv-x="705" d="M675 1001l-27 -55q-58 11 -125 35.5t-129 59.5l88 128q47 -49 96.5 -90.5t96.5 -77.5zM463 836q0 -30 -20 -57t-52 -43.5t-69 -15.5q-34 1 -56.5 17t-22.5 46q0 29 20 55t52.5 43.5t70.5 18.5q34 1 55.5 -15.5t21.5 -48.5zM712 836q0 -30 -20 -57t-52 -43.5t-69 -15.5 q-34 1 -56.5 17t-22.5 46q0 29 20 55t52.5 43.5t70.5 18.5q34 1 55.5 -15.5t21.5 -48.5zM328 110q32 0 54 28.5t32 76.5l63 305l18 130l222 10l-93 -436q-16 -77 -66 -129.5t-120 -78.5t-146 -26q-100 0 -159.5 45.5t-59.5 134.5q0 11 1.5 23t5 32t11 55.5t20 93.5t31.5 146 l18 130l222 9q-28 -130 -46 -214.5t-28.5 -135t-16 -77.5t-7 -41t-1.5 -26q0 -21 10.5 -38t34.5 -17z" />
<glyph unicode="&#x1dc;" d="M576 860l-31 -62q-59 13 -125.5 39.5t-126.5 63.5l91 124q47 -47 96 -88t96 -77zM355 685q0 -30 -20 -57t-52 -43.5t-69 -15.5q-34 1 -56.5 17t-22.5 46q0 29 20 55t52.5 43.5t70.5 18.5q34 1 55.5 -15.5t21.5 -48.5zM627 685q0 -30 -20 -57t-52 -43.5t-69 -15.5 q-34 1 -56.5 17t-22.5 46q0 29 20 55t52.5 43.5t70.5 18.5q34 1 55.5 -15.5t21.5 -48.5zM75 358l8 141l230 10q-7 -58 -18 -115t-22 -105.5t-18.5 -83t-7.5 -48.5q0 -17 11 -17q15 0 46.5 46.5t56.5 151.5q2 11 4 20q5 23 7.5 47.5t2.5 49.5q0 11 -0.5 22t-1.5 22l230 10 q-3 -29 -11 -70.5t-18.5 -90.5t-20 -99t-16 -94.5t-6.5 -77.5q0 -15 2 -35.5t6 -41.5h-210q-6 29 -7 51.5t-1 30.5q0 21 0.5 36.5t1.5 30.5q-38 -80 -96.5 -119.5t-110.5 -39.5q-47 0 -67.5 30t-20.5 82q0 16 2 33t7 43.5t14 69.5t24 110z" />
<glyph unicode="&#x1e6;" horiz-adv-x="627" d="M603 904l49 -24q-34 -34 -70.5 -75.5t-65.5 -79.5l-160 -10q-13 41 -31.5 83t-44.5 82l59 24q65 -36 116 -83q70 46 148 83zM534 22q-54 -16 -110.5 -24t-106.5 -8q-135 0 -205.5 61t-70.5 184q0 85 32 161.5t91 136t138.5 93.5t173.5 34q48 0 94 -8.5t77 -19.5l-55 -167 q-19 19 -54.5 37t-76.5 18q-46 0 -81 -22.5t-58.5 -60.5t-35.5 -85t-12 -95q0 -63 22.5 -100t76.5 -44l15 72l18 130l192 10z" />
<glyph unicode="&#x1e7;" horiz-adv-x="561" d="M493 756l60 -36q-31 -35 -66 -78t-64 -82l-160 -10q-10 43 -24 85.5t-34 84.5l74 36q26 -20 47.5 -43t40.5 -48q30 25 61.5 48t64.5 43zM474 -46q0 -49 -36.5 -82.5t-103 -50t-156.5 -16.5q-69 0 -122.5 11t-84.5 34.5t-31 62.5q0 36 26.5 61t71.5 36l13 -10 q0 -30 10 -55t27 -45q41 -46 101 -46q30 0 47 12.5t17 28.5q0 18 -20.5 30t-50.5 22.5t-60 23t-50.5 32t-20.5 50.5q0 44 49 79t134 38v4q-98 0 -150.5 36t-52.5 103q0 50 31 95t97.5 73.5t172.5 28.5q52 0 91 0.5t75 2.5t77 7q15 -12 22 -27.5t7 -30.5q0 -25 -16 -44.5 t-43 -19.5q-19 0 -37.5 10t-41.5 25t-58 29l-2 -5q34 -15 63 -33t47 -41.5t18 -57.5q0 -37 -22.5 -66.5t-59 -50t-78.5 -30.5q-9 -2 -27 -6.5t-36.5 -11t-31.5 -14.5t-13 -19q0 -13 21 -22.5t52 -20t62 -26.5t52 -40.5t21 -63.5zM236 279q0 -22 5.5 -34t20.5 -12 q17 0 29.5 15.5t21 39.5t12.5 49t4 44q0 43 -26 43q-18 0 -31 -16t-21 -39.5t-11.5 -48t-3.5 -41.5z" />
<glyph unicode="&#x1ea;" horiz-adv-x="655" d="M670 425q0 -80 -26.5 -155t-76.5 -136.5t-119 -98.5q-51 -29 -81 -67.5t-30 -68.5q0 -14 7.5 -21.5t26.5 -7.5q20 0 50 9l7 -52q-27 -21 -64.5 -35t-81.5 -14t-70 17.5t-26 56.5t26 74t75 64h-19q-108 0 -168.5 57t-60.5 175q0 83 29 161t82.5 140.5t128 99.5t164.5 37 q110 0 168.5 -59t58.5 -176zM269 192q0 -43 10.5 -67.5t32.5 -24.5q23 0 42.5 26.5t35.5 68.5t27 91.5t17 96.5t6 82q0 85 -39 85q-24 0 -44 -25.5t-36.5 -66.5t-28 -89t-17.5 -94.5t-6 -82.5z" />
<glyph unicode="&#x1eb;" horiz-adv-x="607" d="M584 314q0 -84 -45.5 -158.5t-121.5 -118.5q-48 -29 -79 -67.5t-31 -70.5q0 -14 7.5 -21.5t26.5 -7.5q20 0 50 9l7 -52q-27 -21 -65 -35t-84 -14q-41 0 -67 15t-26 52q0 39 29 77.5t79 68.5q-13 -1 -26 -1q-62 0 -111 20.5t-77 63t-28 107.5q0 63 26.5 121.5t73.5 105.5 t110.5 74.5t137.5 27.5q98 0 156 -50.5t58 -145.5zM237 156q0 -35 7 -53t25 -18q24 0 43 27t31.5 69t19 86.5t6.5 78.5q0 69 -33 69q-24 0 -42.5 -26.5t-31 -67t-19 -85t-6.5 -80.5z" />
<glyph unicode="&#x1f4;" horiz-adv-x="627" d="M608 792q-61 -35 -128 -59.5t-126 -35.5l-27 55q47 36 97 77.5t96 90.5zM534 22q-54 -16 -110.5 -24t-106.5 -8q-135 0 -205.5 61t-70.5 184q0 85 32 161.5t91 136t138.5 93.5t173.5 34q48 0 94 -8.5t77 -19.5l-55 -167q-19 19 -54.5 37t-76.5 18q-46 0 -81 -22.5 t-58.5 -60.5t-35.5 -85t-12 -95q0 -63 22.5 -100t76.5 -44l15 72l18 130l192 10z" />
<glyph unicode="&#x1f5;" horiz-adv-x="561" d="M523 652q-60 -37 -126.5 -63.5t-125.5 -39.5l-31 62q47 36 96.5 77t95.5 88zM474 -46q0 -49 -36.5 -82.5t-103 -50t-156.5 -16.5q-69 0 -122.5 11t-84.5 34.5t-31 62.5q0 36 26.5 61t71.5 36l13 -10q0 -30 10 -55t27 -45q41 -46 101 -46q30 0 47 12.5t17 28.5 q0 18 -20.5 30t-50.5 22.5t-60 23t-50.5 32t-20.5 50.5q0 44 49 79t134 38v4q-98 0 -150.5 36t-52.5 103q0 50 31 95t97.5 73.5t172.5 28.5q52 0 91 0.5t75 2.5t77 7q15 -12 22 -27.5t7 -30.5q0 -25 -16 -44.5t-43 -19.5q-19 0 -37.5 10t-41.5 25t-58 29l-2 -5 q34 -15 63 -33t47 -41.5t18 -57.5q0 -37 -22.5 -66.5t-59 -50t-78.5 -30.5q-9 -2 -27 -6.5t-36.5 -11t-31.5 -14.5t-13 -19q0 -13 21 -22.5t52 -20t62 -26.5t52 -40.5t21 -63.5zM236 279q0 -22 5.5 -34t20.5 -12q17 0 29.5 15.5t21 39.5t12.5 49t4 44q0 43 -26 43 q-18 0 -31 -16t-21 -39.5t-11.5 -48t-3.5 -41.5z" />
<glyph unicode="&#x1fa;" horiz-adv-x="647" d="M649 1058q-61 -35 -128 -59.5t-126 -35.5l-27 55q47 36 97 77.5t96 90.5zM580 840q0 -37 -23.5 -68t-61.5 -49t-82 -18q-49 0 -72.5 22t-23.5 54q0 35 23 65.5t62 50t85 19.5t69.5 -20t23.5 -56zM400 801q0 -12 10 -19.5t26 -7.5q24 0 42.5 14.5t18.5 32.5q0 13 -10 19.5 t-25 6.5q-22 0 -42 -14t-20 -32zM152 0h-195l264 520l61 131l264 9l38 -660h-206l-1 125h-170zM372 503l-122 -278h126l-2 278h-2z" />
<glyph unicode="&#x1fb;" horiz-adv-x="621" d="M602 914q-60 -37 -126.5 -63.5t-125.5 -39.5l-31 62q47 36 96.5 77t95.5 88zM533 696q0 -40 -22.5 -73.5t-60 -53.5t-81.5 -20q-50 0 -75 27t-15 75q7 35 29.5 64t57 46.5t75.5 17.5t66.5 -20t25.5 -63zM355 646q0 -32 35 -32q27 0 46 19.5t19 46.5q0 34 -35 34 q-27 0 -46 -20.5t-19 -47.5zM11 128q0 48 15.5 101t46.5 103t76.5 90t105.5 64t134 24q54 0 111.5 -12.5t100.5 -31.5l-38 -178q-9 -41 -18.5 -96t-9.5 -110q0 -20 2 -40.5t6 -41.5h-210q-4 20 -6 39t-2 39q0 41 10 102q-25 -54 -62 -97t-79 -68t-82 -25q-46 0 -73.5 36 t-27.5 102zM226 176q0 -47 22 -47q21 0 45 39t47 103t40 140v0q-13 4 -22 4q-26 0 -49.5 -25t-42 -63t-29.5 -78.5t-11 -72.5z" />
<glyph unicode="&#x1fc;" horiz-adv-x="897" d="M757 792q-61 -35 -128 -59.5t-126 -35.5l-27 55q47 36 97 77.5t96 90.5zM152 0h-195l342 520l61 130h567l-38 -130l-252 7l-9 -146l213 4l-36 -120l-184 4l-9 -147l219 8l-27 -130h-406l18 125h-185zM468 503l-175 -278h137l40 278h-2z" />
<glyph unicode="&#x1fd;" horiz-adv-x="823" d="M627 652q-60 -37 -126.5 -63.5t-125.5 -39.5l-31 62q47 36 96.5 77t95.5 88zM11 128q0 48 15.5 101t46.5 103t76.5 90t105.5 64t134 24q37 0 76.5 -6t75.5 -17q56 23 116 23q74 0 119.5 -32.5t45.5 -88.5q0 -39 -21.5 -73.5t-57 -60t-79.5 -40t-89 -14.5q-18 0 -36 3v-4 q0 -49 20.5 -69.5t56.5 -20.5q32 0 72 13.5t74 36.5l-8 -115q-21 -14 -60 -26.5t-84.5 -20.5t-86.5 -8q-85 0 -140 40.5t-59 128.5q-26 -49 -61 -87t-74.5 -60t-76.5 -22q-46 0 -73.5 36t-27.5 102zM226 176q0 -47 22 -47q14 0 30.5 18t31.5 47t26 64q22 77 77 138 q-33 19 -55 19q-26 0 -49.5 -25t-42 -63t-29.5 -78.5t-11 -72.5zM624 415q-18 0 -35 -27.5t-29.5 -67.5t-17.5 -79q29 15 51.5 40t35.5 53.5t13 52.5q0 28 -18 28z" />
<glyph unicode="&#x1fe;" horiz-adv-x="678" d="M602 792q-61 -35 -128 -59.5t-126 -35.5l-27 55q47 36 97 77.5t96 90.5zM670 425q0 -82 -28.5 -160t-81.5 -140t-127 -98.5t-165 -36.5q-105 0 -163 52l-83 -77l-53 56l91 84q-21 49 -21 117q0 83 29 161t82.5 140.5t128 99.5t164.5 37q103 0 161 -52l83 77l54 -55 l-92 -85q21 -50 21 -120zM401 550q-22 0 -40.5 -21t-34 -56.5t-27 -78t-19.5 -85.5l160 147v9q0 85 -39 85zM269 192q0 -43 10.5 -67.5t32.5 -24.5q20 0 38 21t32.5 56t26 77.5t19.5 85.5l-159 -147v-1z" />
<glyph unicode="&#x1ff;" horiz-adv-x="607" d="M516 652q-60 -37 -126.5 -63.5t-125.5 -39.5l-31 62q47 36 96.5 77t95.5 88zM584 314q0 -63 -26 -121.5t-73 -104t-110 -72t-137 -26.5q-82 0 -136 33l-60 -52l-47 56l55 48q-28 43 -28 106t26.5 121.5t73.5 105.5t110.5 74.5t137.5 27.5q83 0 137 -36l63 55l48 -55 l-61 -53q27 -45 27 -107zM336 415q-23 0 -41 -25t-30.5 -64t-19.5 -81l124 108q-2 62 -33 62zM269 85q23 0 40.5 24t30 61.5t20.5 77.5l-123 -106q3 -57 32 -57z" />
<glyph unicode="&#x218;" horiz-adv-x="547" d="M501 218q0 -54 -26 -96.5t-70.5 -71.5t-100.5 -44.5t-117 -15.5q-29 0 -67.5 3.5t-75 9.5t-59.5 14l69 186q36 -32 79.5 -52.5t77.5 -20.5q28 0 44 11.5t16 28.5q0 20 -19.5 37t-48 35.5t-57 43t-48 58.5t-19.5 82q0 69 43.5 122t120 82.5t173.5 29.5q44 0 87 -6t77 -17 l-73 -177q-31 26 -69 43t-68 17q-29 0 -44.5 -12t-15.5 -31q0 -22 19.5 -40t48 -37t56.5 -42.5t47.5 -57t19.5 -82.5zM284 -123q0 -41 -24.5 -81.5t-59 -74t-65.5 -52.5l-43 34q12 14 27.5 33t27.5 40q-20 5 -33.5 19.5t-13.5 41.5q0 30 16 55t42.5 40t55.5 15 q33 0 51.5 -19t18.5 -51z" />
<glyph unicode="&#x219;" horiz-adv-x="486" d="M441 173q0 -55 -37 -96.5t-101 -64t-146 -22.5q-27 0 -59 2.5t-62 7.5t-52 11l44 157q24 -14 53.5 -24t59 -15.5t51.5 -5.5q43 0 43 22q0 15 -13 23.5t-34 17t-46 21.5q-34 18 -57.5 44t-23.5 71q0 55 37.5 97.5t103.5 66.5t150 24q38 0 75.5 -5t67.5 -14l-44 -158 q-39 21 -79.5 32.5t-63.5 11.5q-17 0 -28.5 -6t-11.5 -19t12 -22.5t30 -17t34 -15.5q38 -17 67.5 -44t29.5 -80zM252 -123q0 -41 -24.5 -81.5t-59 -74t-65.5 -52.5l-43 34q12 14 27.5 33t27.5 40q-20 5 -33.5 19.5t-13.5 41.5q0 30 16 55t42.5 40t55.5 15q33 0 51.5 -19 t18.5 -51z" />
<glyph unicode="&#x21a;" horiz-adv-x="548" d="M326 0h-210l109 515l-161 -10l40 145h510l-22 -145l-157 10zM278 -123q0 -41 -24.5 -81.5t-59 -74t-65.5 -52.5l-43 34q12 14 27.5 33t27.5 40q-20 5 -33.5 19.5t-13.5 41.5q0 30 16 55t42.5 40t55.5 15q33 0 51.5 -19t18.5 -51z" />
<glyph unicode="&#x21b;" horiz-adv-x="421" d="M367 45q-74 -55 -180 -55q-73 0 -113.5 31.5t-40.5 95.5q0 23 5.5 57.5t18 92t31.5 149.5l-53 1l12 53l79 20l76 119l141 9q-7 -35 -14 -67t-14 -61h129l-26 -83l-121 3q-23 -108 -36.5 -172t-13.5 -84q0 -19 11 -25.5t27 -6.5q25 0 44.5 10.5t45.5 27.5zM226 -123 q0 -41 -24.5 -81.5t-59 -74t-65.5 -52.5l-43 34q12 14 27.5 33t27.5 40q-20 5 -33.5 19.5t-13.5 41.5q0 30 16 55t42.5 40t55.5 15q33 0 51.5 -19t18.5 -51z" />
<glyph unicode="&#x232;" horiz-adv-x="602" d="M246 754l23 110h330l-23 -110h-330zM356 0h-210l43 202v0l-94 448l208 10l29 -292h2l155 292l193 -10l-283 -448z" />
<glyph unicode="&#x233;" horiz-adv-x="558" d="M192 602l26 120h290l-26 -120h-290zM356 14q-84 -103 -176.5 -156t-184.5 -53q-53 0 -85 19t-32 60q0 24 11 50.5t32 39.5q27 -8 61.5 -13t64.5 -5q38 0 75 8.5t65 24t39 36.5l-160 9q11 85 11 205q0 71 -4.5 141.5t-14.5 119.5l215 10q6 -28 8.5 -59t2.5 -65 q0 -67 -9 -139.5t-23 -136.5h3q38 65 64 134t40.5 135.5t15.5 120.5q29 5 52 7.5t42 2.5q43 0 71 -15.5t28 -60.5q0 -36 -18.5 -88.5t-49.5 -111t-68.5 -116t-75.5 -104.5z" />
<glyph unicode="&#x237;" horiz-adv-x="323" d="M318 509q-1 -9 -3 -20.5t-6.5 -36.5t-14.5 -73t-27 -129t-43 -206q-22 -106 -92.5 -168.5t-207.5 -70.5l-29 70q46 21 69.5 49.5t33.5 61.5t17 65l65 307l8 141z" />
<glyph unicode="&#x259;" horiz-adv-x="519" d="M61 340l8 115q22 14 60.5 26.5t84 20.5t86.5 8q88 0 143.5 -43.5t55.5 -138.5q0 -63 -25.5 -123.5t-71 -109t-106 -77t-130.5 -28.5q-74 0 -119.5 32.5t-45.5 88.5q0 39 21.5 73.5t57 60t79.5 40t89 14.5q18 0 36 -3v4q0 50 -20.5 70t-56.5 20q-32 0 -72 -13.5t-74 -36.5 zM181 113q0 -28 18 -28t35 27.5t29.5 67.5t17.5 79q-29 -15 -51.5 -40t-35.5 -53.5t-13 -52.5z" />
<glyph unicode="&#x272;" horiz-adv-x="625" d="M552 0h-210q-5 29 -6.5 45.5t-1.5 44.5q0 11 0.5 20.5t3.5 29.5t11 60t24 112q4 17 2 32.5t-17 15.5q-29 0 -59.5 -58.5t-61.5 -198.5q-6 -28 -13 -59q-22 -106 -92.5 -168.5t-207.5 -70.5l-29 70q46 21 69.5 49.5t33.5 61.5t17 65l65 307l8 141l230 10q-1 -8 -2.5 -17.5 t-4.5 -27.5t-9.5 -51t-18.5 -88q23 53 56.5 95t74 66t84.5 24q52 0 82 -35.5t14 -109.5q-21 -98 -35.5 -168.5t-14.5 -120.5q0 -15 2 -35t6 -41z" />
<glyph unicode="&#x2c6;" horiz-adv-x="408" d="M163 539l-60 36q32 35 67 78t63 82l160 10q11 -43 24.5 -85.5t33.5 -84.5l-74 -36q-26 20 -47.5 43t-40.5 48q-30 -25 -61.5 -48t-64.5 -43z" />
<glyph unicode="&#x2c7;" horiz-adv-x="408" d="M418 756l60 -36q-31 -35 -66 -78t-64 -82l-160 -10q-10 43 -24 85.5t-34 84.5l74 36q26 -20 47.5 -43t40.5 -48q30 25 61.5 48t64.5 43z" />
<glyph unicode="&#x2d8;" horiz-adv-x="374" d="M249 557q-43 0 -72 24.5t-39.5 67t0.5 96.5l72 10q-2 -34 16.5 -58.5t50.5 -24.5q34 0 63.5 26t45.5 56l70 9q-16 -56 -46.5 -103t-71.5 -75t-89 -28z" />
<glyph unicode="&#x2d9;" horiz-adv-x="300" d="M350 690q0 -31 -21.5 -58t-55.5 -44t-74 -17q-37 0 -61 16.5t-24 47.5q0 30 21.5 57.5t56.5 45.5t75 18q37 0 60 -17t23 -49z" />
<glyph unicode="&#x2da;" horiz-adv-x="307" d="M369 696q0 -40 -22.5 -73.5t-60 -53.5t-81.5 -20q-50 0 -75 27t-15 75q7 35 29.5 64t57 46.5t75.5 17.5t66.5 -20t25.5 -63zM191 646q0 -32 35 -32q27 0 46 19.5t19 46.5q0 34 -35 34q-27 0 -46 -20.5t-19 -47.5z" />
<glyph unicode="&#x2db;" horiz-adv-x="327" d="M221 0q-49 -19 -82 -49t-33 -56q0 -25 35 -25q19 0 49 9l7 -52q-27 -21 -65 -35t-83 -14q-42 0 -68 15t-26 47q0 39 29 74t80 62t118 43z" />
<glyph unicode="&#x2dc;" horiz-adv-x="401" d="M240 753q31 0 52 -13t39.5 -26t41.5 -13q18 0 31 14t29 38l43 -9q-10 -41 -29 -79.5t-46 -63t-62 -24.5q-26 0 -50 13t-45 26t-40 13q-13 0 -27.5 -11.5t-32.5 -40.5l-43 9q10 41 28 79t46 63t65 25z" />
<glyph unicode="&#x2dd;" horiz-adv-x="437" d="M314 748q-38 -61 -87 -111.5t-93 -85.5l-56 19q29 50 58.5 102t54.5 104zM495 748q-38 -61 -87 -111.5t-93 -85.5l-56 19q29 50 58.5 102t54.5 104z" />
<glyph unicode="&#x1e0c;" horiz-adv-x="694" d="M142 520l18 130h268q125 0 189.5 -61t64.5 -182q0 -79 -27 -152.5t-79 -130.5t-126 -90.5t-168 -33.5h-250zM454 416q0 49 -13.5 72t-36.5 30t-51 7l-84 -400h12q45 0 77.5 29.5t53.5 75.5t31.5 96t10.5 90zM362 -123q0 -31 -21.5 -58t-55.5 -44t-74 -17q-37 0 -61 16.5 t-24 47.5q0 30 21.5 57.5t56.5 45.5t75 18q37 0 60 -17t23 -49z" />
<glyph unicode="&#x1e0d;" horiz-adv-x="616" d="M11 128q0 48 15.5 101t46.5 103t76.5 90t105.5 64t134 24h13q3 15 7 34l8 141l230 10q-5 -38 -17.5 -98.5t-28.5 -130.5v0v0q-16 -70 -31 -142t-25 -135.5t-10 -106.5q0 -20 2 -40.5t6 -41.5h-210q-4 20 -6 39t-2 43q0 20 2 42t8 56q-25 -54 -62 -97t-79 -68t-82 -25 q-46 0 -73.5 36t-27.5 102zM226 176q0 -47 22 -47q21 0 45 39t47 103t40 140q-13 4 -22 4q-26 0 -49.5 -25t-42 -63t-29.5 -78.5t-11 -72.5zM335 -123q0 -31 -21.5 -58t-55.5 -44t-74 -17q-37 0 -61 16.5t-24 47.5q0 30 21.5 57.5t56.5 45.5t75 18q37 0 60 -17t23 -49z" />
<glyph unicode="&#x1e24;" horiz-adv-x="725" d="M242 0h-210l110 520l18 130l222 10l-64 -303h145l34 163l18 130l222 11l-140 -661h-210l53 252h-145zM390 -123q0 -31 -21.5 -58t-55.5 -44t-74 -17q-37 0 -61 16.5t-24 47.5q0 30 21.5 57.5t56.5 45.5t75 18q37 0 60 -17t23 -49z" />
<glyph unicode="&#x1e25;" d="M544 0h-210q-5 29 -6.5 45.5t-1.5 44.5q0 21 6.5 56.5t14.5 74t14.5 70t6.5 44.5q0 11 -4 18t-14 7q-25 0 -53 -46t-44 -116q-6 -36 -9.5 -67.5t-3.5 -54.5q0 -14 2 -34.5t6 -41.5h-210q-3 14 -5.5 36t-2.5 40q0 26 5.5 67.5t14 87.5t17 88t14.5 70l33 155l8 141l230 10 q-5 -38 -17 -96.5t-27 -127.5t-30 -139q23 52 56.5 92t73 63t82.5 23q44 0 72.5 -24.5t28.5 -76.5q0 -22 -8.5 -62.5t-19 -89t-19 -96t-8.5 -85.5q0 -15 2 -35t6 -41zM336 -123q0 -31 -21.5 -58t-55.5 -44t-74 -17q-37 0 -61 16.5t-24 47.5q0 30 21.5 57.5t56.5 45.5t75 18 q37 0 60 -17t23 -49z" />
<glyph unicode="&#x1e44;" horiz-adv-x="705" d="M589 834q0 -31 -21.5 -58t-55.5 -44t-74 -17q-37 0 -61 16.5t-24 47.5q0 30 21.5 57.5t56.5 45.5t75 18q37 0 60 -17t23 -49zM142 520l18 130l161 10l165 -372h2l62 362l167 10l-140 -660h-170l-150 342h-2l-58 -342h-165z" />
<glyph unicode="&#x1e45;" d="M499 690q0 -31 -21.5 -58t-55.5 -44t-74 -17q-37 0 -61 16.5t-24 47.5q0 30 21.5 57.5t56.5 45.5t75 18q37 0 60 -17t23 -49zM248 0h-210q-4 20 -6 38t-2 37q0 26 5 63.5t12 79t14.5 79t13.5 62.5l8 141l230 10q-4 -33 -15 -81t-22 -103q22 53 55.5 94.5t74 65.5t84.5 24 q52 0 82 -35.5t14 -109.5q-21 -98 -35.5 -168.5t-14.5 -120.5q0 -15 2 -35t6 -41h-210q-5 29 -6.5 45.5t-1.5 44.5q0 10 0.5 19.5t4 29.5t11.5 60.5t23 112.5q4 17 2 32.5t-17 15.5q-19 0 -39.5 -26t-38 -70.5t-25.5 -99.5q-4 -23 -5.5 -45.5t-1.5 -42.5q0 -18 2 -37t6 -39z " />
<glyph unicode="&#x1e5a;" horiz-adv-x="646" d="M242 0h-210l110 520l18 130h265q120 0 175 -45.5t55 -127.5q0 -78 -43.5 -137.5t-115.5 -93.5l77 -246l-225 -10l-28 213q-14 -1 -28 -1h-7zM359 535h-3l-47 -219h12q41 0 67 23.5t38.5 58t12.5 65.5q0 36 -13 51t-31.5 18t-35.5 3zM381 -123q0 -31 -21.5 -58t-55.5 -44 t-74 -17q-37 0 -61 16.5t-24 47.5q0 30 21.5 57.5t56.5 45.5t75 18q37 0 60 -17t23 -49z" />
<glyph unicode="&#x1e5b;" horiz-adv-x="456" d="M248 0h-210q-4 20 -6 38t-2 37q0 26 5 63.5t12 79t14.5 79t13.5 62.5l8 141l230 10q-5 -36 -17 -91t-25 -116q19 55 43.5 102t54.5 76t65 29q23 0 41.5 -11.5t27.5 -25.5l-85 -166q-9 4 -25.5 7.5t-29.5 3.5q-28 0 -50.5 -21.5t-38.5 -57.5t-24.5 -81t-9.5 -92 q1 -16 2.5 -32.5t5.5 -33.5zM227 -123q0 -31 -21.5 -58t-55.5 -44t-74 -17q-37 0 -61 16.5t-24 47.5q0 30 21.5 57.5t56.5 45.5t75 18q37 0 60 -17t23 -49z" />
<glyph unicode="&#x1e62;" horiz-adv-x="547" d="M501 218q0 -54 -26 -96.5t-70.5 -71.5t-100.5 -44.5t-117 -15.5q-29 0 -67.5 3.5t-75 9.5t-59.5 14l69 186q36 -32 79.5 -52.5t77.5 -20.5q28 0 44 11.5t16 28.5q0 20 -19.5 37t-48 35.5t-57 43t-48 58.5t-19.5 82q0 69 43.5 122t120 82.5t173.5 29.5q44 0 87 -6t77 -17 l-73 -177q-31 26 -69 43t-68 17q-29 0 -44.5 -12t-15.5 -31q0 -22 19.5 -40t48 -37t56.5 -42.5t47.5 -57t19.5 -82.5zM307 -123q0 -31 -21.5 -58t-55.5 -44t-74 -17q-37 0 -61 16.5t-24 47.5q0 30 21.5 57.5t56.5 45.5t75 18q37 0 60 -17t23 -49z" />
<glyph unicode="&#x1e63;" horiz-adv-x="486" d="M441 173q0 -55 -37 -96.5t-101 -64t-146 -22.5q-27 0 -59 2.5t-62 7.5t-52 11l44 157q24 -14 53.5 -24t59 -15.5t51.5 -5.5q43 0 43 22q0 15 -13 23.5t-34 17t-46 21.5q-34 18 -57.5 44t-23.5 71q0 55 37.5 97.5t103.5 66.5t150 24q38 0 75.5 -5t67.5 -14l-44 -158 q-39 21 -79.5 32.5t-63.5 11.5q-17 0 -28.5 -6t-11.5 -19t12 -22.5t30 -17t34 -15.5q38 -17 67.5 -44t29.5 -80zM275 -123q0 -31 -21.5 -58t-55.5 -44t-74 -17q-37 0 -61 16.5t-24 47.5q0 30 21.5 57.5t56.5 45.5t75 18q37 0 60 -17t23 -49z" />
<glyph unicode="&#x1e6c;" horiz-adv-x="548" d="M326 0h-210l109 515l-161 -10l40 145h510l-22 -145l-157 10zM301 -123q0 -31 -21.5 -58t-55.5 -44t-74 -17q-37 0 -61 16.5t-24 47.5q0 30 21.5 57.5t56.5 45.5t75 18q37 0 60 -17t23 -49z" />
<glyph unicode="&#x1e6d;" horiz-adv-x="421" d="M367 45q-74 -55 -180 -55q-73 0 -113.5 31.5t-40.5 95.5q0 23 5.5 57.5t18 92t31.5 149.5l-53 1l12 53l79 20l76 119l141 9q-7 -35 -14 -67t-14 -61h129l-26 -83l-121 3q-23 -108 -36.5 -172t-13.5 -84q0 -19 11 -25.5t27 -6.5q25 0 44.5 10.5t45.5 27.5zM249 -123 q0 -31 -21.5 -58t-55.5 -44t-74 -17q-37 0 -61 16.5t-24 47.5q0 30 21.5 57.5t56.5 45.5t75 18q37 0 60 -17t23 -49z" />
<glyph unicode="&#x1e80;" horiz-adv-x="955" d="M748 751l-27 -55q-58 11 -125 35.5t-129 59.5l88 128q47 -49 96.5 -90.5t96.5 -77.5zM70 0l25 650l208 10l-37 -508h2l178 498h264l-39 -498h2l181 508l181 -10l-279 -650h-288l52 468h-2l-160 -468h-288z" />
<glyph unicode="&#x1e81;" horiz-adv-x="850" d="M626 611l-31 -62q-59 13 -125.5 39.5t-126.5 63.5l91 124q47 -47 96 -88t96 -77zM67 236q0 74 -4.5 144.5t-14.5 119.5l215 10q6 -28 8.5 -59t2.5 -65q0 -75 -9 -156.5t-23 -153.5h3q38 70 64 145.5t40.5 147.5t15.5 131l200 10q6 -28 8.5 -59t2.5 -65q0 -75 -9 -156.5 t-23 -153.5h3q38 70 64 145.5t40.5 147.5t15.5 131q29 5 52 7.5t42 2.5q43 0 71 -15.5t28 -62.5q0 -36 -20.5 -90.5t-61.5 -117.5t-104 -124.5t-147 -109.5l-154 10q8 43 14 98t10 114t6 113q-20 -58 -49 -123.5t-62.5 -122t-66.5 -89.5l-169 10q5 47 8 109.5t3 126.5z" />
<glyph unicode="&#x1e82;" horiz-adv-x="955" d="M748 792q-61 -35 -128 -59.5t-126 -35.5l-27 55q47 36 97 77.5t96 90.5zM70 0l25 650l208 10l-37 -508h2l178 498h264l-39 -498h2l181 508l181 -10l-279 -650h-288l52 468h-2l-160 -468h-288z" />
<glyph unicode="&#x1e83;" horiz-adv-x="850" d="M626 652q-60 -37 -126.5 -63.5t-125.5 -39.5l-31 62q47 36 96.5 77t95.5 88zM67 236q0 74 -4.5 144.5t-14.5 119.5l215 10q6 -28 8.5 -59t2.5 -65q0 -75 -9 -156.5t-23 -153.5h3q38 70 64 145.5t40.5 147.5t15.5 131l200 10q6 -28 8.5 -59t2.5 -65q0 -75 -9 -156.5 t-23 -153.5h3q38 70 64 145.5t40.5 147.5t15.5 131q29 5 52 7.5t42 2.5q43 0 71 -15.5t28 -62.5q0 -36 -20.5 -90.5t-61.5 -117.5t-104 -124.5t-147 -109.5l-154 10q8 43 14 98t10 114t6 113q-20 -58 -49 -123.5t-62.5 -122t-66.5 -89.5l-169 10q5 47 8 109.5t3 126.5z" />
<glyph unicode="&#x1e84;" horiz-adv-x="955" d="M590 836q0 -30 -20 -57t-52 -43.5t-69 -15.5q-34 1 -56.5 17t-22.5 46q0 29 20 55t52.5 43.5t70.5 18.5q34 1 55.5 -15.5t21.5 -48.5zM839 836q0 -30 -20 -57t-52 -43.5t-69 -15.5q-34 1 -56.5 17t-22.5 46q0 29 20 55t52.5 43.5t70.5 18.5q34 1 55.5 -15.5t21.5 -48.5z M70 0l25 650l208 10l-37 -508h2l178 498h264l-39 -498h2l181 508l181 -10l-279 -650h-288l52 468h-2l-160 -468h-288z" />
<glyph unicode="&#x1e85;" horiz-adv-x="850" d="M458 685q0 -30 -20 -57t-52 -43.5t-69 -15.5q-34 1 -56.5 17t-22.5 46q0 29 20 55t52.5 43.5t70.5 18.5q34 1 55.5 -15.5t21.5 -48.5zM730 685q0 -30 -20 -57t-52 -43.5t-69 -15.5q-34 1 -56.5 17t-22.5 46q0 29 20 55t52.5 43.5t70.5 18.5q34 1 55.5 -15.5t21.5 -48.5z M67 236q0 74 -4.5 144.5t-14.5 119.5l215 10q6 -28 8.5 -59t2.5 -65q0 -75 -9 -156.5t-23 -153.5h3q38 70 64 145.5t40.5 147.5t15.5 131l200 10q6 -28 8.5 -59t2.5 -65q0 -75 -9 -156.5t-23 -153.5h3q38 70 64 145.5t40.5 147.5t15.5 131q29 5 52 7.5t42 2.5q43 0 71 -15.5 t28 -62.5q0 -36 -20.5 -90.5t-61.5 -117.5t-104 -124.5t-147 -109.5l-154 10q8 43 14 98t10 114t6 113q-20 -58 -49 -123.5t-62.5 -122t-66.5 -89.5l-169 10q5 47 8 109.5t3 126.5z" />
<glyph unicode="&#x1e92;" horiz-adv-x="538" d="M445 0h-443l-2 107l318 399q-56 -2 -112.5 -4t-112.5 -4l42 152h423l2 -106l-319 -400l124 8l124 8zM296 -123q0 -31 -21.5 -58t-55.5 -44t-74 -17q-37 0 -61 16.5t-24 47.5q0 30 21.5 57.5t56.5 45.5t75 18q37 0 60 -17t23 -49z" />
<glyph unicode="&#x1e93;" horiz-adv-x="502" d="M3 -10l-33 48q171 147 296 286q-25 10 -51.5 15t-50.5 5q-31 0 -57.5 -11.5t-43.5 -34.5l-28 10q10 80 31.5 124t51 61t61.5 17q45 0 90.5 -24.5t83.5 -59.5q35 43 64 84q18 0 37 -5.5t32 -19t13 -37.5q0 -36 -28 -74t-72.5 -74.5t-95.5 -68.5t-98 -57q29 -2 57 -10 t64 -8q44 0 79 15t53 43l28 -10q-20 -88 -49 -134t-65 -63t-79 -17q-37 0 -67.5 7.5t-58 15t-55.5 7.5q-20 0 -47.5 -6.5t-61.5 -23.5zM278 -123q0 -31 -21.5 -58t-55.5 -44t-74 -17q-37 0 -61 16.5t-24 47.5q0 30 21.5 57.5t56.5 45.5t75 18q37 0 60 -17t23 -49z" />
<glyph unicode="&#x1e9e;" horiz-adv-x="742" d="M84 187l45 213q18 85 69.5 143t125 87.5t157.5 29.5q108 0 171.5 -46t62.5 -131l-136 -107q32 -21 57.5 -44.5t40.5 -56t15 -78.5q0 -60 -34.5 -107t-92 -73.5t-126.5 -26.5q-35 0 -71.5 7t-57.5 18l29 135q8 -7 26 -16t36 -9q26 0 44.5 22t18.5 50q0 61 -94 102l9 39 l134 118q-1 30 -19.5 49.5t-48.5 19.5q-78 0 -107 -131l-59 -276q-4 -21 -13.5 -47t-22.5 -48t-29 -33l-192 10q18 34 35 87t27 100z" />
<glyph unicode="&#x1ea0;" horiz-adv-x="647" d="M152 0h-195l264 520l61 131l264 9l38 -660h-206l-1 125h-170zM372 503l-122 -278h126l-2 278h-2zM356 -123q0 -31 -21.5 -58t-55.5 -44t-74 -17q-37 0 -61 16.5t-24 47.5q0 30 21.5 57.5t56.5 45.5t75 18q37 0 60 -17t23 -49z" />
<glyph unicode="&#x1ea1;" horiz-adv-x="621" d="M11 128q0 48 15.5 101t46.5 103t76.5 90t105.5 64t134 24q54 0 111.5 -12.5t100.5 -31.5l-38 -178q-9 -41 -18.5 -96t-9.5 -110q0 -20 2 -40.5t6 -41.5h-210q-4 20 -6 39t-2 39q0 41 10 102q-25 -54 -62 -97t-79 -68t-82 -25q-46 0 -73.5 36t-27.5 102zM226 176 q0 -47 22 -47q21 0 45 39t47 103t40 140v0q-13 4 -22 4q-26 0 -49.5 -25t-42 -63t-29.5 -78.5t-11 -72.5zM335 -123q0 -31 -21.5 -58t-55.5 -44t-74 -17q-37 0 -61 16.5t-24 47.5q0 30 21.5 57.5t56.5 45.5t75 18q37 0 60 -17t23 -49z" />
<glyph unicode="&#x1eb8;" horiz-adv-x="550" d="M457 0h-425l108 511l20 139h420l-38 -130l-187 10l-32 -150l171 5l-36 -120l-159 5l-32 -150l217 10zM335 -123q0 -31 -21.5 -58t-55.5 -44t-74 -17q-37 0 -61 16.5t-24 47.5q0 30 21.5 57.5t56.5 45.5t75 18q37 0 60 -17t23 -49z" />
<glyph unicode="&#x1eb9;" horiz-adv-x="519" d="M458 160l-8 -115q-21 -14 -60 -26.5t-84.5 -20.5t-86.5 -8q-88 0 -143.5 43.5t-55.5 138.5q0 63 25.5 123.5t71 109t106 77t130.5 28.5q74 0 119.5 -32.5t45.5 -88.5q0 -39 -21.5 -73.5t-57 -60t-79.5 -40t-89 -14.5q-18 0 -36 3v-4q0 -49 20.5 -69.5t56.5 -20.5 q32 0 72 13.5t74 36.5zM320 415q-18 0 -35 -27.5t-29.5 -67.5t-17.5 -79q29 15 51.5 40t35.5 53.5t13 52.5q0 28 -18 28zM309 -123q0 -31 -21.5 -58t-55.5 -44t-74 -17q-37 0 -61 16.5t-24 47.5q0 30 21.5 57.5t56.5 45.5t75 18q37 0 60 -17t23 -49z" />
<glyph unicode="&#x1ebc;" horiz-adv-x="550" d="M350 892q30 0 51 -10.5t39 -21t40 -10.5q21 0 35.5 12.5t32.5 34.5l42 -9q-10 -40 -29.5 -77.5t-48 -61t-65.5 -23.5q-26 0 -49.5 10.5t-44 21t-39.5 10.5q-16 0 -32 -10.5t-36 -36.5l-43 9q10 40 29.5 77t48.5 61t69 24zM457 0h-425l108 511l20 139h420l-38 -130 l-187 10l-32 -150l171 5l-36 -120l-159 5l-32 -150l217 10z" />
<glyph unicode="&#x1ebd;" horiz-adv-x="519" d="M291 753q31 0 52 -13t39.5 -26t41.5 -13q18 0 31 14t29 38l43 -9q-10 -41 -29 -79.5t-46 -63t-62 -24.5q-26 0 -50 13t-45 26t-40 13q-13 0 -27.5 -11.5t-32.5 -40.5l-43 9q10 41 28 79t46 63t65 25zM458 160l-8 -115q-21 -14 -60 -26.5t-84.5 -20.5t-86.5 -8 q-88 0 -143.5 43.5t-55.5 138.5q0 63 25.5 123.5t71 109t106 77t130.5 28.5q74 0 119.5 -32.5t45.5 -88.5q0 -39 -21.5 -73.5t-57 -60t-79.5 -40t-89 -14.5q-18 0 -36 3v-4q0 -49 20.5 -69.5t56.5 -20.5q32 0 72 13.5t74 36.5zM320 415q-18 0 -35 -27.5t-29.5 -67.5 t-17.5 -79q29 15 51.5 40t35.5 53.5t13 52.5q0 28 -18 28z" />
<glyph unicode="&#x1eca;" horiz-adv-x="370" d="M242 0h-210l110 520l18 130l222 10zM212 -123q0 -31 -21.5 -58t-55.5 -44t-74 -17q-37 0 -61 16.5t-24 47.5q0 30 21.5 57.5t56.5 45.5t75 18q37 0 60 -17t23 -49z" />
<glyph unicode="&#x1ecb;" horiz-adv-x="327" d="M365 690q0 -31 -21.5 -58t-55.5 -44t-74 -17q-37 0 -61 16.5t-24 47.5q0 30 21.5 57.5t56.5 45.5t75 18q37 0 60 -17t23 -49zM313 509q-3 -29 -11 -70.5t-18.5 -90.5t-20 -99t-16 -94.5t-6.5 -77.5q0 -15 2 -35.5t6 -41.5h-210q-6 29 -7 51.5t-1 30.5q0 26 1 52t10 69 l33 155l8 141zM207 -123q0 -31 -21.5 -58t-55.5 -44t-74 -17q-37 0 -61 16.5t-24 47.5q0 30 21.5 57.5t56.5 45.5t75 18q37 0 60 -17t23 -49z" />
<glyph unicode="&#x1ecc;" horiz-adv-x="678" d="M670 425q0 -82 -28.5 -160t-81.5 -140t-127 -98.5t-165 -36.5q-108 0 -168.5 57t-60.5 175q0 83 29 161t82.5 140.5t128 99.5t164.5 37q110 0 168.5 -59t58.5 -176zM269 192q0 -43 10.5 -67.5t32.5 -24.5q23 0 42.5 26.5t35.5 68.5t27 91.5t17 96.5t6 82q0 85 -39 85 q-24 0 -44 -25.5t-36.5 -66.5t-28 -89t-17.5 -94.5t-6 -82.5zM366 -123q0 -31 -21.5 -58t-55.5 -44t-74 -17q-37 0 -61 16.5t-24 47.5q0 30 21.5 57.5t56.5 45.5t75 18q37 0 60 -17t23 -49z" />
<glyph unicode="&#x1ecd;" horiz-adv-x="607" d="M584 314q0 -63 -26 -121.5t-73 -104t-110 -72t-137 -26.5q-62 0 -111 20.5t-77 63t-28 107.5q0 63 26.5 121.5t73.5 105.5t110.5 74.5t137.5 27.5q98 0 156 -50.5t58 -145.5zM237 156q0 -35 7 -53t25 -18q24 0 43 27t31.5 69t19 86.5t6.5 78.5q0 69 -33 69 q-24 0 -42.5 -26.5t-31 -67t-19 -85t-6.5 -80.5zM336 -123q0 -31 -21.5 -58t-55.5 -44t-74 -17q-37 0 -61 16.5t-24 47.5q0 30 21.5 57.5t56.5 45.5t75 18q37 0 60 -17t23 -49z" />
<glyph unicode="&#x1ee4;" horiz-adv-x="705" d="M328 110q32 0 54 28.5t32 76.5l63 305l18 130l222 10l-93 -436q-16 -77 -66 -129.5t-120 -78.5t-146 -26q-100 0 -159.5 45.5t-59.5 134.5q0 11 1.5 23t5 32t11 55.5t20 93.5t31.5 146l18 130l222 9q-28 -130 -46 -214.5t-28.5 -135t-16 -77.5t-7 -41t-1.5 -26 q0 -21 10.5 -38t34.5 -17zM385 -123q0 -31 -21.5 -58t-55.5 -44t-74 -17q-37 0 -61 16.5t-24 47.5q0 30 21.5 57.5t56.5 45.5t75 18q37 0 60 -17t23 -49z" />
<glyph unicode="&#x1ee5;" d="M75 358l8 141l230 10q-7 -58 -18 -115t-22 -105.5t-18.5 -83t-7.5 -48.5q0 -17 11 -17q15 0 46.5 46.5t56.5 151.5q2 11 4 20q5 23 7.5 47.5t2.5 49.5q0 11 -0.5 22t-1.5 22l230 10q-3 -29 -11 -70.5t-18.5 -90.5t-20 -99t-16 -94.5t-6.5 -77.5q0 -15 2 -35.5t6 -41.5 h-210q-6 29 -7 51.5t-1 30.5q0 21 0.5 36.5t1.5 30.5q-38 -80 -96.5 -119.5t-110.5 -39.5q-47 0 -67.5 30t-20.5 82q0 16 2 33t7 43.5t14 69.5t24 110zM336 -123q0 -31 -21.5 -58t-55.5 -44t-74 -17q-37 0 -61 16.5t-24 47.5q0 30 21.5 57.5t56.5 45.5t75 18q37 0 60 -17 t23 -49z" />
<glyph unicode="&#x1ef2;" horiz-adv-x="602" d="M567 751l-27 -55q-58 11 -125 35.5t-129 59.5l88 128q47 -49 96.5 -90.5t96.5 -77.5zM356 0h-210l43 202v0l-94 448l208 10l29 -292h2l155 292l193 -10l-283 -448z" />
<glyph unicode="&#x1ef3;" horiz-adv-x="558" d="M492 611l-31 -62q-59 13 -125.5 39.5t-126.5 63.5l91 124q47 -47 96 -88t96 -77zM356 14q-84 -103 -176.5 -156t-184.5 -53q-53 0 -85 19t-32 60q0 24 11 50.5t32 39.5q27 -8 61.5 -13t64.5 -5q38 0 75 8.5t65 24t39 36.5l-160 9q11 85 11 205q0 71 -4.5 141.5 t-14.5 119.5l215 10q6 -28 8.5 -59t2.5 -65q0 -67 -9 -139.5t-23 -136.5h3q38 65 64 134t40.5 135.5t15.5 120.5q29 5 52 7.5t42 2.5q43 0 71 -15.5t28 -60.5q0 -36 -18.5 -88.5t-49.5 -111t-68.5 -116t-75.5 -104.5z" />
<glyph unicode="&#x1ef8;" horiz-adv-x="602" d="M376 892q30 0 51 -10.5t39 -21t40 -10.5q21 0 35.5 12.5t32.5 34.5l42 -9q-10 -40 -29.5 -77.5t-48 -61t-65.5 -23.5q-26 0 -49.5 10.5t-44 21t-39.5 10.5q-16 0 -32 -10.5t-36 -36.5l-43 9q10 40 29.5 77t48.5 61t69 24zM356 0h-210l43 202v0l-94 448l208 10l29 -292h2 l155 292l193 -10l-283 -448z" />
<glyph unicode="&#x1ef9;" horiz-adv-x="558" d="M303 753q31 0 52 -13t39.5 -26t41.5 -13q18 0 31 14t29 38l43 -9q-10 -41 -29 -79.5t-46 -63t-62 -24.5q-26 0 -50 13t-45 26t-40 13q-13 0 -27.5 -11.5t-32.5 -40.5l-43 9q10 41 28 79t46 63t65 25zM356 14q-84 -103 -176.5 -156t-184.5 -53q-53 0 -85 19t-32 60 q0 24 11 50.5t32 39.5q27 -8 61.5 -13t64.5 -5q38 0 75 8.5t65 24t39 36.5l-160 9q11 85 11 205q0 71 -4.5 141.5t-14.5 119.5l215 10q6 -28 8.5 -59t2.5 -65q0 -67 -9 -139.5t-23 -136.5h3q38 65 64 134t40.5 135.5t15.5 120.5q29 5 52 7.5t42 2.5q43 0 71 -15.5t28 -60.5 q0 -36 -18.5 -88.5t-49.5 -111t-68.5 -116t-75.5 -104.5z" />
<glyph unicode="&#x2013;" horiz-adv-x="556" d="M28 241l8 60h496l-8 -60h-496z" />
<glyph unicode="&#x2014;" horiz-adv-x="945" d="M28 241l13 60h800l-13 -60h-800z" />
<glyph unicode="&#x2018;" horiz-adv-x="330" d="M108 441q0 36 20.5 75t53.5 75t72 63.5t75 40.5l23 -38q-27 -19 -57 -50t-49 -64q20 -5 33 -20t13 -41q0 -28 -15.5 -53t-41 -41t-57.5 -16q-34 0 -52 19t-18 50z" />
<glyph unicode="&#x2019;" horiz-adv-x="331" d="M343 627q0 -36 -20.5 -75t-53.5 -75t-72 -63t-75 -41l-23 38q27 19 57 50t49 64q-20 5 -33 20t-13 41q0 28 15.5 53t41.5 41t57 16q34 0 52 -19t18 -50z" />
<glyph unicode="&#x201a;" horiz-adv-x="296" d="M195 95q0 -36 -20.5 -75t-53.5 -75t-72 -63t-75 -41l-23 38q27 19 57 50t49 64q-20 5 -33 20t-13 41q0 28 15.5 53t41.5 41t57 16q34 0 52 -19t18 -50z" />
<glyph unicode="&#x201c;" horiz-adv-x="601" d="M108 440q0 36 20.5 75t53.5 75t72 63.5t75 40.5l23 -38q-27 -19 -57 -50t-49 -64q20 -5 33 -20t13 -41q0 -28 -15.5 -53t-41 -41t-57.5 -16q-34 0 -52 19t-18 50zM378 440q0 36 20.5 75t53.5 75t72 63.5t75 40.5l23 -38q-27 -19 -57 -50t-49 -64q20 -5 33 -20t13 -41 q0 -28 -15.5 -53t-41 -41t-57.5 -16q-34 0 -52 19t-18 50z" />
<glyph unicode="&#x201d;" horiz-adv-x="601" d="M613 626q0 -36 -20.5 -75t-53.5 -75t-72 -63t-75 -41l-23 38q27 19 57 50t49 64q-20 5 -33 20t-13 41q0 28 15.5 53t41.5 41t57 16q34 0 52 -19t18 -50zM343 626q0 -36 -20.5 -75t-53.5 -75t-72 -63t-75 -41l-23 38q27 19 57 50t49 64q-20 5 -33 20t-13 41q0 28 15.5 53 t41.5 41t57 16q34 0 52 -19t18 -50z" />
<glyph unicode="&#x201e;" horiz-adv-x="553" d="M195 95q0 -36 -20.5 -75t-53.5 -75t-72 -63t-75 -41l-23 38q27 19 57 50t49 64q-20 5 -33 20t-13 41q0 28 15.5 53t41.5 41t57 16q34 0 52 -19t18 -50zM452 95q0 -36 -20.5 -75t-53.5 -75t-72 -63t-75 -41l-23 38q27 19 57 50t49 64q-20 5 -33 20t-13 41q0 28 15.5 53 t41.5 41t57 16q34 0 52 -19t18 -50z" />
<glyph unicode="&#x2020;" horiz-adv-x="524" d="M308 -5l-201 -5l94 364l-131 -8l36 154l121 -8l21 163l201 5l-50 -168l128 8l-36 -154l-124 8z" />
<glyph unicode="&#x2021;" horiz-adv-x="524" d="M308 -5l-201 -5l50 139l-135 -11l36 154l129 -11l7 68l17 51l-136 -11l36 154l127 -11l10 143l201 5l-52 -148l135 11l-36 -154l-128 11l-4 -50l-22 -69l137 11l-36 -154l-126 11z" />
<glyph unicode="&#x2022;" horiz-adv-x="481" d="M409 307q0 -52 -30 -98t-78.5 -74.5t-105.5 -28.5q-52 0 -85.5 27.5t-33.5 81.5q0 39 17.5 75t47.5 64.5t69 45t81 16.5q53 0 85.5 -27.5t32.5 -81.5z" />
<glyph unicode="&#x2026;" horiz-adv-x="897" d="M682 -10q-31 0 -50.5 17.5t-19.5 48.5q0 28 16.5 52.5t44 40t58.5 15.5t49.5 -16t18.5 -44q0 -29 -16.5 -55t-43 -42.5t-57.5 -16.5zM389 -10q-31 0 -50.5 17.5t-19.5 48.5q0 28 16.5 52.5t44 40t58.5 15.5t49.5 -16t18.5 -44q0 -29 -16.5 -55t-43 -42.5t-57.5 -16.5z M96 -10q-31 0 -50.5 17.5t-19.5 48.5q0 28 16.5 52.5t44 40t58.5 15.5t49.5 -16t18.5 -44q0 -29 -16.5 -55t-43 -42.5t-57.5 -16.5z" />
<glyph unicode="&#x2030;" horiz-adv-x="1421" d="M293 -10h-115l542 670h116zM473 509q0 -58 -29.5 -109t-84.5 -82t-130 -31q-73 0 -112 36t-39 105q0 59 30.5 111t85.5 84t129 32q72 0 111 -37.5t39 -108.5zM226 397q0 -38 24 -38q18 0 31.5 20t23.5 50.5t15 62t5 55.5q0 20 -5 28t-17 8q-19 0 -33 -20.5t-24 -51.5 t-15 -62t-5 -52zM931 217q0 -58 -30 -109t-84.5 -82t-129.5 -31q-73 0 -112 36t-39 105q0 59 30.5 111t85.5 84t129 32q72 0 111 -37.5t39 -108.5zM1374 217q0 -58 -30 -109t-84.5 -82t-129.5 -31q-73 0 -112 36t-39 105q0 59 30.5 111t85.5 84t129 32q72 0 111 -37.5 t39 -108.5zM684 105q0 -38 24 -38q18 0 31.5 20t23.5 50.5t15 62t5 55.5q0 20 -5 28t-17 8q-19 0 -33 -20.5t-24 -51.5t-15 -62t-5 -52zM1127 105q0 -38 24 -38q18 0 31.5 20t23.5 50.5t15 62t5 55.5q0 20 -5 28t-17 8q-19 0 -33 -20.5t-24 -51.5t-15 -62t-5 -52z" />
<glyph unicode="&#x2039;" horiz-adv-x="336" d="M38 253l11 54q75 50 139 98.5t128 104.5l34 -22q-33 -60 -70 -109.5t-77 -98.5q20 -49 35.5 -98.5t22.5 -109.5l-43 -22q-40 56 -83 105t-97 98z" />
<glyph unicode="&#x203a;" horiz-adv-x="336" d="M311 307l-11 -54q-75 -49 -138.5 -98t-128.5 -105l-34 22q33 60 70 109.5t77 98.5q-20 49 -35.5 98.5t-22.5 109.5l43 22q41 -56 83.5 -104.5t96.5 -98.5z" />
<glyph unicode="&#x2044;" horiz-adv-x="656" d="M45 -10h-115l542 670h116z" />
<glyph unicode="&#x2070;" horiz-adv-x="458" d="M490 589q0 -58 -29.5 -109t-84.5 -82t-130 -31q-73 0 -112 36t-39 105q0 59 30.5 111t85.5 84t129 32q72 0 111 -37.5t39 -108.5zM243 477q0 -38 24 -38q18 0 31.5 20t23.5 50.5t15 62t5 55.5q0 20 -5 28t-17 8q-19 0 -33 -20.5t-24 -51.5t-15 -62t-5 -52z" />
<glyph unicode="&#x2074;" horiz-adv-x="494" d="M387 372h-140l10 44h-165l5 57l267 262l99 -5l-44 -208q27 2 53 5l-26 -111h-50zM303 619l-125 -100h102z" />
<glyph unicode="&#x2075;" horiz-adv-x="449" d="M427 496q0 -43 -30.5 -71.5t-80 -43t-107.5 -14.5q-25 0 -55 2.5t-54 9.5l23 72q15 -5 40 -8.5t39 -3.5q36 0 57.5 15t21.5 35q0 17 -15 25t-37 8q-16 0 -35.5 -4t-35.5 -6l-8 5l44 213h156q28 0 59 1t60 4l-26 -115h-201l-14 -52q19 5 41.5 8.5t45.5 3.5 q53 0 82.5 -20.5t29.5 -63.5z" />
<glyph unicode="&#x2076;" horiz-adv-x="448" d="M449 516q0 -40 -26.5 -74t-72.5 -54.5t-105 -20.5q-73 0 -113 34t-40 97q0 49 23.5 92t64.5 75.5t95.5 51t117.5 18.5q17 0 36.5 -1.5t26.5 -3.5l-23 -73q-8 2 -19.5 4t-22.5 2q-33 0 -69.5 -21.5t-59.5 -68.5q40 26 94 26q44 0 68.5 -22.5t24.5 -60.5zM240 481 q0 -16 5.5 -29t18.5 -13q17 0 29.5 18.5t12.5 42.5q0 42 -42 42q-3 0 -6.5 -0.5t-8.5 -1.5q-5 -19 -7 -34.5t-2 -24.5z" />
<glyph unicode="&#x2077;" horiz-adv-x="438" d="M276 372h-157q21 68 83 135t161 113h-89q-34 0 -67.5 -2t-62.5 -6l27 118h295l6 -7l-7 -67q-79 -67 -124 -134t-65 -150z" />
<glyph unicode="&#x2078;" horiz-adv-x="433" d="M77 444q0 30 34.5 54.5t89.5 35.5q-70 37 -70 87q0 33 26 58.5t70.5 40.5t99.5 15q65 0 103 -21t38 -57q0 -31 -30 -52t-74 -30q83 -34 83 -89q0 -33 -28.5 -60t-77 -43t-109.5 -16q-70 0 -112.5 21t-42.5 56zM268 644q0 -12 11 -22.5t28 -20.5q26 23 26 46t-27 23 q-13 0 -25.5 -6.5t-12.5 -19.5zM216 459q0 -10 10 -18.5t31 -8.5q20 0 36 8t16 25q0 16 -14 25t-43 17q-36 -24 -36 -48z" />
<glyph unicode="&#x2079;" horiz-adv-x="447" d="M126 582q0 43 26.5 77.5t72.5 55t104 20.5q74 0 114 -34t40 -97q0 -49 -23.5 -92t-64.5 -75.5t-95.5 -51t-117.5 -18.5q-17 0 -36.5 1.5t-26.5 3.5l23 73q8 -2 20 -4t22 -2q33 0 70 18.5t60 60.5q-18 -12 -41.5 -19.5t-48.5 -7.5q-47 0 -72.5 25.5t-25.5 65.5zM335 623 q0 14 -5 27t-18 13q-16 0 -29 -22t-13 -51q0 -42 42 -42q2 0 5.5 0.5t7.5 1.5q4 17 7 39t3 34z" />
<glyph unicode="&#x207f;" horiz-adv-x="521" d="M281 372h-168q-3 14 -5.5 30t-2.5 33q0 19 3.5 46.5t8.5 57t10 53.5t9 36l4 104l184 7q-3 -17 -11 -51t-17 -75q26 53 71 89.5t99 36.5q41 0 65.5 -27t13.5 -83q-13 -66 -24 -115t-11 -79q0 -31 8 -63h-168q-8 37 -8 72q0 2 1 5.5t3.5 16l8 40t14.5 77.5q3 16 1 26 t-13 10q-17 0 -34.5 -20.5t-31.5 -55t-17 -77.5q-1 -15 -1 -27q0 -19 2 -36t6 -31z" />
<glyph unicode="&#x2080;" horiz-adv-x="458" d="M376 52q0 -58 -29.5 -109t-84.5 -82t-130 -31q-73 0 -112 36t-39 105q0 59 30.5 111t85.5 84t129 32q72 0 111 -37.5t39 -108.5zM129 -60q0 -38 24 -38q18 0 31.5 20t23.5 50.5t15 62t5 55.5q0 20 -5 28t-17 8q-19 0 -33 -20.5t-24 -51.5t-15 -62t-5 -52z" />
<glyph unicode="&#x2081;" horiz-adv-x="327" d="M133 -168h-140l61 275l-66 -23l-6 60l220 51l7 -7z" />
<glyph unicode="&#x2082;" horiz-adv-x="412" d="M251 -168h-287l4 79q23 8 55.5 28t64.5 45.5t53.5 51t21.5 43.5q0 13 -13 20t-35 7t-48.5 -9.5t-46.5 -25.5l5 94q26 11 68 20.5t86 9.5q62 0 97 -22.5t35 -61.5q0 -37 -33 -70t-85 -58.5t-107 -41.5h62q30 0 64.5 2.5t65.5 6.5z" />
<glyph unicode="&#x2083;" horiz-adv-x="368" d="M251 -59q0 -35 -29 -60t-74.5 -38t-97.5 -13q-28 0 -56.5 3t-50.5 9l24 75q11 -6 29.5 -10.5t36.5 -4.5q33 0 52 14.5t19 30.5q0 18 -18.5 25t-39.5 7q-10 0 -21.5 -1t-18.5 -2l8 43q47 13 83.5 32t36.5 38q0 9 -12 14.5t-32 5.5q-17 0 -40 -5t-43 -13l10 80 q26 11 64.5 19t75.5 8q58 0 90 -20.5t32 -53.5q0 -38 -41 -63t-98 -36q47 -4 79 -23.5t32 -60.5z" />
<glyph unicode="&#x2084;" horiz-adv-x="439" d="M238 -168h-140l10 44h-165l5 57l267 262l99 -5l-44 -208q27 2 53 5l-26 -111h-50zM154 79l-125 -100h102z" />
<glyph unicode="&#x2085;" horiz-adv-x="404" d="M290 -41q0 -43 -30.5 -71.5t-80 -43t-107.5 -14.5q-25 0 -55 2.5t-54 9.5l23 72q15 -5 40 -8.5t39 -3.5q36 0 57.5 15t21.5 35q0 17 -15 25t-37 8q-16 0 -35.5 -4t-35.5 -6l-8 5l44 213h156q28 0 59 1t60 4l-26 -115h-201l-14 -52q19 5 41.5 8.5t45.5 3.5 q53 0 82.5 -20.5t29.5 -63.5z" />
<glyph unicode="&#x2086;" horiz-adv-x="415" d="M335 -21q0 -40 -26.5 -74t-72.5 -54.5t-105 -20.5q-73 0 -113 34t-40 97q0 49 23.5 92t64.5 75.5t95.5 51t117.5 18.5q17 0 36.5 -1.5t26.5 -3.5l-23 -73q-8 2 -19.5 4t-22.5 2q-33 0 -69.5 -21.5t-59.5 -68.5q40 26 94 26q44 0 68.5 -22.5t24.5 -60.5zM126 -56 q0 -16 5.5 -29t18.5 -13q17 0 29.5 18.5t12.5 42.5q0 42 -42 42q-3 0 -6.5 -0.5t-8.5 -1.5q-5 -19 -7 -34.5t-2 -24.5z" />
<glyph unicode="&#x2087;" horiz-adv-x="381" d="M129 -168h-157q21 68 83 135t161 113h-89q-34 0 -67.5 -2t-62.5 -6l27 118h295l6 -7l-7 -67q-79 -67 -124 -134t-65 -150z" />
<glyph unicode="&#x2088;" horiz-adv-x="434" d="M-37 -93q0 30 34.5 54.5t89.5 35.5q-70 37 -70 87q0 33 26 58.5t70.5 40.5t99.5 15q65 0 103 -21t38 -57q0 -31 -30 -52t-74 -30q83 -34 83 -89q0 -33 -28.5 -60t-77 -43t-109.5 -16q-70 0 -112.5 21t-42.5 56zM154 107q0 -12 11 -22.5t28 -20.5q26 23 26 46t-27 23 q-13 0 -25.5 -6.5t-12.5 -19.5zM102 -78q0 -10 10 -18.5t31 -8.5q20 0 36 8t16 25q0 16 -14 25t-43 17q-36 -24 -36 -48z" />
<glyph unicode="&#x2089;" horiz-adv-x="414" d="M-21 45q0 43 26.5 77.5t72.5 55t104 20.5q74 0 114 -34t40 -97q0 -49 -23.5 -92t-64.5 -75.5t-95.5 -51t-117.5 -18.5q-17 0 -36.5 1.5t-26.5 3.5l23 73q8 -2 20 -4t22 -2q33 0 70 18.5t60 60.5q-18 -12 -41.5 -19.5t-48.5 -7.5q-47 0 -72.5 25.5t-25.5 65.5zM188 86 q0 14 -5 27t-18 13q-16 0 -29 -22t-13 -51q0 -42 42 -42q2 0 5.5 0.5t7.5 1.5q4 17 7 39t3 34z" />
<glyph unicode="&#x20ac;" horiz-adv-x="585" d="M13 239l18 61h42q3 27 10 53h-37l18 61h41q31 72 85.5 127.5t126 87t152.5 31.5q50 0 96.5 -9.5t70.5 -18.5l-55 -167q-10 11 -30 24t-45 22t-51 9q-44 0 -75 -30t-50 -76h152l-18 -61h-152q-5 -26 -7 -53h144l-18 -61h-127q3 -48 23 -75t68 -27q34 0 67.5 11.5 t52.5 23.5l-10 -150q-93 -32 -189 -32q-121 0 -184.5 61.5t-63.5 184.5v3h-55z" />
<glyph unicode="&#x2122;" horiz-adv-x="647" d="M408 567h-1l-44 -142h-75l80 225l128 3l-20 -156h1l45 153l130 3l-18 -228h-97l18 142h-1l-51 -142h-107zM220 425h-95l35 163l-59 -4l18 66h149zM268 650h55l-11 -66l-57 4z" />
<glyph unicode="&#x2212;" horiz-adv-x="591" d="M511 256h-430l28 132q37 2 93 3t119 1.5t121.5 1t99.5 0.5z" />
<glyph unicode="&#x221e;" horiz-adv-x="885" d="M826 373q0 -47 -18 -90.5t-50 -78t-74.5 -54.5t-90.5 -20q-61 0 -97 28t-60 67q-41 -44 -92.5 -69.5t-107.5 -25.5q-70 0 -107.5 40t-37.5 106q0 47 18 90.5t50 78t74 55t91 20.5q58 0 95 -28t62 -67q40 44 91.5 69.5t107.5 25.5q71 0 108.5 -40t37.5 -107zM629 401 q-28 0 -56 -17.5t-48 -39.5q18 -37 37 -64.5t48 -27.5q20 0 36.5 14t26.5 35.5t10 42.5q0 27 -15 42t-39 15zM234 306q0 -27 15 -42t39 -15q29 0 56.5 18t47.5 40q-20 39 -39 65t-46 26q-20 0 -37 -14t-26.5 -35t-9.5 -43z" />
<glyph unicode="&#x2248;" horiz-adv-x="645" d="M235 388q-7 0 -24 -14t-39 -35l-65 34q22 32 49.5 68t57.5 61.5t57 25.5q21 0 53 -6.5t65.5 -15.5t61 -15.5t38.5 -6.5q8 0 25 14t40 35l64 -34q-22 -32 -49.5 -68t-57 -61.5t-57.5 -25.5q-21 0 -53 6.5t-65.5 15.5t-61 15.5t-39.5 6.5zM187 164q-7 0 -24 -14t-39 -35 l-65 34q22 32 49.5 68t57.5 61.5t57 25.5q21 0 53 -6.5t65.5 -15.5t61 -15.5t38.5 -6.5q8 0 25 14t40 35l64 -34q-22 -32 -49.5 -68t-57 -61.5t-57.5 -25.5q-21 0 -53 6.5t-65.5 15.5t-61 15.5t-39.5 6.5z" />
<glyph unicode="&#x2260;" horiz-adv-x="592" d="M125 23l-61 39l65 87h-70l28 132q26 1 63 2t80 2l58 78h-184l28 132q44 2 114.5 3t143.5 2l93 125l11 3l61 -39l-66 -88h76l-31 -138h-147l-58 -77q55 0 105 0.5t86 0.5l-31 -138h-261l-92 -123z" />
<glyph unicode="&#x2264;" horiz-adv-x="605" d="M598 615l-32 -147l-238 -53l215 -50l-32 -152q-29 8 -70.5 21t-88.5 28.5t-94 32t-86.5 31.5t-65.5 25l27 125zM472 36h-430l28 132q37 2 93 3t119 1.5t121.5 1t99.5 0.5z" />
<glyph unicode="&#x2265;" horiz-adv-x="605" d="M77 213l31 147l239 52l-216 51l33 152q29 -8 70.5 -21t88.5 -28.5t93.5 -32t86.5 -31t65 -25.5l-26 -125zM470 36h-430l28 132q37 2 93 3t119 1.5t121.5 1t99.5 0.5z" />
<glyph unicode="&#x25fc;" horiz-adv-x="510" d="M0 510h510v-510h-510v510z" />
<glyph unicode="&#xfb00;" horiz-adv-x="746" d="M756 379l-96 3l-71 -338q-22 -106 -92.5 -168.5t-207.5 -70.5l-29 70q46 21 69.5 49.5t33.5 61.5t17 65l69 328l-139 4l-71 -339q-22 -106 -92.5 -168.5t-207.5 -70.5l-29 70q46 21 69.5 49.5t33.5 61.5t17 65l71 337l-54 1l11 53l60 20v2q-1 4 -4 19t-3 34q0 49 27 86 t76.5 57.5t115.5 20.5q49 0 98 -11.5t82 -28.5q28 27 68.5 40.5t87.5 13.5q50 0 96.5 -13t74.5 -28l-47 -125q-19 21 -42 34t-49 13q-29 0 -47 -18.5t-18 -43.5q0 -13 4 -26.5t12 -25.5h132zM284 502q0 -8 4 -19t12 -21h168v2q-1 5 -4 23t-3 37q-21 17 -47.5 27.5 t-54.5 10.5q-31 0 -53 -15.5t-22 -44.5z" />
<glyph unicode="&#xfb01;" horiz-adv-x="669" d="M653 500q-2 -26 -9.5 -66t-18 -88t-20 -97.5t-16 -94t-6.5 -77.5q0 -15 2 -35.5t6 -41.5h-210q-2 15 -5 36.5t-3 50.5q0 36 3.5 65t7.5 51l37 175l-111 3l-71 -337q-22 -106 -92.5 -168.5t-207.5 -70.5l-29 70q46 21 69.5 49.5t33.5 61.5t17 65l71 336l-54 2l11 53l60 20 v2q-1 5 -4 22.5t-3 36.5q0 56 37.5 94.5t99.5 58t137 19.5q56 0 106 -9t86 -19l-47 -130q-34 17 -69.5 28t-73.5 11q-46 0 -74.5 -18.5t-28.5 -46.5q0 -10 4.5 -24t11.5 -25h123l211 42z" />
<glyph unicode="&#xfb02;" horiz-adv-x="681" d="M388 379l-78 2l-71 -337q-22 -106 -92.5 -168.5t-207.5 -70.5l-29 70q46 21 69.5 49.5t33.5 61.5t17 65l71 336l-54 2l11 53l60 20v2q-1 5 -4 23t-3 38q0 55 30 93t83.5 57.5t121.5 19.5q29 0 62 -3t63.5 -7.5t51.5 -9.5l184 20q-4 -39 -17 -98.5t-29 -130t-31 -142.5 t-25 -136t-10 -110q0 -16 2 -36.5t6 -41.5h-210q-3 15 -5.5 35.5t-2.5 39.5q0 26 5 64t12.5 82t16.5 87.5t17 80.5l35 164q-21 11 -47 17t-51 6q-43 0 -66 -18.5t-23 -44.5q0 -10 4 -24.5t12 -26.5h109z" />
<glyph unicode="&#xfb03;" horiz-adv-x="1019" d="M1003 500q-2 -26 -9.5 -66t-18 -88t-20 -97.5t-16 -94t-6.5 -77.5q0 -15 2 -35.5t6 -41.5h-210q-2 15 -5 36.5t-3 50.5q0 36 3.5 65t7.5 51l37 175l-111 3l-71 -337q-22 -106 -92.5 -168.5t-207.5 -70.5l-29 70q46 21 69.5 49.5t33.5 61.5t17 65l69 328l-139 4l-71 -339 q-22 -106 -92.5 -168.5t-207.5 -70.5l-29 70q46 21 69.5 49.5t33.5 61.5t17 65l71 337l-54 1l11 53l60 20v2q-1 4 -4 19t-3 34q0 49 27 86t76.5 57.5t115.5 20.5q53 0 105.5 -13.5t83.5 -31.5q38 29 94.5 44t121.5 15q56 0 106 -9t86 -19l-47 -130q-34 17 -69.5 28t-73.5 11 q-46 0 -74.5 -18.5t-28.5 -46.5q0 -10 4.5 -24t11.5 -25h123l211 42zM284 502q0 -8 4 -19t12 -21h168v2q-1 5 -4 22.5t-3 36.5v1q-21 17 -47.5 27.5t-54.5 10.5q-31 0 -53 -15.5t-22 -44.5z" />
<glyph unicode="&#xfb04;" horiz-adv-x="1031" d="M738 379l-78 2l-71 -337q-22 -106 -92.5 -168.5t-207.5 -70.5l-29 70q46 21 69.5 49.5t33.5 61.5t17 65l69 328l-139 4l-71 -339q-22 -106 -92.5 -168.5t-207.5 -70.5l-29 70q46 21 69.5 49.5t33.5 61.5t17 65l71 337l-54 1l11 53l60 20v2q-1 4 -4 19t-3 34q0 49 27 86 t76.5 57.5t115.5 20.5q50 0 100 -12t82 -29q32 27 79 41t105 14q29 0 62 -3t63.5 -7.5t51.5 -9.5l184 20q-4 -39 -17 -98.5t-29 -130t-31 -142.5t-25 -136t-10 -110q0 -16 2 -36.5t6 -41.5h-210q-3 15 -5.5 35.5t-2.5 39.5q0 26 5 64t12.5 82t16.5 87.5t17 80.5l35 164 q-21 11 -47 17t-51 6q-43 0 -66 -18.5t-23 -44.5q0 -10 4 -24.5t12 -26.5h109zM284 502q0 -8 4 -19t12 -21h168v2q-1 5 -4 23t-3 37q-21 17 -47.5 27.5t-54.5 10.5q-31 0 -53 -15.5t-22 -44.5z" />
<glyph unicode="&#xfb06;" horiz-adv-x="907" d="M441 173q0 -55 -37 -96.5t-101 -64t-146 -22.5q-27 0 -59 2.5t-62 7.5t-52 11l44 157q24 -14 53.5 -24t59 -15.5t51.5 -5.5q43 0 43 22q0 15 -13 23.5t-34 17t-46 21.5q-34 18 -57.5 44t-23.5 71q0 55 37.5 97.5t102.5 66.5t145 24q37 0 71 -5q-8 15 -8 36q0 47 37 86 t97 62t130 23q76 0 120 -29t44 -79q0 -36 -18 -66.5t-37 -47.5h148l-26 -83l-120 3q-24 -108 -37.5 -172t-13.5 -84q0 -19 11 -25.5t27 -6.5q25 0 44.5 10.5t45.5 27.5l-8 -115q-74 -55 -180 -55q-73 0 -113.5 31.5t-40.5 95.5q0 23 5.5 57.5t18 92t31.5 149.5l-53 1l12 53 l79 20q7 7 15.5 23.5t8.5 36.5q0 21 -14 34.5t-43 13.5q-37 0 -67.5 -21.5t-30.5 -55.5q0 -21 13 -38l-43 -150q-39 21 -79.5 32.5t-63.5 11.5q-17 0 -28.5 -6t-11.5 -19t12 -22.5t30 -17t34 -15.5q24 -10 46.5 -26t36.5 -39.5t14 -58.5z" />
<glyph horiz-adv-x="524" d="M12 109q0 43 19 90t56.5 88t92.5 66.5t128 25.5q43 0 88.5 -9.5t81.5 -24.5l-27 -128q-6 -28 -12.5 -64t-6.5 -70q0 -16 2 -34.5t6 -36.5h-168q-4 20 -6 36.5t-2 30.5q0 21 4 48q-29 -51 -77 -86.5t-96 -35.5q-38 0 -60.5 27.5t-22.5 76.5zM183 146q0 -16 5.5 -23 t12.5 -7q15 0 32 21t33 57t29 80q3 13 6 27q-9 3 -16 3q-20 0 -38.5 -16.5t-33 -42t-22.5 -52t-8 -47.5z" />
<glyph horiz-adv-x="512" d="M476 275q0 -43 -19 -90t-56 -88t-92.5 -66.5t-128.5 -25.5q-43 0 -89 10t-81 24l78 363l4 103l184 7q-3 -19 -12 -59t-21 -92.5t-24 -107.5q20 36 48.5 64.5t61 45t64.5 16.5q39 0 61 -28t22 -76zM287 268q-16 0 -35 -25t-36.5 -67.5t-29.5 -92.5q10 -3 17 -3 q21 0 39 16.5t32.5 42t22.5 52.5t8 47q0 30 -18 30z" />
<glyph horiz-adv-x="414" d="M340 131l-4 -92q-28 -16 -68 -25t-86 -9q-69 0 -116 33t-47 107q0 63 37 116t100.5 85.5t143.5 32.5q29 0 55 -4t48 -12l-38 -131q-23 33 -45 46.5t-39 13.5q-25 0 -46 -21t-33 -50.5t-12 -54.5q0 -30 13.5 -48t39.5 -18q20 0 46.5 8.5t50.5 22.5z" />
<glyph horiz-adv-x="529" d="M12 109q0 43 19 90t56.5 88t92.5 66.5t128 25.5h10q2 11 5 22l4 104l184 7q-3 -19 -13.5 -64.5t-23.5 -100.5l4 -2l-4 -2q-11 -47 -20.5 -95.5t-15.5 -92t-6 -73.5q0 -38 8 -70h-168q-2 11 -5 28t-3 43q0 9 1 19.5t3 25.5q-29 -52 -77 -87.5t-96 -35.5q-38 0 -60.5 27.5 t-22.5 76.5zM183 146q0 -16 5.5 -23t12.5 -7q15 0 32.5 22t34 59t29.5 82l4 22q-9 3 -16 3q-20 0 -38.5 -16.5t-33 -42t-22.5 -52t-8 -47.5z" />
<glyph horiz-adv-x="443" d="M369 131l-5 -92q-16 -8 -46.5 -16t-67 -13t-70.5 -5q-78 0 -120 35t-42 102q0 45 20 87.5t55 76t83 53.5t103 20q60 0 97 -25t37 -67q0 -37 -28.5 -67.5t-72.5 -48t-93 -17.5q-15 0 -30 2q2 -32 19 -44t45 -12q24 0 56.5 8t59.5 23zM254 304q-15 0 -28 -19.5t-22.5 -47 t-12.5 -53.5q34 16 56 47t22 56q0 17 -15 17z" />
<glyph horiz-adv-x="336" d="M316 278l-78 2l-50 -231q-9 -44 -33 -84t-72 -65.5t-131 -27.5l-25 55q37 16 55 37t25.5 44.5t12.5 45.5l50 231l-42 1l8 42l48 15v2q-1 2 -4 14t-3 29q0 41 22 68.5t58.5 41.5t80.5 14q41 0 79 -10.5t59 -21.5l-36 -99q-15 17 -34 27t-39 10q-23 0 -37 -13t-14 -28 q0 -18 13 -34h106z" />
<glyph horiz-adv-x="477" d="M387 -22q0 -54 -64 -80t-171 -26q-192 0 -192 80q0 24 21 41.5t56 25.5l10 -8q1 -45 32 -72q33 -30 81 -30q23 0 37 7t14 16q0 13 -16.5 21t-41 15.5t-49 17t-41 24t-16.5 38.5q0 34 38.5 60t105.5 27v3q-79 0 -122 27.5t-43 78.5q0 35 24 66t76.5 50t136.5 19 q42 0 73 0.5t60 2t62 5.5q24 -19 24 -48q0 -19 -12.5 -33.5t-33.5 -14.5q-22 0 -45.5 17t-65.5 33l-1 -4q26 -11 50 -24t39 -31.5t15 -44.5t-17.5 -45.5t-46 -32t-61.5 -17.5q-10 -1 -30.5 -5.5t-38 -12t-17.5 -17.5t17 -17t42.5 -14.5t51 -19.5t42.5 -30.5t17 -47.5z M191 216q0 -32 21 -32q18 0 29 17.5t16.5 41t5.5 39.5q0 29 -21 29q-19 0 -30 -17.5t-16 -40t-5 -37.5z" />
<glyph horiz-adv-x="522" d="M442 12h-168q-8 37 -8 72q0 12 4.5 35t10 49t10 47t4.5 30q0 5 -3 9.5t-11 4.5q-23 0 -47 -36.5t-33 -92.5q-4 -32 -4 -53q0 -14 2 -32.5t6 -32.5h-168q-3 11 -5.5 31t-2.5 31q0 20 4 50t10 63.5t12 63t10 48.5l23 102l4 104l184 7q-3 -19 -12 -59t-20.5 -91.5 t-21.5 -104.5q26 52 70.5 87t97.5 35q38 0 60 -20t22 -55q0 -15 -5.5 -43t-13.5 -62t-13.5 -66.5t-5.5 -56.5q0 -14 2 -32t6 -32z" />
<glyph horiz-adv-x="290" d="M283 496q0 -23 -16.5 -44t-43.5 -33.5t-58 -12.5q-30 0 -49.5 13t-19.5 38q0 23 16.5 44t44 34.5t59.5 13.5q30 0 48.5 -13.5t18.5 -39.5zM248 378q-2 -17 -10 -54t-17.5 -82.5t-16.5 -89.5t-7 -75q0 -13 2 -31t6 -34h-168q-4 21 -6 41t-2 41q0 13 2 26t5 28l24 120 l4 103z" />
<glyph horiz-adv-x="281" d="M282 496q0 -23 -16.5 -44t-43.5 -33.5t-58 -12.5q-30 0 -50 13t-20 38q0 23 17 44t44.5 34.5t59.5 13.5q29 0 48 -13.5t19 -39.5zM247 378q-1 -2 -2.5 -7t-5 -21.5t-11 -51t-19.5 -95t-30 -154.5q-16 -80 -71 -127t-164 -50l-25 55q37 16 55 37t25.5 45t12.5 46l47 212 l4 104z" />
<glyph horiz-adv-x="534" d="M205 12h-168q-4 16 -6 33.5t-2 28.5q0 25 5.5 66t14 85t15.5 75l24 101l4 104l184 7q-3 -19 -13 -61.5t-22 -96.5t-23 -109h5q23 33 55 63.5t70.5 50.5t78.5 20q36 0 56 -17.5t20 -48.5q0 -34 -29.5 -68.5t-92.5 -73.5q15 -38 37 -77.5t52 -81.5l-185 -7 q-19 27 -35.5 59.5t-23.5 68.5q58 44 81 72.5t23 45.5q0 21 -22 21q-17 0 -36 -16.5t-35.5 -44t-27.5 -61.5t-12 -69v-2q0 -14 2 -31.5t6 -35.5z" />
<glyph horiz-adv-x="289" d="M276 512q-3 -18 -12 -56.5t-20 -88.5t-22 -103t-18 -101.5t-7 -83.5q0 -14 2 -31.5t6 -35.5h-168q-3 14 -5.5 30.5t-2.5 32.5q0 25 5.5 66t14 84.5t15.5 74.5l24 101l4 104z" />
<glyph horiz-adv-x="736" d="M205 12h-168q-3 14 -5.5 30t-2.5 33q0 19 3.5 46.5t8.5 57t10 53.5t9 36l4 104l184 7q-3 -17 -11 -50t-17 -74q24 54 69 89t94 35q37 0 60 -23.5t17 -72.5q26 43 66.5 69.5t81.5 26.5q42 0 64.5 -28.5t11.5 -78.5q-15 -73 -25.5 -119.5t-10.5 -76.5t8 -64h-168 q-3 13 -5.5 28t-2.5 31q0 9 2 21.5t8 43.5t18 92q2 6 2 18.5t-9 12.5q-13 0 -33 -27.5t-33 -69.5q-5 -27 -8.5 -48t-3.5 -38q0 -15 2 -32.5t5 -31.5h-168q-3 14 -5 28.5t-2 30.5q0 11 5.5 45t21.5 111q2 7 2.5 19.5t-9.5 12.5q-12 0 -30 -23t-32 -62t-16 -86v-9q0 -19 2 -36 t6 -31z" />
<glyph horiz-adv-x="522" d="M205 12h-168q-3 14 -5.5 30t-2.5 33q0 19 3.5 46.5t8.5 57t10 53.5t9 36l4 104l184 7q-3 -17 -11 -51t-17 -75q26 53 71 89.5t99 36.5q41 0 65.5 -27t13.5 -83q-13 -66 -24 -115t-11 -79q0 -31 8 -63h-168q-8 37 -8 72q0 2 1 5.5t3.5 16l8 40t14.5 77.5q3 16 1 26t-13 10 q-17 0 -34.5 -20.5t-31.5 -55t-17 -77.5q-1 -15 -1 -27q0 -19 2 -36t6 -31z" />
<glyph horiz-adv-x="513" d="M468 230q0 -60 -35.5 -111.5t-97 -83t-139.5 -31.5q-76 0 -126 36.5t-50 110.5q0 60 36 112t97.5 84.5t139.5 32.5q82 0 128.5 -39.5t46.5 -110.5zM192 131q0 -51 27 -51q19 0 33.5 18.5t24 46.5t14 58t4.5 53q0 26 -6.5 37t-20.5 11q-19 0 -33 -17.5t-23.5 -44.5 t-14.5 -57t-5 -54z" />
<glyph horiz-adv-x="513" d="M248 379q-3 -16 -10.5 -49t-17.5 -75q30 53 78.5 88.5t95.5 35.5q38 0 60.5 -27.5t22.5 -76.5q0 -43 -19 -90t-56.5 -88t-92.5 -66.5t-128 -25.5h-8q-4 -33 -4 -56q0 -20 2 -37t6 -33h-168q-3 13 -5.5 31t-2.5 35q0 22 9 80t28 141l23 102l3 104zM288 268 q-16 0 -35.5 -24.5t-37 -66.5t-29.5 -94q11 -3 18 -3q21 0 39 16.5t32.5 42t22.5 52.5t8 47q0 17 -5 23.5t-13 6.5zM186 83v4l-1 -4h1z" />
<glyph horiz-adv-x="512" d="M12 109q0 43 19 90t56.5 88t92.5 66.5t128 25.5q43 0 88.5 -9.5t81.5 -24.5q-22 -106 -36.5 -175.5t-23 -112t-11.5 -68t-3 -42.5q0 -36 8 -68h-168q-3 12 -5.5 30.5t-2.5 36.5q0 27 6 68.5t18 99.5q-30 -47 -75 -78t-90 -31q-38 0 -60.5 27.5t-22.5 76.5zM183 146 q0 -16 5.5 -23t12.5 -7q21 0 45.5 41t43.5 101q5 20 10 44q-9 2 -15 2q-20 0 -38.5 -16.5t-33 -42t-22.5 -52t-8 -47.5z" />
<glyph horiz-adv-x="394" d="M205 12h-168q-3 14 -5.5 30t-2.5 33q0 19 3.5 46.5t8.5 57t10 53.5t9 36l4 104l184 7q-3 -17 -11.5 -51t-16.5 -76q22 51 53 89t72 38q18 0 33.5 -9t22.5 -20l-65 -132q-9 3 -22.5 5t-21.5 2q-29 0 -49.5 -22.5t-32 -57.5t-13.5 -74q1 -32 8 -59z" />
<glyph horiz-adv-x="416" d="M355 138q0 -40 -29 -70t-79.5 -46.5t-115.5 -16.5q-31 0 -71.5 4t-67.5 11l32 124q27 -15 65.5 -24t66.5 -9q34 0 34 7q0 14 -21.5 20t-53.5 20q-26 12 -46.5 31t-20.5 53q0 41 29.5 71.5t81.5 48t119 17.5q30 0 60.5 -3.5t54.5 -10.5l-33 -125q-31 17 -64 25t-51 8 q-13 0 -22.5 -1.5t-9.5 -7.5q0 -13 21 -20.5t40 -14.5q33 -12 57 -32t24 -59z" />
<glyph horiz-adv-x="366" d="M299 39q-28 -16 -65 -25t-78 -9q-61 0 -93.5 25.5t-32.5 73.5q0 24 9 70t30 134l-42 1l9 41l61 16l1 1l59 81l113 7q-6 -23 -11 -45l-10 -44h104l-19 -65l-100 3q-15 -63 -24 -109.5t-9 -62.5q0 -15 9 -18.5t22 -3.5q20 0 35.5 5.5t35.5 15.5z" />
<glyph horiz-adv-x="518" d="M51 267l4 104l184 7q-6 -50 -17.5 -102t-20.5 -91t-9 -53q0 -7 9 -7q8 0 23 12.5t31.5 44t27.5 86.5v0q4 15 5.5 30.5t1.5 32.5q0 13 -0.5 19.5t-2.5 20.5l184 7q-2 -17 -10 -54t-17 -82.5t-16 -89.5t-7 -75q0 -33 8 -65h-168q-4 19 -6.5 38.5t-2.5 49.5v9 q-29 -54 -74 -79t-88 -25q-72 0 -72 87q0 15 2.5 32.5t10 50t20.5 92.5z" />
<glyph horiz-adv-x="467" d="M56 136q0 68 -5 133t-15 103l172 7q5 -18 8 -40.5t3 -55.5q0 -52 -6 -107t-15 -105h3q43 75 66 155.5t23 145.5q23 4 42 5.5t33 1.5q34 0 57 -12.5t23 -51.5q0 -26 -15.5 -65t-47.5 -83t-80.5 -86.5t-115.5 -75.5l-135 7q2 23 3.5 54.5t1.5 69.5z" />
<glyph horiz-adv-x="709" d="M56 137q0 69 -5 132.5t-15 102.5l172 7q5 -18 8 -40.5t3 -55.5q0 -50 -6 -106t-15 -106h3q43 75 66 155.5t23 145.5l159 7q11 -36 11 -96q0 -47 -5.5 -104.5t-14.5 -107.5h2q42 74 66 155.5t23 145.5q23 4 42.5 5.5t32.5 1.5q35 0 58 -12.5t23 -51.5q0 -26 -15.5 -65 t-48 -83.5t-81 -86.5t-114.5 -75l-123 7q5 28 9 66t6 79.5t3 79.5q-15 -42 -37 -88t-48 -84.5t-52 -59.5l-135 7q2 23 3.5 55t1.5 70z" />
<glyph horiz-adv-x="455" d="M-16 60q0 20 19 43t54.5 41t84.5 24q-17 50 -39 102t-62 102l171 7q24 -32 39.5 -67.5t29.5 -72.5q8 22 14.5 55t5.5 70q14 7 34 11t37 4q35 0 55 -16t20 -40q0 -31 -42.5 -63t-116.5 -44q18 -50 40 -102t62 -102l-172 -7q-24 31 -39 66t-28 73q-9 -23 -15 -56t-5 -68 q-32 -15 -72 -15q-35 0 -55 16t-20 39z" />
<glyph horiz-adv-x="474" d="M291 24q-135 -152 -286 -152q-42 0 -68.5 15t-26.5 49q0 18 8.5 38.5t24.5 30.5q20 -6 48 -10t53 -4q45 0 87 10.5t55 30.5l-128 7q3 23 4.5 52t1.5 58q0 62 -5.5 124t-14.5 99l172 7q5 -16 7.5 -38t2.5 -54q0 -46 -6 -96t-15 -92h3q42 66 65.5 140t23.5 133q23 4 42 5.5 t33 1.5q35 0 58 -12.5t23 -49.5q0 -34 -22.5 -84t-59 -105t-80.5 -104z" />
<glyph horiz-adv-x="429" d="M8 5l-27 38q127 100 219 190q-22 5 -42.5 9.5t-38.5 4.5q-20 0 -38 -8t-30 -25l-22 8q6 62 22 96t39.5 47.5t49.5 13.5q27 0 55 -8t56 -16.5t53 -8.5q14 17 27 33q21 0 43.5 -10.5t22.5 -39.5q0 -27 -20.5 -52.5t-53.5 -49t-71.5 -43.5t-75.5 -35q21 -2 41.5 -7t46.5 -5 q33 0 62 11t42 30l23 -8q-14 -67 -36 -102.5t-51 -49t-64 -13.5q-45 0 -78 11t-67 11q-16 0 -38 -4.5t-49 -17.5z" />
<glyph horiz-adv-x="523" d="M88 469q0 43 19 90t56.5 88t92.5 66.5t128 25.5q43 0 88.5 -9.5t81.5 -24.5l-27 -128q-6 -28 -12.5 -64t-6.5 -70q0 -16 2 -34.5t6 -36.5h-168q-4 20 -6 36.5t-2 30.5q0 21 4 48q-29 -51 -77 -86.5t-96 -35.5q-38 0 -60.5 27.5t-22.5 76.5zM259 506q0 -16 5.5 -23 t12.5 -7q15 0 32 21t33 57t29 80q3 13 6 27q-9 3 -16 3q-20 0 -38.5 -16.5t-33 -42t-22.5 -52t-8 -47.5z" />
<glyph horiz-adv-x="513" d="M553 635q0 -43 -19 -90t-56 -88t-92.5 -66.5t-128.5 -25.5q-43 0 -89 10t-81 24l78 363l4 103l184 7q-3 -19 -12 -59t-21 -92.5t-24 -107.5q20 36 48.5 64.5t61 45t64.5 16.5q39 0 61 -28t22 -76zM364 628q-16 0 -35 -25t-36.5 -67.5t-29.5 -92.5q10 -3 17 -3 q21 0 39 16.5t32.5 42t22.5 52.5t8 47q0 30 -18 30z" />
<glyph horiz-adv-x="414" d="M417 491l-4 -92q-28 -16 -68 -25t-86 -9q-69 0 -116 33t-47 107q0 63 37 116t100.5 85.5t143.5 32.5q29 0 55 -4t48 -12l-38 -131q-23 33 -45 46.5t-39 13.5q-25 0 -46 -21t-33 -50.5t-12 -54.5q0 -30 13.5 -48t39.5 -18q20 0 46.5 8.5t50.5 22.5z" />
<glyph horiz-adv-x="528" d="M88 469q0 43 19 90t56.5 88t92.5 66.5t128 25.5h10q2 11 5 22l4 104l184 7q-3 -19 -13.5 -64.5t-23.5 -100.5l4 -2l-4 -2q-11 -47 -20.5 -95.5t-15.5 -92t-6 -73.5q0 -38 8 -70h-168q-2 11 -5 28t-3 43q0 9 1 19.5t3 25.5q-29 -52 -77 -87.5t-96 -35.5q-38 0 -60.5 27.5 t-22.5 76.5zM259 506q0 -16 5.5 -23t12.5 -7q15 0 32.5 22t34 59t29.5 82l4 22q-9 3 -16 3q-20 0 -38.5 -16.5t-33 -42t-22.5 -52t-8 -47.5z" />
<glyph horiz-adv-x="443" d="M446 491l-5 -92q-16 -8 -46.5 -16t-67 -13t-70.5 -5q-78 0 -120 35t-42 102q0 45 20 87.5t55 76t83 53.5t103 20q60 0 97 -25t37 -67q0 -37 -28.5 -67.5t-72.5 -48t-93 -17.5q-15 0 -30 2q2 -32 19 -44t45 -12q24 0 56.5 8t59.5 23zM331 664q-15 0 -28 -19.5t-22.5 -47 t-12.5 -53.5q34 16 56 47t22 56q0 17 -15 17z" />
<glyph horiz-adv-x="337" d="M393 638l-78 2l-50 -231q-9 -44 -33 -84t-72 -65.5t-131 -27.5l-25 55q37 16 55 37t25.5 44.5t12.5 45.5l50 231l-42 1l8 42l48 15v2q-1 2 -4 14t-3 29q0 41 22 68.5t58.5 41.5t80.5 14q41 0 79 -10.5t59 -21.5l-36 -99q-15 17 -34 27t-39 10q-23 0 -37 -13t-14 -28 q0 -18 13 -34h106z" />
<glyph horiz-adv-x="477" d="M463 338q0 -54 -64 -80t-171 -26q-192 0 -192 80q0 24 21 41.5t56 25.5l10 -8q1 -45 32 -72q33 -30 81 -30q23 0 37 7t14 16q0 13 -16.5 21t-41 15.5t-49 17t-41 24t-16.5 38.5q0 34 38.5 60t105.5 27v3q-79 0 -122 27.5t-43 78.5q0 35 24.5 66t76.5 50t136 19 q42 0 73 0.5t60 2t62 5.5q24 -19 24 -48q0 -19 -12.5 -33.5t-33.5 -14.5q-22 0 -45.5 17t-65.5 33l-1 -4q26 -11 50 -24t39 -31.5t15 -44.5t-17.5 -45.5t-46 -32t-61.5 -17.5q-10 -1 -30.5 -5.5t-38 -12t-17.5 -17.5t17 -17t42.5 -14.5t51 -19.5t42.5 -30.5t17 -47.5z M267 576q0 -32 21 -32q18 0 29 17.5t16.5 41t5.5 39.5q0 29 -21 29q-19 0 -30 -17.5t-16 -40t-5 -37.5z" />
<glyph horiz-adv-x="522" d="M519 372h-168q-8 37 -8 72q0 12 4.5 35t10 49t10 47t4.5 30q0 5 -3 9.5t-11 4.5q-23 0 -47 -36.5t-33 -92.5q-4 -32 -4 -53q0 -14 2 -32.5t6 -32.5h-168q-3 11 -5.5 31t-2.5 31q0 20 4 50t10 63.5t12 63t10 48.5l23 102l4 104l184 7q-3 -19 -12 -59t-20.5 -91.5 t-21.5 -104.5q26 52 70.5 87t97.5 35q38 0 60 -20t22 -55q0 -15 -5.5 -43t-13.5 -62t-13.5 -66.5t-5.5 -56.5q0 -14 2 -32t6 -32z" />
<glyph horiz-adv-x="289" d="M359 856q0 -23 -16.5 -44t-43.5 -33.5t-58 -12.5q-30 0 -49.5 13t-19.5 38q0 23 16.5 44t44 34.5t59.5 13.5q30 0 48.5 -13.5t18.5 -39.5zM324 738q-2 -17 -10 -54t-17.5 -82.5t-16.5 -89.5t-7 -75q0 -13 2 -31t6 -34h-168q-4 21 -6 41t-2 41q0 13 2 26t5 28l24 120 l4 103z" />
<glyph horiz-adv-x="282" d="M359 856q0 -23 -16.5 -44t-43.5 -33.5t-58 -12.5q-30 0 -50 13t-20 38q0 23 17 44t44.5 34.5t59.5 13.5q29 0 48 -13.5t19 -39.5zM324 738q-1 -2 -2.5 -7t-5 -21.5t-11 -51t-19.5 -95t-30 -154.5q-16 -80 -71 -127t-164 -50l-25 55q37 16 55 37t25.5 45t12.5 46l47 212 l4 104z" />
<glyph horiz-adv-x="534" d="M282 372h-168q-4 16 -6 33.5t-2 28.5q0 25 5.5 66t14 85t15.5 75l24 101l4 104l184 7q-3 -19 -13 -61.5t-22 -96.5t-23 -109h5q23 33 55 63.5t70.5 50.5t78.5 20q36 0 56 -17.5t20 -48.5q0 -34 -29.5 -68.5t-92.5 -73.5q15 -38 37 -77.5t52 -81.5l-185 -7 q-19 27 -35.5 59.5t-23.5 68.5q58 44 81 72.5t23 45.5q0 21 -22 21q-17 0 -36 -16.5t-35.5 -44t-27.5 -61.5t-12 -69v-2q0 -14 2 -31.5t6 -35.5z" />
<glyph horiz-adv-x="289" d="M353 872q-3 -18 -12 -56.5t-20 -88.5t-22 -103t-18 -101.5t-7 -83.5q0 -14 2 -31.5t6 -35.5h-168q-3 14 -5.5 30.5t-2.5 32.5q0 25 5.5 66t14 84.5t15.5 74.5l24 101l4 104z" />
<glyph horiz-adv-x="735" d="M281 372h-168q-3 14 -5.5 30t-2.5 33q0 19 3.5 46.5t8.5 57t10 53.5t9 36l4 104l184 7q-3 -17 -11 -50t-17 -74q24 54 69 89t94 35q37 0 60 -23.5t17 -72.5q26 43 66.5 69.5t81.5 26.5q42 0 64.5 -28.5t11.5 -78.5q-15 -73 -25.5 -119.5t-10.5 -76.5t8 -64h-168 q-3 13 -5.5 28t-2.5 31q0 9 2 21.5t8 43.5t18 92q2 6 2 18.5t-9 12.5q-13 0 -33 -27.5t-33 -69.5q-5 -27 -8.5 -48t-3.5 -38q0 -15 2 -32.5t5 -31.5h-168q-3 14 -5 28.5t-2 30.5q0 11 5.5 45t21.5 111q2 7 2.5 19.5t-9.5 12.5q-12 0 -30 -23t-32 -62t-16 -86v-9q0 -19 2 -36 t6 -31z" />
<glyph horiz-adv-x="514" d="M545 590q0 -60 -35.5 -111.5t-97 -83t-139.5 -31.5q-76 0 -126 36.5t-50 110.5q0 60 36 112t97.5 84.5t139.5 32.5q82 0 128.5 -39.5t46.5 -110.5zM269 491q0 -51 27 -51q19 0 33.5 18.5t24 46.5t14 58t4.5 53q0 26 -6.5 37t-20.5 11q-19 0 -33 -17.5t-23.5 -44.5 t-14.5 -57t-5 -54z" />
<glyph horiz-adv-x="513" d="M324 739q-3 -16 -10.5 -49t-17.5 -75q30 53 78.5 88.5t95.5 35.5q38 0 60.5 -27.5t22.5 -76.5q0 -43 -19 -90t-56.5 -88t-92.5 -66.5t-128 -25.5h-8q-4 -33 -4 -56q0 -20 2 -37t6 -33h-168q-3 13 -5.5 31t-2.5 35q0 22 9 80t28 141l23 102l3 104zM364 628 q-16 0 -35.5 -24.5t-37 -66.5t-29.5 -94q11 -3 18 -3q21 0 39 16.5t32.5 42t22.5 52.5t8 47q0 17 -5 23.5t-13 6.5zM262 443v4l-1 -4h1z" />
<glyph horiz-adv-x="511" d="M88 469q0 43 19 90t56.5 88t92.5 66.5t128 25.5q43 0 88.5 -9.5t81.5 -24.5q-22 -106 -36.5 -175.5t-23 -112t-11.5 -68t-3 -42.5q0 -36 8 -68h-168q-3 12 -5.5 30.5t-2.5 36.5q0 27 6 68.5t18 99.5q-30 -47 -75 -78t-90 -31q-38 0 -60.5 27.5t-22.5 76.5zM259 506 q0 -16 5.5 -23t12.5 -7q21 0 45.5 41t43.5 101q5 20 10 44q-9 2 -15 2q-20 0 -38.5 -16.5t-33 -42t-22.5 -52t-8 -47.5z" />
<glyph horiz-adv-x="393" d="M281 372h-168q-3 14 -5.5 30t-2.5 33q0 19 3.5 46.5t8.5 57t10 53.5t9 36l4 104l184 7q-3 -17 -11.5 -51t-16.5 -76q22 51 53 89t72 38q18 0 33.5 -9t22.5 -20l-65 -132q-9 3 -22.5 5t-21.5 2q-29 0 -49.5 -22.5t-32 -57.5t-13.5 -74q1 -32 8 -59z" />
<glyph horiz-adv-x="417" d="M432 498q0 -40 -29 -70t-79.5 -46.5t-115.5 -16.5q-31 0 -71.5 4t-67.5 11l32 124q27 -15 65.5 -24t66.5 -9q34 0 34 7q0 14 -21.5 20t-53.5 20q-26 12 -46.5 31t-20.5 53q0 41 29.5 71.5t81.5 48t119 17.5q30 0 60.5 -3.5t54.5 -10.5l-33 -125q-31 17 -64 25t-51 8 q-13 0 -22.5 -1.5t-9.5 -7.5q0 -13 21 -20.5t40 -14.5q33 -12 57 -32t24 -59z" />
<glyph horiz-adv-x="365" d="M375 399q-28 -16 -65 -25t-78 -9q-61 0 -93.5 25.5t-32.5 73.5q0 24 9 70t30 134l-42 1l9 41l61 16l1 1l59 81l113 7q-6 -23 -11 -45l-10 -44h104l-19 -65l-100 3q-15 -63 -24 -109.5t-9 -62.5q0 -15 9 -18.5t22 -3.5q20 0 35.5 5.5t35.5 15.5z" />
<glyph horiz-adv-x="517" d="M505 372h-168q-4 19 -6.5 38.5t-2.5 49.5v9q-29 -54 -74 -79t-88 -25q-72 0 -72 87q0 15 2.5 32.5t10 50t20.5 92.5l4 104l184 7q-6 -50 -17.5 -102t-20.5 -91t-9 -53q0 -7 9 -7q8 0 23 12.5t31.5 44t27.5 86.5v0q4 15 5.5 30.5t1.5 32.5q0 13 -0.5 19.5t-2.5 20.5l184 7 q-2 -17 -10 -54t-17 -82.5t-16 -89.5t-7 -75q0 -33 8 -65z" />
<glyph horiz-adv-x="466" d="M132 496q0 68 -5 133t-15 103l172 7q5 -18 8 -40.5t3 -55.5q0 -52 -6 -107t-15 -105h3q43 75 66 155.5t23 145.5q23 4 42 5.5t33 1.5q34 0 57 -12.5t23 -51.5q0 -26 -15.5 -65t-47.5 -83t-80.5 -86.5t-115.5 -75.5l-135 7q2 23 3.5 54.5t1.5 69.5z" />
<glyph horiz-adv-x="708" d="M132 497q0 69 -5 132.5t-15 102.5l172 7q5 -18 8 -40.5t3 -55.5q0 -50 -6 -106t-15 -106h3q43 75 66 155.5t23 145.5l159 7q11 -36 11 -96q0 -47 -5.5 -104.5t-14.5 -107.5h2q42 74 66 155.5t23 145.5q23 4 42.5 5.5t32.5 1.5q35 0 58 -12.5t23 -51.5q0 -26 -15.5 -65 t-48 -83.5t-81 -86.5t-114.5 -75l-123 7q5 28 9 66t6 79.5t3 79.5q-15 -42 -37 -88t-48 -84.5t-52 -59.5l-135 7q2 23 3.5 55t1.5 70z" />
<glyph horiz-adv-x="454" d="M60 420q0 20 19 43t54.5 41t84.5 24q-17 50 -39 102t-62 102l171 7q24 -32 39.5 -67.5t29.5 -72.5q8 22 14.5 55t5.5 70q14 7 34 11t37 4q35 0 55 -16t20 -40q0 -31 -42.5 -63t-116.5 -44q18 -50 40 -102t62 -102l-172 -7q-24 31 -39 66t-28 73q-9 -23 -15 -56t-5 -68 q-32 -15 -72 -15q-35 0 -55 16t-20 39z" />
<glyph horiz-adv-x="475" d="M368 384q-135 -152 -286 -152q-42 0 -68.5 15t-26.5 49q0 18 8.5 38.5t24.5 30.5q20 -6 48 -10t53 -4q45 0 87 10.5t55 30.5l-128 7q3 23 4.5 52t1.5 58q0 62 -5.5 124t-14.5 99l172 7q5 -16 7.5 -38t2.5 -54q0 -46 -6 -96t-15 -92h3q42 66 65.5 140t23.5 133 q23 4 42 5.5t33 1.5q35 0 58 -12.5t23 -49.5q0 -34 -22.5 -84t-59 -105t-80.5 -104z" />
<glyph horiz-adv-x="429" d="M85 365l-27 38q127 100 219 190q-22 5 -42.5 9.5t-38.5 4.5q-20 0 -38 -8t-30 -25l-22 8q6 62 22 96t39.5 47.5t49.5 13.5q27 0 55 -8t56 -16.5t53 -8.5q14 17 27 33q21 0 43.5 -10.5t22.5 -39.5q0 -27 -20.5 -52.5t-53.5 -49t-71.5 -43.5t-75.5 -35q21 -2 41.5 -7 t46.5 -5q33 0 62 11t42 30l23 -8q-14 -67 -36 -102.5t-51 -49t-64 -13.5q-45 0 -78 11t-67 11q-16 0 -38 -4.5t-49 -17.5z" />
<glyph horiz-adv-x="1100" d="M422 160l-8 -115q-38 -26 -89 -40.5t-104 -14.5q-88 0 -144 44.5t-56 140.5q0 67 27 127t76 107t114 74t141 27q25 0 49 -3q-7 19 -7 39q0 47 38 84.5t101.5 59.5t138.5 22q29 0 66.5 -4t69.5 -13q-5 -38 -17 -96.5t-27 -127.5t-30 -139q23 52 56.5 92t73 63t82.5 23 q44 0 72.5 -24.5t28.5 -76.5q0 -22 -8.5 -62.5t-19 -89t-19 -96t-8.5 -85.5q0 -15 2 -35t6 -41h-210q-5 29 -6.5 45.5t-1.5 44.5q0 21 6.5 56.5t14.5 74t14.5 70t6.5 44.5q0 11 -4 18t-14 7q-25 0 -53 -46t-44 -116q-6 -36 -9.5 -67.5t-3.5 -54.5q0 -14 2 -34.5t6 -41.5 h-210q-3 14 -5.5 36t-2.5 40q0 26 5.5 67.5t14 87.5t17 88t14.5 70l33 155l1 24q-6 1 -13 1q-34 0 -58.5 -14t-24.5 -42q0 -15 6 -27l-52 -165q-26 41 -53 60t-50 19q-24 0 -45.5 -19t-37.5 -49t-25 -64t-9 -64q0 -41 15 -67.5t49 -26.5q26 0 58.5 14t63.5 36z" />
<glyph horiz-adv-x="904" d="M422 160l-8 -115q-38 -26 -89 -40.5t-104 -14.5q-88 0 -144 44.5t-56 140.5q0 67 27.5 127t76 107t111.5 74t135 27q23 0 50 -6q-3 10 -3 24q0 47 30.5 89t85 68.5t127.5 26.5q75 0 119.5 -29t44.5 -79q0 -37 -18 -67t-37 -47h157l-26 -83l-120 3q-24 -108 -37.5 -172 t-13.5 -84q0 -19 11 -25.5t27 -6.5q25 0 44.5 10.5t45.5 27.5l-8 -115q-74 -55 -180 -55q-73 0 -113.5 31.5t-40.5 95.5q0 23 5.5 57.5t18 92t31.5 149.5l-53 1l12 53l79 20q5 7 10 24t5 33q0 51 -52 51q-36 0 -59 -24.5t-23 -56.5q0 -10 3 -22.5t10 -24.5l-47 -149 q-26 41 -53 60t-50 19q-24 0 -45.5 -19t-37.5 -49t-25 -65t-9 -67q0 -38 15 -64t49 -26q26 0 58.5 14t63.5 36z" />
<glyph horiz-adv-x="1103" d="M441 173q0 -55 -37 -96.5t-101 -64t-146 -22.5q-27 0 -59 2.5t-62 7.5t-52 11l44 157q24 -14 53.5 -24t59 -15.5t51.5 -5.5q43 0 43 22q0 15 -13 23.5t-34 17t-46 21.5q-34 18 -57.5 44t-23.5 71q0 55 37.5 97.5t103.5 66.5t150 24q32 0 65 -4q-8 20 -8 40q0 47 39 84.5 t103.5 59.5t141.5 22q30 0 69 -4t73 -13v0h3q-5 -38 -17 -96.5t-27 -127.5t-30 -139q23 52 56.5 92t73 63t82.5 23q44 0 72.5 -24.5t28.5 -76.5q0 -22 -8.5 -62.5t-19 -89t-19 -96t-8.5 -85.5q0 -15 2 -35t6 -41h-210q-5 29 -6.5 45.5t-1.5 44.5q0 21 6.5 56.5t14.5 74 t14.5 70t6.5 44.5q0 11 -4 18t-14 7q-25 0 -53 -46t-44 -116q-6 -36 -9.5 -67.5t-3.5 -54.5q0 -14 2 -34.5t6 -41.5h-210q-3 14 -5.5 36t-2.5 40q0 26 5.5 67.5t14 87.5t17 88t14.5 70l33 155l1 24q-10 1 -22 1q-37 0 -63.5 -12.5t-26.5 -38.5q0 -15 6 -27l-44 -158 q-39 21 -79.5 32.5t-63.5 11.5q-17 0 -28.5 -6t-11.5 -19t12 -22.5t30 -17t34 -15.5q38 -17 67.5 -44t29.5 -80z" />
<glyph horiz-adv-x="458" d="M411 217q0 -58 -29.5 -109t-84.5 -82t-130 -31q-73 0 -112 36t-39 105q0 59 30.5 111t85.5 84t129 32q72 0 111 -37.5t39 -108.5zM164 105q0 -38 24 -38q18 0 31.5 20t23.5 50.5t15 62t5 55.5q0 20 -5 28t-17 8q-19 0 -33 -20.5t-24 -51.5t-15 -62t-5 -52z" />
<glyph horiz-adv-x="369" d="M208 0h-140l61 275l-66 -23l-6 60l220 51l7 -7z" />
<glyph horiz-adv-x="452" d="M307 0h-287l4 79q23 8 55.5 28t64.5 45.5t53.5 51t21.5 43.5q0 13 -13 20t-35 7t-48.5 -9.5t-46.5 -25.5l5 94q26 11 68 20.5t86 9.5q62 0 97 -22.5t35 -61.5q0 -37 -33 -70t-85 -58.5t-107 -41.5h62q30 0 64.5 2.5t65.5 6.5z" />
<glyph horiz-adv-x="419" d="M316 106q0 -35 -29 -60t-74.5 -38t-97.5 -13q-28 0 -56.5 3t-50.5 9l24 75q11 -6 29.5 -10.5t36.5 -4.5q33 0 52 14.5t19 30.5q0 18 -18.5 25t-39.5 7q-10 0 -21.5 -1t-18.5 -2l8 43q47 13 83.5 32t36.5 38q0 9 -12 14.5t-32 5.5q-17 0 -40 -5t-43 -13l10 80 q26 11 64.5 19t75.5 8q58 0 90 -20.5t32 -53.5q0 -38 -41 -63t-98 -36q47 -4 79 -23.5t32 -60.5z" />
<glyph horiz-adv-x="494" d="M308 0h-140l10 44h-165l5 57l267 262l99 -5l-44 -208q27 2 53 5l-26 -111h-50zM224 247l-125 -100h102z" />
<glyph horiz-adv-x="449" d="M348 124q0 -43 -30.5 -71.5t-80 -43t-107.5 -14.5q-25 0 -55 2.5t-54 9.5l23 72q15 -5 40 -8.5t39 -3.5q36 0 57.5 15t21.5 35q0 17 -15 25t-37 8q-16 0 -35.5 -4t-35.5 -6l-8 5l44 213h156q28 0 59 1t60 4l-26 -115h-201l-14 -52q19 5 41.5 8.5t45.5 3.5 q53 0 82.5 -20.5t29.5 -63.5z" />
<glyph horiz-adv-x="448" d="M370 144q0 -40 -26.5 -74t-72.5 -54.5t-105 -20.5q-73 0 -113 34t-40 97q0 49 23.5 92t64.5 75.5t95.5 51t117.5 18.5q17 0 36.5 -1.5t26.5 -3.5l-23 -73q-8 2 -19.5 4t-22.5 2q-33 0 -69.5 -21.5t-59.5 -68.5q40 26 94 26q44 0 68.5 -22.5t24.5 -60.5zM161 109 q0 -16 5.5 -29t18.5 -13q17 0 29.5 18.5t12.5 42.5q0 42 -42 42q-3 0 -6.5 -0.5t-8.5 -1.5q-5 -19 -7 -34.5t-2 -24.5z" />
<glyph horiz-adv-x="438" d="M197 0h-157q21 68 83 135t161 113h-89q-34 0 -67.5 -2t-62.5 -6l27 118h295l6 -7l-7 -67q-79 -67 -124 -134t-65 -150z" />
<glyph horiz-adv-x="433" d="M-2 72q0 30 34.5 54.5t89.5 35.5q-70 37 -70 87q0 33 26 58.5t70.5 40.5t99.5 15q65 0 103 -21t38 -57q0 -31 -30 -52t-74 -30q83 -34 83 -89q0 -33 -28.5 -60t-77 -43t-109.5 -16q-70 0 -112.5 21t-42.5 56zM189 272q0 -12 11 -22.5t28 -20.5q26 23 26 46t-27 23 q-13 0 -25.5 -6.5t-12.5 -19.5zM137 87q0 -10 10 -18.5t31 -8.5q20 0 36 8t16 25q0 16 -14 25t-43 17q-36 -24 -36 -48z" />
<glyph horiz-adv-x="447" d="M47 210q0 43 26.5 77.5t72.5 55t104 20.5q74 0 114 -34t40 -97q0 -49 -23.5 -92t-64.5 -75.5t-95.5 -51t-117.5 -18.5q-17 0 -36.5 1.5t-26.5 3.5l23 73q8 -2 20 -4t22 -2q33 0 70 18.5t60 60.5q-18 -12 -41.5 -19.5t-48.5 -7.5q-47 0 -72.5 25.5t-25.5 65.5zM256 251 q0 14 -5 27t-18 13q-16 0 -29 -22t-13 -51q0 -42 42 -42q2 0 5.5 0.5t7.5 1.5q4 17 7 39t3 34z" />
<glyph horiz-adv-x="657" d="M648 421q0 -81 -27 -157.5t-78 -138.5t-122.5 -98.5t-159.5 -36.5q-64 0 -114 23.5t-78.5 75.5t-28.5 135q0 81 28 158.5t79 140t122.5 100t158.5 37.5q104 0 162 -60t58 -179zM260 183q0 -83 38 -83q23 0 43 26.5t36 69t27.5 92.5t17.5 98.5t6 85.5q0 78 -35 78 q-24 0 -45 -26.5t-37 -69.5t-27.5 -92.5t-17.5 -97t-6 -81.5z" />
<glyph horiz-adv-x="440" d="M282 0h-210l111 525l-104 -45l-5 93l336 87l10 -10z" />
<glyph horiz-adv-x="573" d="M441 0h-439l10 118q29 19 69 50t82.5 69.5t79.5 79.5t59.5 80t22.5 70q0 26 -18.5 42t-54.5 16q-33 0 -73.5 -16.5t-75.5 -45.5l13 142q41 20 105.5 37.5t131.5 17.5q94 0 145.5 -38.5t51.5 -104.5q0 -56 -34 -107.5t-91 -97t-125.5 -83t-138.5 -65.5h126q104 0 201 15z " />
<glyph horiz-adv-x="520" d="M456 200q0 -49 -26 -87.5t-70 -66t-100 -42t-117 -14.5q-40 0 -85 6t-78 17l40 114q18 -11 47 -19t54 -8q35 0 61 15.5t40 39.5t14 49q0 38 -28 53t-61 15q-13 0 -31 -2t-30 -4l15 67q50 16 93 39t70 50.5t27 56.5q0 22 -18.5 34t-49.5 12q-28 0 -63 -9.5t-66 -25.5 l19 121q38 19 96.5 34t119.5 15q89 0 135.5 -34.5t46.5 -90.5q0 -49 -32.5 -86.5t-86 -63.5t-114.5 -42q51 -3 91 -19.5t63.5 -46.5t23.5 -77z" />
<glyph horiz-adv-x="633" d="M436 0h-210l21 97h-256l10 86l425 477l148 -10l-84 -394q23 2 44.5 4.5t41.5 5.5l-45 -169h-74zM328 479l-211 -228h162z" />
<glyph horiz-adv-x="564" d="M506 234q0 -58 -27.5 -103.5t-75 -77t-109 -47.5t-129.5 -16q-40 0 -85 6t-80 17l39 110q15 -6 37 -11.5t44.5 -8.5t38.5 -3q59 0 93 36t34 82q0 37 -22 53.5t-57 16.5q-25 0 -55 -6.5t-54 -11.5l-12 9l79 371h238q46 0 92.5 2.5t89.5 7.5l-46 -174h-308l-27 -129 q30 9 65 15t70 6q80 0 123.5 -36t43.5 -108z" />
<glyph horiz-adv-x="602" d="M580 263q0 -54 -24 -103t-67.5 -87.5t-101.5 -60.5t-127 -22q-62 0 -113.5 22t-81.5 70.5t-30 127.5q0 87 37 167.5t102 144.5t150 101t181 37q27 0 58.5 -2.5t41.5 -7.5l-39 -111q-13 5 -31.5 8t-33.5 3q-36 0 -74.5 -21t-73.5 -66.5t-61 -118.5q29 30 68.5 45.5 t81.5 15.5q67 0 102.5 -38.5t35.5 -103.5zM255 154q0 -31 7.5 -42.5t22.5 -11.5q27 0 44.5 24t26.5 59t9 68q0 29 -8 47t-28 18q-10 0 -24.5 -4.5t-25.5 -11.5q-15 -52 -19.5 -89t-4.5 -57z" />
<glyph horiz-adv-x="547" d="M264 0h-235q25 88 79 178t135 170t186 138h-146q-103 0 -201 -15l47 179h450l10 -10l-15 -100q-124 -120 -199.5 -253t-110.5 -287z" />
<glyph horiz-adv-x="626" d="M11 125q0 39 25.5 73t71 60.5t104.5 40.5q-48 30 -77.5 68.5t-29.5 87.5q0 58 40.5 104.5t110 73.5t154.5 27q96 0 153 -35.5t57 -97.5q0 -60 -50 -102t-126 -62q72 -32 102.5 -75t30.5 -87q0 -58 -44.5 -106t-120.5 -76.5t-170 -28.5q-107 0 -169 37t-62 98zM311 492 q0 -45 57 -87q25 26 36.5 53t11.5 52q0 24 -11 37t-30 13q-23 0 -43.5 -18t-20.5 -50zM221 149q0 -24 15 -41.5t48 -17.5q32 0 58.5 20t26.5 57q0 31 -21 50.5t-62 38.5q-32 -25 -48.5 -53t-16.5 -54z" />
<glyph horiz-adv-x="601" d="M598 441q0 -87 -37.5 -168t-104 -145t-153.5 -101t-187 -37q-26 0 -49 3t-34 7l38 111q14 -4 32.5 -7.5t33.5 -3.5q52 0 108 42t92 136q-29 -25 -66 -39t-75 -14q-61 0 -102 40t-41 116q0 58 25 108.5t69.5 89t103 60t124.5 21.5q63 0 113.5 -22t80 -70t29.5 -127z M268 386q0 -32 9.5 -52t31.5 -20q12 0 24 5.5t22 13.5q15 53 19 94.5t4 60.5q0 35 -7.5 48.5t-22.5 13.5q-19 0 -34 -16t-25.5 -41.5t-15.5 -54t-5 -52.5z" />
<glyph horiz-adv-x="458" d="M473 509q0 -58 -29.5 -109t-84.5 -82t-130 -31q-73 0 -112 36t-39 105q0 59 30.5 111t85.5 84t129 32q72 0 111 -37.5t39 -108.5zM226 397q0 -38 24 -38q18 0 31.5 20t23.5 50.5t15 62t5 55.5q0 20 -5 28t-17 8q-19 0 -33 -20.5t-24 -51.5t-15 -62t-5 -52z" />
<glyph horiz-adv-x="369" d="M270 292h-140l61 275l-66 -23l-6 60l220 51l7 -7z" />
<glyph horiz-adv-x="452" d="M369 292h-287l4 79q23 8 55.5 28t64.5 45.5t53.5 51t21.5 43.5q0 13 -13 20t-35 7t-48.5 -9.5t-46.5 -25.5l5 94q26 11 68 20.5t86 9.5q62 0 97 -22.5t35 -61.5q0 -37 -33 -70t-85 -58.5t-107 -41.5h62q30 0 64.5 2.5t65.5 6.5z" />
<glyph horiz-adv-x="419" d="M378 398q0 -35 -29 -60t-74.5 -38t-97.5 -13q-28 0 -56.5 3t-50.5 9l24 75q11 -6 29.5 -10.5t36.5 -4.5q33 0 52 14.5t19 30.5q0 18 -18.5 25t-39.5 7q-10 0 -21.5 -1t-18.5 -2l8 43q47 13 83.5 32t36.5 38q0 9 -12 14.5t-32 5.5q-17 0 -40 -5t-43 -13l10 80 q26 11 64.5 19t75.5 8q58 0 90 -20.5t32 -53.5q0 -38 -41 -63t-98 -36q47 -4 79 -23.5t32 -60.5z" />
</font>
</defs>
</svg>
