<?xml version="1.0" standalone="no"?>
<!DOCTYPE svg PUBLIC "-//W3C//DTD SVG 1.1//EN" "http://www.w3.org/Graphics/SVG/1.1/DTD/svg11.dtd" >
<svg xmlns="http://www.w3.org/2000/svg" xmlns:xlink="http://www.w3.org/1999/xlink" version="1.1">
<metadata></metadata>
<defs>
<font id="indivisa_display_sansregular" horiz-adv-x="610" >
<font-face units-per-em="1000" ascent="800" descent="-200" />
<missing-glyph horiz-adv-x="205" />
<glyph unicode="&#x2f;symbol&#x31;&#x2f;" horiz-adv-x="5534" d="M1865 412q-25 0 -40.5 14.5t-15.5 37.5q0 24 15.5 45t39 34.5t48.5 13.5q24 0 39 -13.5t15 -37.5t-14.5 -45.5t-37.5 -35t-49 -13.5zM1284 412q-26 0 -41.5 14.5t-15.5 37.5q0 24 15.5 45t39.5 34.5t49 13.5q24 0 38.5 -13.5t14.5 -37.5t-14.5 -45.5t-37 -35t-48.5 -13.5 zM959 0q0 21 2.5 46.5t8.5 61.5q-16 -49 -51 -82t-79 -33q-41 0 -63 30t-22 82q0 45 15.5 91t46.5 85.5t76.5 63.5t104.5 24h12.5t12.5 -1l16 73l6 102l136 7q0 -40 -9.5 -95t-23 -116.5t-27 -123.5t-23 -117.5t-9.5 -97.5h-130zM100 0l78 364q8 38 13.5 72.5t7.5 63.5 l128 7l11 -15l-104 -492h-134zM3503 492l-57 -492h-131l20 175q3 30 9 69t12.5 78t11.5 68h-3q-16 -53 -37 -107.5t-44 -107.5l-76 -175h-149l-2 175q-1 56 1 109t8 106h-2q-15 -61 -30 -115.5t-29 -99.5l-53 -175h-109l154 500l184 6l1 -137q1 -50 -2.5 -121.5 t-12.5 -137.5h2q20 65 36 111t30.5 81t27.5 67l56 131l169 7zM5316 300q-15 -74 -23 -110.5t-11 -51t-3 -21.5q0 -34 36 -34q13 0 28 5t31 13l-9 -79q-20 -11 -50 -20t-64 -9q-50 0 -77.5 25t-27.5 75q0 11 1.5 23.5t6 33.5t12.5 57.5t20 95.5l-47 1l9 44l54 14l53 95l81 6 l13 -15l-20 -86h99l6 -14l-17 -51zM336 0q0 28 4 62t13 82t24 116l6 102l137 7q0 -18 -2 -41t-5 -48h2q29 49 65.5 69t68.5 20q35 0 53.5 -19.5t18.5 -51.5q0 -23 -8 -62.5t-18 -84.5q-7 -33 -11 -57t-5.5 -45.5t-1.5 -48.5h-131q0 38 4.5 69.5t14.5 80.5q7 35 11 55.5 t4 31.5q0 24 -17 24t-34 -22.5t-30.5 -60.5t-22 -84t-9.5 -94h-131zM1170 0q0 39 7 87.5t20 105.5l14 67l6 102l137 7q0 -36 -8 -81.5t-19 -95.5t-19 -99t-8 -93h-130zM1399 362l140 7q6 -59 4.5 -137.5t-9.5 -151.5h2q23 45 42 95t32 99t17 90q17 4 28.5 4.5t21.5 0.5 q28 0 46.5 -7t18.5 -35q0 -22 -13.5 -60.5t-36.5 -85t-53.5 -94t-63.5 -87.5h-149q-2 111 -9.5 207.5t-17.5 154.5zM1752 0q0 39 7 87.5t19 105.5l15 67l6 102l137 7q0 -36 -8 -81.5t-19 -95.5t-19 -99t-8 -93h-130zM4716 0q0 28 4 62t13 82t24 116l6 102l137 7 q0 -18 -2.5 -41t-4.5 -48h2q29 49 65 69t69 20q35 0 53.5 -19.5t18.5 -51.5q0 -23 -8 -62.5t-18 -84.5q-7 -33 -11 -57t-6 -45.5t-2 -48.5h-130q0 38 4.5 69.5t14.5 80.5q7 35 11 55.5t4 31.5q0 24 -17 24q-18 0 -34.5 -22.5t-30.5 -60.5t-22.5 -84t-9.5 -94h-130zM2245 256 q-25 14 -51.5 22t-45.5 8q-17 0 -29.5 -7t-12.5 -19q0 -13 13 -22t32 -17.5t38 -20.5t32 -30.5t13 -47.5q0 -39 -25 -68t-66.5 -45t-89.5 -16q-33 0 -66.5 7.5t-51.5 20.5l27 93q27 -18 58.5 -28t52.5 -10q20 0 30 8t10 18q0 13 -13 22t-32 18t-38 21t-32 30t-13 46 q0 39 25.5 68t67.5 45.5t90 16.5q20 0 48.5 -3.5t55.5 -14.5zM2525 369q32 0 73.5 -7.5t72.5 -24.5l-29 -128q-20 -94 -25.5 -140.5t-5.5 -68.5h-130q0 20 2.5 45t9.5 67q-15 -50 -50.5 -84.5t-81.5 -34.5q-41 0 -62.5 30t-21.5 83q0 44 15.5 90.5t46.5 85.5t77.5 63 t108.5 24zM4653 51q-32 -28 -74 -43t-85 -15q-62 0 -102 33.5t-40 103.5q0 46 17.5 88.5t49.5 76.5t75 54t94 20q53 0 86 -23t33 -65q0 -56 -59 -95.5t-162 -44.5v-1q0 -29 15 -46.5t48 -17.5q22 0 45 7.5t45 20.5zM3936 0q0 28 4 62t13.5 82t24.5 116l5 102l137 7 q0 -18 -2 -41t-5 -48h2q29 49 65.5 69t68.5 20q35 0 53.5 -19.5t18.5 -51.5q0 -23 -8 -62.5t-18 -84.5q-7 -33 -11 -57t-5.5 -45.5t-1.5 -48.5h-131q0 38 4.5 69.5t14.5 80.5q8 35 11.5 55.5t3.5 31.5q0 24 -17 24t-34 -22.5t-30.5 -60.5t-22 -84t-9.5 -94h-131zM3768 369 q32 0 73 -7.5t72 -24.5l-28 -128q-20 -94 -25.5 -140.5t-5.5 -68.5h-130q0 20 2.5 45t9.5 67q-15 -50 -50.5 -84.5t-81.5 -34.5q-41 0 -63 30t-22 83q0 44 15.5 90.5t47 85.5t78 63t108.5 24zM4490 177q46 10 72.5 33.5t26.5 59.5q0 17 -5.5 24t-16.5 7q-20 0 -36 -20 t-26 -48.5t-15 -55.5zM3677 101q17 0 33 21t30 54t22 69q2 11 4.5 22t4.5 22q-16 8 -27 8q-18 0 -34.5 -16t-29 -40.5t-20 -51.5t-7.5 -48q0 -40 24 -40zM913 101q16 0 31 19.5t28.5 50t22.5 64.5l4 20l4 20l3 14q-14 8 -27 8q-18 0 -34 -16t-28.5 -40.5t-20 -51.5t-7.5 -48 q0 -40 24 -40zM2435 101q16 0 32.5 21t30 54t21.5 69q2 11 4.5 22t4.5 22q-14 8 -27 8q-18 0 -34 -16t-29 -40.5t-20 -51.5t-7 -48q0 -40 24 -40z" />
<glyph unicode="&#x2f;symbol&#x32;&#x2f;" horiz-adv-x="932" d="M494 570l52 -90l-137 -240h-103l137 240l-52 90h103zM357 570l52 -90l-138 -240h-103l138 240l-52 90h103zM752 120h-103l-137 240l51 90l137 -240h103zM683 0h-103l-137 240l51 90l138 -240h103zM100 120l51 90h275l51 -90h-274l-52 -90zM168 0l52 90h274l52 -90h-275 l-51 -90zM789 88q18 0 30.5 -13t12.5 -31t-12.5 -31t-30.5 -13t-30.5 13t-12.5 31t12.5 31t30.5 13zM829 44q0 17 -11.5 28.5t-28.5 11.5q-16 0 -28 -11.5t-12 -28.5q0 -16 12 -28t28 -12q17 0 28.5 12t11.5 28zM771 69h18h5t6 -2q5 -4 5 -11q0 -5 -3 -8q-1 -2 -2.5 -2.5 t-3.5 -1.5q7 -1 8 -9q0 -8 3 -16h-8q-1 2 -1 6t-1 7q-1 5 -2.5 7.5t-8.5 2.5h-8v-23h-7v50zM778 47h10h3.5t3.5 1q3 3 3 7q0 6 -4 7t-6 1h-10v-16z" />
<glyph unicode="&#x2f;symbol&#x33;&#x2f;" horiz-adv-x="957" d="M505 638l68 -270h270l-203 -135l136 -270l-271 135l-270 -270l135 405l-270 203l338 -68zM814 87q18 0 30.5 -12.5t12.5 -31.5q0 -18 -12.5 -30.5t-30.5 -12.5t-30.5 12.5t-12.5 30.5q0 19 12.5 31.5t30.5 12.5zM854 43q0 17 -11.5 29t-28.5 12q-16 0 -28 -12t-12 -29 q0 -16 12 -28t28 -12q17 0 28.5 12t11.5 28zM796 68h18h5.5t5.5 -2q6 -3 6 -10q0 -5 -4 -9q-3 -3 -6 -3q7 -3 8 -10q1 -4 1.5 -7.5t1.5 -8.5h-7q-1 3 -1.5 7t-1.5 7q0 9 -10 9h-9v-23h-7v50zM803 47h10h3.5t3.5 1l2 2t1 4q0 7 -4 8t-6 1h-10v-16z" />
<glyph unicode="&#x2f;symbol&#x34;&#x2f;" horiz-adv-x="2607" d="M1684 406q0 32 -2.5 63t-8.5 65l126 14l15 -15v-533h-130v406zM1889 406q0 62 -10 128l126 14l14 -15v-533h-130v406zM427 101v-101h-320v362q0 38 -1.5 72t-5.5 63l126 7l14 -14v-396zM925 21l7 109q31 -18 72 -27t72 -9q50 0 50 36q0 19 -20.5 34t-50 31t-59.5 37 t-50.5 51t-20.5 74q0 48 26 80.5t70 49.5t97 17q81 0 127 -18l-14 -111q-28 14 -55 21.5t-56 7.5q-28 0 -43 -11t-15 -29q0 -22 20.5 -38.5t50.5 -32.5t59.5 -36.5t50 -49.5t20.5 -73q0 -67 -54 -104t-139 -37q-40 0 -82.5 8t-62.5 20zM795 0l-106 -7q-7 11 -12 24t-9 25h-4 q-15 -22 -42.5 -35.5t-61.5 -13.5q-41 0 -69 22t-28 67q0 61 53.5 88.5t137.5 29.5v20q0 54 -58 54q-55 0 -108 -29l-8 97q27 10 68.5 18t81.5 8q154 0 154 -135q0 -38 -2 -69.5t-2 -69.5q0 -24 4.5 -50.5t10.5 -43.5zM1626 0l-107 -7q-7 11 -12 24t-9 25h-3 q-15 -22 -42.5 -35.5t-62.5 -13.5q-40 0 -68 22t-28 67q0 61 53 88.5t138 29.5v20q0 54 -58 54q-54 0 -109 -29l-7 97q27 10 68.5 18t81.5 8q153 0 153 -135q0 -38 -1.5 -69.5t-1.5 -69.5q0 -24 4.5 -50.5t10.5 -43.5zM2405 213v-17t-1 -19l-11 -11h-191q8 -45 33.5 -64 t64.5 -19q24 0 45.5 6t38.5 15l7 -81q-17 -11 -49.5 -20.5t-77.5 -9.5q-88 0 -143 47t-55 135q0 58 24 101t66 67.5t94 24.5q73 0 114 -43.5t41 -111.5zM2199 207l78 4q1 5 1.5 11t0.5 15q0 23 -7.5 41t-26.5 18q-23 0 -34 -25.5t-12 -63.5zM654 74v88q-27 -3 -46 -17 t-19 -40q0 -18 10.5 -29t26.5 -11t28 9zM1485 74v88q-27 -3 -46 -17t-19 -40q0 -18 10 -29t27 -11q16 0 28 9zM2464 85q18 0 30.5 -13t12.5 -31t-12.5 -31t-30.5 -13t-31 13t-13 31t13 31t31 13zM2504 41q0 17 -11.5 28.5t-28.5 11.5q-16 0 -28 -11.5t-12 -28.5 q0 -16 12 -28t28 -12q17 0 28.5 12t11.5 28zM2446 66h18q2 0 5 -0.5t6 -2.5q5 -2 5 -10q0 -4 -3 -9q-3 -3 -6 -3q7 -1 8 -10q0 -7 3 -15h-8q-1 2 -1 6t-1 7q-1 5 -2.5 7t-8.5 2h-8v-22h-7v50zM2453 44h10h3.5t3.5 1q3 3 3 7q0 6 -4 7t-6 1h-10v-16z" />
<glyph unicode="&#x2f;symbol&#x35;&#x2f;" horiz-adv-x="705" d="M232 -6l-132 136l124 234l129 -136zM474 -6l-121 234l128 136l124 -234z" />
<glyph unicode=" "  horiz-adv-x="205" />
<glyph unicode="&#x09;" horiz-adv-x="205" />
<glyph unicode="&#xa0;" horiz-adv-x="205" />
<glyph unicode="!" horiz-adv-x="287" d="M187 164h-83q-2 81 -5 168t-7.5 172.5t-11.5 163.5l126 10q2 -27 3 -63t1 -71q0 -92 -7 -192.5t-16 -187.5zM210 44q0 -31 -21 -49t-50 -18q-27 0 -44 15t-17 41q0 29 19.5 48.5t51.5 19.5q27 0 44 -15t17 -42z" />
<glyph unicode="&#x22;" horiz-adv-x="377" d="M147 695l-27 -275h-40l-27 275h94zM325 695l-28 -275h-39l-28 275h95z" />
<glyph unicode="#" horiz-adv-x="695" d="M594 179h-139l-46 -189l-57 9l-6 6l43 174h-146l-46 -189l-57 9l-6 6l43 174h-126l-6 5l8 52h138l44 179h-135l-6 5l7 52h148l47 188l56 -8l6 -6l-43 -174h146l47 188l56 -8l6 -6l-43 -174h117l6 -5l-8 -52h-129l-44 -179h126l6 -5zM257 236h146l44 179h-146z" />
<glyph unicode="$" horiz-adv-x="486" d="M215 -122v112q-42 2 -89 11.5t-78 24.5l16 106q30 -20 73 -36t84 -16q47 0 71 23.5t24 55.5q0 30 -18.5 52.5t-48 42t-62.5 40t-62 45.5t-47.5 59t-18.5 81q0 73 47 120.5t124 57.5v113l50 3v-113q37 -1 79 -9.5t71 -22.5l-21 -100q-24 15 -60.5 29t-72.5 14 q-46 0 -70.5 -24t-24.5 -58q0 -31 18.5 -54.5t48 -43.5t62.5 -41t62 -46t48 -58.5t18 -79.5q1 -72 -46 -118.5t-127 -55.5v-111z" />
<glyph unicode="%" horiz-adv-x="942" d="M307 -10h-73l400 670h73zM382 474q0 -65 -23.5 -106.5t-62 -61.5t-83.5 -20q-69 0 -114.5 45t-45.5 135q0 62 22.5 104.5t61 64t86.5 21.5q72 0 115.5 -48t43.5 -134zM140 473q0 -63 18.5 -102t58.5 -39q39 0 58.5 36.5t19.5 95.5q0 68 -18.5 107t-58.5 39 q-37 0 -57.5 -34.5t-20.5 -102.5zM889 182q0 -65 -23.5 -106.5t-62 -61.5t-83.5 -20q-69 0 -114.5 45t-45.5 135q0 62 22.5 104.5t61 64t86.5 21.5q72 0 115.5 -48t43.5 -134zM647 181q0 -63 18.5 -102t58.5 -39q39 0 58.5 36.5t19.5 95.5q0 68 -18.5 107t-58.5 39 q-37 0 -57.5 -34.5t-20.5 -102.5z" />
<glyph unicode="&#x26;" horiz-adv-x="777" d="M358 593q-30 0 -55.5 -21t-25.5 -63q0 -47 29 -90t62 -80l124 -147q7 -8 14.5 -16.5t16.5 -17.5q30 60 30 134q0 18 -2 39t-5 36l114 14q2 -82 -22 -150t-66 -118q21 -16 43.5 -25.5t45.5 -9.5q17 0 34.5 5.5t24.5 10.5l9 -78q-13 -9 -38.5 -17.5t-56.5 -8.5 q-43 0 -77 15.5t-63 40.5q-87 -56 -195 -56q-68 0 -118.5 21.5t-78 58.5t-27.5 84q0 42 22.5 77.5t59 61t78.5 40.5q-31 37 -57.5 82t-26.5 92q0 42 23 76.5t67 55.5t105 21q63 0 111 -24.5t74 -59.5l-52 -79q-24 47 -56 71.5t-65 24.5zM206 190q0 -64 42.5 -103.5 t107.5 -39.5q29 0 55 8.5t47 24.5q-11 12 -21.5 24t-20.5 24l-140 158q-5 6 -10 11.5t-10 11.5q-24 -23 -37 -55.5t-13 -63.5z" />
<glyph unicode="'" horiz-adv-x="200" d="M147 695l-27 -275h-40l-27 275h94z" />
<glyph unicode="(" horiz-adv-x="360" d="M300 -128q-78 46 -132.5 111t-82 142.5t-27.5 158.5t27.5 158t82 142t132.5 111l35 -48q-81 -79 -114.5 -174.5t-33.5 -188.5q0 -94 33.5 -189.5t114.5 -173.5z" />
<glyph unicode=")" horiz-adv-x="360" d="M302 284q0 -81 -28 -158.5t-82 -142.5t-132 -111l-35 49q81 78 114.5 173.5t33.5 189.5q0 93 -33.5 188.5t-114.5 174.5l35 48q78 -46 132 -111t82 -142t28 -158z" />
<glyph unicode="*" horiz-adv-x="417" d="M182 430l15 112l-90 -69l-27 47l106 43l-106 43l27 46l90 -69l-15 112h54l-16 -113l90 70l27 -46l-105 -44l105 -42l-27 -47l-90 70l16 -113h-54z" />
<glyph unicode="+" horiz-adv-x="590" d="M497 284h-157v-163h-87l-1 163h-162v78q29 0 71.5 1t90.5 1l-1 166h89v-165q46 1 87 1h71z" />
<glyph unicode="," horiz-adv-x="255" d="M185 44q0 -35 -17.5 -74t-45 -73t-59.5 -56l-18 20q24 28 42 62t25 68q-22 4 -35 18t-13 37q0 30 17.5 47.5t43.5 17.5q27 0 43.5 -19t16.5 -48z" />
<glyph unicode="-" horiz-adv-x="355" d="M30 259v43h295v-43h-295z" />
<glyph unicode="." horiz-adv-x="260" d="M129 -10q-26 0 -42.5 16t-16.5 41q0 27 19 45.5t46 18.5q24 0 39.5 -15t15.5 -39q0 -27 -17 -47t-44 -20z" />
<glyph unicode="/" horiz-adv-x="356" d="M230 699l71 -17l-175 -698l-71 17z" />
<glyph unicode="0" horiz-adv-x="623" d="M570 331q0 -117 -37 -192.5t-97.5 -112t-131.5 -36.5q-73 0 -130 37t-89 110t-32 180q0 113 35.5 189.5t96 115t135.5 38.5t131.5 -39t87.5 -112.5t31 -177.5zM176 328q0 -80 14.5 -141t44.5 -95.5t76 -34.5q65 0 100.5 70t35.5 190q0 125 -33 200.5t-102 75.5 q-63 0 -99.5 -66.5t-36.5 -198.5z" />
<glyph unicode="1" horiz-adv-x="395" d="M280 0h-120v574l-109 -49l-16 59l237 76l8 -6v-654z" />
<glyph unicode="2" horiz-adv-x="552" d="M465 0h-412l-10 67q51 45 103.5 95.5t96.5 103t70.5 105t26.5 101.5t-32.5 79t-87.5 30q-42 0 -83.5 -17.5t-75.5 -44.5l-13 86q34 20 90 37.5t119 17.5q97 0 157 -47.5t59 -130.5q0 -69 -46.5 -135.5t-126 -130t-175.5 -122.5h136q109 0 213 14z" />
<glyph unicode="3" horiz-adv-x="515" d="M465 175q0 -82 -69 -133.5t-192 -51.5q-43 0 -84.5 6.5t-74.5 17.5l11 70q28 -12 61 -19t64 -7q73 0 111.5 35.5t38.5 87.5q0 40 -22 64.5t-57 35.5t-74 11q-34 0 -63 -6v45q91 24 143.5 68t52.5 94q0 40 -29.5 64t-80.5 24q-38 0 -72.5 -12t-66.5 -30l-6 74q30 17 80 32 t110 15q90 0 144.5 -39t53.5 -103q0 -59 -51 -106t-151 -74q102 -5 162.5 -46.5t60.5 -116.5z" />
<glyph unicode="4" horiz-adv-x="602" d="M440 0h-120v131h-281l-8 50l323 479l86 -10v-426q48 3 94 10l-9 -103h-85v-131zM320 540l-220 -321h201h19v321z" />
<glyph unicode="5" horiz-adv-x="549" d="M486 197q0 -64 -33.5 -110.5t-94 -71.5t-141.5 -25q-42 0 -85 6.5t-74 17.5l10 67q29 -11 68 -17.5t68 -6.5q66 0 107.5 36.5t41.5 100.5q0 65 -40.5 96t-97.5 31q-26 0 -58.5 -6.5t-54.5 -14.5l-12 9v341h205q43 0 87 2.5t84 7.5l-9 -103h-301v-199q25 8 57 14t65 6 q95 0 151.5 -49t56.5 -132z" />
<glyph unicode="6" horiz-adv-x="567" d="M293 -10q-71 0 -125 33t-84.5 98t-30.5 161q0 116 43.5 201t120 131t174.5 46q28 0 51 -3.5t34 -8.5l-12 -68q-15 6 -35.5 9.5t-40.5 3.5q-52 0 -98 -29.5t-77 -93t-36 -165.5q28 41 72.5 62t91.5 21q49 0 90.5 -22.5t66 -64.5t24.5 -100q0 -64 -30.5 -111.5t-82.5 -73.5 t-116 -26zM290 57q51 0 82.5 38t31.5 101q0 59 -28.5 97.5t-80.5 38.5q-32 0 -64 -15.5t-54 -49.5q2 -103 28 -156.5t85 -53.5z" />
<glyph unicode="7" horiz-adv-x="524" d="M246 0h-133q4 75 28.5 153.5t64 153t90 139t108.5 111.5h-145q-109 0 -213 -15l10 108h416l9 -7l3 -56q-65 -77 -117 -172.5t-84 -201t-37 -213.5z" />
<glyph unicode="8" horiz-adv-x="584" d="M53 147q0 39 22 71.5t60 56.5t85 36q-60 28 -102.5 74t-42.5 108q0 50 29 87.5t79.5 58.5t113.5 21q61 0 109 -20t76 -55t28 -81q0 -54 -40.5 -96t-108.5 -62q77 -29 124 -75.5t47 -105.5q0 -47 -29.5 -87t-84.5 -64t-132 -24q-70 0 -122.5 20.5t-81.5 56.5t-29 80z M191 504q0 -43 33 -77.5t78 -55.5q40 22 66 55t26 72q0 43 -29 69t-71 26q-41 0 -72 -24.5t-31 -64.5zM171 156q0 -41 33 -70t85 -29q53 0 88.5 30t35.5 74q1 43 -37.5 71.5t-99.5 52.5q-43 -21 -74 -54.5t-31 -74.5z" />
<glyph unicode="9" horiz-adv-x="572" d="M520 368q0 -116 -44 -201t-120.5 -131t-174.5 -46q-28 0 -51 4t-33 8l12 68q14 -6 34.5 -9.5t40.5 -3.5q52 0 98 27t77 86.5t36 154.5q-28 -41 -72.5 -62t-89.5 -21q-50 0 -91.5 24t-66.5 68.5t-25 105.5q0 66 29.5 115.5t81 77t118.5 27.5q70 0 124.5 -33t85.5 -98 t31 -161zM169 445q0 -63 28.5 -104.5t80.5 -41.5q31 0 63 15t54 49q-2 114 -28 172t-84 58q-52 0 -83 -40.5t-31 -107.5z" />
<glyph unicode=":" horiz-adv-x="260" d="M129 360q-26 0 -42.5 16t-16.5 41q0 27 19 45.5t46 18.5q24 0 39.5 -15t15.5 -39q0 -27 -17 -47t-44 -20zM129 -10q-26 0 -42.5 16t-16.5 41q0 27 19 45.5t46 18.5q24 0 39.5 -15t15.5 -39q0 -27 -17 -47t-44 -20z" />
<glyph unicode=";" horiz-adv-x="261" d="M127 360q-26 0 -42.5 16t-16.5 41q0 27 19 45.5t46 18.5q24 0 39.5 -15t15.5 -39q0 -27 -17 -47t-44 -20zM190 44q0 -35 -17.5 -74t-45 -73t-59.5 -56l-18 20q24 28 42 62t25 68q-22 4 -35 18t-13 37q0 30 17.5 47.5t43.5 17.5q27 0 43.5 -19t16.5 -48z" />
<glyph unicode="&#x3c;" horiz-adv-x="576" d="M486 109l-406 182l1 70q37 18 91.5 43t114 51.5t112 49t86.5 36.5v-95l-296 -119l297 -123v-95z" />
<glyph unicode="=" horiz-adv-x="594" d="M497 388h-407v78q35 1 88 1.5t112.5 1t114.5 1t93 0.5zM497 180h-407v78q35 1 88 1.5t112.5 1t114.5 1t93 0.5z" />
<glyph unicode="&#x3e;" horiz-adv-x="576" d="M90 109v95l297 123l-296 119v95q34 -14 86.5 -36.5t112 -49t114 -51.5t92.5 -43v-70z" />
<glyph unicode="?" horiz-adv-x="515" d="M273 168h-82q-6 12 -9.5 32t-3.5 35q0 34 15.5 63t39 54.5t46.5 50t38.5 50t15.5 54.5q0 39 -29 60.5t-66 21.5q-36 0 -76.5 -17.5t-72.5 -48.5l-47 67q40 37 95.5 62.5t120.5 25.5q57 0 102 -21.5t71 -60t26 -89.5q-1 -46 -19.5 -80t-46 -60t-55 -49.5t-46 -49 t-18.5 -58.5q0 -8 0.5 -20.5t0.5 -21.5zM304 43q0 -31 -20.5 -49t-50.5 -18q-27 0 -44 15t-17 41q0 29 20 48.5t52 19.5q26 0 43 -15t17 -42z" />
<glyph unicode="@" horiz-adv-x="1115" d="M755 -123q-45 -29 -114.5 -50.5t-151.5 -21.5q-118 0 -207.5 47.5t-139 132.5t-49.5 195q0 84 28.5 161t80.5 141.5t121 112t150 74t168 26.5q112 0 198 -44.5t135 -123t49 -181.5q0 -64 -19 -127t-54 -115t-82.5 -83t-105.5 -31q-55 0 -88.5 28t-44.5 72.5t-1 92.5h-3 q-12 -31 -32 -64.5t-47 -63t-59.5 -47.5t-70.5 -18q-57 0 -90 42t-33 114q0 62 25.5 126t72 118t110 87t139.5 33q31 0 76 -7t82 -22l-51 -226q-7 -31 -13 -68t-4 -71t17 -56t49 -22q36 0 69.5 26t60.5 69.5t42.5 98t15.5 111.5q0 95 -44 166.5t-121.5 112t-178.5 40.5 q-76 0 -150 -23t-138.5 -66t-114.5 -101.5t-78 -131t-28 -153.5q0 -103 45.5 -181.5t127.5 -122.5t192 -44q79 0 138.5 20t106.5 44zM466 77q31 0 60 28.5t54 73t43.5 93.5t28.5 90l15 71q-28 10 -51 10q-40 0 -76 -25.5t-64 -67.5t-44 -91.5t-16 -96.5q0 -40 12.5 -62.5 t37.5 -22.5z" />
<glyph unicode="A" horiz-adv-x="619" d="M144 0h-114l167 526l36 125l157 9l199 -660h-120l-44 154h-237zM307 566l-100 -347h200l-99 347h-1z" />
<glyph unicode="B" horiz-adv-x="595" d="M312 0h-222v528l-9 122h220q101 0 155.5 -47t54.5 -120q0 -52 -27 -90t-75 -59q62 -16 96.5 -56t34.5 -98q0 -53 -28 -93.5t-79 -63.5t-121 -23zM268 582h-57v-219h60q63 0 93.5 31t30.5 79t-31 78.5t-96 30.5zM283 295h-72v-227h75q67 0 100 33.5t33 83.5q0 51 -34 80.5 t-102 29.5z" />
<glyph unicode="C" horiz-adv-x="547" d="M495 112l16 -86q-37 -18 -80.5 -27t-85.5 -9q-94 0 -159.5 41t-99.5 115.5t-33 173.5q0 102 36 178.5t101.5 119t155.5 42.5q44 0 88 -9.5t77 -25.5l-19 -94q-24 17 -61 28.5t-73 11.5q-90 0 -132 -67.5t-41 -176.5q0 -72 19.5 -126.5t60.5 -85.5t105 -31q34 0 68.5 7.5 t56.5 20.5z" />
<glyph unicode="D" horiz-adv-x="648" d="M90 528l-9 122h212q97 0 164.5 -40.5t103 -113.5t34.5 -169q0 -102 -39.5 -175.5t-110 -112.5t-164.5 -39h-191v528zM276 575h-65v-499h69q64 0 104.5 32t60 88.5t18.5 128.5q0 72 -20 128.5t-61.5 89t-105.5 32.5z" />
<glyph unicode="E" horiz-adv-x="508" d="M461 0h-371v523l-9 127h375l-8 -80l-237 7v-219l185 4l-8 -76l-177 4v-217l252 8z" />
<glyph unicode="F" horiz-adv-x="478" d="M211 0h-121v523l-9 127h375l-8 -80l-237 7v-236l185 4l-8 -75l-177 3v-273z" />
<glyph unicode="G" horiz-adv-x="616" d="M544 26q-41 -18 -89.5 -27t-96.5 -9q-97 0 -165.5 40.5t-104.5 115t-35 174.5q0 103 39 179.5t109 118.5t164 42q47 0 92.5 -10t79.5 -27l-19 -94q-29 19 -66 30.5t-78 11.5q-96 0 -143 -68t-46 -178q0 -75 23 -132.5t68 -89.5t113 -32q22 0 49 4v89l-9 123l115 10v-271z " />
<glyph unicode="H" horiz-adv-x="677" d="M211 0h-121v528l-9 122l130 10v-318h255v186l-9 122l130 11v-661h-121v275h-255v-275z" />
<glyph unicode="I" horiz-adv-x="301" d="M211 0h-121v528l-9 122l130 10v-660z" />
<glyph unicode="J" horiz-adv-x="300" d="M-5 -140q51 19 73 59t22 95v514l-9 122l129 10v-582q0 -75 -16.5 -132t-61 -92.5t-128.5 -48.5z" />
<glyph unicode="K" horiz-adv-x="589" d="M90 528l-9 122l131 10v-310h71l157 310l114 -10l-174 -333l179 -317l-126 -10l-151 293h-70v-283h-122v528z" />
<glyph unicode="L" horiz-adv-x="483" d="M458 0h-368v528l-9 122l130 10v-587l250 13z" />
<glyph unicode="M" horiz-adv-x="899" d="M221 546h-1l-60 -546h-100l86 650l162 10l140 -570h2l138 560l163 10l88 -660h-125l-59 546h-1l-147 -546h-140z" />
<glyph unicode="N" horiz-adv-x="668" d="M90 528l-9 122l105 10l300 -502h2l-10 492l100 10v-660h-110l-287 483h-2l10 -483h-99v528z" />
<glyph unicode="O" horiz-adv-x="658" d="M606 327q-1 -105 -37 -180.5t-99.5 -116t-145.5 -40.5q-84 0 -145 40.5t-94 115t-32 174.5q0 103 35.5 179.5t98.5 118.5t149 42q84 0 145 -42t93 -117t32 -174zM185 327q0 -74 17 -132t50 -91.5t81 -33.5q47 0 78.5 33t47 90.5t15.5 131.5q-1 74 -17.5 131.5t-48.5 91 t-79 33.5t-79.5 -32.5t-49 -90t-15.5 -131.5z" />
<glyph unicode="P" horiz-adv-x="561" d="M211 0h-121v528l-9 122h196q118 0 182.5 -60.5t64.5 -158.5q0 -72 -33 -122t-91 -76.5t-133 -26.5h-56v-206zM263 580h-52v-304h55q70 0 101.5 43.5t31.5 110.5q0 65 -32 107.5t-104 42.5z" />
<glyph unicode="Q" horiz-adv-x="658" d="M526 -159q-107 0 -167 34t-69 117q-74 8 -127.5 50.5t-82 113.5t-27.5 164q0 103 35.5 179.5t98.5 118.5t149 42q84 0 145 -42t93 -117t32 -174q-1 -97 -31.5 -168.5t-85 -114t-125.5 -51.5q4 -33 42 -49t104 -16q39 0 76 4.5t70 12.5v-93q-31 -6 -63.5 -8.5t-66.5 -2.5z M185 327q0 -74 17 -132t50 -91.5t81 -33.5q47 0 78.5 33t47 90.5t15.5 131.5q-1 74 -17.5 131.5t-48.5 91t-79 33.5t-79.5 -32.5t-49 -90t-15.5 -131.5z" />
<glyph unicode="R" horiz-adv-x="578" d="M211 0h-121v528l-9 122h196q118 0 182.5 -56.5t64.5 -147.5q0 -68 -34.5 -116t-93.5 -71l149 -259l-128 -10l-123 247q-14 -1 -27 -1h-56v-236zM263 580h-52v-274h55q70 0 101.5 39t31.5 100q0 59 -32 97t-104 38z" />
<glyph unicode="S" horiz-adv-x="507" d="M460 166q0 -80 -60.5 -128t-160.5 -48q-31 0 -66 4.5t-68 12.5t-57 19l18 106q31 -20 76.5 -36t88.5 -16q49 0 74.5 23.5t25.5 55.5q0 30 -20 52.5t-50.5 42t-65.5 40t-65.5 45.5t-50 59t-19.5 81q0 55 28.5 96t79 63t116.5 22q40 0 87 -8.5t80 -23.5l-22 -100 q-26 15 -64 29t-76 14q-49 0 -74.5 -24t-25.5 -58q0 -31 19.5 -54.5t50 -43.5t65.5 -41t65.5 -46t50.5 -58.5t20 -79.5z" />
<glyph unicode="T" horiz-adv-x="519" d="M321 0h-121v569l-177 -7l7 88h460l7 -88l-176 7v-569z" />
<glyph unicode="U" horiz-adv-x="647" d="M324 70q55 0 86 38t31 100v320l-9 122l130 10v-448q0 -69 -32.5 -119t-88 -76.5t-124.5 -26.5q-71 0 -123 27t-80.5 77t-28.5 118v316l-9 122l130 10v-453q0 -61 31.5 -99t86.5 -38z" />
<glyph unicode="V" horiz-adv-x="608" d="M466 660l112 -10l-192 -650h-172l-184 650l118 10l158 -571h1z" />
<glyph unicode="W" horiz-adv-x="942" d="M183 0l-148 650l118 10l124 -571h1l126 561h148l122 -561h2l125 571l106 -10l-162 -650h-167l-109 534h-2l-117 -534h-167z" />
<glyph unicode="X" horiz-adv-x="600" d="M30 0l197 321l-188 327l130 12l135 -265l153 265l104 -12l-188 -313l197 -335h-132l-145 257l-153 -257h-110z" />
<glyph unicode="Y" horiz-adv-x="567" d="M344 0h-121v207l-203 443l118 10l147 -351h2l148 351l112 -10l-203 -443v-207z" />
<glyph unicode="Z" horiz-adv-x="516" d="M473 0h-422l-16 63l300 502q-68 -1 -118 -2t-90.5 -2.5t-82.5 -3.5l8 93h405l16 -62l-302 -503q71 1 122.5 3t95 5.5t92.5 9.5z" />
<glyph unicode="[" horiz-adv-x="371" d="M84 690h238v-69h-123v-678h123v-69h-238v816z" />
<glyph unicode="\" horiz-adv-x="371" d="M233 -10l-174 692l58 13l173 -692z" />
<glyph unicode="]" horiz-adv-x="371" d="M287 690v-816h-238v69h124v678h-124v69h238z" />
<glyph unicode="^" horiz-adv-x="575" d="M182 195h-117l173 338h97l175 -338h-116l-109 226z" />
<glyph unicode="_" horiz-adv-x="405" d="M0 -164v78h405v-78h-405z" />
<glyph unicode="`" horiz-adv-x="258" d="M219 584l-37 -20q-37 28 -75 69t-67 93l94 34q15 -43 38.5 -91t46.5 -85z" />
<glyph unicode="a" horiz-adv-x="520" d="M346 -10q-7 15 -14 35t-10 40q-21 -28 -62.5 -51.5t-95.5 -23.5q-60 0 -92 34t-32 83q0 58 39 95.5t103 55t139 17.5v54q1 92 -97 92q-39 0 -76 -13t-71 -35l-10 94q37 18 88 30.5t103 12.5q87 0 135 -41t48 -130q0 -10 -0.5 -37t-1 -59.5t-1 -61.5t-0.5 -44 q0 -37 4.5 -70.5t17.5 -66.5zM161 133q0 -35 18.5 -55.5t50.5 -20.5q23 0 48.5 12t41.5 29v144q-43 -1 -79 -13t-58 -35.5t-22 -60.5z" />
<glyph unicode="b" horiz-adv-x="554" d="M65 685l129 10v-253q24 31 60 49.5t77 18.5q77 0 127.5 -64.5t50.5 -182.5q0 -89 -29.5 -150t-82 -92t-121.5 -31q-25 0 -51.5 4t-47.5 10l-103 -14v573zM275 441q-48 0 -81 -38v-337q31 -9 62 -9q60 0 95 46.5t35 151.5q0 82 -27.5 134t-83.5 52z" />
<glyph unicode="c" horiz-adv-x="464" d="M421 481l-11 -99q-21 17 -49 30t-62 13q-52 0 -91 -42t-39 -134q0 -80 34 -126t103 -46q31 0 59.5 8t52.5 20l-2 -85q-21 -12 -56.5 -21t-76.5 -9q-68 0 -122 29t-85 85.5t-31 139.5q0 90 34.5 149t91.5 88t124 29q38 0 69 -8t57 -21z" />
<glyph unicode="d" horiz-adv-x="561" d="M388 -10q-14 26 -23 66q-24 -31 -61.5 -48.5t-79.5 -17.5q-79 0 -129 65t-50 181q0 92 31 153t81.5 91t108.5 30q28 0 51.5 -6.5t42.5 -16.5v76l-9 122l129 10v-542q0 -43 5 -79.5t18 -73.5zM169 244q0 -85 27.5 -136t83.5 -51q48 0 80 36v1v330q-30 19 -68 19 q-60 0 -91.5 -49t-31.5 -150z" />
<glyph unicode="e" horiz-adv-x="514" d="M445 20q-24 -12 -65.5 -21t-85.5 -9q-111 0 -180 64.5t-69 189.5q0 84 31 143.5t83.5 91t116.5 31.5q58 0 101 -23.5t67.5 -65.5t24.5 -98q0 -15 -1.5 -32t-3.5 -33l-10 -17h-284q11 -164 155 -164q34 0 66 8t56 20zM272 445q-47 0 -75 -45.5t-28 -120.5l182 7q2 21 2 43 q0 54 -21 85t-60 31z" />
<glyph unicode="f" horiz-adv-x="331" d="M202 0h-120v421l-60 2v34l65 12v2q-10 18 -16 43.5t-6 47.5q0 63 45.5 98t121.5 35q32 0 60.5 -5.5t45.5 -13.5l-14 -84q-19 8 -40 12t-39 4q-30 0 -48.5 -17t-18.5 -56q0 -14 2.5 -33t6.5 -33h140l-5 -54l-120 3v-418z" />
<glyph unicode="g" horiz-adv-x="507" d="M99 89q1 53 67 77q-57 16 -89 56t-32 103q0 55 24.5 96.5t69 65t105.5 23.5q49 0 87 0.5t75 2t83 5.5v-77l-127 7v-1q39 -14 60.5 -49.5t21.5 -78.5q0 -52 -27 -88t-73 -55t-104 -19q-18 1 -35 2q-12 -12 -12 -26q0 -17 12 -25t27 -10.5t25 -3.5l69 -3q78 -5 123 -34.5 t45 -90.5q0 -72 -68 -115t-201 -43q-95 0 -151.5 25.5t-56.5 78.5q0 31 19 53.5t48 36.5t59 20q-19 11 -31.5 28t-12.5 39zM163 327q0 -49 20.5 -83.5t63.5 -34.5q39 0 58.5 30.5t19.5 87.5q0 51 -18.5 84.5t-59.5 33.5t-62.5 -33t-21.5 -85zM134 -66q0 -39 29 -61.5 t83 -22.5q60 0 98.5 24.5t38.5 62.5q0 61 -96 66l-84 3q-6 1 -11 1q-25 -10 -41.5 -29.5t-16.5 -43.5z" />
<glyph unicode="h" horiz-adv-x="561" d="M194 0h-120v563l-9 122l129 10v-271q28 41 70 63.5t90 22.5q68 0 102 -43.5t34 -112.5v-354h-120v325q0 100 -77 100q-53 0 -99 -46v-379z" />
<glyph unicode="i" horiz-adv-x="265" d="M207 665q0 -33 -22.5 -52.5t-54.5 -19.5q-29 0 -47.5 16t-18.5 44q0 31 21.5 52t56.5 21q28 0 46.5 -16t18.5 -45zM194 0h-120v377l-9 123l129 10v-510z" />
<glyph unicode="j" horiz-adv-x="265" d="M205 665q0 -33 -22.5 -52.5t-54.5 -19.5q-30 0 -48 16t-18 44q0 31 21.5 52t55.5 21q29 0 47.5 -16t18.5 -45zM9 -148q33 36 49 84t16 118v323l-9 123l129 10v-438q0 -94 -34 -162.5t-124 -102.5z" />
<glyph unicode="k" horiz-adv-x="518" d="M194 0h-120v563l-9 122l129 10v-410h52l135 225l119 -10l-152 -229l168 -271l-130 -10l-137 246h-55v-236z" />
<glyph unicode="l" horiz-adv-x="265" d="M194 0h-120v563l-9 122l129 10v-695z" />
<glyph unicode="m" horiz-adv-x="835" d="M194 0h-120v378l-9 122l129 10v-85q27 41 68.5 63t85.5 22q48 0 79.5 -26t43.5 -70q28 46 72 71t90 25q63 0 97 -43.5t34 -112.5v-354h-120v325q0 50 -19 75t-52 25q-23 0 -48 -12.5t-47 -34.5q1 -12 1 -24v-354h-120v325q0 50 -19 75t-52 24q-23 0 -47.5 -11.5 t-46.5 -33.5v-379z" />
<glyph unicode="n" horiz-adv-x="561" d="M194 0h-120v378l-9 122l129 10v-85q28 40 70 62.5t92 22.5q66 0 100 -43.5t34 -112.5v-354h-120v325q0 100 -77 100q-53 0 -99 -46v-379z" />
<glyph unicode="o" horiz-adv-x="554" d="M509 259q0 -92 -34.5 -151.5t-90 -88.5t-118.5 -29q-64 0 -114 28.5t-78.5 84t-28.5 137.5q0 92 34 151.5t89.5 89t119.5 29.5t113.5 -28.5t78.5 -84.5t29 -138zM169 244q0 -86 26.5 -136.5t78.5 -50.5q47 0 79 46.5t32 152.5q0 95 -27 141t-76 46q-50 0 -81.5 -47 t-31.5 -152z" />
<glyph unicode="p" horiz-adv-x="554" d="M74 378l-9 122l129 10v-65q24 30 60 47.5t77 17.5q77 0 127.5 -64t50.5 -181q0 -93 -31 -154t-81.5 -91t-109.5 -30q-27 0 -50.5 6.5t-42.5 16.5v-60q0 -37 2 -70t8 -68l-130 -10v573zM275 443q-49 0 -81 -36v-331q30 -19 68 -19q60 0 92 49t32 151q0 84 -28 135t-83 51z " />
<glyph unicode="q" horiz-adv-x="553" d="M490 -182l-130 -10v251q-24 -32 -60.5 -50.5t-78.5 -18.5q-77 0 -126.5 64t-49.5 177q0 91 32.5 153t89.5 94t132 32q19 0 40 -2.5t39 -5.5l102 8v-554q0 -71 10 -138zM169 234q0 -77 27 -125.5t83 -48.5q48 -1 81 37v338q-11 3 -24.5 5.5t-28.5 2.5q-62 0 -100 -48.5 t-38 -160.5z" />
<glyph unicode="r" horiz-adv-x="379" d="M194 0h-120v378l-9 122l129 10v-135q17 56 51.5 95.5t81.5 39.5q12 0 22.5 -2t17.5 -5l-10 -119q-12 3 -26 5t-29 4q-32 1 -59.5 -13t-48.5 -46v-334z" />
<glyph unicode="s" horiz-adv-x="452" d="M409 132q0 -63 -52 -102.5t-148 -39.5q-43 0 -88.5 9t-77.5 22l8 98q30 -19 73.5 -32t83.5 -13q42 0 62.5 16.5t20.5 42.5q0 23 -16.5 38.5t-43 28t-57.5 27.5q-31 14 -58 32t-43.5 43.5t-16.5 62.5q0 65 56 105t146 40q37 0 73 -7.5t66 -19.5l-8 -97q-30 17 -66 29 t-69 12q-37 0 -58 -17.5t-21 -43.5q0 -22 14.5 -37.5t37.5 -27t47 -22.5q32 -15 63.5 -34t51.5 -46t20 -67z" />
<glyph unicode="t" horiz-adv-x="396" d="M359 429l-156 4v-254q0 -25 5 -48.5t21 -38t49 -14.5q25 0 49 8t39 17l2 -83q-18 -11 -53.5 -20.5t-76.5 -9.5q-74 0 -114.5 38.5t-40.5 126.5v280l-55 2v34l65 12l21 137l89 6v-143h161z" />
<glyph unicode="u" horiz-adv-x="557" d="M71 142v358l120 10v-351q0 -51 19.5 -75.5t53.5 -24.5q21 0 45.5 11t46.5 31v399l120 10v-381q0 -31 4.5 -65t17.5 -64l-114 -10q-9 16 -17 40t-10 46q-27 -38 -68.5 -62t-89.5 -24q-65 0 -96.5 43.5t-31.5 108.5z" />
<glyph unicode="v" horiz-adv-x="493" d="M468 501q-30 -132 -66 -258.5t-76 -242.5h-169l-136 501l125 9l107 -438h2l101 438z" />
<glyph unicode="w" horiz-adv-x="775" d="M144 0l-123 501l120 9l89 -438h2l91 433h130l94 -433h2l87 438l114 -9q-54 -260 -131 -501h-148l-86 383h-2q-19 -94 -44 -188t-56 -195h-139z" />
<glyph unicode="x" horiz-adv-x="492" d="M335 0l-104 198l-93 -198h-108q32 64 68 128t74 127l-137 245l117 10l109 -214l94 214l106 -8q-32 -65 -67 -129.5t-73 -128.5l136 -244h-122z" />
<glyph unicode="y" horiz-adv-x="498" d="M59 -195q-31 0 -54.5 3t-46.5 9v91q26 -7 60.5 -11t61.5 -4q60 0 111 30.5t70 88.5h-102l-133 489l124 9l108 -438h2l101 438l112 -9q-13 -58 -29.5 -124.5t-36 -134t-39 -130.5t-37.5 -112q-27 -75 -64 -117.5t-88 -60t-120 -17.5z" />
<glyph unicode="z" horiz-adv-x="454" d="M411 0h-364l-13 68l253 346h-44q-52 0 -104.5 -2.5t-101.5 -7.5l12 96h351l7 -68l-252 -345h53q108 0 213 14z" />
<glyph unicode="{" horiz-adv-x="377" d="M154 161q0 36 -21.5 58.5t-72.5 28.5v65q50 6 72 27.5t22 60.5q0 30 -8.5 54.5t-17 51t-8.5 59.5q0 66 52 97.5t167 31.5l2 -62q-102 -1 -102 -79q0 -26 7.5 -51.5t15.5 -51t8 -51.5q0 -50 -34.5 -80.5t-85.5 -39.5q50 -10 85 -40t35 -78q0 -25 -8 -51t-15.5 -52.5 t-7.5 -51.5q0 -79 102 -80l-2 -62q-116 0 -167.5 31.5t-51.5 98.5q0 32 8.5 59.5t17 53t8.5 53.5z" />
<glyph unicode="|" horiz-adv-x="292" d="M182 -202l-72 -3v897l72 3v-897z" />
<glyph unicode="}" horiz-adv-x="377" d="M317 248l-94 -87q0 -28 8.5 -53.5t17 -53t8.5 -59.5q0 -67 -51.5 -98.5t-167.5 -31.5l-2 62q102 1 102 80q0 25 -8 51.5t-15.5 52.5t-7.5 50q0 49 34.5 79t85.5 40q-52 9 -86 39.5t-34 80.5q0 26 8 51.5t15.5 51t7.5 51.5q0 78 -102 79l2 62q115 0 167 -31.5t52 -97.5 q0 -33 -8.5 -59.5t-17 -51t-8.5 -54.5q0 -39 21.5 -60.5t72.5 -27.5v-65z" />
<glyph unicode="~" horiz-adv-x="631" d="M193 248q-9 0 -25 -17t-35 -40l-43 21q13 25 29 53t35.5 48t42.5 20q18 0 52 -8t72 -18.5t70 -18.5t47 -8q9 0 25 17t36 41l42 -21q-12 -25 -28.5 -53.5t-36 -48t-41.5 -19.5q-19 0 -53.5 7.5t-73 18t-70.5 18.5t-45 8z" />
<glyph unicode="&#xa1;" horiz-adv-x="287" d="M78 458q0 30 20.5 48t50.5 18q27 0 44 -15t17 -41q0 -28 -20 -47.5t-52 -19.5q-27 0 -43.5 14.5t-16.5 42.5zM101 338h82q3 -81 5.5 -168.5t7 -173t11.5 -162.5l-126 -10q-2 27 -2.5 62.5t-0.5 70.5q0 92 6.5 193t16.5 188z" />
<glyph unicode="&#xa2;" horiz-adv-x="464" d="M286 -119l-40 -3v114q-88 11 -144.5 75t-56.5 177q0 83 30 140t80 88t111 37v111l40 3v-113q34 -1 62.5 -9t52.5 -20l-11 -99q-21 17 -49 30t-62 13q-52 0 -91 -42t-39 -134q0 -80 34 -126t103 -46q31 0 59.5 8t52.5 20l-2 -85q-21 -12 -56 -21t-74 -9v-109z" />
<glyph unicode="&#xa3;" horiz-adv-x="552" d="M463 286l-156 3l-1 -17q-8 -69 -34.5 -134.5t-74.5 -104.5q50 -28 111 -54t135 -26q21 0 45 3t42 10l-34 -93q-9 -4 -25 -6t-33 -3q-57 0 -110 22t-100 53.5t-88 61.5q-30 -11 -64 -11q-40 0 -54 12.5t-14 32.5q0 23 16.5 35.5t41.5 12.5q18 0 37.5 -6.5t40.5 -16.5 q16 24 26.5 62t13.5 91l3 78l-101 3l5 35l98 12v0q5 101 27.5 176.5t72.5 118t136 42.5q39 0 69 -7.5t50 -16.5l-29 -85q-19 16 -44.5 28.5t-51.5 12.5q-42 0 -63 -30.5t-30 -90t-15 -148.5h162z" />
<glyph unicode="&#xa4;" horiz-adv-x="502" d="M425 67l-71 72q-21 -19 -49.5 -29.5t-62.5 -10.5q-31 0 -56.5 8t-45.5 23l-64 -64l-30 31l63 63q-36 46 -36 109q0 64 41 115l-67 68l29 29q31 -31 68 -69q21 16 47 25t56 8q32 1 59 -9t48 -27l71 72l30 -31l-72 -72q33 -45 33 -102q0 -59 -34 -106q21 -21 40.5 -39 t33.5 -32zM133 271q0 -46 28.5 -82t83.5 -36q38 0 62.5 17.5t36.5 45t12 57.5q0 44 -28.5 79.5t-81.5 35.5q-55 0 -84 -35.5t-29 -81.5z" />
<glyph unicode="&#xa5;" horiz-adv-x="567" d="M81 105v42h142v60h-142v42h123l-184 401l118 10l147 -351h2l148 351l112 -10l-184 -401h121v-42h-140v-60h140v-42h-140v-105h-121v105h-142z" />
<glyph unicode="&#xa6;" horiz-adv-x="342" d="M207 348l-72 -4v348l72 3v-347zM207 -202l-72 -3v352l72 4v-353z" />
<glyph unicode="&#xa7;" horiz-adv-x="552" d="M505 46q0 -67 -32 -115.5t-89 -74.5t-134 -26q-48 0 -96 10t-80 26l18 116q21 -18 56.5 -35t70.5 -17t58 22t23 58q0 33 -18.5 62.5t-47 58.5t-61 60t-61 67t-46.5 80t-18 99q0 68 31.5 118t89.5 77.5t138 27.5q43 0 84.5 -8.5t70.5 -23.5l-22 -110q-18 15 -47 29t-60 14 q-37 0 -58.5 -23t-21.5 -59q0 -35 18 -66t46.5 -60.5t61 -61.5t61 -68t47 -79.5t18.5 -97.5zM299 -104v-3q69 15 103 53.5t34 97.5q0 47 -18.5 85.5t-48 72t-62 64t-62 62t-48 66.5t-18.5 78q0 42 22 72t52 47v3q-63 -15 -97.5 -55t-34.5 -100q0 -49 18 -88t46 -72t59.5 -63 t59.5 -61t46 -65t18 -75q0 -45 -24 -74.5t-45 -44.5z" />
<glyph unicode="&#xa8;" horiz-adv-x="600" d="M184 664q0 -31 -20 -48.5t-50 -17.5q-27 0 -43.5 14t-16.5 41q0 29 19.5 48.5t51.5 19.5q27 0 43 -15t16 -42zM402 664q0 -31 -20 -48.5t-50 -17.5q-28 0 -44 14t-16 41q0 29 19 48.5t51 19.5q27 0 43.5 -15t16.5 -42z" />
<glyph unicode="&#xa9;" horiz-adv-x="706" d="M352 -36q-81 0 -146 38t-103 102.5t-38 144.5q0 60 22.5 112t62 91.5t92 61.5t112.5 22q61 0 113 -22.5t91 -61.5t61 -91t22 -110q0 -60 -22.5 -111.5t-62 -91t-92 -62t-112.5 -22.5zM352 0q70 0 127 34t90.5 91t33.5 125q0 69 -33.5 126t-90.5 90.5t-126 33.5 q-68 0 -125 -33.5t-91 -90.5t-34 -127t33 -126.5t89.5 -89.5t126.5 -33zM450 156l9 -54q-22 -9 -46.5 -13t-47.5 -4q-81 0 -124 46t-42 121q0 80 45.5 127.5t121.5 47.5q25 0 50 -5.5t44 -13.5l-12 -57q-13 7 -33.5 13t-40.5 6q-48 0 -70.5 -31.5t-21.5 -81.5 q0 -50 23.5 -82t76.5 -32q18 0 39 4t29 9z" />
<glyph unicode="&#xaa;" horiz-adv-x="439" d="M287 365q-13 24 -18 55q-16 -21 -47.5 -38t-73.5 -17q-45 0 -69.5 24.5t-24.5 60.5q0 41 29 68t77.5 39.5t106.5 12.5l1 34q0 29 -17.5 45.5t-56.5 16.5q-30 0 -58 -9.5t-54 -23.5l-7 76q29 12 68 21t80 9q68 0 106 -30t38 -97q0 -11 -1 -38.5t-1.5 -56.5t-0.5 -44 q0 -25 3.5 -50.5t13.5 -50.5zM153 472q0 -26 14 -40.5t37 -14.5q18 0 36.5 8.5t26.5 18.5v101q-47 -1 -80.5 -18.5t-33.5 -54.5z" />
<glyph unicode="&#xab;" horiz-adv-x="525" d="M257 271v31q53 46 100 94t95 107l25 -15q-25 -55 -57 -105.5t-64 -96.5q32 -46 64 -96.5t57 -105.5l-25 -14q-48 58 -95 106t-100 95zM49 271v31q53 46 100 94t95 107l25 -15q-25 -55 -57 -105.5t-64 -96.5q32 -46 64 -96.5t57 -105.5l-25 -14q-48 58 -95 106t-100 95z " />
<glyph unicode="&#xac;" horiz-adv-x="593" d="M514 383v-236h-87v152h-326v79q34 1 87.5 2t114.5 1.5t116.5 1t94.5 0.5z" />
<glyph unicode="&#xae;" horiz-adv-x="706" d="M352 -36q-81 0 -146 38t-103 102.5t-38 144.5q0 60 22.5 112t62 91.5t92 61.5t112.5 22q61 0 113 -22.5t91 -61.5t61 -91t22 -110q0 -60 -22.5 -111.5t-62 -91t-92 -62t-112.5 -22.5zM352 0q70 0 127 34t90.5 91t33.5 125q0 69 -33.5 126t-90.5 90.5t-126 33.5 q-68 0 -125 -33.5t-91 -90.5t-34 -127t33 -126.5t89.5 -89.5t126.5 -33zM314 89h-76v268l-6 64h116q67 0 104 -29.5t37 -77.5q0 -35 -19 -59.5t-51 -37.5l81 -128l-81 -5l-64 120h-13h-28v-115zM340 378h-26v-131h27q36 0 53 18t17 48q0 29 -17 47t-54 18z" />
<glyph unicode="&#xaf;" horiz-adv-x="345" d="M50 624v73h245v-73h-245z" />
<glyph unicode="&#xb0;" horiz-adv-x="364" d="M180 310q-56 0 -91.5 35t-35.5 91q0 57 36.5 95t94.5 38q57 0 92 -35.5t35 -89.5q0 -58 -36.5 -96t-94.5 -38zM183 520q-36 0 -56.5 -24.5t-20.5 -58.5t21.5 -56t54.5 -22q34 0 55 24t21 60q0 33 -20.5 55t-54.5 22z" />
<glyph unicode="&#xb1;" horiz-adv-x="600" d="M500 340h-155v-138h-87l-1 138h-164v78q29 0 72 1t92 1l-1 141h89v-140q45 1 85.5 1h70.5zM500 43h-407v78q35 1 88 1.5t112.5 1t114.5 1t93 0.5z" />
<glyph unicode="&#xb2;" horiz-adv-x="392" d="M310 372h-260l-7 48q39 29 80.5 64.5t70 72.5t28.5 69q0 26 -19 41t-50 15q-26 0 -51.5 -10t-47.5 -24l-9 59q23 11 58.5 20.5t74.5 9.5q62 0 100.5 -27t38.5 -72q0 -38 -28.5 -73.5t-77 -67.5t-108.5 -59h81q67 0 132 9z" />
<glyph unicode="&#xb3;" horiz-adv-x="361" d="M311 468q0 -46 -44 -74.5t-121 -28.5q-58 0 -101 13l8 48q37 -15 76 -15q41 0 64 17.5t23 44.5q0 30 -27.5 43t-62.5 13q-11 0 -22 -1.5t-17 -2.5v30q55 13 86.5 35.5t31.5 46.5q0 20 -18 32.5t-47 12.5q-42 0 -85 -22l-3 51q20 10 52 18t68 8q58 0 92.5 -23t34.5 -58 q0 -69 -125 -97q63 -4 100 -27t37 -64z" />
<glyph unicode="&#xb4;" horiz-adv-x="258" d="M219 726q-30 -52 -68 -93t-74 -69l-37 20q22 37 45.5 85t39.5 91z" />
<glyph unicode="&#xb6;" horiz-adv-x="625" d="M259 -108q55 0 85.5 21.5t43.5 53t16 63t3 51.5v511h-60v-409h-32q-69 0 -125.5 28t-89.5 80.5t-33 126.5q0 75 35 127t94 78.5t131 26.5h175v-554q0 -130 -58.5 -198t-172.5 -68q-38 0 -82 7t-80 18l6 65q39 -13 75.5 -20.5t68.5 -7.5z" />
<glyph unicode="&#xb7;" horiz-adv-x="260" d="M129 193q-26 0 -42.5 16t-16.5 41q0 26 19 45t46 19q24 0 39.5 -15.5t15.5 -39.5q0 -27 -17 -46.5t-44 -19.5z" />
<glyph unicode="&#xb8;" horiz-adv-x="279" d="M138 -117q0 28 -57 39l28 78h40l-16 -45q46 -6 72 -24t26 -44q0 -40 -46.5 -62t-123.5 -23l-4 36q34 4 57.5 15t23.5 30z" />
<glyph unicode="&#xb9;" horiz-adv-x="313" d="M198 372h-85v307l-67 -25l-11 39l157 44l6 -4v-361z" />
<glyph unicode="&#xba;" horiz-adv-x="477" d="M418 558q0 -66 -27 -109t-69.5 -63.5t-91.5 -20.5q-74 0 -122.5 45.5t-48.5 135.5q0 66 26.5 108.5t69 63.5t92.5 21q73 0 122 -46t49 -135zM161 548q0 -58 19 -93.5t57 -35.5q34 0 56.5 32t22.5 105q0 66 -19 97.5t-55 31.5t-58.5 -32t-22.5 -105z" />
<glyph unicode="&#xbb;" horiz-adv-x="525" d="M269 271q-54 -47 -101 -95t-95 -106l-24 14q24 55 56 105.5t64 96.5q-32 46 -64 96.5t-56 105.5l24 15q48 -59 95 -107t101 -94v-31zM477 271q-54 -47 -101 -95t-95 -106l-24 14q24 55 56 105.5t64 96.5q-32 46 -64 96.5t-56 105.5l24 15q48 -59 95 -107t101 -94v-31z " />
<glyph unicode="&#xbc;" horiz-adv-x="857" d="M208 -10h-73l400 670h73zM198 292h-85v307l-67 -25l-11 39l157 44l6 -4v-361zM684 0h-85v65h-173l-5 35l202 265l61 -5v-226q31 2 58 5l-6 -74h-52v-65zM595 131h4v160l-120 -160h116z" />
<glyph unicode="&#xbd;" horiz-adv-x="866" d="M207 -10h-73l400 670h73zM198 292h-85v307l-67 -25l-11 39l157 44l6 -4v-361zM784 0h-260l-7 48q40 29 81.5 64.5t69.5 72.5t28 69q0 26 -19 41t-49 15q-27 0 -52.5 -10t-46.5 -24l-9 59q22 11 58 20.5t75 9.5q62 0 100 -27t38 -72q0 -38 -28.5 -73.5t-76.5 -67.5 t-108 -59h81q66 0 131 9z" />
<glyph unicode="&#xbe;" horiz-adv-x="882" d="M281 -10h-73l400 670h73zM311 388q0 -46 -44 -74.5t-121 -28.5q-58 0 -101 13l8 48q37 -15 76 -15q41 0 64 17.5t23 44.5q0 30 -27.5 43t-62.5 13q-11 0 -22 -1.5t-17 -2.5v30q55 13 86.5 35.5t31.5 46.5q0 20 -18 32.5t-47 12.5q-42 0 -85 -22l-3 51q20 10 52 18t68 8 q58 0 92.5 -23t34.5 -58q0 -69 -125 -97q63 -4 100 -27t37 -64zM757 0h-85v65h-173l-5 35l202 265l61 -5v-226q31 2 58 5l-6 -74h-52v-65zM668 131h4v160l-120 -160h116z" />
<glyph unicode="&#xbf;" horiz-adv-x="515" d="M211 458q0 30 20.5 48t50.5 18q27 0 44 -15t17 -41q0 -28 -20 -47.5t-51 -19.5q-27 0 -44 14.5t-17 42.5zM242 333h83q6 -13 9 -33t3 -34q0 -35 -15.5 -64t-38.5 -54.5t-46.5 -50t-39 -50t-15.5 -53.5q0 -40 29 -61t66 -21q36 0 77 17t72 48l48 -67q-41 -37 -96.5 -62 t-120.5 -25q-57 0 -102 21t-70.5 59.5t-25.5 89.5q0 47 18.5 80.5t46 59.5t55 49.5t46.5 49t19 58.5q0 8 -1 21t-1 22z" />
<glyph unicode="&#xc0;" horiz-adv-x="619" d="M427 754l-28 -33q-49 10 -104 30.5t-104 55.5l66 67q38 -33 81.5 -63t88.5 -57zM144 0h-114l167 526l36 125l157 9l199 -660h-120l-44 154h-237zM307 566l-100 -347h200l-99 347h-1z" />
<glyph unicode="&#xc1;" horiz-adv-x="619" d="M427 808q-49 -35 -104 -55.5t-103 -30.5l-29 33q45 27 88.5 57t81.5 63zM144 0h-114l167 526l36 125l157 9l199 -660h-120l-44 154h-237zM307 566l-100 -347h200l-99 347h-1z" />
<glyph unicode="&#xc2;" horiz-adv-x="619" d="M191 718l-32 27q58 56 101 123l97 8q20 -34 45 -66.5t58 -64.5l-32 -27q-67 36 -120 85q-54 -50 -117 -85zM144 0h-114l167 526l36 125l157 9l199 -660h-120l-44 154h-237zM307 566l-100 -347h200l-99 347h-1z" />
<glyph unicode="&#xc3;" horiz-adv-x="619" d="M252 857q26 0 45.5 -10.5t37.5 -21t39 -10.5q20 0 33 13t25 34l30 -7q-3 -29 -14.5 -56t-31 -44.5t-48.5 -17.5q-25 0 -46 10.5t-40 21.5t-37 11t-32 -12.5t-26 -34.5l-30 7q3 28 13.5 55t30.5 44.5t51 17.5zM144 0h-114l167 526l36 125l157 9l199 -660h-120l-44 154 h-237zM307 566l-100 -347h200l-99 347h-1z" />
<glyph unicode="&#xc4;" horiz-adv-x="619" d="M261 801q0 -33 -21 -51.5t-53 -18.5q-29 0 -45.5 15t-16.5 43q0 31 20 51.5t54 20.5q28 0 45 -15.5t17 -44.5zM494 801q0 -33 -21 -51.5t-52 -18.5q-29 0 -45.5 15t-16.5 44q0 30 19.5 50.5t53.5 20.5q28 0 45 -16t17 -44zM144 0h-114l167 526l36 125l157 9l199 -660 h-120l-44 154h-237zM307 566l-100 -347h200l-99 347h-1z" />
<glyph unicode="&#xc5;" horiz-adv-x="619" d="M411 804q0 -39 -30.5 -67.5t-77.5 -28.5q-45 0 -70 24t-25 57q0 39 32 67.5t80 28.5q41 0 66 -22.5t25 -58.5zM264 794q0 -18 11.5 -30.5t31.5 -12.5q19 0 33.5 14t14.5 34q0 18 -12 30.5t-30 12.5q-20 0 -34.5 -14.5t-14.5 -33.5zM144 0h-114l167 526l36 125l157 9 l199 -660h-120l-44 154h-237zM307 566l-100 -347h200l-99 347h-1z" />
<glyph unicode="&#xc6;" horiz-adv-x="873" d="M144 0h-114l256 526l45 124h445l-8 -80l-259 6l29 -218l221 4l-8 -76l-204 3l28 -215l253 7l-2 -81h-360l-14 154h-235zM414 566l-166 -347h198l-31 347h-1z" />
<glyph unicode="&#xc7;" horiz-adv-x="547" d="M333 -117q0 28 -57 39l25 71q-80 9 -135.5 52t-84.5 113.5t-28 161.5q0 102 36 178.5t101.5 119t155.5 42.5q44 0 88 -9.5t77 -25.5l-19 -94q-24 17 -61 28.5t-73 11.5q-90 0 -132 -67.5t-41 -176.5q0 -72 19.5 -126.5t60.5 -85.5t105 -31q34 0 68.5 7.5t56.5 20.5 l16 -86q-37 -18 -80.5 -27t-85.5 -9h-5l-12 -35q46 -6 72 -24t26 -44q0 -40 -46.5 -62t-123.5 -23l-4 36q34 4 57.5 15t23.5 30z" />
<glyph unicode="&#xc8;" horiz-adv-x="508" d="M386 754l-28 -33q-49 10 -104 30.5t-104 55.5l66 67q38 -33 81.5 -63t88.5 -57zM461 0h-371v523l-9 127h375l-8 -80l-237 7v-219l185 4l-8 -76l-177 4v-217l252 8z" />
<glyph unicode="&#xc9;" horiz-adv-x="508" d="M386 808q-49 -35 -104 -55.5t-103 -30.5l-29 33q45 27 88.5 57t81.5 63zM461 0h-371v523l-9 127h375l-8 -80l-237 7v-219l185 4l-8 -76l-177 4v-217l252 8z" />
<glyph unicode="&#xca;" horiz-adv-x="508" d="M150 718l-32 27q58 56 101 123l97 8q20 -34 45 -66.5t58 -64.5l-32 -27q-67 36 -120 85q-54 -50 -117 -85zM461 0h-371v523l-9 127h375l-8 -80l-237 7v-219l185 4l-8 -76l-177 4v-217l252 8z" />
<glyph unicode="&#xcb;" horiz-adv-x="508" d="M220 801q0 -33 -21 -51.5t-53 -18.5q-29 0 -45.5 15t-16.5 43q0 31 20 51.5t54 20.5q28 0 45 -15.5t17 -44.5zM453 801q0 -33 -21 -51.5t-52 -18.5q-29 0 -45.5 15t-16.5 44q0 30 19.5 50.5t53.5 20.5q28 0 45 -16t17 -44zM461 0h-371v523l-9 127h375l-8 -80l-237 7v-219 l185 4l-8 -76l-177 4v-217l252 8z" />
<glyph unicode="&#xcc;" horiz-adv-x="301" d="M268 754l-28 -33q-49 10 -104 30.5t-104 55.5l66 67q38 -33 81.5 -63t88.5 -57zM211 0h-121v528l-9 122l130 10v-660z" />
<glyph unicode="&#xcd;" horiz-adv-x="301" d="M268 808q-49 -35 -104 -55.5t-103 -30.5l-29 33q45 27 88.5 57t81.5 63zM211 0h-121v528l-9 122l130 10v-660z" />
<glyph unicode="&#xce;" horiz-adv-x="301" d="M32 718l-32 27q58 56 101 123l97 8q20 -34 45 -66.5t58 -64.5l-32 -27q-67 36 -120 85q-54 -50 -117 -85zM211 0h-121v528l-9 122l130 10v-660z" />
<glyph unicode="&#xcf;" horiz-adv-x="352" d="M153 788q0 -34 -20 -53t-51 -19q-28 0 -44 16t-16 45q0 32 19 53t52 21q27 0 43.5 -16.5t16.5 -46.5zM330 788q0 -34 -20.5 -53t-51.5 -19q-28 0 -44 16t-16 45q0 32 19.5 53t52.5 21q27 0 43.5 -16.5t16.5 -46.5zM236 0h-121v528l-9 122l130 10v-660z" />
<glyph unicode="&#xd0;" horiz-adv-x="648" d="M90 528l-9 122h212q97 0 164.5 -40.5t103 -113.5t34.5 -169q0 -102 -39.5 -175.5t-110 -112.5t-164.5 -39h-191v300h-75v51h75v177zM369 300h-158v-224h69q64 0 104.5 32t60 88.5t18.5 128.5q0 72 -20 128.5t-61.5 89t-105.5 32.5h-65v-224h158v-51z" />
<glyph unicode="&#xd1;" horiz-adv-x="668" d="M276 857q26 0 46 -10.5t38 -21t38 -10.5t33 13t25 34l30 -7q-3 -29 -14 -56t-31 -44.5t-49 -17.5q-24 0 -45 10.5t-40 21.5t-38 11q-18 0 -32 -12.5t-26 -34.5l-30 7q3 28 13.5 55t30.5 44.5t51 17.5zM90 528l-9 122l105 10l300 -502h2l-10 492l100 10v-660h-110 l-287 483h-2l10 -483h-99v528z" />
<glyph unicode="&#xd2;" horiz-adv-x="658" d="M447 754l-28 -33q-49 10 -104 30.5t-104 55.5l66 67q38 -33 81.5 -63t88.5 -57zM606 327q-1 -105 -37 -180.5t-99.5 -116t-145.5 -40.5q-84 0 -145 40.5t-94 115t-32 174.5q0 103 35.5 179.5t98.5 118.5t149 42q84 0 145 -42t93 -117t32 -174zM185 327q0 -74 17 -132 t50 -91.5t81 -33.5q47 0 78.5 33t47 90.5t15.5 131.5q-1 74 -17.5 131.5t-48.5 91t-79 33.5t-79.5 -32.5t-49 -90t-15.5 -131.5z" />
<glyph unicode="&#xd3;" horiz-adv-x="658" d="M447 808q-49 -35 -104 -55.5t-103 -30.5l-29 33q45 27 88.5 57t81.5 63zM606 327q-1 -105 -37 -180.5t-99.5 -116t-145.5 -40.5q-84 0 -145 40.5t-94 115t-32 174.5q0 103 35.5 179.5t98.5 118.5t149 42q84 0 145 -42t93 -117t32 -174zM185 327q0 -74 17 -132t50 -91.5 t81 -33.5q47 0 78.5 33t47 90.5t15.5 131.5q-1 74 -17.5 131.5t-48.5 91t-79 33.5t-79.5 -32.5t-49 -90t-15.5 -131.5z" />
<glyph unicode="&#xd4;" horiz-adv-x="658" d="M211 718l-32 27q58 56 101 123l97 8q20 -34 45 -66.5t58 -64.5l-32 -27q-67 36 -120 85q-54 -50 -117 -85zM606 327q-1 -105 -37 -180.5t-99.5 -116t-145.5 -40.5q-84 0 -145 40.5t-94 115t-32 174.5q0 103 35.5 179.5t98.5 118.5t149 42q84 0 145 -42t93 -117t32 -174z M185 327q0 -74 17 -132t50 -91.5t81 -33.5q47 0 78.5 33t47 90.5t15.5 131.5q-1 74 -17.5 131.5t-48.5 91t-79 33.5t-79.5 -32.5t-49 -90t-15.5 -131.5z" />
<glyph unicode="&#xd5;" horiz-adv-x="658" d="M606 327q-1 -105 -37 -180.5t-99.5 -116t-145.5 -40.5q-84 0 -145 40.5t-94 115t-32 174.5q0 103 35.5 179.5t98.5 118.5t149 42q84 0 145 -42t93 -117t32 -174zM185 327q0 -74 17 -132t50 -91.5t81 -33.5q47 0 78.5 33t47 90.5t15.5 131.5q-1 74 -17.5 131.5t-48.5 91 t-79 33.5t-79.5 -32.5t-49 -90t-15.5 -131.5z" />
<glyph unicode="&#xd6;" horiz-adv-x="658" d="M281 801q0 -33 -21 -51.5t-53 -18.5q-29 0 -45.5 15t-16.5 43q0 31 20 51.5t54 20.5q28 0 45 -15.5t17 -44.5zM514 801q0 -33 -21 -51.5t-52 -18.5q-29 0 -45.5 15t-16.5 44q0 30 19.5 50.5t53.5 20.5q28 0 45 -16t17 -44zM606 327q-1 -105 -37 -180.5t-99.5 -116 t-145.5 -40.5q-84 0 -145 40.5t-94 115t-32 174.5q0 103 35.5 179.5t98.5 118.5t149 42q84 0 145 -42t93 -117t32 -174zM185 327q0 -74 17 -132t50 -91.5t81 -33.5q47 0 78.5 33t47 90.5t15.5 131.5q-1 74 -17.5 131.5t-48.5 91t-79 33.5t-79.5 -32.5t-49 -90t-15.5 -131.5z " />
<glyph unicode="&#xd7;" horiz-adv-x="572" d="M424 127l-138 140l-136 -136l-59 58l137 137l-140 142l56 56q26 -24 63.5 -61t78.5 -78l135 136l60 -60l-136 -135l77.5 -77.5l61.5 -61.5v-9z" />
<glyph unicode="&#xd8;" horiz-adv-x="658" d="M606 327q-1 -105 -37 -180.5t-99.5 -116t-145.5 -40.5q-56 0 -102.5 18.5t-80.5 53.5l-77 -89l-43 37l84 97q-53 86 -52 213q0 103 35.5 179.5t99 118.5t148.5 42q57 0 103.5 -19.5t80.5 -55.5l78 89l44 -36l-87 -100q51 -85 51 -211zM185 326q0 -62 12 -113l245 283 q-18 39 -46 62t-67 23q-47 0 -79.5 -32.5t-49 -90t-15.5 -132.5zM474 325q-1 59 -11 107l-244 -281q18 -38 46.5 -59.5t67.5 -21.5q47 0 78.5 33t47 90.5t15.5 131.5z" />
<glyph unicode="&#xd9;" horiz-adv-x="647" d="M441 754l-28 -33q-49 10 -104 30.5t-104 55.5l66 67q38 -33 81.5 -63t88.5 -57zM324 70q55 0 86 38t31 100v320l-9 122l130 10v-448q0 -69 -32.5 -119t-88 -76.5t-124.5 -26.5q-71 0 -123 27t-80.5 77t-28.5 118v316l-9 122l130 10v-453q0 -61 31.5 -99t86.5 -38z" />
<glyph unicode="&#xda;" horiz-adv-x="647" d="M441 808q-49 -35 -104 -55.5t-103 -30.5l-29 33q45 27 88.5 57t81.5 63zM324 70q55 0 86 38t31 100v320l-9 122l130 10v-448q0 -69 -32.5 -119t-88 -76.5t-124.5 -26.5q-71 0 -123 27t-80.5 77t-28.5 118v316l-9 122l130 10v-453q0 -61 31.5 -99t86.5 -38z" />
<glyph unicode="&#xdb;" horiz-adv-x="647" d="M205 718l-32 27q58 56 101 123l97 8q20 -34 45 -66.5t58 -64.5l-32 -27q-67 36 -120 85q-54 -50 -117 -85zM324 70q55 0 86 38t31 100v320l-9 122l130 10v-448q0 -69 -32.5 -119t-88 -76.5t-124.5 -26.5q-71 0 -123 27t-80.5 77t-28.5 118v316l-9 122l130 10v-453 q0 -61 31.5 -99t86.5 -38z" />
<glyph unicode="&#xdc;" horiz-adv-x="647" d="M275 801q0 -33 -21 -51.5t-53 -18.5q-29 0 -45.5 15t-16.5 43q0 31 20 51.5t54 20.5q28 0 45 -15.5t17 -44.5zM508 801q0 -33 -21 -51.5t-52 -18.5q-29 0 -45.5 15t-16.5 44q0 30 19.5 50.5t53.5 20.5q28 0 45 -16t17 -44zM324 70q55 0 86 38t31 100v320l-9 122l130 10 v-448q0 -69 -32.5 -119t-88 -76.5t-124.5 -26.5q-71 0 -123 27t-80.5 77t-28.5 118v316l-9 122l130 10v-453q0 -61 31.5 -99t86.5 -38z" />
<glyph unicode="&#xdd;" horiz-adv-x="567" d="M402 808q-50 -35 -105 -55.5t-103 -30.5l-28 33q44 27 88 57t82 63zM344 0h-121v207l-203 443l118 10l147 -351h2l148 351l112 -10l-203 -443v-207z" />
<glyph unicode="&#xde;" horiz-adv-x="561" d="M211 0h-121v528l-9 122h130v-94h66q118 0 182.5 -60.5t64.5 -158.5q0 -72 -33 -122t-91 -76.5t-133 -26.5h-56v-112zM263 486h-52v-304h55q70 0 101.5 43.5t31.5 110.5q0 65 -32 107.5t-104 42.5z" />
<glyph unicode="&#xdf;" horiz-adv-x="607" d="M85 428l-63 1v34l63 12v7q0 76 30 123t79.5 68.5t108.5 21.5q56 0 103 -18t75.5 -52t28.5 -81q0 -56 -41.5 -99t-115.5 -59q93 -25 151 -82.5t58 -136.5q0 -78 -53 -127.5t-146 -49.5q-27 0 -56 4.5t-48 10.5v68q18 -7 39.5 -11.5t37.5 -4.5q45 0 74 32t29 84 q0 65 -47.5 113.5t-116.5 77.5v41q48 15 82.5 49t34.5 82q0 40 -25.5 66t-64.5 26q-37 0 -67 -31.5t-30 -104.5v-492h-120v428z" />
<glyph unicode="&#xe0;" horiz-adv-x="520" d="M343 584l-37 -20q-36 28 -74 69t-68 93l94 34q16 -43 39 -91t46 -85zM346 -10q-7 15 -14 35t-10 40q-21 -28 -62.5 -51.5t-95.5 -23.5q-60 0 -92 34t-32 83q0 58 39 95.5t103 55t139 17.5v54q1 92 -97 92q-39 0 -76 -13t-71 -35l-10 94q37 18 88 30.5t103 12.5 q87 0 135 -41t48 -130q0 -10 -0.5 -37t-1 -59.5t-1 -61.5t-0.5 -44q0 -37 4.5 -70.5t17.5 -66.5zM161 133q0 -35 18.5 -55.5t50.5 -20.5q23 0 48.5 12t41.5 29v144q-43 -1 -79 -13t-58 -35.5t-22 -60.5z" />
<glyph unicode="&#xe1;" horiz-adv-x="520" d="M343 726q-30 -52 -68 -93t-74 -69l-37 20q23 37 46 85t39 91zM346 -10q-7 15 -14 35t-10 40q-21 -28 -62.5 -51.5t-95.5 -23.5q-60 0 -92 34t-32 83q0 58 39 95.5t103 55t139 17.5v54q1 92 -97 92q-39 0 -76 -13t-71 -35l-10 94q37 18 88 30.5t103 12.5q87 0 135 -41 t48 -130q0 -10 -0.5 -37t-1 -59.5t-1 -61.5t-0.5 -44q0 -37 4.5 -70.5t17.5 -66.5zM161 133q0 -35 18.5 -55.5t50.5 -20.5q23 0 48.5 12t41.5 29v144q-43 -1 -79 -13t-58 -35.5t-22 -60.5z" />
<glyph unicode="&#xe2;" horiz-adv-x="520" d="M152 569l-38 22q25 36 48 75.5t42 81.5l95 8q18 -43 40.5 -83.5t51.5 -81.5l-38 -22q-29 23 -54 51t-48 59q-22 -31 -46.5 -59t-52.5 -51zM346 -10q-7 15 -14 35t-10 40q-21 -28 -62.5 -51.5t-95.5 -23.5q-60 0 -92 34t-32 83q0 58 39 95.5t103 55t139 17.5v54 q1 92 -97 92q-39 0 -76 -13t-71 -35l-10 94q37 18 88 30.5t103 12.5q87 0 135 -41t48 -130q0 -10 -0.5 -37t-1 -59.5t-1 -61.5t-0.5 -44q0 -37 4.5 -70.5t17.5 -66.5zM161 133q0 -35 18.5 -55.5t50.5 -20.5q23 0 48.5 12t41.5 29v144q-43 -1 -79 -13t-58 -35.5t-22 -60.5z " />
<glyph unicode="&#xe3;" horiz-adv-x="520" d="M188 728q28 0 49 -12.5t40.5 -25t40.5 -12.5q19 0 31.5 15t22.5 37l30 -7q-2 -29 -12.5 -57.5t-30 -46.5t-47.5 -18q-26 0 -48.5 12.5t-43 25t-40.5 12.5q-17 0 -30 -13.5t-23 -37.5l-31 6q2 29 12 57t29.5 46.5t50.5 18.5zM346 -10q-7 15 -14 35t-10 40 q-21 -28 -62.5 -51.5t-95.5 -23.5q-60 0 -92 34t-32 83q0 58 39 95.5t103 55t139 17.5v54q1 92 -97 92q-39 0 -76 -13t-71 -35l-10 94q37 18 88 30.5t103 12.5q87 0 135 -41t48 -130q0 -10 -0.5 -37t-1 -59.5t-1 -61.5t-0.5 -44q0 -37 4.5 -70.5t17.5 -66.5zM161 133 q0 -35 18.5 -55.5t50.5 -20.5q23 0 48.5 12t41.5 29v144q-43 -1 -79 -13t-58 -35.5t-22 -60.5z" />
<glyph unicode="&#xe4;" horiz-adv-x="520" d="M209 664q0 -31 -20 -48.5t-50 -17.5q-28 0 -44 14t-16 41q0 29 19 48.5t51 19.5q27 0 43.5 -15t16.5 -42zM427 664q0 -31 -20.5 -48.5t-50.5 -17.5q-27 0 -43 14t-16 41q0 29 18.5 48.5t51.5 19.5q27 0 43.5 -15t16.5 -42zM346 -10q-7 15 -14 35t-10 40 q-21 -28 -62.5 -51.5t-95.5 -23.5q-60 0 -92 34t-32 83q0 58 39 95.5t103 55t139 17.5v54q1 92 -97 92q-39 0 -76 -13t-71 -35l-10 94q37 18 88 30.5t103 12.5q87 0 135 -41t48 -130q0 -10 -0.5 -37t-1 -59.5t-1 -61.5t-0.5 -44q0 -37 4.5 -70.5t17.5 -66.5zM161 133 q0 -35 18.5 -55.5t50.5 -20.5q23 0 48.5 12t41.5 29v144q-43 -1 -79 -13t-58 -35.5t-22 -60.5z" />
<glyph unicode="&#xe5;" horiz-adv-x="520" d="M352 669q0 -47 -32 -74.5t-74 -27.5q-40 0 -66.5 23.5t-26.5 64.5q0 45 30.5 75t76.5 30q40 0 66 -24.5t26 -66.5zM206 660q0 -22 12 -35t32 -13q19 0 34 14.5t15 38.5q0 23 -12 36.5t-32 13.5q-21 0 -35 -15.5t-14 -39.5zM346 -10q-7 15 -14 35t-10 40 q-21 -28 -62.5 -51.5t-95.5 -23.5q-60 0 -92 34t-32 83q0 58 39 95.5t103 55t139 17.5v54q1 92 -97 92q-39 0 -76 -13t-71 -35l-10 94q37 18 88 30.5t103 12.5q87 0 135 -41t48 -130q0 -10 -0.5 -37t-1 -59.5t-1 -61.5t-0.5 -44q0 -37 4.5 -70.5t17.5 -66.5zM161 133 q0 -35 18.5 -55.5t50.5 -20.5q23 0 48.5 12t41.5 29v144q-43 -1 -79 -13t-58 -35.5t-22 -60.5z" />
<glyph unicode="&#xe6;" horiz-adv-x="786" d="M717 20q-24 -12 -65.5 -21t-85.5 -9q-70 0 -123.5 25.5t-84.5 75.5q-17 -24 -45 -47t-65 -38.5t-80 -15.5q-63 0 -95.5 33.5t-32.5 83.5q0 57 38 94t101.5 55.5t140.5 18.5l1 54q2 92 -97 92q-39 0 -76 -13t-71 -35l-10 94q37 18 88 30.5t100 12.5t84.5 -14.5t56.5 -44.5 q62 59 152 59q58 0 101 -23.5t67.5 -65.5t24.5 -98q0 -15 -1.5 -32t-3.5 -33l-10 -17h-285q6 -82 44 -123t112 -41q35 0 66.5 8t55.5 20zM544 445q-46 0 -74 -44t-29 -122l182 7q2 21 2 43q0 54 -21 85t-60 31zM161 134q0 -35 20 -56t54 -21q29 0 59.5 16.5t50.5 41.5 q-26 55 -25 125v0v1v1q-43 -1 -79 -13.5t-58 -36t-22 -58.5z" />
<glyph unicode="&#xe7;" horiz-adv-x="464" d="M278 -117q0 28 -57 39l25 70q-88 11 -144.5 75t-56.5 177q0 90 34.5 149t91.5 88t124 29q38 0 69 -8t57 -21l-11 -99q-21 17 -49 30t-62 13q-52 0 -91 -42t-39 -134q0 -80 34 -126t103 -46q31 0 59.5 8t52.5 20l-2 -85q-21 -12 -56 -21t-75 -9l-12 -35q46 -6 72 -24 t26 -44q0 -40 -46.5 -62t-123.5 -23l-4 36q34 4 57.5 15t23.5 30z" />
<glyph unicode="&#xe8;" horiz-adv-x="514" d="M361 584l-37 -20q-37 28 -75 69t-67 93l94 34q15 -43 38.5 -91t46.5 -85zM445 20q-24 -12 -65.5 -21t-85.5 -9q-111 0 -180 64.5t-69 189.5q0 84 31 143.5t83.5 91t116.5 31.5q58 0 101 -23.5t67.5 -65.5t24.5 -98q0 -15 -1.5 -32t-3.5 -33l-10 -17h-284 q11 -164 155 -164q34 0 66 8t56 20zM272 445q-47 0 -75 -45.5t-28 -120.5l182 7q2 21 2 43q0 54 -21 85t-60 31z" />
<glyph unicode="&#xe9;" horiz-adv-x="514" d="M361 726q-30 -52 -68 -93t-74 -69l-37 20q22 37 45.5 85t39.5 91zM445 20q-24 -12 -65.5 -21t-85.5 -9q-111 0 -180 64.5t-69 189.5q0 84 31 143.5t83.5 91t116.5 31.5q58 0 101 -23.5t67.5 -65.5t24.5 -98q0 -15 -1.5 -32t-3.5 -33l-10 -17h-284q11 -164 155 -164 q34 0 66 8t56 20zM272 445q-47 0 -75 -45.5t-28 -120.5l182 7q2 21 2 43q0 54 -21 85t-60 31z" />
<glyph unicode="&#xea;" horiz-adv-x="514" d="M170 569l-38 22q24 36 47 75.5t42 81.5l95 8q19 -43 41.5 -83.5t50.5 -81.5l-38 -22q-29 23 -54 51t-47 59q-23 -31 -47.5 -59t-51.5 -51zM445 20q-24 -12 -65.5 -21t-85.5 -9q-111 0 -180 64.5t-69 189.5q0 84 31 143.5t83.5 91t116.5 31.5q58 0 101 -23.5t67.5 -65.5 t24.5 -98q0 -15 -1.5 -32t-3.5 -33l-10 -17h-284q11 -164 155 -164q34 0 66 8t56 20zM272 445q-47 0 -75 -45.5t-28 -120.5l182 7q2 21 2 43q0 54 -21 85t-60 31z" />
<glyph unicode="&#xeb;" horiz-adv-x="514" d="M226 664q0 -31 -20 -48.5t-50 -17.5q-27 0 -43.5 14t-16.5 41q0 29 19.5 48.5t51.5 19.5q27 0 43 -15t16 -42zM444 664q0 -31 -20 -48.5t-50 -17.5q-28 0 -44 14t-16 41q0 29 19 48.5t51 19.5q27 0 43.5 -15t16.5 -42zM445 20q-24 -12 -65.5 -21t-85.5 -9 q-111 0 -180 64.5t-69 189.5q0 84 31 143.5t83.5 91t116.5 31.5q58 0 101 -23.5t67.5 -65.5t24.5 -98q0 -15 -1.5 -32t-3.5 -33l-10 -17h-284q11 -164 155 -164q34 0 66 8t56 20zM272 445q-47 0 -75 -45.5t-28 -120.5l182 7q2 21 2 43q0 54 -21 85t-60 31z" />
<glyph unicode="&#xec;" horiz-adv-x="265" d="M226 584l-37 -20q-36 28 -74 69t-68 93l94 34q16 -43 39 -91t46 -85zM194 0h-120v377l-9 123l129 10v-510z" />
<glyph unicode="&#xed;" horiz-adv-x="265" d="M226 726q-30 -52 -68 -93t-74 -69l-37 20q23 37 46 85t39 91zM194 0h-120v377l-9 123l129 10v-510z" />
<glyph unicode="&#xee;" horiz-adv-x="265" d="M64 568l-32 16q15 37 28.5 78.5t26.5 84.5l95 8q12 -45 25.5 -86.5t31.5 -84.5l-32 -16q-19 23 -37 50.5t-36 58.5q-16 -31 -34 -58.5t-36 -50.5zM194 0h-120v377l-9 123l129 10v-510z" />
<glyph unicode="&#xef;" horiz-adv-x="265" d="M116 669q0 -33 -19 -51t-49 -18q-27 0 -42.5 14.5t-15.5 42.5q0 30 18.5 50.5t49.5 20.5q26 0 42 -15.5t16 -43.5zM281 669q0 -33 -19 -51t-49 -18q-27 0 -42.5 14.5t-15.5 42.5q0 30 18.5 50.5t50.5 20.5q25 0 41 -15.5t16 -43.5zM194 0h-120v377l-9 123l129 10v-510z " />
<glyph unicode="&#xf0;" horiz-adv-x="547" d="M146 728q90 -26 164 -82l141 67l25 -49l-122 -57q66 -65 103.5 -152t37.5 -187q0 -93 -31 -155t-84.5 -92.5t-120.5 -30.5q-62 0 -110.5 26t-76 77.5t-27.5 127.5q0 86 33 141.5t84 82.5t107 27q42 0 71 -19q-29 61 -77 111l-138 -65l-23 48l118 56q-50 40 -108 64z M169 226q0 -78 24.5 -123.5t74.5 -45.5q44 0 73.5 41t29.5 139q-2 168 -96 168q-47 0 -76.5 -42.5t-29.5 -136.5z" />
<glyph unicode="&#xf1;" horiz-adv-x="561" d="M223 728q28 0 49 -12.5t40.5 -25t40.5 -12.5q19 0 31.5 15t22.5 37l30 -7q-2 -29 -12.5 -57.5t-30 -46.5t-47.5 -18q-26 0 -48.5 12.5t-43 25t-40.5 12.5q-17 0 -30 -13.5t-23 -37.5l-31 6q2 29 12 57t29.5 46.5t50.5 18.5zM194 0h-120v378l-9 122l129 10v-85 q28 40 70 62.5t92 22.5q66 0 100 -43.5t34 -112.5v-354h-120v325q0 100 -77 100q-53 0 -99 -46v-379z" />
<glyph unicode="&#xf2;" horiz-adv-x="554" d="M368 584l-37 -20q-37 28 -75 69t-67 93l94 34q15 -43 38.5 -91t46.5 -85zM509 259q0 -92 -34.5 -151.5t-90 -88.5t-118.5 -29q-64 0 -114 28.5t-78.5 84t-28.5 137.5q0 92 34 151.5t89.5 89t119.5 29.5t113.5 -28.5t78.5 -84.5t29 -138zM169 244q0 -86 26.5 -136.5 t78.5 -50.5q47 0 79 46.5t32 152.5q0 95 -27 141t-76 46q-50 0 -81.5 -47t-31.5 -152z" />
<glyph unicode="&#xf3;" horiz-adv-x="554" d="M368 726q-30 -52 -68 -93t-74 -69l-37 20q22 37 45.5 85t39.5 91zM509 259q0 -92 -34.5 -151.5t-90 -88.5t-118.5 -29q-64 0 -114 28.5t-78.5 84t-28.5 137.5q0 92 34 151.5t89.5 89t119.5 29.5t113.5 -28.5t78.5 -84.5t29 -138zM169 244q0 -86 26.5 -136.5t78.5 -50.5 q47 0 79 46.5t32 152.5q0 95 -27 141t-76 46q-50 0 -81.5 -47t-31.5 -152z" />
<glyph unicode="&#xf4;" horiz-adv-x="554" d="M177 569l-38 22q24 36 47 75.5t42 81.5l95 8q19 -43 41.5 -83.5t50.5 -81.5l-38 -22q-29 23 -54 51t-47 59q-23 -31 -47.5 -59t-51.5 -51zM509 259q0 -92 -34.5 -151.5t-90 -88.5t-118.5 -29q-64 0 -114 28.5t-78.5 84t-28.5 137.5q0 92 34 151.5t89.5 89t119.5 29.5 t113.5 -28.5t78.5 -84.5t29 -138zM169 244q0 -86 26.5 -136.5t78.5 -50.5q47 0 79 46.5t32 152.5q0 95 -27 141t-76 46q-50 0 -81.5 -47t-31.5 -152z" />
<glyph unicode="&#xf5;" horiz-adv-x="554" d="M212 728q28 0 49.5 -12.5t40.5 -25t41 -12.5q19 0 31 15t22 37l31 -7q-2 -29 -12.5 -57.5t-30 -46.5t-48.5 -18q-26 0 -48.5 12.5t-43 25t-39.5 12.5q-17 0 -30.5 -13.5t-23.5 -37.5l-30 6q2 29 12 57t29.5 46.5t49.5 18.5zM509 259q0 -92 -34.5 -151.5t-90 -88.5 t-118.5 -29q-64 0 -114 28.5t-78.5 84t-28.5 137.5q0 92 34 151.5t89.5 89t119.5 29.5t113.5 -28.5t78.5 -84.5t29 -138zM169 244q0 -86 26.5 -136.5t78.5 -50.5q47 0 79 46.5t32 152.5q0 95 -27 141t-76 46q-50 0 -81.5 -47t-31.5 -152z" />
<glyph unicode="&#xf6;" horiz-adv-x="554" d="M233 664q0 -31 -20 -48.5t-50 -17.5q-27 0 -43.5 14t-16.5 41q0 29 19.5 48.5t51.5 19.5q27 0 43 -15t16 -42zM451 664q0 -31 -20 -48.5t-50 -17.5q-28 0 -44 14t-16 41q0 29 19 48.5t51 19.5q27 0 43.5 -15t16.5 -42zM509 259q0 -92 -34.5 -151.5t-90 -88.5t-118.5 -29 q-64 0 -114 28.5t-78.5 84t-28.5 137.5q0 92 34 151.5t89.5 89t119.5 29.5t113.5 -28.5t78.5 -84.5t29 -138zM169 244q0 -86 26.5 -136.5t78.5 -50.5q47 0 79 46.5t32 152.5q0 95 -27 141t-76 46q-50 0 -81.5 -47t-31.5 -152z" />
<glyph unicode="&#xf7;" horiz-adv-x="594" d="M357 513q0 -29 -17.5 -49.5t-47.5 -20.5q-24 0 -39 17t-15 41q0 28 19 48.5t47 20.5q23 0 38 -16t15 -41zM497 284h-407v78q35 1 88 1.5t112.5 1t114.5 1t93 0.5zM357 151q0 -29 -17.5 -49t-47.5 -20q-24 0 -39 16.5t-15 40.5q0 28 19 48.5t47 20.5q23 0 38 -16t15 -41z " />
<glyph unicode="&#xf8;" horiz-adv-x="554" d="M509 259q0 -92 -34.5 -151.5t-90 -88.5t-118.5 -29q-90 0 -147 52l-50 -53l-38 36l54 58q-19 30 -29.5 69.5t-10.5 87.5q0 92 34 151.5t89.5 89t119.5 29.5q89 0 146 -52l50 53l40 -35l-55 -59q19 -30 29.5 -69.5t10.5 -88.5zM169 244q0 -36 4 -66l192 205q-26 60 -83 60 q-50 0 -81.5 -47t-31.5 -152zM385 256q0 37 -4 67l-191 -205q27 -61 84 -61q47 0 79 46.5t32 152.5z" />
<glyph unicode="&#xf9;" horiz-adv-x="557" d="M374 584l-37 -20q-37 28 -75 69t-67 93l94 34q15 -43 38.5 -91t46.5 -85zM71 142v358l120 10v-351q0 -51 19.5 -75.5t53.5 -24.5q21 0 45.5 11t46.5 31v399l120 10v-381q0 -31 4.5 -65t17.5 -64l-114 -10q-9 16 -17 40t-10 46q-27 -38 -68.5 -62t-89.5 -24 q-65 0 -96.5 43.5t-31.5 108.5z" />
<glyph unicode="&#xfa;" horiz-adv-x="557" d="M374 726q-30 -52 -68 -93t-74 -69l-37 20q22 37 45.5 85t39.5 91zM71 142v358l120 10v-351q0 -51 19.5 -75.5t53.5 -24.5q21 0 45.5 11t46.5 31v399l120 10v-381q0 -31 4.5 -65t17.5 -64l-114 -10q-9 16 -17 40t-10 46q-27 -38 -68.5 -62t-89.5 -24q-65 0 -96.5 43.5 t-31.5 108.5z" />
<glyph unicode="&#xfb;" horiz-adv-x="557" d="M183 569l-38 22q24 36 47 75.5t42 81.5l95 8q19 -43 41.5 -83.5t50.5 -81.5l-38 -22q-29 23 -54 51t-47 59q-23 -31 -47.5 -59t-51.5 -51zM71 142v358l120 10v-351q0 -51 19.5 -75.5t53.5 -24.5q21 0 45.5 11t46.5 31v399l120 10v-381q0 -31 4.5 -65t17.5 -64l-114 -10 q-9 16 -17 40t-10 46q-27 -38 -68.5 -62t-89.5 -24q-65 0 -96.5 43.5t-31.5 108.5z" />
<glyph unicode="&#xfc;" horiz-adv-x="557" d="M239 664q0 -31 -20 -48.5t-50 -17.5q-27 0 -43.5 14t-16.5 41q0 29 19.5 48.5t51.5 19.5q27 0 43 -15t16 -42zM457 664q0 -31 -20 -48.5t-50 -17.5q-28 0 -44 14t-16 41q0 29 19 48.5t51 19.5q27 0 43.5 -15t16.5 -42zM71 142v358l120 10v-351q0 -51 19.5 -75.5 t53.5 -24.5q21 0 45.5 11t46.5 31v399l120 10v-381q0 -31 4.5 -65t17.5 -64l-114 -10q-9 16 -17 40t-10 46q-27 -38 -68.5 -62t-89.5 -24q-65 0 -96.5 43.5t-31.5 108.5z" />
<glyph unicode="&#xfd;" horiz-adv-x="498" d="M343 726q-30 -52 -68 -93t-74 -69l-37 20q23 37 46 85t39 91zM59 -195q-31 0 -54.5 3t-46.5 9v91q26 -7 60.5 -11t61.5 -4q60 0 111 30.5t70 88.5h-102l-133 489l124 9l108 -438h2l101 438l112 -9q-13 -58 -29.5 -124.5t-36 -134t-39 -130.5t-37.5 -112 q-27 -75 -64 -117.5t-88 -60t-120 -17.5z" />
<glyph unicode="&#xfe;" horiz-adv-x="554" d="M74 563l-9 122l129 10v-250q24 30 60 47.5t77 17.5q77 0 127.5 -64t50.5 -181q0 -93 -31 -154t-81.5 -91t-109.5 -30q-27 0 -50.5 6.5t-42.5 16.5v-60q0 -37 2 -70t8 -68l-130 -10v758zM275 443q-49 0 -81 -36v-331q30 -19 68 -19q60 0 92 49t32 151q0 84 -28 135t-83 51 z" />
<glyph unicode="&#xff;" horiz-adv-x="498" d="M209 664q0 -31 -20 -48.5t-50 -17.5q-28 0 -44 14t-16 41q0 29 19 48.5t51 19.5q27 0 43.5 -15t16.5 -42zM427 664q0 -31 -20.5 -48.5t-50.5 -17.5q-27 0 -43 14t-16 41q0 29 18.5 48.5t51.5 19.5q27 0 43.5 -15t16.5 -42zM59 -195q-31 0 -54.5 3t-46.5 9v91 q26 -7 60.5 -11t61.5 -4q60 0 111 30.5t70 88.5h-102l-133 489l124 9l108 -438h2l101 438l112 -9q-13 -58 -29.5 -124.5t-36 -134t-39 -130.5t-37.5 -112q-27 -75 -64 -117.5t-88 -60t-120 -17.5z" />
<glyph unicode="&#x100;" horiz-adv-x="619" d="M172 760v72h275v-72h-275zM144 0h-114l167 526l36 125l157 9l199 -660h-120l-44 154h-237zM307 566l-100 -347h200l-99 347h-1z" />
<glyph unicode="&#x101;" horiz-adv-x="520" d="M130 624v73h245v-73h-245zM346 -10q-7 15 -14 35t-10 40q-21 -28 -62.5 -51.5t-95.5 -23.5q-60 0 -92 34t-32 83q0 58 39 95.5t103 55t139 17.5v54q1 92 -97 92q-39 0 -76 -13t-71 -35l-10 94q37 18 88 30.5t103 12.5q87 0 135 -41t48 -130q0 -10 -0.5 -37t-1 -59.5 t-1 -61.5t-0.5 -44q0 -37 4.5 -70.5t17.5 -66.5zM161 133q0 -35 18.5 -55.5t50.5 -20.5q23 0 48.5 12t41.5 29v144q-43 -1 -79 -13t-58 -35.5t-22 -60.5z" />
<glyph unicode="&#x102;" horiz-adv-x="619" d="M307 724q-54 0 -92 38.5t-41 97.5l42 7q11 -32 35 -49.5t59 -17.5q36 0 59 19t33 48l43 7q-4 -64 -42 -107t-96 -43zM144 0h-114l167 526l36 125l157 9l199 -660h-120l-44 154h-237zM307 566l-100 -347h200l-99 347h-1z" />
<glyph unicode="&#x103;" horiz-adv-x="520" d="M249 571q-52 0 -87.5 45t-38.5 124l44 7q8 -53 30.5 -78.5t55.5 -25.5t55.5 27.5t30.5 77.5l43 6q-4 -81 -39.5 -132t-93.5 -51zM346 -10q-7 15 -14 35t-10 40q-21 -28 -62.5 -51.5t-95.5 -23.5q-60 0 -92 34t-32 83q0 58 39 95.5t103 55t139 17.5v54q1 92 -97 92 q-39 0 -76 -13t-71 -35l-10 94q37 18 88 30.5t103 12.5q87 0 135 -41t48 -130q0 -10 -0.5 -37t-1 -59.5t-1 -61.5t-0.5 -44q0 -37 4.5 -70.5t17.5 -66.5zM161 133q0 -35 18.5 -55.5t50.5 -20.5q23 0 48.5 12t41.5 29v144q-43 -1 -79 -13t-58 -35.5t-22 -60.5z" />
<glyph unicode="&#x104;" horiz-adv-x="619" d="M144 0h-114l167 526l36 125l157 9l199 -660h-1q-43 -18 -71.5 -47t-28.5 -57q0 -37 45 -37q12 0 23.5 3t25.5 9l12 -34q-16 -15 -43 -25.5t-60 -10.5q-39 0 -64 17t-25 52q0 38 31 72.5t83 57.5h-47l-44 154h-237zM307 566l-100 -347h200l-99 347h-1z" />
<glyph unicode="&#x105;" horiz-adv-x="520" d="M346 -10q-7 15 -14 35t-10 40q-21 -28 -62.5 -51.5t-95.5 -23.5q-60 0 -92 34t-32 83q0 58 39 95.5t103 55t139 17.5v54q1 92 -97 92q-39 0 -76 -13t-71 -35l-10 94q37 18 88 30.5t103 12.5q87 0 135 -41t48 -130q0 -10 -0.5 -37t-1 -59.5t-1 -61.5t-0.5 -44 q0 -37 4.5 -70.5t17.5 -66.5q-43 -18 -71.5 -47t-28.5 -57q0 -37 45 -37q12 0 23.5 3t25.5 9l12 -34q-16 -15 -43 -25.5t-60 -10.5q-39 0 -64 17t-25 52t26.5 67t70.5 55zM161 133q0 -35 18.5 -55.5t50.5 -20.5q23 0 48.5 12t41.5 29v144q-43 -1 -79 -13t-58 -35.5 t-22 -60.5z" />
<glyph unicode="&#x106;" horiz-adv-x="547" d="M447 808q-49 -35 -104 -55.5t-103 -30.5l-29 33q45 27 88.5 57t81.5 63zM495 112l16 -86q-37 -18 -80.5 -27t-85.5 -9q-94 0 -159.5 41t-99.5 115.5t-33 173.5q0 102 36 178.5t101.5 119t155.5 42.5q44 0 88 -9.5t77 -25.5l-19 -94q-24 17 -61 28.5t-73 11.5 q-90 0 -132 -67.5t-41 -176.5q0 -72 19.5 -126.5t60.5 -85.5t105 -31q34 0 68.5 7.5t56.5 20.5z" />
<glyph unicode="&#x107;" horiz-adv-x="464" d="M348 726q-30 -52 -68 -93t-74 -69l-37 20q22 37 45.5 85t39.5 91zM421 481l-11 -99q-21 17 -49 30t-62 13q-52 0 -91 -42t-39 -134q0 -80 34 -126t103 -46q31 0 59.5 8t52.5 20l-2 -85q-21 -12 -56.5 -21t-76.5 -9q-68 0 -122 29t-85 85.5t-31 139.5q0 90 34.5 149 t91.5 88t124 29q38 0 69 -8t57 -21z" />
<glyph unicode="&#x108;" horiz-adv-x="547" d="M211 718l-32 27q58 56 101 123l97 8q20 -34 45 -66.5t58 -64.5l-32 -27q-67 36 -120 85q-54 -50 -117 -85zM495 112l16 -86q-37 -18 -80.5 -27t-85.5 -9q-94 0 -159.5 41t-99.5 115.5t-33 173.5q0 102 36 178.5t101.5 119t155.5 42.5q44 0 88 -9.5t77 -25.5l-19 -94 q-24 17 -61 28.5t-73 11.5q-90 0 -132 -67.5t-41 -176.5q0 -72 19.5 -126.5t60.5 -85.5t105 -31q34 0 68.5 7.5t56.5 20.5z" />
<glyph unicode="&#x109;" horiz-adv-x="464" d="M157 569l-38 22q24 36 47 75.5t42 81.5l95 8q19 -43 41.5 -83.5t50.5 -81.5l-38 -22q-29 23 -54 51t-47 59q-23 -31 -47.5 -59t-51.5 -51zM421 481l-11 -99q-21 17 -49 30t-62 13q-52 0 -91 -42t-39 -134q0 -80 34 -126t103 -46q31 0 59.5 8t52.5 20l-2 -85 q-21 -12 -56.5 -21t-76.5 -9q-68 0 -122 29t-85 85.5t-31 139.5q0 90 34.5 149t91.5 88t124 29q38 0 69 -8t57 -21z" />
<glyph unicode="&#x10a;" horiz-adv-x="547" d="M401 802q0 -33 -22.5 -52.5t-54.5 -19.5q-29 0 -47.5 16t-18.5 44q0 31 21.5 52t56.5 21q28 0 46.5 -16t18.5 -45zM495 112l16 -86q-37 -18 -80.5 -27t-85.5 -9q-94 0 -159.5 41t-99.5 115.5t-33 173.5q0 102 36 178.5t101.5 119t155.5 42.5q44 0 88 -9.5t77 -25.5 l-19 -94q-24 17 -61 28.5t-73 11.5q-90 0 -132 -67.5t-41 -176.5q0 -72 19.5 -126.5t60.5 -85.5t105 -31q34 0 68.5 7.5t56.5 20.5z" />
<glyph unicode="&#x10b;" horiz-adv-x="464" d="M329 665q0 -33 -22.5 -52.5t-54.5 -19.5q-30 0 -48 16t-18 44q0 31 21.5 52t55.5 21q29 0 47.5 -16t18.5 -45zM421 481l-11 -99q-21 17 -49 30t-62 13q-52 0 -91 -42t-39 -134q0 -80 34 -126t103 -46q31 0 59.5 8t52.5 20l-2 -85q-21 -12 -56.5 -21t-76.5 -9 q-68 0 -122 29t-85 85.5t-31 139.5q0 90 34.5 149t91.5 88t124 29q38 0 69 -8t57 -21z" />
<glyph unicode="&#x10c;" horiz-adv-x="547" d="M448 876l32 -26q-58 -57 -101 -124l-97 -8q-21 34 -45.5 66.5t-57.5 65.5l32 26q66 -36 119 -85q54 50 118 85zM495 112l16 -86q-37 -18 -80.5 -27t-85.5 -9q-94 0 -159.5 41t-99.5 115.5t-33 173.5q0 102 36 178.5t101.5 119t155.5 42.5q44 0 88 -9.5t77 -25.5l-19 -94 q-24 17 -61 28.5t-73 11.5q-90 0 -132 -67.5t-41 -176.5q0 -72 19.5 -126.5t60.5 -85.5t105 -31q34 0 68.5 7.5t56.5 20.5z" />
<glyph unicode="&#x10d;" horiz-adv-x="464" d="M357 757l38 -23q-25 -36 -48 -75.5t-41 -80.5l-95 -8q-19 42 -41.5 82.5t-50.5 81.5l37 23q29 -24 54 -52t48 -59q22 31 46.5 59t52.5 52zM421 481l-11 -99q-21 17 -49 30t-62 13q-52 0 -91 -42t-39 -134q0 -80 34 -126t103 -46q31 0 59.5 8t52.5 20l-2 -85 q-21 -12 -56.5 -21t-76.5 -9q-68 0 -122 29t-85 85.5t-31 139.5q0 90 34.5 149t91.5 88t124 29q38 0 69 -8t57 -21z" />
<glyph unicode="&#x10e;" horiz-adv-x="648" d="M441 876l32 -26q-58 -57 -100 -124l-97 -8q-21 34 -46 66.5t-57 65.5l32 26q66 -36 119 -85q54 50 117 85zM90 528l-9 122h212q97 0 164.5 -40.5t103 -113.5t34.5 -169q0 -102 -39.5 -175.5t-110 -112.5t-164.5 -39h-191v528zM276 575h-65v-499h69q64 0 104.5 32t60 88.5 t18.5 128.5q0 72 -20 128.5t-61.5 89t-105.5 32.5z" />
<glyph unicode="&#x10f;" horiz-adv-x="561" d="M659 751q-16 -62 -41.5 -115.5t-52.5 -92.5l-41 9q11 44 20.5 100t14.5 105zM388 -10q-14 26 -23 66q-24 -31 -61.5 -48.5t-79.5 -17.5q-79 0 -129 65t-50 181q0 92 31 153t81.5 91t108.5 30q28 0 51.5 -6.5t42.5 -16.5v76l-9 122l129 10v-542q0 -43 5 -79.5t18 -73.5z M169 244q0 -85 27.5 -136t83.5 -51q48 0 80 36v1v330q-30 19 -68 19q-60 0 -91.5 -49t-31.5 -150z" />
<glyph unicode="&#x110;" horiz-adv-x="648" d="M90 528l-9 122h212q97 0 164.5 -40.5t103 -113.5t34.5 -169q0 -102 -39.5 -175.5t-110 -112.5t-164.5 -39h-191v300h-75v51h75v177zM369 300h-158v-224h69q64 0 104.5 32t60 88.5t18.5 128.5q0 72 -20 128.5t-61.5 89t-105.5 32.5h-65v-224h158v-51z" />
<glyph unicode="&#x111;" horiz-adv-x="561" d="M388 -10q-14 26 -23 66q-24 -31 -61.5 -48.5t-79.5 -17.5q-79 0 -129 65t-50 181q0 92 31 153t81.5 91t108.5 30q28 0 51.5 -6.5t42.5 -16.5v73h-172v51h168l-5 74l129 10v-84h81v-51h-81v-407q0 -43 5 -79.5t18 -73.5zM169 244q0 -85 27.5 -136t83.5 -51q48 0 80 36v1 v330q-30 19 -68 19q-60 0 -91.5 -49t-31.5 -150z" />
<glyph unicode="&#x112;" horiz-adv-x="508" d="M131 760v72h275v-72h-275zM461 0h-371v523l-9 127h375l-8 -80l-237 7v-219l185 4l-8 -76l-177 4v-217l252 8z" />
<glyph unicode="&#x113;" horiz-adv-x="514" d="M148 624v73h245v-73h-245zM445 20q-24 -12 -65.5 -21t-85.5 -9q-111 0 -180 64.5t-69 189.5q0 84 31 143.5t83.5 91t116.5 31.5q58 0 101 -23.5t67.5 -65.5t24.5 -98q0 -15 -1.5 -32t-3.5 -33l-10 -17h-284q11 -164 155 -164q34 0 66 8t56 20zM272 445q-47 0 -75 -45.5 t-28 -120.5l182 7q2 21 2 43q0 54 -21 85t-60 31z" />
<glyph unicode="&#x114;" horiz-adv-x="508" d="M266 724q-54 0 -92 38.5t-41 97.5l42 7q11 -32 35 -49.5t59 -17.5q36 0 59 19t33 48l43 7q-4 -64 -42 -107t-96 -43zM461 0h-371v523l-9 127h375l-8 -80l-237 7v-219l185 4l-8 -76l-177 4v-217l252 8z" />
<glyph unicode="&#x115;" horiz-adv-x="514" d="M266 571q-52 0 -87 45t-38 124l44 7q8 -53 30.5 -78.5t54.5 -25.5q34 0 56 27.5t30 77.5l43 6q-3 -81 -39 -132t-94 -51zM445 20q-24 -12 -65.5 -21t-85.5 -9q-111 0 -180 64.5t-69 189.5q0 84 31 143.5t83.5 91t116.5 31.5q58 0 101 -23.5t67.5 -65.5t24.5 -98 q0 -15 -1.5 -32t-3.5 -33l-10 -17h-284q11 -164 155 -164q34 0 66 8t56 20zM272 445q-47 0 -75 -45.5t-28 -120.5l182 7q2 21 2 43q0 54 -21 85t-60 31z" />
<glyph unicode="&#x116;" horiz-adv-x="508" d="M340 802q0 -33 -22.5 -52.5t-54.5 -19.5q-29 0 -47.5 16t-18.5 44q0 31 21.5 52t56.5 21q28 0 46.5 -16t18.5 -45zM461 0h-371v523l-9 127h375l-8 -80l-237 7v-219l185 4l-8 -76l-177 4v-217l252 8z" />
<glyph unicode="&#x117;" horiz-adv-x="514" d="M342 665q0 -33 -22.5 -52.5t-54.5 -19.5q-30 0 -48 16t-18 44q0 31 21.5 52t55.5 21q29 0 47.5 -16t18.5 -45zM445 20q-24 -12 -65.5 -21t-85.5 -9q-111 0 -180 64.5t-69 189.5q0 84 31 143.5t83.5 91t116.5 31.5q58 0 101 -23.5t67.5 -65.5t24.5 -98q0 -15 -1.5 -32 t-3.5 -33l-10 -17h-284q11 -164 155 -164q34 0 66 8t56 20zM272 445q-47 0 -75 -45.5t-28 -120.5l182 7q2 21 2 43q0 54 -21 85t-60 31z" />
<glyph unicode="&#x118;" horiz-adv-x="508" d="M460 0q-43 -18 -71.5 -47t-28.5 -57q0 -37 45 -37q12 0 23.5 3t25.5 9l12 -34q-16 -15 -43 -25.5t-60 -10.5q-39 0 -64 17t-25 52q0 38 31 72.5t83 57.5h-298v523l-9 127h375l-8 -80l-237 7v-219l185 4l-8 -76l-177 4v-217l252 8l-2 -81h-1z" />
<glyph unicode="&#x119;" horiz-adv-x="514" d="M445 20q-48 -25 -79.5 -59t-31.5 -65q0 -37 44 -37q12 0 24 3t25 9l13 -34q-17 -15 -43.5 -25.5t-59.5 -10.5q-40 0 -64.5 17t-24.5 52q0 33 23 64.5t63 57.5q-21 -2 -40 -2q-111 0 -180 64.5t-69 189.5q0 84 31 143.5t83.5 91t116.5 31.5q58 0 101 -23.5t67.5 -65.5 t24.5 -98q0 -15 -1.5 -32t-3.5 -33l-10 -17h-284q11 -164 155 -164q34 0 66 8t56 20zM272 445q-47 0 -75 -45.5t-28 -120.5l182 7q2 21 2 43q0 54 -21 85t-60 31z" />
<glyph unicode="&#x11a;" horiz-adv-x="508" d="M387 876l32 -26q-58 -57 -101 -124l-97 -8q-21 34 -45.5 66.5t-57.5 65.5l32 26q66 -36 119 -85q54 50 118 85zM461 0h-371v523l-9 127h375l-8 -80l-237 7v-219l185 4l-8 -76l-177 4v-217l252 8z" />
<glyph unicode="&#x11b;" horiz-adv-x="514" d="M370 757l38 -23q-25 -36 -48 -75.5t-41 -80.5l-95 -8q-19 42 -41.5 82.5t-50.5 81.5l37 23q29 -24 54 -52t48 -59q22 31 46.5 59t52.5 52zM445 20q-24 -12 -65.5 -21t-85.5 -9q-111 0 -180 64.5t-69 189.5q0 84 31 143.5t83.5 91t116.5 31.5q58 0 101 -23.5t67.5 -65.5 t24.5 -98q0 -15 -1.5 -32t-3.5 -33l-10 -17h-284q11 -164 155 -164q34 0 66 8t56 20zM272 445q-47 0 -75 -45.5t-28 -120.5l182 7q2 21 2 43q0 54 -21 85t-60 31z" />
<glyph unicode="&#x11c;" horiz-adv-x="616" d="M222 718l-32 27q57 56 100 123l97 8q21 -34 45.5 -66.5t57.5 -64.5l-32 -27q-66 36 -119 85q-54 -50 -117 -85zM544 26q-41 -18 -89.5 -27t-96.5 -9q-97 0 -165.5 40.5t-104.5 115t-35 174.5q0 103 39 179.5t109 118.5t164 42q47 0 92.5 -10t79.5 -27l-19 -94 q-29 19 -66 30.5t-78 11.5q-96 0 -143 -68t-46 -178q0 -75 23 -132.5t68 -89.5t113 -32q22 0 49 4v89l-9 123l115 10v-271z" />
<glyph unicode="&#x11d;" horiz-adv-x="507" d="M151 569l-38 22q24 36 47 75.5t42 81.5l95 8q19 -43 41.5 -83.5t50.5 -81.5l-38 -22q-29 23 -54 51t-47 59q-23 -31 -47.5 -59t-51.5 -51zM99 89q1 53 67 77q-57 16 -89 56t-32 103q0 55 24.5 96.5t69 65t105.5 23.5q49 0 87 0.5t75 2t83 5.5v-77l-127 7v-1 q39 -14 60.5 -49.5t21.5 -78.5q0 -52 -27 -88t-73 -55t-104 -19q-18 1 -35 2q-12 -12 -12 -26q0 -17 12 -25t27 -10.5t25 -3.5l69 -3q78 -5 123 -34.5t45 -90.5q0 -72 -68 -115t-201 -43q-95 0 -151.5 25.5t-56.5 78.5q0 31 19 53.5t48 36.5t59 20q-19 11 -31.5 28t-12.5 39 zM163 327q0 -49 20.5 -83.5t63.5 -34.5q39 0 58.5 30.5t19.5 87.5q0 51 -18.5 84.5t-59.5 33.5t-62.5 -33t-21.5 -85zM134 -66q0 -39 29 -61.5t83 -22.5q60 0 98.5 24.5t38.5 62.5q0 61 -96 66l-84 3q-6 1 -11 1q-25 -10 -41.5 -29.5t-16.5 -43.5z" />
<glyph unicode="&#x11e;" horiz-adv-x="616" d="M337 724q-54 0 -91.5 38.5t-41.5 97.5l43 7q11 -32 35 -49.5t58 -17.5q36 0 59 19t34 48l43 7q-5 -64 -42.5 -107t-96.5 -43zM544 26q-41 -18 -89.5 -27t-96.5 -9q-97 0 -165.5 40.5t-104.5 115t-35 174.5q0 103 39 179.5t109 118.5t164 42q47 0 92.5 -10t79.5 -27 l-19 -94q-29 19 -66 30.5t-78 11.5q-96 0 -143 -68t-46 -178q0 -75 23 -132.5t68 -89.5t113 -32q22 0 49 4v89l-9 123l115 10v-271z" />
<glyph unicode="&#x11f;" horiz-adv-x="507" d="M247 571q-52 0 -87 45t-38 124l44 7q8 -53 30.5 -78.5t54.5 -25.5q34 0 56 27.5t30 77.5l43 6q-3 -81 -39 -132t-94 -51zM99 89q1 53 67 77q-57 16 -89 56t-32 103q0 55 24.5 96.5t69 65t105.5 23.5q49 0 87 0.5t75 2t83 5.5v-77l-127 7v-1q39 -14 60.5 -49.5t21.5 -78.5 q0 -52 -27 -88t-73 -55t-104 -19q-18 1 -35 2q-12 -12 -12 -26q0 -17 12 -25t27 -10.5t25 -3.5l69 -3q78 -5 123 -34.5t45 -90.5q0 -72 -68 -115t-201 -43q-95 0 -151.5 25.5t-56.5 78.5q0 31 19 53.5t48 36.5t59 20q-19 11 -31.5 28t-12.5 39zM163 327q0 -49 20.5 -83.5 t63.5 -34.5q39 0 58.5 30.5t19.5 87.5q0 51 -18.5 84.5t-59.5 33.5t-62.5 -33t-21.5 -85zM134 -66q0 -39 29 -61.5t83 -22.5q60 0 98.5 24.5t38.5 62.5q0 61 -96 66l-84 3q-6 1 -11 1q-25 -10 -41.5 -29.5t-16.5 -43.5z" />
<glyph unicode="&#x120;" horiz-adv-x="616" d="M412 802q0 -33 -22.5 -52.5t-54.5 -19.5q-30 0 -48 16t-18 44q0 31 21.5 52t55.5 21q29 0 47.5 -16t18.5 -45zM544 26q-41 -18 -89.5 -27t-96.5 -9q-97 0 -165.5 40.5t-104.5 115t-35 174.5q0 103 39 179.5t109 118.5t164 42q47 0 92.5 -10t79.5 -27l-19 -94 q-29 19 -66 30.5t-78 11.5q-96 0 -143 -68t-46 -178q0 -75 23 -132.5t68 -89.5t113 -32q22 0 49 4v89l-9 123l115 10v-271z" />
<glyph unicode="&#x121;" horiz-adv-x="507" d="M323 665q0 -33 -22.5 -52.5t-54.5 -19.5q-30 0 -48 16t-18 44q0 31 21.5 52t55.5 21q29 0 47.5 -16t18.5 -45zM99 89q1 53 67 77q-57 16 -89 56t-32 103q0 55 24.5 96.5t69 65t105.5 23.5q49 0 87 0.5t75 2t83 5.5v-77l-127 7v-1q39 -14 60.5 -49.5t21.5 -78.5 q0 -52 -27 -88t-73 -55t-104 -19q-18 1 -35 2q-12 -12 -12 -26q0 -17 12 -25t27 -10.5t25 -3.5l69 -3q78 -5 123 -34.5t45 -90.5q0 -72 -68 -115t-201 -43q-95 0 -151.5 25.5t-56.5 78.5q0 31 19 53.5t48 36.5t59 20q-19 11 -31.5 28t-12.5 39zM163 327q0 -49 20.5 -83.5 t63.5 -34.5q39 0 58.5 30.5t19.5 87.5q0 51 -18.5 84.5t-59.5 33.5t-62.5 -33t-21.5 -85zM134 -66q0 -39 29 -61.5t83 -22.5q60 0 98.5 24.5t38.5 62.5q0 61 -96 66l-84 3q-6 1 -11 1q-25 -10 -41.5 -29.5t-16.5 -43.5z" />
<glyph unicode="&#x122;" horiz-adv-x="616" d="M544 26q-41 -18 -89.5 -27t-96.5 -9q-97 0 -165.5 40.5t-104.5 115t-35 174.5q0 103 39 179.5t109 118.5t164 42q47 0 92.5 -10t79.5 -27l-19 -94q-29 19 -66 30.5t-78 11.5q-96 0 -143 -68t-46 -178q0 -75 23 -132.5t68 -89.5t113 -32q22 0 49 4v89l-9 123l115 10v-271z M387 -141q0 -38 -24 -79.5t-54 -68.5l-28 13q11 19 19.5 40.5t13.5 43.5q-20 4 -34 18t-14 39q0 28 17.5 45.5t44.5 17.5t43 -19t16 -50z" />
<glyph unicode="&#x123;" horiz-adv-x="507" d="M190 647q0 38 23.5 79.5t53.5 68.5l29 -14q-12 -18 -20.5 -39.5t-13.5 -44.5q20 -3 34 -17t14 -39q0 -28 -17.5 -45.5t-43.5 -17.5q-27 0 -43 19t-16 50zM99 89q1 53 67 77q-57 16 -89 56t-32 103q0 55 24.5 96.5t69 65t105.5 23.5q49 0 87 0.5t75 2t83 5.5v-77l-127 7 v-1q39 -14 60.5 -49.5t21.5 -78.5q0 -52 -27 -88t-73 -55t-104 -19q-18 1 -35 2q-12 -12 -12 -26q0 -17 12 -25t27 -10.5t25 -3.5l69 -3q78 -5 123 -34.5t45 -90.5q0 -72 -68 -115t-201 -43q-95 0 -151.5 25.5t-56.5 78.5q0 31 19 53.5t48 36.5t59 20q-19 11 -31.5 28 t-12.5 39zM163 327q0 -49 20.5 -83.5t63.5 -34.5q39 0 58.5 30.5t19.5 87.5q0 51 -18.5 84.5t-59.5 33.5t-62.5 -33t-21.5 -85zM134 -66q0 -39 29 -61.5t83 -22.5q60 0 98.5 24.5t38.5 62.5q0 61 -96 66l-84 3q-6 1 -11 1q-25 -10 -41.5 -29.5t-16.5 -43.5z" />
<glyph unicode="&#x124;" horiz-adv-x="677" d="M220 718l-32 27q58 56 101 123l97 8q20 -34 45 -66.5t58 -64.5l-32 -27q-67 36 -120 85q-54 -50 -117 -85zM211 0h-121v528l-9 122l130 10v-318h255v186l-9 122l130 11v-661h-121v275h-255v-275z" />
<glyph unicode="&#x125;" horiz-adv-x="561" d="M14 719l-32 26q57 57 100 124l97 8q21 -35 45.5 -67t57.5 -65l-32 -26q-66 36 -119 84q-54 -49 -117 -84zM194 0h-120v563l-9 122l129 10v-271q28 41 70 63.5t90 22.5q68 0 102 -43.5t34 -112.5v-354h-120v325q0 100 -77 100q-53 0 -99 -46v-379z" />
<glyph unicode="&#x126;" horiz-adv-x="677" d="M211 0h-121v468h-74v51h74v9l-9 122l130 10v-141h255v9l-9 122l130 11v-142h74v-51h-74v-468h-121v275h-255v-275zM211 342h255v126h-255v-126z" />
<glyph unicode="&#x127;" horiz-adv-x="561" d="M194 0h-120v563v0h-72v51h68l-5 71l129 10v-81h181v-51h-181v-139q28 41 70 63.5t90 22.5q68 0 102 -43.5t34 -112.5v-354h-120v325q0 100 -77 100q-53 0 -99 -46v-379z" />
<glyph unicode="&#x128;" horiz-adv-x="301" d="M93 857q26 0 46 -10.5t37.5 -21t38.5 -10.5q20 0 33 13t25 34l30 -7q-3 -29 -14.5 -56t-31 -44.5t-48.5 -17.5q-25 0 -46 10.5t-40 21.5t-37 11t-32 -12.5t-26 -34.5l-30 7q3 28 13.5 55t30.5 44.5t51 17.5zM211 0h-121v528l-9 122l130 10v-660z" />
<glyph unicode="&#x129;" horiz-adv-x="265" d="M93 730q21 0 35 -12t25.5 -24t24.5 -12q14 0 24 15t16 35l34 -7q-3 -50 -20.5 -88t-52.5 -38q-22 0 -36 11.5t-26 23.5t-25 12q-14 0 -24 -15t-15 -34l-34 6q1 33 9.5 62t24.5 47t40 18zM194 0h-120v377l-9 123l129 10v-510z" />
<glyph unicode="&#x12a;" horiz-adv-x="301" d="M13 760v72h275v-72h-275zM211 0h-121v528l-9 122l130 10v-660z" />
<glyph unicode="&#x12b;" horiz-adv-x="265" d="M44 624v73h193v-73h-193zM194 0h-120v377l-9 123l129 10v-510z" />
<glyph unicode="&#x12c;" horiz-adv-x="301" d="M148 724q-54 0 -92 38.5t-41 97.5l42 7q11 -32 35 -49.5t59 -17.5q36 0 59 19t33 48l43 7q-4 -64 -42 -107t-96 -43zM211 0h-121v528l-9 122l130 10v-660z" />
<glyph unicode="&#x12d;" horiz-adv-x="265" d="M132 569q-46 0 -75.5 45t-30.5 126l45 7q6 -52 22.5 -76.5t42.5 -24.5t42.5 27t22.5 75l44 6q-2 -82 -32 -133.5t-81 -51.5zM194 0h-120v377l-9 123l129 10v-510z" />
<glyph unicode="&#x12e;" horiz-adv-x="363" d="M245 0q-33 -19 -55.5 -46.5t-22.5 -53.5q0 -19 11.5 -30t33.5 -11q12 0 23.5 3t25.5 9l12 -34q-16 -15 -43 -25.5t-60 -10.5q-39 0 -64 18.5t-25 54.5q0 37 27 70t72 56h-56v528l-9 122l130 10v-660z" />
<glyph unicode="&#x12f;" horiz-adv-x="314" d="M238 665q0 -33 -22.5 -52.5t-54.5 -19.5q-29 0 -47.5 16t-18.5 44q0 31 21.5 52t56.5 21q28 0 46.5 -16t18.5 -45zM225 0q-33 -21 -54 -50.5t-21 -53.5q0 -37 44 -37q12 0 24 3t25 9l13 -34q-17 -15 -43.5 -25.5t-59.5 -10.5q-40 0 -65 17t-25 52q0 36 27.5 70.5 t72.5 59.5h-58v377l-9 123l129 10v-510v0z" />
<glyph unicode="&#x130;" horiz-adv-x="301" d="M222 802q0 -33 -22.5 -52.5t-54.5 -19.5q-29 0 -47.5 16t-18.5 44q0 31 21.5 52t56.5 21q28 0 46.5 -16t18.5 -45zM211 0h-121v528l-9 122l130 10v-660z" />
<glyph unicode="&#x131;" horiz-adv-x="265" d="M194 0h-120v377l-9 123l129 10v-510z" />
<glyph unicode="&#x132;" horiz-adv-x="601" d="M211 0h-121v528l-9 122l130 10v-660zM296 -140q51 19 73 59t22 95v514l-9 122l129 10v-582q0 -75 -16.5 -132t-61 -92.5t-128.5 -48.5z" />
<glyph unicode="&#x133;" horiz-adv-x="530" d="M207 665q0 -33 -22.5 -52.5t-54.5 -19.5q-29 0 -47.5 16t-18.5 44q0 31 21.5 52t56.5 21q28 0 46.5 -16t18.5 -45zM470 665q0 -33 -22.5 -52.5t-54.5 -19.5q-30 0 -48 16t-18 44q0 31 21.5 52t55.5 21q29 0 47.5 -16t18.5 -45zM194 0h-120v377l-9 123l129 10v-510z M274 -148q33 36 49 84t16 118v323l-9 123l129 10v-438q0 -94 -34 -162.5t-124 -102.5z" />
<glyph unicode="&#x134;" horiz-adv-x="300" d="M32 718l-32 27q57 56 100 123l97 8q21 -34 45.5 -66.5t57.5 -64.5l-32 -27q-66 36 -119 85q-54 -50 -117 -85zM-5 -140q51 19 73 59t22 95v514l-9 122l129 10v-582q0 -75 -16.5 -132t-61 -92.5t-128.5 -48.5z" />
<glyph unicode="&#x135;" horiz-adv-x="265" d="M62 568l-33 16q15 37 29 78.5t26 84.5l95 8q12 -45 26 -86.5t32 -84.5l-33 -16q-19 23 -37 50.5t-35 58.5q-17 -31 -34.5 -58.5t-35.5 -50.5zM9 -148q33 36 49 84t16 118v323l-9 123l129 10v-438q0 -94 -34 -162.5t-124 -102.5z" />
<glyph unicode="&#x136;" horiz-adv-x="589" d="M90 528l-9 122l131 10v-310h71l157 310l114 -10l-174 -333l179 -317l-126 -10l-151 293h-70v-283h-122v528zM365 -141q0 -38 -24 -79.5t-53 -68.5l-29 13q11 19 20 40.5t13 43.5q-20 4 -33.5 18t-13.5 39q0 28 17.5 45.5t43.5 17.5q27 0 43 -19t16 -50z" />
<glyph unicode="&#x137;" horiz-adv-x="518" d="M194 0h-120v563l-9 122l129 10v-410h52l135 225l119 -10l-152 -229l168 -271l-130 -10l-137 246h-55v-236zM332 -141q0 -38 -24 -79.5t-54 -68.5l-29 13q12 19 20.5 40.5t13.5 43.5q-20 4 -34 18t-14 39q0 28 17.5 45.5t44.5 17.5t43 -19t16 -50z" />
<glyph unicode="&#x138;" horiz-adv-x="523" d="M184 0h-120v378l-9 122l129 10v-225h52l135 225l119 -10l-152 -229l168 -271l-130 -10l-137 246h-55v-236z" />
<glyph unicode="&#x139;" horiz-adv-x="483" d="M280 808q-49 -35 -104 -55.5t-103 -30.5l-29 33q45 27 88.5 57t81.5 63zM458 0h-368v528l-9 122l130 10v-587l250 13z" />
<glyph unicode="&#x13a;" horiz-adv-x="265" d="M252 802q-50 -35 -105 -55.5t-103 -30.5l-28 33q44 27 88 57t82 63zM194 0h-120v563l-9 122l129 10v-695z" />
<glyph unicode="&#x13b;" horiz-adv-x="483" d="M458 0h-368v528l-9 122l130 10v-587l250 13zM328 -141q0 -38 -24 -79.5t-54 -68.5l-29 13q12 19 20.5 40.5t13.5 43.5q-20 4 -34 18t-14 39q0 28 17.5 45.5t44.5 17.5t43 -19t16 -50z" />
<glyph unicode="&#x13c;" horiz-adv-x="265" d="M194 0h-120v563l-9 122l129 10v-695zM194 -141q0 -38 -24 -79.5t-53 -68.5l-29 13q11 19 20 40.5t13 43.5q-20 4 -33.5 18t-13.5 39q0 28 17.5 45.5t43.5 17.5q27 0 43 -19t16 -50z" />
<glyph unicode="&#x13d;" horiz-adv-x="483" d="M433 695q-16 -63 -41.5 -116.5t-52.5 -92.5l-41 10q11 43 20.5 99t14.5 106zM458 0h-368v528l-9 122l130 10v-587l250 13z" />
<glyph unicode="&#x13e;" horiz-adv-x="265" d="M374 721q-16 -62 -41.5 -115.5t-51.5 -92.5l-41 9q11 44 20.5 100t14.5 105zM194 0h-120v563l-9 122l129 10v-695z" />
<glyph unicode="&#x13f;" horiz-adv-x="561" d="M424 247q-26 0 -42.5 16t-16.5 41q0 26 19 45t46 19q24 0 39.5 -15.5t15.5 -39.5q0 -27 -17 -46.5t-44 -19.5zM458 0h-368v528l-9 122l130 10v-587l250 13z" />
<glyph unicode="&#x140;" horiz-adv-x="478" d="M194 0h-120v563l-9 122l129 10v-695zM369 215q-26 0 -42 16t-16 41q0 27 18.5 45.5t45.5 18.5q24 0 40 -15t16 -39q0 -27 -17 -47t-45 -20z" />
<glyph unicode="&#x141;" horiz-adv-x="483" d="M458 0h-368v267l-74 -41l-26 48l100 55v199l-9 122l130 10v-264l129 72l27 -48l-156 -86v-261l250 13z" />
<glyph unicode="&#x142;" horiz-adv-x="265" d="M194 0h-120v294l-76 -42l-26 47l102 57v207l-9 122l129 10v-271l77 43l27 -47l-104 -59v-361z" />
<glyph unicode="&#x143;" horiz-adv-x="668" d="M452 808q-50 -35 -105 -55.5t-103 -30.5l-28 33q44 27 88 57t82 63zM90 528l-9 122l105 10l300 -502h2l-10 492l100 10v-660h-110l-287 483h-2l10 -483h-99v528z" />
<glyph unicode="&#x144;" horiz-adv-x="561" d="M378 726q-30 -52 -68 -93t-74 -69l-37 20q23 37 46 85t39 91zM194 0h-120v378l-9 122l129 10v-85q28 40 70 62.5t92 22.5q66 0 100 -43.5t34 -112.5v-354h-120v325q0 100 -77 100q-53 0 -99 -46v-379z" />
<glyph unicode="&#x145;" horiz-adv-x="668" d="M90 528l-9 122l105 10l300 -502h2l-10 492l100 10v-660h-110l-287 483h-2l10 -483h-99v528zM394 -141q0 -38 -24 -79.5t-53 -68.5l-29 13q11 19 20 40.5t13 43.5q-20 4 -33.5 18t-13.5 39q0 28 17.5 45.5t43.5 17.5q27 0 43 -19t16 -50z" />
<glyph unicode="&#x146;" horiz-adv-x="561" d="M194 0h-120v378l-9 122l129 10v-85q28 40 70 62.5t92 22.5q66 0 100 -43.5t34 -112.5v-354h-120v325q0 100 -77 100q-53 0 -99 -46v-379zM342 -141q0 -38 -24 -79.5t-53 -68.5l-29 13q11 19 20 40.5t13 43.5q-20 4 -33.5 18t-13.5 39q0 28 17.5 45.5t43.5 17.5 q27 0 43 -19t16 -50z" />
<glyph unicode="&#x147;" horiz-adv-x="668" d="M452 876l32 -26q-58 -57 -100 -124l-97 -8q-21 34 -46 66.5t-57 65.5l32 26q66 -36 119 -85q54 50 117 85zM90 528l-9 122l105 10l300 -502h2l-10 492l100 10v-660h-110l-287 483h-2l10 -483h-99v528z" />
<glyph unicode="&#x148;" horiz-adv-x="561" d="M388 757l38 -23q-25 -36 -48 -75.5t-42 -80.5l-95 -8q-19 42 -41 82.5t-51 81.5l38 23q29 -24 54 -52t47 -59q23 31 47.5 59t52.5 52zM194 0h-120v378l-9 122l129 10v-85q28 40 70 62.5t92 22.5q66 0 100 -43.5t34 -112.5v-354h-120v325q0 100 -77 100q-53 0 -99 -46 v-379z" />
<glyph unicode="&#x14a;" horiz-adv-x="668" d="M362 -140q51 19 73.5 59t22.5 95v3l-277 466h-2l10 -483h-99v528l-9 122l105 10l300 -502h2l-10 492l100 10v-582q0 -75 -16.5 -132t-61 -92.5t-128.5 -48.5z" />
<glyph unicode="&#x14b;" horiz-adv-x="561" d="M194 0h-120v378l-9 122l129 10v-85q28 40 70 62.5t92 22.5q66 0 100 -43.5t34 -112.5v-282q0 -94 -34 -162.5t-124 -102.5l-28 45q33 36 49.5 84t16.5 118v271q0 100 -77 100q-53 0 -99 -46v-379z" />
<glyph unicode="&#x14c;" horiz-adv-x="658" d="M192 760v72h275v-72h-275zM606 327q-1 -105 -37 -180.5t-99.5 -116t-145.5 -40.5q-84 0 -145 40.5t-94 115t-32 174.5q0 103 35.5 179.5t98.5 118.5t149 42q84 0 145 -42t93 -117t32 -174zM185 327q0 -74 17 -132t50 -91.5t81 -33.5q47 0 78.5 33t47 90.5t15.5 131.5 q-1 74 -17.5 131.5t-48.5 91t-79 33.5t-79.5 -32.5t-49 -90t-15.5 -131.5z" />
<glyph unicode="&#x14d;" horiz-adv-x="554" d="M155 624v73h245v-73h-245zM509 259q0 -92 -34.5 -151.5t-90 -88.5t-118.5 -29q-64 0 -114 28.5t-78.5 84t-28.5 137.5q0 92 34 151.5t89.5 89t119.5 29.5t113.5 -28.5t78.5 -84.5t29 -138zM169 244q0 -86 26.5 -136.5t78.5 -50.5q47 0 79 46.5t32 152.5q0 95 -27 141 t-76 46q-50 0 -81.5 -47t-31.5 -152z" />
<glyph unicode="&#x14e;" horiz-adv-x="658" d="M327 724q-54 0 -92 38.5t-41 97.5l42 7q11 -32 35 -49.5t59 -17.5q36 0 59 19t33 48l43 7q-4 -64 -42 -107t-96 -43zM606 327q-1 -105 -37 -180.5t-99.5 -116t-145.5 -40.5q-84 0 -145 40.5t-94 115t-32 174.5q0 103 35.5 179.5t98.5 118.5t149 42q84 0 145 -42t93 -117 t32 -174zM185 327q0 -74 17 -132t50 -91.5t81 -33.5q47 0 78.5 33t47 90.5t15.5 131.5q-1 74 -17.5 131.5t-48.5 91t-79 33.5t-79.5 -32.5t-49 -90t-15.5 -131.5z" />
<glyph unicode="&#x14f;" horiz-adv-x="554" d="M273 571q-52 0 -87 45t-38 124l44 7q8 -53 30.5 -78.5t54.5 -25.5q34 0 56 27.5t30 77.5l43 6q-3 -81 -39 -132t-94 -51zM509 259q0 -92 -34.5 -151.5t-90 -88.5t-118.5 -29q-64 0 -114 28.5t-78.5 84t-28.5 137.5q0 92 34 151.5t89.5 89t119.5 29.5t113.5 -28.5 t78.5 -84.5t29 -138zM169 244q0 -86 26.5 -136.5t78.5 -50.5q47 0 79 46.5t32 152.5q0 95 -27 141t-76 46q-50 0 -81.5 -47t-31.5 -152z" />
<glyph unicode="&#x150;" horiz-adv-x="658" d="M335 818q-47 -37 -103.5 -61t-101.5 -35l-19 26q42 29 84.5 61.5t78.5 66.5zM548 818q-47 -37 -103.5 -61t-101.5 -35l-19 26q42 29 84.5 61.5t78.5 66.5zM606 327q-1 -105 -37 -180.5t-99.5 -116t-145.5 -40.5q-84 0 -145 40.5t-94 115t-32 174.5q0 103 35.5 179.5 t98.5 118.5t149 42q84 0 145 -42t93 -117t32 -174zM185 327q0 -74 17 -132t50 -91.5t81 -33.5q47 0 78.5 33t47 90.5t15.5 131.5q-1 74 -17.5 131.5t-48.5 91t-79 33.5t-79.5 -32.5t-49 -90t-15.5 -131.5z" />
<glyph unicode="&#x151;" horiz-adv-x="554" d="M296 740q-23 -54 -53.5 -98t-62.5 -75l-35 12q21 42 39 86.5t31 89.5zM447 740q-22 -54 -53 -98t-62 -75l-35 12q20 42 38.5 86.5t31.5 89.5zM509 259q0 -92 -34.5 -151.5t-90 -88.5t-118.5 -29q-64 0 -114 28.5t-78.5 84t-28.5 137.5q0 92 34 151.5t89.5 89t119.5 29.5 t113.5 -28.5t78.5 -84.5t29 -138zM169 244q0 -86 26.5 -136.5t78.5 -50.5q47 0 79 46.5t32 152.5q0 95 -27 141t-76 46q-50 0 -81.5 -47t-31.5 -152z" />
<glyph unicode="&#x152;" horiz-adv-x="854" d="M734 286l-130 3q-5 -68 -26.5 -122t-55.5 -92l287 6l-2 -81h-407q-36 -10 -76 -10q-84 0 -145 40.5t-94 115t-32 174.5q0 103 35.5 179.5t99 118.5t148.5 42q40 0 75 -10h391l-8 -80l-265 5q69 -81 76 -217l137 4zM185 327q0 -74 17 -132t50 -91.5t81 -33.5q47 0 78.5 33 t47 90.5t15.5 131.5q-1 74 -17.5 131.5t-48.5 91t-79 33.5t-79.5 -32.5t-49 -90t-15.5 -131.5z" />
<glyph unicode="&#x153;" horiz-adv-x="853" d="M785 20q-24 -12 -65.5 -21t-85.5 -9q-61 0 -109.5 20t-81.5 59q-33 -40 -79.5 -59.5t-97.5 -19.5q-64 0 -114 28.5t-78.5 84t-28.5 137.5q0 92 34 151.5t89.5 89t118.5 29.5q51 0 93 -19t71 -55q63 74 165 74q57 0 100.5 -23.5t67.5 -65.5t24 -98q0 -15 -1 -32t-4 -33 l-10 -17h-284q6 -82 43.5 -123t112.5 -41q34 0 66 8t56 20zM612 445q-46 0 -74 -44t-30 -122l182 7q3 21 3 43q0 54 -21 85t-60 31zM169 243q0 -85 26.5 -135.5t78.5 -50.5q47 0 79 46.5t32 152.5q0 95 -27 141t-76 46q-50 0 -81.5 -47t-31.5 -153z" />
<glyph unicode="&#x154;" horiz-adv-x="578" d="M409 808q-49 -35 -104 -55.5t-103 -30.5l-29 33q45 27 88.5 57t81.5 63zM211 0h-121v528l-9 122h196q118 0 182.5 -56.5t64.5 -147.5q0 -68 -34.5 -116t-93.5 -71l149 -259l-128 -10l-123 247q-14 -1 -27 -1h-56v-236zM263 580h-52v-274h55q70 0 101.5 39t31.5 100 q0 59 -32 97t-104 38z" />
<glyph unicode="&#x155;" horiz-adv-x="379" d="M289 726q-30 -52 -68 -93t-74 -69l-37 20q23 37 46 85t39 91zM194 0h-120v378l-9 122l129 10v-135q17 56 51.5 95.5t81.5 39.5q12 0 22.5 -2t17.5 -5l-10 -119q-12 3 -26 5t-29 4q-32 1 -59.5 -13t-48.5 -46v-334z" />
<glyph unicode="&#x156;" horiz-adv-x="578" d="M211 0h-121v528l-9 122h196q118 0 182.5 -56.5t64.5 -147.5q0 -68 -34.5 -116t-93.5 -71l149 -259l-128 -10l-123 247q-14 -1 -27 -1h-56v-236zM263 580h-52v-274h55q70 0 101.5 39t31.5 100q0 59 -32 97t-104 38zM352 -141q0 -38 -24 -79.5t-54 -68.5l-28 13 q11 19 19.5 40.5t13.5 43.5q-20 4 -34 18t-14 39q0 28 17.5 45.5t44.5 17.5t43 -19t16 -50z" />
<glyph unicode="&#x157;" horiz-adv-x="379" d="M194 0h-120v378l-9 122l129 10v-135q17 56 51.5 95.5t81.5 39.5q12 0 22.5 -2t17.5 -5l-10 -119q-12 3 -26 5t-29 4q-32 1 -59.5 -13t-48.5 -46v-334zM200 -141q0 -38 -24 -79.5t-54 -68.5l-29 13q12 19 20.5 40.5t13.5 43.5q-20 4 -34 18t-14 39q0 28 17.5 45.5 t44.5 17.5t43 -19t16 -50z" />
<glyph unicode="&#x158;" horiz-adv-x="578" d="M410 876l32 -26q-58 -57 -101 -124l-97 -8q-21 34 -45.5 66.5t-57.5 65.5l32 26q66 -36 119 -85q54 50 118 85zM211 0h-121v528l-9 122h196q118 0 182.5 -56.5t64.5 -147.5q0 -68 -34.5 -116t-93.5 -71l149 -259l-128 -10l-123 247q-14 -1 -27 -1h-56v-236zM263 580h-52 v-274h55q70 0 101.5 39t31.5 100q0 59 -32 97t-104 38z" />
<glyph unicode="&#x159;" horiz-adv-x="379" d="M299 757l38 -23q-25 -36 -48 -75.5t-42 -80.5l-95 -8q-19 42 -41 82.5t-51 81.5l38 23q29 -24 54 -52t47 -59q23 31 47.5 59t52.5 52zM194 0h-120v378l-9 122l129 10v-135q17 56 51.5 95.5t81.5 39.5q12 0 22.5 -2t17.5 -5l-10 -119q-12 3 -26 5t-29 4q-32 1 -59.5 -13 t-48.5 -46v-334z" />
<glyph unicode="&#x15a;" horiz-adv-x="507" d="M383 808q-50 -35 -105 -55.5t-103 -30.5l-28 33q44 27 88 57t82 63zM460 166q0 -80 -60.5 -128t-160.5 -48q-31 0 -66 4.5t-68 12.5t-57 19l18 106q31 -20 76.5 -36t88.5 -16q49 0 74.5 23.5t25.5 55.5q0 30 -20 52.5t-50.5 42t-65.5 40t-65.5 45.5t-50 59t-19.5 81 q0 55 28.5 96t79 63t116.5 22q40 0 87 -8.5t80 -23.5l-22 -100q-26 15 -64 29t-76 14q-49 0 -74.5 -24t-25.5 -58q0 -31 19.5 -54.5t50 -43.5t65.5 -41t65.5 -46t50.5 -58.5t20 -79.5z" />
<glyph unicode="&#x15b;" horiz-adv-x="452" d="M335 726q-30 -52 -68 -93t-74 -69l-37 20q23 37 46 85t39 91zM409 132q0 -63 -52 -102.5t-148 -39.5q-43 0 -88.5 9t-77.5 22l8 98q30 -19 73.5 -32t83.5 -13q42 0 62.5 16.5t20.5 42.5q0 23 -16.5 38.5t-43 28t-57.5 27.5q-31 14 -58 32t-43.5 43.5t-16.5 62.5 q0 65 56 105t146 40q37 0 73 -7.5t66 -19.5l-8 -97q-30 17 -66 29t-69 12q-37 0 -58 -17.5t-21 -43.5q0 -22 14.5 -37.5t37.5 -27t47 -22.5q32 -15 63.5 -34t51.5 -46t20 -67z" />
<glyph unicode="&#x15c;" horiz-adv-x="507" d="M147 718l-32 27q57 56 100 123l97 8q21 -34 45.5 -66.5t57.5 -64.5l-32 -27q-66 36 -119 85q-54 -50 -117 -85zM460 166q0 -80 -60.5 -128t-160.5 -48q-31 0 -66 4.5t-68 12.5t-57 19l18 106q31 -20 76.5 -36t88.5 -16q49 0 74.5 23.5t25.5 55.5q0 30 -20 52.5t-50.5 42 t-65.5 40t-65.5 45.5t-50 59t-19.5 81q0 55 28.5 96t79 63t116.5 22q40 0 87 -8.5t80 -23.5l-22 -100q-26 15 -64 29t-76 14q-49 0 -74.5 -24t-25.5 -58q0 -31 19.5 -54.5t50 -43.5t65.5 -41t65.5 -46t50.5 -58.5t20 -79.5z" />
<glyph unicode="&#x15d;" horiz-adv-x="452" d="M144 569l-38 22q25 36 48 75.5t42 81.5l95 8q18 -43 40.5 -83.5t51.5 -81.5l-38 -22q-29 23 -54 51t-48 59q-22 -31 -46.5 -59t-52.5 -51zM409 132q0 -63 -52 -102.5t-148 -39.5q-43 0 -88.5 9t-77.5 22l8 98q30 -19 73.5 -32t83.5 -13q42 0 62.5 16.5t20.5 42.5 q0 23 -16.5 38.5t-43 28t-57.5 27.5q-31 14 -58 32t-43.5 43.5t-16.5 62.5q0 65 56 105t146 40q37 0 73 -7.5t66 -19.5l-8 -97q-30 17 -66 29t-69 12q-37 0 -58 -17.5t-21 -43.5q0 -22 14.5 -37.5t37.5 -27t47 -22.5q32 -15 63.5 -34t51.5 -46t20 -67z" />
<glyph unicode="&#x15e;" horiz-adv-x="507" d="M268 -117q0 28 -58 39l24 68q-45 0 -98 10t-88 26l18 106q31 -20 76.5 -36t88.5 -16q49 0 74.5 23.5t25.5 55.5q0 30 -20 52.5t-50.5 42t-65.5 40t-65.5 45.5t-50 59t-19.5 81q0 55 28.5 96t79 63t116.5 22q40 0 87 -8.5t80 -23.5l-22 -100q-26 15 -64 29t-76 14 q-49 0 -74.5 -24t-25.5 -58q0 -31 19.5 -54.5t50 -43.5t65.5 -41t65.5 -46t50.5 -58.5t20 -79.5q0 -72 -50 -118.5t-134 -55.5l-14 -37q47 -6 72.5 -24t25.5 -44q0 -40 -46 -62t-124 -23l-4 36q35 4 58.5 15t23.5 30z" />
<glyph unicode="&#x15f;" horiz-adv-x="452" d="M230 -117q0 28 -58 39l25 68q-41 1 -83 9.5t-71 21.5l8 98q30 -19 73.5 -32t83.5 -13q42 0 62.5 16.5t20.5 42.5q0 23 -16.5 38.5t-43 28t-57.5 27.5q-31 14 -58 32t-43.5 43.5t-16.5 62.5q0 65 56 105t146 40q37 0 73 -7.5t66 -19.5l-8 -97q-30 17 -66 29t-69 12 q-37 0 -58 -17.5t-21 -43.5q0 -22 14.5 -37.5t37.5 -27t47 -22.5q32 -15 63.5 -34t51.5 -46t20 -67q0 -58 -44.5 -96.5t-127.5 -44.5l-13 -36q47 -6 72.5 -24t25.5 -44q0 -40 -46 -62t-124 -23l-4 36q35 4 58.5 15t23.5 30z" />
<glyph unicode="&#x160;" horiz-adv-x="507" d="M383 876l32 -26q-58 -57 -100 -124l-97 -8q-21 34 -46 66.5t-57 65.5l32 26q66 -36 119 -85q54 50 117 85zM460 166q0 -80 -60.5 -128t-160.5 -48q-31 0 -66 4.5t-68 12.5t-57 19l18 106q31 -20 76.5 -36t88.5 -16q49 0 74.5 23.5t25.5 55.5q0 30 -20 52.5t-50.5 42 t-65.5 40t-65.5 45.5t-50 59t-19.5 81q0 55 28.5 96t79 63t116.5 22q40 0 87 -8.5t80 -23.5l-22 -100q-26 15 -64 29t-76 14q-49 0 -74.5 -24t-25.5 -58q0 -31 19.5 -54.5t50 -43.5t65.5 -41t65.5 -46t50.5 -58.5t20 -79.5z" />
<glyph unicode="&#x161;" horiz-adv-x="452" d="M345 757l38 -23q-25 -36 -48 -75.5t-42 -80.5l-95 -8q-19 42 -41 82.5t-51 81.5l38 23q29 -24 54 -52t47 -59q23 31 47.5 59t52.5 52zM409 132q0 -63 -52 -102.5t-148 -39.5q-43 0 -88.5 9t-77.5 22l8 98q30 -19 73.5 -32t83.5 -13q42 0 62.5 16.5t20.5 42.5 q0 23 -16.5 38.5t-43 28t-57.5 27.5q-31 14 -58 32t-43.5 43.5t-16.5 62.5q0 65 56 105t146 40q37 0 73 -7.5t66 -19.5l-8 -97q-30 17 -66 29t-69 12q-37 0 -58 -17.5t-21 -43.5q0 -22 14.5 -37.5t37.5 -27t47 -22.5q32 -15 63.5 -34t51.5 -46t20 -67z" />
<glyph unicode="&#x162;" horiz-adv-x="519" d="M259 -117q0 28 -57 39l28 78h-30v569l-177 -7l7 88h460l7 -88l-176 7v-569h-51l-16 -45q46 -6 72 -24t26 -44q0 -40 -46.5 -62t-123.5 -23l-4 36q34 4 57.5 15t23.5 30z" />
<glyph unicode="&#x163;" horiz-adv-x="396" d="M215 -117q0 28 -58 39l27 74q-49 12 -75 50.5t-26 108.5v280l-55 2v34l65 12l21 137l89 6v-143h161l-5 -54l-156 4v-254q0 -25 5 -48.5t21 -38t49 -14.5q25 0 49 8t39 17l2 -83q-18 -11 -53.5 -20.5t-76.5 -9.5h-16l-13 -35q47 -6 72.5 -24t25.5 -44q0 -40 -46 -62 t-124 -23l-4 36q35 4 58.5 15t23.5 30z" />
<glyph unicode="&#x164;" horiz-adv-x="519" d="M378 876l32 -26q-58 -57 -101 -124l-97 -8q-21 34 -45.5 66.5t-57.5 65.5l32 26q66 -36 119 -85q54 50 118 85zM321 0h-121v569l-177 -7l7 88h460l7 -88l-176 7v-569z" />
<glyph unicode="&#x165;" horiz-adv-x="396" d="M391 751q-16 -62 -41.5 -115.5t-52.5 -92.5l-41 9q11 44 20.5 100t14.5 105zM359 429l-156 4v-254q0 -25 5 -48.5t21 -38t49 -14.5q25 0 49 8t39 17l2 -83q-18 -11 -53.5 -20.5t-76.5 -9.5q-74 0 -114.5 38.5t-40.5 126.5v280l-55 2v34l65 12l21 137l89 6v-143h161z" />
<glyph unicode="&#x166;" horiz-adv-x="519" d="M321 0h-121v300h-127v51h127v218l-177 -7l7 88h460l7 -88l-176 7v-218h125v-51h-125v-300z" />
<glyph unicode="&#x167;" horiz-adv-x="396" d="M360 254h-157v-75q0 -25 5 -48.5t21 -38t49 -14.5q25 0 49 8t39 17l2 -83q-18 -11 -53.5 -20.5t-76.5 -9.5q-74 0 -114.5 38.5t-40.5 126.5v99h-56v51h56v130l-55 2v34l65 12l21 137l89 6v-143h161l-5 -54l-156 4v-128h157v-51z" />
<glyph unicode="&#x168;" horiz-adv-x="647" d="M266 857q26 0 45.5 -10.5t37.5 -21t39 -10.5q20 0 33 13t25 34l30 -7q-3 -29 -14.5 -56t-31 -44.5t-48.5 -17.5q-25 0 -46 10.5t-40 21.5t-37 11t-32 -12.5t-26 -34.5l-30 7q3 28 13.5 55t30.5 44.5t51 17.5zM324 70q55 0 86 38t31 100v320l-9 122l130 10v-448 q0 -69 -32.5 -119t-88 -76.5t-124.5 -26.5q-71 0 -123 27t-80.5 77t-28.5 118v316l-9 122l130 10v-453q0 -61 31.5 -99t86.5 -38z" />
<glyph unicode="&#x169;" horiz-adv-x="557" d="M218 728q28 0 49.5 -12.5t40.5 -25t41 -12.5q19 0 31 15t22 37l31 -7q-2 -29 -12.5 -57.5t-30 -46.5t-48.5 -18q-26 0 -48.5 12.5t-43 25t-39.5 12.5q-17 0 -30.5 -13.5t-23.5 -37.5l-30 6q2 29 12 57t29.5 46.5t49.5 18.5zM71 142v358l120 10v-351q0 -51 19.5 -75.5 t53.5 -24.5q21 0 45.5 11t46.5 31v399l120 10v-381q0 -31 4.5 -65t17.5 -64l-114 -10q-9 16 -17 40t-10 46q-27 -38 -68.5 -62t-89.5 -24q-65 0 -96.5 43.5t-31.5 108.5z" />
<glyph unicode="&#x16a;" horiz-adv-x="647" d="M186 760v72h275v-72h-275zM324 70q55 0 86 38t31 100v320l-9 122l130 10v-448q0 -69 -32.5 -119t-88 -76.5t-124.5 -26.5q-71 0 -123 27t-80.5 77t-28.5 118v316l-9 122l130 10v-453q0 -61 31.5 -99t86.5 -38z" />
<glyph unicode="&#x16b;" horiz-adv-x="557" d="M161 624v73h245v-73h-245zM71 142v358l120 10v-351q0 -51 19.5 -75.5t53.5 -24.5q21 0 45.5 11t46.5 31v399l120 10v-381q0 -31 4.5 -65t17.5 -64l-114 -10q-9 16 -17 40t-10 46q-27 -38 -68.5 -62t-89.5 -24q-65 0 -96.5 43.5t-31.5 108.5z" />
<glyph unicode="&#x16c;" horiz-adv-x="647" d="M321 724q-54 0 -92 38.5t-41 97.5l42 7q11 -32 35 -49.5t59 -17.5q36 0 59 19t33 48l43 7q-4 -64 -42 -107t-96 -43zM324 70q55 0 86 38t31 100v320l-9 122l130 10v-448q0 -69 -32.5 -119t-88 -76.5t-124.5 -26.5q-71 0 -123 27t-80.5 77t-28.5 118v316l-9 122l130 10 v-453q0 -61 31.5 -99t86.5 -38z" />
<glyph unicode="&#x16d;" horiz-adv-x="557" d="M279 571q-52 0 -87 45t-38 124l44 7q8 -53 30.5 -78.5t54.5 -25.5q34 0 56 27.5t30 77.5l43 6q-3 -81 -39 -132t-94 -51zM71 142v358l120 10v-351q0 -51 19.5 -75.5t53.5 -24.5q21 0 45.5 11t46.5 31v399l120 10v-381q0 -31 4.5 -65t17.5 -64l-114 -10q-9 16 -17 40 t-10 46q-27 -38 -68.5 -62t-89.5 -24q-65 0 -96.5 43.5t-31.5 108.5z" />
<glyph unicode="&#x16e;" horiz-adv-x="647" d="M425 804q0 -39 -30.5 -67.5t-77.5 -28.5q-45 0 -70 24t-25 57q0 39 32 67.5t80 28.5q41 0 66 -22.5t25 -58.5zM278 794q0 -18 11.5 -30.5t31.5 -12.5q19 0 33.5 14t14.5 34q0 18 -12 30.5t-30 12.5q-20 0 -34.5 -14.5t-14.5 -33.5zM324 70q55 0 86 38t31 100v320l-9 122 l130 10v-448q0 -69 -32.5 -119t-88 -76.5t-124.5 -26.5q-71 0 -123 27t-80.5 77t-28.5 118v316l-9 122l130 10v-453q0 -61 31.5 -99t86.5 -38z" />
<glyph unicode="&#x16f;" horiz-adv-x="557" d="M382 669q0 -47 -32 -74.5t-74 -27.5q-40 0 -66 23.5t-26 64.5q0 45 30 75t77 30q39 0 65 -24.5t26 -66.5zM236 660q0 -22 12.5 -35t31.5 -13q20 0 35 14.5t15 38.5q0 23 -12.5 36.5t-31.5 13.5q-22 0 -36 -15.5t-14 -39.5zM71 142v358l120 10v-351q0 -51 19.5 -75.5 t53.5 -24.5q21 0 45.5 11t46.5 31v399l120 10v-381q0 -31 4.5 -65t17.5 -64l-114 -10q-9 16 -17 40t-10 46q-27 -38 -68.5 -62t-89.5 -24q-65 0 -96.5 43.5t-31.5 108.5z" />
<glyph unicode="&#x170;" horiz-adv-x="647" d="M329 818q-47 -37 -103.5 -61t-101.5 -35l-19 26q42 29 84.5 61.5t78.5 66.5zM542 818q-47 -37 -103.5 -61t-101.5 -35l-19 26q42 29 84.5 61.5t78.5 66.5zM324 70q55 0 86 38t31 100v320l-9 122l130 10v-448q0 -69 -32.5 -119t-88 -76.5t-124.5 -26.5q-71 0 -123 27 t-80.5 77t-28.5 118v316l-9 122l130 10v-453q0 -61 31.5 -99t86.5 -38z" />
<glyph unicode="&#x171;" horiz-adv-x="557" d="M302 740q-23 -54 -53.5 -98t-62.5 -75l-35 12q21 42 39 86.5t31 89.5zM453 740q-22 -54 -53 -98t-62 -75l-35 12q20 42 38.5 86.5t31.5 89.5zM71 142v358l120 10v-351q0 -51 19.5 -75.5t53.5 -24.5q21 0 45.5 11t46.5 31v399l120 10v-381q0 -31 4.5 -65t17.5 -64 l-114 -10q-9 16 -17 40t-10 46q-27 -38 -68.5 -62t-89.5 -24q-65 0 -96.5 43.5t-31.5 108.5z" />
<glyph unicode="&#x172;" horiz-adv-x="647" d="M324 70q55 0 86 38t31 100v320l-9 122l130 10v-448q0 -61 -26 -107t-69 -74v0q-47 -35 -73.5 -67t-26.5 -61q0 -21 11.5 -32.5t32.5 -11.5q12 0 24 3t25 9l13 -34q-17 -15 -43.5 -25.5t-58.5 -10.5q-41 0 -65.5 18.5t-24.5 55.5q0 31 20 61t54 56q-19 -2 -38 -2 q-71 0 -123 27t-80.5 77t-28.5 118v316l-9 122l130 10v-453q0 -61 31.5 -99t86.5 -38z" />
<glyph unicode="&#x173;" horiz-adv-x="557" d="M71 142v358l120 10v-351q0 -51 19.5 -75.5t53.5 -24.5q21 0 45.5 11t46.5 31v399l120 10v-381q0 -31 4.5 -65t17.5 -64q-43 -18 -71.5 -47t-28.5 -57q0 -37 45 -37q12 0 23.5 3t25.5 9l12 -34q-16 -15 -43 -25.5t-60 -10.5q-39 0 -64 17t-25 52t26.5 67t70.5 55l-25 -2 q-9 16 -17 40t-10 46q-27 -38 -68.5 -62t-89.5 -24q-65 0 -96.5 43.5t-31.5 108.5z" />
<glyph unicode="&#x174;" horiz-adv-x="942" d="M353 718l-32 27q57 56 100 123l97 8q21 -34 45.5 -66.5t57.5 -64.5l-32 -27q-66 36 -119 85q-54 -50 -117 -85zM183 0l-148 650l118 10l124 -571h1l126 561h148l122 -561h2l125 571l106 -10l-162 -650h-167l-109 534h-2l-117 -534h-167z" />
<glyph unicode="&#x175;" horiz-adv-x="775" d="M285 569l-38 22q25 36 48 75.5t42 81.5l95 8q18 -43 40.5 -83.5t51.5 -81.5l-38 -22q-29 23 -54 51t-48 59q-22 -31 -46.5 -59t-52.5 -51zM144 0l-123 501l120 9l89 -438h2l91 433h130l94 -433h2l87 438l114 -9q-54 -260 -131 -501h-148l-86 383h-2q-19 -94 -44 -188 t-56 -195h-139z" />
<glyph unicode="&#x176;" horiz-adv-x="567" d="M166 718l-32 27q57 56 100 123l97 8q21 -34 45.5 -66.5t57.5 -64.5l-32 -27q-66 36 -119 85q-54 -50 -117 -85zM344 0h-121v207l-203 443l118 10l147 -351h2l148 351l112 -10l-203 -443v-207z" />
<glyph unicode="&#x177;" horiz-adv-x="498" d="M152 569l-38 22q25 36 48 75.5t42 81.5l95 8q18 -43 40.5 -83.5t51.5 -81.5l-38 -22q-29 23 -54 51t-48 59q-22 -31 -46.5 -59t-52.5 -51zM59 -195q-31 0 -54.5 3t-46.5 9v91q26 -7 60.5 -11t61.5 -4q60 0 111 30.5t70 88.5h-102l-133 489l124 9l108 -438h2l101 438 l112 -9q-13 -58 -29.5 -124.5t-36 -134t-39 -130.5t-37.5 -112q-27 -75 -64 -117.5t-88 -60t-120 -17.5z" />
<glyph unicode="&#x178;" horiz-adv-x="567" d="M235 801q0 -33 -20.5 -51.5t-52.5 -18.5q-29 0 -46 15t-17 43q0 31 20 51.5t54 20.5q29 0 45.5 -15.5t16.5 -44.5zM469 801q0 -33 -21 -51.5t-53 -18.5q-28 0 -45 15t-17 44q0 30 20 50.5t54 20.5q28 0 45 -16t17 -44zM344 0h-121v207l-203 443l118 10l147 -351h2 l148 351l112 -10l-203 -443v-207z" />
<glyph unicode="&#x179;" horiz-adv-x="516" d="M376 808q-50 -35 -105 -55.5t-103 -30.5l-28 33q44 27 88 57t82 63zM473 0h-422l-16 63l300 502q-68 -1 -118 -2t-90.5 -2.5t-82.5 -3.5l8 93h405l16 -62l-302 -503q71 1 122.5 3t95 5.5t92.5 9.5z" />
<glyph unicode="&#x17a;" horiz-adv-x="454" d="M318 726q-30 -52 -68 -93t-74 -69l-37 20q22 37 45.5 85t39.5 91zM411 0h-364l-13 68l253 346h-44q-52 0 -104.5 -2.5t-101.5 -7.5l12 96h351l7 -68l-252 -345h53q108 0 213 14z" />
<glyph unicode="&#x17b;" horiz-adv-x="516" d="M330 802q0 -33 -22.5 -52.5t-54.5 -19.5q-30 0 -48 16t-18 44q0 31 21.5 52t55.5 21q29 0 47.5 -16t18.5 -45zM473 0h-422l-16 63l300 502q-68 -1 -118 -2t-90.5 -2.5t-82.5 -3.5l8 93h405l16 -62l-302 -503q71 1 122.5 3t95 5.5t92.5 9.5z" />
<glyph unicode="&#x17c;" horiz-adv-x="454" d="M299 665q0 -33 -22.5 -52.5t-54.5 -19.5q-30 0 -48 16t-18 44q0 31 21.5 52t55.5 21q29 0 47.5 -16t18.5 -45zM411 0h-364l-13 68l253 346h-44q-52 0 -104.5 -2.5t-101.5 -7.5l12 96h351l7 -68l-252 -345h53q108 0 213 14z" />
<glyph unicode="&#x17d;" horiz-adv-x="516" d="M376 876l32 -26q-58 -57 -100 -124l-97 -8q-21 34 -46 66.5t-57 65.5l32 26q66 -36 119 -85q54 50 117 85zM473 0h-422l-16 63l300 502q-68 -1 -118 -2t-90.5 -2.5t-82.5 -3.5l8 93h405l16 -62l-302 -503q71 1 122.5 3t95 5.5t92.5 9.5z" />
<glyph unicode="&#x17e;" horiz-adv-x="454" d="M327 757l38 -23q-25 -36 -48 -75.5t-41 -80.5l-95 -8q-19 42 -41.5 82.5t-50.5 81.5l38 23q28 -24 53 -52t48 -59q22 31 46.5 59t52.5 52zM411 0h-364l-13 68l253 346h-44q-52 0 -104.5 -2.5t-101.5 -7.5l12 96h351l7 -68l-252 -345h53q108 0 213 14z" />
<glyph unicode="&#x18f;" horiz-adv-x="573" d="M43 228q0 21 1 47.5t4 53.5l10 15h337q-6 113 -49.5 171t-129.5 58q-36 0 -73.5 -9.5t-63.5 -22.5l2 85q26 13 72.5 23.5t92.5 10.5q83 0 144.5 -38.5t95.5 -113t34 -181.5q0 -110 -34 -185t-92 -113.5t-131 -38.5q-65 0 -114.5 29.5t-77.5 83t-28 125.5zM158 219 q0 -76 29 -120t82 -44q59 0 93.5 64t34.5 182q-1 3 -1 5l-234 -8q-2 -21 -3 -41t-1 -38z" />
<glyph unicode="&#x192;" horiz-adv-x="552" d="M461 277l-165 3l-23 -215q-3 -27 -11.5 -64t-29 -73t-60.5 -60t-106 -24q-26 0 -54.5 5t-56.5 15l28 70q15 -8 37.5 -15.5t45.5 -7.5q35 0 55 20t29.5 51.5t11.5 65.5l14 235l-90 2l6 34l87 12q2 29 5 71t9 72q9 53 33.5 95t70.5 66.5t118 24.5q39 0 70.5 -7.5 t52.5 -19.5l-31 -85q-16 16 -42 30.5t-56 14.5q-41 0 -63.5 -31t-31.5 -92q-7 -55 -10 -88.5t-4 -50.5h171z" />
<glyph unicode="&#x19d;" horiz-adv-x="668" d="M4 -195l-9 55q51 19 73 59t22 95v514l-9 122l105 10l300 -502h2l-10 492l100 10v-660h-110l-287 483h-2q3 -135 4.5 -238.5t2.5 -193.5q0 -66 -16.5 -117t-56 -84t-109.5 -45z" />
<glyph unicode="&#x1cd;" horiz-adv-x="619" d="M428 876l32 -26q-58 -57 -101 -124l-97 -8q-21 34 -45.5 66.5t-57.5 65.5l32 26q66 -36 119 -85q54 50 118 85zM144 0h-114l167 526l36 125l157 9l199 -660h-120l-44 154h-237zM307 566l-100 -347h200l-99 347h-1z" />
<glyph unicode="&#x1ce;" horiz-adv-x="520" d="M353 757l38 -23q-25 -36 -48 -75.5t-42 -80.5l-95 -8q-19 42 -41 82.5t-51 81.5l38 23q29 -24 54 -52t47 -59q23 31 47.5 59t52.5 52zM346 -10q-7 15 -14 35t-10 40q-21 -28 -62.5 -51.5t-95.5 -23.5q-60 0 -92 34t-32 83q0 58 39 95.5t103 55t139 17.5v54q1 92 -97 92 q-39 0 -76 -13t-71 -35l-10 94q37 18 88 30.5t103 12.5q87 0 135 -41t48 -130q0 -10 -0.5 -37t-1 -59.5t-1 -61.5t-0.5 -44q0 -37 4.5 -70.5t17.5 -66.5zM161 133q0 -35 18.5 -55.5t50.5 -20.5q23 0 48.5 12t41.5 29v144q-43 -1 -79 -13t-58 -35.5t-22 -60.5z" />
<glyph unicode="&#x1cf;" horiz-adv-x="301" d="M269 876l32 -26q-58 -57 -101 -124l-97 -8q-21 34 -45.5 66.5t-57.5 65.5l32 26q66 -36 119 -85q54 50 118 85zM211 0h-121v528l-9 122l130 10v-660z" />
<glyph unicode="&#x1d0;" horiz-adv-x="265" d="M207 756l32 -15q-15 -38 -29 -79.5t-26 -84.5l-95 -8q-12 45 -25.5 86.5t-31.5 85.5l32 15q19 -23 37 -50.5t35 -58.5q17 31 34.5 58.5t36.5 50.5zM194 0h-120v377l-9 123l129 10v-510z" />
<glyph unicode="&#x1d1;" horiz-adv-x="658" d="M448 876l32 -26q-58 -57 -101 -124l-97 -8q-21 34 -45.5 66.5t-57.5 65.5l32 26q66 -36 119 -85q54 50 118 85zM606 327q-1 -105 -37 -180.5t-99.5 -116t-145.5 -40.5q-84 0 -145 40.5t-94 115t-32 174.5q0 103 35.5 179.5t98.5 118.5t149 42q84 0 145 -42t93 -117 t32 -174zM185 327q0 -74 17 -132t50 -91.5t81 -33.5q47 0 78.5 33t47 90.5t15.5 131.5q-1 74 -17.5 131.5t-48.5 91t-79 33.5t-79.5 -32.5t-49 -90t-15.5 -131.5z" />
<glyph unicode="&#x1d2;" horiz-adv-x="554" d="M377 757l38 -23q-25 -36 -48 -75.5t-41 -80.5l-95 -8q-19 42 -41.5 82.5t-50.5 81.5l37 23q29 -24 54 -52t48 -59q22 31 46.5 59t52.5 52zM509 259q0 -92 -34.5 -151.5t-90 -88.5t-118.5 -29q-64 0 -114 28.5t-78.5 84t-28.5 137.5q0 92 34 151.5t89.5 89t119.5 29.5 t113.5 -28.5t78.5 -84.5t29 -138zM169 244q0 -86 26.5 -136.5t78.5 -50.5q47 0 79 46.5t32 152.5q0 95 -27 141t-76 46q-50 0 -81.5 -47t-31.5 -152z" />
<glyph unicode="&#x1d3;" horiz-adv-x="647" d="M442 876l32 -26q-58 -57 -101 -124l-97 -8q-21 34 -45.5 66.5t-57.5 65.5l32 26q66 -36 119 -85q54 50 118 85zM324 70q55 0 86 38t31 100v320l-9 122l130 10v-448q0 -69 -32.5 -119t-88 -76.5t-124.5 -26.5q-71 0 -123 27t-80.5 77t-28.5 118v316l-9 122l130 10v-453 q0 -61 31.5 -99t86.5 -38z" />
<glyph unicode="&#x1d4;" horiz-adv-x="557" d="M383 757l38 -23q-25 -36 -48 -75.5t-41 -80.5l-95 -8q-19 42 -41.5 82.5t-50.5 81.5l37 23q29 -24 54 -52t48 -59q22 31 46.5 59t52.5 52zM71 142v358l120 10v-351q0 -51 19.5 -75.5t53.5 -24.5q21 0 45.5 11t46.5 31v399l120 10v-381q0 -31 4.5 -65t17.5 -64l-114 -10 q-9 16 -17 40t-10 46q-27 -38 -68.5 -62t-89.5 -24q-65 0 -96.5 43.5t-31.5 108.5z" />
<glyph unicode="&#x1d5;" horiz-adv-x="647" d="M186 971v71h275v-71h-275zM275 801q0 -33 -21 -51.5t-53 -18.5q-29 0 -45.5 15t-16.5 43q0 31 20 51.5t54 20.5q28 0 45 -15.5t17 -44.5zM508 801q0 -33 -21 -51.5t-52 -18.5q-29 0 -45.5 15t-16.5 44q0 30 19.5 50.5t53.5 20.5q28 0 45 -16t17 -44zM324 70q55 0 86 38 t31 100v320l-9 122l130 10v-448q0 -69 -32.5 -119t-88 -76.5t-124.5 -26.5q-71 0 -123 27t-80.5 77t-28.5 118v316l-9 122l130 10v-453q0 -61 31.5 -99t86.5 -38z" />
<glyph unicode="&#x1d6;" horiz-adv-x="557" d="M161 847v73h245v-73h-245zM239 664q0 -31 -20 -48.5t-50 -17.5q-27 0 -43.5 14t-16.5 41q0 29 19.5 48.5t51.5 19.5q27 0 43 -15t16 -42zM457 664q0 -31 -20 -48.5t-50 -17.5q-28 0 -44 14t-16 41q0 29 19 48.5t51 19.5q27 0 43.5 -15t16.5 -42zM71 142v358l120 10v-351 q0 -51 19.5 -75.5t53.5 -24.5q21 0 45.5 11t46.5 31v399l120 10v-381q0 -31 4.5 -65t17.5 -64l-114 -10q-9 16 -17 40t-10 46q-27 -38 -68.5 -62t-89.5 -24q-65 0 -96.5 43.5t-31.5 108.5z" />
<glyph unicode="&#x1d7;" horiz-adv-x="647" d="M441 1018q-49 -34 -104 -55t-103 -31l-29 34q45 27 88.5 57t81.5 62zM275 801q0 -33 -21 -51.5t-53 -18.5q-29 0 -45.5 15t-16.5 43q0 31 20 51.5t54 20.5q28 0 45 -15.5t17 -44.5zM508 801q0 -33 -21 -51.5t-52 -18.5q-29 0 -45.5 15t-16.5 44q0 30 19.5 50.5t53.5 20.5 q28 0 45 -16t17 -44zM324 70q55 0 86 38t31 100v320l-9 122l130 10v-448q0 -69 -32.5 -119t-88 -76.5t-124.5 -26.5q-71 0 -123 27t-80.5 77t-28.5 118v316l-9 122l130 10v-453q0 -61 31.5 -99t86.5 -38z" />
<glyph unicode="&#x1d8;" horiz-adv-x="557" d="M374 948q-30 -51 -68 -92.5t-74 -69.5l-37 21q22 36 45.5 84t39.5 92zM239 664q0 -31 -20 -48.5t-50 -17.5q-27 0 -43.5 14t-16.5 41q0 29 19.5 48.5t51.5 19.5q27 0 43 -15t16 -42zM457 664q0 -31 -20 -48.5t-50 -17.5q-28 0 -44 14t-16 41q0 29 19 48.5t51 19.5 q27 0 43.5 -15t16.5 -42zM71 142v358l120 10v-351q0 -51 19.5 -75.5t53.5 -24.5q21 0 45.5 11t46.5 31v399l120 10v-381q0 -31 4.5 -65t17.5 -64l-114 -10q-9 16 -17 40t-10 46q-27 -38 -68.5 -62t-89.5 -24q-65 0 -96.5 43.5t-31.5 108.5z" />
<glyph unicode="&#x1d9;" horiz-adv-x="647" d="M442 1087l32 -27q-58 -57 -101 -123l-97 -8q-21 34 -45.5 66t-57.5 65l32 27q66 -37 119 -85q54 49 118 85zM275 801q0 -33 -21 -51.5t-53 -18.5q-29 0 -45.5 15t-16.5 43q0 31 20 51.5t54 20.5q28 0 45 -15.5t17 -44.5zM508 801q0 -33 -21 -51.5t-52 -18.5 q-29 0 -45.5 15t-16.5 44q0 30 19.5 50.5t53.5 20.5q28 0 45 -16t17 -44zM324 70q55 0 86 38t31 100v320l-9 122l130 10v-448q0 -69 -32.5 -119t-88 -76.5t-124.5 -26.5q-71 0 -123 27t-80.5 77t-28.5 118v316l-9 122l130 10v-453q0 -61 31.5 -99t86.5 -38z" />
<glyph unicode="&#x1da;" horiz-adv-x="557" d="M383 979l38 -22q-25 -36 -48 -76t-41 -81l-95 -8q-19 43 -41.5 83.5t-50.5 81.5l37 22q29 -23 54 -51t48 -60q22 32 46.5 60t52.5 51zM239 664q0 -31 -20 -48.5t-50 -17.5q-27 0 -43.5 14t-16.5 41q0 29 19.5 48.5t51.5 19.5q27 0 43 -15t16 -42zM457 664 q0 -31 -20 -48.5t-50 -17.5q-28 0 -44 14t-16 41q0 29 19 48.5t51 19.5q27 0 43.5 -15t16.5 -42zM71 142v358l120 10v-351q0 -51 19.5 -75.5t53.5 -24.5q21 0 45.5 11t46.5 31v399l120 10v-381q0 -31 4.5 -65t17.5 -64l-114 -10q-9 16 -17 40t-10 46q-27 -38 -68.5 -62 t-89.5 -24q-65 0 -96.5 43.5t-31.5 108.5z" />
<glyph unicode="&#x1db;" horiz-adv-x="647" d="M441 965l-28 -34q-49 10 -104 31t-104 55l66 67q38 -32 81.5 -62t88.5 -57zM275 801q0 -33 -21 -51.5t-53 -18.5q-29 0 -45.5 15t-16.5 43q0 31 20 51.5t54 20.5q28 0 45 -15.5t17 -44.5zM508 801q0 -33 -21 -51.5t-52 -18.5q-29 0 -45.5 15t-16.5 44q0 30 19.5 50.5 t53.5 20.5q28 0 45 -16t17 -44zM324 70q55 0 86 38t31 100v320l-9 122l130 10v-448q0 -69 -32.5 -119t-88 -76.5t-124.5 -26.5q-71 0 -123 27t-80.5 77t-28.5 118v316l-9 122l130 10v-453q0 -61 31.5 -99t86.5 -38z" />
<glyph unicode="&#x1dc;" horiz-adv-x="557" d="M374 807l-37 -21q-37 28 -75 69.5t-67 92.5l94 35q15 -44 38.5 -92t46.5 -84zM239 664q0 -31 -20 -48.5t-50 -17.5q-27 0 -43.5 14t-16.5 41q0 29 19.5 48.5t51.5 19.5q27 0 43 -15t16 -42zM457 664q0 -31 -20 -48.5t-50 -17.5q-28 0 -44 14t-16 41q0 29 19 48.5t51 19.5 q27 0 43.5 -15t16.5 -42zM71 142v358l120 10v-351q0 -51 19.5 -75.5t53.5 -24.5q21 0 45.5 11t46.5 31v399l120 10v-381q0 -31 4.5 -65t17.5 -64l-114 -10q-9 16 -17 40t-10 46q-27 -38 -68.5 -62t-89.5 -24q-65 0 -96.5 43.5t-31.5 108.5z" />
<glyph unicode="&#x1e6;" horiz-adv-x="616" d="M458 876l32 -26q-58 -57 -100 -124l-97 -8q-21 34 -46 66.5t-57 65.5l32 26q66 -36 119 -85q54 50 117 85zM544 26q-41 -18 -89.5 -27t-96.5 -9q-97 0 -165.5 40.5t-104.5 115t-35 174.5q0 103 39 179.5t109 118.5t164 42q47 0 92.5 -10t79.5 -27l-19 -94 q-29 19 -66 30.5t-78 11.5q-96 0 -143 -68t-46 -178q0 -75 23 -132.5t68 -89.5t113 -32q22 0 49 4v89l-9 123l115 10v-271z" />
<glyph unicode="&#x1e7;" horiz-adv-x="507" d="M351 757l38 -23q-25 -36 -48 -75.5t-41 -80.5l-95 -8q-19 42 -41.5 82.5t-50.5 81.5l38 23q28 -24 53 -52t48 -59q22 31 46.5 59t52.5 52zM99 89q1 53 67 77q-57 16 -89 56t-32 103q0 55 24.5 96.5t69 65t105.5 23.5q49 0 87 0.5t75 2t83 5.5v-77l-127 7v-1 q39 -14 60.5 -49.5t21.5 -78.5q0 -52 -27 -88t-73 -55t-104 -19q-18 1 -35 2q-12 -12 -12 -26q0 -17 12 -25t27 -10.5t25 -3.5l69 -3q78 -5 123 -34.5t45 -90.5q0 -72 -68 -115t-201 -43q-95 0 -151.5 25.5t-56.5 78.5q0 31 19 53.5t48 36.5t59 20q-19 11 -31.5 28t-12.5 39 zM163 327q0 -49 20.5 -83.5t63.5 -34.5q39 0 58.5 30.5t19.5 87.5q0 51 -18.5 84.5t-59.5 33.5t-62.5 -33t-21.5 -85zM134 -66q0 -39 29 -61.5t83 -22.5q60 0 98.5 24.5t38.5 62.5q0 61 -96 66l-84 3q-6 1 -11 1q-25 -10 -41.5 -29.5t-16.5 -43.5z" />
<glyph unicode="&#x1ea;" horiz-adv-x="658" d="M462 26q-52 -32 -77 -64.5t-25 -59.5q0 -43 44 -43q12 0 24 3t25 9l13 -34q-17 -15 -43.5 -25.5t-58.5 -10.5q-41 0 -65.5 18.5t-24.5 54.5q0 32 20.5 62t57.5 55q-14 -1 -28 -1q-84 0 -145 40.5t-94 115t-32 174.5q0 103 35.5 179.5t98.5 118.5t149 42q84 0 145 -42 t93 -117t31 -174q0 -109 -39 -186t-105 -115h1zM185 327q0 -74 17 -132t50 -91.5t81 -33.5q47 0 78.5 33t47 90.5t15.5 131.5q-1 74 -17.5 131.5t-48.5 91t-79 33.5t-79.5 -32.5t-49 -90t-15.5 -131.5z" />
<glyph unicode="&#x1eb;" horiz-adv-x="554" d="M412 36q-45 -39 -69.5 -70.5t-24.5 -61.5q0 -45 45 -45q11 0 23 3t25 9l13 -34q-17 -15 -43.5 -25.5t-59.5 -10.5q-40 0 -64.5 17t-24.5 52q0 33 21.5 64.5t58.5 59.5q-23 -4 -46 -4q-64 0 -114 28.5t-78.5 84t-28.5 137.5q0 92 34 151.5t89.5 89t119.5 29.5t113.5 -28.5 t78.5 -84.5t29 -138q0 -80 -27 -135.5t-71 -87.5h1zM169 244q0 -86 26.5 -136.5t78.5 -50.5q47 0 79 46.5t32 152.5q0 95 -27 141t-76 46q-50 0 -81.5 -47t-31.5 -152z" />
<glyph unicode="&#x1f4;" horiz-adv-x="616" d="M458 808q-50 -35 -105 -55.5t-103 -30.5l-28 33q44 27 88 57t82 63zM544 26q-41 -18 -89.5 -27t-96.5 -9q-97 0 -165.5 40.5t-104.5 115t-35 174.5q0 103 39 179.5t109 118.5t164 42q47 0 92.5 -10t79.5 -27l-19 -94q-29 19 -66 30.5t-78 11.5q-96 0 -143 -68t-46 -178 q0 -75 23 -132.5t68 -89.5t113 -32q22 0 49 4v89l-9 123l115 10v-271z" />
<glyph unicode="&#x1f5;" horiz-adv-x="507" d="M342 726q-30 -52 -68 -93t-74 -69l-37 20q22 37 45.5 85t39.5 91zM99 89q1 53 67 77q-57 16 -89 56t-32 103q0 55 24.5 96.5t69 65t105.5 23.5q49 0 87 0.5t75 2t83 5.5v-77l-127 7v-1q39 -14 60.5 -49.5t21.5 -78.5q0 -52 -27 -88t-73 -55t-104 -19q-18 1 -35 2 q-12 -12 -12 -26q0 -17 12 -25t27 -10.5t25 -3.5l69 -3q78 -5 123 -34.5t45 -90.5q0 -72 -68 -115t-201 -43q-95 0 -151.5 25.5t-56.5 78.5q0 31 19 53.5t48 36.5t59 20q-19 11 -31.5 28t-12.5 39zM163 327q0 -49 20.5 -83.5t63.5 -34.5q39 0 58.5 30.5t19.5 87.5 q0 51 -18.5 84.5t-59.5 33.5t-62.5 -33t-21.5 -85zM134 -66q0 -39 29 -61.5t83 -22.5q60 0 98.5 24.5t38.5 62.5q0 61 -96 66l-84 3q-6 1 -11 1q-25 -10 -41.5 -29.5t-16.5 -43.5z" />
<glyph unicode="&#x1fa;" horiz-adv-x="619" d="M427 1042q-49 -34 -104 -55t-103 -31l-29 34q45 27 88.5 57t81.5 62zM411 804q0 -39 -30.5 -67.5t-77.5 -28.5q-45 0 -70 24t-25 57q0 39 32 67.5t80 28.5q41 0 66 -22.5t25 -58.5zM264 794q0 -18 11.5 -30.5t31.5 -12.5q19 0 33.5 14t14.5 34q0 18 -12 30.5t-30 12.5 q-20 0 -34.5 -14.5t-14.5 -33.5zM144 0h-114l167 526l36 125l157 9l199 -660h-120l-44 154h-237zM307 566l-100 -347h200l-99 347h-1z" />
<glyph unicode="&#x1fb;" horiz-adv-x="520" d="M343 983q-30 -51 -68 -92.5t-74 -69.5l-37 21q23 36 46 84t39 92zM352 669q0 -47 -32 -74.5t-74 -27.5q-40 0 -66.5 23.5t-26.5 64.5q0 45 30.5 75t76.5 30q40 0 66 -24.5t26 -66.5zM206 660q0 -22 12 -35t32 -13q19 0 34 14.5t15 38.5q0 23 -12 36.5t-32 13.5 q-21 0 -35 -15.5t-14 -39.5zM346 -10q-7 15 -14 35t-10 40q-21 -28 -62.5 -51.5t-95.5 -23.5q-60 0 -92 34t-32 83q0 58 39 95.5t103 55t139 17.5v54q1 92 -97 92q-39 0 -76 -13t-71 -35l-10 94q37 18 88 30.5t103 12.5q87 0 135 -41t48 -130q0 -10 -0.5 -37t-1 -59.5 t-1 -61.5t-0.5 -44q0 -37 4.5 -70.5t17.5 -66.5zM161 133q0 -35 18.5 -55.5t50.5 -20.5q23 0 48.5 12t41.5 29v144q-43 -1 -79 -13t-58 -35.5t-22 -60.5z" />
<glyph unicode="&#x1fc;" horiz-adv-x="873" d="M593 808q-50 -35 -105 -55.5t-103 -30.5l-28 33q44 27 88 57t82 63zM144 0h-114l256 526l45 124h445l-8 -80l-259 6l29 -218l221 4l-8 -76l-204 3l28 -215l253 7l-2 -81h-360l-14 154h-235zM414 566l-166 -347h198l-31 347h-1z" />
<glyph unicode="&#x1fd;" horiz-adv-x="786" d="M484 726q-30 -52 -68 -93t-74 -69l-37 20q23 37 46 85t39 91zM717 20q-24 -12 -65.5 -21t-85.5 -9q-70 0 -123.5 25.5t-84.5 75.5q-17 -24 -45 -47t-65 -38.5t-80 -15.5q-63 0 -95.5 33.5t-32.5 83.5q0 57 38 94t101.5 55.5t140.5 18.5l1 54q2 92 -97 92q-39 0 -76 -13 t-71 -35l-10 94q37 18 88 30.5t100 12.5t84.5 -14.5t56.5 -44.5q62 59 152 59q58 0 101 -23.5t67.5 -65.5t24.5 -98q0 -15 -1.5 -32t-3.5 -33l-10 -17h-285q6 -82 44 -123t112 -41q35 0 66.5 8t55.5 20zM544 445q-46 0 -74 -44t-29 -122l182 7q2 21 2 43q0 54 -21 85t-60 31 zM161 134q0 -35 20 -56t54 -21q29 0 59.5 16.5t50.5 41.5q-26 55 -25 125v0v1v1q-43 -1 -79 -13.5t-58 -36t-22 -58.5z" />
<glyph unicode="&#x1fe;" horiz-adv-x="658" d="M447 808q-49 -35 -104 -55.5t-103 -30.5l-29 33q45 27 88.5 57t81.5 63zM606 327q-1 -105 -37 -180.5t-99.5 -116t-145.5 -40.5q-56 0 -102.5 18.5t-80.5 53.5l-77 -89l-43 37l84 97q-53 86 -52 213q0 103 35.5 179.5t99 118.5t148.5 42q57 0 103.5 -19.5t80.5 -55.5 l78 89l44 -36l-87 -100q51 -85 51 -211zM185 326q0 -62 12 -113l245 283q-18 39 -46 62t-67 23q-47 0 -79.5 -32.5t-49 -90t-15.5 -132.5zM474 325q-1 59 -11 107l-244 -281q18 -38 46.5 -59.5t67.5 -21.5q47 0 78.5 33t47 90.5t15.5 131.5z" />
<glyph unicode="&#x1ff;" horiz-adv-x="554" d="M368 726q-30 -52 -68 -93t-74 -69l-37 20q22 37 45.5 85t39.5 91zM509 259q0 -92 -34.5 -151.5t-90 -88.5t-118.5 -29q-90 0 -147 52l-50 -53l-38 36l54 58q-19 30 -29.5 69.5t-10.5 87.5q0 92 34 151.5t89.5 89t119.5 29.5q89 0 146 -52l50 53l40 -35l-55 -59 q19 -30 29.5 -69.5t10.5 -88.5zM169 244q0 -36 4 -66l192 205q-26 60 -83 60q-50 0 -81.5 -47t-31.5 -152zM385 256q0 37 -4 67l-191 -205q27 -61 84 -61q47 0 79 46.5t32 152.5z" />
<glyph unicode="&#x218;" horiz-adv-x="507" d="M460 166q0 -80 -60.5 -128t-160.5 -48q-31 0 -66 4.5t-68 12.5t-57 19l18 106q31 -20 76.5 -36t88.5 -16q49 0 74.5 23.5t25.5 55.5q0 30 -20 52.5t-50.5 42t-65.5 40t-65.5 45.5t-50 59t-19.5 81q0 55 28.5 96t79 63t116.5 22q40 0 87 -8.5t80 -23.5l-22 -100 q-26 15 -64 29t-76 14q-49 0 -74.5 -24t-25.5 -58q0 -31 19.5 -54.5t50 -43.5t65.5 -41t65.5 -46t50.5 -58.5t20 -79.5zM327 -141q0 -38 -24 -79.5t-53 -68.5l-29 13q11 19 20 40.5t13 43.5q-20 4 -33.5 18t-13.5 39q0 28 17.5 45.5t43.5 17.5q27 0 43 -19t16 -50z" />
<glyph unicode="&#x219;" horiz-adv-x="452" d="M409 132q0 -63 -52 -102.5t-148 -39.5q-43 0 -88.5 9t-77.5 22l8 98q30 -19 73.5 -32t83.5 -13q42 0 62.5 16.5t20.5 42.5q0 23 -16.5 38.5t-43 28t-57.5 27.5q-31 14 -58 32t-43.5 43.5t-16.5 62.5q0 65 56 105t146 40q37 0 73 -7.5t66 -19.5l-8 -97q-30 17 -66 29 t-69 12q-37 0 -58 -17.5t-21 -43.5q0 -22 14.5 -37.5t37.5 -27t47 -22.5q32 -15 63.5 -34t51.5 -46t20 -67zM289 -141q0 -38 -24 -79.5t-53 -68.5l-29 13q11 19 20 40.5t13 43.5q-20 4 -33.5 18t-13.5 39q0 28 17.5 45.5t43.5 17.5q27 0 43 -19t16 -50z" />
<glyph unicode="&#x21a;" horiz-adv-x="519" d="M321 0h-121v569l-177 -7l7 88h460l7 -88l-176 7v-569zM319 -141q0 -38 -24 -79.5t-54 -68.5l-28 13q11 19 19.5 40.5t13.5 43.5q-20 4 -34 18t-14 39q0 28 17.5 45.5t44.5 17.5t43 -19t16 -50z" />
<glyph unicode="&#x21b;" horiz-adv-x="396" d="M359 429l-156 4v-254q0 -25 5 -48.5t21 -38t49 -14.5q25 0 49 8t39 17l2 -83q-18 -11 -53.5 -20.5t-76.5 -9.5q-74 0 -114.5 38.5t-40.5 126.5v280l-55 2v34l65 12l21 137l89 6v-143h161zM274 -141q0 -38 -24 -79.5t-53 -68.5l-29 13q11 19 20 40.5t13 43.5 q-20 4 -33.5 18t-13.5 39q0 28 17.5 45.5t43.5 17.5q27 0 43 -19t16 -50z" />
<glyph unicode="&#x232;" horiz-adv-x="567" d="M147 760v72h275v-72h-275zM344 0h-121v207l-203 443l118 10l147 -351h2l148 351l112 -10l-203 -443v-207z" />
<glyph unicode="&#x233;" horiz-adv-x="498" d="M130 624v73h245v-73h-245zM59 -195q-31 0 -54.5 3t-46.5 9v91q26 -7 60.5 -11t61.5 -4q60 0 111 30.5t70 88.5h-102l-133 489l124 9l108 -438h2l101 438l112 -9q-13 -58 -29.5 -124.5t-36 -134t-39 -130.5t-37.5 -112q-27 -75 -64 -117.5t-88 -60t-120 -17.5z" />
<glyph unicode="&#x237;" horiz-adv-x="265" d="M9 -148q33 36 49 84t16 118v323l-9 123l129 10v-438q0 -94 -34 -162.5t-124 -102.5z" />
<glyph unicode="&#x259;" horiz-adv-x="514" d="M45 177q0 15 1 32t4 34l10 16h284q-12 164 -155 164q-35 0 -67 -8t-55 -19l2 84q24 12 65.5 21t85.5 9q111 0 180 -64.5t69 -188.5q0 -85 -31 -144.5t-83.5 -91t-116.5 -31.5q-58 0 -101.5 23.5t-67.5 66t-24 97.5zM161 172q0 -54 21 -85.5t60 -31.5q46 0 74.5 45.5 t28.5 120.5l-182 -7q-2 -21 -2 -42z" />
<glyph unicode="&#x272;" horiz-adv-x="561" d="M9 -148q33 36 49 84t16 118v323l-9 123l129 10v-85q28 40 70 62.5t92 22.5q66 0 100 -43.5t34 -112.5v-354h-120v325q0 100 -77 100q-53 0 -99 -46v-307q0 -94 -34 -162.5t-124 -102.5z" />
<glyph unicode="&#x2c6;" horiz-adv-x="356" d="M78 569l-38 22q24 36 47 75.5t42 81.5l95 8q19 -43 41.5 -83.5t50.5 -81.5l-38 -22q-29 23 -54 51t-47 59q-23 -31 -47.5 -59t-51.5 -51z" />
<glyph unicode="&#x2c7;" horiz-adv-x="356" d="M278 757l38 -23q-25 -36 -48 -75.5t-41 -80.5l-95 -8q-19 42 -41.5 82.5t-50.5 81.5l38 23q28 -24 53 -52t48 -59q22 31 46.5 59t52.5 52z" />
<glyph unicode="&#x2d8;" horiz-adv-x="361" d="M177 571q-52 0 -87.5 45t-38.5 124l44 7q8 -53 30.5 -78.5t55.5 -25.5t55.5 27.5t30.5 77.5l43 6q-4 -81 -39.5 -132t-93.5 -51z" />
<glyph unicode="&#x2d9;" horiz-adv-x="249" d="M196 665q0 -33 -22.5 -52.5t-54.5 -19.5q-29 0 -47.5 16t-18.5 44q0 31 21.5 52t56.5 21q28 0 46.5 -16t18.5 -45z" />
<glyph unicode="&#x2da;" horiz-adv-x="299" d="M249 668q0 -47 -32 -74.5t-74 -27.5q-40 0 -66.5 23.5t-26.5 64.5q0 45 30.5 75t76.5 30q40 0 66 -24.5t26 -66.5zM103 659q0 -22 12 -35t32 -13q19 0 34 14.5t15 38.5q0 23 -12 36.5t-32 13.5q-21 0 -35 -15.5t-14 -39.5z" />
<glyph unicode="&#x2db;" horiz-adv-x="330" d="M279 0q-44 -18 -72 -47t-28 -57q0 -37 44 -37q12 0 24 3t25 9l13 -34q-17 -15 -43.5 -25.5t-59.5 -10.5q-40 0 -64.5 17t-24.5 52q0 46 44 86t114 60z" />
<glyph unicode="&#x2dc;" horiz-adv-x="404" d="M141 728q28 0 49 -12.5t40.5 -25t40.5 -12.5q19 0 31.5 15t22.5 37l30 -7q-2 -29 -12.5 -57.5t-30 -46.5t-47.5 -18q-26 0 -48.5 12.5t-43 25t-40.5 12.5q-17 0 -30 -13.5t-23 -37.5l-31 6q2 29 12 57t29.5 46.5t50.5 18.5z" />
<glyph unicode="&#x2dd;" horiz-adv-x="600" d="M203 740q-22 -54 -53 -98t-62 -75l-35 12q20 42 38.5 86.5t31.5 89.5zM355 740q-23 -54 -53.5 -98t-62.5 -75l-35 12q21 42 39 86.5t31 89.5z" />
<glyph unicode="&#x1e0c;" horiz-adv-x="648" d="M90 528l-9 122h212q97 0 164.5 -40.5t103 -113.5t34.5 -169q0 -102 -39.5 -175.5t-110 -112.5t-164.5 -39h-191v528zM276 575h-65v-499h69q64 0 104.5 32t60 88.5t18.5 128.5q0 72 -20 128.5t-61.5 89t-105.5 32.5zM395 -133q0 -33 -22.5 -52.5t-54.5 -19.5q-30 0 -48 16 t-18 44q0 31 21.5 52t55.5 21q29 0 47.5 -16t18.5 -45z" />
<glyph unicode="&#x1e0d;" horiz-adv-x="561" d="M388 -10q-14 26 -23 66q-24 -31 -61.5 -48.5t-79.5 -17.5q-79 0 -129 65t-50 181q0 92 31 153t81.5 91t108.5 30q28 0 51.5 -6.5t42.5 -16.5v76l-9 122l129 10v-542q0 -43 5 -79.5t18 -73.5zM169 244q0 -85 27.5 -136t83.5 -51q48 0 80 36v1v330q-30 19 -68 19 q-60 0 -91.5 -49t-31.5 -150zM348 -133q0 -33 -22.5 -52.5t-54.5 -19.5q-29 0 -47.5 16t-18.5 44q0 31 21.5 52t56.5 21q28 0 46.5 -16t18.5 -45z" />
<glyph unicode="&#x1e24;" horiz-adv-x="677" d="M211 0h-121v528l-9 122l130 10v-318h255v186l-9 122l130 11v-661h-121v275h-255v-275zM410 -133q0 -33 -22.5 -52.5t-54.5 -19.5q-29 0 -47.5 16t-18.5 44q0 31 21.5 52t56.5 21q28 0 46.5 -16t18.5 -45z" />
<glyph unicode="&#x1e25;" horiz-adv-x="561" d="M194 0h-120v563l-9 122l129 10v-271q28 41 70 63.5t90 22.5q68 0 102 -43.5t34 -112.5v-354h-120v325q0 100 -77 100q-53 0 -99 -46v-379zM354 -133q0 -33 -22.5 -52.5t-54.5 -19.5q-30 0 -48 16t-18 44q0 31 21.5 52t55.5 21q29 0 47.5 -16t18.5 -45z" />
<glyph unicode="&#x1e44;" horiz-adv-x="668" d="M406 802q0 -33 -22.5 -52.5t-54.5 -19.5q-30 0 -48 16t-18 44q0 31 21.5 52t55.5 21q29 0 47.5 -16t18.5 -45zM90 528l-9 122l105 10l300 -502h2l-10 492l100 10v-660h-110l-287 483h-2l10 -483h-99v528z" />
<glyph unicode="&#x1e45;" horiz-adv-x="561" d="M359 665q0 -33 -22.5 -52.5t-54.5 -19.5q-29 0 -47.5 16t-18.5 44q0 31 21.5 52t56.5 21q28 0 46.5 -16t18.5 -45zM194 0h-120v378l-9 122l129 10v-85q28 40 70 62.5t92 22.5q66 0 100 -43.5t34 -112.5v-354h-120v325q0 100 -77 100q-53 0 -99 -46v-379z" />
<glyph unicode="&#x1e5a;" horiz-adv-x="578" d="M211 0h-121v528l-9 122h196q118 0 182.5 -56.5t64.5 -147.5q0 -68 -34.5 -116t-93.5 -71l149 -259l-128 -10l-123 247q-14 -1 -27 -1h-56v-236zM263 580h-52v-274h55q70 0 101.5 39t31.5 100q0 59 -32 97t-104 38zM363 -133q0 -33 -22.5 -52.5t-54.5 -19.5 q-29 0 -47.5 16t-18.5 44q0 31 21.5 52t56.5 21q28 0 46.5 -16t18.5 -45z" />
<glyph unicode="&#x1e5b;" horiz-adv-x="379" d="M194 0h-120v378l-9 122l129 10v-135q17 56 51.5 95.5t81.5 39.5q12 0 22.5 -2t17.5 -5l-10 -119q-12 3 -26 5t-29 4q-32 1 -59.5 -13t-48.5 -46v-334zM211 -133q0 -33 -22.5 -52.5t-54.5 -19.5q-29 0 -47.5 16t-18.5 44q0 31 21.5 52t56.5 21q28 0 46.5 -16t18.5 -45z " />
<glyph unicode="&#x1e62;" horiz-adv-x="507" d="M460 166q0 -80 -60.5 -128t-160.5 -48q-31 0 -66 4.5t-68 12.5t-57 19l18 106q31 -20 76.5 -36t88.5 -16q49 0 74.5 23.5t25.5 55.5q0 30 -20 52.5t-50.5 42t-65.5 40t-65.5 45.5t-50 59t-19.5 81q0 55 28.5 96t79 63t116.5 22q40 0 87 -8.5t80 -23.5l-22 -100 q-26 15 -64 29t-76 14q-49 0 -74.5 -24t-25.5 -58q0 -31 19.5 -54.5t50 -43.5t65.5 -41t65.5 -46t50.5 -58.5t20 -79.5zM339 -133q0 -33 -22.5 -52.5t-54.5 -19.5q-30 0 -48 16t-18 44q0 31 21.5 52t55.5 21q29 0 47.5 -16t18.5 -45z" />
<glyph unicode="&#x1e63;" horiz-adv-x="452" d="M409 132q0 -63 -52 -102.5t-148 -39.5q-43 0 -88.5 9t-77.5 22l8 98q30 -19 73.5 -32t83.5 -13q42 0 62.5 16.5t20.5 42.5q0 23 -16.5 38.5t-43 28t-57.5 27.5q-31 14 -58 32t-43.5 43.5t-16.5 62.5q0 65 56 105t146 40q37 0 73 -7.5t66 -19.5l-8 -97q-30 17 -66 29 t-69 12q-37 0 -58 -17.5t-21 -43.5q0 -22 14.5 -37.5t37.5 -27t47 -22.5q32 -15 63.5 -34t51.5 -46t20 -67zM301 -133q0 -33 -22.5 -52.5t-54.5 -19.5q-30 0 -48 16t-18 44q0 31 21.5 52t55.5 21q29 0 47.5 -16t18.5 -45z" />
<glyph unicode="&#x1e6c;" horiz-adv-x="519" d="M321 0h-121v569l-177 -7l7 88h460l7 -88l-176 7v-569zM330 -133q0 -33 -22.5 -52.5t-54.5 -19.5q-29 0 -47.5 16t-18.5 44q0 31 21.5 52t56.5 21q28 0 46.5 -16t18.5 -45z" />
<glyph unicode="&#x1e6d;" horiz-adv-x="396" d="M359 429l-156 4v-254q0 -25 5 -48.5t21 -38t49 -14.5q25 0 49 8t39 17l2 -83q-18 -11 -53.5 -20.5t-76.5 -9.5q-74 0 -114.5 38.5t-40.5 126.5v280l-55 2v34l65 12l21 137l89 6v-143h161zM286 -133q0 -33 -22.5 -52.5t-54.5 -19.5q-30 0 -48 16t-18 44q0 31 21.5 52 t55.5 21q29 0 47.5 -16t18.5 -45z" />
<glyph unicode="&#x1e80;" horiz-adv-x="942" d="M589 754l-29 -33q-48 10 -103 30.5t-104 55.5l66 67q37 -33 81 -63t89 -57zM183 0l-148 650l118 10l124 -571h1l126 561h148l122 -561h2l125 571l106 -10l-162 -650h-167l-109 534h-2l-117 -534h-167z" />
<glyph unicode="&#x1e81;" horiz-adv-x="775" d="M476 584l-37 -20q-36 28 -74 69t-68 93l94 34q16 -43 39 -91t46 -85zM144 0l-123 501l120 9l89 -438h2l91 433h130l94 -433h2l87 438l114 -9q-54 -260 -131 -501h-148l-86 383h-2q-19 -94 -44 -188t-56 -195h-139z" />
<glyph unicode="&#x1e82;" horiz-adv-x="942" d="M589 808q-50 -35 -105 -55.5t-103 -30.5l-28 33q44 27 88 57t82 63zM183 0l-148 650l118 10l124 -571h1l126 561h148l122 -561h2l125 571l106 -10l-162 -650h-167l-109 534h-2l-117 -534h-167z" />
<glyph unicode="&#x1e83;" horiz-adv-x="775" d="M476 726q-30 -52 -68 -93t-74 -69l-37 20q23 37 46 85t39 91zM144 0l-123 501l120 9l89 -438h2l91 433h130l94 -433h2l87 438l114 -9q-54 -260 -131 -501h-148l-86 383h-2q-19 -94 -44 -188t-56 -195h-139z" />
<glyph unicode="&#x1e84;" horiz-adv-x="942" d="M422 801q0 -33 -20.5 -51.5t-52.5 -18.5q-29 0 -46 15t-17 43q0 31 20 51.5t54 20.5q29 0 45.5 -15.5t16.5 -44.5zM656 801q0 -33 -21 -51.5t-53 -18.5q-28 0 -45 15t-17 44q0 30 20 50.5t54 20.5q28 0 45 -16t17 -44zM183 0l-148 650l118 10l124 -571h1l126 561h148 l122 -561h2l125 571l106 -10l-162 -650h-167l-109 534h-2l-117 -534h-167z" />
<glyph unicode="&#x1e85;" horiz-adv-x="775" d="M342 664q0 -31 -20 -48.5t-50 -17.5q-28 0 -44 14t-16 41q0 29 19 48.5t51 19.5q27 0 43.5 -15t16.5 -42zM560 664q0 -31 -20.5 -48.5t-50.5 -17.5q-27 0 -43 14t-16 41q0 29 18.5 48.5t51.5 19.5q27 0 43.5 -15t16.5 -42zM144 0l-123 501l120 9l89 -438h2l91 433h130 l94 -433h2l87 438l114 -9q-54 -260 -131 -501h-148l-86 383h-2q-19 -94 -44 -188t-56 -195h-139z" />
<glyph unicode="&#x1e92;" horiz-adv-x="516" d="M473 0h-422l-16 63l300 502q-68 -1 -118 -2t-90.5 -2.5t-82.5 -3.5l8 93h405l16 -62l-302 -503q71 1 122.5 3t95 5.5t92.5 9.5zM330 -133q0 -33 -22.5 -52.5t-54.5 -19.5q-30 0 -48 16t-18 44q0 31 21.5 52t55.5 21q29 0 47.5 -16t18.5 -45z" />
<glyph unicode="&#x1e93;" horiz-adv-x="454" d="M411 0h-364l-13 68l253 346h-44q-52 0 -104.5 -2.5t-101.5 -7.5l12 96h351l7 -68l-252 -345h53q108 0 213 14zM299 -133q0 -33 -22.5 -52.5t-54.5 -19.5q-30 0 -48 16t-18 44q0 31 21.5 52t55.5 21q29 0 47.5 -16t18.5 -45z" />
<glyph unicode="&#x1e9e;" horiz-adv-x="660" d="M563 560v-24l-141 -155q51 -24 94 -54.5t69.5 -71t26.5 -92.5q0 -53 -26.5 -91.5t-72.5 -60t-105 -21.5q-32 0 -68 6.5t-64 18.5v82q21 -12 50.5 -19.5t50.5 -7.5q47 0 75 29.5t28 73.5q0 54 -45 92.5t-120 68.5v33l144 160q-19 23 -47 38.5t-64 15.5q-58 0 -96 -43.5 t-38 -116.5v-323q0 -27 -6 -59.5t-20 -48.5l-112 10q9 26 13 62.5t4 69.5v290q0 76 33 129.5t90 81t127 27.5q76 0 131.5 -29t88.5 -71z" />
<glyph unicode="&#x1ea0;" horiz-adv-x="619" d="M144 0h-114l167 526l36 125l157 9l199 -660h-120l-44 154h-237zM307 566l-100 -347h200l-99 347h-1zM381 -133q0 -33 -22.5 -52.5t-54.5 -19.5q-29 0 -47.5 16t-18.5 44q0 31 21.5 52t56.5 21q28 0 46.5 -16t18.5 -45z" />
<glyph unicode="&#x1ea1;" horiz-adv-x="520" d="M346 -10q-7 15 -14 35t-10 40q-21 -28 -62.5 -51.5t-95.5 -23.5q-60 0 -92 34t-32 83q0 58 39 95.5t103 55t139 17.5v54q1 92 -97 92q-39 0 -76 -13t-71 -35l-10 94q37 18 88 30.5t103 12.5q87 0 135 -41t48 -130q0 -10 -0.5 -37t-1 -59.5t-1 -61.5t-0.5 -44 q0 -37 4.5 -70.5t17.5 -66.5zM161 133q0 -35 18.5 -55.5t50.5 -20.5q23 0 48.5 12t41.5 29v144q-43 -1 -79 -13t-58 -35.5t-22 -60.5zM324 -133q0 -33 -22.5 -52.5t-54.5 -19.5q-29 0 -47.5 16t-18.5 44q0 31 21.5 52t56.5 21q28 0 46.5 -16t18.5 -45z" />
<glyph unicode="&#x1eb8;" horiz-adv-x="508" d="M461 0h-371v523l-9 127h375l-8 -80l-237 7v-219l185 4l-8 -76l-177 4v-217l252 8zM325 -133q0 -33 -22.5 -52.5t-54.5 -19.5q-30 0 -48 16t-18 44q0 31 21.5 52t55.5 21q29 0 47.5 -16t18.5 -45z" />
<glyph unicode="&#x1eb9;" horiz-adv-x="514" d="M445 20q-24 -12 -65.5 -21t-85.5 -9q-111 0 -180 64.5t-69 189.5q0 84 31 143.5t83.5 91t116.5 31.5q58 0 101 -23.5t67.5 -65.5t24.5 -98q0 -15 -1.5 -32t-3.5 -33l-10 -17h-284q11 -164 155 -164q34 0 66 8t56 20zM272 445q-47 0 -75 -45.5t-28 -120.5l182 7q2 21 2 43 q0 54 -21 85t-60 31zM342 -133q0 -33 -22.5 -52.5t-54.5 -19.5q-29 0 -47.5 16t-18.5 44q0 31 21.5 52t56.5 21q28 0 46.5 -16t18.5 -45z" />
<glyph unicode="&#x1ebc;" horiz-adv-x="508" d="M211 857q26 0 45.5 -10.5t37.5 -21t39 -10.5q20 0 33 13t25 34l30 -7q-3 -29 -14.5 -56t-31 -44.5t-48.5 -17.5q-25 0 -46 10.5t-40 21.5t-37 11t-32 -12.5t-26 -34.5l-30 7q3 28 13.5 55t30.5 44.5t51 17.5zM461 0h-371v523l-9 127h375l-8 -80l-237 7v-219l185 4l-8 -76 l-177 4v-217l252 8z" />
<glyph unicode="&#x1ebd;" horiz-adv-x="514" d="M205 728q28 0 49.5 -12.5t40.5 -25t41 -12.5q19 0 31 15t22 37l31 -7q-2 -29 -12.5 -57.5t-30 -46.5t-48.5 -18q-26 0 -48.5 12.5t-43 25t-39.5 12.5q-17 0 -30.5 -13.5t-23.5 -37.5l-30 6q2 29 12 57t29.5 46.5t49.5 18.5zM445 20q-24 -12 -65.5 -21t-85.5 -9 q-111 0 -180 64.5t-69 189.5q0 84 31 143.5t83.5 91t116.5 31.5q58 0 101 -23.5t67.5 -65.5t24.5 -98q0 -15 -1.5 -32t-3.5 -33l-10 -17h-284q11 -164 155 -164q34 0 66 8t56 20zM272 445q-47 0 -75 -45.5t-28 -120.5l182 7q2 21 2 43q0 54 -21 85t-60 31z" />
<glyph unicode="&#x1eca;" horiz-adv-x="301" d="M211 0h-121v528l-9 122l130 10v-660zM222 -133q0 -33 -22.5 -52.5t-54.5 -19.5q-29 0 -47.5 16t-18.5 44q0 31 21.5 52t56.5 21q28 0 46.5 -16t18.5 -45z" />
<glyph unicode="&#x1ecb;" horiz-adv-x="265" d="M207 665q0 -33 -22.5 -52.5t-54.5 -19.5q-29 0 -47.5 16t-18.5 44q0 31 21.5 52t56.5 21q28 0 46.5 -16t18.5 -45zM194 0h-120v377l-9 123l129 10v-510zM207 -133q0 -33 -22.5 -52.5t-54.5 -19.5q-29 0 -47.5 16t-18.5 44q0 31 21.5 52t56.5 21q28 0 46.5 -16t18.5 -45z " />
<glyph unicode="&#x1ecc;" horiz-adv-x="658" d="M606 327q-1 -105 -37 -180.5t-99.5 -116t-145.5 -40.5q-84 0 -145 40.5t-94 115t-32 174.5q0 103 35.5 179.5t98.5 118.5t149 42q84 0 145 -42t93 -117t32 -174zM185 327q0 -74 17 -132t50 -91.5t81 -33.5q47 0 78.5 33t47 90.5t15.5 131.5q-1 74 -17.5 131.5t-48.5 91 t-79 33.5t-79.5 -32.5t-49 -90t-15.5 -131.5zM401 -133q0 -33 -22.5 -52.5t-54.5 -19.5q-29 0 -47.5 16t-18.5 44q0 31 21.5 52t56.5 21q28 0 46.5 -16t18.5 -45z" />
<glyph unicode="&#x1ecd;" horiz-adv-x="554" d="M509 259q0 -92 -34.5 -151.5t-90 -88.5t-118.5 -29q-64 0 -114 28.5t-78.5 84t-28.5 137.5q0 92 34 151.5t89.5 89t119.5 29.5t113.5 -28.5t78.5 -84.5t29 -138zM169 244q0 -86 26.5 -136.5t78.5 -50.5q47 0 79 46.5t32 152.5q0 95 -27 141t-76 46q-50 0 -81.5 -47 t-31.5 -152zM349 -133q0 -33 -22.5 -52.5t-54.5 -19.5q-30 0 -48 16t-18 44q0 31 21.5 52t55.5 21q29 0 47.5 -16t18.5 -45z" />
<glyph unicode="&#x1ee4;" horiz-adv-x="647" d="M324 70q55 0 86 38t31 100v320l-9 122l130 10v-448q0 -69 -32.5 -119t-88 -76.5t-124.5 -26.5q-71 0 -123 27t-80.5 77t-28.5 118v316l-9 122l130 10v-453q0 -61 31.5 -99t86.5 -38zM395 -133q0 -33 -22.5 -52.5t-54.5 -19.5q-29 0 -47.5 16t-18.5 44q0 31 21.5 52 t56.5 21q28 0 46.5 -16t18.5 -45z" />
<glyph unicode="&#x1ee5;" horiz-adv-x="557" d="M71 142v358l120 10v-351q0 -51 19.5 -75.5t53.5 -24.5q21 0 45.5 11t46.5 31v399l120 10v-381q0 -31 4.5 -65t17.5 -64l-114 -10q-9 16 -17 40t-10 46q-27 -38 -68.5 -62t-89.5 -24q-65 0 -96.5 43.5t-31.5 108.5zM355 -133q0 -33 -22.5 -52.5t-54.5 -19.5q-30 0 -48 16 t-18 44q0 31 21.5 52t55.5 21q29 0 47.5 -16t18.5 -45z" />
<glyph unicode="&#x1ef2;" horiz-adv-x="567" d="M402 754l-29 -33q-48 10 -103 30.5t-104 55.5l66 67q37 -33 81 -63t89 -57zM344 0h-121v207l-203 443l118 10l147 -351h2l148 351l112 -10l-203 -443v-207z" />
<glyph unicode="&#x1ef3;" horiz-adv-x="498" d="M343 584l-37 -20q-36 28 -74 69t-68 93l94 34q16 -43 39 -91t46 -85zM59 -195q-31 0 -54.5 3t-46.5 9v91q26 -7 60.5 -11t61.5 -4q60 0 111 30.5t70 88.5h-102l-133 489l124 9l108 -438h2l101 438l112 -9q-13 -58 -29.5 -124.5t-36 -134t-39 -130.5t-37.5 -112 q-27 -75 -64 -117.5t-88 -60t-120 -17.5z" />
<glyph unicode="&#x1ef8;" horiz-adv-x="567" d="M226 857q26 0 46 -10.5t38 -21t38 -10.5t33 13t25 34l30 -7q-3 -29 -14 -56t-31 -44.5t-49 -17.5q-24 0 -45 10.5t-40 21.5t-38 11q-18 0 -32 -12.5t-26 -34.5l-30 7q3 28 13.5 55t30.5 44.5t51 17.5zM344 0h-121v207l-203 443l118 10l147 -351h2l148 351l112 -10 l-203 -443v-207z" />
<glyph unicode="&#x1ef9;" horiz-adv-x="498" d="M188 728q28 0 49 -12.5t40.5 -25t40.5 -12.5q19 0 31.5 15t22.5 37l30 -7q-2 -29 -12.5 -57.5t-30 -46.5t-47.5 -18q-26 0 -48.5 12.5t-43 25t-40.5 12.5q-17 0 -30 -13.5t-23 -37.5l-31 6q2 29 12 57t29.5 46.5t50.5 18.5zM59 -195q-31 0 -54.5 3t-46.5 9v91 q26 -7 60.5 -11t61.5 -4q60 0 111 30.5t70 88.5h-102l-133 489l124 9l108 -438h2l101 438l112 -9q-13 -58 -29.5 -124.5t-36 -134t-39 -130.5t-37.5 -112q-27 -75 -64 -117.5t-88 -60t-120 -17.5z" />
<glyph unicode="&#x2013;" horiz-adv-x="505" d="M30 259v43h445v-43h-445z" />
<glyph unicode="&#x2014;" horiz-adv-x="778" d="M30 259v43h718v-43h-718z" />
<glyph unicode="&#x2018;" horiz-adv-x="240" d="M70 492q0 36 17 74.5t45 72.5t60 56l17 -20q-23 -28 -41.5 -62t-24.5 -68q21 -4 34.5 -18t13.5 -37q0 -30 -18 -47.5t-43 -17.5q-28 0 -44 19t-16 48z" />
<glyph unicode="&#x2019;" horiz-adv-x="240" d="M170 628q0 -36 -17.5 -74.5t-45 -72.5t-59.5 -56l-18 20q24 28 42 61.5t25 68.5q-22 4 -35 18t-13 37q0 30 17.5 47.5t43.5 17.5q27 0 43.5 -19t16.5 -48z" />
<glyph unicode="&#x201a;" horiz-adv-x="215" d="M145 44q0 -35 -17.5 -74t-45 -73t-59.5 -56l-18 20q24 28 42 62t25 68q-22 4 -35 18t-13 37q0 30 17.5 47.5t43.5 17.5q27 0 43.5 -19t16.5 -48z" />
<glyph unicode="&#x201c;" horiz-adv-x="403" d="M70 492q0 36 17 74.5t45 72.5t60 56l17 -20q-23 -28 -41.5 -62t-24.5 -68q21 -4 34.5 -18t13.5 -37q0 -30 -18 -47.5t-43 -17.5q-28 0 -44 19t-16 48zM234 492q0 36 17 74.5t44.5 72.5t59.5 56l18 -20q-24 -28 -42 -62t-25 -68q22 -4 35 -18t13 -37q0 -30 -17.5 -47.5 t-43.5 -17.5q-27 0 -43 19t-16 48z" />
<glyph unicode="&#x201d;" horiz-adv-x="403" d="M333 628q0 -35 -17 -74t-44.5 -73t-59.5 -56l-18 20q23 28 41.5 62t24.5 68q-21 4 -34 18t-13 37q0 30 17.5 47.5t43.5 17.5q27 0 43 -19t16 -48zM170 628q0 -35 -17.5 -74t-45 -73t-59.5 -56l-18 20q24 28 42 62t25 68q-22 4 -35 18t-13 37q0 30 17.5 47.5t43.5 17.5 q27 0 43.5 -19t16.5 -48z" />
<glyph unicode="&#x201e;" horiz-adv-x="372" d="M145 44q0 -35 -17.5 -74t-45 -73t-59.5 -56l-18 20q24 28 42 62t25 68q-22 4 -35 18t-13 37q0 30 17.5 47.5t43.5 17.5q27 0 43.5 -19t16.5 -48zM302 44q0 -35 -17.5 -74t-45 -73t-59.5 -56l-18 20q24 28 42 62t25 68q-22 4 -35 18t-13 37q0 30 17.5 47.5t43.5 17.5 q27 0 43.5 -19t16.5 -48z" />
<glyph unicode="&#x2020;" horiz-adv-x="484" d="M300 -5l-115 -5l11 408l-152 -7l2 91l149 -6l-10 179l115 5l-11 -184l152 6l-2 -91l-151 7z" />
<glyph unicode="&#x2021;" horiz-adv-x="484" d="M300 -5l-115 -5l14 171l-155 -9l2 91l153 -9l-7 94l7 83l-155 -8l2 91l153 -9l-14 170l115 5l-15 -175l156 9l-2 -91l-154 8l7 -82l-7 -95l156 9l-2 -91l-154 9z" />
<glyph unicode="&#x2022;" horiz-adv-x="451" d="M353 273q0 -60 -40 -98t-98 -38q-50 0 -83.5 29t-33.5 83q0 39 18.5 69.5t50 48.5t71.5 18q49 0 82 -29t33 -83z" />
<glyph unicode="&#x2026;" horiz-adv-x="719" d="M588 -10q-26 0 -42.5 16t-16.5 41q0 27 19 45.5t46 18.5q24 0 39.5 -15t15.5 -39q0 -27 -17 -47t-44 -20zM358 -10q-26 0 -42 16t-16 41q0 27 18.5 45.5t45.5 18.5q24 0 40 -15t16 -39q0 -27 -17 -47t-45 -20zM129 -10q-26 0 -42.5 16t-16.5 41q0 27 19 45.5t46 18.5 q24 0 39.5 -15t15.5 -39q0 -27 -17 -47t-44 -20z" />
<glyph unicode="&#x2030;" horiz-adv-x="1340" d="M307 -10h-73l400 670h73zM382 474q0 -65 -23.5 -106.5t-62 -61.5t-83.5 -20q-69 0 -114.5 45t-45.5 135q0 62 22.5 104.5t61 64t86.5 21.5q72 0 115.5 -48t43.5 -134zM140 473q0 -63 18.5 -102t58.5 -39q39 0 58.5 36.5t19.5 95.5q0 68 -18.5 107t-58.5 39 q-37 0 -57.5 -34.5t-20.5 -102.5zM889 182q0 -65 -23.5 -106.5t-62 -61.5t-83.5 -20q-69 0 -114.5 45t-45.5 135q0 62 22.5 104.5t61 64t86.5 21.5q72 0 115.5 -48t43.5 -134zM1288 182q0 -65 -24 -106.5t-62.5 -61.5t-83.5 -20q-69 0 -114.5 45t-45.5 135q0 62 22.5 104.5 t61.5 64t86 21.5q72 0 116 -48t44 -134zM647 181q0 -63 18.5 -102t58.5 -39q39 0 58.5 36.5t19.5 95.5q0 68 -18.5 107t-58.5 39q-37 0 -57.5 -34.5t-20.5 -102.5zM1045 181q0 -63 18.5 -102t59.5 -39q38 0 57.5 36.5t19.5 95.5q0 68 -18.5 107t-58.5 39q-37 0 -57.5 -34.5 t-20.5 -102.5z" />
<glyph unicode="&#x2039;" horiz-adv-x="317" d="M49 271v31q53 46 100 94t95 107l25 -15q-25 -55 -57 -105.5t-64 -96.5q32 -46 64 -96.5t57 -105.5l-25 -14q-48 58 -95 106t-100 95z" />
<glyph unicode="&#x203a;" horiz-adv-x="317" d="M269 271q-54 -47 -101 -95t-95 -106l-24 14q24 55 56 105.5t64 96.5q-32 46 -64 96.5t-56 105.5l24 15q48 -59 95 -107t101 -94v-31z" />
<glyph unicode="&#x2044;" horiz-adv-x="593" d="M133 -10h-73l400 670h73z" />
<glyph unicode="&#x2070;" horiz-adv-x="435" d="M382 554q0 -65 -23.5 -106.5t-62 -61.5t-83.5 -20q-69 0 -114.5 45t-45.5 135q0 62 22.5 104.5t61 64t86.5 21.5q72 0 115.5 -48t43.5 -134zM140 553q0 -63 18.5 -102t58.5 -39q39 0 58.5 36.5t19.5 95.5q0 68 -18.5 107t-58.5 39q-37 0 -57.5 -34.5t-20.5 -102.5z" />
<glyph unicode="&#x2074;" horiz-adv-x="419" d="M294 372h-85v65h-173l-5 35l202 265l61 -5v-226q31 2 58 5l-6 -74h-52v-65zM206 503h3v160l-120 -160h117z" />
<glyph unicode="&#x2075;" horiz-adv-x="393" d="M331 481q0 -55 -48 -85.5t-124 -30.5q-26 0 -53.5 3.5t-47.5 9.5l7 45q17 -5 41.5 -8.5t42.5 -3.5q38 0 62.5 17.5t24.5 50.5q0 32 -23.5 47.5t-56.5 15.5q-16 0 -36.5 -3.5t-33.5 -7.5l-8 4v195h131q25 0 53.5 1t55.5 4l-6 -72h-190v-95q17 5 37 8.5t41 3.5 q60 0 95.5 -27t35.5 -72z" />
<glyph unicode="&#x2076;" horiz-adv-x="398" d="M206 365q-67 0 -110 40.5t-43 121.5q0 64 27.5 111t76.5 73t113 26q17 0 31.5 -2t20.5 -4l-8 -47q-20 7 -46 7q-45 0 -82.5 -33t-44.5 -109q15 18 42.5 29t55.5 11q46 0 80 -27.5t34 -76.5q0 -56 -43 -88t-104 -32zM204 411q29 0 47 19.5t18 51.5q0 29 -16 49.5t-48 20.5 q-43 0 -65 -33q1 -52 15 -80t49 -28z" />
<glyph unicode="&#x2077;" horiz-adv-x="364" d="M180 372h-94q3 52 27.5 106.5t64 103t89.5 81.5h-89q-37 0 -70 -2t-62 -5l6 74h264l6 -5l2 -40q-62 -66 -101 -146.5t-43 -166.5z" />
<glyph unicode="&#x2078;" horiz-adv-x="413" d="M201 365q-67 0 -107.5 25.5t-40.5 63.5q0 30 28.5 54t73.5 33q-36 15 -62 40t-26 59q0 44 40.5 70.5t102.5 26.5q59 0 98 -25t39 -64q0 -28 -24 -50.5t-66 -31.5q48 -17 75.5 -43.5t27.5 -57.5q0 -39 -41.5 -69.5t-117.5 -30.5zM207 691q-22 0 -40 -11.5t-18 -31.5 q0 -22 20 -39t46 -28q22 11 35.5 27.5t13.5 34.5q0 22 -16.5 35t-40.5 13zM204 411q30 0 51.5 14.5t21.5 36.5q0 21 -22.5 35.5t-60.5 25.5q-25 -11 -41 -27t-16 -35q0 -21 18.5 -35.5t48.5 -14.5z" />
<glyph unicode="&#x2079;" horiz-adv-x="403" d="M50 615q0 58 43 90t104 32q67 0 110.5 -40.5t43.5 -120.5q0 -65 -28 -112t-77 -73t-112 -26q-18 0 -32.5 2t-20.5 4l8 47q20 -7 47 -7q45 0 83 31t43 100q-14 -18 -42 -29t-55 -11q-47 0 -81 30.5t-34 82.5zM134 618q0 -32 16.5 -55.5t48.5 -23.5q20 0 37 8.5t27 23.5 q0 57 -14.5 89t-50.5 32q-28 0 -46 -20t-18 -54z" />
<glyph unicode="&#x207f;" horiz-adv-x="464" d="M169 372h-99v271l-7 89l106 7v-62q21 30 53 46t70 16q49 0 75.5 -30t26.5 -80v-257h-99v233q0 64 -55 64q-41 0 -71 -27v-270z" />
<glyph unicode="&#x2080;" horiz-adv-x="435" d="M382 17q0 -65 -23.5 -106.5t-62 -61.5t-83.5 -20q-69 0 -114.5 45t-45.5 135q0 62 22.5 104.5t61 64t86.5 21.5q72 0 115.5 -48t43.5 -134zM140 16q0 -63 18.5 -102t58.5 -39q39 0 58.5 36.5t19.5 95.5q0 68 -18.5 107t-58.5 39q-37 0 -57.5 -34.5t-20.5 -102.5z" />
<glyph unicode="&#x2081;" horiz-adv-x="313" d="M198 -168h-85v307l-67 -25l-11 39l157 44l6 -4v-361z" />
<glyph unicode="&#x2082;" horiz-adv-x="392" d="M310 -168h-260l-7 48q39 29 80.5 64.5t70 72.5t28.5 69q0 26 -19 41t-50 15q-26 0 -51.5 -10t-47.5 -24l-9 59q23 11 58.5 20.5t74.5 9.5q62 0 100.5 -27t38.5 -72q0 -38 -28.5 -73.5t-77 -67.5t-108.5 -59h81q67 0 132 9z" />
<glyph unicode="&#x2083;" horiz-adv-x="361" d="M311 -69q0 -46 -44 -74.5t-121 -28.5q-58 0 -101 13l8 48q37 -15 76 -15q41 0 64 17.5t23 44.5q0 30 -27.5 43t-62.5 13q-11 0 -22 -1.5t-17 -2.5v30q55 13 86.5 35.5t31.5 46.5q0 20 -18 32.5t-47 12.5q-42 0 -85 -22l-3 51q20 10 52 18t68 8q58 0 92.5 -23t34.5 -58 q0 -69 -125 -97q63 -4 100 -27t37 -64z" />
<glyph unicode="&#x2084;" horiz-adv-x="419" d="M294 -168h-85v65h-173l-5 35l202 265l61 -5v-226q31 2 58 5l-6 -74h-52v-65zM206 -37h3v160l-120 -160h117z" />
<glyph unicode="&#x2085;" horiz-adv-x="393" d="M331 -56q0 -55 -48 -85.5t-124 -30.5q-26 0 -53.5 3.5t-47.5 9.5l7 45q17 -5 41.5 -8.5t42.5 -3.5q38 0 62.5 17.5t24.5 50.5q0 32 -23.5 47.5t-56.5 15.5q-16 0 -36.5 -3.5t-33.5 -7.5l-8 4v195h131q25 0 53.5 1t55.5 4l-6 -72h-190v-95q17 5 37 8.5t41 3.5 q60 0 95.5 -27t35.5 -72z" />
<glyph unicode="&#x2086;" horiz-adv-x="398" d="M206 -172q-67 0 -110 40.5t-43 121.5q0 64 27.5 111t76.5 73t113 26q17 0 31.5 -2t20.5 -4l-8 -47q-20 7 -46 7q-45 0 -82.5 -33t-44.5 -109q15 18 42.5 29t55.5 11q46 0 80 -27.5t34 -76.5q0 -56 -43 -88t-104 -32zM204 -126q29 0 47 19.5t18 51.5q0 29 -16 49.5 t-48 20.5q-43 0 -65 -33q1 -52 15 -80t49 -28z" />
<glyph unicode="&#x2087;" horiz-adv-x="364" d="M180 -168h-94q3 52 27.5 106.5t64 103t89.5 81.5h-89q-37 0 -70 -2t-62 -5l6 74h264l6 -5l2 -40q-62 -66 -101 -146.5t-43 -166.5z" />
<glyph unicode="&#x2088;" horiz-adv-x="413" d="M201 -172q-67 0 -107.5 25.5t-40.5 63.5q0 30 28.5 54t73.5 33q-36 15 -62 40t-26 59q0 44 40.5 70.5t102.5 26.5q59 0 98 -25t39 -64q0 -28 -24 -50.5t-66 -31.5q48 -17 75.5 -43.5t27.5 -57.5q0 -39 -41.5 -69.5t-117.5 -30.5zM207 154q-22 0 -40 -11.5t-18 -31.5 q0 -22 20 -39t46 -28q22 11 35.5 27.5t13.5 34.5q0 22 -16.5 35t-40.5 13zM204 -126q30 0 51.5 14.5t21.5 36.5q0 21 -22.5 35.5t-60.5 25.5q-25 -11 -41 -27t-16 -35q0 -21 18.5 -35.5t48.5 -14.5z" />
<glyph unicode="&#x2089;" horiz-adv-x="403" d="M50 78q0 58 43 90t104 32q67 0 110.5 -40.5t43.5 -120.5q0 -65 -28 -112t-77 -73t-112 -26q-18 0 -32.5 2t-20.5 4l8 47q20 -7 47 -7q45 0 83 31t43 100q-14 -18 -42 -29t-55 -11q-47 0 -81 30.5t-34 82.5zM134 81q0 -32 16.5 -55.5t48.5 -23.5q20 0 37 8.5t27 23.5 q0 57 -14.5 89t-50.5 32q-28 0 -46 -20t-18 -54z" />
<glyph unicode="&#x20ac;" horiz-adv-x="564" d="M33 254l4 42h55v24q0 18 1 36h-48l4 42h49q12 79 48 138t93 91.5t132 32.5q42 0 84 -9.5t73 -25.5l-18 -94q-24 17 -58.5 28.5t-69.5 11.5q-70 0 -109.5 -47t-50.5 -126h217l-3 -42h-218q-1 -14 0 -29q0 -16 1 -31h208l-3 -42h-201q13 -78 54 -124t117 -46q32 0 65 7.5 t54 20.5l14 -86q-34 -18 -75.5 -27t-82.5 -9q-118 0 -188 71.5t-85 192.5h-63z" />
<glyph unicode="&#x2122;" horiz-adv-x="597" d="M304 598h-1l-19 -173h-49l31 225l81 3l38 -183l37 180l82 3l31 -228h-62l-19 174l-42 -174h-68zM152 425h-61v185l-61 -3l3 43h177l3 -43l-61 3v-185z" />
<glyph unicode="&#x2212;" horiz-adv-x="590" d="M497 284h-407v78q35 1 88 1.5t112.5 1t114.5 1t93 0.5z" />
<glyph unicode="&#x221e;" horiz-adv-x="837" d="M765 297q0 -53 -21.5 -94t-60 -65t-88.5 -24q-62 0 -103.5 34.5t-72.5 78.5q-32 -51 -78 -82t-105 -31q-49 0 -86 23.5t-57.5 64t-20.5 93.5q0 52 21.5 93t60 65t89.5 24q42 0 74.5 -16.5t57.5 -43t45 -56.5q33 53 79 84.5t104 31.5q75 0 118.5 -51t43.5 -129zM586 405 q-40 0 -72.5 -30t-56.5 -69q32 -50 63.5 -84t71.5 -34q36 0 62 28t26 80q0 50 -26.5 79.5t-67.5 29.5zM157 297q0 -51 27 -80.5t71 -30.5q37 0 70.5 29.5t56.5 67.5q-32 51 -64 85.5t-72 34.5q-37 0 -63 -28t-26 -78z" />
<glyph unicode="&#x2248;" horiz-adv-x="631" d="M193 421q-9 0 -25 -17t-35 -41l-43 21q13 25 29 53t35.5 48t42.5 20q18 0 52 -8t72 -18.5t70 -18t47 -7.5q9 0 25 16.5t36 40.5l42 -21q-12 -25 -28.5 -53t-36 -48t-41.5 -20q-19 0 -53.5 8t-73 18.5t-70.5 18.5t-45 8zM193 197q-9 0 -25 -17t-35 -41l-43 21q13 25 29 53 t35.5 48t42.5 20q18 0 52 -8t72 -18.5t70 -18t47 -7.5q9 0 25 16.5t36 40.5l42 -21q-12 -25 -28.5 -53t-36 -48t-41.5 -20q-19 0 -53.5 8t-73 18.5t-70.5 18.5t-45 8z" />
<glyph unicode="&#x2260;" horiz-adv-x="594" d="M194 70l-44 26l46 84h-106v78q27 0 66 1t83 1l69 128h-218v78q29 0 72 1t92.5 1.5t97.5 0.5l59 110l8 3l44 -26l-47 -86h82l-1 -82h-125l-69 -127q56 0 107.5 0.5t87.5 0.5l-1 -82h-237l-58 -107z" />
<glyph unicode="&#x2264;" horiz-adv-x="600" d="M498 576v-87l-295 -88l294 -86v-90q-43 12 -98 30t-112.5 38t-109 38.5t-85.5 31.5v75zM499 76h-407v77q34 1 87.5 2t113 1.5t114.5 1t93 0.5z" />
<glyph unicode="&#x2265;" horiz-adv-x="604" d="M106 225v87l296 87l-295 87v90q43 -13 98 -31t112.5 -37.5t109 -38t86.5 -31.5v-75zM506 76h-407v77q34 1 87.5 2t113 1.5t114.5 1t93 0.5z" />
<glyph unicode="&#x25fc;" horiz-adv-x="510" d="M0 510h510v-510h-510v510z" />
<glyph unicode="&#xfb00;" horiz-adv-x="603" d="M202 0h-120v421l-60 2v34l65 12v2q-9 17 -15.5 39.5t-6.5 44.5q0 57 48.5 89.5t129.5 32.5q39 0 73.5 -6.5t59.5 -16.5q45 41 129 41q32 0 60.5 -5.5t45.5 -13.5l-14 -84q-20 8 -41 12t-39 4q-30 0 -48 -17t-18 -56q0 -14 2 -33t7 -33h139l-5 -54l-120 3v-418h-120v421 l-152 3v-424zM178 526q0 -11 2.5 -28t6.5 -29h172v2q-9 18 -15.5 43.5t-6.5 49.5q0 10 1 20q-19 7 -39.5 10.5t-38.5 3.5q-36 0 -59 -17t-23 -55z" />
<glyph unicode="&#xfb01;" horiz-adv-x="545" d="M202 0h-120v421l-60 2v34l65 12v2q-10 18 -16 43t-6 48q0 63 53.5 98t145.5 35q45 0 88.5 -7.5t67.5 -18.5l-14 -83q-32 10 -68 16t-64 6q-44 0 -70 -17t-26 -57q0 -13 2.5 -32t6.5 -33h159l107 29l21 -2v-496h-120v377l-3 38l-149 4v-419z" />
<glyph unicode="&#xfb02;" horiz-adv-x="545" d="M202 0h-120v421l-60 2v34l65 12v2q-9 18 -15.5 42t-6.5 47q0 60 50 94t134 34q28 0 54 -3.5t47 -7.5l124 18v-695h-120v419l-152 3v-422zM178 533q0 -14 2.5 -32t6.5 -32h167v93l-3 31q-21 7 -46.5 11t-44.5 4q-38 0 -60 -18t-22 -57z" />
<glyph unicode="&#xfb03;" horiz-adv-x="805" d="M202 0h-120v421l-60 2v34l65 12v2q-9 17 -15.5 39.5t-6.5 44.5q0 57 48.5 89.5t130.5 32.5q40 0 76 -7.5t60 -16.5q53 42 156 42q46 0 89 -7.5t68 -18.5l-14 -83q-33 10 -68.5 16t-64.5 6q-44 0 -69.5 -17t-25.5 -57q0 -13 2 -32t7 -33h159l107 29l21 -2v-496h-120v377 l-4 38l-149 4v-419h-120v421l-152 3v-424zM178 526q0 -11 2.5 -28t6.5 -29h172v2q-9 18 -15.5 43t-6.5 48q0 11 2 22q-20 6 -40.5 10t-38.5 4q-36 0 -59 -17t-23 -55z" />
<glyph unicode="&#xfb04;" horiz-adv-x="818" d="M202 0h-120v421l-60 2v34l65 12v2q-9 17 -15.5 39.5t-6.5 44.5q0 57 48.5 89.5t129.5 32.5q43 0 79.5 -8t61.5 -18q50 37 138 37q27 0 53 -3.5t47 -7.5l125 18v-695h-120v419l-153 3v-422h-120v421l-152 3v-424zM451 533q0 -14 2 -32t7 -32h167v93l-3 31q-22 7 -47 11 t-45 4q-38 0 -59.5 -18t-21.5 -57zM178 526q0 -11 2.5 -28t6.5 -29h172v2q-9 18 -15.5 42t-6.5 47q0 12 2 23q-19 7 -40 11t-39 4q-36 0 -59 -17t-23 -55z" />
<glyph unicode="&#xfb06;" horiz-adv-x="835" d="M409 132q0 -63 -52 -102.5t-148 -39.5q-43 0 -88.5 9t-77.5 22l8 98q30 -19 73.5 -32t83.5 -13q42 0 62.5 16.5t20.5 42.5q0 23 -16.5 38.5t-43 28t-57.5 27.5q-31 14 -58 32t-43.5 43t-16.5 62q0 44 25.5 77t70.5 51t103 18q42 0 80 -11q-19 28 -19 64q0 43 24 75t65 50 t92 18q72 0 116.5 -37t44.5 -95q0 -27 -8.5 -53t-18.5 -38h172l-5 -54l-156 4v-254q0 -25 5 -48.5t21 -38t49 -14.5q25 0 49 8t39 17l2 -83q-18 -11 -53.5 -20.5t-76.5 -9.5q-74 0 -114.5 38.5t-40.5 126.5v280l-55 2l3 35l62 11q5 9 10 27.5t5 38.5q0 41 -22.5 64.5 t-62.5 23.5q-39 0 -65.5 -23t-26.5 -64q0 -20 7.5 -41t27.5 -40l-16 -83q-30 17 -66 29t-69 12q-37 0 -58 -17.5t-21 -43.5q0 -22 14.5 -37.5t37.5 -27t47 -22.5q32 -15 63.5 -34t51.5 -46t20 -67z" />
<glyph horiz-adv-x="439" d="M287 5q-13 24 -18 55q-16 -21 -47.5 -38t-73.5 -17q-45 0 -69.5 24.5t-24.5 60.5q0 41 29 68t77.5 39.5t106.5 12.5l1 34q0 29 -17.5 45.5t-56.5 16.5q-30 0 -58 -9.5t-54 -23.5l-7 76q29 12 68 21t80 9q68 0 106 -30t38 -97q0 -11 -1 -38.5t-1.5 -56.5t-0.5 -44 q0 -25 3.5 -50.5t13.5 -50.5zM153 112q0 -26 14 -40.5t37 -14.5q18 0 36.5 8.5t26.5 18.5v101q-47 -1 -80.5 -18.5t-33.5 -54.5z" />
<glyph horiz-adv-x="467" d="M63 505l106 7v-183q18 23 45.5 36.5t58.5 13.5q58 0 96.5 -46t38.5 -132q0 -96 -49.5 -146t-128.5 -50q-18 0 -38.5 3.5t-37.5 7.5l-84 -11v411zM227 323q-34 0 -58 -23v-236q22 -5 44 -5q44 0 68.5 31.5t24.5 104.5q0 56 -19.5 92t-59.5 36z" />
<glyph horiz-adv-x="399" d="M349 359l-8 -80q-16 12 -38 21.5t-46 9.5q-39 0 -67.5 -28.5t-28.5 -89.5q0 -54 25.5 -84.5t76.5 -30.5q23 0 44.5 5.5t39.5 12.5l-2 -69q-16 -9 -43 -15t-58 -6q-53 0 -94.5 20.5t-66 61t-24.5 101.5q0 65 27 107.5t71 63t95 20.5q31 0 55 -6t42 -14z" />
<glyph horiz-adv-x="477" d="M320 5q-11 18 -18 48q-18 -22 -46.5 -35t-60.5 -13q-60 0 -98 47.5t-38 129.5q0 67 24 110.5t62.5 65t82.5 21.5q21 0 38.5 -4t31.5 -12v53l-7 89l106 7v-388q0 -28 3.5 -55t13.5 -57zM161 188q0 -57 19.5 -93t60.5 -36q34 0 57 22v233q-22 11 -47 11q-45 0 -67.5 -33 t-22.5 -104z" />
<glyph horiz-adv-x="440" d="M370 26q-19 -9 -51.5 -15t-65.5 -6q-86 0 -140 46t-54 137q0 61 24 104t65 65t91 22q67 0 108 -37.5t41 -97.5q0 -24 -4 -48l-8 -12h-214q11 -107 116 -107q25 0 50 5t44 13zM235 327q-34 0 -54 -31.5t-20 -82.5l130 5q2 16 2 31q0 36 -15 57t-43 21z" />
<glyph horiz-adv-x="300" d="M176 12h-99v298l-46 2v27l50 10v2q-8 12 -12.5 30t-4.5 33q0 47 35.5 72.5t95.5 25.5q53 0 84 -14l-11 -68q-33 11 -61 11q-23 0 -36.5 -11.5t-13.5 -37.5q0 -21 6 -43h107l-4 -43l-90 2v-296z" />
<glyph horiz-adv-x="443" d="M102 73q0 18 14 34t41 25q-45 10 -71 39t-26 75q0 60 42 96.5t112 36.5q38 0 68 0.5t59 1.5t64 4v-61l-96 5v-1q30 -9 46.5 -34t16.5 -55q0 -55 -46 -84t-114 -29q-13 0 -24 1q-9 -8 -9 -17q0 -12 9 -17.5t20 -7t17 -1.5l54 -3q60 -3 95 -24.5t35 -66.5q0 -54 -52.5 -85 t-155.5 -31q-73 0 -117 18t-44 55q0 33 30.5 51.5t65.5 24.5q-15 8 -24.5 21t-9.5 29zM157 247q0 -33 14.5 -56.5t45.5 -23.5q29 0 43 20.5t14 58.5q0 36 -13.5 58t-43.5 22q-29 0 -44.5 -21.5t-15.5 -57.5zM136 -34q0 -27 21.5 -43t60.5 -16q44 0 72 16.5t28 42.5 q0 40 -71 44l-64 2h-9q-16 -7 -27 -19.5t-11 -26.5z" />
<glyph horiz-adv-x="464" d="M169 12h-99v404l-7 89l106 7v-195q21 30 53 46t69 16q50 0 76.5 -30t26.5 -80v-257h-99v233q0 64 -55 64q-41 0 -71 -27v-270z" />
<glyph horiz-adv-x="239" d="M181 481q0 -27 -19.5 -42t-46.5 -15q-24 0 -39.5 12.5t-15.5 35.5q0 25 18 42t48 17q24 0 39.5 -13.5t15.5 -36.5zM170 12h-99v270l-7 90l106 7v-367z" />
<glyph horiz-adv-x="239" d="M179 481q0 -27 -19.5 -42t-46.5 -15q-24 0 -39.5 12.5t-15.5 35.5q0 25 18 42t48 17q24 0 39.5 -13t15.5 -37zM22 -91q26 29 37 65.5t11 85.5v222l-7 90l106 7v-302q0 -42 -9.5 -82t-36 -72t-79.5 -49z" />
<glyph horiz-adv-x="450" d="M169 12h-99v404l-7 89l106 7v-294h37l99 161l99 -7l-114 -164l125 -196l-107 -7l-100 174h-39v-167z" />
<glyph horiz-adv-x="278" d="M189 12h-99v404l-7 89l106 7v-500z" />
<glyph horiz-adv-x="673" d="M169 12h-99v271l-7 89l106 7v-62q20 29 51.5 45.5t66.5 16.5q36 0 60 -18.5t34 -50.5q20 33 53.5 51t69.5 18q48 0 74 -30.5t26 -79.5v-257h-99v233q0 64 -52 64q-15 0 -33 -7t-34 -21v-12v-257h-99v233q0 64 -51 64q-17 0 -35.5 -7.5t-31.5 -19.5v-270z" />
<glyph horiz-adv-x="464" d="M169 12h-99v271l-7 89l106 7v-62q21 30 53 46t70 16q49 0 75.5 -30t26.5 -80v-257h-99v233q0 64 -55 64q-41 0 -71 -27v-270z" />
<glyph horiz-adv-x="477" d="M418 198q0 -66 -27 -109t-69.5 -63.5t-91.5 -20.5q-74 0 -122.5 45.5t-48.5 135.5q0 66 26.5 108.5t69 63.5t92.5 21q73 0 122 -46t49 -135zM161 188q0 -58 19 -93.5t57 -35.5q34 0 56.5 32t22.5 105q0 66 -19 97.5t-55 31.5t-58.5 -32t-22.5 -105z" />
<glyph horiz-adv-x="467" d="M70 283l-7 89l106 7v-48q18 22 45 35t59 13q58 0 96.5 -46t38.5 -131q0 -66 -24 -110t-62.5 -65.5t-82.5 -21.5q-21 0 -38.5 4.5t-31.5 11.5v-44q0 -24 1.5 -47.5t6.5 -50.5l-107 -7v411zM226 325q-34 0 -57 -22v-233q22 -11 48 -11q44 0 66.5 33t22.5 105 q0 57 -19.5 92.5t-60.5 35.5z" />
<glyph horiz-adv-x="473" d="M405 -119l-107 -7v182q-18 -24 -45.5 -37.5t-59.5 -13.5q-59 0 -96.5 46t-37.5 127q0 98 54.5 149.5t140.5 51.5q14 0 29 -1.5t29 -4.5l85 6v-400q0 -24 2 -47.5t6 -50.5zM161 179q0 -51 19.5 -84.5t60.5 -33.5q33 0 57 23v236q-8 2 -17 3.5t-19 1.5q-47 0 -74 -33.5 t-27 -112.5z" />
<glyph horiz-adv-x="326" d="M169 12h-99v271l-7 89l106 7v-99q13 40 39 69.5t62 29.5q17 0 30 -5l-8 -98q-11 2 -21 3.5t-23 2.5q-22 1 -43 -7t-36 -26v-237z" />
<glyph horiz-adv-x="386" d="M336 109q0 -46 -41 -75t-115 -29q-34 0 -69.5 6t-59.5 16l6 78q25 -14 59 -22.5t63 -8.5q30 0 44.5 10t14.5 26t-13 26.5t-33 18.5t-42 18q-35 15 -62 37.5t-27 62.5q0 48 43.5 77t113.5 29q30 0 57 -5t51 -14l-6 -78q-24 12 -52.5 20.5t-51.5 8.5q-26 0 -42 -11t-16 -27 q0 -22 24 -34.5t50 -23.5q25 -11 49 -24.5t39.5 -33t15.5 -48.5z" />
<glyph horiz-adv-x="352" d="M309 318l-115 3v-173q0 -26 10 -48.5t46 -22.5q18 0 37 5.5t29 11.5l2 -68q-15 -7 -42.5 -14t-60.5 -7q-58 0 -90 29t-32 95v194l-42 1v27l51 10v0l23 96l69 5v-101h119z" />
<glyph horiz-adv-x="465" d="M70 112v260l99 7v-254q0 -64 52 -65q16 1 33 7.5t32 18.5v286l99 7v-270q0 -23 4 -48.5t13 -48.5l-94 -7q-6 10 -12.5 27.5t-8.5 34.5q-20 -27 -52 -44.5t-68 -17.5q-49 0 -73 30t-24 77z" />
<glyph horiz-adv-x="418" d="M383 373q-23 -98 -49.5 -188t-56.5 -173h-140l-101 361l102 6l79 -310h1l72 310z" />
<glyph horiz-adv-x="635" d="M127 12l-91 361l98 6l65 -310h1l66 306h107l68 -306h2l63 310l94 -6q-20 -90 -45 -183.5t-53 -177.5h-123l-62 263h-1q-15 -68 -33 -131t-40 -132h-116z" />
<glyph horiz-adv-x="423" d="M275 12l-76 139l-67 -139h-89q24 46 48.5 87.5t58.5 96.5l-103 176l97 7l80 -151l68 151l87 -6q-22 -44 -50.5 -93.5t-55.5 -92.5l103 -175h-101z" />
<glyph horiz-adv-x="422" d="M70 -128q-25 0 -43.5 2t-36.5 6v75q21 -5 49 -8t47 -3q45 0 84.5 20t53.5 59h-86l-98 350l103 6l77 -310h2l72 310l93 -6q-9 -42 -21.5 -91t-27.5 -98.5t-29.5 -94t-26.5 -77.5q-32 -81 -81 -110.5t-131 -29.5z" />
<glyph horiz-adv-x="395" d="M341 12h-282l-11 56l189 233h-29q-82 0 -157 -7l9 78h272l5 -56l-188 -233h37q42 0 83 3t79 8z" />
<glyph horiz-adv-x="439" d="M287 365q-13 24 -18 55q-16 -21 -47.5 -38t-73.5 -17q-45 0 -69.5 24.5t-24.5 60.5q0 41 29 68t77.5 39.5t106.5 12.5l1 34q0 29 -17.5 45.5t-56.5 16.5q-30 0 -58 -9.5t-54 -23.5l-7 76q29 12 68 21t80 9q68 0 106 -30t38 -97q0 -11 -1 -38.5t-1.5 -56.5t-0.5 -44 q0 -25 3.5 -50.5t13.5 -50.5zM153 472q0 -26 14 -40.5t37 -14.5q18 0 36.5 8.5t26.5 18.5v101q-47 -1 -80.5 -18.5t-33.5 -54.5z" />
<glyph horiz-adv-x="467" d="M63 865l106 7v-183q18 23 45.5 36.5t58.5 13.5q58 0 96.5 -46t38.5 -132q0 -96 -49.5 -146t-128.5 -50q-18 0 -38.5 3.5t-37.5 7.5l-84 -11v411zM227 683q-34 0 -58 -23v-236q22 -5 44 -5q44 0 68.5 31.5t24.5 104.5q0 56 -19.5 92t-59.5 36z" />
<glyph horiz-adv-x="399" d="M349 719l-8 -80q-16 12 -38 21.5t-46 9.5q-39 0 -67.5 -28.5t-28.5 -89.5q0 -54 25.5 -84.5t76.5 -30.5q23 0 44.5 5.5t39.5 12.5l-2 -69q-16 -9 -43 -15t-58 -6q-53 0 -94.5 20.5t-66 61.5t-24.5 101q0 65 27 107.5t71 63t95 20.5q31 0 55 -6t42 -14z" />
<glyph horiz-adv-x="477" d="M320 365q-11 18 -18 48q-18 -22 -46.5 -35t-60.5 -13q-60 0 -98 47.5t-38 129.5q0 67 24 110.5t62.5 65t82.5 21.5q21 0 38.5 -4t31.5 -12v53l-7 89l106 7v-388q0 -28 3.5 -55t13.5 -57zM161 548q0 -57 19.5 -93t60.5 -36q34 0 57 22v233q-22 11 -47 11q-45 0 -67.5 -33 t-22.5 -104z" />
<glyph horiz-adv-x="440" d="M370 386q-19 -9 -51.5 -15t-65.5 -6q-86 0 -140 46t-54 137q0 61 24 104t65 65t91 22q67 0 108 -37.5t41 -97.5q0 -24 -4 -48l-8 -12h-214q11 -107 116 -107q25 0 50 5t44 13zM235 687q-34 0 -54 -31.5t-20 -82.5l130 5q2 16 2 31q0 36 -15 57t-43 21z" />
<glyph horiz-adv-x="300" d="M176 372h-99v298l-46 2v27l50 10v2q-8 12 -12.5 30t-4.5 33q0 47 35.5 72.5t95.5 25.5q53 0 84 -14l-11 -68q-33 11 -61 11q-23 0 -36.5 -11.5t-13.5 -37.5q0 -21 6 -43h107l-4 -43l-90 2v-296z" />
<glyph horiz-adv-x="443" d="M102 433q0 18 14 34t41 25q-45 10 -71 39t-26 75q0 60 42 96.5t112 36.5h68t59 1.5t64 4.5v-61l-96 5v-1q30 -9 46.5 -34t16.5 -55q0 -55 -46 -84t-114 -29q-13 0 -24 1q-9 -8 -9 -17q0 -12 9 -17.5t20 -7t17 -1.5l54 -3q60 -3 95 -24.5t35 -66.5q0 -54 -52.5 -85 t-155.5 -31q-73 0 -117 18t-44 56q0 32 30.5 50.5t65.5 24.5q-15 8 -24.5 21t-9.5 29zM157 607q0 -33 14.5 -56.5t45.5 -23.5q29 0 43 20.5t14 58.5q0 36 -13.5 58t-43.5 22q-29 0 -44.5 -21.5t-15.5 -57.5zM136 326q0 -27 21.5 -43t60.5 -16q44 0 72 16.5t28 42.5 q0 40 -71 44l-64 2h-9q-16 -7 -27 -19.5t-11 -26.5z" />
<glyph horiz-adv-x="464" d="M169 372h-99v404l-7 89l106 7v-195q21 30 53 46t69 16q50 0 76.5 -30t26.5 -80v-257h-99v233q0 64 -55 64q-41 0 -71 -27v-270z" />
<glyph horiz-adv-x="239" d="M181 841q0 -27 -19.5 -42t-46.5 -15q-24 0 -39.5 12.5t-15.5 35.5q0 25 18 42t48 17q24 0 39.5 -13.5t15.5 -36.5zM170 372h-99v270l-7 90l106 7v-367z" />
<glyph horiz-adv-x="239" d="M179 841q0 -27 -19.5 -42t-46.5 -15q-24 0 -39.5 12.5t-15.5 35.5q0 25 18 42t48 17q24 0 39.5 -13t15.5 -37zM22 269q26 29 37 65.5t11 85.5v222l-7 90l106 7v-302q0 -42 -9.5 -82t-36 -72t-79.5 -49z" />
<glyph horiz-adv-x="450" d="M169 372h-99v404l-7 89l106 7v-294h37l99 161l99 -7l-114 -164l125 -196l-107 -7l-100 174h-39v-167z" />
<glyph horiz-adv-x="278" d="M189 372h-99v404l-7 89l106 7v-500z" />
<glyph horiz-adv-x="673" d="M169 372h-99v271l-7 89l106 7v-62q20 29 51.5 45.5t66.5 16.5q36 0 60 -18.5t34 -50.5q20 33 53.5 51t69.5 18q48 0 74 -30.5t26 -79.5v-257h-99v233q0 64 -52 64q-15 0 -33 -7t-34 -21v-12v-257h-99v233q0 64 -51 64q-17 0 -35.5 -7.5t-31.5 -19.5v-270z" />
<glyph horiz-adv-x="477" d="M418 558q0 -66 -27 -109t-69.5 -63.5t-91.5 -20.5q-74 0 -122.5 45.5t-48.5 135.5q0 66 26.5 108.5t69 63.5t92.5 21q73 0 122 -46t49 -135zM161 548q0 -58 19 -93.5t57 -35.5q34 0 56.5 32t22.5 105q0 66 -19 97.5t-55 31.5t-58.5 -32t-22.5 -105z" />
<glyph horiz-adv-x="467" d="M70 643l-7 89l106 7v-48q18 22 45 35t59 13q58 0 96.5 -46t38.5 -131q0 -67 -24 -110.5t-62.5 -65t-82.5 -21.5q-21 0 -38.5 4.5t-31.5 11.5v-44q0 -24 1.5 -47.5t6.5 -50.5l-107 -7v411zM226 685q-34 0 -57 -22v-233q22 -11 48 -11q44 0 66.5 33t22.5 105 q0 57 -19.5 92.5t-60.5 35.5z" />
<glyph horiz-adv-x="473" d="M405 241l-107 -7v182q-18 -24 -45.5 -37.5t-59.5 -13.5q-59 0 -96.5 46t-37.5 127q0 98 54.5 149.5t140.5 51.5q14 0 29 -1.5t29 -4.5l85 6v-400q0 -24 2 -47.5t6 -50.5zM161 539q0 -51 19.5 -84.5t60.5 -33.5q33 0 57 23v236q-8 2 -17 3.5t-19 1.5q-47 0 -74 -33.5 t-27 -112.5z" />
<glyph horiz-adv-x="326" d="M169 372h-99v271l-7 89l106 7v-99q13 40 39 69.5t62 29.5q17 0 30 -5l-8 -98q-11 2 -21 3.5t-23 2.5q-22 1 -43 -7t-36 -26v-237z" />
<glyph horiz-adv-x="386" d="M336 469q0 -46 -41 -75t-115 -29q-34 0 -69.5 6t-59.5 16l6 78q25 -14 59 -22.5t63 -8.5q30 0 44.5 10t14.5 26t-13 26.5t-33 18.5t-42 18q-35 15 -62 37.5t-27 62.5q0 48 43.5 77t113.5 29q30 0 57 -5t51 -14l-6 -78q-24 12 -52.5 20.5t-51.5 8.5q-26 0 -42 -11t-16 -27 q0 -22 24 -34.5t50 -23.5q25 -11 49 -24.5t39.5 -33t15.5 -48.5z" />
<glyph horiz-adv-x="352" d="M309 678l-115 3v-173q0 -26 10 -48.5t46 -22.5q18 0 37 5.5t29 11.5l2 -68q-15 -7 -42.5 -14t-60.5 -7q-58 0 -90 29t-32 95v194l-42 1v27l51 10v0l23 96l69 5v-101h119z" />
<glyph horiz-adv-x="465" d="M70 472v260l99 7v-254q0 -65 52 -64q16 0 33 6.5t32 18.5v286l99 7v-270q0 -23 4 -48.5t13 -48.5l-94 -7q-6 10 -12.5 27.5t-8.5 34.5q-20 -27 -52 -44.5t-68 -17.5q-49 0 -73 30t-24 77z" />
<glyph horiz-adv-x="418" d="M383 733q-23 -98 -49.5 -188t-56.5 -173h-140l-101 361l102 6l79 -310h1l72 310z" />
<glyph horiz-adv-x="635" d="M127 372l-91 361l98 6l65 -310h1l66 306h107l68 -306h2l63 310l94 -6q-20 -90 -45 -183.5t-53 -177.5h-123l-62 263h-1q-15 -68 -33 -131t-40 -132h-116z" />
<glyph horiz-adv-x="423" d="M275 372l-76 139l-67 -139h-89q24 46 48.5 87.5t58.5 96.5l-103 176l97 7l80 -151l68 151l87 -5q-22 -45 -50.5 -94.5t-55.5 -92.5l103 -175h-101z" />
<glyph horiz-adv-x="422" d="M70 232q-25 0 -43.5 2t-36.5 6v75q21 -5 49 -8t47 -3q45 0 84.5 20t53.5 59h-86l-98 350l103 6l77 -310h2l72 310l93 -6q-9 -42 -21.5 -91t-27.5 -98.5t-29.5 -94t-26.5 -77.5q-32 -81 -81 -110.5t-131 -29.5z" />
<glyph horiz-adv-x="395" d="M341 372h-282l-11 56l189 233h-29q-82 0 -157 -7l9 78h272l5 -56l-188 -233h37q42 0 83 3t79 8z" />
<glyph horiz-adv-x="1014" d="M648 0h-120v563l-4 50q-19 3 -37 3q-41 0 -64.5 -17.5t-23.5 -53.5q0 -17 7.5 -39.5t25.5 -44.5l-22 -79q-21 17 -49 30t-62 13q-52 0 -91 -42t-39 -134q0 -80 34 -126t103 -46q31 0 59.5 8t52.5 20l-2 -85q-21 -12 -56 -21t-76 -9q-69 0 -123 29t-85 85.5t-31 138.5 q0 91 35 150t91 88t119 29q35 0 67 -9q-18 32 -18 62q0 62 50.5 102.5t145.5 40.5q23 0 54.5 -2.5t58.5 -8.5v-271q27 41 69 63.5t91 22.5q67 0 101 -43.5t34 -112.5v-354h-120v325q0 100 -76 100q-53 0 -99 -46v-379z" />
<glyph horiz-adv-x="863" d="M430 460l-20 -78q-25 17 -51 30t-59 13q-53 0 -92 -42.5t-39 -133.5q0 -79 33.5 -125.5t103.5 -46.5q31 0 59.5 8t52.5 20l-2 -85q-21 -12 -56 -21t-76 -9q-69 0 -123 29t-85 85.5t-31 139.5q0 90 35 149t90.5 88t117.5 29q38 0 70 -10q-17 27 -17 62q0 42 23 74.5t63 51 t91 18.5q74 0 121 -38t47 -98q0 -28 -8.5 -51t-18.5 -36h172l-5 -54l-157 4v-254q0 -25 5 -48.5t21.5 -38t48.5 -14.5q25 0 49.5 8t38.5 17l2 -83q-18 -11 -53.5 -20.5t-75.5 -9.5q-75 0 -115.5 38.5t-40.5 126.5v280l-48 2l6 35l53 11q5 9 10 25.5t5 35.5q0 44 -25 68.5 t-65 24.5q-39 0 -65.5 -24t-26.5 -66q0 -21 8 -43.5t29 -43.5z" />
<glyph horiz-adv-x="1008" d="M409 132q0 -63 -52 -102.5t-148 -39.5q-43 0 -88.5 9t-77.5 22l8 98q30 -19 73.5 -32t83.5 -13q42 0 62.5 16.5t20.5 42.5q0 23 -16.5 38.5t-43 28t-57.5 27.5q-31 14 -58 32t-43.5 43t-16.5 62q0 44 25.5 77t70 51t102.5 18q42 0 80 -10q-19 32 -19 65q0 60 55 100.5 t157 40.5q25 0 56 -2.5t58 -8.5v-271q28 41 70 63.5t90 22.5q68 0 102 -43.5t34 -112.5v-354h-120v325q0 100 -77 100q-53 0 -99 -46v-379h-120v563l-3 47q-23 6 -49 6q-44 0 -69.5 -19t-25.5 -54q0 -14 6.5 -33.5t23.5 -38.5l-15 -85q-30 17 -66 29t-69 12q-37 0 -58 -17.5 t-21 -43.5q0 -22 14.5 -37.5t37.5 -27t47 -22.5q32 -15 63.5 -34t51.5 -46t20 -67z" />
<glyph horiz-adv-x="435" d="M382 182q0 -65 -23.5 -106.5t-62 -61.5t-83.5 -20q-69 0 -114.5 45t-45.5 135q0 62 22.5 104.5t61 64t86.5 21.5q72 0 115.5 -48t43.5 -134zM140 181q0 -63 18.5 -102t58.5 -39q39 0 58.5 36.5t19.5 95.5q0 68 -18.5 107t-58.5 39q-37 0 -57.5 -34.5t-20.5 -102.5z" />
<glyph horiz-adv-x="313" d="M198 0h-85v307l-67 -25l-11 39l157 44l6 -4v-361z" />
<glyph horiz-adv-x="392" d="M310 0h-260l-7 48q39 29 80.5 64.5t70 72.5t28.5 69q0 26 -19 41t-50 15q-26 0 -51.5 -10t-47.5 -24l-9 59q23 11 58.5 20.5t74.5 9.5q62 0 100.5 -27t38.5 -72q0 -38 -28.5 -73.5t-77 -67.5t-108.5 -59h81q67 0 132 9z" />
<glyph horiz-adv-x="361" d="M311 96q0 -46 -44 -74.5t-121 -28.5q-58 0 -101 13l8 48q37 -15 76 -15q41 0 64 17.5t23 44.5q0 30 -27.5 43t-62.5 13q-11 0 -22 -1.5t-17 -2.5v30q55 13 86.5 35.5t31.5 46.5q0 20 -18 32.5t-47 12.5q-42 0 -85 -22l-3 51q20 10 52 18t68 8q58 0 92.5 -23t34.5 -58 q0 -69 -125 -97q63 -4 100 -27t37 -64z" />
<glyph horiz-adv-x="419" d="M294 0h-85v65h-173l-5 35l202 265l61 -5v-226q31 2 58 5l-6 -74h-52v-65zM206 131h3v160l-120 -160h117z" />
<glyph horiz-adv-x="393" d="M331 109q0 -55 -48 -85.5t-124 -30.5q-26 0 -53.5 3.5t-47.5 9.5l7 45q17 -5 41.5 -8.5t42.5 -3.5q38 0 62.5 17.5t24.5 50.5q0 32 -23.5 47.5t-56.5 15.5q-16 0 -36.5 -3.5t-33.5 -7.5l-8 4v195h131q25 0 53.5 1t55.5 4l-6 -72h-190v-95q17 5 37 8.5t41 3.5 q60 0 95.5 -27t35.5 -72z" />
<glyph horiz-adv-x="398" d="M206 -7q-67 0 -110 40.5t-43 121.5q0 64 27.5 111t76.5 73t113 26q17 0 31.5 -2t20.5 -4l-8 -47q-20 7 -46 7q-45 0 -82.5 -33t-44.5 -109q15 18 42.5 29t55.5 11q46 0 80 -27.5t34 -76.5q0 -56 -43 -88t-104 -32zM204 39q29 0 47 19.5t18 51.5q0 29 -16 49.5t-48 20.5 q-43 0 -65 -33q1 -52 15 -80t49 -28z" />
<glyph horiz-adv-x="364" d="M180 0h-94q3 52 27.5 106.5t64 103t89.5 81.5h-89q-37 0 -70 -2t-62 -5l6 74h264l6 -5l2 -40q-62 -66 -101 -146.5t-43 -166.5z" />
<glyph horiz-adv-x="413" d="M201 -7q-67 0 -107.5 25.5t-40.5 63.5q0 30 28.5 54t73.5 33q-36 15 -62 40t-26 59q0 44 40.5 70.5t102.5 26.5q59 0 98 -25t39 -64q0 -28 -24 -50.5t-66 -31.5q48 -17 75.5 -43.5t27.5 -57.5q0 -39 -41.5 -69.5t-117.5 -30.5zM207 319q-22 0 -40 -11.5t-18 -31.5 q0 -22 20 -39t46 -28q22 11 35.5 27.5t13.5 34.5q0 22 -16.5 35t-40.5 13zM204 39q30 0 51.5 14.5t21.5 36.5q0 21 -22.5 35.5t-60.5 25.5q-25 -11 -41 -27t-16 -35q0 -21 18.5 -35.5t48.5 -14.5z" />
<glyph horiz-adv-x="403" d="M50 243q0 58 43 90t104 32q67 0 110.5 -40.5t43.5 -120.5q0 -65 -28 -112t-77 -73t-112 -26q-18 0 -32.5 2t-20.5 4l8 47q20 -7 47 -7q45 0 83 31t43 100q-14 -18 -42 -29t-55 -11q-47 0 -81 30.5t-34 82.5zM134 246q0 -32 16.5 -55.5t48.5 -23.5q20 0 37 8.5t27 23.5 q0 57 -14.5 89t-50.5 32q-28 0 -46 -20t-18 -54z" />
<glyph horiz-adv-x="623" d="M570 331q0 -117 -37 -192.5t-97.5 -112t-131.5 -36.5q-73 0 -130 37t-89 110t-32 180q0 113 35.5 189.5t96 115t135.5 38.5t131.5 -39t87.5 -112.5t31 -177.5zM176 328q0 -80 14.5 -141t44.5 -95.5t76 -34.5q65 0 100.5 70t35.5 190q0 125 -33 200.5t-102 75.5 q-63 0 -99.5 -66.5t-36.5 -198.5z" />
<glyph horiz-adv-x="395" d="M280 0h-120v574l-109 -49l-16 59l237 76l8 -6v-654z" />
<glyph horiz-adv-x="552" d="M465 0h-412l-10 67q51 45 103.5 95.5t96.5 103t70.5 105t26.5 101.5t-32.5 79t-87.5 30q-42 0 -83.5 -17.5t-75.5 -44.5l-13 86q34 20 90 37.5t119 17.5q97 0 157 -47.5t59 -130.5q0 -69 -46.5 -135.5t-126 -130t-175.5 -122.5h136q109 0 213 14z" />
<glyph horiz-adv-x="515" d="M465 175q0 -82 -69 -133.5t-192 -51.5q-43 0 -84.5 6.5t-74.5 17.5l11 70q28 -12 61 -19t64 -7q73 0 111.5 35.5t38.5 87.5q0 40 -22 64.5t-57 35.5t-74 11q-34 0 -63 -6v45q91 24 143.5 68t52.5 94q0 40 -29.5 64t-80.5 24q-38 0 -72.5 -12t-66.5 -30l-6 74q30 17 80 32 t110 15q90 0 144.5 -39t53.5 -103q0 -59 -51 -106t-151 -74q102 -5 162.5 -46.5t60.5 -116.5z" />
<glyph horiz-adv-x="602" d="M440 0h-120v131h-281l-8 50l323 479l86 -10v-426q48 3 94 10l-9 -103h-85v-131zM320 540l-220 -321h201h19v321z" />
<glyph horiz-adv-x="549" d="M486 197q0 -64 -33.5 -110.5t-94 -71.5t-141.5 -25q-42 0 -85 6.5t-74 17.5l10 67q29 -11 68 -17.5t68 -6.5q66 0 107.5 36.5t41.5 100.5q0 65 -40.5 96t-97.5 31q-26 0 -58.5 -6.5t-54.5 -14.5l-12 9v341h205q43 0 87 2.5t84 7.5l-9 -103h-301v-199q25 8 57 14t65 6 q95 0 151.5 -49t56.5 -132z" />
<glyph horiz-adv-x="567" d="M293 -10q-71 0 -125 33t-84.5 98t-30.5 161q0 116 43.5 201t120 131t174.5 46q28 0 51 -3.5t34 -8.5l-12 -68q-15 6 -35.5 9.5t-40.5 3.5q-52 0 -98 -29.5t-77 -93t-36 -165.5q28 41 72.5 62t91.5 21q49 0 90.5 -22.5t66 -64.5t24.5 -100q0 -64 -30.5 -111.5t-82.5 -73.5 t-116 -26zM290 57q51 0 82.5 38t31.5 101q0 59 -28.5 97.5t-80.5 38.5q-32 0 -64 -15.5t-54 -49.5q2 -103 28 -156.5t85 -53.5z" />
<glyph horiz-adv-x="524" d="M246 0h-133q4 75 28.5 153.5t64 153t90 139t108.5 111.5h-145q-109 0 -213 -15l10 108h416l9 -7l3 -56q-65 -77 -117 -172.5t-84 -201t-37 -213.5z" />
<glyph horiz-adv-x="584" d="M53 147q0 39 22 71.5t60 56.5t85 36q-60 28 -102.5 74t-42.5 108q0 50 29 87.5t79.5 58.5t113.5 21q61 0 109 -20t76 -55t28 -81q0 -54 -40.5 -96t-108.5 -62q77 -29 124 -75.5t47 -105.5q0 -47 -29.5 -87t-84.5 -64t-132 -24q-70 0 -122.5 20.5t-81.5 56.5t-29 80z M191 504q0 -43 33 -77.5t78 -55.5q40 22 66 55t26 72q0 43 -29 69t-71 26q-41 0 -72 -24.5t-31 -64.5zM171 156q0 -41 33 -70t85 -29q53 0 88.5 30t35.5 74q1 43 -37.5 71.5t-99.5 52.5q-43 -21 -74 -54.5t-31 -74.5z" />
<glyph horiz-adv-x="572" d="M520 368q0 -116 -44 -201t-120.5 -131t-174.5 -46q-28 0 -51 4t-33 8l12 68q14 -6 34.5 -9.5t40.5 -3.5q52 0 98 27t77 86.5t36 154.5q-28 -41 -72.5 -62t-89.5 -21q-50 0 -91.5 24t-66.5 68.5t-25 105.5q0 66 29.5 115.5t81 77t118.5 27.5q70 0 124.5 -33t85.5 -98 t31 -161zM169 445q0 -63 28.5 -104.5t80.5 -41.5q31 0 63 15t54 49q-2 114 -28 172t-84 58q-52 0 -83 -40.5t-31 -107.5z" />
<glyph horiz-adv-x="435" d="M382 474q0 -65 -23.5 -106.5t-62 -61.5t-83.5 -20q-69 0 -114.5 45t-45.5 135q0 62 22.5 104.5t61 64t86.5 21.5q72 0 115.5 -48t43.5 -134zM140 473q0 -63 18.5 -102t58.5 -39q39 0 58.5 36.5t19.5 95.5q0 68 -18.5 107t-58.5 39q-37 0 -57.5 -34.5t-20.5 -102.5z" />
<glyph horiz-adv-x="313" d="M198 292h-85v307l-67 -25l-11 39l157 44l6 -4v-361z" />
<glyph horiz-adv-x="392" d="M310 292h-260l-7 48q39 29 80.5 64.5t70 72.5t28.5 69q0 26 -19 41t-50 15q-26 0 -51.5 -10t-47.5 -24l-9 59q23 11 58.5 20.5t74.5 9.5q62 0 100.5 -27t38.5 -72q0 -38 -28.5 -73.5t-77 -67.5t-108.5 -59h81q67 0 132 9z" />
<glyph horiz-adv-x="361" d="M311 388q0 -46 -44 -74.5t-121 -28.5q-58 0 -101 13l8 48q37 -15 76 -15q41 0 64 17.5t23 44.5q0 30 -27.5 43t-62.5 13q-11 0 -22 -1.5t-17 -2.5v30q55 13 86.5 35.5t31.5 46.5q0 20 -18 32.5t-47 12.5q-42 0 -85 -22l-3 51q20 10 52 18t68 8q58 0 92.5 -23t34.5 -58 q0 -69 -125 -97q63 -4 100 -27t37 -64z" />
<glyph horiz-adv-x="419" d="M294 292h-85v65h-173l-5 35l202 265l61 -5v-226q31 2 58 5l-6 -74h-52v-65zM206 423h3v160l-120 -160h117z" />
<glyph horiz-adv-x="393" d="M331 401q0 -55 -48 -85.5t-124 -30.5q-26 0 -53.5 3.5t-47.5 9.5l7 45q17 -5 41.5 -8.5t42.5 -3.5q38 0 62.5 17.5t24.5 50.5q0 32 -23.5 47.5t-56.5 15.5q-16 0 -36.5 -3.5t-33.5 -7.5l-8 4v195h131q25 0 53.5 1t55.5 4l-6 -72h-190v-95q17 5 37 8.5t41 3.5 q60 0 95.5 -27t35.5 -72z" />
<glyph horiz-adv-x="398" d="M206 285q-67 0 -110 40.5t-43 121.5q0 64 27.5 111t76.5 73t113 26q17 0 31.5 -2t20.5 -4l-8 -47q-20 7 -46 7q-45 0 -82.5 -33t-44.5 -109q15 18 42.5 29t55.5 11q46 0 80 -27.5t34 -76.5q0 -56 -43 -88t-104 -32zM204 331q29 0 47 19.5t18 51.5q0 29 -16 49.5t-48 20.5 q-43 0 -65 -33q1 -52 15 -80t49 -28z" />
<glyph horiz-adv-x="364" d="M180 292h-94q3 52 27.5 106.5t64 103t89.5 81.5h-89q-37 0 -70 -2t-62 -5l6 74h264l6 -5l2 -40q-62 -66 -101 -146.5t-43 -166.5z" />
<glyph horiz-adv-x="413" d="M201 285q-67 0 -107.5 25.5t-40.5 63.5q0 30 28.5 54t73.5 33q-36 15 -62 40t-26 59q0 44 40.5 70.5t102.5 26.5q59 0 98 -25t39 -64q0 -28 -24 -50.5t-66 -31.5q48 -17 75.5 -43.5t27.5 -57.5q0 -39 -41.5 -69.5t-117.5 -30.5zM207 611q-22 0 -40 -11.5t-18 -31.5 q0 -22 20 -39t46 -28q22 11 35.5 27.5t13.5 34.5q0 22 -16.5 35t-40.5 13zM204 331q30 0 51.5 14.5t21.5 36.5q0 21 -22.5 35.5t-60.5 25.5q-25 -11 -41 -27t-16 -35q0 -21 18.5 -35.5t48.5 -14.5z" />
<glyph horiz-adv-x="403" d="M50 535q0 58 43 90t104 32q67 0 110.5 -40.5t43.5 -120.5q0 -65 -28 -112t-77 -73t-112 -26q-18 0 -32.5 2t-20.5 4l8 47q20 -7 47 -7q45 0 83 31t43 100q-14 -18 -42 -29t-55 -11q-47 0 -81 30.5t-34 82.5zM134 538q0 -32 16.5 -55.5t48.5 -23.5q20 0 37 8.5t27 23.5 q0 57 -14.5 89t-50.5 32q-28 0 -46 -20t-18 -54z" />
<glyph horiz-adv-x="568" d="M515 256q0 -91 -33 -150t-87.5 -87.5t-118.5 -28.5q-65 0 -115.5 28.5t-79 84.5t-28.5 139q0 88 32 148t86 90t121 30q101 0 162 -66.5t61 -187.5zM176 253q0 -86 26 -141t82 -55q51 0 79.5 49t28.5 138t-26 144t-81 55q-50 0 -79.5 -47.5t-29.5 -142.5z" />
<glyph horiz-adv-x="395" d="M280 0h-120v424l-109 -49l-16 59l237 76l8 -6v-504z" />
<glyph horiz-adv-x="525" d="M443 0h-390l-10 61q45 33 91.5 68.5t85 72.5t62 73.5t23.5 71.5q0 36 -25.5 60t-68.5 24q-41 0 -81 -20t-73 -52l-13 86q34 24 91 44.5t123 20.5q78 0 129.5 -35.5t51.5 -100.5q0 -58 -41.5 -109.5t-110.5 -96.5t-152 -84h105q109 0 213 14z" />
<glyph horiz-adv-x="515" d="M465 25q0 -82 -69 -133.5t-192 -51.5q-43 0 -84.5 6.5t-74.5 17.5l11 70q28 -12 61 -19t64 -7q73 0 111.5 35.5t38.5 87.5q0 40 -22 64.5t-57 35.5t-74 11q-34 0 -63 -6v45q91 24 143.5 68t52.5 94q0 40 -29.5 64t-80.5 24q-38 0 -72.5 -12t-66.5 -30l-6 74q30 17 80 32 t110 15q90 0 144.5 -39t53.5 -103q0 -59 -51 -106t-151 -74q102 -5 162.5 -46.5t60.5 -116.5z" />
<glyph horiz-adv-x="606" d="M444 -185h-120v180h-285l-8 51l328 464l85 -10v-412q48 4 95 10l-10 -103h-85v-180zM324 400l-220 -317l202 1h18v316z" />
<glyph horiz-adv-x="549" d="M486 47q0 -64 -33.5 -110.5t-94 -71.5t-141.5 -25q-42 0 -85 6.5t-74 17.5l10 67q29 -11 68 -17.5t68 -6.5q66 0 107.5 36.5t41.5 100.5q0 65 -40.5 96t-97.5 31q-26 0 -58.5 -6.5t-54.5 -14.5l-12 9v341h205q43 0 87 2.5t84 7.5l-9 -103h-301v-199q25 8 57 14t65 6 q95 0 151.5 -49t56.5 -132z" />
<glyph horiz-adv-x="567" d="M293 -10q-71 0 -125 33t-84.5 98t-30.5 161q0 116 43.5 201t120 131t174.5 46q28 0 51 -3.5t34 -8.5l-12 -68q-15 6 -35.5 9.5t-40.5 3.5q-52 0 -98 -29.5t-77 -93t-36 -165.5q28 41 72.5 62t91.5 21q49 0 90.5 -22.5t66 -64.5t24.5 -100q0 -64 -30.5 -111.5t-82.5 -73.5 t-116 -26zM290 57q51 0 82.5 38t31.5 101q0 59 -28.5 97.5t-80.5 38.5q-32 0 -64 -15.5t-54 -49.5q2 -103 28 -156.5t85 -53.5z" />
<glyph horiz-adv-x="524" d="M246 -150h-133q4 75 28.5 153.5t64 153t90 139t108.5 111.5h-145q-109 0 -213 -15l10 108h416l9 -7l3 -56q-65 -77 -117 -172.5t-84 -201t-37 -213.5z" />
<glyph horiz-adv-x="584" d="M53 147q0 39 22 71.5t60 56.5t85 36q-60 28 -102.5 74t-42.5 108q0 50 29 87.5t79.5 58.5t113.5 21q61 0 109 -20t76 -55t28 -81q0 -54 -40.5 -96t-108.5 -62q77 -29 124 -75.5t47 -105.5q0 -47 -29.5 -87t-84.5 -64t-132 -24q-70 0 -122.5 20.5t-81.5 56.5t-29 80z M191 504q0 -43 33 -77.5t78 -55.5q40 22 66 55t26 72q0 43 -29 69t-71 26q-41 0 -72 -24.5t-31 -64.5zM171 156q0 -41 33 -70t85 -29q53 0 88.5 30t35.5 74q1 43 -37.5 71.5t-99.5 52.5q-43 -21 -74 -54.5t-31 -74.5z" />
<glyph horiz-adv-x="567" d="M515 218q0 -116 -44 -201t-120.5 -131t-174.5 -46q-28 0 -51 4t-33 8l12 68q14 -6 34.5 -9.5t40.5 -3.5q52 0 98 27t77 86.5t36 154.5q-28 -41 -72.5 -62t-89.5 -21q-50 0 -91.5 24t-66.5 68.5t-25 105.5q0 66 29.5 115.5t81 77t118.5 27.5q70 0 124.5 -33t85.5 -98 t31 -161zM164 295q0 -63 28.5 -104.5t80.5 -41.5q31 0 63 15t54 49q-2 114 -28 172t-84 58q-52 0 -83 -40.5t-31 -107.5z" />
<glyph horiz-adv-x="289" d="M188 164h-81q-3 77 -6 161.5t-7.5 167.5t-11.5 157l126 10q1 -23 2 -54t1 -66q0 -58 -3 -123.5t-8 -130t-12 -122.5zM211 36q0 -31 -20.5 -49t-50.5 -18q-27 0 -44 15t-17 41q0 29 20 48.5t52 19.5q26 0 43 -15t17 -42z" />
<glyph horiz-adv-x="289" d="M78 607q0 30 20.5 48t50.5 18q27 0 44 -15t17 -41q0 -28 -20 -47.5t-52 -19.5q-27 0 -43.5 14.5t-16.5 42.5zM101 487h82q3 -81 5.5 -168.5t7 -173t11.5 -162.5l-126 -10q-2 27 -2.5 62.5t-0.5 70.5q0 92 6.5 193t16.5 188z" />
<glyph horiz-adv-x="515" d="M272 160h-85q-5 13 -7.5 33.5t-2.5 33.5q-1 35 15 64t39 54.5t46 49t39 48t16 52.5q0 37 -29.5 56.5t-65.5 19.5t-77 -17.5t-72 -47.5l-48 67q40 36 95.5 61.5t121.5 25.5q56 0 101 -20.5t71 -58t26 -87.5q0 -45 -18.5 -77.5t-46 -58t-55.5 -48.5t-46.5 -48.5 t-18.5 -57.5q0 -8 0.5 -21.5t1.5 -22.5zM299 36q0 -31 -21 -49t-50 -18q-27 0 -44 15t-17 41q0 29 19.5 48.5t51.5 19.5q27 0 44 -15t17 -42z" />
<glyph horiz-adv-x="515" d="M215 615q0 30 20.5 48t50.5 18q27 0 44 -15t17 -41q0 -28 -20 -47.5t-51 -19.5q-27 0 -44 14.5t-17 42.5zM242 490h85q5 -13 7.5 -33t2.5 -34q0 -35 -15.5 -64t-38.5 -54.5t-46.5 -49t-39 -48t-15.5 -51.5q0 -38 29 -57.5t66 -19.5q36 0 77 17.5t72 48.5l48 -67 q-41 -37 -96.5 -62.5t-120.5 -25.5q-57 0 -102 20.5t-70.5 58t-25.5 87.5q0 45 18.5 77.5t46 58t55 48.5t46.5 48.5t19 57.5q0 8 -1 21.5t-1 22.5z" />
<glyph horiz-adv-x="310" d="M153 193q-26 0 -42.5 16t-16.5 41q0 26 19 45t46 19q24 0 39.5 -15.5t15.5 -39.5q0 -27 -17 -46.5t-44 -19.5z" />
<glyph horiz-adv-x="436" d="M346 273q0 -60 -40 -98t-99 -38q-50 0 -83.5 29t-33.5 83q0 39 18.5 69.5t50.5 48.5t72 18q49 0 82 -29t33 -83z" />
<glyph horiz-adv-x="417" d="M182 395l15 112l-90 -69l-27 47l106 43l-106 43l27 46l90 -69l-15 112h54l-16 -113l90 70l27 -46l-105 -44l105 -42l-27 -47l-90 70l16 -113h-54z" />
<glyph horiz-adv-x="396" d="M145 -10l-55 14l-2 5l163 651l55 -13l3 -5z" />
<glyph horiz-adv-x="396" d="M251 -10l-163 652l2 5l55 13l164 -651l-3 -5z" />
<glyph horiz-adv-x="695" d="M594 179h-139l-46 -189l-57 9l-6 6l43 174h-146l-46 -189l-57 9l-6 6l43 174h-126l-6 5l8 52h138l44 179h-135l-6 5l7 52h148l47 188l56 -8l6 -6l-43 -174h146l47 188l56 -8l6 -6l-43 -174h117l6 -5l-8 -52h-129l-44 -179h126l6 -5zM257 236h146l44 179h-146z" />
<glyph horiz-adv-x="642" d="M544 124h-123l-33 -134l-56 9l-6 6l29 119h-131l-33 -134l-56 9l-6 6l29 119h-107l-6 6l8 52h119l34 138h-109l-6 6l7 52h122l33 132l57 -8l6 -6l-30 -118h131l33 132l57 -8l6 -6l-30 -118h108l6 -6l-8 -52h-120l-34 -138h110l6 -6zM238 182h131l34 138h-131z" />
<glyph horiz-adv-x="358" d="M300 -49q-78 41 -132.5 100t-82 128.5t-27.5 143.5q0 73 27.5 143t82 129t132.5 100l33 -44q-80 -71 -113 -157t-33 -171t33 -171.5t113 -156.5z" />
<glyph horiz-adv-x="358" d="M300 323q0 -74 -28 -143.5t-82 -128.5t-132 -100l-33 44q80 70 113 156.5t33 171.5t-33 171t-113 157l33 44q78 -41 132 -100t82 -129t28 -143z" />
<glyph horiz-adv-x="377" d="M154 215q0 30 -21.5 49t-72.5 24v65q50 5 72 23t22 52q0 25 -8.5 47.5t-17 46.5t-8.5 54q0 61 52 90t167 29l2 -62q-102 -1 -102 -69q0 -23 7.5 -46t15.5 -46t8 -47q0 -44 -33.5 -70t-84.5 -35q50 -9 84 -35.5t34 -68.5q0 -22 -8 -45.5t-15.5 -47t-7.5 -46.5 q0 -69 102 -70l-2 -62q-116 0 -167.5 29t-51.5 90q0 30 8.5 55t17 48.5t8.5 47.5z" />
<glyph horiz-adv-x="377" d="M317 288l-94 -73q0 -24 8.5 -47.5t17 -48.5t8.5 -55q0 -61 -52 -90t-167 -29l-2 62q102 1 102 70q0 23 -7.5 46.5t-15.5 47t-8 45.5q0 42 34 68.5t84 35.5q-51 9 -84.5 35t-33.5 70q0 24 8 47t15.5 46t7.5 46q0 68 -102 69l2 62q114 0 166.5 -29t52.5 -90q0 -30 -8.5 -54 t-17 -46.5t-8.5 -47.5q0 -34 21.5 -52t72.5 -23v-65z" />
<glyph horiz-adv-x="371" d="M84 695h238v-69h-123v-602h123v-70h-238v741z" />
<glyph horiz-adv-x="371" d="M287 695v-741h-238v70h124v602h-124v69h238z" />
<glyph horiz-adv-x="355" d="M30 312v43h295v-43h-295z" />
<glyph horiz-adv-x="505" d="M30 312v43h445v-43h-445z" />
<glyph horiz-adv-x="778" d="M30 312v43h718v-43h-718z" />
<glyph horiz-adv-x="215" d="M145 44q0 -35 -17.5 -74t-45 -73t-59.5 -56l-18 20q24 28 42 62t25 68q-22 4 -35 18t-13 37q0 30 17.5 47.5t43.5 17.5q27 0 43.5 -19t16.5 -48z" />
<glyph horiz-adv-x="412" d="M185 44q0 -35 -17.5 -74t-45 -73t-59.5 -56l-18 20q24 28 42 62t25 68q-22 4 -35 18t-13 37q0 30 17.5 47.5t43.5 17.5q27 0 43.5 -19t16.5 -48zM342 44q0 -35 -17.5 -74t-45 -73t-59.5 -56l-18 20q24 28 42 62t25 68q-22 4 -35 18t-13 37q0 30 17.5 47.5t43.5 17.5 q27 0 43.5 -19t16.5 -48z" />
<glyph horiz-adv-x="378" d="M70 457q0 36 17 74.5t45 72.5t60 56l17 -20q-23 -28 -41.5 -62t-24.5 -68q21 -4 34.5 -18t13.5 -37q0 -30 -18 -47.5t-43 -17.5q-28 0 -44 19t-16 48zM234 457q0 36 17 74.5t44.5 72.5t59.5 56l18 -20q-24 -28 -42 -62t-25 -68q22 -4 35 -18t13 -37q0 -30 -17.5 -47.5 t-43.5 -17.5q-27 0 -43 19t-16 48z" />
<glyph horiz-adv-x="378" d="M308 593q0 -35 -17 -74t-44.5 -73t-59.5 -56l-18 20q23 28 41.5 62t24.5 68q-21 4 -34 18t-13 37q0 30 17.5 47.5t43.5 17.5q27 0 43 -19t16 -48zM145 593q0 -35 -17.5 -74t-45 -73t-59.5 -56l-18 20q24 28 42 62t25 68q-22 4 -35 18t-13 37q0 30 17.5 47.5t43.5 17.5 q27 0 43.5 -19t16.5 -48z" />
<glyph horiz-adv-x="215" d="M70 457q0 36 17 74.5t45 72.5t60 56l17 -20q-23 -28 -41.5 -62t-24.5 -68q21 -4 34.5 -18t13.5 -37q0 -30 -18 -47.5t-43 -17.5q-28 0 -44 19t-16 48z" />
<glyph horiz-adv-x="215" d="M145 593q0 -35 -17.5 -74t-45 -73t-59.5 -56l-18 20q24 28 42 62t25 68q-22 4 -35 18t-13 37q0 30 17.5 47.5t43.5 17.5q27 0 43.5 -19t16.5 -48z" />
<glyph horiz-adv-x="525" d="M257 345v31q53 46 100 94t95 107l25 -15q-25 -55 -57 -105.5t-64 -96.5q32 -46 64 -96.5t57 -105.5l-25 -14q-48 58 -95 106t-100 95zM49 345v31q53 46 100 94t95 107l25 -15q-25 -55 -57 -105.5t-64 -96.5q32 -46 64 -96.5t57 -105.5l-25 -14q-48 58 -95 106t-100 95z " />
<glyph horiz-adv-x="525" d="M269 345q-54 -47 -101 -95t-95 -106l-24 14q24 55 56 105.5t64 96.5q-32 46 -64 96.5t-56 105.5l24 15q48 -59 95 -107t101 -94v-31zM477 345q-54 -47 -101 -95t-95 -106l-24 14q24 55 56 105.5t64 96.5q-32 46 -64 96.5t-56 105.5l24 15q48 -59 95 -107t101 -94v-31z " />
<glyph horiz-adv-x="317" d="M49 342v31q53 46 100 94t95 107l25 -15q-25 -55 -57 -105.5t-64 -96.5q32 -46 64 -96.5t57 -105.5l-25 -14q-48 58 -95 106t-100 95z" />
<glyph horiz-adv-x="317" d="M269 342q-54 -47 -101 -95t-95 -106l-24 14q24 55 56 105.5t64 96.5q-32 46 -64 96.5t-56 105.5l24 15q48 -59 95 -107t101 -94v-31z" />
<glyph horiz-adv-x="377" d="M147 660l-27 -275h-40l-27 275h94zM325 660l-28 -275h-39l-28 275h95z" />
<glyph horiz-adv-x="210" d="M152 660l-27 -275h-40l-27 275h94z" />
<glyph horiz-adv-x="464" d="M286 -119l-40 -3v114q-88 11 -144.5 75t-56.5 177q0 83 30 140t80 88t111 37v111l40 3v-113q34 -1 62.5 -9t52.5 -20l-11 -99q-21 17 -49 30t-62 13q-52 0 -91 -42t-39 -134q0 -80 34 -126t103 -46q31 0 59.5 8t52.5 20l-2 -85q-21 -12 -56 -21t-74 -9v-109z" />
<glyph horiz-adv-x="502" d="M425 67l-71 72q-21 -19 -49.5 -29.5t-62.5 -10.5q-31 0 -56.5 8t-45.5 23l-64 -64l-30 31l63 63q-36 46 -36 109q0 64 41 115l-67 68l29 29q31 -31 68 -69q21 16 47 25t56 8q32 1 59 -9t48 -27l71 72l30 -31l-72 -72q33 -45 33 -102q0 -59 -34 -106q21 -21 40.5 -39 t33.5 -32zM133 271q0 -46 28.5 -82t83.5 -36q38 0 62.5 17.5t36.5 45t12 57.5q0 44 -28.5 79.5t-81.5 35.5q-55 0 -84 -35.5t-29 -81.5z" />
<glyph horiz-adv-x="486" d="M215 -122v112q-42 2 -89 11.5t-78 24.5l16 106q30 -20 73 -36t84 -16q47 0 71 23.5t24 55.5q0 30 -18.5 52.5t-48 42t-62.5 40t-62 45.5t-47.5 59t-18.5 81q0 73 47 120.5t124 57.5v113l50 3v-113q37 -1 79 -9.5t71 -22.5l-21 -100q-24 15 -60.5 29t-72.5 14 q-46 0 -70.5 -24t-24.5 -58q0 -31 18.5 -54.5t48 -43.5t62.5 -41t62 -46t48 -58.5t18 -79.5q1 -72 -46 -118.5t-127 -55.5v-111z" />
<glyph horiz-adv-x="564" d="M33 254l4 42h55v24q0 18 1 36h-48l4 42h49q12 79 48 138t93 91.5t132 32.5q42 0 84 -9.5t73 -25.5l-18 -94q-24 17 -58.5 28.5t-69.5 11.5q-70 0 -109.5 -47t-50.5 -126h217l-3 -42h-218q-1 -14 0 -29q0 -16 1 -31h208l-3 -42h-201q13 -78 54 -124t117 -46q32 0 65 7.5 t54 20.5l14 -86q-34 -18 -75.5 -27t-82.5 -9q-118 0 -188 71.5t-85 192.5h-63z" />
<glyph horiz-adv-x="561" d="M476 277l-165 3l-23 -215q-3 -27 -11.5 -64t-29 -73t-60.5 -60t-106 -24q-26 0 -54.5 5t-56.5 15l28 70q15 -8 37.5 -15.5t45.5 -7.5q35 0 55 20t29.5 51.5t11.5 65.5l14 235l-90 2l6 34l87 12q2 29 5 71t9 72q9 53 33.5 95t70.5 66.5t118 24.5q39 0 70.5 -7.5 t52.5 -19.5l-31 -85q-16 16 -42 30.5t-56 14.5q-41 0 -63.5 -31t-31.5 -92q-7 -55 -10 -88.5t-4 -50.5h171z" />
<glyph horiz-adv-x="570" d="M473 286l-156 3l-1 -17q-8 -69 -34.5 -134.5t-74.5 -104.5q50 -28 111 -54t135 -26q21 0 45 3t42 10l-34 -93q-9 -4 -25 -6t-33 -3q-57 0 -110 22t-100 53.5t-88 61.5q-30 -11 -64 -11q-40 0 -54 12.5t-14 32.5q0 23 16.5 35.5t41.5 12.5q18 0 37.5 -6.5t40.5 -16.5 q16 24 26.5 62t13.5 91l3 78l-101 3l5 35l98 12v0q5 101 27.5 176.5t72.5 118t136 42.5q39 0 69 -7.5t50 -16.5l-29 -85q-19 16 -44.5 28.5t-51.5 12.5q-42 0 -63 -30.5t-30 -90t-15 -148.5h162z" />
<glyph horiz-adv-x="567" d="M81 105v42h142v60h-142v42h123l-184 401l118 10l147 -351h2l148 351l112 -10l-184 -401h121v-42h-140v-60h140v-42h-140v-105h-121v105h-142z" />
<glyph horiz-adv-x="464" d="M286 -119l-40 -3v114q-88 11 -144.5 75t-56.5 177q0 83 30 140t80 88t111 37v111l40 3v-113q34 -1 62.5 -9t52.5 -20l-11 -99q-21 17 -49 30t-62 13q-52 0 -91 -42t-39 -134q0 -80 34 -126t103 -46q31 0 59.5 8t52.5 20l-2 -85q-21 -12 -56 -21t-74 -9v-109z" />
<glyph horiz-adv-x="502" d="M425 42l-71 72q-21 -19 -49.5 -29.5t-62.5 -10.5q-31 0 -56.5 8t-45.5 23l-64 -64l-30 31l63 63q-36 46 -36 109q0 64 41 115l-67 68l29 29q31 -31 68 -69q21 16 47 25t56 8q32 1 59 -9t48 -27l71 72l30 -31l-72 -72q33 -45 33 -102q0 -59 -34 -106q21 -21 40.5 -39 t33.5 -32zM133 246q0 -46 28.5 -82t83.5 -36q38 0 62.5 17.5t36.5 45t12 57.5q0 44 -28.5 79.5t-81.5 35.5q-55 0 -84 -35.5t-29 -81.5z" />
<glyph horiz-adv-x="452" d="M189 -122v113q-40 1 -79 9.5t-67 20.5l8 98q30 -19 73.5 -32t83.5 -13q42 0 62.5 16.5t20.5 42.5q0 23 -16.5 38.5t-43 28t-57.5 27.5q-31 14 -58 32t-43.5 43.5t-16.5 62.5q0 56 41.5 93.5t111.5 48.5v113l40 3v-113h9q37 0 73 -7.5t66 -19.5l-8 -97q-30 17 -66 29 t-69 12q-37 0 -58 -17.5t-21 -43.5q0 -22 14.5 -37.5t37.5 -27t47 -22.5q32 -15 63.5 -34t51.5 -46t20 -67q0 -60 -47 -98.5t-133 -43.5v-109z" />
<glyph horiz-adv-x="509" d="M383 187h-163q11 -52 44 -81t87 -29q31 0 59.5 8t52.5 20l-2 -85q-21 -12 -56.5 -21t-76.5 -9q-90 0 -154 50t-80 147h-69l4 36h62q-1 10 -1 21q0 18 2 35h-57l4 36h58q13 66 49 109t86.5 64.5t107.5 21.5q38 0 69 -8t57 -21l-11 -99q-21 17 -49 30t-62 13 q-42 0 -76 -26.5t-48 -83.5h176l-4 -36h-177q-1 -15 -1 -30v-26h173z" />
<glyph horiz-adv-x="558" d="M483 205l-162 3l-17 -126q-5 -33 -16 -69t-33.5 -66.5t-60.5 -50t-95 -19.5q-26 0 -54.5 5t-55.5 15l28 70q15 -8 37.5 -15.5t45.5 -7.5q45 0 68 34.5t26 82.5l9 150l-100 2l6 34l97 12q1 16 4 41.5t6 40.5q8 48 33 86.5t71 60.5t117 22q41 0 72.5 -7.5t52.5 -19.5 l-31 -85q-16 16 -42 30.5t-58 14.5q-43 0 -64.5 -29t-29.5 -82q-3 -15 -6 -33.5t-4 -39.5h166z" />
<glyph horiz-adv-x="514" d="M442 207l-162 3q-10 -55 -32.5 -102.5t-60.5 -77.5q50 -27 110 -52t132 -25q21 0 45 3t42 10l-34 -93q-9 -4 -25 -6t-33 -2q-57 0 -109 21t-99 52.5t-87 60.5q-30 -9 -63 -9q-42 0 -57 12.5t-15 32.5q0 23 16.5 35.5t41.5 11.5q18 0 37.5 -6t41.5 -16q13 21 22.5 53.5 t14.5 81.5l1 17l-105 3l5 35l104 12v0q3 44 16.5 88t39.5 80.5t68.5 58t104.5 21.5q41 0 71 -7.5t50 -16.5l-30 -85q-18 16 -44 29t-53 13q-39 0 -61 -26.5t-32.5 -68t-15.5 -86.5h165z" />
<glyph horiz-adv-x="522" d="M64 81v42h140v60h-140v42h127l-171 275l111 10l135 -238h1l130 238l105 -10l-165 -275h127v-42h-139v-60h139v-42h-139v-81h-121v81h-140z" />
<glyph d="M505 284h-157v-163h-88l-1 163h-161v78q28 0 70.5 1t90.5 1v166h89v-165q45 1 86.5 1h71.5z" />
<glyph d="M505 284h-407v78q34 1 87.5 1.5t113 1t114.5 1t93 0.5z" />
<glyph d="M443 127l-138 140l-136 -136l-59 58l137 137l-140 142l56 56q26 -24 63.5 -61t78.5 -78l135 136l60 -60l-136 -135l77.5 -77.5l61.5 -61.5v-9z" />
<glyph d="M365 513q0 -29 -18 -49.5t-47 -20.5q-25 0 -40 17t-15 41q0 28 19 48.5t48 20.5q23 0 38 -16t15 -41zM505 284h-407v78q34 1 87.5 1.5t113 1t114.5 1t93 0.5zM365 151q0 -29 -18 -49t-47 -20q-25 0 -40 16.5t-15 40.5q0 28 19 48.5t48 20.5q23 0 38 -16t15 -41z" />
<glyph d="M505 388h-407v78q34 1 87.5 1.5t113 1t114.5 1t93 0.5zM505 180h-407v78q34 1 87.5 1.5t113 1t114.5 1t93 0.5z" />
<glyph d="M201 70l-43 26l45 84h-105v78q26 0 65 1t84 1l69 128h-218v78q29 0 72 1t92 1.5t98 0.5l59 110l8 3l43 -26l-46 -86h82l-1 -82h-126l-68 -127q55 0 107 0.5t88 0.5l-1 -82h-238l-58 -107z" />
<glyph d="M96 109v95l297 123l-296 119v95q34 -14 86.5 -36.5t112 -49t114 -51.5t92.5 -43v-70z" />
<glyph d="M508 109l-406 182l1 70q37 18 91.5 43t114 51.5t112 49t86.5 36.5v-95l-296 -119l297 -123v-95z" />
<glyph d="M105 225v87l296 87l-295 87v90q43 -13 98 -31t112.5 -37.5t109 -38t86.5 -31.5v-75zM505 76h-407v77q34 1 87.5 2t113 1.5t114.5 1t93 0.5z" />
<glyph d="M505 576v-87l-296 -88l295 -86v-90q-43 12 -98 30t-113 38t-109 38.5t-86 31.5v75zM505 76h-407v77q35 1 88 2t112.5 1.5t114.5 1t93 0.5z" />
<glyph d="M505 340h-155v-138h-87l-1 138h-164v78q29 0 72 1t92 1l-1 141h89v-140q45 1 85.5 1h70.5zM505 43h-407v78q35 1 88 1.5t112.5 1t114.5 1t93 0.5z" />
<glyph d="M183 421q-9 0 -25 -17t-35 -41l-43 21q12 25 28.5 53t36 48t41.5 20q19 0 53 -8t72 -18.5t70 -18t47 -7.5q8 0 24 16.5t36 40.5l43 -21q-13 -25 -29 -53t-35.5 -48t-42.5 -20q-18 0 -52.5 8t-73 18.5t-70.5 18.5t-45 8zM183 197q-9 0 -25 -17t-35 -41l-43 21 q12 25 28.5 53t36 48t41.5 20q19 0 53 -8t72 -18.5t70 -18t47 -7.5q8 0 24 16.5t36 40.5l43 -21q-13 -25 -29 -53t-35.5 -48t-42.5 -20q-18 0 -52.5 8t-73 18.5t-70.5 18.5t-45 8z" />
<glyph d="M512 383v-236h-87v152h-327v79q34 1 88 2t114.5 1.5t116.5 1t95 0.5z" />
<glyph horiz-adv-x="841" d="M759 297q0 -53 -21.5 -94t-60 -65t-88.5 -24q-62 0 -103.5 34.5t-72.5 78.5q-32 -51 -78 -82t-105 -31q-49 0 -86 23.5t-57.5 64t-20.5 93.5q0 52 21.5 93t60 65t89.5 24q42 0 74.5 -16.5t57.5 -43t45 -56.5q33 53 79 84.5t104 31.5q75 0 118.5 -51t43.5 -129zM580 405 q-40 0 -72.5 -30t-56.5 -69q32 -50 63.5 -84t71.5 -34q36 0 62 28t26 80q0 50 -26.5 79.5t-67.5 29.5zM151 297q0 -51 27 -80.5t71 -30.5q37 0 70.5 29.5t56.5 67.5q-32 51 -64 85.5t-72 34.5q-37 0 -63 -28t-26 -78z" />
<glyph horiz-adv-x="942" d="M307 -10h-73l400 670h73zM382 474q0 -65 -23.5 -106.5t-62 -61.5t-83.5 -20q-69 0 -114.5 45t-45.5 135q0 62 22.5 104.5t61 64t86.5 21.5q72 0 115.5 -48t43.5 -134zM140 473q0 -63 18.5 -102t58.5 -39q39 0 58.5 36.5t19.5 95.5q0 68 -18.5 107t-58.5 39 q-37 0 -57.5 -34.5t-20.5 -102.5zM889 182q0 -65 -23.5 -106.5t-62 -61.5t-83.5 -20q-69 0 -114.5 45t-45.5 135q0 62 22.5 104.5t61 64t86.5 21.5q72 0 115.5 -48t43.5 -134zM647 181q0 -63 18.5 -102t58.5 -39q39 0 58.5 36.5t19.5 95.5q0 68 -18.5 107t-58.5 39 q-37 0 -57.5 -34.5t-20.5 -102.5z" />
<glyph horiz-adv-x="1340" d="M307 -10h-73l400 670h73zM382 474q0 -65 -23.5 -106.5t-62 -61.5t-83.5 -20q-69 0 -114.5 45t-45.5 135q0 62 22.5 104.5t61 64t86.5 21.5q72 0 115.5 -48t43.5 -134zM140 473q0 -63 18.5 -102t58.5 -39q39 0 58.5 36.5t19.5 95.5q0 68 -18.5 107t-58.5 39 q-37 0 -57.5 -34.5t-20.5 -102.5zM889 182q0 -65 -23.5 -106.5t-62 -61.5t-83.5 -20q-69 0 -114.5 45t-45.5 135q0 62 22.5 104.5t61 64t86.5 21.5q72 0 115.5 -48t43.5 -134zM1288 182q0 -65 -24 -106.5t-62.5 -61.5t-83.5 -20q-69 0 -114.5 45t-45.5 135q0 62 22.5 104.5 t61.5 64t86 21.5q72 0 116 -48t44 -134zM647 181q0 -63 18.5 -102t58.5 -39q39 0 58.5 36.5t19.5 95.5q0 68 -18.5 107t-58.5 39q-37 0 -57.5 -34.5t-20.5 -102.5zM1045 181q0 -63 18.5 -102t59.5 -39q38 0 57.5 36.5t19.5 95.5q0 68 -18.5 107t-58.5 39q-37 0 -57.5 -34.5 t-20.5 -102.5z" />
<glyph d="M505 209h-157v-163h-87l-1 163h-162v78q29 0 71.5 1t90.5 1l-1 166h89v-165q46 1 87 1h71z" />
<glyph d="M505 209h-407v78q34 1 87.5 1.5t113 1t114.5 1t93 0.5z" />
<glyph d="M443 52l-138 140l-136 -136l-59 58l137 137l-140 142l56 56q26 -24 63.5 -61t78.5 -78l135 136l60 -60l-136 -135l77.5 -77.5l61.5 -61.5v-9z" />
<glyph d="M360 438q0 -29 -18 -49.5t-47 -20.5q-25 0 -40 17t-15 41q0 28 19 48.5t48 20.5q23 0 38 -16t15 -41zM500 209h-407v78q34 1 87.5 1.5t113 1t114.5 1t93 0.5zM360 76q0 -29 -18 -49t-47 -20q-25 0 -40 16.5t-15 40.5q0 28 19 48.5t48 20.5q23 0 38 -16t15 -41z" />
<glyph d="M505 313h-407v78q34 1 87.5 1.5t113 1t114.5 1t93 0.5zM505 105h-407v78q34 1 87.5 1.5t113 1t114.5 1t93 0.5z" />
<glyph d="M201 -5l-43 26l45 84h-105v77q26 1 65 2t84 1l69 128h-218v78q29 0 72 1t92 1.5t98 0.5l59 110l8 3l43 -26l-46 -86h82l-1 -82h-126l-68 -127q55 0 107 0.5t88 0.5l-1 -82h-238l-58 -107z" />
<glyph d="M102 33v95l297 123l-296 119v95q34 -14 86.5 -36.5t112 -49t114 -51.5t92.5 -43v-70z" />
<glyph d="M508 33l-406 182l1 70q37 18 91.5 43t114 51.5t112 49t86.5 36.5v-95l-296 -119l297 -123v-95z" />
<glyph d="M104 159v80l299 83l-298 84v80q42 -13 97 -30t112.5 -35t109 -34.5t86.5 -28.5v-70zM505 20h-407v73q35 1 89 1.5t114.5 1t115 1t90.5 0.5z" />
<glyph d="M506 486v-80l-298 -84l299 -83v-80l-406 129v70q34 12 85.5 28.5t109 34.5t113 35t97.5 30zM508 20h-407v73q34 1 88.5 1.5t115 1t115 1t90.5 0.5z" />
<glyph horiz-adv-x="607" d="M503 270h-158v-136h-87l-1 136h-161l-1 72q29 1 71.5 1.5t90.5 1.5l-1 138h89v-137q46 0 87.5 0.5t71.5 0.5zM502 -4h-407v72q35 1 89 2t114 1.5t115 1t91 0.5z" />
<glyph d="M182 346q-9 0 -25 -17t-35 -41l-43 21q13 25 29 53t35.5 48t42.5 20q18 0 52 -8t72 -18.5t70 -18t47 -7.5q9 0 25 16.5t36 40.5l42 -21q-12 -25 -28.5 -53t-36 -48t-41.5 -20q-19 0 -53.5 8t-73 18.5t-70.5 18.5t-45 8zM182 122q-9 0 -25 -17t-35 -41l-43 21q13 25 29 53 t35.5 48t42.5 20q18 0 52 -8t72 -18.5t70 -18t47 -7.5q9 0 25 16.5t36 40.5l42 -21q-12 -25 -28.5 -53t-36 -48t-41.5 -20q-19 0 -53.5 8t-73 18.5t-70.5 18.5t-45 8z" />
<glyph d="M512 382v-236h-87v152h-327v79q34 1 88 2t114.5 1.5t116.5 1t95 0.5z" />
<glyph horiz-adv-x="841" d="M767 281q0 -52 -21.5 -93.5t-60 -65.5t-88.5 -24q-62 0 -103.5 34.5t-72.5 78.5q-32 -51 -78 -82t-105 -31q-49 0 -86 23.5t-57.5 64t-20.5 93.5q0 52 21.5 93t60 65t89.5 24q42 0 74.5 -16.5t57.5 -43t45 -56.5q33 53 79 84.5t104 31.5q75 0 118.5 -51t43.5 -129z M588 389q-40 0 -72.5 -30t-56.5 -69q32 -50 63.5 -84t71.5 -34q36 0 62 28t26 80q0 50 -26.5 79.5t-67.5 29.5zM159 281q0 -51 27 -80.5t71 -30.5q37 0 70.5 29.5t56.5 67.5q-32 51 -64 85.5t-72 34.5q-37 0 -63 -28t-26 -78z" />
<glyph horiz-adv-x="873" d="M359 377q0 -66 -45.5 -102.5t-110.5 -36.5t-107.5 34.5t-42.5 98.5t45 101.5t112 37.5q68 0 108.5 -36t40.5 -97zM569 510h69l-335 -520h-69zM139 375q0 -43 19 -69t50 -26q32 0 48.5 27t16.5 67q0 43 -17.5 69t-49.5 26q-30 0 -48.5 -25.5t-18.5 -68.5zM820 129 q0 -66 -45.5 -102.5t-110.5 -36.5t-107.5 34.5t-42.5 98.5t45 101.5t112 37.5q68 0 108.5 -36t40.5 -97zM600 127q0 -43 19 -69t50 -26q32 0 48.5 27t16.5 67q0 43 -17.5 69t-49.5 26q-30 0 -48.5 -25.5t-18.5 -68.5z" />
<glyph horiz-adv-x="1233" d="M359 377q0 -66 -45.5 -102.5t-110.5 -36.5t-107.5 34.5t-42.5 98.5t45 101.5t112 37.5q68 0 108.5 -36t40.5 -97zM569 510h69l-335 -520h-69zM139 375q0 -43 19 -69t50 -26q32 0 48.5 27t16.5 67q0 43 -17.5 69t-49.5 26q-30 0 -48.5 -25.5t-18.5 -68.5zM1180 129 q0 -66 -45.5 -102.5t-110.5 -36.5t-107.5 34.5t-42.5 98.5t45 101.5t112 37.5q68 0 108.5 -36t40.5 -97zM820 129q0 -66 -45.5 -102.5t-110.5 -36.5t-107.5 34.5t-42.5 98.5t45 101.5t112 37.5q68 0 108.5 -36t40.5 -97zM960 127q0 -43 19 -69t50 -26q32 0 48.5 27t16.5 67 q0 43 -17.5 69t-49.5 26q-30 0 -48.5 -25.5t-18.5 -68.5zM600 127q0 -43 19 -69t50 -26q32 0 48.5 27t16.5 67q0 43 -17.5 69t-49.5 26q-30 0 -48.5 -25.5t-18.5 -68.5z" />
<glyph horiz-adv-x="777" d="M358 593q-30 0 -55.5 -21t-25.5 -63q0 -47 29 -90t62 -80l124 -147q7 -8 14.5 -16.5t16.5 -17.5q30 60 30 134q0 18 -2 39t-5 36l114 14q2 -82 -22 -150t-66 -118q21 -16 43.5 -25.5t45.5 -9.5q17 0 34.5 5.5t24.5 10.5l9 -78q-13 -9 -38.5 -17.5t-56.5 -8.5 q-43 0 -77 15.5t-63 40.5q-87 -56 -195 -56q-68 0 -118.5 21.5t-78 58.5t-27.5 84q0 42 22.5 77.5t59 61t78.5 40.5q-31 37 -57.5 82t-26.5 92q0 42 23 76.5t67 55.5t105 21q63 0 111 -24.5t74 -59.5l-52 -79q-24 47 -56 71.5t-65 24.5zM206 190q0 -64 42.5 -103.5 t107.5 -39.5q29 0 55 8.5t47 24.5q-11 12 -21.5 24t-20.5 24l-140 158q-5 6 -10 11.5t-10 11.5q-24 -23 -37 -55.5t-13 -63.5z" />
<glyph horiz-adv-x="378" d="M190 310q-56 0 -91.5 35t-35.5 91q0 57 36.5 95t94.5 38q57 0 92 -35.5t35 -89.5q0 -58 -36.5 -96t-94.5 -38zM193 520q-36 0 -56.5 -24.5t-20.5 -58.5t21.5 -56t54.5 -22q34 0 55 24t21 60q0 33 -20.5 55t-54.5 22z" />
<glyph horiz-adv-x="378" d="M190 160q-56 0 -91.5 35t-35.5 91q0 57 36.5 95t94.5 38q57 0 92 -35.5t35 -89.5q0 -58 -36.5 -96t-94.5 -38zM193 370q-36 0 -56.5 -24.5t-20.5 -58.5t21.5 -56t54.5 -22q34 0 55 24t21 60q0 33 -20.5 55t-54.5 22z" />
</font>
</defs>
</svg>
