<?xml version="1.0" standalone="no"?>
<!DOCTYPE svg PUBLIC "-//W3C//DTD SVG 1.1//EN" "http://www.w3.org/Graphics/SVG/1.1/DTD/svg11.dtd" >
<svg xmlns="http://www.w3.org/2000/svg" xmlns:xlink="http://www.w3.org/1999/xlink" version="1.1">
<metadata></metadata>
<defs>
<font id="indivisa_display_sansitalic" horiz-adv-x="495" >
<font-face units-per-em="1000" ascent="800" descent="-200" />
<missing-glyph horiz-adv-x="191" />
<glyph unicode="&#x2f;symbol&#x31;&#x2f;" horiz-adv-x="5534" d="M1865 412q-25 0 -40.5 14.5t-15.5 37.5q0 24 15.5 45t39 34.5t48.5 13.5q24 0 39 -13.5t15 -37.5t-14.5 -45.5t-37.5 -35t-49 -13.5zM1284 412q-26 0 -41.5 14.5t-15.5 37.5q0 24 15.5 45t39.5 34.5t49 13.5q24 0 38.5 -13.5t14.5 -37.5t-14.5 -45.5t-37 -35t-48.5 -13.5 zM959 0q0 21 2.5 46.5t8.5 61.5q-16 -49 -51 -82t-79 -33q-41 0 -63 30t-22 82q0 45 15.5 91t46.5 85.5t76.5 63.5t104.5 24h12.5t12.5 -1l16 73l6 102l136 7q0 -40 -9.5 -95t-23 -116.5t-27 -123.5t-23 -117.5t-9.5 -97.5h-130zM100 0l78 364q8 38 13.5 72.5t7.5 63.5 l128 7l11 -15l-104 -492h-134zM3503 492l-57 -492h-131l20 175q3 30 9 69t12.5 78t11.5 68h-3q-16 -53 -37 -107.5t-44 -107.5l-76 -175h-149l-2 175q-1 56 1 109t8 106h-2q-15 -61 -30 -115.5t-29 -99.5l-53 -175h-109l154 500l184 6l1 -137q1 -50 -2.5 -121.5 t-12.5 -137.5h2q20 65 36 111t30.5 81t27.5 67l56 131l169 7zM5316 300q-15 -74 -23 -110.5t-11 -51t-3 -21.5q0 -34 36 -34q13 0 28 5t31 13l-9 -79q-20 -11 -50 -20t-64 -9q-50 0 -77.5 25t-27.5 75q0 11 1.5 23.5t6 33.5t12.5 57.5t20 95.5l-47 1l9 44l54 14l53 95l81 6 l13 -15l-20 -86h99l6 -14l-17 -51zM336 0q0 28 4 62t13 82t24 116l6 102l137 7q0 -18 -2 -41t-5 -48h2q29 49 65.5 69t68.5 20q35 0 53.5 -19.5t18.5 -51.5q0 -23 -8 -62.5t-18 -84.5q-7 -33 -11 -57t-5.5 -45.5t-1.5 -48.5h-131q0 38 4.5 69.5t14.5 80.5q7 35 11 55.5 t4 31.5q0 24 -17 24t-34 -22.5t-30.5 -60.5t-22 -84t-9.5 -94h-131zM1170 0q0 39 7 87.5t20 105.5l14 67l6 102l137 7q0 -36 -8 -81.5t-19 -95.5t-19 -99t-8 -93h-130zM1399 362l140 7q6 -59 4.5 -137.5t-9.5 -151.5h2q23 45 42 95t32 99t17 90q17 4 28.5 4.5t21.5 0.5 q28 0 46.5 -7t18.5 -35q0 -22 -13.5 -60.5t-36.5 -85t-53.5 -94t-63.5 -87.5h-149q-2 111 -9.5 207.5t-17.5 154.5zM1752 0q0 39 7 87.5t19 105.5l15 67l6 102l137 7q0 -36 -8 -81.5t-19 -95.5t-19 -99t-8 -93h-130zM4716 0q0 28 4 62t13 82t24 116l6 102l137 7 q0 -18 -2.5 -41t-4.5 -48h2q29 49 65 69t69 20q35 0 53.5 -19.5t18.5 -51.5q0 -23 -8 -62.5t-18 -84.5q-7 -33 -11 -57t-6 -45.5t-2 -48.5h-130q0 38 4.5 69.5t14.5 80.5q7 35 11 55.5t4 31.5q0 24 -17 24q-18 0 -34.5 -22.5t-30.5 -60.5t-22.5 -84t-9.5 -94h-130zM2245 256 q-25 14 -51.5 22t-45.5 8q-17 0 -29.5 -7t-12.5 -19q0 -13 13 -22t32 -17.5t38 -20.5t32 -30.5t13 -47.5q0 -39 -25 -68t-66.5 -45t-89.5 -16q-33 0 -66.5 7.5t-51.5 20.5l27 93q27 -18 58.5 -28t52.5 -10q20 0 30 8t10 18q0 13 -13 22t-32 18t-38 21t-32 30t-13 46 q0 39 25.5 68t67.5 45.5t90 16.5q20 0 48.5 -3.5t55.5 -14.5zM2525 369q32 0 73.5 -7.5t72.5 -24.5l-29 -128q-20 -94 -25.5 -140.5t-5.5 -68.5h-130q0 20 2.5 45t9.5 67q-15 -50 -50.5 -84.5t-81.5 -34.5q-41 0 -62.5 30t-21.5 83q0 44 15.5 90.5t46.5 85.5t77.5 63 t108.5 24zM4653 51q-32 -28 -74 -43t-85 -15q-62 0 -102 33.5t-40 103.5q0 46 17.5 88.5t49.5 76.5t75 54t94 20q53 0 86 -23t33 -65q0 -56 -59 -95.5t-162 -44.5v-1q0 -29 15 -46.5t48 -17.5q22 0 45 7.5t45 20.5zM3936 0q0 28 4 62t13.5 82t24.5 116l5 102l137 7 q0 -18 -2 -41t-5 -48h2q29 49 65.5 69t68.5 20q35 0 53.5 -19.5t18.5 -51.5q0 -23 -8 -62.5t-18 -84.5q-7 -33 -11 -57t-5.5 -45.5t-1.5 -48.5h-131q0 38 4.5 69.5t14.5 80.5q8 35 11.5 55.5t3.5 31.5q0 24 -17 24t-34 -22.5t-30.5 -60.5t-22 -84t-9.5 -94h-131zM3768 369 q32 0 73 -7.5t72 -24.5l-28 -128q-20 -94 -25.5 -140.5t-5.5 -68.5h-130q0 20 2.5 45t9.5 67q-15 -50 -50.5 -84.5t-81.5 -34.5q-41 0 -63 30t-22 83q0 44 15.5 90.5t47 85.5t78 63t108.5 24zM4490 177q46 10 72.5 33.5t26.5 59.5q0 17 -5.5 24t-16.5 7q-20 0 -36 -20 t-26 -48.5t-15 -55.5zM3677 101q17 0 33 21t30 54t22 69q2 11 4.5 22t4.5 22q-16 8 -27 8q-18 0 -34.5 -16t-29 -40.5t-20 -51.5t-7.5 -48q0 -40 24 -40zM913 101q16 0 31 19.5t28.5 50t22.5 64.5l4 20l4 20l3 14q-14 8 -27 8q-18 0 -34 -16t-28.5 -40.5t-20 -51.5t-7.5 -48 q0 -40 24 -40zM2435 101q16 0 32.5 21t30 54t21.5 69q2 11 4.5 22t4.5 22q-14 8 -27 8q-18 0 -34 -16t-29 -40.5t-20 -51.5t-7 -48q0 -40 24 -40z" />
<glyph unicode="&#x2f;symbol&#x32;&#x2f;" horiz-adv-x="932" d="M494 570l52 -90l-137 -240h-103l137 240l-52 90h103zM357 570l52 -90l-138 -240h-103l138 240l-52 90h103zM752 120h-103l-137 240l51 90l137 -240h103zM683 0h-103l-137 240l51 90l138 -240h103zM100 120l51 90h275l51 -90h-274l-52 -90zM168 0l52 90h274l52 -90h-275 l-51 -90zM789 88q18 0 30.5 -13t12.5 -31t-12.5 -31t-30.5 -13t-30.5 13t-12.5 31t12.5 31t30.5 13zM829 44q0 17 -11.5 28.5t-28.5 11.5q-16 0 -28 -11.5t-12 -28.5q0 -16 12 -28t28 -12q17 0 28.5 12t11.5 28zM771 69h18h5t6 -2q5 -4 5 -11q0 -5 -3 -8q-1 -2 -2.5 -2.5 t-3.5 -1.5q7 -1 8 -9q0 -8 3 -16h-8q-1 2 -1 6t-1 7q-1 5 -2.5 7.5t-8.5 2.5h-8v-23h-7v50zM778 47h10h3.5t3.5 1q3 3 3 7q0 6 -4 7t-6 1h-10v-16z" />
<glyph unicode="&#x2f;symbol&#x33;&#x2f;" horiz-adv-x="957" d="M505 638l68 -270h270l-203 -135l136 -270l-271 135l-270 -270l135 405l-270 203l338 -68zM814 87q18 0 30.5 -12.5t12.5 -31.5q0 -18 -12.5 -30.5t-30.5 -12.5t-30.5 12.5t-12.5 30.5q0 19 12.5 31.5t30.5 12.5zM854 43q0 17 -11.5 29t-28.5 12q-16 0 -28 -12t-12 -29 q0 -16 12 -28t28 -12q17 0 28.5 12t11.5 28zM796 68h18h5.5t5.5 -2q6 -3 6 -10q0 -5 -4 -9q-3 -3 -6 -3q7 -3 8 -10q1 -4 1.5 -7.5t1.5 -8.5h-7q-1 3 -1.5 7t-1.5 7q0 9 -10 9h-9v-23h-7v50zM803 47h10h3.5t3.5 1l2 2t1 4q0 7 -4 8t-6 1h-10v-16z" />
<glyph unicode="&#x2f;symbol&#x34;&#x2f;" horiz-adv-x="2607" d="M1684 406q0 32 -2.5 63t-8.5 65l126 14l15 -15v-533h-130v406zM1889 406q0 62 -10 128l126 14l14 -15v-533h-130v406zM427 101v-101h-320v362q0 38 -1.5 72t-5.5 63l126 7l14 -14v-396zM925 21l7 109q31 -18 72 -27t72 -9q50 0 50 36q0 19 -20.5 34t-50 31t-59.5 37 t-50.5 51t-20.5 74q0 48 26 80.5t70 49.5t97 17q81 0 127 -18l-14 -111q-28 14 -55 21.5t-56 7.5q-28 0 -43 -11t-15 -29q0 -22 20.5 -38.5t50.5 -32.5t59.5 -36.5t50 -49.5t20.5 -73q0 -67 -54 -104t-139 -37q-40 0 -82.5 8t-62.5 20zM795 0l-106 -7q-7 11 -12 24t-9 25h-4 q-15 -22 -42.5 -35.5t-61.5 -13.5q-41 0 -69 22t-28 67q0 61 53.5 88.5t137.5 29.5v20q0 54 -58 54q-55 0 -108 -29l-8 97q27 10 68.5 18t81.5 8q154 0 154 -135q0 -38 -2 -69.5t-2 -69.5q0 -24 4.5 -50.5t10.5 -43.5zM1626 0l-107 -7q-7 11 -12 24t-9 25h-3 q-15 -22 -42.5 -35.5t-62.5 -13.5q-40 0 -68 22t-28 67q0 61 53 88.5t138 29.5v20q0 54 -58 54q-54 0 -109 -29l-7 97q27 10 68.5 18t81.5 8q153 0 153 -135q0 -38 -1.5 -69.5t-1.5 -69.5q0 -24 4.5 -50.5t10.5 -43.5zM2405 213v-17t-1 -19l-11 -11h-191q8 -45 33.5 -64 t64.5 -19q24 0 45.5 6t38.5 15l7 -81q-17 -11 -49.5 -20.5t-77.5 -9.5q-88 0 -143 47t-55 135q0 58 24 101t66 67.5t94 24.5q73 0 114 -43.5t41 -111.5zM2199 207l78 4q1 5 1.5 11t0.5 15q0 23 -7.5 41t-26.5 18q-23 0 -34 -25.5t-12 -63.5zM654 74v88q-27 -3 -46 -17 t-19 -40q0 -18 10.5 -29t26.5 -11t28 9zM1485 74v88q-27 -3 -46 -17t-19 -40q0 -18 10 -29t27 -11q16 0 28 9zM2464 85q18 0 30.5 -13t12.5 -31t-12.5 -31t-30.5 -13t-31 13t-13 31t13 31t31 13zM2504 41q0 17 -11.5 28.5t-28.5 11.5q-16 0 -28 -11.5t-12 -28.5 q0 -16 12 -28t28 -12q17 0 28.5 12t11.5 28zM2446 66h18q2 0 5 -0.5t6 -2.5q5 -2 5 -10q0 -4 -3 -9q-3 -3 -6 -3q7 -1 8 -10q0 -7 3 -15h-8q-1 2 -1 6t-1 7q-1 5 -2.5 7t-8.5 2h-8v-22h-7v50zM2453 44h10h3.5t3.5 1q3 3 3 7q0 6 -4 7t-6 1h-10v-16z" />
<glyph unicode="&#x2f;symbol&#x35;&#x2f;" horiz-adv-x="705" d="M232 -6l-132 136l124 234l129 -136zM474 -6l-121 234l128 136l124 -234z" />
<glyph unicode=" "  horiz-adv-x="191" />
<glyph unicode="&#x09;" horiz-adv-x="191" />
<glyph unicode="&#xa0;" horiz-adv-x="191" />
<glyph unicode="!" horiz-adv-x="283" d="M165 164h-81q15 81 30.5 168t29.5 172.5t24 163.5l126 10q-5 -27 -11.5 -63t-14.5 -71q-20 -92 -47.5 -192.5t-55.5 -187.5zM161 58q0 -19 -12 -38t-32 -31t-43 -12t-35.5 11t-12.5 31t12 38.5t32 31t44 12.5q21 0 34 -11t13 -32z" />
<glyph unicode="&#x22;" horiz-adv-x="374" d="M239 695l-85 -275h-38l32 275h91zM417 695l-86 -275h-38l32 275h92z" />
<glyph unicode="#" horiz-adv-x="685" d="M535 179h-127l-83 -189l-54 9l-4 6l76 174h-133l-83 -189l-53 9l-4 6l76 174h-115l-5 5l19 52h127l79 179h-125l-4 5l18 52h136l83 188l53 -8l4 -6l-76 -174h133l83 188l54 -8l4 -6l-77 -174h107l5 -5l-19 -52h-118l-79 -179h116l4 -5zM235 236h134l79 179h-134z" />
<glyph unicode="$" horiz-adv-x="472" d="M124 -122l23 112q-36 1 -79 9t-69 19l40 111q24 -23 61.5 -40t74.5 -17q48 0 77.5 28t29.5 67q0 30 -18.5 53t-46 45t-55 47t-45.5 58t-18 80q0 51 25.5 94t72 72t106.5 39l25 115l48 3l-24 -113h9q73 0 131 -22l-42 -106q-20 17 -52 31.5t-65 14.5q-48 0 -77.5 -29 t-29.5 -68q0 -32 18.5 -56t45.5 -46t54.5 -47.5t46 -58.5t18.5 -78q0 -56 -29 -99t-77.5 -70t-106.5 -34l-24 -111z" />
<glyph unicode="%" horiz-adv-x="933" d="M255 -10h-70l514 670h71zM426 524q0 -42 -15 -84t-42 -76.5t-66 -55.5t-88 -21q-59 0 -90 33t-31 96q0 42 14.5 84t42 77t66.5 56.5t88 21.5q58 0 89.5 -34t31.5 -97zM184 400q0 -67 45 -67q25 0 45 21t33.5 54.5t21 69.5t7.5 65q0 66 -45 66q-26 0 -46 -21.5t-33.5 -55 t-20.5 -69t-7 -63.5zM871 232q0 -42 -15 -84t-42 -76.5t-66 -55.5t-88 -21q-59 0 -90 33t-31 96q0 42 14.5 84t42 77t66.5 56.5t88 21.5q58 0 89.5 -34t31.5 -97zM629 108q0 -67 45 -67q25 0 45 21t33.5 54.5t21 69.5t7.5 65q0 66 -45 66q-26 0 -46 -21.5t-33.5 -55 t-20.5 -69t-7 -63.5z" />
<glyph unicode="&#x26;" horiz-adv-x="738" d="M653 77q0 -37 -23 -59.5t-60 -27.5l-7 7q4 6 7.5 17.5t3.5 22.5q0 28 -24 52t-62 48q-55 -64 -129.5 -105.5t-161.5 -41.5q-90 0 -134.5 41.5t-44.5 100.5q0 44 23.5 85t63.5 73.5t91 50.5q-19 26 -29.5 55.5t-10.5 64.5q0 63 34 107.5t90 68t120 23.5q67 0 109 -26.5 t42 -71.5q0 -38 -31 -66t-72 -40q22 0 59.5 1t79 2t77.5 2.5t56 3.5q0 -19 -4.5 -45t-9.5 -46q-48 3 -102 11q-12 -83 -57 -163q45 -31 75.5 -66t30.5 -79zM279 486q0 -40 19.5 -72t52 -60t71.5 -52.5t77 -48.5q24 68 28 146q-30 7 -58 15t-51 18l-2 16q12 20 20.5 41 t8.5 42q0 24 -15 43t-49 19q-39 0 -70.5 -27t-31.5 -80zM142 166q0 -52 33.5 -83t92.5 -31q55 0 102 28.5t82 77.5q-38 22 -80.5 45.5t-82.5 50.5t-70 60q-35 -29 -56 -68.5t-21 -79.5z" />
<glyph unicode="'" horiz-adv-x="197" d="M239 695l-85 -275h-38l32 275h91z" />
<glyph unicode="(" horiz-adv-x="345" d="M54 176q0 78 24 154.5t68.5 144.5t104 124.5t130.5 95.5l23 -48q-70 -61 -121 -141t-78 -169t-27 -178q0 -65 16.5 -125.5t55.5 -112.5l-44 -49q-75 53 -113.5 132.5t-38.5 171.5z" />
<glyph unicode=")" horiz-adv-x="344" d="M305 392q0 -79 -24.5 -155.5t-68.5 -144.5t-104 -124.5t-130 -95.5l-23 49q70 60 120.5 140t78 169.5t27.5 178.5q0 64 -17 124.5t-55 113.5l44 48q75 -52 113.5 -132t38.5 -171z" />
<glyph unicode="*" horiz-adv-x="402" d="M213 430l38 112l-97 -69l-16 47l108 42l-90 44l36 46l68 -69l10 112h52l-40 -113l99 70l16 -46l-108 -44l90 -42l-36 -47l-69 70l-9 -113h-52z" />
<glyph unicode="+" horiz-adv-x="561" d="M477 284h-146l-35 -163h-85l33 163h-147l16 78q27 0 66 1t82 1l35 166h87l-35 -165q42 1 81 1h67z" />
<glyph unicode="," horiz-adv-x="243" d="M131 64q0 -33 -24 -75.5t-61 -82.5t-76 -65l-17 24q28 27 53 60t40 66q-15 4 -24.5 14.5t-9.5 29.5q0 29 22 52.5t53 23.5q21 0 32.5 -13t11.5 -34z" />
<glyph unicode="-" horiz-adv-x="332" d="M31 259l4 43h276l-4 -43h-276z" />
<glyph unicode="." horiz-adv-x="256" d="M70 -10q-20 0 -32 12t-12 33q0 28 23 52t54 24q20 0 32 -11t12 -29q0 -30 -23 -55.5t-54 -25.5z" />
<glyph unicode="/" horiz-adv-x="379" d="M313 699l65 -17l-310 -698l-66 17z" />
<glyph unicode="0" horiz-adv-x="600" d="M576 442q0 -61 -15.5 -125t-44.5 -122.5t-71 -104.5t-94.5 -73t-114.5 -27q-82 0 -131.5 52.5t-49.5 163.5q0 61 15.5 125t45 123t71.5 105.5t94.5 73.5t114.5 27q85 0 132.5 -54.5t47.5 -163.5zM181 189q0 -61 19 -96.5t59 -35.5q35 0 64.5 27.5t53 72.5t40 99t25 108.5 t8.5 99.5q0 60 -18 94.5t-58 34.5q-36 0 -66 -27.5t-53.5 -72.5t-40 -99t-25 -107.5t-8.5 -97.5z" />
<glyph unicode="1" horiz-adv-x="371" d="M196 0h-118l122 574l-111 -49l-3 59l242 76l7 -6z" />
<glyph unicode="2" horiz-adv-x="513" d="M384 0h-384l4 67q41 33 89.5 74t96.5 86.5t87 92.5t63 92.5t24 85.5q0 39 -23.5 61t-66.5 22q-39 0 -79.5 -17.5t-78.5 -44.5l6 86q37 20 93 37.5t114 17.5q76 0 120 -35.5t44 -99.5q0 -61 -37 -120t-96.5 -114.5t-131.5 -105t-142 -91.5h130q101 0 200 14z" />
<glyph unicode="3" horiz-adv-x="476" d="M407 203q0 -63 -39 -111t-103.5 -75t-140.5 -27q-38 0 -75.5 6.5t-65.5 17.5l25 70q23 -12 52 -19t57 -7q47 0 84 20t58.5 53t21.5 70q0 34 -17 54t-44.5 28.5t-56.5 8.5q-31 0 -59 -6l10 45q57 16 107 43.5t81 62.5t31 76q0 32 -22.5 50t-62.5 18q-34 0 -69.5 -12 t-68.5 -30l10 74q31 17 81.5 32t104.5 15q72 0 112.5 -31t40.5 -85q0 -51 -31.5 -90.5t-83 -68.5t-110.5 -46q77 -4 125 -36t48 -100z" />
<glyph unicode="4" horiz-adv-x="562" d="M359 0h-118l28 131h-260l4 50l402 479l82 -10l-91 -426q45 3 90 10l-31 -103h-78zM356 540l-269 -321h188h13z" />
<glyph unicode="5" horiz-adv-x="506" d="M445 234q0 -70 -39.5 -125.5t-107 -87t-152.5 -31.5q-40 0 -76.5 6.5t-64.5 17.5l25 67q24 -11 57 -17.5t60 -6.5q52 0 90.5 24t60 62t21.5 81q0 51 -29 74t-73 23q-25 0 -56 -6.5t-54 -14.5l-9 9l73 341h192q40 0 81.5 2.5t80.5 7.5l-30 -103h-281l-42 -199q26 8 57 14 t62 6q73 0 113.5 -36.5t40.5 -107.5z" />
<glyph unicode="6" horiz-adv-x="535" d="M500 249q0 -49 -20.5 -95.5t-57 -83.5t-85.5 -58.5t-106 -21.5q-80 0 -130.5 47.5t-50.5 152.5q0 66 20.5 133.5t57.5 128t88.5 107.5t113.5 74t132 27q27 0 51.5 -3.5t33.5 -8.5l-26 -68q-27 13 -67 13q-45 0 -93 -29t-90.5 -92t-70.5 -165q35 40 80 60.5t89 20.5 q61 0 96 -37t35 -102zM176 158q0 -101 70 -101q39 0 68.5 28t45.5 71t16 86q0 41 -16.5 65.5t-50.5 24.5q-27 0 -59.5 -16.5t-58.5 -48.5q-9 -35 -12 -63t-3 -46z" />
<glyph unicode="7" horiz-adv-x="490" d="M177 0h-132q20 75 59 153.5t92 153t114 139t126 111.5h-136q-101 0 -200 -15l32 108h389l7 -7l-9 -56q-76 -77 -144 -172.5t-119.5 -201t-78.5 -213.5z" />
<glyph unicode="8" horiz-adv-x="559" d="M28 119q0 43 26.5 81t71 67.5t98.5 45.5q-43 29 -72.5 68t-29.5 90q0 53 34.5 95.5t92 68t124.5 25.5q75 0 121.5 -33.5t46.5 -91.5q0 -43 -24.5 -80t-65 -65.5t-89.5 -44.5q58 -33 92 -76t34 -91q0 -52 -36.5 -94.5t-98 -68t-136.5 -25.5q-88 0 -138.5 35.5t-50.5 93.5z M240 492q0 -36 21.5 -66.5t54.5 -53.5q45 27 76.5 67.5t31.5 84.5q0 34 -20.5 54t-53.5 20q-28 0 -53.5 -14t-41 -38t-15.5 -54zM148 134q0 -36 25 -59t70 -23q33 0 61.5 13.5t46.5 37.5t18 57q0 39 -27.5 68t-72.5 58q-50 -27 -85.5 -67.5t-35.5 -84.5z" />
<glyph unicode="9" horiz-adv-x="536" d="M518 460q0 -67 -20.5 -134t-57.5 -127.5t-89 -107.5t-115 -74t-135 -27q-27 0 -47.5 4t-28.5 8l25 68q28 -13 67 -13q44 0 91.5 26.5t89 84.5t67.5 153q-34 -39 -79 -59t-86 -20q-58 0 -95 38t-37 111q0 52 20.5 100.5t57.5 86.5t86.5 60t106.5 22q79 0 129 -48t50 -152z M191 394q0 -44 17.5 -69.5t52.5 -25.5q27 0 58 15.5t57 50.5q9 37 12.5 68.5t3.5 51.5q0 51 -16.5 79.5t-52.5 28.5q-30 0 -54.5 -18.5t-42 -48.5t-26.5 -65t-9 -67z" />
<glyph unicode=":" horiz-adv-x="257" d="M149 360q-20 0 -32 12t-12 33q0 28 23 52t54 24q20 0 32 -11t12 -29q0 -30 -23 -55.5t-54 -25.5zM71 -10q-20 0 -32.5 12t-12.5 33q0 28 23.5 52t54.5 24q20 0 31.5 -11t11.5 -29q0 -30 -22.5 -55.5t-53.5 -25.5z" />
<glyph unicode=";" horiz-adv-x="264" d="M155 360q-20 0 -32.5 12t-12.5 33q0 28 23.5 52t54.5 24q20 0 31.5 -11t11.5 -29q0 -30 -22.5 -55.5t-53.5 -25.5zM146 64q0 -33 -24 -75.5t-61 -82.5t-76 -65l-17 24q28 27 53 60t40 66q-15 4 -24.5 14.5t-9.5 29.5q0 29 22 52.5t53 23.5q21 0 32.5 -13t11.5 -34z" />
<glyph unicode="&#x3c;" horiz-adv-x="560" d="M532 541l-20 -95l-302 -123l250 -119l-21 -95q-29 13 -73.5 36t-94.5 49t-96 51.5t-76 43.5l14 70z" />
<glyph unicode="=" horiz-adv-x="563" d="M500 388h-380l17 78q32 1 82 1.5t106 1t107.5 1t86.5 0.5zM456 180h-380l16 78q33 1 83 1.5t105.5 1t107 1t87.5 0.5z" />
<glyph unicode="&#x3e;" horiz-adv-x="560" d="M61 109l20 95l301 123l-249 119l21 95q28 -14 72.5 -36.5t94.5 -49t96 -51.5t77 -43l-15 -70z" />
<glyph unicode="?" horiz-adv-x="490" d="M243 168h-81q-3 12 -2 32t5 35q7 34 28 63t47.5 54.5t53 50t46 50t25.5 54.5q8 39 -13.5 60.5t-54.5 21.5t-74 -17.5t-77 -48.5l-32 67q45 37 102.5 62.5t119.5 25.5q53 0 91 -21.5t54 -60t5 -89.5q-10 -46 -35 -80t-56.5 -60t-62 -49.5t-53 -49t-28.5 -58.5 q-2 -8 -4 -20.5t-4 -21.5zM237 57q0 -19 -12 -38t-31.5 -31t-43.5 -12q-22 0 -35 11t-13 31t12.5 38.5t32.5 31t43 12.5q21 0 34 -11t13 -32z" />
<glyph unicode="@" horiz-adv-x="1100" d="M751 -123q-46 -29 -115 -50.5t-152 -21.5q-118 0 -207 47.5t-139 132.5t-50 195q0 84 29 161t81 141.5t121 112t150 74t167 26.5q112 0 198.5 -44.5t135 -123t48.5 -181.5q0 -64 -19 -127t-53.5 -115t-82.5 -83t-105 -31q-56 0 -89 28t-44.5 72.5t-0.5 92.5h-3 q-12 -31 -32 -64.5t-47 -63t-60 -47.5t-70 -18q-57 0 -90.5 42t-33.5 114q0 62 25.5 126t72 118t110 87t139.5 33q32 0 76.5 -7t81.5 -22l-51 -226q-7 -31 -12.5 -68t-3.5 -71t17 -56t49 -22q36 0 69.5 26t60 69.5t42.5 98t16 111.5q0 95 -44.5 166.5t-122 112t-178.5 40.5 q-76 0 -149.5 -23t-138.5 -66t-114.5 -101.5t-77.5 -131t-28 -153.5q0 -103 45 -181.5t127 -122.5t192 -44q80 0 139.5 20t105.5 44zM462 77q30 0 59 28.5t54.5 73t44 93.5t27.5 90l16 71q-28 10 -51 10q-41 0 -77 -25.5t-64 -67.5t-44 -91.5t-16 -96.5q0 -40 12.5 -62.5 t38.5 -22.5z" />
<glyph unicode="A" horiz-adv-x="574" d="M84 0h-112l266 526l60 125l155 9l43 -660h-117l-7 154h-216zM352 566l-165 -347h182l-16 347h-1z" />
<glyph unicode="B" horiz-adv-x="578" d="M246 0h-200l112 528l17 122h203q84 0 127.5 -35.5t43.5 -96.5q0 -60 -36.5 -109.5t-93.5 -73.5q93 -27 93 -121q0 -58 -33.5 -107t-93.5 -78t-139 -29zM331 582h-43l-47 -219h53q42 0 73.5 19t48.5 50t17 66q0 49 -30 66.5t-72 17.5zM291 295h-64l-48 -227h55 q52 0 87.5 20t54 52.5t18.5 69.5q0 50 -31 67.5t-72 17.5z" />
<glyph unicode="C" horiz-adv-x="521" d="M443 113l-5 -87q-74 -36 -161 -36q-108 0 -163.5 59.5t-55.5 173.5q0 81 27 159t77 140.5t117.5 100t147.5 37.5q39 0 78 -8t63 -19l-36 -100q-20 18 -52.5 31.5t-66.5 13.5q-53 0 -94.5 -31t-69.5 -81.5t-42.5 -109.5t-14.5 -115q0 -78 30 -121.5t97 -43.5q36 0 69 11.5 t55 25.5z" />
<glyph unicode="D" horiz-adv-x="630" d="M158 528l17 122h182q43 0 86 -10t78.5 -35.5t57.5 -72.5t22 -121q0 -76 -25 -149.5t-73 -132.5t-119 -94t-163 -35h-175zM309 575h-23l-105 -499h45q63 0 109.5 31.5t76.5 82.5t44.5 109.5t14.5 111.5q0 60 -16.5 94t-42 48.5t-53 18t-50.5 3.5z" />
<glyph unicode="E" d="M394 0h-348l111 523l18 127h352l-25 -80l-215 7l-47 -219l172 4l-23 -76l-163 3l-46 -216l233 8z" />
<glyph unicode="F" horiz-adv-x="472" d="M165 0h-119l111 523l18 127h352l-25 -80l-215 7l-53 -248l3 12l171 4l-23 -75l-163 3z" />
<glyph unicode="G" horiz-adv-x="572" d="M467 26q-42 -18 -89.5 -27t-90.5 -9q-113 0 -171.5 60t-58.5 175q0 81 28.5 158.5t80 140t123 99.5t156.5 37q39 0 76.5 -8t63.5 -19l-36 -101q-19 18 -50.5 32t-67.5 14q-58 0 -102.5 -30.5t-75.5 -80t-47 -109t-16 -118.5q0 -84 34 -130t109 -46q17 -1 39 2l21 98 l18 123l114 10z" />
<glyph unicode="H" horiz-adv-x="655" d="M165 0h-119l112 528l17 122l130 10l-68 -318h229l39 186l18 122l129 11l-140 -661h-118l58 275h-229z" />
<glyph unicode="I" horiz-adv-x="308" d="M165 0h-119l112 528l17 122l130 10z" />
<glyph unicode="J" horiz-adv-x="307" d="M-72 -140q51 19 79.5 59t40.5 95l110 514l17 122l129 10l-124 -582q-10 -49 -26 -94t-43.5 -82t-72.5 -62t-113 -35z" />
<glyph unicode="K" horiz-adv-x="562" d="M158 528l17 122l130 10l-66 -310h65l208 310l110 -10l-231 -332l98 -318l-126 -10l-74 293h-64l-60 -283h-119z" />
<glyph unicode="L" horiz-adv-x="465" d="M392 0h-346l112 528l17 122l130 10l-125 -587l232 13z" />
<glyph unicode="M" horiz-adv-x="823" d="M264 546h-1l-171 -546h-97l218 650l161 10l4 -570h2l242 560l162 10l-59 -660h-123l63 546h-1l-248 -546h-137z" />
<glyph unicode="N" horiz-adv-x="646" d="M158 528l17 122l103 10l169 -502h2l95 492l99 10l-140 -660h-106l-160 483h-2l-93 -483h-96z" />
<glyph unicode="O" horiz-adv-x="631" d="M607 435q0 -79 -25.5 -157.5t-73 -143.5t-112.5 -104.5t-145 -39.5q-93 0 -144 57.5t-51 167.5q0 62 16.5 125.5t48 121t75 102t98.5 70.5t119 26q93 0 143.5 -58.5t50.5 -166.5zM187 203q0 -68 23 -107t69 -39q36 0 66.5 26t54.5 69.5t41 96t26 105t9 97.5 q0 67 -22.5 104.5t-66.5 37.5q-37 0 -68 -26t-55 -68.5t-41.5 -94.5t-26.5 -104.5t-9 -96.5z" />
<glyph unicode="P" horiz-adv-x="549" d="M165 0h-119l112 528l17 122h169q38 0 75.5 -7t67.5 -25t48.5 -51.5t18.5 -86.5q0 -76 -36.5 -138t-105.5 -99t-166 -37h-38zM321 580h-33l-65 -304h39q43 0 75 18t52.5 48t31 65t10.5 69q0 61 -30.5 82.5t-79.5 21.5z" />
<glyph unicode="Q" horiz-adv-x="621" d="M678 -91q0 -37 -39 -57.5t-99 -20.5q-63 0 -126.5 20t-120.5 57.5t-99 87.5q-64 15 -100.5 70t-36.5 150q0 61 16 124.5t46.5 120.5t73.5 102t96.5 71t115.5 26q91 0 141 -59t49 -169q1 -73 -22 -148t-65 -138.5t-100.5 -105t-130.5 -48.5q49 -29 118.5 -49.5 t142.5 -20.5q42 0 76.5 7t50.5 13q13 -13 13 -33zM272 57q36 0 66.5 26.5t54.5 70t41.5 96t26.5 106t9 98.5q0 66 -22 102.5t-65 36.5q-37 0 -68 -26.5t-55.5 -70.5t-41.5 -96.5t-26 -105t-9 -96.5q0 -67 22.5 -104t66.5 -37z" />
<glyph unicode="R" horiz-adv-x="560" d="M165 0h-119l112 528l17 122h183q102 0 150 -42t48 -117q0 -78 -44.5 -138t-121.5 -90l85 -263l-128 -10l-59 248q-22 -2 -45 -2h-28zM319 580h-31l-59 -274h34q58 0 95.5 26.5t56 66.5t18.5 82q0 37 -12.5 57t-31 29t-37.5 11t-33 2z" />
<glyph unicode="S" horiz-adv-x="484" d="M421 195q0 -61 -36 -107.5t-95 -72t-128 -25.5q-26 0 -56.5 3.5t-59 10t-48.5 14.5l41 111q26 -23 64.5 -40t76.5 -17q49 0 79.5 28t30.5 67q0 30 -19 53t-47 45t-56 47t-47 58t-19 80q0 59 35 107t96 75.5t139 27.5q75 0 134 -22l-42 -106q-21 17 -54.5 31.5t-66.5 14.5 q-50 0 -80 -29t-30 -68q0 -32 18.5 -56t46.5 -46t56.5 -47.5t47.5 -58.5t19 -78z" />
<glyph unicode="T" horiz-adv-x="480" d="M247 0h-119l120 570l-164 -8l25 88h431l-12 -88l-161 7z" />
<glyph unicode="U" horiz-adv-x="637" d="M285 62q52 0 87 41.5t50 114.5l65 310l17 122l130 10l-93 -433q-16 -77 -57 -130t-98.5 -80t-123.5 -27q-84 0 -131 41.5t-47 118.5q0 12 1 25.5t5.5 36t12.5 61t21 100t33 155.5l18 122l130 10q-29 -133 -47.5 -219.5t-29.5 -139t-16.5 -80.5t-7 -42.5t-1.5 -27.5 q0 -39 20.5 -64t61.5 -25z" />
<glyph unicode="V" horiz-adv-x="562" d="M517 660l107 -10l-315 -650h-168l-31 650l118 10l22 -571h1z" />
<glyph unicode="W" horiz-adv-x="863" d="M107 0l3 650l118 10l-10 -571h1l233 561h146l-10 -561h2l234 571l102 -10l-287 -650h-164l16 534h-2l-218 -534h-164z" />
<glyph unicode="X" horiz-adv-x="555" d="M-28 0l251 320l-105 328l130 12l66 -263l195 263l100 -12l-243 -312l113 -336h-130l-77 255l-193 -255h-107z" />
<glyph unicode="Y" horiz-adv-x="542" d="M278 0h-118l43 207l-93 443l118 10l58 -351h2l208 351l108 -10l-281 -443h-1z" />
<glyph unicode="Z" horiz-adv-x="487" d="M392 0h-394l-2 63l382 502q-61 -1 -107 -2t-84.5 -2.5t-77.5 -3.5l27 93h379l1 -62l-383 -503q64 1 111.5 3t89 5.5t87.5 9.5z" />
<glyph unicode="[" horiz-adv-x="398" d="M19 -57v0l144 678v0l15 69h226l-16 -69h-113l-144 -678h113l-14 -69h-226z" />
<glyph unicode="\" horiz-adv-x="384" d="M161 -16l-14 698l73 17l14 -698z" />
<glyph unicode="]" horiz-adv-x="399" d="M234 -126h-226l16 69h112l145 678h-113l14 69h226l-15 -69v0l-144 -678v0z" />
<glyph unicode="^" horiz-adv-x="551" d="M168 195h-115l233 338h97l91 -338h-114l-51 224z" />
<glyph unicode="_" horiz-adv-x="382" d="M-88 -164l17 78h381l-16 -78h-382z" />
<glyph unicode="`" horiz-adv-x="292" d="M316 599l-22 -33q-38 20 -77.5 52t-72.5 74l61 63q24 -42 52.5 -81.5t58.5 -74.5z" />
<glyph unicode="a" horiz-adv-x="557" d="M26 126q0 50 15.5 103.5t45 103.5t72 90t96.5 63.5t119 23.5q40 0 79.5 -9t70.5 -23l-40 -175q-10 -46 -22.5 -111.5t-12.5 -135.5q0 -12 1 -26.5t4 -29.5h-120q-2 12 -3.5 24t-1.5 30q0 33 4 70t14 87q-28 -64 -65 -114t-79 -78.5t-82 -28.5q-44 0 -69.5 35t-25.5 101z M150 152q0 -36 10.5 -58t30.5 -22q30 0 66.5 43.5t71 118.5t58.5 168q4 17 9 38q-27 11 -49 11q-40 0 -76 -29.5t-63 -76t-42.5 -98t-15.5 -95.5z" />
<glyph unicode="b" horiz-adv-x="546" d="M520 374q0 -50 -15.5 -103.5t-45.5 -103.5t-72.5 -90t-97 -63.5t-119.5 -23.5q-38 0 -78 8t-71 21l114 537l12 129l135 10q-23 -122 -45 -224.5t-41 -187.5q27 65 65 116.5t80.5 81t83.5 29.5q43 0 69 -35t26 -101zM354 429q-24 0 -52.5 -28.5t-57 -79t-53 -117.5 t-41.5 -144q26 -10 49 -10q40 0 75.5 29t63 75.5t43 98t15.5 96.5q0 35 -10.5 57.5t-31.5 22.5z" />
<glyph unicode="c" horiz-adv-x="452" d="M379 137l3 -61q-36 -39 -86 -62.5t-101 -23.5q-73 0 -116.5 42.5t-43.5 130.5q0 66 23 128t65 111.5t97 78.5t119 29q33 0 61 -9t51 -22l-33 -99q-44 63 -95 63q-33 0 -62.5 -24t-52.5 -63.5t-36.5 -86t-13.5 -90.5q0 -53 19 -85t62 -32q35 0 71.5 22t68.5 53z" />
<glyph unicode="d" horiz-adv-x="555" d="M26 126q0 50 15.5 103.5t45 103.5t72 90t96.5 63.5t119 23.5q18 0 37 -2q3 12 5.5 24t5.5 25l12 128l135 10q-28 -146 -55 -266t-44.5 -213.5t-17.5 -159.5q0 -12 1 -26.5t4 -29.5h-120q-2 11 -3.5 24.5t-1.5 28.5q0 24 1.5 47t5.5 51.5t12 71.5q-26 -67 -64 -119.5 t-81.5 -83t-84.5 -30.5q-44 0 -69.5 35t-25.5 101zM150 152q0 -36 10.5 -58.5t30.5 -22.5q24 0 52.5 29t57 79.5t53.5 117t42 142.5q-26 12 -49 12q-40 0 -76 -29.5t-63 -76t-42.5 -98t-15.5 -95.5z" />
<glyph unicode="e" horiz-adv-x="472" d="M397 137l3 -61q-22 -24 -56.5 -43.5t-73.5 -31t-76 -11.5q-71 0 -115 43.5t-44 131.5q0 62 22.5 123.5t62.5 111.5t92.5 80t112.5 30q58 0 94 -27t36 -77q0 -48 -34 -90.5t-90.5 -69.5t-126.5 -31q-23 -1 -44 1q-2 -19 -2 -36q0 -57 23 -87.5t65 -30.5q37 0 77.5 21.5 t73.5 53.5zM303 451q-32 0 -60 -32t-49 -80.5t-30 -98.5q64 9 104.5 37t60.5 62t20 62q0 22 -12 36t-34 14z" />
<glyph unicode="f" horiz-adv-x="336" d="M349 415l-109 3l-85 -404q-11 -48 -35.5 -90t-68.5 -72.5t-115 -46.5l-18 44q57 29 81.5 72t36.5 99l84 401l-52 2l7 34l56 12v2q-1 14 -0.5 38.5t2.5 41.5q6 68 53.5 106t115.5 38q34 0 65 -8.5t50 -18.5l-29 -77q-16 15 -36.5 23.5t-41.5 8.5q-30 0 -51 -20t-26 -58 q-3 -18 -2.5 -39t5.5 -37h129z" />
<glyph unicode="g" d="M403 -50q0 -45 -34.5 -77.5t-94 -50t-134.5 -17.5q-87 0 -139 25.5t-52 77.5q0 40 27.5 67.5t59.5 38.5l10 -11q-9 -23 -13.5 -48t4.5 -51q10 -29 38.5 -45.5t72.5 -16.5q33 0 63 9.5t48.5 26.5t18.5 38q0 22 -20 36.5t-49.5 25.5t-59.5 22.5t-50 28t-20 41.5 q0 32 34.5 59t92.5 38v3q-73 0 -111.5 30.5t-38.5 90.5q0 39 15.5 77.5t47 70.5t77.5 51.5t107 19.5q41 0 73.5 0.5t64.5 2t72 5.5q16 -15 16 -35q0 -17 -13 -30.5t-34 -13.5q-22 0 -49.5 13.5t-67.5 28.5l-2 -3q37 -17 62.5 -43.5t25.5 -71.5q0 -62 -43.5 -111.5 t-115.5 -82.5q-14 -7 -35.5 -16t-38.5 -19.5t-17 -23.5q0 -14 20.5 -23.5t50.5 -19.5t60 -24t50.5 -36t20.5 -57zM173 277q0 -68 47 -68q24 0 44.5 18t36 46t24 59t8.5 58q0 30 -12 48t-37 18t-45.5 -18t-35 -45.5t-22.5 -58.5t-8 -57z" />
<glyph unicode="h" horiz-adv-x="550" d="M454 0h-120q-3 17 -3.5 27.5t-0.5 32.5q0 37 7.5 83.5t17 93t17.5 84t8 56.5q0 22 -11 34t-27 12q-23 0 -49 -23.5t-50.5 -64.5t-43.5 -93.5t-28 -110.5q-6 -48 -6 -83q0 -13 1 -21.5t4 -26.5h-120q-2 9 -3.5 22t-1.5 31q0 42 7.5 93.5t18 104.5t19.5 98l45 208l12 128 l135 10q-22 -112 -43 -209.5t-38 -179.5q26 59 60 105t74 72.5t82 26.5q36 0 62.5 -22t26.5 -75q0 -28 -8.5 -69.5t-19.5 -90.5t-19.5 -101.5t-8.5 -102.5q0 -11 1 -24t3 -25z" />
<glyph unicode="i" horiz-adv-x="274" d="M286 680q0 -21 -13 -41t-34.5 -33t-47.5 -13q-24 0 -38 12t-14 33t13 41t35 33.5t48 13.5q22 0 36.5 -12t14.5 -34zM243 510q-30 -160 -53.5 -270t-23.5 -187q0 -9 1 -23.5t4 -29.5h-120q-3 15 -4 30.5t-1 22.5q0 42 5 87t20 116l25 114l12 130z" />
<glyph unicode="j" horiz-adv-x="270" d="M294 680q0 -21 -13 -41t-34.5 -33t-47.5 -13q-24 0 -38 12t-14 33t13 41t35 33.5t48 13.5q22 0 36.5 -12t14.5 -34zM247 510q-8 -39 -16.5 -80.5t-19.5 -96.5t-27.5 -132t-39.5 -187q-18 -83 -69.5 -136.5t-148.5 -72.5l-19 44q57 29 81.5 72t36.5 98l75 353l13 128z" />
<glyph unicode="k" horiz-adv-x="520" d="M170 0h-120q-2 8 -3.5 22.5t-1.5 26.5q0 65 13 136.5t32 163.5l45 208l12 128l135 10q-22 -114 -43.5 -211.5t-38.5 -178.5q27 62 64.5 108.5t80.5 71.5t85 25q40 0 63 -22.5t23 -59.5q0 -54 -47.5 -106.5t-128.5 -98.5q21 -55 52.5 -112.5t69.5 -110.5l-132 -10 q-30 44 -58 99t-47 115q72 45 119 92t47 92q0 43 -39 43q-29 0 -60 -30t-58.5 -80t-46 -112.5t-21.5 -128.5v-3v0q-1 -10 -1 -19v-4v-1q0 -10 1 -24.5t4 -28.5z" />
<glyph unicode="l" horiz-adv-x="273" d="M282 695q-28 -147 -55 -267t-44.5 -213t-17.5 -161q0 -11 1 -25t4 -29h-120q-2 8 -3.5 22.5t-1.5 26.5q0 62 13 135t32 165l45 208l12 128z" />
<glyph unicode="m" horiz-adv-x="815" d="M170 0h-120q-2 11 -3 24t-1 25q0 60 13 136t37 187l12 128l135 10q-11 -58 -22 -108.5t-20 -94.5q25 59 58.5 105t72.5 72t78 26t65.5 -27.5t18.5 -91.5q-2 -17 -5 -34.5t-7 -34.5q38 83 92 135.5t111 52.5q39 0 65 -27.5t19 -91.5q-7 -55 -20 -111.5t-23.5 -113.5 t-10.5 -113q0 -16 1 -28t3 -25h-120q-2 11 -3 22t-1 29q0 67 17.5 148.5t30.5 166.5q1 22 -7.5 39.5t-24.5 17.5q-23 0 -50.5 -28.5t-53.5 -77.5t-44.5 -110t-21.5 -127v0v-5q-1 -5 -1 -11v-2v-4v-4v-1q0 -16 1 -28t4 -25h-120q-2 11 -3.5 22t-1.5 29q0 67 17.5 148.5 t31.5 166.5q1 22 -7.5 39.5t-25.5 17.5q-23 0 -51.5 -30.5t-55.5 -82t-44.5 -116.5t-18.5 -133v-3v-4v-2q0 -11 0.5 -24.5t3.5 -27.5z" />
<glyph unicode="n" horiz-adv-x="550" d="M170 0h-120q-2 11 -3 24t-1 25q0 60 13 136t37 187l12 128l135 10q-12 -60 -22.5 -111t-19.5 -95q25 60 59.5 106.5t75 73t82.5 26.5q40 0 67 -27.5t19 -91.5q-7 -55 -20 -111.5t-23.5 -114t-10.5 -116.5q0 -11 1 -24t4 -25h-120q-3 17 -4 27.5t-1 32.5q0 63 17 136 t32 169q1 26 -8.5 42t-27.5 16q-25 0 -54 -28t-55.5 -76.5t-45 -109.5t-22.5 -126v-31q0 -11 0.5 -24.5t3.5 -27.5z" />
<glyph unicode="o" horiz-adv-x="539" d="M505 335q0 -61 -23 -122t-64 -111t-96.5 -80t-119.5 -30q-75 0 -121.5 41.5t-46.5 126.5q0 62 23 123.5t64.5 112.5t97 81.5t119.5 30.5q79 0 123 -45.5t44 -127.5zM158 152q0 -52 17.5 -76.5t47.5 -24.5q34 0 63 29t50 74.5t33 97t12 96.5q0 48 -16 75t-48 27 q-34 0 -63 -29t-50.5 -74.5t-33.5 -97t-12 -97.5z" />
<glyph unicode="p" horiz-adv-x="546" d="M243 510q-12 -62 -24 -119t-23 -110q27 66 64.5 118t80 81.5t84.5 29.5q43 0 69 -35t26 -101q0 -50 -16 -103.5t-45.5 -103.5t-72 -90t-96.5 -63.5t-118 -23.5q-17 0 -34 4q-6 -35 -9 -66t-3 -57q0 -12 1 -26.5t4 -29.5h-120q-2 11 -3.5 24.5t-1.5 28.5q0 34 4.5 73.5 t14.5 92.5t26 130l45 208l12 128zM355 429q-24 0 -52 -27.5t-56 -76t-53 -112.5t-42 -138q-1 -8 -3 -14q27 -11 50 -11q40 0 75.5 29t63 75.5t43 98t15.5 96.5q0 36 -11 58t-30 22z" />
<glyph unicode="q" horiz-adv-x="547" d="M26 126q0 50 15.5 103.5t45 103.5t72 90t96.5 63.5t119 23.5q40 0 79.5 -9t70.5 -23q-27 -128 -46.5 -219t-32 -153.5t-20 -104.5t-10 -72.5t-2.5 -58.5q0 -12 0.5 -26t3.5 -29h-120q-2 11 -3 24.5t-1 26.5q0 29 2.5 59t9 69t17 92t26.5 129q-27 -65 -64.5 -116 t-79.5 -80t-83 -29q-44 0 -69.5 35t-25.5 101zM150 152q0 -36 10.5 -58t31.5 -22q24 0 52 28t56.5 78.5t53.5 117.5t42 143v0q-26 12 -49 12q-40 0 -76 -29.5t-63 -76t-42.5 -98t-15.5 -95.5z" />
<glyph unicode="r" horiz-adv-x="400" d="M170 0h-120q-2 11 -3 24t-1 25q0 60 13 136t37 187l12 128l135 10q-12 -61 -23 -113.5t-20 -97.5q18 59 44 107t57.5 76t67.5 28q21 0 39.5 -8t28.5 -17l-49 -99q-10 6 -28 11t-32 5q-31 0 -60 -31.5t-52 -83.5t-36.5 -114.5t-13.5 -125.5q0 -10 1 -22.5t3 -24.5z" />
<glyph unicode="s" horiz-adv-x="426" d="M364 151q0 -47 -30 -83.5t-82 -57t-118 -20.5q-36 0 -76.5 6.5t-67.5 16.5l28 96q26 -16 65 -28t75 -12q40 0 64.5 18t24.5 46q0 30 -26.5 48.5t-62.5 42.5q-32 21 -57.5 48t-25.5 72q0 47 30 84.5t82.5 59.5t121.5 22q31 0 63 -5t55 -13l-28 -96q-26 15 -58 25.5 t-60 10.5q-40 0 -64 -21t-24 -48q0 -26 23 -44.5t51 -37.5q23 -15 45.5 -32t37 -41t14.5 -57z" />
<glyph unicode="t" horiz-adv-x="398" d="M341 76q-36 -41 -82 -63.5t-94 -22.5q-54 0 -84 25t-30 79q0 14 2.5 34t10 56t20.5 96t33 155l-52 2l7 34l67 12v0l58 137l81 6q-8 -40 -16 -75.5t-15 -67.5h155l-17 -54l-148 3q-24 -110 -38 -175.5t-20 -98t-6 -45.5q0 -45 46 -45q32 0 61 20t58 49z" />
<glyph unicode="u" horiz-adv-x="552" d="M96 372l12 128l135 10q-18 -102 -35.5 -182t-29 -133.5t-11.5 -73.5q0 -21 9.5 -32.5t25.5 -11.5q22 0 47 23t49 63.5t44 93.5t32 113q6 31 7.5 44.5t2.5 36.5q0 6 1 24t1 25l135 10q-30 -160 -53.5 -270t-23.5 -187q0 -9 1 -23.5t4 -29.5h-120q-3 17 -4 30.5t-1 25.5 q0 20 1 36t3.5 36.5t9.5 54.5q-39 -88 -96.5 -140.5t-115.5 -52.5q-39 0 -61.5 25t-22.5 77q0 14 2 30.5t8 45t16.5 77t27.5 127.5z" />
<glyph unicode="v" horiz-adv-x="469" d="M85 250q-2 69 -8 134.5t-15 115.5l122 10q7 -41 12 -87.5t7 -94.5q2 -69 -1.5 -141t-9.5 -136h2q44 74 79 154.5t56 157t22 138.5q16 5 30 7t26 2q26 0 41.5 -9.5t15.5 -38.5q0 -32 -18.5 -88t-54 -123t-87.5 -135t-119 -125l-101 9q3 56 3 120.5t-2 129.5z" />
<glyph unicode="w" horiz-adv-x="743" d="M85 246q-2 70 -7.5 136.5t-15.5 117.5l122 10q7 -40 11.5 -88.5t6.5 -98.5q2 -69 -2 -140t-10 -132h2q44 74 78.5 154.5t55 157t21.5 137.5l114 10q8 -39 12.5 -86.5t6.5 -96.5q1 -70 -2.5 -141.5t-10.5 -134.5h2q44 74 79 154.5t55.5 157t20.5 138.5q17 5 31 7t26 2 q25 0 40.5 -9.5t15.5 -38.5q0 -32 -18 -88t-53 -123t-86.5 -135t-119.5 -125l-93 9q5 53 7 118t2 132t-1 126h-1q-11 -43 -30.5 -94.5t-44.5 -104t-55 -101t-61 -85.5l-101 9q3 54 3.5 117.5t-0.5 128.5z" />
<glyph unicode="x" horiz-adv-x="466" d="M-9 32q0 25 24.5 64t67 77.5t95.5 63.5q-18 68 -40.5 135.5t-62.5 127.5l121 10q30 -48 48.5 -104.5t34.5 -116.5q31 41 55 95t31 112q23 14 55 14q24 0 38 -11.5t14 -30.5q0 -25 -24.5 -63t-67 -76.5t-95.5 -63.5q19 -69 41.5 -137t62.5 -128l-121 -10q-30 49 -49 105.5 t-35 115.5q-31 -41 -55.5 -95t-30.5 -112q-24 -14 -55 -14q-25 0 -38.5 11.5t-13.5 30.5z" />
<glyph unicode="y" horiz-adv-x="477" d="M252 2q-47 -58 -99 -102.5t-105 -69.5t-101 -25q-35 0 -56 12.5t-21 38.5q0 15 6.5 30.5t18.5 24.5q17 -6 39 -9t41 -3q34 0 72.5 15t73.5 41.5t57 58.5l-86 5q2 53 2 112t-1 121q-2 67 -8 132.5t-16 115.5l122 10q8 -41 12.5 -87.5t7.5 -94.5q2 -65 -1.5 -132.5 t-10.5 -127.5h2q44 71 79.5 148.5t56.5 151.5t21 133q17 5 31 7t26 2q25 0 40.5 -10t15.5 -37q0 -32 -17 -86.5t-47.5 -119.5t-70 -131.5t-84.5 -123.5z" />
<glyph unicode="z" horiz-adv-x="459" d="M3 -10l-20 31q94 90 174.5 179.5t143.5 175.5q-35 19 -71 27t-62 8t-47.5 -10.5t-35.5 -37.5l-25 8q8 55 25 85t40 42t51 12q42 0 85 -21t81 -53q25 38 46 74q20 0 36.5 -8.5t16.5 -30.5t-19.5 -55t-52 -72t-73 -80.5t-84 -81t-84.5 -72.5q43 -1 74 -11t67 -10 q37 0 66.5 13.5t47.5 50.5l25 -8q-15 -62 -38 -95.5t-52.5 -46.5t-64.5 -13q-31 0 -57.5 7.5t-51 15t-50.5 7.5q-23 0 -44 -6.5t-47 -23.5z" />
<glyph unicode="{" horiz-adv-x="362" d="M130 185q0 26 -16.5 42t-53.5 21l14 65q57 7 82.5 39t25.5 88q0 21 -2.5 39.5t-2.5 41.5q0 63 30 101.5t84.5 55.5t126.5 17l-11 -62q-114 -1 -114 -119q0 -17 1.5 -36.5t1.5 -34.5q0 -68 -41.5 -109.5t-102.5 -53.5q41 -9 66.5 -32t25.5 -59q0 -26 -10.5 -52t-23.5 -52 t-23 -51.5t-10 -48.5q0 -57 80 -58l-15 -62q-98 0 -142 23.5t-44 74.5q0 30 11 59.5t26 57.5t26 54.5t11 50.5z" />
<glyph unicode="|" horiz-adv-x="291" d="M85 -202l-72 -3l191 897l71 3z" />
<glyph unicode="}" horiz-adv-x="361" d="M244 375q0 -26 16.5 -42t53.5 -20l-14 -65q-57 -8 -82.5 -40t-25.5 -87q0 -22 2.5 -40.5t2.5 -40.5q0 -64 -30.5 -102.5t-84.5 -55.5t-126 -17l11 62q114 1 114 120q0 16 -1.5 35.5t-1.5 34.5q0 68 41.5 109.5t101.5 53.5q-40 9 -65.5 32t-25.5 60q0 25 10 51t23 52 t23.5 51.5t10.5 48.5q0 57 -80 58l15 62q97 0 141.5 -23.5t44.5 -74.5q0 -30 -11.5 -59.5t-26 -57.5t-25.5 -54.5t-11 -50.5z" />
<glyph unicode="~" horiz-adv-x="602" d="M187 248q-8 0 -26.5 -17t-40.5 -40l-38 21q17 25 38.5 53t44.5 48t44 20q17 0 47 -8t63 -18.5t60.5 -18.5t41.5 -8q7 0 25.5 17t42.5 41l37 -21q-17 -25 -38.5 -53.5t-44 -48t-43.5 -19.5q-18 0 -48 7.5t-63.5 18t-61.5 18.5t-40 8z" />
<glyph unicode="&#xa1;" horiz-adv-x="283" d="M123 443q0 20 11.5 38.5t31.5 30.5t44 12q22 0 35 -11t13 -30q0 -20 -12.5 -39t-32.5 -31t-43 -12q-21 0 -34 10.5t-13 31.5zM118 338h81q-15 -81 -30.5 -168.5t-29.5 -173t-23 -162.5l-126 -10q4 27 11 62.5t14 70.5q20 92 47.5 193t55.5 188z" />
<glyph unicode="&#xa2;" horiz-adv-x="452" d="M166 -122l23 112q-70 2 -112 44.5t-43 128.5q0 63 22 122.5t60.5 108.5t90 79.5t111.5 35.5l24 111l38 3l-24 -114q27 -2 51 -10t44 -20l-33 -99q-44 63 -95 63q-33 0 -62.5 -24t-52.5 -63.5t-36.5 -86t-13.5 -90.5q0 -53 19 -85t62 -32q35 0 71.5 22t68.5 53l3 -61 q-30 -33 -70.5 -55t-83.5 -28l-24 -112z" />
<glyph unicode="&#xa3;" horiz-adv-x="519" d="M443 286l-143 3l-5 -17q-22 -69 -60.5 -134.5t-93.5 -105.5q42 -27 93 -53t121 -26q19 0 41.5 3t41.5 10l-53 -93q-9 -4 -24 -6t-30 -2q-54 0 -99 21.5t-82 53t-69 60.5q-31 -10 -62 -10q-39 0 -50 12.5t-7 32.5q4 23 23 35.5t43 12.5q17 0 34 -6.5t34 -16.5 q19 25 36.5 62.5t31.5 90.5l19 79l-93 2l12 35l93 12v0q26 101 64 176.5t94 118t137 42.5q37 0 64 -7.5t43 -16.5l-46 -85q-15 16 -36 28.5t-45 12.5q-37 0 -63 -30.5t-47 -90t-45 -148.5h149z" />
<glyph unicode="&#xa4;" horiz-adv-x="473" d="M359 67l-51 72q-25 -19 -54 -29.5t-60 -10.5q-28 0 -49.5 8t-37.5 22l-72 -63l-22 31l72 63q-15 29 -15 68q0 43 18.5 84t49.5 72l-48 68l33 28q11 -15 23.5 -32t25.5 -36q23 16 50 25t55 9q29 0 51 -10t38 -26l80 71l23 -31l-82 -72q13 -28 13 -63q0 -40 -16 -77.5 t-42 -67.5q15 -21 28.5 -39t24.5 -32zM129 241q0 -36 19.5 -62t60.5 -26q39 0 68.5 22.5t46.5 56.5t17 70t-20 61t-60 25q-38 0 -67.5 -21.5t-47 -55t-17.5 -70.5z" />
<glyph unicode="&#xa5;" horiz-adv-x="542" d="M52 107l9 41h130l12 59h-129l9 42h112l-85 401l118 10l58 -351h2l208 351l108 -10l-255 -401h111l-9 -42h-129l-12 -59h128l-8 -41h-129l-23 -107h-118l22 107h-130z" />
<glyph unicode="&#xa6;" horiz-adv-x="291" d="M201 348l-71 -4l74 348l71 3zM85 -202l-72 -3l75 352l71 4z" />
<glyph unicode="&#xa7;" horiz-adv-x="528" d="M442 100q0 -77 -38.5 -138t-105 -96.5t-149.5 -35.5q-44 0 -88 10t-71 26l33 107q17 -15 50.5 -29t64.5 -14q44 0 69.5 32.5t25.5 71.5q0 32 -15.5 61t-38 58t-45 62.5t-37.5 74t-15 91.5q0 76 38 139.5t105.5 101.5t156.5 38q39 0 77 -8t62 -21l-40 -105q-15 11 -41 23 t-53 12q-31 0 -52 -16t-32 -41t-11 -52q0 -34 15 -64t37.5 -60t45 -63.5t37.5 -73.5t15 -91zM206 -104v-3q78 18 123 70.5t45 123.5q0 45 -16 81t-39 67.5t-46.5 62.5t-39 64t-15.5 74q0 52 31 93t70 62v3q-74 -19 -119 -73.5t-45 -127.5q0 -45 14.5 -81.5t36.5 -67.5 t44 -61t37 -62t15 -70q0 -37 -16 -67.5t-38.5 -52.5t-41.5 -35z" />
<glyph unicode="&#xa8;" horiz-adv-x="441" d="M271 672q-2 -31 -28 -55t-60 -23q-24 0 -37 13t-12 35q2 30 28.5 54t61.5 25q23 0 36 -13t11 -36zM478 672q-2 -31 -28 -55t-60 -23q-24 0 -37 13t-12 35q2 30 28.5 54t61.5 25q23 0 35.5 -13t11.5 -36z" />
<glyph unicode="&#xa9;" horiz-adv-x="638" d="M43 184q0 67 27.5 130t75 113t108 79.5t126.5 29.5q64 0 112 -28t75.5 -78t27.5 -115q0 -67 -28 -129.5t-75.5 -112.5t-108.5 -79.5t-128 -29.5q-64 0 -111.5 28t-74 77.5t-26.5 114.5zM264 0q58 0 111 26.5t94 70.5t65 98.5t24 111.5q0 55 -23.5 98.5t-65.5 69t-97 25.5 q-58 0 -110.5 -26t-93.5 -70.5t-64.5 -99.5t-23.5 -113q0 -56 22.5 -99t64 -67.5t97.5 -24.5zM389 156l-2 -54q-23 -9 -47 -13t-45 -4q-62 0 -94 31.5t-32 90.5q0 55 25.5 105t70.5 82.5t103 32.5q24 0 46.5 -5.5t37.5 -13.5l-23 -57q-11 7 -28.5 13t-36.5 6q-37 0 -62 -23 t-37.5 -57.5t-12.5 -68.5q0 -37 16.5 -57.5t54.5 -20.5q18 0 38 4t28 9z" />
<glyph unicode="&#xaa;" horiz-adv-x="476" d="M107 466q0 44 18 92t52.5 89t83.5 66.5t110 25.5q33 0 64 -7t57 -17l-29 -127q-7 -31 -15.5 -76t-8.5 -92q0 -24 4 -48h-99q-2 12 -3 22.5t-1 23.5q0 39 10 96q-31 -65 -77 -107t-92 -42q-34 0 -54 26.5t-20 74.5zM208 486q0 -25 8 -39.5t22 -15.5q22 1 48 29.5t50 77.5 t42 110q3 16 8 36q-19 8 -35 8q-29 0 -55 -20.5t-45.5 -52.5t-31 -67.5t-11.5 -65.5z" />
<glyph unicode="&#xab;" horiz-adv-x="513" d="M262 271l6 31q60 46 114.5 94t111.5 107l21 -15q-34 -55 -74.5 -105.5t-79.5 -96.5q20 -46 39 -97t29 -105l-27 -14q-33 58 -66.5 106t-73.5 95zM54 271l6 31q60 46 114.5 94t111.5 107l21 -15q-34 -55 -74.5 -105.5t-79.5 -96.5q20 -46 39 -97t29 -105l-27 -14 q-33 58 -66.5 106t-73.5 95z" />
<glyph unicode="&#xac;" horiz-adv-x="587" d="M505 383l-50 -236h-85l32 152h-301l17 79q32 1 82 2t107 1.5t109.5 1t88.5 0.5z" />
<glyph unicode="&#xae;" horiz-adv-x="638" d="M43 184q0 67 27.5 130t75 113t108 79.5t126.5 29.5q64 0 112 -28t75.5 -78t27.5 -115q0 -67 -28 -129.5t-75.5 -112.5t-108.5 -79.5t-128 -29.5q-64 0 -111.5 28t-74 77.5t-26.5 114.5zM264 0q58 0 111 26.5t94 70.5t65 98.5t24 111.5q0 55 -23.5 98.5t-65.5 69t-97 25.5 q-58 0 -110.5 -26t-93.5 -70.5t-64.5 -99.5t-23.5 -113q0 -56 22.5 -99t64 -67.5t97.5 -24.5zM250 89h-74l57 268l8 64h110q54 0 83 -22.5t29 -63.5t-24.5 -71t-62.5 -46l47 -129l-80 -5l-32 120h-12h-25zM328 378h-17l-28 -131h18q41 0 63.5 26.5t22.5 57.5q0 27 -17 37 t-42 10z" />
<glyph unicode="&#xaf;" horiz-adv-x="346" d="M130 624l16 73h245l-16 -73h-245z" />
<glyph unicode="&#xb0;" horiz-adv-x="348" d="M338 473q0 -41 -21.5 -78.5t-57 -61t-78.5 -23.5q-44 0 -69 26t-25 71q0 41 20.5 78t56 60.5t78.5 23.5q45 0 70.5 -26t25.5 -70zM140 419q0 -27 15 -44t40 -17q26 0 46 15.5t31.5 39t11.5 48.5q0 27 -14.5 43.5t-39.5 16.5q-26 0 -46.5 -15t-32 -38.5t-11.5 -48.5z" />
<glyph unicode="&#xb1;" horiz-adv-x="563" d="M490 340h-146l-29 -138h-86l29 138h-148l17 78q26 0 65 1t82 1l30 141h87l-30 -140q43 1 81.5 1h66.5zM426 43h-380l17 78q32 1 82 1.5t106 1t107.5 1t86.5 0.5z" />
<glyph unicode="&#xb2;" horiz-adv-x="385" d="M333 372h-246l2 48q30 18 66.5 45t70 57.5t55.5 60.5t22 55q0 20 -15 31t-41 11q-24 0 -49.5 -9.5t-46.5 -24.5l2 59q23 11 59 20.5t73 9.5q50 0 79 -21t29 -57q0 -32 -22 -63t-58 -59t-79 -52.5t-86 -44.5h80q62 0 124 9z" />
<glyph unicode="&#xb3;" horiz-adv-x="362" d="M346 481q0 -35 -25 -60.5t-65 -39.5t-87 -14q-53 0 -91 13l16 48q13 -7 31 -11t36 -4q42 0 69 21t27 48q0 26 -23 36.5t-49 10.5q-10 0 -20.5 -1.5t-16.5 -2.5l5 30q35 8 65 22t48.5 32t18.5 37q0 16 -14 25t-38 9q-20 0 -42.5 -6t-42.5 -16l6 51q19 9 51.5 17.5 t66.5 8.5q47 0 74 -18t27 -50q0 -40 -41 -67.5t-96 -40.5q48 -2 79 -20.5t31 -57.5z" />
<glyph unicode="&#xb4;" horiz-adv-x="286" d="M329 691q-43 -42 -90.5 -73.5t-91.5 -52.5l-22 34q36 35 73 74.5t69 81.5z" />
<glyph unicode="&#xb6;" horiz-adv-x="603" d="M173 -108q51 0 84 21.5t51.5 53t28 63t13.5 51.5l98 461l11 50h-56l-88 -409h-29q-28 0 -61 7.5t-62 27.5t-47.5 55t-18.5 91q0 58 23 110t64 91.5t95.5 62t117.5 22.5h167l-23 -108l-94 -446q-28 -130 -98 -198t-178 -68q-36 0 -75.5 7t-70.5 18l20 65 q33 -13 65.5 -20.5t62.5 -7.5z" />
<glyph unicode="&#xb7;" horiz-adv-x="251" d="M111 193q-20 0 -32.5 12t-12.5 32q0 29 23.5 53t54.5 24q20 0 31.5 -11t11.5 -30q0 -29 -22.5 -54.5t-53.5 -25.5z" />
<glyph unicode="&#xb8;" horiz-adv-x="269" d="M52 -117q6 28 -50 39l45 78h41l-26 -45q45 -6 67 -24t16 -44q-9 -40 -59.5 -62t-128.5 -23l4 36q36 4 61 15t30 30z" />
<glyph unicode="&#xb9;" horiz-adv-x="300" d="M221 372h-84l66 305l-67 -25l-4 39l160 44l5 -4z" />
<glyph unicode="&#xba;" horiz-adv-x="464" d="M479 608q0 -44 -17.5 -87t-49 -78t-74 -56t-91.5 -21q-60 0 -97 31.5t-37 95.5q0 44 17.5 87.5t49.5 79.5t74.5 57.5t91.5 21.5q63 0 98 -35.5t35 -95.5zM215 486q0 -38 13 -55t35 -17q25 0 46 20t36 52t23.5 67.5t8.5 66.5q0 71 -47 71q-25 0 -46 -20t-36.5 -51.5 t-24 -67t-8.5 -66.5z" />
<glyph unicode="&#xbb;" horiz-adv-x="513" d="M267 302l-6 -31q-60 -47 -114.5 -95t-111.5 -106l-22 14q35 55 75 105.5t79 96.5q-20 46 -38.5 97t-28.5 105l27 15q33 -59 66.5 -107t73.5 -94zM475 302l-6 -31q-60 -47 -114.5 -95t-111.5 -106l-21 14q34 55 74 105.5t79 96.5q-20 46 -38.5 97t-28.5 105l27 15 q33 -59 66.5 -107t73.5 -94z" />
<glyph unicode="&#xbc;" horiz-adv-x="844" d="M166 -10h-70l514 670h71zM204 292h-84l66 305l-67 -25l-4 39l160 44l5 -4zM633 0h-84l14 65h-161l2 35l246 263l59 -5l-48 -228q28 2 54 5l-19 -70h-49zM575 127h2l35 157l-157 -157h120z" />
<glyph unicode="&#xbd;" horiz-adv-x="847" d="M166 -10h-70l514 670h71zM204 292h-84l66 305l-67 -25l-4 39l160 44l5 -4zM716 0h-246l1 48q30 18 66.5 45t70.5 57.5t55.5 60.5t21.5 55q0 20 -15 31t-40 11q-24 0 -49.5 -9.5t-47.5 -24.5l3 59q23 11 58.5 20.5t72.5 9.5q50 0 79 -21t29 -57q0 -32 -22 -63t-57.5 -59 t-79 -52.5t-86.5 -44.5h80q63 0 125 9z" />
<glyph unicode="&#xbe;" horiz-adv-x="882" d="M230 -10h-70l514 670h71zM329 401q0 -35 -25 -60.5t-65 -39.5t-87 -14q-53 0 -91 13l16 48q13 -7 31 -11t36 -4q42 0 69 21t27 48q0 26 -23 36.5t-49 10.5q-10 0 -20.5 -1.5t-16.5 -2.5l5 30q35 8 65 22t48.5 32t18.5 37q0 16 -14 25t-38 9q-20 0 -42.5 -6t-42.5 -16 l6 51q19 9 51.5 17.5t66.5 8.5q47 0 74 -18t27 -50q0 -40 -41 -67.5t-96 -40.5q48 -2 79 -20.5t31 -57.5zM706 0h-84l14 65h-161l2 35l246 263l59 -5l-48 -228q28 2 54 5l-19 -70h-49zM648 127h2l35 157l-157 -157h120z" />
<glyph unicode="&#xbf;" horiz-adv-x="490" d="M253 443q0 20 12 38.5t32 30.5t43 12q22 0 35 -11t13 -30q0 -20 -12.5 -39t-32.5 -31t-43 -12q-21 0 -34 10.5t-13 31.5zM247 333h81q3 -13 2 -33t-4 -34q-8 -35 -29 -64t-47.5 -54.5t-53 -50t-46 -50t-25.5 -53.5q-8 -40 13.5 -61t54.5 -21t74 17t77 48l32 -67 q-45 -37 -102.5 -62t-118.5 -25q-54 0 -91.5 21t-54 59.5t-5.5 89.5q10 47 35 80.5t56.5 59.5t62 49.5t53 49t29.5 58.5q1 8 3 21t4 22z" />
<glyph unicode="&#xc0;" horiz-adv-x="574" d="M513 750l-19 -36q-45 11 -94.5 33t-94.5 56l61 77q33 -38 71 -70.5t76 -59.5zM84 0h-112l266 526l60 125l155 9l43 -660h-117l-7 154h-216zM352 566l-165 -347h182l-16 347h-1z" />
<glyph unicode="&#xc1;" horiz-adv-x="574" d="M518 804q-51 -34 -104.5 -56t-100.5 -33l-15 36q41 27 83 59.5t80 70.5zM84 0h-112l266 526l60 125l155 9l43 -660h-117l-7 154h-216zM352 566l-165 -347h182l-16 347h-1z" />
<glyph unicode="&#xc2;" horiz-adv-x="574" d="M280 720l-27 19q32 28 62.5 59t56.5 64l96 8q12 -34 29 -66.5t41 -64.5l-35 -19q-55 33 -96 79q-60 -46 -127 -79zM84 0h-112l266 526l60 125l155 9l43 -660h-117l-7 154h-216zM352 566l-165 -347h182l-16 347h-1z" />
<glyph unicode="&#xc3;" horiz-adv-x="574" d="M366 859q24 0 40.5 -11t31 -21.5t33.5 -10.5t34 13t30 34l28 -7q-9 -29 -25.5 -56t-38.5 -44t-50 -17q-23 0 -40.5 10.5t-33 21t-32.5 10.5t-32.5 -12t-31.5 -35l-28 7q8 28 24 55t38.5 45t52.5 18zM84 0h-112l266 526l60 125l155 9l43 -660h-117l-7 154h-216zM352 566 l-165 -347h182l-16 347h-1z" />
<glyph unicode="&#xc4;" horiz-adv-x="574" d="M372 819q0 -33 -26.5 -59t-62.5 -25q-22 0 -35.5 11.5t-13.5 31.5t12.5 39.5t33 32t45.5 12.5q21 0 34 -11t13 -32zM580 819q0 -21 -12 -40.5t-32 -32t-44 -11.5q-23 0 -36 11t-13 32q0 20 12 39t32.5 32t45.5 13q21 0 34 -11t13 -32zM84 0h-112l266 526l60 125l155 9 l43 -660h-117l-7 154h-216zM352 566l-165 -347h182l-16 347h-1z" />
<glyph unicode="&#xc5;" horiz-adv-x="574" d="M507 824q0 -31 -18 -56.5t-46.5 -41t-61.5 -15.5q-36 0 -54.5 18t-18.5 46q0 29 17.5 54.5t47 42t63.5 16.5t52.5 -17.5t18.5 -46.5zM363 789q0 -14 8.5 -22t23.5 -8q22 0 39.5 16t17.5 36q0 14 -9.5 21.5t-22.5 7.5q-21 0 -39 -15.5t-18 -35.5zM84 0h-112l266 526 l60 125l155 9l43 -660h-117l-7 154h-216zM352 566l-165 -347h182l-16 347h-1z" />
<glyph unicode="&#xc6;" horiz-adv-x="816" d="M84 0h-112l348 526l67 124h423l-25 -80l-239 6l-20 -218l206 4l-24 -76l-188 3l-19 -215l234 7l-19 -81h-338l20 154h-215zM451 566l-226 -347h181l46 347h-1z" />
<glyph unicode="&#xc7;" horiz-adv-x="521" d="M241 -117q6 28 -50 39l41 71q-86 12 -130 70t-44 160q0 81 27 159t77 140.5t117.5 100t147.5 37.5q39 0 78 -8t63 -19l-36 -100q-20 18 -52.5 31.5t-66.5 13.5q-53 0 -94.5 -31t-69.5 -81.5t-42.5 -109.5t-14.5 -115q0 -78 30 -121.5t97 -43.5q36 0 69 11.5t55 25.5 l-5 -87q-74 -36 -161 -36h-6l-20 -35q45 -6 67 -24t16 -44q-9 -40 -59.5 -62t-128.5 -23l4 36q36 4 61 15t30 30z" />
<glyph unicode="&#xc8;" d="M486 750l-19 -36q-45 11 -94.5 33t-94.5 56l61 77q33 -38 71 -70.5t76 -59.5zM394 0h-348l111 523l18 127h352l-25 -80l-215 7l-47 -219l172 4l-23 -76l-163 3l-46 -216l233 8z" />
<glyph unicode="&#xc9;" d="M491 804q-51 -34 -104.5 -56t-100.5 -33l-15 36q41 27 83 59.5t80 70.5zM394 0h-348l111 523l18 127h352l-25 -80l-215 7l-47 -219l172 4l-23 -76l-163 3l-46 -216l233 8z" />
<glyph unicode="&#xca;" d="M253 720l-27 19q32 28 62.5 59t56.5 64l96 8q12 -34 29 -66.5t41 -64.5l-35 -19q-55 33 -96 79q-60 -46 -127 -79zM394 0h-348l111 523l18 127h352l-25 -80l-215 7l-47 -219l172 4l-23 -76l-163 3l-46 -216l233 8z" />
<glyph unicode="&#xcb;" d="M345 819q0 -33 -26.5 -59t-62.5 -25q-22 0 -35.5 11.5t-13.5 31.5t12.5 39.5t33 32t45.5 12.5q21 0 34 -11t13 -32zM553 819q0 -21 -12 -40.5t-32 -32t-44 -11.5q-23 0 -36 11t-13 32q0 20 12 39t33 32t45 13q21 0 34 -11t13 -32zM394 0h-348l111 523l18 127h352l-25 -80 l-215 7l-47 -219l172 4l-23 -76l-163 3l-46 -216l233 8z" />
<glyph unicode="&#xcc;" horiz-adv-x="308" d="M375 750l-19 -36q-45 11 -94.5 33t-94.5 56l62 77q33 -38 71 -70.5t75 -59.5zM165 0h-119l112 528l17 122l130 10z" />
<glyph unicode="&#xcd;" horiz-adv-x="308" d="M381 804q-51 -34 -105 -56t-100 -33l-16 36q41 27 83 59.5t81 70.5zM165 0h-119l112 528l17 122l130 10z" />
<glyph unicode="&#xce;" horiz-adv-x="308" d="M143 720l-27 19q31 28 61.5 59t57.5 64l96 8q12 -34 28.5 -66.5t40.5 -64.5l-35 -19q-55 33 -95 79q-60 -46 -127 -79zM165 0h-119l112 528l17 122l130 10z" />
<glyph unicode="&#xcf;" horiz-adv-x="370" d="M276 803q0 -21 -11 -40.5t-30 -31.5t-41 -12q-21 0 -33 11.5t-12 32.5q0 30 24.5 56.5t59.5 27.5q19 0 31 -11.5t12 -32.5zM432 803q0 -21 -11.5 -40.5t-30 -31.5t-40.5 -12q-21 0 -33 11.5t-12 31.5q0 31 25 57.5t58 27.5q20 0 32 -11.5t12 -32.5zM193 0h-119l112 528 l17 122l130 10z" />
<glyph unicode="&#xd0;" horiz-adv-x="630" d="M158 528l17 122h182q43 0 86 -10t78.5 -35.5t57.5 -72.5t22 -121q0 -76 -25 -149.5t-73 -132.5t-119 -94t-163 -35h-175l63 300h-58l9 51h60zM379 300h-151l-47 -224h45q63 0 109.5 31.5t76.5 82.5t44.5 109.5t14.5 111.5q0 60 -16.5 94t-42 48.5t-53 18t-50.5 3.5h-23 l-47 -224h150z" />
<glyph unicode="&#xd1;" horiz-adv-x="646" d="M399 859q25 0 41.5 -11t31 -21.5t33.5 -10.5t33.5 13t30.5 34l27 -7q-9 -29 -25 -56t-38.5 -44t-49.5 -17q-23 0 -40.5 10.5t-33 21t-33.5 10.5q-16 0 -32 -12t-32 -35l-28 7q9 28 24.5 55t38.5 45t52 18zM158 528l17 122l103 10l169 -502h2l95 492l99 10l-140 -660h-106 l-160 483h-2l-93 -483h-96z" />
<glyph unicode="&#xd2;" horiz-adv-x="631" d="M538 750l-19 -36q-45 11 -94.5 33t-94.5 56l62 77q33 -38 71 -70.5t75 -59.5zM607 435q0 -79 -25.5 -157.5t-73 -143.5t-112.5 -104.5t-145 -39.5q-93 0 -144 57.5t-51 167.5q0 62 16.5 125.5t48 121t75 102t98.5 70.5t119 26q93 0 143.5 -58.5t50.5 -166.5zM187 203 q0 -68 23 -107t69 -39q36 0 66.5 26t54.5 69.5t41 96t26 105t9 97.5q0 67 -22.5 104.5t-66.5 37.5q-37 0 -68 -26t-55 -68.5t-41.5 -94.5t-26.5 -104.5t-9 -96.5z" />
<glyph unicode="&#xd3;" horiz-adv-x="631" d="M544 804q-51 -34 -105 -56t-100 -33l-16 36q41 27 83 59.5t81 70.5zM607 435q0 -79 -25.5 -157.5t-73 -143.5t-112.5 -104.5t-145 -39.5q-93 0 -144 57.5t-51 167.5q0 62 16.5 125.5t48 121t75 102t98.5 70.5t119 26q93 0 143.5 -58.5t50.5 -166.5zM187 203 q0 -68 23 -107t69 -39q36 0 66.5 26t54.5 69.5t41 96t26 105t9 97.5q0 67 -22.5 104.5t-66.5 37.5q-37 0 -68 -26t-55 -68.5t-41.5 -94.5t-26.5 -104.5t-9 -96.5z" />
<glyph unicode="&#xd4;" horiz-adv-x="631" d="M306 720l-27 19q31 28 61.5 59t57.5 64l96 8q12 -34 28.5 -66.5t40.5 -64.5l-35 -19q-55 33 -95 79q-60 -46 -127 -79zM607 435q0 -79 -25.5 -157.5t-73 -143.5t-112.5 -104.5t-145 -39.5q-93 0 -144 57.5t-51 167.5q0 62 16.5 125.5t48 121t75 102t98.5 70.5t119 26 q93 0 143.5 -58.5t50.5 -166.5zM187 203q0 -68 23 -107t69 -39q36 0 66.5 26t54.5 69.5t41 96t26 105t9 97.5q0 67 -22.5 104.5t-66.5 37.5q-37 0 -68 -26t-55 -68.5t-41.5 -94.5t-26.5 -104.5t-9 -96.5z" />
<glyph unicode="&#xd5;" horiz-adv-x="631" d="M391 859q25 0 41.5 -11t31 -21.5t33.5 -10.5t33.5 13t30.5 34l27 -7q-9 -29 -25 -56t-38.5 -44t-49.5 -17q-23 0 -40.5 10.5t-33 21t-33.5 10.5q-16 0 -32 -12t-32 -35l-28 7q9 28 24.5 55t38.5 45t52 18zM607 435q0 -79 -25.5 -157.5t-73 -143.5t-112.5 -104.5 t-145 -39.5q-93 0 -144 57.5t-51 167.5q0 62 16.5 125.5t48 121t75 102t98.5 70.5t119 26q93 0 143.5 -58.5t50.5 -166.5zM187 203q0 -68 23 -107t69 -39q36 0 66.5 26t54.5 69.5t41 96t26 105t9 97.5q0 67 -22.5 104.5t-66.5 37.5q-37 0 -68 -26t-55 -68.5t-41.5 -94.5 t-26.5 -104.5t-9 -96.5z" />
<glyph unicode="&#xd6;" horiz-adv-x="631" d="M397 819q0 -33 -26 -59t-62 -25q-23 0 -36 11.5t-13 31.5t12.5 39.5t33 32t44.5 12.5q21 0 34 -11t13 -32zM606 819q0 -21 -12.5 -40.5t-32.5 -32t-44 -11.5q-22 0 -35.5 11t-13.5 32q0 20 12.5 39t33 32t45.5 13q21 0 34 -11t13 -32zM607 435q0 -79 -25.5 -157.5 t-73 -143.5t-112.5 -104.5t-145 -39.5q-93 0 -144 57.5t-51 167.5q0 62 16.5 125.5t48 121t75 102t98.5 70.5t119 26q93 0 143.5 -58.5t50.5 -166.5zM187 203q0 -68 23 -107t69 -39q36 0 66.5 26t54.5 69.5t41 96t26 105t9 97.5q0 67 -22.5 104.5t-66.5 37.5q-37 0 -68 -26 t-55 -68.5t-41.5 -94.5t-26.5 -104.5t-9 -96.5z" />
<glyph unicode="&#xd7;" horiz-adv-x="551" d="M376 127l-97 138l-154 -134l-45 58l156 137l-99 142l66 56q19 -24 45.5 -60.5t56.5 -76.5l152 134l46 -60l-155 -135q29 -41 55.5 -77.5t44.5 -61.5l-3 -9z" />
<glyph unicode="&#xd8;" horiz-adv-x="631" d="M607 435q0 -79 -25.5 -157.5t-73 -143.5t-112.5 -104.5t-145 -39.5q-103 0 -153 69l-88 -86l-33 37l96 95q-17 47 -17 110q0 62 16.5 125.5t48 121t75 102t98.5 70.5t118 26q105 0 155 -72l87 86l35 -36l-99 -97q17 -45 17 -106zM387 593q-36 0 -66 -24.5t-54 -65 t-41.5 -90t-27 -101t-11.5 -95.5l285 279q-6 46 -27.5 71.5t-57.5 25.5zM279 57q34 0 63 24t52.5 64t41 88.5t27.5 99.5t12 95l-284 -278q8 -44 30 -68.5t58 -24.5z" />
<glyph unicode="&#xd9;" horiz-adv-x="637" d="M545 750l-19 -36q-45 11 -94.5 33t-94.5 56l62 77q33 -38 71 -70.5t75 -59.5zM285 62q52 0 87 41.5t50 114.5l65 310l17 122l130 10l-93 -433q-16 -77 -57 -130t-98.5 -80t-123.5 -27q-84 0 -131 41.5t-47 118.5q0 12 1 25.5t5.5 36t12.5 61t21 100t33 155.5l18 122 l130 10q-29 -133 -47.5 -219.5t-29.5 -139t-16.5 -80.5t-7 -42.5t-1.5 -27.5q0 -39 20.5 -64t61.5 -25z" />
<glyph unicode="&#xda;" horiz-adv-x="637" d="M551 804q-51 -34 -105 -56t-100 -33l-16 36q41 27 83 59.5t81 70.5zM285 62q52 0 87 41.5t50 114.5l65 310l17 122l130 10l-93 -433q-16 -77 -57 -130t-98.5 -80t-123.5 -27q-84 0 -131 41.5t-47 118.5q0 12 1 25.5t5.5 36t12.5 61t21 100t33 155.5l18 122l130 10 q-29 -133 -47.5 -219.5t-29.5 -139t-16.5 -80.5t-7 -42.5t-1.5 -27.5q0 -39 20.5 -64t61.5 -25z" />
<glyph unicode="&#xdb;" horiz-adv-x="637" d="M313 720l-27 19q31 28 61.5 59t57.5 64l96 8q12 -34 28.5 -66.5t40.5 -64.5l-35 -19q-55 33 -95 79q-60 -46 -127 -79zM285 62q52 0 87 41.5t50 114.5l65 310l17 122l130 10l-93 -433q-16 -77 -57 -130t-98.5 -80t-123.5 -27q-84 0 -131 41.5t-47 118.5q0 12 1 25.5 t5.5 36t12.5 61t21 100t33 155.5l18 122l130 10q-29 -133 -47.5 -219.5t-29.5 -139t-16.5 -80.5t-7 -42.5t-1.5 -27.5q0 -39 20.5 -64t61.5 -25z" />
<glyph unicode="&#xdc;" horiz-adv-x="637" d="M404 819q0 -33 -26 -59t-62 -25q-23 0 -36 11.5t-13 31.5t12.5 39.5t33 32t44.5 12.5q21 0 34 -11t13 -32zM613 819q0 -21 -12.5 -40.5t-32.5 -32t-44 -11.5q-22 0 -35.5 11t-13.5 32q0 20 12.5 39t33 32t45.5 13q21 0 34 -11t13 -32zM285 62q52 0 87 41.5t50 114.5 l65 310l17 122l130 10l-93 -433q-16 -77 -57 -130t-98.5 -80t-123.5 -27q-84 0 -131 41.5t-47 118.5q0 12 1 25.5t5.5 36t12.5 61t21 100t33 155.5l18 122l130 10q-29 -133 -47.5 -219.5t-29.5 -139t-16.5 -80.5t-7 -42.5t-1.5 -27.5q0 -39 20.5 -64t61.5 -25z" />
<glyph unicode="&#xdd;" horiz-adv-x="542" d="M501 804q-51 -34 -105 -56t-100 -33l-16 36q41 27 83 59.5t81 70.5zM278 0h-118l43 207l-93 443l118 10l58 -351h2l208 351l108 -10l-281 -443h-1z" />
<glyph unicode="&#xde;" horiz-adv-x="549" d="M165 0h-119l112 528l17 122h128l-20 -94h41q38 0 75.5 -7t67.5 -25t48.5 -51.5t18.5 -86.5q0 -76 -36.5 -138t-105.5 -99t-166 -37h-38zM301 486h-33l-65 -304h39q43 0 75 18t52.5 48t31 65t10.5 69q0 61 -30.5 82.5t-79.5 21.5z" />
<glyph unicode="&#xdf;" horiz-adv-x="564" d="M-74 -195l-19 44q41 23 64 49t35 56t19 65l87 409l-59 1l7 34l62 12l1 7q16 76 53.5 123t88 68.5t105.5 21.5q67 0 112 -30t44 -91q1 -62 -44.5 -109t-112.5 -72q58 -32 94.5 -84.5t36.5 -120.5q0 -64 -30.5 -108t-77.5 -67t-97 -23q-25 0 -56.5 5.5t-46.5 14.5l14 67 q10 -7 32 -13.5t40 -6.5q38 0 68.5 34.5t30.5 91.5q0 37 -13 72.5t-34 64.5t-45 48l8 41q51 24 86 64t35 91q0 29 -15 46.5t-42 17.5q-42 0 -70 -37t-40 -94l-103 -483q-11 -48 -34.5 -89.5t-67.5 -72t-116 -47.5z" />
<glyph unicode="&#xe0;" horiz-adv-x="557" d="M464 599l-22 -33q-39 20 -78.5 52t-72.5 74l61 63q25 -42 53.5 -81.5t58.5 -74.5zM26 126q0 50 15.5 103.5t45 103.5t72 90t96.5 63.5t119 23.5q40 0 79.5 -9t70.5 -23l-40 -175q-10 -46 -22.5 -111.5t-12.5 -135.5q0 -12 1 -26.5t4 -29.5h-120q-2 12 -3.5 24t-1.5 30 q0 33 4 70t14 87q-28 -64 -65 -114t-79 -78.5t-82 -28.5q-44 0 -69.5 35t-25.5 101zM150 152q0 -36 10.5 -58t30.5 -22q30 0 66.5 43.5t71 118.5t58.5 168q4 17 9 38q-27 11 -49 11q-40 0 -76 -29.5t-63 -76t-42.5 -98t-15.5 -95.5z" />
<glyph unicode="&#xe1;" horiz-adv-x="557" d="M480 691q-44 -42 -91.5 -73.5t-91.5 -52.5l-22 34q37 35 73.5 74.5t69.5 81.5zM26 126q0 50 15.5 103.5t45 103.5t72 90t96.5 63.5t119 23.5q40 0 79.5 -9t70.5 -23l-40 -175q-10 -46 -22.5 -111.5t-12.5 -135.5q0 -12 1 -26.5t4 -29.5h-120q-2 12 -3.5 24t-1.5 30 q0 33 4 70t14 87q-28 -64 -65 -114t-79 -78.5t-82 -28.5q-44 0 -69.5 35t-25.5 101zM150 152q0 -36 10.5 -58t30.5 -22q30 0 66.5 43.5t71 118.5t58.5 168q4 17 9 38q-27 11 -49 11q-40 0 -76 -29.5t-63 -76t-42.5 -98t-15.5 -95.5z" />
<glyph unicode="&#xe2;" horiz-adv-x="557" d="M284 561l-33 22q30 35 58.5 72.5t54.5 77.5l94 8q8 -41 19 -80t28 -78l-42 -22q-21 21 -37.5 47.5t-29.5 55.5q-27 -29 -54.5 -55.5t-57.5 -47.5zM26 126q0 50 15.5 103.5t45 103.5t72 90t96.5 63.5t119 23.5q40 0 79.5 -9t70.5 -23l-40 -175q-10 -46 -22.5 -111.5 t-12.5 -135.5q0 -12 1 -26.5t4 -29.5h-120q-2 12 -3.5 24t-1.5 30q0 33 4 70t14 87q-28 -64 -65 -114t-79 -78.5t-82 -28.5q-44 0 -69.5 35t-25.5 101zM150 152q0 -36 10.5 -58t30.5 -22q30 0 66.5 43.5t71 118.5t58.5 168q4 17 9 38q-27 11 -49 11q-40 0 -76 -29.5t-63 -76 t-42.5 -98t-15.5 -95.5z" />
<glyph unicode="&#xe3;" horiz-adv-x="557" d="M336 728q26 0 43.5 -12.5t33.5 -25t36 -12.5q17 0 31 15t29 37l27 -7q-7 -29 -23 -57.5t-38 -46.5t-48 -18q-24 0 -43 12.5t-35.5 25t-34.5 12.5q-15 0 -30.5 -13.5t-29.5 -37.5l-27 6q7 29 22 57t37 46.5t50 18.5zM26 126q0 50 15.5 103.5t45 103.5t72 90t96.5 63.5 t119 23.5q40 0 79.5 -9t70.5 -23l-40 -175q-10 -46 -22.5 -111.5t-12.5 -135.5q0 -12 1 -26.5t4 -29.5h-120q-2 12 -3.5 24t-1.5 30q0 33 4 70t14 87q-28 -64 -65 -114t-79 -78.5t-82 -28.5q-44 0 -69.5 35t-25.5 101zM150 152q0 -36 10.5 -58t30.5 -22q30 0 66.5 43.5 t71 118.5t58.5 168q4 17 9 38q-27 11 -49 11q-40 0 -76 -29.5t-63 -76t-42.5 -98t-15.5 -95.5z" />
<glyph unicode="&#xe4;" horiz-adv-x="557" d="M342 672q-2 -31 -28 -55t-60 -23q-24 0 -37 13t-12 35q2 30 28.5 54t61.5 25q23 0 36 -13t11 -36zM549 672q-2 -31 -28 -55t-60 -23q-24 0 -37 13t-12 35q2 30 28.5 54t61.5 25q23 0 35.5 -13t11.5 -36zM26 126q0 50 15.5 103.5t45 103.5t72 90t96.5 63.5t119 23.5 q40 0 79.5 -9t70.5 -23l-40 -175q-10 -46 -22.5 -111.5t-12.5 -135.5q0 -12 1 -26.5t4 -29.5h-120q-2 12 -3.5 24t-1.5 30q0 33 4 70t14 87q-28 -64 -65 -114t-79 -78.5t-82 -28.5q-44 0 -69.5 35t-25.5 101zM150 152q0 -36 10.5 -58t30.5 -22q30 0 66.5 43.5t71 118.5 t58.5 168q4 17 9 38q-27 11 -49 11q-40 0 -76 -29.5t-63 -76t-42.5 -98t-15.5 -95.5z" />
<glyph unicode="&#xe5;" horiz-adv-x="557" d="M475 689q0 -33 -17.5 -61.5t-45.5 -45t-61 -16.5q-36 0 -55.5 21.5t-14.5 57.5q3 31 20.5 57t44.5 41.5t59 15.5q31 0 50.5 -18t19.5 -52zM332 646q0 -35 32 -35q23 0 41 19.5t18 47.5q0 36 -32 36q-24 0 -41.5 -20.5t-17.5 -47.5zM26 126q0 50 15.5 103.5t45 103.5 t72 90t96.5 63.5t119 23.5q40 0 79.5 -9t70.5 -23l-40 -175q-10 -46 -22.5 -111.5t-12.5 -135.5q0 -12 1 -26.5t4 -29.5h-120q-2 12 -3.5 24t-1.5 30q0 33 4 70t14 87q-28 -64 -65 -114t-79 -78.5t-82 -28.5q-44 0 -69.5 35t-25.5 101zM150 152q0 -36 10.5 -58t30.5 -22 q30 0 66.5 43.5t71 118.5t58.5 168q4 17 9 38q-27 11 -49 11q-40 0 -76 -29.5t-63 -76t-42.5 -98t-15.5 -95.5z" />
<glyph unicode="&#xe6;" horiz-adv-x="767" d="M26 126q0 50 15.5 103.5t45 103.5t72.5 90t97 63.5t119 23.5q35 0 71 -7t68 -19q25 12 51.5 19t54.5 7q57 0 93 -27t36 -77q0 -48 -33.5 -90t-90.5 -69.5t-126 -31.5q-23 -1 -44 1q-2 -19 -2 -36q0 -57 22.5 -87.5t65.5 -30.5q37 0 77 21.5t73 53.5l3 -61 q-22 -24 -56 -43.5t-73.5 -31t-75.5 -11.5q-72 0 -116 43.5t-44 130.5v9q-41 -81 -97.5 -132t-110.5 -51q-44 0 -69.5 35t-25.5 101zM150 152q0 -36 10.5 -58t31.5 -22q24 0 52.5 27.5t56 75.5t49.5 108q28 81 84 140q-20 12 -43 20t-43 8q-41 0 -77 -29.5t-63 -76 t-42.5 -98t-15.5 -95.5zM597 451q-31 0 -59.5 -32t-49.5 -80.5t-30 -98.5q64 9 105 37t60.5 62t19.5 62q0 22 -12 36t-34 14z" />
<glyph unicode="&#xe7;" horiz-adv-x="452" d="M190 -117q6 28 -50 39l40 68q-67 5 -106 47.5t-39 125.5q0 66 23 128t65 111.5t97 78.5t119 29q33 0 61 -9t51 -22l-33 -99q-44 63 -95 63q-33 0 -62.5 -24t-52.5 -63.5t-36.5 -86t-13.5 -90.5q0 -53 19 -85t62 -32q35 0 71.5 22t68.5 53l3 -61q-32 -34 -74.5 -56.5 t-86.5 -27.5l-21 -37q45 -6 67 -24t16 -44q-9 -40 -59.5 -62t-128.5 -23l4 36q36 4 61 15t30 30z" />
<glyph unicode="&#xe8;" horiz-adv-x="472" d="M405 599l-22 -33q-38 20 -77.5 52t-72.5 74l61 63q24 -42 52.5 -81.5t58.5 -74.5zM397 137l3 -61q-22 -24 -56.5 -43.5t-73.5 -31t-76 -11.5q-71 0 -115 43.5t-44 131.5q0 62 22.5 123.5t62.5 111.5t92.5 80t112.5 30q58 0 94 -27t36 -77q0 -48 -34 -90.5t-90.5 -69.5 t-126.5 -31q-23 -1 -44 1q-2 -19 -2 -36q0 -57 23 -87.5t65 -30.5q37 0 77.5 21.5t73.5 53.5zM303 451q-32 0 -60 -32t-49 -80.5t-30 -98.5q64 9 104.5 37t60.5 62t20 62q0 22 -12 36t-34 14z" />
<glyph unicode="&#xe9;" horiz-adv-x="472" d="M421 691q-43 -42 -90.5 -73.5t-91.5 -52.5l-22 34q36 35 73 74.5t69 81.5zM397 137l3 -61q-22 -24 -56.5 -43.5t-73.5 -31t-76 -11.5q-71 0 -115 43.5t-44 131.5q0 62 22.5 123.5t62.5 111.5t92.5 80t112.5 30q58 0 94 -27t36 -77q0 -48 -34 -90.5t-90.5 -69.5 t-126.5 -31q-23 -1 -44 1q-2 -19 -2 -36q0 -57 23 -87.5t65 -30.5q37 0 77.5 21.5t73.5 53.5zM303 451q-32 0 -60 -32t-49 -80.5t-30 -98.5q64 9 104.5 37t60.5 62t20 62q0 22 -12 36t-34 14z" />
<glyph unicode="&#xea;" horiz-adv-x="472" d="M226 561l-33 22q29 35 58 72.5t54 77.5l95 8q7 -41 18.5 -80t27.5 -78l-41 -22q-21 21 -37.5 47.5t-30.5 55.5q-26 -29 -54 -55.5t-57 -47.5zM397 137l3 -61q-22 -24 -56.5 -43.5t-73.5 -31t-76 -11.5q-71 0 -115 43.5t-44 131.5q0 62 22.5 123.5t62.5 111.5t92.5 80 t112.5 30q58 0 94 -27t36 -77q0 -48 -34 -90.5t-90.5 -69.5t-126.5 -31q-23 -1 -44 1q-2 -19 -2 -36q0 -57 23 -87.5t65 -30.5q37 0 77.5 21.5t73.5 53.5zM303 451q-32 0 -60 -32t-49 -80.5t-30 -98.5q64 9 104.5 37t60.5 62t20 62q0 22 -12 36t-34 14z" />
<glyph unicode="&#xeb;" horiz-adv-x="472" d="M284 672q-2 -31 -28 -55t-61 -23q-23 0 -36.5 13t-11.5 35q1 30 28 54t62 25q22 0 35 -13t12 -36zM490 672q-1 -31 -27 -55t-61 -23q-23 0 -36.5 13t-11.5 35q1 30 27.5 54t62.5 25q22 0 35 -13t11 -36zM397 137l3 -61q-22 -24 -56.5 -43.5t-73.5 -31t-76 -11.5 q-71 0 -115 43.5t-44 131.5q0 62 22.5 123.5t62.5 111.5t92.5 80t112.5 30q58 0 94 -27t36 -77q0 -48 -34 -90.5t-90.5 -69.5t-126.5 -31q-23 -1 -44 1q-2 -19 -2 -36q0 -57 23 -87.5t65 -30.5q37 0 77.5 21.5t73.5 53.5zM303 451q-32 0 -60 -32t-49 -80.5t-30 -98.5 q64 9 104.5 37t60.5 62t20 62q0 22 -12 36t-34 14z" />
<glyph unicode="&#xec;" horiz-adv-x="274" d="M298 599l-22 -33q-38 20 -77.5 52t-72.5 74l61 63q24 -42 52.5 -81.5t58.5 -74.5zM243 510q-30 -160 -53.5 -270t-23.5 -187q0 -9 1 -23.5t4 -29.5h-120q-3 15 -4 30.5t-1 22.5q0 42 5 87t20 116l25 114l12 130z" />
<glyph unicode="&#xed;" horiz-adv-x="274" d="M314 691q-43 -42 -90.5 -73.5t-91.5 -52.5l-22 34q36 35 73 74.5t69 81.5zM243 510q-30 -160 -53.5 -270t-23.5 -187q0 -9 1 -23.5t4 -29.5h-120q-3 15 -4 30.5t-1 22.5q0 42 5 87t20 116l25 114l12 130z" />
<glyph unicode="&#xee;" horiz-adv-x="274" d="M122 568l-30 18q23 37 45.5 78.5t44.5 84.5l96 8q3 -45 8 -86.5t14 -84.5l-36 -18q-14 23 -26.5 50.5t-22.5 58.5q-24 -31 -47 -58.5t-46 -50.5zM243 510q-30 -160 -53.5 -270t-23.5 -187q0 -9 1 -23.5t4 -29.5h-120q-3 15 -4 30.5t-1 22.5q0 42 5 87t20 116l25 114 l12 130z" />
<glyph unicode="&#xef;" horiz-adv-x="274" d="M197 676q-1 -32 -24 -55t-58 -23q-22 0 -34 12t-11 36q2 32 26 55.5t57 23.5q21 0 33.5 -12.5t10.5 -36.5zM355 676q-2 -32 -25 -55t-58 -23q-22 0 -34 12t-10 36q2 32 26 55.5t57 23.5q21 0 33.5 -12.5t10.5 -36.5zM243 510q-30 -160 -53.5 -270t-23.5 -187 q0 -9 1 -23.5t4 -29.5h-120q-3 15 -4 30.5t-1 22.5q0 42 5 87t20 116l25 114l12 130z" />
<glyph unicode="&#xf0;" horiz-adv-x="522" d="M482 366q0 -72 -19 -139t-56 -120.5t-90.5 -85t-120.5 -31.5q-74 0 -118.5 41.5t-44.5 127.5q0 57 20 113t55.5 101t83.5 72t105 27q38 0 61 -17q-16 61 -49 111l-128 -58l-14 43l113 52q-39 43 -89 68l45 56q80 -25 137 -81l130 60l17 -44l-114 -52q37 -48 56.5 -110 t19.5 -134zM152 151q0 -94 64 -94q33 0 58.5 26t43.5 66.5t27.5 85t9.5 80.5q0 90 -62 90q-34 0 -60 -26t-44 -65.5t-27.5 -83.5t-9.5 -79z" />
<glyph unicode="&#xf1;" horiz-adv-x="550" d="M306 728q26 0 43.5 -12.5t33 -25t35.5 -12.5q18 0 32 15t28 37l28 -7q-8 -29 -23.5 -57.5t-37.5 -46.5t-49 -18q-24 0 -42.5 12.5t-35.5 25t-35 12.5q-15 0 -30 -13.5t-30 -37.5l-27 6q8 29 22.5 57t36.5 46.5t51 18.5zM170 0h-120q-2 11 -3 24t-1 25q0 60 13 136t37 187 l12 128l135 10q-12 -60 -22.5 -111t-19.5 -95q25 60 59.5 106.5t75 73t82.5 26.5q40 0 67 -27.5t19 -91.5q-7 -55 -20 -111.5t-23.5 -114t-10.5 -116.5q0 -11 1 -24t4 -25h-120q-3 17 -4 27.5t-1 32.5q0 63 17 136t32 169q1 26 -8.5 42t-27.5 16q-25 0 -54 -28t-55.5 -76.5 t-45 -109.5t-22.5 -126v-31q0 -11 0.5 -24.5t3.5 -27.5z" />
<glyph unicode="&#xf2;" horiz-adv-x="539" d="M443 599l-22 -33q-38 20 -77.5 52t-72.5 74l61 63q24 -42 52.5 -81.5t58.5 -74.5zM505 335q0 -61 -23 -122t-64 -111t-96.5 -80t-119.5 -30q-75 0 -121.5 41.5t-46.5 126.5q0 62 23 123.5t64.5 112.5t97 81.5t119.5 30.5q79 0 123 -45.5t44 -127.5zM158 152 q0 -52 17.5 -76.5t47.5 -24.5q34 0 63 29t50 74.5t33 97t12 96.5q0 48 -16 75t-48 27q-34 0 -63 -29t-50.5 -74.5t-33.5 -97t-12 -97.5z" />
<glyph unicode="&#xf3;" horiz-adv-x="539" d="M459 691q-43 -42 -90.5 -73.5t-91.5 -52.5l-22 34q36 35 73 74.5t69 81.5zM505 335q0 -61 -23 -122t-64 -111t-96.5 -80t-119.5 -30q-75 0 -121.5 41.5t-46.5 126.5q0 62 23 123.5t64.5 112.5t97 81.5t119.5 30.5q79 0 123 -45.5t44 -127.5zM158 152q0 -52 17.5 -76.5 t47.5 -24.5q34 0 63 29t50 74.5t33 97t12 96.5q0 48 -16 75t-48 27q-34 0 -63 -29t-50.5 -74.5t-33.5 -97t-12 -97.5z" />
<glyph unicode="&#xf4;" horiz-adv-x="539" d="M264 561l-33 22q29 35 58 72.5t54 77.5l95 8q7 -41 18.5 -80t27.5 -78l-41 -22q-21 21 -37.5 47.5t-30.5 55.5q-26 -29 -54 -55.5t-57 -47.5zM505 335q0 -61 -23 -122t-64 -111t-96.5 -80t-119.5 -30q-75 0 -121.5 41.5t-46.5 126.5q0 62 23 123.5t64.5 112.5t97 81.5 t119.5 30.5q79 0 123 -45.5t44 -127.5zM158 152q0 -52 17.5 -76.5t47.5 -24.5q34 0 63 29t50 74.5t33 97t12 96.5q0 48 -16 75t-48 27q-34 0 -63 -29t-50.5 -74.5t-33.5 -97t-12 -97.5z" />
<glyph unicode="&#xf5;" horiz-adv-x="539" d="M316 728q26 0 43.5 -12.5t33 -25t35.5 -12.5q18 0 32 15t28 37l28 -7q-8 -29 -23.5 -57.5t-37.5 -46.5t-49 -18q-24 0 -42.5 12.5t-35.5 25t-35 12.5q-15 0 -30 -13.5t-30 -37.5l-27 6q8 29 22.5 57t36.5 46.5t51 18.5zM505 335q0 -61 -23 -122t-64 -111t-96.5 -80 t-119.5 -30q-75 0 -121.5 41.5t-46.5 126.5q0 62 23 123.5t64.5 112.5t97 81.5t119.5 30.5q79 0 123 -45.5t44 -127.5zM158 152q0 -52 17.5 -76.5t47.5 -24.5q34 0 63 29t50 74.5t33 97t12 96.5q0 48 -16 75t-48 27q-34 0 -63 -29t-50.5 -74.5t-33.5 -97t-12 -97.5z" />
<glyph unicode="&#xf6;" horiz-adv-x="539" d="M322 672q-2 -31 -28 -55t-61 -23q-23 0 -36.5 13t-11.5 35q1 30 28 54t62 25q22 0 35 -13t12 -36zM528 672q-1 -31 -27 -55t-61 -23q-23 0 -36.5 13t-11.5 35q1 30 27.5 54t62.5 25q22 0 35 -13t11 -36zM505 335q0 -61 -23 -122t-64 -111t-96.5 -80t-119.5 -30 q-75 0 -121.5 41.5t-46.5 126.5q0 62 23 123.5t64.5 112.5t97 81.5t119.5 30.5q79 0 123 -45.5t44 -127.5zM158 152q0 -52 17.5 -76.5t47.5 -24.5q34 0 63 29t50 74.5t33 97t12 96.5q0 48 -16 75t-48 27q-34 0 -63 -29t-50.5 -74.5t-33.5 -97t-12 -97.5z" />
<glyph unicode="&#xf7;" horiz-adv-x="561" d="M392 520q-4 -29 -26 -53t-52 -24q-22 0 -33 15t-8 36q4 30 27.5 53t52.5 23q20 0 31 -14t8 -36zM477 284h-380l17 78q32 1 82 1.5t106 1t107.5 1t86.5 0.5zM316 157q-5 -29 -26.5 -52t-51.5 -23q-23 0 -34 14.5t-8 36.5q5 29 28 52t52 23q21 0 32 -14t8 -37z" />
<glyph unicode="&#xf8;" horiz-adv-x="539" d="M505 335q0 -61 -23 -122t-64 -111t-96.5 -80t-120.5 -30q-81 0 -125 46l-53 -49l-29 36l56 52q-16 35 -16 83q0 62 23 123.5t64.5 112.5t97 81.5t119.5 30.5q82 0 126 -49l56 52l30 -35l-61 -57q16 -36 16 -84zM317 450q-32 0 -59 -25.5t-48.5 -66t-34.5 -88t-16 -92.5 l219 203q-9 69 -61 69zM223 51q31 0 58 24.5t47.5 64.5t34 87t16.5 91l-218 -202q11 -65 62 -65z" />
<glyph unicode="&#xf9;" horiz-adv-x="552" d="M437 599l-22 -33q-38 20 -77.5 52t-72.5 74l61 63q24 -42 52.5 -81.5t58.5 -74.5zM96 372l12 128l135 10q-18 -102 -35.5 -182t-29 -133.5t-11.5 -73.5q0 -21 9.5 -32.5t25.5 -11.5q22 0 47 23t49 63.5t44 93.5t32 113q6 31 7.5 44.5t2.5 36.5q0 6 1 24t1 25l135 10 q-30 -160 -53.5 -270t-23.5 -187q0 -9 1 -23.5t4 -29.5h-120q-3 17 -4 30.5t-1 25.5q0 20 1 36t3.5 36.5t9.5 54.5q-39 -88 -96.5 -140.5t-115.5 -52.5q-39 0 -61.5 25t-22.5 77q0 14 2 30.5t8 45t16.5 77t27.5 127.5z" />
<glyph unicode="&#xfa;" horiz-adv-x="552" d="M453 691q-43 -42 -90.5 -73.5t-91.5 -52.5l-22 34q36 35 73 74.5t69 81.5zM96 372l12 128l135 10q-18 -102 -35.5 -182t-29 -133.5t-11.5 -73.5q0 -21 9.5 -32.5t25.5 -11.5q22 0 47 23t49 63.5t44 93.5t32 113q6 31 7.5 44.5t2.5 36.5q0 6 1 24t1 25l135 10 q-30 -160 -53.5 -270t-23.5 -187q0 -9 1 -23.5t4 -29.5h-120q-3 17 -4 30.5t-1 25.5q0 20 1 36t3.5 36.5t9.5 54.5q-39 -88 -96.5 -140.5t-115.5 -52.5q-39 0 -61.5 25t-22.5 77q0 14 2 30.5t8 45t16.5 77t27.5 127.5z" />
<glyph unicode="&#xfb;" horiz-adv-x="552" d="M258 561l-33 22q29 35 58 72.5t54 77.5l95 8q7 -41 18.5 -80t27.5 -78l-41 -22q-21 21 -37.5 47.5t-30.5 55.5q-26 -29 -54 -55.5t-57 -47.5zM96 372l12 128l135 10q-18 -102 -35.5 -182t-29 -133.5t-11.5 -73.5q0 -21 9.5 -32.5t25.5 -11.5q22 0 47 23t49 63.5t44 93.5 t32 113q6 31 7.5 44.5t2.5 36.5q0 6 1 24t1 25l135 10q-30 -160 -53.5 -270t-23.5 -187q0 -9 1 -23.5t4 -29.5h-120q-3 17 -4 30.5t-1 25.5q0 20 1 36t3.5 36.5t9.5 54.5q-39 -88 -96.5 -140.5t-115.5 -52.5q-39 0 -61.5 25t-22.5 77q0 14 2 30.5t8 45t16.5 77t27.5 127.5z " />
<glyph unicode="&#xfc;" horiz-adv-x="552" d="M316 672q-2 -31 -28 -55t-61 -23q-23 0 -36.5 13t-11.5 35q1 30 28 54t62 25q22 0 35 -13t12 -36zM522 672q-1 -31 -27 -55t-61 -23q-23 0 -36.5 13t-11.5 35q1 30 27.5 54t62.5 25q22 0 35 -13t11 -36zM96 372l12 128l135 10q-18 -102 -35.5 -182t-29 -133.5 t-11.5 -73.5q0 -21 9.5 -32.5t25.5 -11.5q22 0 47 23t49 63.5t44 93.5t32 113q6 31 7.5 44.5t2.5 36.5q0 6 1 24t1 25l135 10q-30 -160 -53.5 -270t-23.5 -187q0 -9 1 -23.5t4 -29.5h-120q-3 17 -4 30.5t-1 25.5q0 20 1 36t3.5 36.5t9.5 54.5q-39 -88 -96.5 -140.5 t-115.5 -52.5q-39 0 -61.5 25t-22.5 77q0 14 2 30.5t8 45t16.5 77t27.5 127.5z" />
<glyph unicode="&#xfd;" horiz-adv-x="477" d="M404 691q-44 -42 -91.5 -73.5t-91.5 -52.5l-22 34q37 35 73.5 74.5t69.5 81.5zM252 2q-47 -58 -99 -102.5t-105 -69.5t-101 -25q-35 0 -56 12.5t-21 38.5q0 15 6.5 30.5t18.5 24.5q17 -6 39 -9t41 -3q34 0 72.5 15t73.5 41.5t57 58.5l-86 5q2 53 2 112t-1 121 q-2 67 -8 132.5t-16 115.5l122 10q8 -41 12.5 -87.5t7.5 -94.5q2 -65 -1.5 -132.5t-10.5 -127.5h2q44 71 79.5 148.5t56.5 151.5t21 133q17 5 31 7t26 2q25 0 40.5 -10t15.5 -37q0 -32 -17 -86.5t-47.5 -119.5t-70 -131.5t-84.5 -123.5z" />
<glyph unicode="&#xfe;" horiz-adv-x="546" d="M520 374q0 -50 -15.5 -103.5t-45 -103.5t-72 -90t-96.5 -63.5t-119 -23.5q-16 0 -34 4q-5 -35 -8 -66t-3 -57q0 -12 0.5 -26.5t3.5 -29.5h-120q-2 11 -3 24.5t-1 28.5q0 34 4 73.5t14 92.5t27 130l83 392l12 129l135 10q-24 -123 -46 -226t-40 -189q26 66 64 118t81 82 t85 30q43 0 68.5 -35t25.5 -101zM355 429q-24 0 -52.5 -28t-57 -78t-53 -116t-41.5 -141q-1 -3 -1 -5q26 -11 50 -11q39 0 75 29t63 75.5t43 98t16 96.5q0 36 -11 58t-31 22z" />
<glyph unicode="&#xff;" horiz-adv-x="477" d="M266 672q-2 -31 -28 -55t-60 -23q-24 0 -37 13t-12 35q2 30 28.5 54t61.5 25q23 0 36 -13t11 -36zM473 672q-2 -31 -28 -55t-60 -23q-24 0 -37 13t-12 35q2 30 28.5 54t61.5 25q23 0 35.5 -13t11.5 -36zM252 2q-47 -58 -99 -102.5t-105 -69.5t-101 -25q-35 0 -56 12.5 t-21 38.5q0 15 6.5 30.5t18.5 24.5q17 -6 39 -9t41 -3q34 0 72.5 15t73.5 41.5t57 58.5l-86 5q2 53 2 112t-1 121q-2 67 -8 132.5t-16 115.5l122 10q8 -41 12.5 -87.5t7.5 -94.5q2 -65 -1.5 -132.5t-10.5 -127.5h2q44 71 79.5 148.5t56.5 151.5t21 133q17 5 31 7t26 2 q25 0 40.5 -10t15.5 -37q0 -32 -17 -86.5t-47.5 -119.5t-70 -131.5t-84.5 -123.5z" />
<glyph unicode="&#x100;" horiz-adv-x="574" d="M269 762l15 72h260l-15 -72h-260zM84 0h-112l266 526l60 125l155 9l43 -660h-117l-7 154h-216zM352 566l-165 -347h182l-16 347h-1z" />
<glyph unicode="&#x101;" horiz-adv-x="557" d="M247 624l16 73h245l-16 -73h-245zM26 126q0 50 15.5 103.5t45 103.5t72 90t96.5 63.5t119 23.5q40 0 79.5 -9t70.5 -23l-40 -175q-10 -46 -22.5 -111.5t-12.5 -135.5q0 -12 1 -26.5t4 -29.5h-120q-2 12 -3.5 24t-1.5 30q0 33 4 70t14 87q-28 -64 -65 -114t-79 -78.5 t-82 -28.5q-44 0 -69.5 35t-25.5 101zM150 152q0 -36 10.5 -58t30.5 -22q30 0 66.5 43.5t71 118.5t58.5 168q4 17 9 38q-27 11 -49 11q-40 0 -76 -29.5t-63 -76t-42.5 -98t-15.5 -95.5z" />
<glyph unicode="&#x102;" horiz-adv-x="574" d="M376 725q-51 0 -78.5 39t-18.5 97l43 7q3 -34 21 -53t51 -19t59 20.5t43 52.5l42 6q-11 -42 -35.5 -76t-57 -54t-69.5 -20zM84 0h-112l266 526l60 125l155 9l43 -660h-117l-7 154h-216zM352 566l-165 -347h182l-16 347h-1z" />
<glyph unicode="&#x103;" horiz-adv-x="557" d="M339 573q-50 0 -74 43.5t-9 117.5l44 7q-4 -47 12 -72t46 -25q31 0 57.5 27t44.5 71l43 6q-14 -50 -38.5 -90t-57 -62.5t-68.5 -22.5zM26 126q0 50 15.5 103.5t45 103.5t72 90t96.5 63.5t119 23.5q40 0 79.5 -9t70.5 -23l-40 -175q-10 -46 -22.5 -111.5t-12.5 -135.5 q0 -12 1 -26.5t4 -29.5h-120q-2 12 -3.5 24t-1.5 30q0 33 4 70t14 87q-28 -64 -65 -114t-79 -78.5t-82 -28.5q-44 0 -69.5 35t-25.5 101zM150 152q0 -36 10.5 -58t30.5 -22q30 0 66.5 43.5t71 118.5t58.5 168q4 17 9 38q-27 11 -49 11q-40 0 -76 -29.5t-63 -76t-42.5 -98 t-15.5 -95.5z" />
<glyph unicode="&#x104;" horiz-adv-x="574" d="M84 0h-112l266 526l60 125l155 9l43 -660q-51 -19 -87 -51.5t-36 -61.5q0 -28 38 -28q12 0 24.5 3t26.5 9l6 -34q-20 -15 -49 -25.5t-62 -10.5q-35 0 -56 13t-21 40q0 43 41.5 82.5t102.5 63.5h-45l-7 154h-216zM352 566l-165 -347h182l-16 347h-1z" />
<glyph unicode="&#x105;" horiz-adv-x="557" d="M26 126q0 50 15.5 103.5t45 103.5t72 90t96.5 63.5t119 23.5q40 0 79.5 -9t70.5 -23l-40 -175q-10 -46 -22.5 -111.5t-12.5 -135.5q0 -12 1 -26.5t4 -29.5q-52 -19 -87.5 -51.5t-35.5 -61.5q0 -28 37 -28q12 0 24.5 3t27.5 9l5 -34q-20 -15 -49 -25.5t-62 -10.5 q-34 0 -55 13t-22 40q0 43 42 82.5t102 63.5h-47q-2 12 -3.5 24t-1.5 30q0 33 4 70t14 87q-28 -64 -65 -114t-79 -78.5t-82 -28.5q-44 0 -69.5 35t-25.5 101zM150 152q0 -36 10.5 -58t30.5 -22q30 0 66.5 43.5t71 118.5t58.5 168q4 17 9 38q-27 11 -49 11q-40 0 -76 -29.5 t-63 -76t-42.5 -98t-15.5 -95.5z" />
<glyph unicode="&#x106;" horiz-adv-x="521" d="M533 804q-51 -34 -105 -56t-100 -33l-16 36q41 27 83 59.5t81 70.5zM443 113l-5 -87q-74 -36 -161 -36q-108 0 -163.5 59.5t-55.5 173.5q0 81 27 159t77 140.5t117.5 100t147.5 37.5q39 0 78 -8t63 -19l-36 -100q-20 18 -52.5 31.5t-66.5 13.5q-53 0 -94.5 -31 t-69.5 -81.5t-42.5 -109.5t-14.5 -115q0 -78 30 -121.5t97 -43.5q36 0 69 11.5t55 25.5z" />
<glyph unicode="&#x107;" horiz-adv-x="452" d="M425 691q-43 -42 -90.5 -73.5t-91.5 -52.5l-22 34q36 35 73 74.5t69 81.5zM379 137l3 -61q-36 -39 -86 -62.5t-101 -23.5q-73 0 -116.5 42.5t-43.5 130.5q0 66 23 128t65 111.5t97 78.5t119 29q33 0 61 -9t51 -22l-33 -99q-44 63 -95 63q-33 0 -62.5 -24t-52.5 -63.5 t-36.5 -86t-13.5 -90.5q0 -53 19 -85t62 -32q35 0 71.5 22t68.5 53z" />
<glyph unicode="&#x108;" horiz-adv-x="521" d="M295 720l-27 19q31 28 61.5 59t57.5 64l96 8q12 -34 28.5 -66.5t40.5 -64.5l-35 -19q-55 33 -95 79q-60 -46 -127 -79zM443 113l-5 -87q-74 -36 -161 -36q-108 0 -163.5 59.5t-55.5 173.5q0 81 27 159t77 140.5t117.5 100t147.5 37.5q39 0 78 -8t63 -19l-36 -100 q-20 18 -52.5 31.5t-66.5 13.5q-53 0 -94.5 -31t-69.5 -81.5t-42.5 -109.5t-14.5 -115q0 -78 30 -121.5t97 -43.5q36 0 69 11.5t55 25.5z" />
<glyph unicode="&#x109;" horiz-adv-x="452" d="M230 561l-33 22q29 35 58 72.5t54 77.5l95 8q7 -41 18.5 -80t27.5 -78l-41 -22q-21 21 -37.5 47.5t-30.5 55.5q-26 -29 -54 -55.5t-57 -47.5zM379 137l3 -61q-36 -39 -86 -62.5t-101 -23.5q-73 0 -116.5 42.5t-43.5 130.5q0 66 23 128t65 111.5t97 78.5t119 29 q33 0 61 -9t51 -22l-33 -99q-44 63 -95 63q-33 0 -62.5 -24t-52.5 -63.5t-36.5 -86t-13.5 -90.5q0 -53 19 -85t62 -32q35 0 71.5 22t68.5 53z" />
<glyph unicode="&#x10a;" horiz-adv-x="521" d="M494 819q0 -22 -13 -42t-34.5 -32.5t-46.5 -12.5q-24 0 -38.5 11.5t-14.5 32.5q0 22 13.5 42t35.5 33t47 13q23 0 37 -11.5t14 -33.5zM443 113l-5 -87q-74 -36 -161 -36q-108 0 -163.5 59.5t-55.5 173.5q0 81 27 159t77 140.5t117.5 100t147.5 37.5q39 0 78 -8t63 -19 l-36 -100q-20 18 -52.5 31.5t-66.5 13.5q-53 0 -94.5 -31t-69.5 -81.5t-42.5 -109.5t-14.5 -115q0 -78 30 -121.5t97 -43.5q36 0 69 11.5t55 25.5z" />
<glyph unicode="&#x10b;" horiz-adv-x="452" d="M397 680q0 -21 -13 -41t-34.5 -33t-47.5 -13q-24 0 -38 12t-14 33t13 41t35 33.5t48 13.5q22 0 36.5 -12t14.5 -34zM379 137l3 -61q-36 -39 -86 -62.5t-101 -23.5q-73 0 -116.5 42.5t-43.5 130.5q0 66 23 128t65 111.5t97 78.5t119 29q33 0 61 -9t51 -22l-33 -99 q-44 63 -95 63q-33 0 -62.5 -24t-52.5 -63.5t-36.5 -86t-13.5 -90.5q0 -53 19 -85t62 -32q35 0 71.5 22t68.5 53z" />
<glyph unicode="&#x10c;" horiz-adv-x="521" d="M538 873l27 -18q-32 -29 -62.5 -60t-56.5 -64l-96 -8q-13 34 -29.5 66.5t-40.5 65.5l35 18q55 -33 95 -79q60 46 128 79zM443 113l-5 -87q-74 -36 -161 -36q-108 0 -163.5 59.5t-55.5 173.5q0 81 27 159t77 140.5t117.5 100t147.5 37.5q39 0 78 -8t63 -19l-36 -100 q-20 18 -52.5 31.5t-66.5 13.5q-53 0 -94.5 -31t-69.5 -81.5t-42.5 -109.5t-14.5 -115q0 -78 30 -121.5t97 -43.5q36 0 69 11.5t55 25.5z" />
<glyph unicode="&#x10d;" horiz-adv-x="452" d="M417 753l33 -23q-30 -34 -58.5 -72t-53.5 -78l-95 -8q-7 41 -18.5 80t-27.5 78l41 23q21 -22 37.5 -48.5t29.5 -55.5q27 29 54.5 55.5t57.5 48.5zM379 137l3 -61q-36 -39 -86 -62.5t-101 -23.5q-73 0 -116.5 42.5t-43.5 130.5q0 66 23 128t65 111.5t97 78.5t119 29 q33 0 61 -9t51 -22l-33 -99q-44 63 -95 63q-33 0 -62.5 -24t-52.5 -63.5t-36.5 -86t-13.5 -90.5q0 -53 19 -85t62 -32q35 0 71.5 22t68.5 53z" />
<glyph unicode="&#x10e;" horiz-adv-x="630" d="M534 873l27 -18q-32 -29 -62.5 -60t-56.5 -64l-96 -8q-12 34 -29 66.5t-40 65.5l35 18q54 -33 95 -79q60 46 127 79zM158 528l17 122h182q43 0 86 -10t78.5 -35.5t57.5 -72.5t22 -121q0 -76 -25 -149.5t-73 -132.5t-119 -94t-163 -35h-175zM309 575h-23l-105 -499h45 q63 0 109.5 31.5t76.5 82.5t44.5 109.5t14.5 111.5q0 60 -16.5 94t-42 48.5t-53 18t-50.5 3.5z" />
<glyph unicode="&#x10f;" horiz-adv-x="555" d="M775 705q-27 -60 -62 -111.5t-68 -89.5l-40 11q18 41 37.5 95t32.5 101zM26 126q0 50 15.5 103.5t45 103.5t72 90t96.5 63.5t119 23.5q18 0 37 -2q3 12 5.5 24t5.5 25l12 128l135 10q-28 -146 -55 -266t-44.5 -213.5t-17.5 -159.5q0 -12 1 -26.5t4 -29.5h-120 q-2 11 -3.5 24.5t-1.5 28.5q0 24 1.5 47t5.5 51.5t12 71.5q-26 -67 -64 -119.5t-81.5 -83t-84.5 -30.5q-44 0 -69.5 35t-25.5 101zM150 152q0 -36 10.5 -58.5t30.5 -22.5q24 0 52.5 29t57 79.5t53.5 117t42 142.5q-26 12 -49 12q-40 0 -76 -29.5t-63 -76t-42.5 -98 t-15.5 -95.5z" />
<glyph unicode="&#x110;" horiz-adv-x="630" d="M158 528l17 122h182q43 0 86 -10t78.5 -35.5t57.5 -72.5t22 -121q0 -76 -25 -149.5t-73 -132.5t-119 -94t-163 -35h-175l63 300h-58l9 51h60zM379 300h-151l-47 -224h45q63 0 109.5 31.5t76.5 82.5t44.5 109.5t14.5 111.5q0 60 -16.5 94t-42 48.5t-53 18t-50.5 3.5h-23 l-47 -224h150z" />
<glyph unicode="&#x111;" horiz-adv-x="555" d="M26 126q0 50 15.5 103.5t45 103.5t72 90t96.5 63.5t119 23.5q18 0 37 -2q3 12 5.5 24t4.5 25h-156l11 51h150l8 77l135 10q-4 -22 -8.5 -44t-8.5 -43h72l-11 -51h-72q-35 -167 -62 -293t-27 -208q0 -12 1 -26.5t4 -29.5h-120q-2 11 -3.5 24.5t-1.5 28.5q0 24 1.5 47 t5.5 51.5t12 71.5q-26 -67 -64 -119.5t-81.5 -83t-84.5 -30.5q-44 0 -69.5 35t-25.5 101zM150 152q0 -36 10.5 -58.5t30.5 -22.5q24 0 52.5 29t57 79.5t53.5 117t42 142.5q-26 12 -49 12q-40 0 -76 -29.5t-63 -76t-42.5 -98t-15.5 -95.5z" />
<glyph unicode="&#x112;" d="M242 762l15 72h260l-15 -72h-260zM394 0h-348l111 523l18 127h352l-25 -80l-215 7l-47 -219l172 4l-23 -76l-163 3l-46 -216l233 8z" />
<glyph unicode="&#x113;" horiz-adv-x="472" d="M189 624l16 73h245l-16 -73h-245zM397 137l3 -61q-22 -24 -56.5 -43.5t-73.5 -31t-76 -11.5q-71 0 -115 43.5t-44 131.5q0 62 22.5 123.5t62.5 111.5t92.5 80t112.5 30q58 0 94 -27t36 -77q0 -48 -34 -90.5t-90.5 -69.5t-126.5 -31q-23 -1 -44 1q-2 -19 -2 -36 q0 -57 23 -87.5t65 -30.5q37 0 77.5 21.5t73.5 53.5zM303 451q-32 0 -60 -32t-49 -80.5t-30 -98.5q64 9 104.5 37t60.5 62t20 62q0 22 -12 36t-34 14z" />
<glyph unicode="&#x114;" d="M349 725q-51 0 -78.5 39t-18.5 97l43 7q3 -34 21 -53t51 -19t59 20.5t43 52.5l42 6q-11 -42 -35.5 -76t-57 -54t-69.5 -20zM394 0h-348l111 523l18 127h352l-25 -80l-215 7l-47 -219l172 4l-23 -76l-163 3l-46 -216l233 8z" />
<glyph unicode="&#x115;" horiz-adv-x="472" d="M280 573q-49 0 -73 43.5t-10 117.5l45 7q-4 -47 11.5 -72t45.5 -25q31 0 58 27t45 71l42 6q-13 -50 -38 -90t-57 -62.5t-69 -22.5zM397 137l3 -61q-22 -24 -56.5 -43.5t-73.5 -31t-76 -11.5q-71 0 -115 43.5t-44 131.5q0 62 22.5 123.5t62.5 111.5t92.5 80t112.5 30 q58 0 94 -27t36 -77q0 -48 -34 -90.5t-90.5 -69.5t-126.5 -31q-23 -1 -44 1q-2 -19 -2 -36q0 -57 23 -87.5t65 -30.5q37 0 77.5 21.5t73.5 53.5zM303 451q-32 0 -60 -32t-49 -80.5t-30 -98.5q64 9 104.5 37t60.5 62t20 62q0 22 -12 36t-34 14z" />
<glyph unicode="&#x116;" d="M453 819q0 -22 -13 -42t-34.5 -32.5t-47.5 -12.5q-24 0 -38 11.5t-14 32.5q0 22 13 42t35 33t48 13q22 0 36.5 -11.5t14.5 -33.5zM394 0h-348l111 523l18 127h352l-25 -80l-215 7l-47 -219l172 4l-23 -76l-163 3l-46 -216l233 8z" />
<glyph unicode="&#x117;" horiz-adv-x="472" d="M393 680q0 -21 -13 -41t-34.5 -33t-47.5 -13q-24 0 -38 12t-14 33t13 41t35 33.5t48 13.5q22 0 36.5 -12t14.5 -34zM397 137l3 -61q-22 -24 -56.5 -43.5t-73.5 -31t-76 -11.5q-71 0 -115 43.5t-44 131.5q0 62 22.5 123.5t62.5 111.5t92.5 80t112.5 30q58 0 94 -27t36 -77 q0 -48 -34 -90.5t-90.5 -69.5t-126.5 -31q-23 -1 -44 1q-2 -19 -2 -36q0 -57 23 -87.5t65 -30.5q37 0 77.5 21.5t73.5 53.5zM303 451q-32 0 -60 -32t-49 -80.5t-30 -98.5q64 9 104.5 37t60.5 62t20 62q0 22 -12 36t-34 14z" />
<glyph unicode="&#x118;" d="M386 0q-52 -19 -87.5 -51.5t-35.5 -61.5q0 -28 37 -28q12 0 24.5 3t27.5 9l5 -34q-20 -15 -49 -25.5t-62 -10.5q-34 0 -55 13t-22 40q0 43 42 82.5t102 63.5h-267l111 523l18 127h352l-25 -80l-215 7l-47 -219l172 4l-23 -76l-163 3l-46 -216l233 8l-19 -81h-8z" />
<glyph unicode="&#x119;" horiz-adv-x="486" d="M366 41q-61 -42 -92.5 -81t-31.5 -67q0 -34 37 -34q12 0 24.5 3t27.5 9l5 -34q-20 -15 -49 -25.5t-62 -10.5q-34 0 -55 14t-22 43q1 35 25 69t65 66q-19 -3 -36 -3q-72 0 -116 43.5t-44 131.5q0 62 22.5 123.5t62.5 111.5t92.5 80t113.5 30q57 0 93 -27t36 -77 q0 -48 -33.5 -90.5t-90.5 -69.5t-126 -31q-23 -1 -44 1q-2 -19 -2 -36q0 -57 22.5 -87.5t65.5 -30.5q37 0 77 21.5t73 53.5l3 -61q-17 -19 -42 -35h1zM310 451q-31 0 -59.5 -32t-49.5 -80.5t-30 -98.5q64 9 105 37t60.5 62t19.5 62q0 22 -12 36t-34 14z" />
<glyph unicode="&#x11a;" d="M496 873l27 -18q-32 -29 -62.5 -60t-56.5 -64l-96 -8q-12 34 -29 66.5t-40 65.5l35 18q54 -33 95 -79q60 46 127 79zM394 0h-348l111 523l18 127h352l-25 -80l-215 7l-47 -219l172 4l-23 -76l-163 3l-46 -216l233 8z" />
<glyph unicode="&#x11b;" horiz-adv-x="472" d="M413 753l33 -23q-30 -34 -58.5 -72t-53.5 -78l-95 -8q-7 41 -18.5 80t-27.5 78l41 23q21 -22 37.5 -48.5t29.5 -55.5q27 29 54.5 55.5t57.5 48.5zM397 137l3 -61q-22 -24 -56.5 -43.5t-73.5 -31t-76 -11.5q-71 0 -115 43.5t-44 131.5q0 62 22.5 123.5t62.5 111.5t92.5 80 t112.5 30q58 0 94 -27t36 -77q0 -48 -34 -90.5t-90.5 -69.5t-126.5 -31q-23 -1 -44 1q-2 -19 -2 -36q0 -57 23 -87.5t65 -30.5q37 0 77.5 21.5t73.5 53.5zM303 451q-32 0 -60 -32t-49 -80.5t-30 -98.5q64 9 104.5 37t60.5 62t20 62q0 22 -12 36t-34 14z" />
<glyph unicode="&#x11c;" horiz-adv-x="572" d="M317 720l-27 19q31 28 61.5 59t57.5 64l96 8q12 -34 28.5 -66.5t40.5 -64.5l-35 -19q-55 33 -95 79q-60 -46 -127 -79zM467 26q-42 -18 -89.5 -27t-90.5 -9q-113 0 -171.5 60t-58.5 175q0 81 28.5 158.5t80 140t123 99.5t156.5 37q39 0 76.5 -8t63.5 -19l-36 -101 q-19 18 -50.5 32t-67.5 14q-58 0 -102.5 -30.5t-75.5 -80t-47 -109t-16 -118.5q0 -84 34 -130t109 -46q17 -1 39 2l21 98l18 123l114 10z" />
<glyph unicode="&#x11d;" d="M207 561l-33 22q30 35 58.5 72.5t54.5 77.5l94 8q8 -41 19 -80t28 -78l-42 -22q-21 21 -37.5 47.5t-29.5 55.5q-27 -29 -54.5 -55.5t-57.5 -47.5zM403 -50q0 -45 -34.5 -77.5t-94 -50t-134.5 -17.5q-87 0 -139 25.5t-52 77.5q0 40 27.5 67.5t59.5 38.5l10 -11 q-9 -23 -13.5 -48t4.5 -51q10 -29 38.5 -45.5t72.5 -16.5q33 0 63 9.5t48.5 26.5t18.5 38q0 22 -20 36.5t-49.5 25.5t-59.5 22.5t-50 28t-20 41.5q0 32 34.5 59t92.5 38v3q-73 0 -111.5 30.5t-38.5 90.5q0 39 15.5 77.5t47 70.5t77.5 51.5t107 19.5q41 0 73.5 0.5t64.5 2 t72 5.5q16 -15 16 -35q0 -17 -13 -30.5t-34 -13.5q-22 0 -49.5 13.5t-67.5 28.5l-2 -3q37 -17 62.5 -43.5t25.5 -71.5q0 -62 -43.5 -111.5t-115.5 -82.5q-14 -7 -35.5 -16t-38.5 -19.5t-17 -23.5q0 -14 20.5 -23.5t50.5 -19.5t60 -24t50.5 -36t20.5 -57zM173 277 q0 -68 47 -68q24 0 44.5 18t36 46t24 59t8.5 58q0 30 -12 48t-37 18t-45.5 -18t-35 -45.5t-22.5 -58.5t-8 -57z" />
<glyph unicode="&#x11e;" horiz-adv-x="572" d="M412 725q-51 0 -78.5 39t-18.5 97l43 7q3 -34 21 -53t51 -19q34 0 59.5 20.5t42.5 52.5l43 6q-12 -42 -36 -76t-57 -54t-70 -20zM467 26q-42 -18 -89.5 -27t-90.5 -9q-113 0 -171.5 60t-58.5 175q0 81 28.5 158.5t80 140t123 99.5t156.5 37q39 0 76.5 -8t63.5 -19 l-36 -101q-19 18 -50.5 32t-67.5 14q-58 0 -102.5 -30.5t-75.5 -80t-47 -109t-16 -118.5q0 -84 34 -130t109 -46q17 -1 39 2l21 98l18 123l114 10z" />
<glyph unicode="&#x11f;" d="M294 573q-49 0 -73 43.5t-10 117.5l45 7q-4 -47 11.5 -72t45.5 -25q31 0 58 27t45 71l42 6q-13 -50 -38 -90t-57 -62.5t-69 -22.5zM403 -50q0 -45 -34.5 -77.5t-94 -50t-134.5 -17.5q-87 0 -139 25.5t-52 77.5q0 40 27.5 67.5t59.5 38.5l10 -11q-9 -23 -13.5 -48t4.5 -51 q10 -29 38.5 -45.5t72.5 -16.5q33 0 63 9.5t48.5 26.5t18.5 38q0 22 -20 36.5t-49.5 25.5t-59.5 22.5t-50 28t-20 41.5q0 32 34.5 59t92.5 38v3q-73 0 -111.5 30.5t-38.5 90.5q0 39 15.5 77.5t47 70.5t77.5 51.5t107 19.5q41 0 73.5 0.5t64.5 2t72 5.5q16 -15 16 -35 q0 -17 -13 -30.5t-34 -13.5q-22 0 -49.5 13.5t-67.5 28.5l-2 -3q37 -17 62.5 -43.5t25.5 -71.5q0 -62 -43.5 -111.5t-115.5 -82.5q-14 -7 -35.5 -16t-38.5 -19.5t-17 -23.5q0 -14 20.5 -23.5t50.5 -19.5t60 -24t50.5 -36t20.5 -57zM173 277q0 -68 47 -68q24 0 44.5 18t36 46 t24 59t8.5 58q0 30 -12 48t-37 18t-45.5 -18t-35 -45.5t-22.5 -58.5t-8 -57z" />
<glyph unicode="&#x120;" horiz-adv-x="572" d="M516 819q0 -22 -13 -42t-34.5 -32.5t-46.5 -12.5q-24 0 -38.5 11.5t-14.5 32.5q0 22 13.5 42t35.5 33t47 13q23 0 37 -11.5t14 -33.5zM467 26q-42 -18 -89.5 -27t-90.5 -9q-113 0 -171.5 60t-58.5 175q0 81 28.5 158.5t80 140t123 99.5t156.5 37q39 0 76.5 -8t63.5 -19 l-36 -101q-19 18 -50.5 32t-67.5 14q-58 0 -102.5 -30.5t-75.5 -80t-47 -109t-16 -118.5q0 -84 34 -130t109 -46q17 -1 39 2l21 98l18 123l114 10z" />
<glyph unicode="&#x121;" d="M388 680q0 -21 -13 -41t-34.5 -33t-47.5 -13q-24 0 -38 12t-14 33t13 41t35 33.5t48 13.5q22 0 36.5 -12t14.5 -34zM403 -50q0 -45 -34.5 -77.5t-94 -50t-134.5 -17.5q-87 0 -139 25.5t-52 77.5q0 40 27.5 67.5t59.5 38.5l10 -11q-9 -23 -13.5 -48t4.5 -51 q10 -29 38.5 -45.5t72.5 -16.5q33 0 63 9.5t48.5 26.5t18.5 38q0 22 -20 36.5t-49.5 25.5t-59.5 22.5t-50 28t-20 41.5q0 32 34.5 59t92.5 38v3q-73 0 -111.5 30.5t-38.5 90.5q0 39 15.5 77.5t47 70.5t77.5 51.5t107 19.5q41 0 73.5 0.5t64.5 2t72 5.5q16 -15 16 -35 q0 -17 -13 -30.5t-34 -13.5q-22 0 -49.5 13.5t-67.5 28.5l-2 -3q37 -17 62.5 -43.5t25.5 -71.5q0 -62 -43.5 -111.5t-115.5 -82.5q-14 -7 -35.5 -16t-38.5 -19.5t-17 -23.5q0 -14 20.5 -23.5t50.5 -19.5t60 -24t50.5 -36t20.5 -57zM173 277q0 -68 47 -68q24 0 44.5 18t36 46 t24 59t8.5 58q0 30 -12 48t-37 18t-45.5 -18t-35 -45.5t-22.5 -58.5t-8 -57z" />
<glyph unicode="&#x122;" horiz-adv-x="572" d="M467 26q-42 -18 -89.5 -27t-90.5 -9q-113 0 -171.5 60t-58.5 175q0 81 28.5 158.5t80 140t123 99.5t156.5 37q39 0 76.5 -8t63.5 -19l-36 -101q-19 18 -50.5 32t-67.5 14q-58 0 -102.5 -30.5t-75.5 -80t-47 -109t-16 -118.5q0 -84 34 -130t109 -46q17 -1 39 2l21 98 l18 123l114 10zM339 -124q-2 -28 -18.5 -58.5t-40 -58t-46.5 -46.5l-25 19q12 18 24.5 38.5t21.5 41.5q-16 4 -25.5 15.5t-8.5 31.5q2 30 24 51.5t50 21.5q23 0 34 -15.5t10 -40.5z" />
<glyph unicode="&#x123;" d="M254 630q1 28 17.5 58.5t40 58t47.5 46.5l24 -19q-12 -18 -24.5 -38.5t-21.5 -42.5q16 -3 25.5 -14.5t8.5 -31.5q-1 -30 -23.5 -51.5t-50.5 -21.5q-22 0 -33.5 15.5t-9.5 40.5zM403 -50q0 -45 -34.5 -77.5t-94 -50t-134.5 -17.5q-87 0 -139 25.5t-52 77.5q0 40 27.5 67.5 t59.5 38.5l10 -11q-9 -23 -13.5 -48t4.5 -51q10 -29 38.5 -45.5t72.5 -16.5q33 0 63 9.5t48.5 26.5t18.5 38q0 22 -20 36.5t-49.5 25.5t-59.5 22.5t-50 28t-20 41.5q0 32 34.5 59t92.5 38v3q-73 0 -111.5 30.5t-38.5 90.5q0 39 15.5 77.5t47 70.5t77.5 51.5t107 19.5 q41 0 73.5 0.5t64.5 2t72 5.5q16 -15 16 -35q0 -17 -13 -30.5t-34 -13.5q-22 0 -49.5 13.5t-67.5 28.5l-2 -3q37 -17 62.5 -43.5t25.5 -71.5q0 -62 -43.5 -111.5t-115.5 -82.5q-14 -7 -35.5 -16t-38.5 -19.5t-17 -23.5q0 -14 20.5 -23.5t50.5 -19.5t60 -24t50.5 -36 t20.5 -57zM173 277q0 -68 47 -68q24 0 44.5 18t36 46t24 59t8.5 58q0 30 -12 48t-37 18t-45.5 -18t-35 -45.5t-22.5 -58.5t-8 -57z" />
<glyph unicode="&#x124;" horiz-adv-x="655" d="M313 720l-27 19q31 28 61.5 59t57.5 64l96 8q12 -34 28.5 -66.5t40.5 -64.5l-35 -19q-55 33 -95 79q-60 -46 -127 -79zM165 0h-119l112 528l17 122l130 10l-68 -318h229l39 186l18 122l129 11l-140 -661h-118l58 275h-229z" />
<glyph unicode="&#x125;" horiz-adv-x="550" d="M98 721l-27 19q32 28 62.5 59t56.5 64l96 8q12 -34 29 -66.5t41 -64.5l-35 -19q-55 33 -96 79q-60 -46 -127 -79zM454 0h-120q-3 17 -3.5 27.5t-0.5 32.5q0 37 7.5 83.5t17 93t17.5 84t8 56.5q0 22 -11 34t-27 12q-23 0 -49 -23.5t-50.5 -64.5t-43.5 -93.5t-28 -110.5 q-6 -48 -6 -83q0 -13 1 -21.5t4 -26.5h-120q-2 9 -3.5 22t-1.5 31q0 42 7.5 93.5t18 104.5t19.5 98l45 208l12 128l135 10q-22 -112 -43 -209.5t-38 -179.5q26 59 60 105t74 72.5t82 26.5q36 0 62.5 -22t26.5 -75q0 -28 -8.5 -69.5t-19.5 -90.5t-19.5 -101.5t-8.5 -102.5 q0 -11 1 -24t3 -25z" />
<glyph unicode="&#x126;" horiz-adv-x="655" d="M165 0h-119l98 464h-69l12 60h70l1 4l17 122l130 10l-29 -136h228l1 4l18 122l129 11l-29 -137h66l-12 -60h-67l-98 -464h-118l58 275h-229zM237 342h229l25 122h-228z" />
<glyph unicode="&#x127;" horiz-adv-x="550" d="M454 0h-120q-3 17 -3.5 27.5t-0.5 32.5q0 37 7.5 83.5t17 93t17.5 84t8 56.5q0 22 -11 34t-27 12q-23 0 -49 -23.5t-50.5 -64.5t-43.5 -93.5t-28 -110.5q-6 -48 -6 -83q0 -13 1 -21.5t4 -26.5h-120q-2 9 -3.5 22t-1.5 31q0 42 7.5 93.5t18 104.5t19.5 98l45 208v7h-75 l11 51h69l7 70l135 10q-4 -21 -8 -41t-8 -39h153l-11 -51h-152q-15 -72 -29 -136.5t-26 -121.5q26 59 60 105t74 72.5t82 26.5q36 0 62.5 -22t26.5 -75q0 -28 -8.5 -69.5t-19.5 -90.5t-19.5 -101.5t-8.5 -102.5q0 -11 1 -24t3 -25z" />
<glyph unicode="&#x128;" horiz-adv-x="308" d="M228 859q25 0 41.5 -11t31 -21.5t33.5 -10.5t33.5 13t30.5 34l27 -7q-9 -29 -25 -56t-38.5 -44t-49.5 -17q-23 0 -40.5 10.5t-33 21t-33.5 10.5q-16 0 -32 -12t-32 -35l-28 7q9 28 24.5 55t38.5 45t52 18zM165 0h-119l112 528l17 122l130 10z" />
<glyph unicode="&#x129;" horiz-adv-x="274" d="M186 730q20 0 31 -12t20 -24t22 -12t26 15t22 35l33 -7q-13 -50 -38.5 -88t-60.5 -38q-21 0 -32.5 11.5t-20 23.5t-21.5 12q-14 0 -27 -15t-22 -34l-32 6q8 33 22.5 62t34 47t43.5 18zM243 510q-30 -160 -53.5 -270t-23.5 -187q0 -9 1 -23.5t4 -29.5h-120q-3 15 -4 30.5 t-1 22.5q0 42 5 87t20 116l25 114l12 130z" />
<glyph unicode="&#x12a;" horiz-adv-x="308" d="M139 762l14 72h243l-14 -72h-243zM165 0h-119l112 528l17 122l130 10z" />
<glyph unicode="&#x12b;" horiz-adv-x="274" d="M118 624l13 73h194l-13 -73h-194zM243 510q-30 -160 -53.5 -270t-23.5 -187q0 -9 1 -23.5t4 -29.5h-120q-3 15 -4 30.5t-1 22.5q0 42 5 87t20 116l25 114l12 130z" />
<glyph unicode="&#x12c;" horiz-adv-x="308" d="M238 725q-51 0 -78.5 39t-18.5 97l43 7q3 -34 21 -53t51 -19q34 0 59.5 20.5t42.5 52.5l43 6q-12 -42 -36 -76t-57 -54t-70 -20zM165 0h-119l112 528l17 122l130 10z" />
<glyph unicode="&#x12d;" horiz-adv-x="274" d="M175 569q-46 0 -66 45t-3 126l46 7q-11 -101 43 -101q26 0 48.5 27t38.5 75l45 6q-19 -82 -60 -133.5t-92 -51.5zM243 510q-30 -160 -53.5 -270t-23.5 -187q0 -9 1 -23.5t4 -29.5h-120q-3 15 -4 30.5t-1 22.5q0 42 5 87t20 116l25 114l12 130z" />
<glyph unicode="&#x12e;" horiz-adv-x="297" d="M172 0q-24 -12 -47.5 -30t-39.5 -38t-17 -39q-4 -34 37 -34q12 0 24.5 3t26.5 9l6 -34q-20 -15 -49 -25.5t-62 -10.5q-38 0 -59 16t-17 48q5 40 44 76t88 59h-54l112 528l18 122l129 10z" />
<glyph unicode="&#x12f;" horiz-adv-x="274" d="M293 680q0 -21 -13 -41t-34.5 -33t-46.5 -13q-24 0 -38.5 12t-14.5 33t13.5 41t35.5 33.5t47 13.5q23 0 37 -12t14 -34zM178 0q-40 -23 -68 -54.5t-28 -57.5q0 -29 38 -29q12 0 24.5 3t26.5 9l6 -34q-20 -15 -49 -25.5t-62 -10.5q-35 0 -56 14t-21 43q0 39 37 77.5 t90 64.5h-58q-3 15 -3.5 30.5t-0.5 22.5q0 42 5 87t20 116l24 114l13 130l135 10q-30 -160 -53.5 -270t-23.5 -187q0 -9 0.5 -23.5t3.5 -29.5z" />
<glyph unicode="&#x130;" horiz-adv-x="308" d="M342 819q0 -22 -13 -42t-34.5 -32.5t-46.5 -12.5q-24 0 -38.5 11.5t-14.5 32.5q0 22 13.5 42t35.5 33t47 13q23 0 37 -11.5t14 -33.5zM165 0h-119l112 528l17 122l130 10z" />
<glyph unicode="&#x131;" horiz-adv-x="274" d="M243 510q-30 -160 -53.5 -270t-23.5 -187q0 -9 1 -23.5t4 -29.5h-120q-3 15 -4 30.5t-1 22.5q0 42 5 87t20 116l25 114l12 130z" />
<glyph unicode="&#x132;" horiz-adv-x="614" d="M165 0h-119l112 528l17 122l130 10zM235 -140q51 19 80 59t41 95l109 514l18 122l128 10l-123 -582q-11 -49 -26.5 -94t-43 -82t-72.5 -62t-114 -35z" />
<glyph unicode="&#x133;" horiz-adv-x="543" d="M286 680q0 -21 -13 -41t-34.5 -33t-47.5 -13q-24 0 -38 12t-14 33t13 41t35 33.5t48 13.5q22 0 36.5 -12t14.5 -34zM567 680q0 -21 -13 -41t-34.5 -33t-46.5 -13q-24 0 -38.5 12t-14.5 33t13.5 41t35.5 33.5t47 13.5q23 0 37 -12t14 -34zM243 510q-30 -160 -53.5 -270 t-23.5 -187q0 -9 1 -23.5t4 -29.5h-120q-3 15 -4 30.5t-1 22.5q0 42 5 87t20 116l25 114l12 130zM521 510q-8 -39 -16.5 -80.5t-20 -96.5t-27.5 -132t-39 -187q-18 -83 -70 -136.5t-149 -72.5l-18 44q56 29 81 72t37 98l75 353l12 128z" />
<glyph unicode="&#x134;" horiz-adv-x="307" d="M133 720l-27 19q32 28 62.5 59t56.5 64l96 8q12 -34 29 -66.5t41 -64.5l-35 -19q-55 33 -96 79q-60 -46 -127 -79zM-72 -140q51 19 79.5 59t40.5 95l110 514l17 122l129 10l-124 -582q-10 -49 -26 -94t-43.5 -82t-72.5 -62t-113 -35z" />
<glyph unicode="&#x135;" horiz-adv-x="270" d="M130 568l-30 18q23 37 45.5 78.5t44.5 84.5l96 8q3 -45 8 -86.5t14 -84.5l-36 -18q-14 23 -26.5 50.5t-22.5 58.5q-24 -31 -47 -58.5t-46 -50.5zM247 510q-8 -39 -16.5 -80.5t-19.5 -96.5t-27.5 -132t-39.5 -187q-18 -83 -69.5 -136.5t-148.5 -72.5l-19 44q57 29 81.5 72 t36.5 98l75 353l13 128z" />
<glyph unicode="&#x136;" horiz-adv-x="562" d="M158 528l17 122l130 10l-66 -310h65l208 310l110 -10l-231 -332l98 -318l-126 -10l-74 293h-64l-60 -283h-119zM283 -124q-2 -28 -18.5 -58.5t-40 -58t-46.5 -46.5l-25 19q12 18 24.5 38.5t21.5 41.5q-16 4 -25.5 15.5t-8.5 31.5q2 30 24 51.5t50 21.5q23 0 34 -15.5 t10 -40.5z" />
<glyph unicode="&#x137;" horiz-adv-x="520" d="M170 0h-120q-2 8 -3.5 22.5t-1.5 26.5q0 65 13 136.5t32 163.5l45 208l12 128l135 10q-22 -114 -43.5 -211.5t-38.5 -178.5q27 62 64.5 108.5t80.5 71.5t85 25q40 0 63 -22.5t23 -59.5q0 -54 -47.5 -106.5t-128.5 -98.5q21 -55 52.5 -112.5t69.5 -110.5l-132 -10 q-30 44 -58 99t-47 115q72 45 119 92t47 92q0 43 -39 43q-29 0 -60 -30t-58.5 -80t-46 -112.5t-21.5 -128.5v-3v0q-1 -10 -1 -19v-4v-1q0 -10 1 -24.5t4 -28.5zM291 -124q-2 -28 -18.5 -58.5t-40 -58t-46.5 -46.5l-25 19q12 18 24.5 38.5t21.5 41.5q-16 4 -25.5 15.5 t-8.5 31.5q2 30 24 51.5t50 21.5q23 0 34 -15.5t10 -40.5z" />
<glyph unicode="&#x138;" horiz-adv-x="513" d="M170 0h-120q-2 11 -3 24t-1 25q0 60 13 136t37 187l12 128l135 10q-18 -93 -34 -166.5t-27 -133.5h1q56 141 125 220.5t134 79.5q22 0 41 -6.5t31 -15.5l-55 -103q-15 8 -31.5 13.5t-32.5 5.5q-22 0 -44 -10.5t-43 -28.5q3 -54 24 -117t54 -127t74 -121l-128 -10 q-27 38 -50 83.5t-39 91.5t-23 84q-24 -48 -39 -100t-15 -97q0 -11 0.5 -24.5t3.5 -27.5zM262 321l6 7q-3 -3 -6 -7z" />
<glyph unicode="&#x139;" horiz-adv-x="465" d="M386 804q-51 -34 -104.5 -56t-100.5 -33l-15 36q41 27 83 59.5t80 70.5zM392 0h-346l112 528l17 122l130 10l-125 -587l232 13z" />
<glyph unicode="&#x13a;" horiz-adv-x="273" d="M359 826q-51 -34 -104.5 -56.5t-100.5 -33.5l-15 36q41 27 83 60t80 70zM282 695q-28 -147 -55 -267t-44.5 -213t-17.5 -161q0 -11 1 -25t4 -29h-120q-2 8 -3.5 22.5t-1.5 26.5q0 62 13 135t32 165l45 208l12 128z" />
<glyph unicode="&#x13b;" horiz-adv-x="465" d="M392 0h-346l112 528l17 122l130 10l-125 -587l232 13zM250 -124q-2 -28 -18.5 -58.5t-40 -58t-46.5 -46.5l-25 19q12 18 24.5 38.5t21.5 41.5q-16 4 -25.5 15.5t-8.5 31.5q2 30 24 51.5t50 21.5q23 0 34 -15.5t10 -40.5z" />
<glyph unicode="&#x13c;" horiz-adv-x="273" d="M282 695q-28 -147 -55 -267t-44.5 -213t-17.5 -161q0 -11 1 -25t4 -29h-120q-2 8 -3.5 22.5t-1.5 26.5q0 62 13 135t32 165l45 208l12 128zM125 -124q-1 -28 -17.5 -58.5t-40.5 -58t-47 -46.5l-24 19q12 18 24 38.5t21 41.5q-16 4 -25.5 15.5t-7.5 31.5q1 30 23 51.5 t51 21.5q22 0 33.5 -15.5t9.5 -40.5z" />
<glyph unicode="&#x13d;" horiz-adv-x="465" d="M529 696q-27 -60 -62 -112t-68 -89l-39 10q18 42 37 96t33 101zM392 0h-346l112 528l17 122l130 10l-125 -587l232 13z" />
<glyph unicode="&#x13e;" horiz-adv-x="273" d="M469 712q-27 -60 -62 -111.5t-68 -89.5l-39 11q18 41 37 95t33 101zM282 695q-28 -147 -55 -267t-44.5 -213t-17.5 -161q0 -11 1 -25t4 -29h-120q-2 8 -3.5 22.5t-1.5 26.5q0 62 13 135t32 165l45 208l12 128z" />
<glyph unicode="&#x13f;" horiz-adv-x="566" d="M392 0h-346l112 528l17 122l130 10l-125 -587l232 13zM435 265q-20 0 -32 12t-12 32q0 29 23 53t54 24q20 0 32 -11t12 -30q0 -29 -23 -54.5t-54 -25.5z" />
<glyph unicode="&#x140;" horiz-adv-x="499" d="M282 695q-28 -147 -55 -267t-44.5 -213t-17.5 -161q0 -11 1 -25t4 -29h-120q-2 8 -3.5 22.5t-1.5 26.5q0 62 13 135t32 165l45 208l12 128zM366 227q-20 0 -32 12t-12 33q0 28 23 52t54 24q20 0 32 -11t12 -29q0 -30 -23 -55.5t-54 -25.5z" />
<glyph unicode="&#x141;" horiz-adv-x="465" d="M392 0h-346l51 244l-77 -40l-15 48l106 55l47 221l17 122l130 10l-61 -283l131 69l16 -48l-160 -84l-51 -241l232 13z" />
<glyph unicode="&#x142;" horiz-adv-x="273" d="M354 469l-134 -70q-23 -109 -39 -195.5t-16 -149.5q0 -11 1 -25t4 -29h-120q-2 8 -3.5 22.5t-1.5 26.5q0 59 11.5 127.5t29.5 152.5l-103 -54l-15 48l131 69l36 165l12 128l135 10q-12 -63 -24.5 -121.5t-23.5 -111.5l104 55z" />
<glyph unicode="&#x143;" horiz-adv-x="646" d="M552 804q-51 -34 -105 -56t-100 -33l-16 36q41 27 83 59.5t81 70.5zM158 528l17 122l103 10l169 -502h2l95 492l99 10l-140 -660h-106l-160 483h-2l-93 -483h-96z" />
<glyph unicode="&#x144;" horiz-adv-x="550" d="M449 691q-43 -42 -90.5 -73.5t-91.5 -52.5l-22 34q36 35 73 74.5t69 81.5zM170 0h-120q-2 11 -3 24t-1 25q0 60 13 136t37 187l12 128l135 10q-12 -60 -22.5 -111t-19.5 -95q25 60 59.5 106.5t75 73t82.5 26.5q40 0 67 -27.5t19 -91.5q-7 -55 -20 -111.5t-23.5 -114 t-10.5 -116.5q0 -11 1 -24t4 -25h-120q-3 17 -4 27.5t-1 32.5q0 63 17 136t32 169q1 26 -8.5 42t-27.5 16q-25 0 -54 -28t-55.5 -76.5t-45 -109.5t-22.5 -126v-31q0 -11 0.5 -24.5t3.5 -27.5z" />
<glyph unicode="&#x145;" horiz-adv-x="646" d="M158 528l17 122l103 10l169 -502h2l95 492l99 10l-140 -660h-106l-160 483h-2l-93 -483h-96zM318 -124q-1 -28 -17.5 -58.5t-40.5 -58t-47 -46.5l-24 19q12 18 24 38.5t21 41.5q-16 4 -25.5 15.5t-7.5 31.5q1 30 23 51.5t51 21.5q22 0 33.5 -15.5t9.5 -40.5z" />
<glyph unicode="&#x146;" horiz-adv-x="550" d="M170 0h-120q-2 11 -3 24t-1 25q0 60 13 136t37 187l12 128l135 10q-12 -60 -22.5 -111t-19.5 -95q25 60 59.5 106.5t75 73t82.5 26.5q40 0 67 -27.5t19 -91.5q-7 -55 -20 -111.5t-23.5 -114t-10.5 -116.5q0 -11 1 -24t4 -25h-120q-3 17 -4 27.5t-1 32.5q0 63 17 136 t32 169q1 26 -8.5 42t-27.5 16q-25 0 -54 -28t-55.5 -76.5t-45 -109.5t-22.5 -126v-31q0 -11 0.5 -24.5t3.5 -27.5zM273 -124q-2 -28 -18.5 -58.5t-40 -58t-46.5 -46.5l-25 19q12 18 24.5 38.5t21.5 41.5q-16 4 -25.5 15.5t-8.5 31.5q2 30 24 51.5t50 21.5q23 0 34 -15.5 t10 -40.5z" />
<glyph unicode="&#x147;" horiz-adv-x="646" d="M557 873l27 -18q-32 -29 -62.5 -60t-56.5 -64l-96 -8q-13 34 -29.5 66.5t-40.5 65.5l35 18q55 -33 95 -79q60 46 128 79zM158 528l17 122l103 10l169 -502h2l95 492l99 10l-140 -660h-106l-160 483h-2l-93 -483h-96z" />
<glyph unicode="&#x148;" horiz-adv-x="550" d="M441 753l33 -23q-30 -34 -58.5 -72t-53.5 -78l-95 -8q-7 41 -18.5 80t-27.5 78l41 23q21 -22 37.5 -48.5t29.5 -55.5q27 29 54.5 55.5t57.5 48.5zM170 0h-120q-2 11 -3 24t-1 25q0 60 13 136t37 187l12 128l135 10q-12 -60 -22.5 -111t-19.5 -95q25 60 59.5 106.5t75 73 t82.5 26.5q40 0 67 -27.5t19 -91.5q-7 -55 -20 -111.5t-23.5 -114t-10.5 -116.5q0 -11 1 -24t4 -25h-120q-3 17 -4 27.5t-1 32.5q0 63 17 136t32 169q1 26 -8.5 42t-27.5 16q-25 0 -54 -28t-55.5 -76.5t-45 -109.5t-22.5 -126v-31q0 -11 0.5 -24.5t3.5 -27.5z" />
<glyph unicode="&#x14a;" horiz-adv-x="646" d="M267 -140q52 20 80.5 60t40.5 94l1 7l-152 462h-2l-93 -483h-96l112 528l17 122l103 10l169 -502h2l95 492l99 10l-116 -550h-1l-6 -32q-11 -49 -26.5 -94t-43 -81.5t-72.5 -62t-114 -35.5z" />
<glyph unicode="&#x14b;" horiz-adv-x="521" d="M170 0h-120q-2 11 -3 24t-1 25q0 60 13 136t37 187l12 128l135 10q-12 -60 -22.5 -111t-19.5 -95q25 60 59.5 106.5t74.5 73t82 26.5q39 0 64.5 -23.5t25.5 -71.5q0 -22 -11.5 -82t-30 -143.5t-38.5 -176.5q-18 -82 -69.5 -135.5t-148.5 -72.5l-19 44q57 29 81.5 72 t36.5 98q26 123 42 195.5t23.5 109.5t7.5 52q0 19 -9.5 33t-29.5 14q-25 0 -53.5 -28t-55 -76.5t-45 -109t-22.5 -126.5v-31q0 -11 0.5 -24.5t3.5 -27.5z" />
<glyph unicode="&#x14c;" horiz-adv-x="631" d="M295 762l15 72h260l-15 -72h-260zM607 435q0 -79 -25.5 -157.5t-73 -143.5t-112.5 -104.5t-145 -39.5q-93 0 -144 57.5t-51 167.5q0 62 16.5 125.5t48 121t75 102t98.5 70.5t119 26q93 0 143.5 -58.5t50.5 -166.5zM187 203q0 -68 23 -107t69 -39q36 0 66.5 26t54.5 69.5 t41 96t26 105t9 97.5q0 67 -22.5 104.5t-66.5 37.5q-37 0 -68 -26t-55 -68.5t-41.5 -94.5t-26.5 -104.5t-9 -96.5z" />
<glyph unicode="&#x14d;" horiz-adv-x="539" d="M227 624l16 73h245l-16 -73h-245zM505 335q0 -61 -23 -122t-64 -111t-96.5 -80t-119.5 -30q-75 0 -121.5 41.5t-46.5 126.5q0 62 23 123.5t64.5 112.5t97 81.5t119.5 30.5q79 0 123 -45.5t44 -127.5zM158 152q0 -52 17.5 -76.5t47.5 -24.5q34 0 63 29t50 74.5t33 97 t12 96.5q0 48 -16 75t-48 27q-34 0 -63 -29t-50.5 -74.5t-33.5 -97t-12 -97.5z" />
<glyph unicode="&#x14e;" horiz-adv-x="631" d="M401 725q-51 0 -78.5 39t-18.5 97l43 7q3 -34 21 -53t51 -19q34 0 59.5 20.5t42.5 52.5l43 6q-12 -42 -36 -76t-57 -54t-70 -20zM607 435q0 -79 -25.5 -157.5t-73 -143.5t-112.5 -104.5t-145 -39.5q-93 0 -144 57.5t-51 167.5q0 62 16.5 125.5t48 121t75 102t98.5 70.5 t119 26q93 0 143.5 -58.5t50.5 -166.5zM187 203q0 -68 23 -107t69 -39q36 0 66.5 26t54.5 69.5t41 96t26 105t9 97.5q0 67 -22.5 104.5t-66.5 37.5q-37 0 -68 -26t-55 -68.5t-41.5 -94.5t-26.5 -104.5t-9 -96.5z" />
<glyph unicode="&#x14f;" horiz-adv-x="539" d="M318 573q-49 0 -73 43.5t-10 117.5l45 7q-4 -47 11.5 -72t45.5 -25q31 0 58 27t45 71l42 6q-13 -50 -38 -90t-57 -62.5t-69 -22.5zM505 335q0 -61 -23 -122t-64 -111t-96.5 -80t-119.5 -30q-75 0 -121.5 41.5t-46.5 126.5q0 62 23 123.5t64.5 112.5t97 81.5t119.5 30.5 q79 0 123 -45.5t44 -127.5zM158 152q0 -52 17.5 -76.5t47.5 -24.5q34 0 63 29t50 74.5t33 97t12 96.5q0 48 -16 75t-48 27q-34 0 -63 -29t-50.5 -74.5t-33.5 -97t-12 -97.5z" />
<glyph unicode="&#x150;" horiz-adv-x="631" d="M436 813q-53 -36 -108.5 -60t-103.5 -36l-16 35q44 27 89 59.5t85 70.5zM657 813q-54 -36 -109.5 -60t-103.5 -36l-15 35q43 27 88 59.5t86 70.5zM607 435q0 -79 -25.5 -157.5t-73 -143.5t-112.5 -104.5t-145 -39.5q-93 0 -144 57.5t-51 167.5q0 62 16.5 125.5t48 121 t75 102t98.5 70.5t119 26q93 0 143.5 -58.5t50.5 -166.5zM187 203q0 -68 23 -107t69 -39q36 0 66.5 26t54.5 69.5t41 96t26 105t9 97.5q0 67 -22.5 104.5t-66.5 37.5q-37 0 -68 -26t-55 -68.5t-41.5 -94.5t-26.5 -104.5t-9 -96.5z" />
<glyph unicode="&#x151;" horiz-adv-x="539" d="M374 740q-31 -54 -69.5 -98t-74.5 -75l-33 12q27 42 54 86.5t48 89.5zM517 740q-31 -54 -69.5 -98t-74.5 -75l-33 12q27 42 54 86.5t48 89.5zM505 335q0 -61 -23 -122t-64 -111t-96.5 -80t-119.5 -30q-75 0 -121.5 41.5t-46.5 126.5q0 62 23 123.5t64.5 112.5t97 81.5 t119.5 30.5q79 0 123 -45.5t44 -127.5zM158 152q0 -52 17.5 -76.5t47.5 -24.5q34 0 63 29t50 74.5t33 97t12 96.5q0 48 -16 75t-48 27q-34 0 -63 -29t-50.5 -74.5t-33.5 -97t-12 -97.5z" />
<glyph unicode="&#x152;" horiz-adv-x="806" d="M706 0h-381q-36 -10 -73 -10q-93 0 -144 59t-51 169q0 78 25.5 156t72.5 143t111.5 104t141.5 39q38 0 70 -10h360l-24 -80l-244 5q33 -56 33 -143q-1 -37 -6 -74l127 4l-24 -76l-118 3q-18 -62 -50.5 -117.5t-76.5 -96.5l270 6zM187 206q0 -67 22.5 -105.5t67.5 -38.5 q36 0 66.5 25.5t54.5 68t41 93.5t26 103t9 96q0 66 -22.5 103t-66.5 37q-36 0 -67 -25.5t-55 -67t-41 -92.5t-26 -102.5t-9 -94.5z" />
<glyph unicode="&#x153;" horiz-adv-x="801" d="M725 137l3 -61q-21 -24 -55.5 -43.5t-74 -31t-74.5 -11.5q-48 0 -83 22.5t-52 66.5q-37 -39 -85.5 -63t-103.5 -24q-73 0 -119.5 41.5t-46.5 127.5q0 62 23.5 124t65.5 112.5t96.5 80.5t115.5 30q105 0 141 -85q36 39 82 63t98 24q55 0 91 -27.5t36 -76.5t-33.5 -90.5 t-90.5 -69t-126 -31.5q-23 -1 -44 1q-2 -19 -2 -36q0 -57 22.5 -87.5t65.5 -30.5q37 0 77 21.5t73 53.5zM631 451q-31 0 -59.5 -32t-49.5 -80.5t-30 -98.5q64 9 105 37t60.5 62t19.5 62q0 22 -12 36t-34 14zM158 152q0 -52 17.5 -76.5t47.5 -24.5q34 0 63 29t50 74.5t33 97 t12 96.5q0 48 -16 75t-48 27q-34 0 -63 -29t-50.5 -74.5t-33.5 -97.5t-12 -97z" />
<glyph unicode="&#x154;" horiz-adv-x="560" d="M514 804q-51 -34 -105 -56t-100 -33l-16 36q41 27 83 59.5t81 70.5zM165 0h-119l112 528l17 122h183q102 0 150 -42t48 -117q0 -78 -44.5 -138t-121.5 -90l85 -263l-128 -10l-59 248q-22 -2 -45 -2h-28zM319 580h-31l-59 -274h34q58 0 95.5 26.5t56 66.5t18.5 82 q0 37 -12.5 57t-31 29t-37.5 11t-33 2z" />
<glyph unicode="&#x155;" horiz-adv-x="400" d="M397 691q-43 -42 -90.5 -73.5t-91.5 -52.5l-22 34q36 35 73 74.5t69 81.5zM170 0h-120q-2 11 -3 24t-1 25q0 60 13 136t37 187l12 128l135 10q-12 -61 -23 -113.5t-20 -97.5q18 59 44 107t57.5 76t67.5 28q21 0 39.5 -8t28.5 -17l-49 -99q-10 6 -28 11t-32 5 q-31 0 -60 -31.5t-52 -83.5t-36.5 -114.5t-13.5 -125.5q0 -10 1 -22.5t3 -24.5z" />
<glyph unicode="&#x156;" horiz-adv-x="560" d="M165 0h-119l112 528l17 122h183q102 0 150 -42t48 -117q0 -78 -44.5 -138t-121.5 -90l85 -263l-128 -10l-59 248q-22 -2 -45 -2h-28zM319 580h-31l-59 -274h34q58 0 95.5 26.5t56 66.5t18.5 82q0 37 -12.5 57t-31 29t-37.5 11t-33 2zM288 -124q-2 -28 -18.5 -58.5 t-40 -58t-46.5 -46.5l-25 19q12 18 24.5 38.5t21.5 41.5q-16 4 -25.5 15.5t-8.5 31.5q2 30 24 51.5t50 21.5q23 0 34 -15.5t10 -40.5z" />
<glyph unicode="&#x157;" horiz-adv-x="400" d="M170 0h-120q-2 11 -3 24t-1 25q0 60 13 136t37 187l12 128l135 10q-12 -61 -23 -113.5t-20 -97.5q18 59 44 107t57.5 76t67.5 28q21 0 39.5 -8t28.5 -17l-49 -99q-10 6 -28 11t-32 5q-31 0 -60 -31.5t-52 -83.5t-36.5 -114.5t-13.5 -125.5q0 -10 1 -22.5t3 -24.5z M144 -124q-1 -28 -17.5 -58.5t-40.5 -58t-47 -46.5l-25 19q13 18 25 38.5t21 41.5q-16 4 -25.5 15.5t-7.5 31.5q1 30 23 51.5t51 21.5q22 0 33.5 -15.5t9.5 -40.5z" />
<glyph unicode="&#x158;" horiz-adv-x="560" d="M519 873l27 -18q-32 -29 -62.5 -60t-56.5 -64l-96 -8q-13 34 -29.5 66.5t-40.5 65.5l35 18q55 -33 95 -79q60 46 128 79zM165 0h-119l112 528l17 122h183q102 0 150 -42t48 -117q0 -78 -44.5 -138t-121.5 -90l85 -263l-128 -10l-59 248q-22 -2 -45 -2h-28zM319 580h-31 l-59 -274h34q58 0 95.5 26.5t56 66.5t18.5 82q0 37 -12.5 57t-31 29t-37.5 11t-33 2z" />
<glyph unicode="&#x159;" horiz-adv-x="400" d="M389 753l33 -23q-30 -34 -58.5 -72t-53.5 -78l-95 -8q-7 41 -18.5 80t-27.5 78l41 23q21 -22 37.5 -48.5t29.5 -55.5q27 29 54.5 55.5t57.5 48.5zM170 0h-120q-2 11 -3 24t-1 25q0 60 13 136t37 187l12 128l135 10q-12 -61 -23 -113.5t-20 -97.5q18 59 44 107t57.5 76 t67.5 28q21 0 39.5 -8t28.5 -17l-49 -99q-10 6 -28 11t-32 5q-31 0 -60 -31.5t-52 -83.5t-36.5 -114.5t-13.5 -125.5q0 -10 1 -22.5t3 -24.5z" />
<glyph unicode="&#x15a;" horiz-adv-x="484" d="M488 804q-51 -34 -104.5 -56t-100.5 -33l-15 36q41 27 83 59.5t80 70.5zM421 195q0 -61 -36 -107.5t-95 -72t-128 -25.5q-26 0 -56.5 3.5t-59 10t-48.5 14.5l41 111q26 -23 64.5 -40t76.5 -17q49 0 79.5 28t30.5 67q0 30 -19 53t-47 45t-56 47t-47 58t-19 80q0 59 35 107 t96 75.5t139 27.5q75 0 134 -22l-42 -106q-21 17 -54.5 31.5t-66.5 14.5q-50 0 -80 -29t-30 -68q0 -32 18.5 -56t46.5 -46t56.5 -47.5t47.5 -58.5t19 -78z" />
<glyph unicode="&#x15b;" horiz-adv-x="426" d="M404 684q-43 -42 -90.5 -73.5t-91.5 -52.5l-22 34q36 35 73 74.5t69 81.5zM364 151q0 -47 -30 -83.5t-82 -57t-118 -20.5q-36 0 -76.5 6.5t-67.5 16.5l28 96q26 -16 65 -28t75 -12q40 0 64.5 18t24.5 46q0 30 -26.5 48.5t-62.5 42.5q-32 21 -57.5 48t-25.5 72 q0 47 30 84.5t82.5 59.5t121.5 22q31 0 63 -5t55 -13l-28 -96q-26 15 -58 25.5t-60 10.5q-40 0 -64 -21t-24 -48q0 -26 23 -44.5t51 -37.5q23 -15 45.5 -32t37 -41t14.5 -57z" />
<glyph unicode="&#x15c;" horiz-adv-x="484" d="M250 720l-27 19q32 28 62.5 59t56.5 64l96 8q12 -34 29 -66.5t41 -64.5l-35 -19q-55 33 -96 79q-60 -46 -127 -79zM421 195q0 -61 -36 -107.5t-95 -72t-128 -25.5q-26 0 -56.5 3.5t-59 10t-48.5 14.5l41 111q26 -23 64.5 -40t76.5 -17q49 0 79.5 28t30.5 67q0 30 -19 53 t-47 45t-56 47t-47 58t-19 80q0 59 35 107t96 75.5t139 27.5q75 0 134 -22l-42 -106q-21 17 -54.5 31.5t-66.5 14.5q-50 0 -80 -29t-30 -68q0 -32 18.5 -56t46.5 -46t56.5 -47.5t47.5 -58.5t19 -78z" />
<glyph unicode="&#x15d;" horiz-adv-x="426" d="M209 554l-33 22q29 35 58 72.5t54 77.5l95 8q7 -41 18.5 -80t27.5 -78l-41 -22q-21 21 -37.5 47.5t-30.5 55.5q-26 -29 -54 -55.5t-57 -47.5zM364 151q0 -47 -30 -83.5t-82 -57t-118 -20.5q-36 0 -76.5 6.5t-67.5 16.5l28 96q26 -16 65 -28t75 -12q40 0 64.5 18t24.5 46 q0 30 -26.5 48.5t-62.5 42.5q-32 21 -57.5 48t-25.5 72q0 47 30 84.5t82.5 59.5t121.5 22q31 0 63 -5t55 -13l-28 -96q-26 15 -58 25.5t-60 10.5q-40 0 -64 -21t-24 -48q0 -26 23 -44.5t51 -37.5q23 -15 45.5 -32t37 -41t14.5 -57z" />
<glyph unicode="&#x15e;" horiz-adv-x="484" d="M174 -117q6 28 -50 39l39 68h-1q-26 0 -56.5 3.5t-59 10t-48.5 14.5l41 111q26 -23 64.5 -40t76.5 -17q49 0 79.5 28t30.5 67q0 30 -19 53t-47 45t-56 47t-47 58t-19 80q0 59 35 107t96 75.5t139 27.5q75 0 134 -22l-42 -106q-21 17 -54.5 31.5t-66.5 14.5q-50 0 -80 -29 t-30 -68q0 -32 18.5 -56t46.5 -46t56.5 -47.5t47 -58.5t18.5 -78q0 -55 -29 -97.5t-77.5 -69.5t-108.5 -35l-21 -38q45 -6 67 -24t16 -44q-9 -40 -59.5 -62t-128.5 -23l4 36q36 4 61 15t30 30z" />
<glyph unicode="&#x15f;" horiz-adv-x="426" d="M152 -117q6 28 -50 39l39 68h-7q-36 0 -76.5 6.5t-67.5 16.5l28 96q26 -16 65 -28t75 -12q40 0 64.5 18t24.5 46q0 30 -26.5 48.5t-62.5 42.5q-32 21 -57.5 48t-25.5 72q0 47 30 84.5t82.5 59.5t121.5 22q31 0 63 -5t55 -13l-28 -96q-26 15 -58 25.5t-60 10.5 q-40 0 -64 -21t-24 -48q0 -26 23 -44.5t51 -37.5q23 -15 45.5 -32t37 -41t14.5 -58q0 -60 -50 -103t-130 -54l-22 -38q45 -6 67 -24t16 -44q-9 -40 -59.5 -62t-128.5 -23l4 36q36 4 61 15t30 30z" />
<glyph unicode="&#x160;" horiz-adv-x="484" d="M493 873l27 -18q-32 -29 -62.5 -60t-56.5 -64l-96 -8q-12 34 -29 66.5t-40 65.5l35 18q54 -33 95 -79q60 46 127 79zM421 195q0 -61 -36 -107.5t-95 -72t-128 -25.5q-26 0 -56.5 3.5t-59 10t-48.5 14.5l41 111q26 -23 64.5 -40t76.5 -17q49 0 79.5 28t30.5 67 q0 30 -19 53t-47 45t-56 47t-47 58t-19 80q0 59 35 107t96 75.5t139 27.5q75 0 134 -22l-42 -106q-21 17 -54.5 31.5t-66.5 14.5q-50 0 -80 -29t-30 -68q0 -32 18.5 -56t46.5 -46t56.5 -47.5t47.5 -58.5t19 -78z" />
<glyph unicode="&#x161;" horiz-adv-x="426" d="M396 746l33 -23q-30 -34 -58.5 -72t-53.5 -78l-95 -8q-7 41 -18.5 80t-27.5 78l41 23q21 -22 37.5 -48.5t29.5 -55.5q27 29 54.5 55.5t57.5 48.5zM364 151q0 -47 -30 -83.5t-82 -57t-118 -20.5q-36 0 -76.5 6.5t-67.5 16.5l28 96q26 -16 65 -28t75 -12q40 0 64.5 18 t24.5 46q0 30 -26.5 48.5t-62.5 42.5q-32 21 -57.5 48t-25.5 72q0 47 30 84.5t82.5 59.5t121.5 22q31 0 63 -5t55 -13l-28 -96q-26 15 -58 25.5t-60 10.5q-40 0 -64 -21t-24 -48q0 -26 23 -44.5t51 -37.5q23 -15 45.5 -32t37 -41t14.5 -57z" />
<glyph unicode="&#x162;" horiz-adv-x="480" d="M173 -117q6 28 -50 39l45 78h-40l120 570l-164 -8l25 88h431l-12 -88l-161 7l-120 -569h-38l-26 -45q45 -6 67 -24t16 -44q-9 -40 -59.5 -62t-128.5 -23l4 36q36 4 61 15t30 30z" />
<glyph unicode="&#x163;" horiz-adv-x="398" d="M147 -117q7 28 -49 39l40 70q-41 5 -64 30t-23 72q0 14 2.5 34t10 56t20.5 96t33 155l-52 2l7 34l67 12v0l58 137l81 6q-8 -40 -16 -75.5t-15 -67.5h155l-17 -54l-148 3q-24 -110 -38 -175.5t-20 -98t-6 -45.5q0 -45 46 -45q32 0 61 20t58 49l3 -61q-34 -38 -76 -60.5 t-88 -25.5l-20 -35q46 -6 67.5 -24t16.5 -44q-9 -40 -60 -62t-128 -23l3 36q36 4 61.5 15t29.5 30z" />
<glyph unicode="&#x164;" horiz-adv-x="480" d="M473 873l27 -18q-32 -29 -62.5 -60t-56.5 -64l-96 -8q-13 34 -29.5 66.5t-40.5 65.5l35 18q55 -33 95 -79q60 46 128 79zM247 0h-119l120 570l-164 -8l25 88h431l-12 -88l-161 7z" />
<glyph unicode="&#x165;" horiz-adv-x="398" d="M477 724q-27 -60 -62 -112t-68 -89l-40 10q18 42 37.5 96t32.5 101zM341 76q-36 -41 -82 -63.5t-94 -22.5q-54 0 -84 25t-30 79q0 14 2.5 34t10 56t20.5 96t33 155l-52 2l7 34l67 12v0l58 137l81 6q-8 -40 -16 -75.5t-15 -67.5h155l-17 -54l-148 3q-24 -110 -38 -175.5 t-20 -98t-6 -45.5q0 -45 46 -45q32 0 61 20t58 49z" />
<glyph unicode="&#x166;" horiz-adv-x="480" d="M247 0h-119l63 300h-115l11 51h115l46 219l-164 -8l25 88h431l-12 -88l-161 7l-46 -218h114l-11 -51h-114z" />
<glyph unicode="&#x167;" horiz-adv-x="398" d="M341 76q-36 -41 -82 -63.5t-94 -22.5q-54 0 -84 25t-30 79q0 13 2 29.5t7.5 44.5t15.5 75h-51l10 51h51q7 28 14.5 63.5t16.5 77.5l-52 2l7 34l67 12v0l58 137l81 6q-8 -40 -16 -75.5t-15 -67.5h155l-17 -54l-148 3q-9 -41 -16.5 -75.5t-13.5 -62.5h142l-11 -51h-142 q-13 -59 -18 -88.5t-5 -41.5q0 -45 46 -45q32 0 61 20t58 49z" />
<glyph unicode="&#x168;" horiz-adv-x="637" d="M398 859q25 0 41.5 -11t31 -21.5t33.5 -10.5t33.5 13t30.5 34l27 -7q-9 -29 -25 -56t-38.5 -44t-49.5 -17q-23 0 -40.5 10.5t-33 21t-33.5 10.5q-16 0 -32 -12t-32 -35l-28 7q9 28 24.5 55t38.5 45t52 18zM285 62q52 0 87 41.5t50 114.5l65 310l17 122l130 10l-93 -433 q-16 -77 -57 -130t-98.5 -80t-123.5 -27q-84 0 -131 41.5t-47 118.5q0 12 1 25.5t5.5 36t12.5 61t21 100t33 155.5l18 122l130 10q-29 -133 -47.5 -219.5t-29.5 -139t-16.5 -80.5t-7 -42.5t-1.5 -27.5q0 -39 20.5 -64t61.5 -25z" />
<glyph unicode="&#x169;" horiz-adv-x="552" d="M310 728q26 0 43.5 -12.5t33 -25t35.5 -12.5q18 0 32 15t28 37l28 -7q-8 -29 -23.5 -57.5t-37.5 -46.5t-49 -18q-24 0 -42.5 12.5t-35.5 25t-35 12.5q-15 0 -30 -13.5t-30 -37.5l-27 6q8 29 22.5 57t36.5 46.5t51 18.5zM96 372l12 128l135 10q-18 -102 -35.5 -182 t-29 -133.5t-11.5 -73.5q0 -21 9.5 -32.5t25.5 -11.5q22 0 47 23t49 63.5t44 93.5t32 113q6 31 7.5 44.5t2.5 36.5q0 6 1 24t1 25l135 10q-30 -160 -53.5 -270t-23.5 -187q0 -9 1 -23.5t4 -29.5h-120q-3 17 -4 30.5t-1 25.5q0 20 1 36t3.5 36.5t9.5 54.5 q-39 -88 -96.5 -140.5t-115.5 -52.5q-39 0 -61.5 25t-22.5 77q0 14 2 30.5t8 45t16.5 77t27.5 127.5z" />
<glyph unicode="&#x16a;" horiz-adv-x="637" d="M302 762l15 72h260l-15 -72h-260zM285 62q52 0 87 41.5t50 114.5l65 310l17 122l130 10l-93 -433q-16 -77 -57 -130t-98.5 -80t-123.5 -27q-84 0 -131 41.5t-47 118.5q0 12 1 25.5t5.5 36t12.5 61t21 100t33 155.5l18 122l130 10q-29 -133 -47.5 -219.5t-29.5 -139 t-16.5 -80.5t-7 -42.5t-1.5 -27.5q0 -39 20.5 -64t61.5 -25z" />
<glyph unicode="&#x16b;" horiz-adv-x="552" d="M221 624l16 73h245l-16 -73h-245zM96 372l12 128l135 10q-18 -102 -35.5 -182t-29 -133.5t-11.5 -73.5q0 -21 9.5 -32.5t25.5 -11.5q22 0 47 23t49 63.5t44 93.5t32 113q6 31 7.5 44.5t2.5 36.5q0 6 1 24t1 25l135 10q-30 -160 -53.5 -270t-23.5 -187q0 -9 1 -23.5 t4 -29.5h-120q-3 17 -4 30.5t-1 25.5q0 20 1 36t3.5 36.5t9.5 54.5q-39 -88 -96.5 -140.5t-115.5 -52.5q-39 0 -61.5 25t-22.5 77q0 14 2 30.5t8 45t16.5 77t27.5 127.5z" />
<glyph unicode="&#x16c;" horiz-adv-x="637" d="M408 725q-51 0 -78.5 39t-18.5 97l43 7q3 -34 21 -53t51 -19q34 0 59.5 20.5t42.5 52.5l43 6q-12 -42 -36 -76t-57 -54t-70 -20zM285 62q52 0 87 41.5t50 114.5l65 310l17 122l130 10l-93 -433q-16 -77 -57 -130t-98.5 -80t-123.5 -27q-84 0 -131 41.5t-47 118.5 q0 12 1 25.5t5.5 36t12.5 61t21 100t33 155.5l18 122l130 10q-29 -133 -47.5 -219.5t-29.5 -139t-16.5 -80.5t-7 -42.5t-1.5 -27.5q0 -39 20.5 -64t61.5 -25z" />
<glyph unicode="&#x16d;" horiz-adv-x="552" d="M312 573q-49 0 -73 43.5t-10 117.5l45 7q-4 -47 11.5 -72t45.5 -25q31 0 58 27t45 71l42 6q-13 -50 -38 -90t-57 -62.5t-69 -22.5zM96 372l12 128l135 10q-18 -102 -35.5 -182t-29 -133.5t-11.5 -73.5q0 -21 9.5 -32.5t25.5 -11.5q22 0 47 23t49 63.5t44 93.5t32 113 q6 31 7.5 44.5t2.5 36.5q0 6 1 24t1 25l135 10q-30 -160 -53.5 -270t-23.5 -187q0 -9 1 -23.5t4 -29.5h-120q-3 17 -4 30.5t-1 25.5q0 20 1 36t3.5 36.5t9.5 54.5q-39 -88 -96.5 -140.5t-115.5 -52.5q-39 0 -61.5 25t-22.5 77q0 14 2 30.5t8 45t16.5 77t27.5 127.5z" />
<glyph unicode="&#x16e;" horiz-adv-x="637" d="M540 824q0 -31 -18 -56.5t-47 -41t-61 -15.5q-36 0 -55 18t-19 46q0 29 18 54.5t47 42t64 16.5q34 0 52.5 -17.5t18.5 -46.5zM396 789q0 -14 8.5 -22t23.5 -8q21 0 38.5 16t17.5 36q0 14 -9 21.5t-23 7.5q-21 0 -38.5 -15.5t-17.5 -35.5zM285 62q52 0 87 41.5t50 114.5 l65 310l17 122l130 10l-93 -433q-16 -77 -57 -130t-98.5 -80t-123.5 -27q-84 0 -131 41.5t-47 118.5q0 12 1 25.5t5.5 36t12.5 61t21 100t33 155.5l18 122l130 10q-29 -133 -47.5 -219.5t-29.5 -139t-16.5 -80.5t-7 -42.5t-1.5 -27.5q0 -39 20.5 -64t61.5 -25z" />
<glyph unicode="&#x16f;" horiz-adv-x="552" d="M449 689q0 -33 -17.5 -61.5t-46 -45t-60.5 -16.5q-37 0 -56.5 21.5t-14.5 57.5q4 31 21.5 57t44.5 41.5t58 15.5q32 0 51.5 -18t19.5 -52zM306 646q0 -35 32 -35q22 0 40.5 19.5t18.5 47.5q0 36 -33 36q-23 0 -40.5 -20.5t-17.5 -47.5zM96 372l12 128l135 10 q-18 -102 -35.5 -182t-29 -133.5t-11.5 -73.5q0 -21 9.5 -32.5t25.5 -11.5q22 0 47 23t49 63.5t44 93.5t32 113q6 31 7.5 44.5t2.5 36.5q0 6 1 24t1 25l135 10q-30 -160 -53.5 -270t-23.5 -187q0 -9 1 -23.5t4 -29.5h-120q-3 17 -4 30.5t-1 25.5q0 20 1 36t3.5 36.5 t9.5 54.5q-39 -88 -96.5 -140.5t-115.5 -52.5q-39 0 -61.5 25t-22.5 77q0 14 2 30.5t8 45t16.5 77t27.5 127.5z" />
<glyph unicode="&#x170;" horiz-adv-x="637" d="M443 813q-53 -36 -108.5 -60t-103.5 -36l-16 35q44 27 89 59.5t85 70.5zM664 813q-54 -36 -109.5 -60t-103.5 -36l-15 35q43 27 88 59.5t86 70.5zM285 62q52 0 87 41.5t50 114.5l65 310l17 122l130 10l-93 -433q-16 -77 -57 -130t-98.5 -80t-123.5 -27q-84 0 -131 41.5 t-47 118.5q0 12 1 25.5t5.5 36t12.5 61t21 100t33 155.5l18 122l130 10q-29 -133 -47.5 -219.5t-29.5 -139t-16.5 -80.5t-7 -42.5t-1.5 -27.5q0 -39 20.5 -64t61.5 -25z" />
<glyph unicode="&#x171;" horiz-adv-x="552" d="M368 740q-31 -54 -69.5 -98t-74.5 -75l-33 12q27 42 54 86.5t48 89.5zM511 740q-31 -54 -69.5 -98t-74.5 -75l-33 12q27 42 54 86.5t48 89.5zM96 372l12 128l135 10q-18 -102 -35.5 -182t-29 -133.5t-11.5 -73.5q0 -21 9.5 -32.5t25.5 -11.5q22 0 47 23t49 63.5t44 93.5 t32 113q6 31 7.5 44.5t2.5 36.5q0 6 1 24t1 25l135 10q-30 -160 -53.5 -270t-23.5 -187q0 -9 1 -23.5t4 -29.5h-120q-3 17 -4 30.5t-1 25.5q0 20 1 36t3.5 36.5t9.5 54.5q-39 -88 -96.5 -140.5t-115.5 -52.5q-39 0 -61.5 25t-22.5 77q0 14 2 30.5t8 45t16.5 77t27.5 127.5z " />
<glyph unicode="&#x172;" horiz-adv-x="617" d="M293 62q52 0 86.5 41.5t49.5 114.5l65 310l18 122l129 10l-93 -433q-13 -62 -42 -108.5t-70 -76.5h1q-57 -41 -95.5 -79t-38.5 -73q0 -31 37 -31q12 0 24.5 3t27.5 9l5 -34q-20 -15 -48.5 -25.5t-61.5 -10.5q-35 0 -56 14t-21 45q0 37 27.5 70.5t71.5 61.5q-19 -2 -39 -2 q-84 0 -131.5 41.5t-47.5 118.5q0 12 1.5 25.5t5.5 36t12 61t21.5 100t33.5 155.5l18 122l129 10q-28 -133 -46.5 -219.5t-29.5 -139t-16.5 -80.5t-7 -42.5t-1.5 -27.5q0 -39 20.5 -64t61.5 -25z" />
<glyph unicode="&#x173;" horiz-adv-x="552" d="M96 372l12 128l135 10q-18 -102 -35.5 -182t-29 -133.5t-11.5 -73.5q0 -21 9.5 -32.5t25.5 -11.5q22 0 47 23t49 63.5t44 93.5t32 113q6 31 7.5 44.5t2.5 36.5q0 6 1 24t1 25l135 10q-30 -160 -53.5 -270t-23.5 -187q0 -9 1 -23.5t4 -29.5q-52 -19 -87.5 -51.5 t-35.5 -61.5q0 -28 37 -28q12 0 24.5 3t27.5 9l5 -34q-20 -15 -49 -25.5t-62 -10.5q-34 0 -55 13t-22 40q0 43 42 82.5t102 63.5h-47q-3 17 -4 30.5t-1 25.5q0 20 1 36t3.5 36.5t9.5 54.5q-39 -88 -96.5 -140.5t-115.5 -52.5q-39 0 -61.5 25t-22.5 77q0 14 2 30.5t8 45 t16.5 77t27.5 127.5z" />
<glyph unicode="&#x174;" horiz-adv-x="863" d="M426 720l-27 19q31 28 61.5 59t57.5 64l96 8q12 -34 28.5 -66.5t40.5 -64.5l-35 -19q-55 33 -95 79q-60 -46 -127 -79zM107 0l3 650l118 10l-10 -571h1l233 561h146l-10 -561h2l234 571l102 -10l-287 -650h-164l16 534h-2l-218 -534h-164z" />
<glyph unicode="&#x175;" horiz-adv-x="743" d="M334 561l-33 22q30 35 58.5 72.5t54.5 77.5l94 8q8 -41 19 -80t28 -78l-42 -22q-21 21 -37.5 47.5t-29.5 55.5q-27 -29 -54.5 -55.5t-57.5 -47.5zM85 246q-2 70 -7.5 136.5t-15.5 117.5l122 10q7 -40 11.5 -88.5t6.5 -98.5q2 -69 -2 -140t-10 -132h2q44 74 78.5 154.5 t55 157t21.5 137.5l114 10q8 -39 12.5 -86.5t6.5 -96.5q1 -70 -2.5 -141.5t-10.5 -134.5h2q44 74 79 154.5t55.5 157t20.5 138.5q17 5 31 7t26 2q25 0 40.5 -9.5t15.5 -38.5q0 -32 -18 -88t-53 -123t-86.5 -135t-119.5 -125l-93 9q5 53 7 118t2 132t-1 126h-1 q-11 -43 -30.5 -94.5t-44.5 -104t-55 -101t-61 -85.5l-101 9q3 54 3.5 117.5t-0.5 128.5z" />
<glyph unicode="&#x176;" horiz-adv-x="542" d="M263 720l-27 19q31 28 61.5 59t57.5 64l96 8q12 -34 28.5 -66.5t40.5 -64.5l-35 -19q-55 33 -95 79q-60 -46 -127 -79zM278 0h-118l43 207l-93 443l118 10l58 -351h2l208 351l108 -10l-281 -443h-1z" />
<glyph unicode="&#x177;" horiz-adv-x="477" d="M208 561l-33 22q30 35 58.5 72.5t54.5 77.5l94 8q8 -41 19 -80t28 -78l-42 -22q-21 21 -37.5 47.5t-29.5 55.5q-27 -29 -54.5 -55.5t-57.5 -47.5zM252 2q-47 -58 -99 -102.5t-105 -69.5t-101 -25q-35 0 -56 12.5t-21 38.5q0 15 6.5 30.5t18.5 24.5q17 -6 39 -9t41 -3 q34 0 72.5 15t73.5 41.5t57 58.5l-86 5q2 53 2 112t-1 121q-2 67 -8 132.5t-16 115.5l122 10q8 -41 12.5 -87.5t7.5 -94.5q2 -65 -1.5 -132.5t-10.5 -127.5h2q44 71 79.5 148.5t56.5 151.5t21 133q17 5 31 7t26 2q25 0 40.5 -10t15.5 -37q0 -32 -17 -86.5t-47.5 -119.5 t-70 -131.5t-84.5 -123.5z" />
<glyph unicode="&#x178;" horiz-adv-x="542" d="M354 819q0 -33 -26 -59t-62 -25q-23 0 -36 11.5t-13 31.5t12.5 39.5t33 32t44.5 12.5q21 0 34 -11t13 -32zM563 819q0 -21 -12.5 -40.5t-32.5 -32t-44 -11.5q-22 0 -35.5 11t-13.5 32q0 20 12.5 39t33 32t45.5 13q21 0 34 -11t13 -32zM278 0h-118l43 207l-93 443l118 10 l58 -351h2l208 351l108 -10l-281 -443h-1z" />
<glyph unicode="&#x179;" horiz-adv-x="487" d="M472 804q-51 -34 -104.5 -56t-100.5 -33l-15 36q41 27 83 59.5t80 70.5zM392 0h-394l-2 63l382 502q-61 -1 -107 -2t-84.5 -2.5t-77.5 -3.5l27 93h379l1 -62l-383 -503q64 1 111.5 3t89 5.5t87.5 9.5z" />
<glyph unicode="&#x17a;" horiz-adv-x="459" d="M409 691q-43 -42 -90.5 -73.5t-91.5 -52.5l-22 34q36 35 73 74.5t69 81.5zM3 -10l-20 31q94 90 174.5 179.5t143.5 175.5q-35 19 -71 27t-62 8t-47.5 -10.5t-35.5 -37.5l-25 8q8 55 25 85t40 42t51 12q42 0 85 -21t81 -53q25 38 46 74q20 0 36.5 -8.5t16.5 -30.5 t-19.5 -55t-52 -72t-73 -80.5t-84 -81t-84.5 -72.5q43 -1 74 -11t67 -10q37 0 66.5 13.5t47.5 50.5l25 -8q-15 -62 -38 -95.5t-52.5 -46.5t-64.5 -13q-31 0 -57.5 7.5t-51 15t-50.5 7.5q-23 0 -44 -6.5t-47 -23.5z" />
<glyph unicode="&#x17b;" horiz-adv-x="487" d="M434 819q0 -22 -13 -42t-34.5 -32.5t-47.5 -12.5q-24 0 -38 11.5t-14 32.5q0 22 13 42t35 33t48 13q22 0 36.5 -11.5t14.5 -33.5zM392 0h-394l-2 63l382 502q-61 -1 -107 -2t-84.5 -2.5t-77.5 -3.5l27 93h379l1 -62l-383 -503q64 1 111.5 3t89 5.5t87.5 9.5z" />
<glyph unicode="&#x17c;" horiz-adv-x="459" d="M381 680q0 -21 -13 -41t-34.5 -33t-47.5 -13q-24 0 -38 12t-14 33t13 41t35 33.5t48 13.5q22 0 36.5 -12t14.5 -34zM3 -10l-20 31q94 90 174.5 179.5t143.5 175.5q-35 19 -71 27t-62 8t-47.5 -10.5t-35.5 -37.5l-25 8q8 55 25 85t40 42t51 12q42 0 85 -21t81 -53 q25 38 46 74q20 0 36.5 -8.5t16.5 -30.5t-19.5 -55t-52 -72t-73 -80.5t-84 -81t-84.5 -72.5q43 -1 74 -11t67 -10q37 0 66.5 13.5t47.5 50.5l25 -8q-15 -62 -38 -95.5t-52.5 -46.5t-64.5 -13q-31 0 -57.5 7.5t-51 15t-50.5 7.5q-23 0 -44 -6.5t-47 -23.5z" />
<glyph unicode="&#x17d;" horiz-adv-x="487" d="M477 873l27 -18q-32 -29 -62.5 -60t-56.5 -64l-96 -8q-12 34 -29 66.5t-40 65.5l34 18q55 -33 96 -79q60 46 127 79zM392 0h-394l-2 63l382 502q-61 -1 -107 -2t-84.5 -2.5t-77.5 -3.5l27 93h379l1 -62l-383 -503q64 1 111.5 3t89 5.5t87.5 9.5z" />
<glyph unicode="&#x17e;" horiz-adv-x="459" d="M401 753l33 -23q-30 -34 -58.5 -72t-53.5 -78l-95 -8q-7 41 -18.5 80t-27.5 78l41 23q21 -22 37.5 -48.5t29.5 -55.5q27 29 54.5 55.5t57.5 48.5zM3 -10l-20 31q94 90 174.5 179.5t143.5 175.5q-35 19 -71 27t-62 8t-47.5 -10.5t-35.5 -37.5l-25 8q8 55 25 85t40 42 t51 12q42 0 85 -21t81 -53q25 38 46 74q20 0 36.5 -8.5t16.5 -30.5t-19.5 -55t-52 -72t-73 -80.5t-84 -81t-84.5 -72.5q43 -1 74 -11t67 -10q37 0 66.5 13.5t47.5 50.5l25 -8q-15 -62 -38 -95.5t-52.5 -46.5t-64.5 -13q-31 0 -57.5 7.5t-51 15t-50.5 7.5q-23 0 -44 -6.5 t-47 -23.5z" />
<glyph unicode="&#x18f;" horiz-adv-x="573" d="M110 473l-4 77q26 29 64 54t83.5 40.5t94.5 15.5q93 0 147 -57t54 -168q0 -83 -28.5 -162.5t-77.5 -143t-111.5 -101.5t-132.5 -38q-66 0 -105 34t-39 97q0 51 26 94t69.5 75.5t98.5 52.5t112 25q14 1 28 1.5t29 -0.5q2 23 2 44q0 78 -32.5 118.5t-92.5 40.5 q-50 0 -98.5 -28.5t-86.5 -70.5zM175 116q0 -27 13.5 -43t39.5 -16q33 0 63 24.5t54.5 66t42.5 91.5t26 101q-63 -9 -108 -33.5t-74 -57.5t-43 -68.5t-14 -64.5z" />
<glyph unicode="&#x192;" horiz-adv-x="513" d="M432 277l-150 3l-68 -215q-8 -27 -23.5 -64t-43 -73t-70.5 -60t-106 -24q-24 0 -49.5 5t-48.5 15l41 70q13 -8 32 -15.5t39 -7.5q32 0 54.5 20t37.5 51.5t25 65.5l62 235l-83 2l13 34l83 12q8 29 19.5 71t23.5 72q19 53 51.5 95t81 66.5t117.5 24.5q37 0 65 -7.5 t46 -19.5l-49 -85q-11 16 -32.5 30.5t-48.5 14.5q-38 0 -65 -31t-47 -92q-19 -55 -29 -88.5t-14 -50.5h157z" />
<glyph unicode="&#x19d;" horiz-adv-x="646" d="M-75 -195l3 55q51 20 79.5 59.5t40.5 94.5l110 514l17 122l103 10l169 -502h2l95 492l99 10l-140 -660h-106l-160 483h-2q-8 -45 -14 -75.5t-10.5 -54t-9.5 -48t-11.5 -57l-16 -80l-23.5 -117.5q-21 -99 -71.5 -163.5t-153.5 -82.5z" />
<glyph unicode="&#x1cd;" horiz-adv-x="574" d="M523 873l27 -18q-32 -29 -62.5 -60t-56.5 -64l-96 -8q-12 34 -29 66.5t-40 65.5l35 18q54 -33 95 -79q60 46 127 79zM84 0h-112l266 526l60 125l155 9l43 -660h-117l-7 154h-216zM352 566l-165 -347h182l-16 347h-1z" />
<glyph unicode="&#x1ce;" horiz-adv-x="557" d="M472 753l33 -23q-30 -34 -59 -72t-54 -78l-94 -8q-8 41 -19 80t-28 78l42 23q20 -22 36.5 -48.5t30.5 -55.5q26 29 54 55.5t58 48.5zM26 126q0 50 15.5 103.5t45 103.5t72 90t96.5 63.5t119 23.5q40 0 79.5 -9t70.5 -23l-40 -175q-10 -46 -22.5 -111.5t-12.5 -135.5 q0 -12 1 -26.5t4 -29.5h-120q-2 12 -3.5 24t-1.5 30q0 33 4 70t14 87q-28 -64 -65 -114t-79 -78.5t-82 -28.5q-44 0 -69.5 35t-25.5 101zM150 152q0 -36 10.5 -58t30.5 -22q30 0 66.5 43.5t71 118.5t58.5 168q4 17 9 38q-27 11 -49 11q-40 0 -76 -29.5t-63 -76t-42.5 -98 t-15.5 -95.5z" />
<glyph unicode="&#x1cf;" horiz-adv-x="308" d="M386 873l27 -18q-32 -29 -62.5 -60t-56.5 -64l-96 -8q-13 34 -29.5 66.5t-40.5 65.5l35 18q55 -33 95 -79q60 46 128 79zM165 0h-119l112 528l17 122l130 10z" />
<glyph unicode="&#x1d0;" horiz-adv-x="274" d="M292 757l29 -17q-23 -38 -45.5 -79.5t-43.5 -84.5l-97 -8q-3 45 -7.5 86.5t-13.5 85.5l35 17q14 -23 26.5 -50.5t22.5 -58.5q24 31 47 58.5t47 50.5zM243 510q-30 -160 -53.5 -270t-23.5 -187q0 -9 1 -23.5t4 -29.5h-120q-3 15 -4 30.5t-1 22.5q0 42 5 87t20 116l25 114 l12 130z" />
<glyph unicode="&#x1d1;" horiz-adv-x="631" d="M549 873l27 -18q-32 -29 -62.5 -60t-56.5 -64l-96 -8q-13 34 -29.5 66.5t-40.5 65.5l35 18q55 -33 95 -79q60 46 128 79zM607 435q0 -79 -25.5 -157.5t-73 -143.5t-112.5 -104.5t-145 -39.5q-93 0 -144 57.5t-51 167.5q0 62 16.5 125.5t48 121t75 102t98.5 70.5t119 26 q93 0 143.5 -58.5t50.5 -166.5zM187 203q0 -68 23 -107t69 -39q36 0 66.5 26t54.5 69.5t41 96t26 105t9 97.5q0 67 -22.5 104.5t-66.5 37.5q-37 0 -68 -26t-55 -68.5t-41.5 -94.5t-26.5 -104.5t-9 -96.5z" />
<glyph unicode="&#x1d2;" horiz-adv-x="539" d="M451 753l33 -23q-30 -34 -58.5 -72t-53.5 -78l-95 -8q-7 41 -18.5 80t-27.5 78l41 23q21 -22 37.5 -48.5t29.5 -55.5q27 29 54.5 55.5t57.5 48.5zM505 335q0 -61 -23 -122t-64 -111t-96.5 -80t-119.5 -30q-75 0 -121.5 41.5t-46.5 126.5q0 62 23 123.5t64.5 112.5 t97 81.5t119.5 30.5q79 0 123 -45.5t44 -127.5zM158 152q0 -52 17.5 -76.5t47.5 -24.5q34 0 63 29t50 74.5t33 97t12 96.5q0 48 -16 75t-48 27q-34 0 -63 -29t-50.5 -74.5t-33.5 -97t-12 -97.5z" />
<glyph unicode="&#x1d3;" horiz-adv-x="637" d="M556 873l27 -18q-32 -29 -62.5 -60t-56.5 -64l-96 -8q-13 34 -29.5 66.5t-40.5 65.5l35 18q55 -33 95 -79q60 46 128 79zM285 62q52 0 87 41.5t50 114.5l65 310l17 122l130 10l-93 -433q-16 -77 -57 -130t-98.5 -80t-123.5 -27q-84 0 -131 41.5t-47 118.5q0 12 1 25.5 t5.5 36t12.5 61t21 100t33 155.5l18 122l130 10q-29 -133 -47.5 -219.5t-29.5 -139t-16.5 -80.5t-7 -42.5t-1.5 -27.5q0 -39 20.5 -64t61.5 -25z" />
<glyph unicode="&#x1d4;" horiz-adv-x="552" d="M445 753l33 -23q-30 -34 -58.5 -72t-53.5 -78l-95 -8q-7 41 -18.5 80t-27.5 78l41 23q21 -22 37.5 -48.5t29.5 -55.5q27 29 54.5 55.5t57.5 48.5zM96 372l12 128l135 10q-18 -102 -35.5 -182t-29 -133.5t-11.5 -73.5q0 -21 9.5 -32.5t25.5 -11.5q22 0 47 23t49 63.5 t44 93.5t32 113q6 31 7.5 44.5t2.5 36.5q0 6 1 24t1 25l135 10q-30 -160 -53.5 -270t-23.5 -187q0 -9 1 -23.5t4 -29.5h-120q-3 17 -4 30.5t-1 25.5q0 20 1 36t3.5 36.5t9.5 54.5q-39 -88 -96.5 -140.5t-115.5 -52.5q-39 0 -61.5 25t-22.5 77q0 14 2 30.5t8 45t16.5 77 t27.5 127.5z" />
<glyph unicode="&#x1d5;" horiz-adv-x="637" d="M347 974l15 72h260l-15 -72h-260zM404 819q0 -33 -26 -59t-62 -25q-23 0 -36 11.5t-13 31.5t12.5 39.5t33 32t44.5 12.5q21 0 34 -11t13 -32zM613 819q0 -21 -12.5 -40.5t-32.5 -32t-44 -11.5q-22 0 -35.5 11t-13.5 32q0 20 12.5 39t33 32t45.5 13q21 0 34 -11t13 -32z M285 62q52 0 87 41.5t50 114.5l65 310l17 122l130 10l-93 -433q-16 -77 -57 -130t-98.5 -80t-123.5 -27q-84 0 -131 41.5t-47 118.5q0 12 1 25.5t5.5 36t12.5 61t21 100t33 155.5l18 122l130 10q-29 -133 -47.5 -219.5t-29.5 -139t-16.5 -80.5t-7 -42.5t-1.5 -27.5 q0 -39 20.5 -64t61.5 -25z" />
<glyph unicode="&#x1d6;" horiz-adv-x="552" d="M268 845l16 73h245l-16 -73h-245zM316 672q-2 -31 -28 -55t-61 -23q-23 0 -36.5 13t-11.5 35q1 30 28 54t62 25q22 0 35 -13t12 -36zM522 672q-1 -31 -27 -55t-61 -23q-23 0 -36.5 13t-11.5 35q1 30 27.5 54t62.5 25q22 0 35 -13t11 -36zM96 372l12 128l135 10 q-18 -102 -35.5 -182t-29 -133.5t-11.5 -73.5q0 -21 9.5 -32.5t25.5 -11.5q22 0 47 23t49 63.5t44 93.5t32 113q6 31 7.5 44.5t2.5 36.5q0 6 1 24t1 25l135 10q-30 -160 -53.5 -270t-23.5 -187q0 -9 1 -23.5t4 -29.5h-120q-3 17 -4 30.5t-1 25.5q0 20 1 36t3.5 36.5 t9.5 54.5q-39 -88 -96.5 -140.5t-115.5 -52.5q-39 0 -61.5 25t-22.5 77q0 14 2 30.5t8 45t16.5 77t27.5 127.5z" />
<glyph unicode="&#x1d7;" horiz-adv-x="637" d="M596 1016q-51 -34 -104.5 -56t-100.5 -33l-15 36q41 27 83 59.5t80 70.5zM404 819q0 -33 -26 -59t-62 -25q-23 0 -36 11.5t-13 31.5t12.5 39.5t33 32t44.5 12.5q21 0 34 -11t13 -32zM613 819q0 -21 -12.5 -40.5t-32.5 -32t-44 -11.5q-22 0 -35.5 11t-13.5 32 q0 20 12.5 39t33 32t45.5 13q21 0 34 -11t13 -32zM285 62q52 0 87 41.5t50 114.5l65 310l17 122l130 10l-93 -433q-16 -77 -57 -130t-98.5 -80t-123.5 -27q-84 0 -131 41.5t-47 118.5q0 12 1 25.5t5.5 36t12.5 61t21 100t33 155.5l18 122l130 10q-29 -133 -47.5 -219.5 t-29.5 -139t-16.5 -80.5t-7 -42.5t-1.5 -27.5q0 -39 20.5 -64t61.5 -25z" />
<glyph unicode="&#x1d8;" horiz-adv-x="552" d="M500 912q-43 -42 -90.5 -73.5t-91.5 -52.5l-22 34q36 35 73 74.5t69 81.5zM316 672q-2 -31 -28 -55t-61 -23q-23 0 -36.5 13t-11.5 35q1 30 28 54t62 25q22 0 35 -13t12 -36zM522 672q-1 -31 -27 -55t-61 -23q-23 0 -36.5 13t-11.5 35q1 30 27.5 54t62.5 25q22 0 35 -13 t11 -36zM96 372l12 128l135 10q-18 -102 -35.5 -182t-29 -133.5t-11.5 -73.5q0 -21 9.5 -32.5t25.5 -11.5q22 0 47 23t49 63.5t44 93.5t32 113q6 31 7.5 44.5t2.5 36.5q0 6 1 24t1 25l135 10q-30 -160 -53.5 -270t-23.5 -187q0 -9 1 -23.5t4 -29.5h-120q-3 17 -4 30.5 t-1 25.5q0 20 1 36t3.5 36.5t9.5 54.5q-39 -88 -96.5 -140.5t-115.5 -52.5q-39 0 -61.5 25t-22.5 77q0 14 2 30.5t8 45t16.5 77t27.5 127.5z" />
<glyph unicode="&#x1d9;" horiz-adv-x="637" d="M601 1085l27 -18q-32 -29 -62.5 -60t-56.5 -64l-96 -8q-12 34 -29 66.5t-40 65.5l35 18q54 -33 95 -79q60 46 127 79zM404 819q0 -33 -26 -59t-62 -25q-23 0 -36 11.5t-13 31.5t12.5 39.5t33 32t44.5 12.5q21 0 34 -11t13 -32zM613 819q0 -21 -12.5 -40.5t-32.5 -32 t-44 -11.5q-22 0 -35.5 11t-13.5 32q0 20 12.5 39t33 32t45.5 13q21 0 34 -11t13 -32zM285 62q52 0 87 41.5t50 114.5l65 310l17 122l130 10l-93 -433q-16 -77 -57 -130t-98.5 -80t-123.5 -27q-84 0 -131 41.5t-47 118.5q0 12 1 25.5t5.5 36t12.5 61t21 100t33 155.5l18 122 l130 10q-29 -133 -47.5 -219.5t-29.5 -139t-16.5 -80.5t-7 -42.5t-1.5 -27.5q0 -39 20.5 -64t61.5 -25z" />
<glyph unicode="&#x1da;" horiz-adv-x="552" d="M492 974l33 -23q-30 -34 -58.5 -72t-53.5 -78l-95 -8q-7 41 -18.5 80t-27.5 78l41 23q21 -22 37.5 -48.5t29.5 -55.5q27 29 54.5 55.5t57.5 48.5zM316 672q-2 -31 -28 -55t-61 -23q-23 0 -36.5 13t-11.5 35q1 30 28 54t62 25q22 0 35 -13t12 -36zM522 672q-1 -31 -27 -55 t-61 -23q-23 0 -36.5 13t-11.5 35q1 30 27.5 54t62.5 25q22 0 35 -13t11 -36zM96 372l12 128l135 10q-18 -102 -35.5 -182t-29 -133.5t-11.5 -73.5q0 -21 9.5 -32.5t25.5 -11.5q22 0 47 23t49 63.5t44 93.5t32 113q6 31 7.5 44.5t2.5 36.5q0 6 1 24t1 25l135 10 q-30 -160 -53.5 -270t-23.5 -187q0 -9 1 -23.5t4 -29.5h-120q-3 17 -4 30.5t-1 25.5q0 20 1 36t3.5 36.5t9.5 54.5q-39 -88 -96.5 -140.5t-115.5 -52.5q-39 0 -61.5 25t-22.5 77q0 14 2 30.5t8 45t16.5 77t27.5 127.5z" />
<glyph unicode="&#x1db;" horiz-adv-x="637" d="M591 962l-19 -36q-45 11 -94.5 33t-94.5 56l61 77q33 -38 71 -70.5t76 -59.5zM404 819q0 -33 -26 -59t-62 -25q-23 0 -36 11.5t-13 31.5t12.5 39.5t33 32t44.5 12.5q21 0 34 -11t13 -32zM613 819q0 -21 -12.5 -40.5t-32.5 -32t-44 -11.5q-22 0 -35.5 11t-13.5 32 q0 20 12.5 39t33 32t45.5 13q21 0 34 -11t13 -32zM285 62q52 0 87 41.5t50 114.5l65 310l17 122l130 10l-93 -433q-16 -77 -57 -130t-98.5 -80t-123.5 -27q-84 0 -131 41.5t-47 118.5q0 12 1 25.5t5.5 36t12.5 61t21 100t33 155.5l18 122l130 10q-29 -133 -47.5 -219.5 t-29.5 -139t-16.5 -80.5t-7 -42.5t-1.5 -27.5q0 -39 20.5 -64t61.5 -25z" />
<glyph unicode="&#x1dc;" horiz-adv-x="552" d="M484 820l-22 -33q-38 20 -77.5 52t-72.5 74l61 63q24 -42 52.5 -81.5t58.5 -74.5zM316 672q-2 -31 -28 -55t-61 -23q-23 0 -36.5 13t-11.5 35q1 30 28 54t62 25q22 0 35 -13t12 -36zM522 672q-1 -31 -27 -55t-61 -23q-23 0 -36.5 13t-11.5 35q1 30 27.5 54t62.5 25 q22 0 35 -13t11 -36zM96 372l12 128l135 10q-18 -102 -35.5 -182t-29 -133.5t-11.5 -73.5q0 -21 9.5 -32.5t25.5 -11.5q22 0 47 23t49 63.5t44 93.5t32 113q6 31 7.5 44.5t2.5 36.5q0 6 1 24t1 25l135 10q-30 -160 -53.5 -270t-23.5 -187q0 -9 1 -23.5t4 -29.5h-120 q-3 17 -4 30.5t-1 25.5q0 20 1 36t3.5 36.5t9.5 54.5q-39 -88 -96.5 -140.5t-115.5 -52.5q-39 0 -61.5 25t-22.5 77q0 14 2 30.5t8 45t16.5 77t27.5 127.5z" />
<glyph unicode="&#x1e6;" horiz-adv-x="572" d="M560 873l27 -18q-32 -29 -62.5 -60t-56.5 -64l-96 -8q-13 34 -29.5 66.5t-40.5 65.5l35 18q55 -33 95 -79q60 46 128 79zM467 26q-42 -18 -89.5 -27t-90.5 -9q-113 0 -171.5 60t-58.5 175q0 81 28.5 158.5t80 140t123 99.5t156.5 37q39 0 76.5 -8t63.5 -19l-36 -101 q-19 18 -50.5 32t-67.5 14q-58 0 -102.5 -30.5t-75.5 -80t-47 -109t-16 -118.5q0 -84 34 -130t109 -46q17 -1 39 2l21 98l18 123l114 10z" />
<glyph unicode="&#x1e7;" d="M431 753l33 -23q-30 -34 -58.5 -72t-53.5 -78l-95 -8q-7 41 -18.5 80t-27.5 78l41 23q21 -22 37.5 -48.5t29.5 -55.5q27 29 54.5 55.5t57.5 48.5zM403 -50q0 -45 -34.5 -77.5t-94 -50t-134.5 -17.5q-87 0 -139 25.5t-52 77.5q0 40 27.5 67.5t59.5 38.5l10 -11 q-9 -23 -13.5 -48t4.5 -51q10 -29 38.5 -45.5t72.5 -16.5q33 0 63 9.5t48.5 26.5t18.5 38q0 22 -20 36.5t-49.5 25.5t-59.5 22.5t-50 28t-20 41.5q0 32 34.5 59t92.5 38v3q-73 0 -111.5 30.5t-38.5 90.5q0 39 15.5 77.5t47 70.5t77.5 51.5t107 19.5q41 0 73.5 0.5t64.5 2 t72 5.5q16 -15 16 -35q0 -17 -13 -30.5t-34 -13.5q-22 0 -49.5 13.5t-67.5 28.5l-2 -3q37 -17 62.5 -43.5t25.5 -71.5q0 -62 -43.5 -111.5t-115.5 -82.5q-14 -7 -35.5 -16t-38.5 -19.5t-17 -23.5q0 -14 20.5 -23.5t50.5 -19.5t60 -24t50.5 -36t20.5 -57zM173 277 q0 -68 47 -68q24 0 44.5 18t36 46t24 59t8.5 58q0 30 -12 48t-37 18t-45.5 -18t-35 -45.5t-22.5 -58.5t-8 -57z" />
<glyph unicode="&#x1ea;" horiz-adv-x="627" d="M402 28q-54 -30 -89.5 -68t-35.5 -69q0 -32 37 -32q12 0 24.5 3t27.5 9l5 -34q-20 -15 -48.5 -25.5t-60.5 -10.5q-36 0 -57 15t-22 46q0 35 27 68t71 61q-11 -1 -22 -1q-93 0 -144 57.5t-51 167.5q0 62 16.5 125.5t47.5 121t75 102t98.5 70.5t118.5 26q94 0 144 -58.5 t50 -166.5q0 -80 -26 -159.5t-74 -145t-114 -102.5h2zM195 203q0 -68 23 -107t68 -39q36 0 66.5 26t54.5 69.5t41 96t26 105t9 97.5q0 67 -22.5 104.5t-66.5 37.5q-36 0 -67 -26t-55.5 -68.5t-41.5 -94.5t-26 -104.5t-9 -96.5z" />
<glyph unicode="&#x1eb;" horiz-adv-x="539" d="M347 36q-54 -36 -85 -73t-31 -74q0 -30 37 -30q12 0 25 3t27 9l6 -34q-20 -15 -49 -25.5t-63 -10.5t-55 13t-21 42q0 39 25 74t68 64q-15 -2 -29 -2q-75 0 -121.5 41.5t-46.5 126.5q0 62 23 123.5t64.5 112.5t97 81.5t119.5 30.5q79 0 123 -45.5t44 -127.5 q0 -57 -20 -113.5t-56 -105t-84 -80.5h2zM158 152q0 -52 17.5 -76.5t47.5 -24.5q34 0 63 29t50 74.5t33 97t12 96.5q0 48 -16 75t-48 27q-34 0 -63 -29t-50.5 -74.5t-33.5 -97t-12 -97.5z" />
<glyph unicode="&#x1f4;" horiz-adv-x="572" d="M555 804q-51 -34 -105 -56t-100 -33l-16 36q41 27 83 59.5t81 70.5zM467 26q-42 -18 -89.5 -27t-90.5 -9q-113 0 -171.5 60t-58.5 175q0 81 28.5 158.5t80 140t123 99.5t156.5 37q39 0 76.5 -8t63.5 -19l-36 -101q-19 18 -50.5 32t-67.5 14q-58 0 -102.5 -30.5t-75.5 -80 t-47 -109t-16 -118.5q0 -84 34 -130t109 -46q17 -1 39 2l21 98l18 123l114 10z" />
<glyph unicode="&#x1f5;" d="M433 691q-44 -42 -91.5 -73.5t-91.5 -52.5l-22 34q37 35 73.5 74.5t69.5 81.5zM403 -50q0 -45 -34.5 -77.5t-94 -50t-134.5 -17.5q-87 0 -139 25.5t-52 77.5q0 40 27.5 67.5t59.5 38.5l10 -11q-9 -23 -13.5 -48t4.5 -51q10 -29 38.5 -45.5t72.5 -16.5q33 0 63 9.5 t48.5 26.5t18.5 38q0 22 -20 36.5t-49.5 25.5t-59.5 22.5t-50 28t-20 41.5q0 32 34.5 59t92.5 38v3q-73 0 -111.5 30.5t-38.5 90.5q0 39 15.5 77.5t47 70.5t77.5 51.5t107 19.5q41 0 73.5 0.5t64.5 2t72 5.5q16 -15 16 -35q0 -17 -13 -30.5t-34 -13.5q-22 0 -49.5 13.5 t-67.5 28.5l-2 -3q37 -17 62.5 -43.5t25.5 -71.5q0 -62 -43.5 -111.5t-115.5 -82.5q-14 -7 -35.5 -16t-38.5 -19.5t-17 -23.5q0 -14 20.5 -23.5t50.5 -19.5t60 -24t50.5 -36t20.5 -57zM173 277q0 -68 47 -68q24 0 44.5 18t36 46t24 59t8.5 58q0 30 -12 48t-37 18t-45.5 -18 t-35 -45.5t-22.5 -58.5t-8 -57z" />
<glyph unicode="&#x1fa;" horiz-adv-x="574" d="M567 1033q-51 -34 -104.5 -56t-100.5 -33l-15 36q41 27 83 59.5t80 70.5zM507 824q0 -31 -18 -56.5t-46.5 -41t-61.5 -15.5q-36 0 -54.5 18t-18.5 46q0 29 17.5 54.5t47 42t63.5 16.5t52.5 -17.5t18.5 -46.5zM363 789q0 -14 8.5 -22t23.5 -8q22 0 39.5 16t17.5 36 q0 14 -9.5 21.5t-22.5 7.5q-21 0 -39 -15.5t-18 -35.5zM84 0h-112l266 526l60 125l155 9l43 -660h-117l-7 154h-216zM352 566l-165 -347h182l-16 347h-1z" />
<glyph unicode="&#x1fb;" horiz-adv-x="557" d="M533 941q-44 -42 -91.5 -73.5t-91.5 -52.5l-22 34q37 35 73.5 74.5t69.5 81.5zM475 689q0 -33 -17.5 -61.5t-45.5 -45t-61 -16.5q-36 0 -55.5 21.5t-14.5 57.5q3 31 20.5 57t44.5 41.5t59 15.5q31 0 50.5 -18t19.5 -52zM332 646q0 -35 32 -35q23 0 41 19.5t18 47.5 q0 36 -32 36q-24 0 -41.5 -20.5t-17.5 -47.5zM26 126q0 50 15.5 103.5t45 103.5t72 90t96.5 63.5t119 23.5q40 0 79.5 -9t70.5 -23l-40 -175q-10 -46 -22.5 -111.5t-12.5 -135.5q0 -12 1 -26.5t4 -29.5h-120q-2 12 -3.5 24t-1.5 30q0 33 4 70t14 87q-28 -64 -65 -114 t-79 -78.5t-82 -28.5q-44 0 -69.5 35t-25.5 101zM150 152q0 -36 10.5 -58t30.5 -22q30 0 66.5 43.5t71 118.5t58.5 168q4 17 9 38q-27 11 -49 11q-40 0 -76 -29.5t-63 -76t-42.5 -98t-15.5 -95.5z" />
<glyph unicode="&#x1fc;" horiz-adv-x="816" d="M670 804q-51 -34 -105 -56t-100 -33l-16 36q41 27 83 59.5t81 70.5zM84 0h-112l348 526l67 124h423l-25 -80l-239 6l-20 -218l206 4l-24 -76l-188 3l-19 -215l234 7l-19 -81h-338l20 154h-215zM451 566l-226 -347h181l46 347h-1z" />
<glyph unicode="&#x1fd;" horiz-adv-x="767" d="M583 691q-44 -42 -91.5 -73.5t-91.5 -52.5l-22 34q37 35 73.5 74.5t69.5 81.5zM26 126q0 50 15.5 103.5t45 103.5t72.5 90t97 63.5t119 23.5q35 0 71 -7t68 -19q25 12 51.5 19t54.5 7q57 0 93 -27t36 -77q0 -48 -33.5 -90t-90.5 -69.5t-126 -31.5q-23 -1 -44 1 q-2 -19 -2 -36q0 -57 22.5 -87.5t65.5 -30.5q37 0 77 21.5t73 53.5l3 -61q-22 -24 -56 -43.5t-73.5 -31t-75.5 -11.5q-72 0 -116 43.5t-44 130.5v9q-41 -81 -97.5 -132t-110.5 -51q-44 0 -69.5 35t-25.5 101zM150 152q0 -36 10.5 -58t31.5 -22q24 0 52.5 27.5t56 75.5 t49.5 108q28 81 84 140q-20 12 -43 20t-43 8q-41 0 -77 -29.5t-63 -76t-42.5 -98t-15.5 -95.5zM597 451q-31 0 -59.5 -32t-49.5 -80.5t-30 -98.5q64 9 105 37t60.5 62t19.5 62q0 22 -12 36t-34 14z" />
<glyph unicode="&#x1fe;" horiz-adv-x="631" d="M544 804q-51 -34 -105 -56t-100 -33l-16 36q41 27 83 59.5t81 70.5zM607 435q0 -79 -25.5 -157.5t-73 -143.5t-112.5 -104.5t-145 -39.5q-103 0 -153 69l-88 -86l-33 37l96 95q-17 47 -17 110q0 62 16.5 125.5t48 121t75 102t98.5 70.5t118 26q105 0 155 -72l87 86 l35 -36l-99 -97q17 -45 17 -106zM387 593q-36 0 -66 -24.5t-54 -65t-41.5 -90t-27 -101t-11.5 -95.5l285 279q-6 46 -27.5 71.5t-57.5 25.5zM279 57q34 0 63 24t52.5 64t41 88.5t27.5 99.5t12 95l-284 -278q8 -44 30 -68.5t58 -24.5z" />
<glyph unicode="&#x1ff;" horiz-adv-x="539" d="M459 691q-43 -42 -90.5 -73.5t-91.5 -52.5l-22 34q36 35 73 74.5t69 81.5zM505 335q0 -61 -23 -122t-64 -111t-96.5 -80t-120.5 -30q-81 0 -125 46l-53 -49l-29 36l56 52q-16 35 -16 83q0 62 23 123.5t64.5 112.5t97 81.5t119.5 30.5q82 0 126 -49l56 52l30 -35l-61 -57 q16 -36 16 -84zM317 450q-32 0 -59 -25.5t-48.5 -66t-34.5 -88t-16 -92.5l219 203q-9 69 -61 69zM223 51q31 0 58 24.5t47.5 64.5t34 87t16.5 91l-218 -202q11 -65 62 -65z" />
<glyph unicode="&#x218;" horiz-adv-x="484" d="M421 195q0 -61 -36 -107.5t-95 -72t-128 -25.5q-26 0 -56.5 3.5t-59 10t-48.5 14.5l41 111q26 -23 64.5 -40t76.5 -17q49 0 79.5 28t30.5 67q0 30 -19 53t-47 45t-56 47t-47 58t-19 80q0 59 35 107t96 75.5t139 27.5q75 0 134 -22l-42 -106q-21 17 -54.5 31.5t-66.5 14.5 q-50 0 -80 -29t-30 -68q0 -32 18.5 -56t46.5 -46t56.5 -47.5t47.5 -58.5t19 -78zM219 -124q-1 -28 -17.5 -58.5t-40.5 -58t-47 -46.5l-24 19q12 18 24 38.5t21 41.5q-16 4 -25.5 15.5t-7.5 31.5q1 30 23 51.5t51 21.5q22 0 33.5 -15.5t9.5 -40.5z" />
<glyph unicode="&#x219;" horiz-adv-x="426" d="M364 151q0 -47 -30 -83.5t-82 -57t-118 -20.5q-36 0 -76.5 6.5t-67.5 16.5l28 96q26 -16 65 -28t75 -12q40 0 64.5 18t24.5 46q0 30 -26.5 48.5t-62.5 42.5q-32 21 -57.5 48t-25.5 72q0 47 30 84.5t82.5 59.5t121.5 22q31 0 63 -5t55 -13l-28 -96q-26 15 -58 25.5 t-60 10.5q-40 0 -64 -21t-24 -48q0 -26 23 -44.5t51 -37.5q23 -15 45.5 -32t37 -41t14.5 -57zM197 -124q-1 -28 -17.5 -58.5t-40.5 -58t-47 -46.5l-24 19q12 18 24 38.5t21 41.5q-16 4 -25.5 15.5t-7.5 31.5q1 30 23 51.5t51 21.5q22 0 33.5 -15.5t9.5 -40.5z" />
<glyph unicode="&#x21a;" horiz-adv-x="480" d="M247 0h-119l120 570l-164 -8l25 88h431l-12 -88l-161 7zM216 -124q-1 -28 -17.5 -58.5t-40.5 -58t-47 -46.5l-24 19q12 18 24 38.5t21 41.5q-16 4 -25.5 15.5t-7.5 31.5q1 30 23 51.5t51 21.5q22 0 33.5 -15.5t9.5 -40.5z" />
<glyph unicode="&#x21b;" horiz-adv-x="398" d="M341 76q-36 -41 -82 -63.5t-94 -22.5q-54 0 -84 25t-30 79q0 14 2.5 34t10 56t20.5 96t33 155l-52 2l7 34l67 12v0l58 137l81 6q-8 -40 -16 -75.5t-15 -67.5h155l-17 -54l-148 3q-24 -110 -38 -175.5t-20 -98t-6 -45.5q0 -45 46 -45q32 0 61 20t58 49zM193 -124 q-2 -28 -18.5 -58.5t-40 -58t-46.5 -46.5l-25 19q12 18 24.5 38.5t21.5 41.5q-16 4 -25.5 15.5t-8.5 31.5q2 30 24 51.5t50 21.5q23 0 34 -15.5t10 -40.5z" />
<glyph unicode="&#x232;" horiz-adv-x="542" d="M252 762l15 72h260l-15 -72h-260zM278 0h-118l43 207l-93 443l118 10l58 -351h2l208 351l108 -10l-281 -443h-1z" />
<glyph unicode="&#x233;" horiz-adv-x="477" d="M171 624l16 73h245l-16 -73h-245zM252 2q-47 -58 -99 -102.5t-105 -69.5t-101 -25q-35 0 -56 12.5t-21 38.5q0 15 6.5 30.5t18.5 24.5q17 -6 39 -9t41 -3q34 0 72.5 15t73.5 41.5t57 58.5l-86 5q2 53 2 112t-1 121q-2 67 -8 132.5t-16 115.5l122 10q8 -41 12.5 -87.5 t7.5 -94.5q2 -65 -1.5 -132.5t-10.5 -127.5h2q44 71 79.5 148.5t56.5 151.5t21 133q17 5 31 7t26 2q25 0 40.5 -10t15.5 -37q0 -32 -17 -86.5t-47.5 -119.5t-70 -131.5t-84.5 -123.5z" />
<glyph unicode="&#x237;" horiz-adv-x="270" d="M247 510q-8 -39 -16.5 -80.5t-19.5 -96.5t-27.5 -132t-39.5 -187q-18 -83 -69.5 -136.5t-148.5 -72.5l-19 44q57 29 81.5 72t36.5 98l75 353l13 128z" />
<glyph unicode="&#x259;" horiz-adv-x="472" d="M76 363l-3 62q21 24 55.5 43t73.5 30.5t76 11.5q71 0 115.5 -43.5t44.5 -130.5q0 -63 -23 -124.5t-63 -111.5t-92.5 -80t-112.5 -30q-58 0 -93.5 27.5t-35.5 76.5t33.5 91t90.5 69t126 31q23 1 44 -1q2 19 2 37q0 56 -23 86.5t-65 30.5q-37 0 -77.5 -21.5t-72.5 -53.5z M124 99q0 -22 11.5 -35.5t33.5 -13.5q32 0 60 31.5t49 80t30 98.5q-64 -9 -104.5 -37t-60 -62t-19.5 -62z" />
<glyph unicode="&#x272;" horiz-adv-x="556" d="M460 0h-120q-3 17 -3.5 27.5t-0.5 32.5q0 64 16 136.5t32 168.5q2 26 -8 42t-28 16q-31 0 -65.5 -39.5t-66.5 -114.5t-57 -183q-7 -34 -15 -72q-18 -83 -69.5 -136.5t-148.5 -72.5l-19 44q57 29 81.5 72t36.5 98l75 353l13 128l134 10q-9 -45 -18.5 -93t-24.5 -118 q25 61 60 108.5t75.5 75t83.5 27.5q41 0 67.5 -27.5t19.5 -91.5q-7 -55 -20 -111.5t-23.5 -114t-10.5 -116.5q0 -11 1 -24t3 -25z" />
<glyph unicode="&#x2c6;" horiz-adv-x="354" d="M156 561l-33 22q29 35 58 72.5t54 77.5l95 8q7 -41 18.5 -80t27.5 -78l-41 -22q-21 21 -37.5 47.5t-30.5 55.5q-26 -29 -54 -55.5t-57 -47.5z" />
<glyph unicode="&#x2c7;" horiz-adv-x="354" d="M373 753l33 -23q-30 -34 -59 -72t-54 -78l-94 -8q-8 41 -19 80t-28 78l42 23q20 -22 36.5 -48.5t30.5 -55.5q26 29 54 55.5t58 48.5z" />
<glyph unicode="&#x2d8;" horiz-adv-x="344" d="M238 573q-50 0 -74 43.5t-9 117.5l44 7q-4 -47 12 -72t46 -25q31 0 57.5 27t44.5 71l43 6q-14 -50 -38.5 -90t-57 -62.5t-68.5 -22.5z" />
<glyph unicode="&#x2d9;" horiz-adv-x="245" d="M281 680q0 -21 -13 -41t-34.5 -33t-46.5 -13q-24 0 -38.5 12t-14.5 33t13.5 41t35.5 33.5t47 13.5q23 0 37 -12t14 -34z" />
<glyph unicode="&#x2da;" horiz-adv-x="289" d="M330 689q0 -33 -17.5 -61.5t-46 -45t-60.5 -16.5q-37 0 -56.5 21.5t-14.5 57.5q4 31 21.5 57t44.5 41.5t58 15.5q32 0 51.5 -18t19.5 -52zM187 646q0 -35 32 -35q22 0 40.5 19.5t18.5 47.5q0 36 -33 36q-23 0 -40.5 -20.5t-17.5 -47.5z" />
<glyph unicode="&#x2db;" horiz-adv-x="313" d="M194 0q-52 -19 -87.5 -51.5t-35.5 -61.5q0 -28 37 -28q12 0 24.5 3t27.5 9l5 -34q-20 -15 -49 -25.5t-62 -10.5q-34 0 -55 13t-21 40q0 34 26.5 66t70 57.5t94.5 38.5z" />
<glyph unicode="&#x2dc;" horiz-adv-x="385" d="M235 728q26 0 43.5 -12.5t33.5 -25t36 -12.5q17 0 31 15t29 37l27 -7q-7 -29 -23 -57.5t-38 -46.5t-48 -18q-24 0 -43 12.5t-35.5 25t-34.5 12.5q-15 0 -30.5 -13.5t-29.5 -37.5l-27 6q7 29 22 57t37 46.5t50 18.5z" />
<glyph unicode="&#x2dd;" horiz-adv-x="386" d="M285 740q-31 -54 -69.5 -98t-74.5 -75l-33 12q27 42 54 86.5t48 89.5zM428 740q-31 -54 -69.5 -98t-74.5 -75l-33 12q27 42 54 86.5t48 89.5z" />
<glyph unicode="&#x1e0c;" horiz-adv-x="630" d="M158 528l17 122h182q43 0 86 -10t78.5 -35.5t57.5 -72.5t22 -121q0 -76 -25 -149.5t-73 -132.5t-119 -94t-163 -35h-175zM309 575h-23l-105 -499h45q63 0 109.5 31.5t76.5 82.5t44.5 109.5t14.5 111.5q0 60 -16.5 94t-42 48.5t-53 18t-50.5 3.5zM305 -118q0 -21 -13 -41 t-34.5 -33t-47.5 -13q-24 0 -38 12t-14 33t13 41t35 33.5t48 13.5q22 0 36.5 -12t14.5 -34z" />
<glyph unicode="&#x1e0d;" horiz-adv-x="555" d="M26 126q0 50 15.5 103.5t45 103.5t72 90t96.5 63.5t119 23.5q18 0 37 -2q3 12 5.5 24t5.5 25l12 128l135 10q-28 -146 -55 -266t-44.5 -213.5t-17.5 -159.5q0 -12 1 -26.5t4 -29.5h-120q-2 11 -3.5 24.5t-1.5 28.5q0 24 1.5 47t5.5 51.5t12 71.5q-26 -67 -64 -119.5 t-81.5 -83t-84.5 -30.5q-44 0 -69.5 35t-25.5 101zM150 152q0 -36 10.5 -58.5t30.5 -22.5q24 0 52.5 29t57 79.5t53.5 117t42 142.5q-26 12 -49 12q-40 0 -76 -29.5t-63 -76t-42.5 -98t-15.5 -95.5zM275 -118q0 -21 -13 -41t-34.5 -33t-46.5 -13q-24 0 -38.5 12t-14.5 33 t13.5 41t35.5 33.5t47 13.5q23 0 37 -12t14 -34z" />
<glyph unicode="&#x1e24;" horiz-adv-x="655" d="M165 0h-119l112 528l17 122l130 10l-68 -318h229l39 186l18 122l129 11l-140 -661h-118l58 275h-229zM323 -118q0 -21 -13 -41t-34.5 -33t-47.5 -13q-24 0 -38 12t-14 33t13 41t35 33.5t48 13.5q22 0 36.5 -12t14.5 -34z" />
<glyph unicode="&#x1e25;" horiz-adv-x="550" d="M454 0h-120q-3 17 -3.5 27.5t-0.5 32.5q0 37 7.5 83.5t17 93t17.5 84t8 56.5q0 22 -11 34t-27 12q-23 0 -49 -23.5t-50.5 -64.5t-43.5 -93.5t-28 -110.5q-6 -48 -6 -83q0 -13 1 -21.5t4 -26.5h-120q-2 9 -3.5 22t-1.5 31q0 42 7.5 93.5t18 104.5t19.5 98l45 208l12 128 l135 10q-22 -112 -43 -209.5t-38 -179.5q26 59 60 105t74 72.5t82 26.5q36 0 62.5 -22t26.5 -75q0 -28 -8.5 -69.5t-19.5 -90.5t-19.5 -101.5t-8.5 -102.5q0 -11 1 -24t3 -25zM290 -118q0 -21 -13 -41t-34.5 -33t-47.5 -13q-24 0 -38 12t-14 33t13 41t35 33.5t48 13.5 q22 0 36.5 -12t14.5 -34z" />
<glyph unicode="&#x1e44;" horiz-adv-x="646" d="M513 819q0 -22 -13 -42t-34.5 -32.5t-46.5 -12.5q-24 0 -38.5 11.5t-14.5 32.5q0 22 13.5 42t35.5 33t47 13q23 0 37 -11.5t14 -33.5zM158 528l17 122l103 10l169 -502h2l95 492l99 10l-140 -660h-106l-160 483h-2l-93 -483h-96z" />
<glyph unicode="&#x1e45;" horiz-adv-x="550" d="M421 680q0 -21 -13 -41t-34.5 -33t-47.5 -13q-24 0 -38 12t-14 33t13 41t35 33.5t48 13.5q22 0 36.5 -12t14.5 -34zM170 0h-120q-2 11 -3 24t-1 25q0 60 13 136t37 187l12 128l135 10q-12 -60 -22.5 -111t-19.5 -95q25 60 59.5 106.5t75 73t82.5 26.5q40 0 67 -27.5 t19 -91.5q-7 -55 -20 -111.5t-23.5 -114t-10.5 -116.5q0 -11 1 -24t4 -25h-120q-3 17 -4 27.5t-1 32.5q0 63 17 136t32 169q1 26 -8.5 42t-27.5 16q-25 0 -54 -28t-55.5 -76.5t-45 -109.5t-22.5 -126v-31q0 -11 0.5 -24.5t3.5 -27.5z" />
<glyph unicode="&#x1e5a;" horiz-adv-x="560" d="M165 0h-119l112 528l17 122h183q102 0 150 -42t48 -117q0 -78 -44.5 -138t-121.5 -90l85 -263l-128 -10l-59 248q-22 -2 -45 -2h-28zM319 580h-31l-59 -274h34q58 0 95.5 26.5t56 66.5t18.5 82q0 37 -12.5 57t-31 29t-37.5 11t-33 2zM301 -118q0 -21 -13 -41t-34.5 -33 t-46.5 -13q-24 0 -38.5 12t-14.5 33t13.5 41t35.5 33.5t47 13.5q23 0 37 -12t14 -34z" />
<glyph unicode="&#x1e5b;" horiz-adv-x="400" d="M170 0h-120q-2 11 -3 24t-1 25q0 60 13 136t37 187l12 128l135 10q-12 -61 -23 -113.5t-20 -97.5q18 59 44 107t57.5 76t67.5 28q21 0 39.5 -8t28.5 -17l-49 -99q-10 6 -28 11t-32 5q-31 0 -60 -31.5t-52 -83.5t-36.5 -114.5t-13.5 -125.5q0 -10 1 -22.5t3 -24.5z M158 -118q0 -21 -13 -41t-34.5 -33t-47.5 -13q-24 0 -38 12t-14 33t13 41t35 33.5t48 13.5q22 0 36.5 -12t14.5 -34z" />
<glyph unicode="&#x1e62;" horiz-adv-x="484" d="M421 195q0 -61 -36 -107.5t-95 -72t-128 -25.5q-26 0 -56.5 3.5t-59 10t-48.5 14.5l41 111q26 -23 64.5 -40t76.5 -17q49 0 79.5 28t30.5 67q0 30 -19 53t-47 45t-56 47t-47 58t-19 80q0 59 35 107t96 75.5t139 27.5q75 0 134 -22l-42 -106q-21 17 -54.5 31.5t-66.5 14.5 q-50 0 -80 -29t-30 -68q0 -32 18.5 -56t46.5 -46t56.5 -47.5t47.5 -58.5t19 -78zM233 -118q0 -21 -13 -41t-34.5 -33t-47.5 -13q-24 0 -38 12t-14 33t13 41t35 33.5t48 13.5q22 0 36.5 -12t14.5 -34z" />
<glyph unicode="&#x1e63;" horiz-adv-x="426" d="M364 151q0 -47 -30 -83.5t-82 -57t-118 -20.5q-36 0 -76.5 6.5t-67.5 16.5l28 96q26 -16 65 -28t75 -12q40 0 64.5 18t24.5 46q0 30 -26.5 48.5t-62.5 42.5q-32 21 -57.5 48t-25.5 72q0 47 30 84.5t82.5 59.5t121.5 22q31 0 63 -5t55 -13l-28 -96q-26 15 -58 25.5 t-60 10.5q-40 0 -64 -21t-24 -48q0 -26 23 -44.5t51 -37.5q23 -15 45.5 -32t37 -41t14.5 -57zM211 -118q0 -21 -13 -41t-34.5 -33t-47.5 -13q-24 0 -38 12t-14 33t13 41t35 33.5t48 13.5q22 0 36.5 -12t14.5 -34z" />
<glyph unicode="&#x1e6c;" horiz-adv-x="480" d="M247 0h-119l120 570l-164 -8l25 88h431l-12 -88l-161 7zM230 -118q0 -21 -13 -41t-34.5 -33t-47.5 -13q-24 0 -38 12t-14 33t13 41t35 33.5t48 13.5q22 0 36.5 -12t14.5 -34z" />
<glyph unicode="&#x1e6d;" horiz-adv-x="398" d="M341 76q-36 -41 -82 -63.5t-94 -22.5q-54 0 -84 25t-30 79q0 14 2.5 34t10 56t20.5 96t33 155l-52 2l7 34l67 12v0l58 137l81 6q-8 -40 -16 -75.5t-15 -67.5h155l-17 -54l-148 3q-24 -110 -38 -175.5t-20 -98t-6 -45.5q0 -45 46 -45q32 0 61 20t58 49zM206 -118 q0 -21 -13 -41t-34.5 -33t-46.5 -13q-24 0 -38.5 12t-14.5 33t13.5 41t35.5 33.5t47 13.5q23 0 37 -12t14 -34z" />
<glyph unicode="&#x1e80;" horiz-adv-x="863" d="M658 750l-19 -36q-45 11 -94.5 33t-94.5 56l62 77q33 -38 71 -70.5t75 -59.5zM107 0l3 650l118 10l-10 -571h1l233 561h146l-10 -561h2l234 571l102 -10l-287 -650h-164l16 534h-2l-218 -534h-164z" />
<glyph unicode="&#x1e81;" horiz-adv-x="743" d="M514 599l-22 -33q-39 20 -78.5 52t-72.5 74l61 63q25 -42 53.5 -81.5t58.5 -74.5zM85 246q-2 70 -7.5 136.5t-15.5 117.5l122 10q7 -40 11.5 -88.5t6.5 -98.5q2 -69 -2 -140t-10 -132h2q44 74 78.5 154.5t55 157t21.5 137.5l114 10q8 -39 12.5 -86.5t6.5 -96.5 q1 -70 -2.5 -141.5t-10.5 -134.5h2q44 74 79 154.5t55.5 157t20.5 138.5q17 5 31 7t26 2q25 0 40.5 -9.5t15.5 -38.5q0 -32 -18 -88t-53 -123t-86.5 -135t-119.5 -125l-93 9q5 53 7 118t2 132t-1 126h-1q-11 -43 -30.5 -94.5t-44.5 -104t-55 -101t-61 -85.5l-101 9 q3 54 3.5 117.5t-0.5 128.5z" />
<glyph unicode="&#x1e82;" horiz-adv-x="863" d="M664 804q-51 -34 -105 -56t-100 -33l-16 36q41 27 83 59.5t81 70.5zM107 0l3 650l118 10l-10 -571h1l233 561h146l-10 -561h2l234 571l102 -10l-287 -650h-164l16 534h-2l-218 -534h-164z" />
<glyph unicode="&#x1e83;" horiz-adv-x="743" d="M530 691q-44 -42 -91.5 -73.5t-91.5 -52.5l-22 34q37 35 73.5 74.5t69.5 81.5zM85 246q-2 70 -7.5 136.5t-15.5 117.5l122 10q7 -40 11.5 -88.5t6.5 -98.5q2 -69 -2 -140t-10 -132h2q44 74 78.5 154.5t55 157t21.5 137.5l114 10q8 -39 12.5 -86.5t6.5 -96.5 q1 -70 -2.5 -141.5t-10.5 -134.5h2q44 74 79 154.5t55.5 157t20.5 138.5q17 5 31 7t26 2q25 0 40.5 -9.5t15.5 -38.5q0 -32 -18 -88t-53 -123t-86.5 -135t-119.5 -125l-93 9q5 53 7 118t2 132t-1 126h-1q-11 -43 -30.5 -94.5t-44.5 -104t-55 -101t-61 -85.5l-101 9 q3 54 3.5 117.5t-0.5 128.5z" />
<glyph unicode="&#x1e84;" horiz-adv-x="863" d="M517 819q0 -33 -26 -59t-62 -25q-23 0 -36 11.5t-13 31.5t12.5 39.5t33 32t44.5 12.5q21 0 34 -11t13 -32zM726 819q0 -21 -12.5 -40.5t-32.5 -32t-44 -11.5q-22 0 -35.5 11t-13.5 32q0 20 12.5 39t33 32t45.5 13q21 0 34 -11t13 -32zM107 0l3 650l118 10l-10 -571h1 l233 561h146l-10 -561h2l234 571l102 -10l-287 -650h-164l16 534h-2l-218 -534h-164z" />
<glyph unicode="&#x1e85;" horiz-adv-x="743" d="M392 672q-2 -31 -28 -55t-60 -23q-24 0 -37 13t-12 35q2 30 28.5 54t61.5 25q23 0 36 -13t11 -36zM599 672q-2 -31 -28 -55t-60 -23q-24 0 -37 13t-12 35q2 30 28.5 54t61.5 25q23 0 35.5 -13t11.5 -36zM85 246q-2 70 -7.5 136.5t-15.5 117.5l122 10q7 -40 11.5 -88.5 t6.5 -98.5q2 -69 -2 -140t-10 -132h2q44 74 78.5 154.5t55 157t21.5 137.5l114 10q8 -39 12.5 -86.5t6.5 -96.5q1 -70 -2.5 -141.5t-10.5 -134.5h2q44 74 79 154.5t55.5 157t20.5 138.5q17 5 31 7t26 2q25 0 40.5 -9.5t15.5 -38.5q0 -32 -18 -88t-53 -123t-86.5 -135 t-119.5 -125l-93 9q5 53 7 118t2 132t-1 126h-1q-11 -43 -30.5 -94.5t-44.5 -104t-55 -101t-61 -85.5l-101 9q3 54 3.5 117.5t-0.5 128.5z" />
<glyph unicode="&#x1e92;" horiz-adv-x="487" d="M392 0h-394l-2 63l382 502q-61 -1 -107 -2t-84.5 -2.5t-77.5 -3.5l27 93h379l1 -62l-383 -503q64 1 111.5 3t89 5.5t87.5 9.5zM232 -118q0 -21 -13 -41t-34.5 -33t-46.5 -13q-24 0 -38.5 12t-14.5 33t13.5 41t35.5 33.5t47 13.5q23 0 37 -12t14 -34z" />
<glyph unicode="&#x1e93;" horiz-adv-x="459" d="M3 -10l-20 31q94 90 174.5 179.5t143.5 175.5q-35 19 -71 27t-62 8t-47.5 -10.5t-35.5 -37.5l-25 8q8 55 25 85t40 42t51 12q42 0 85 -21t81 -53q25 38 46 74q20 0 36.5 -8.5t16.5 -30.5t-19.5 -55t-52 -72t-73 -80.5t-84 -81t-84.5 -72.5q43 -1 74 -11t67 -10 q37 0 66.5 13.5t47.5 50.5l25 -8q-15 -62 -38 -95.5t-52.5 -46.5t-64.5 -13q-31 0 -57.5 7.5t-51 15t-50.5 7.5q-23 0 -44 -6.5t-47 -23.5zM219 -118q0 -21 -13 -41t-34.5 -33t-47.5 -13q-24 0 -38 12t-14 33t13 41t35 33.5t48 13.5q22 0 36.5 -12t14.5 -34z" />
<glyph unicode="&#x1e9e;" horiz-adv-x="643" d="M82 132l61 290q17 79 60.5 131.5t103.5 79.5t125 27q79 0 128.5 -37t51.5 -106l-169 -142q36 -23 66.5 -48.5t49.5 -59.5t19 -81q0 -55 -30.5 -99.5t-81.5 -70.5t-112 -26q-29 0 -61.5 6.5t-55.5 18.5l17 82q16 -12 39.5 -19.5t43.5 -7.5q30 0 55.5 15.5t41.5 42t16 57.5 q0 46 -34 80t-89 66l6 29l164 146q-4 36 -27.5 55.5t-55.5 19.5q-54 0 -95.5 -44.5t-56.5 -115.5l-69 -323q-6 -27 -19 -59.5t-29 -48.5l-108 10q15 31 26 64.5t19 67.5z" />
<glyph unicode="&#x1ea0;" horiz-adv-x="574" d="M84 0h-112l266 526l60 125l155 9l43 -660h-117l-7 154h-216zM352 566l-165 -347h182l-16 347h-1zM278 -118q0 -21 -13 -41t-34.5 -33t-46.5 -13q-24 0 -38.5 12t-14.5 33t13.5 41t35.5 33.5t47 13.5q23 0 37 -12t14 -34z" />
<glyph unicode="&#x1ea1;" horiz-adv-x="557" d="M26 126q0 50 15.5 103.5t45 103.5t72 90t96.5 63.5t119 23.5q40 0 79.5 -9t70.5 -23l-40 -175q-10 -46 -22.5 -111.5t-12.5 -135.5q0 -12 1 -26.5t4 -29.5h-120q-2 12 -3.5 24t-1.5 30q0 33 4 70t14 87q-28 -64 -65 -114t-79 -78.5t-82 -28.5q-44 0 -69.5 35t-25.5 101z M150 152q0 -36 10.5 -58t30.5 -22q30 0 66.5 43.5t71 118.5t58.5 168q4 17 9 38q-27 11 -49 11q-40 0 -76 -29.5t-63 -76t-42.5 -98t-15.5 -95.5zM262 -118q0 -21 -13 -41t-34.5 -33t-46.5 -13q-24 0 -38.5 12t-14.5 33t13.5 41t35.5 33.5t47 13.5q23 0 37 -12t14 -34z" />
<glyph unicode="&#x1eb8;" d="M394 0h-348l111 523l18 127h352l-25 -80l-215 7l-47 -219l172 4l-23 -76l-163 3l-46 -216l233 8zM276 -118q0 -21 -13 -41t-34.5 -33t-47.5 -13q-24 0 -38 12t-14 33t13 41t35 33.5t48 13.5q22 0 36.5 -12t14.5 -34z" />
<glyph unicode="&#x1eb9;" horiz-adv-x="472" d="M397 137l3 -61q-22 -24 -56.5 -43.5t-73.5 -31t-76 -11.5q-71 0 -115 43.5t-44 131.5q0 62 22.5 123.5t62.5 111.5t92.5 80t112.5 30q58 0 94 -27t36 -77q0 -48 -34 -90.5t-90.5 -69.5t-126.5 -31q-23 -1 -44 1q-2 -19 -2 -36q0 -57 23 -87.5t65 -30.5q37 0 77.5 21.5 t73.5 53.5zM303 451q-32 0 -60 -32t-49 -80.5t-30 -98.5q64 9 104.5 37t60.5 62t20 62q0 22 -12 36t-34 14zM260 -118q0 -21 -13 -41t-34.5 -33t-46.5 -13q-24 0 -38.5 12t-14.5 33t13.5 41t35.5 33.5t47 13.5q23 0 37 -12t14 -34z" />
<glyph unicode="&#x1ebc;" d="M339 859q24 0 40.5 -11t31 -21.5t33.5 -10.5t34 13t30 34l28 -7q-9 -29 -25.5 -56t-38.5 -44t-50 -17q-23 0 -40.5 10.5t-33 21t-32.5 10.5t-32.5 -12t-31.5 -35l-28 7q8 28 24 55t38.5 45t52.5 18zM394 0h-348l111 523l18 127h352l-25 -80l-215 7l-47 -219l172 4 l-23 -76l-163 3l-46 -216l233 8z" />
<glyph unicode="&#x1ebd;" horiz-adv-x="472" d="M278 728q26 0 43.5 -12.5t33 -25t35.5 -12.5q18 0 32 15t28 37l28 -7q-8 -29 -23.5 -57.5t-37.5 -46.5t-49 -18q-24 0 -42.5 12.5t-35.5 25t-35 12.5q-15 0 -30 -13.5t-30 -37.5l-27 6q8 29 22.5 57t36.5 46.5t51 18.5zM397 137l3 -61q-22 -24 -56.5 -43.5t-73.5 -31 t-76 -11.5q-71 0 -115 43.5t-44 131.5q0 62 22.5 123.5t62.5 111.5t92.5 80t112.5 30q58 0 94 -27t36 -77q0 -48 -34 -90.5t-90.5 -69.5t-126.5 -31q-23 -1 -44 1q-2 -19 -2 -36q0 -57 23 -87.5t65 -30.5q37 0 77.5 21.5t73.5 53.5zM303 451q-32 0 -60 -32t-49 -80.5 t-30 -98.5q64 9 104.5 37t60.5 62t20 62q0 22 -12 36t-34 14z" />
<glyph unicode="&#x1eca;" horiz-adv-x="308" d="M165 0h-119l112 528l17 122l130 10zM142 -118q0 -21 -13 -41t-34.5 -33t-46.5 -13q-24 0 -38.5 12t-14.5 33t13.5 41t35.5 33.5t47 13.5q23 0 37 -12t14 -34z" />
<glyph unicode="&#x1ecb;" horiz-adv-x="274" d="M286 680q0 -21 -13 -41t-34.5 -33t-47.5 -13q-24 0 -38 12t-14 33t13 41t35 33.5t48 13.5q22 0 36.5 -12t14.5 -34zM243 510q-30 -160 -53.5 -270t-23.5 -187q0 -9 1 -23.5t4 -29.5h-120q-3 15 -4 30.5t-1 22.5q0 42 5 87t20 116l25 114l12 130zM134 -118q0 -21 -13 -41 t-34.5 -33t-46.5 -13q-24 0 -38.5 12t-14.5 33t13.5 41t35.5 33.5t47 13.5q23 0 37 -12t14 -34z" />
<glyph unicode="&#x1ecc;" horiz-adv-x="631" d="M607 435q0 -79 -25.5 -157.5t-73 -143.5t-112.5 -104.5t-145 -39.5q-93 0 -144 57.5t-51 167.5q0 62 16.5 125.5t48 121t75 102t98.5 70.5t119 26q93 0 143.5 -58.5t50.5 -166.5zM187 203q0 -68 23 -107t69 -39q36 0 66.5 26t54.5 69.5t41 96t26 105t9 97.5 q0 67 -22.5 104.5t-66.5 37.5q-37 0 -68 -26t-55 -68.5t-41.5 -94.5t-26.5 -104.5t-9 -96.5zM304 -118q0 -21 -13 -41t-34.5 -33t-47.5 -13q-24 0 -38 12t-14 33t13 41t35 33.5t48 13.5q22 0 36.5 -12t14.5 -34z" />
<glyph unicode="&#x1ecd;" horiz-adv-x="539" d="M505 335q0 -61 -23 -122t-64 -111t-96.5 -80t-119.5 -30q-75 0 -121.5 41.5t-46.5 126.5q0 62 23 123.5t64.5 112.5t97 81.5t119.5 30.5q79 0 123 -45.5t44 -127.5zM158 152q0 -52 17.5 -76.5t47.5 -24.5q34 0 63 29t50 74.5t33 97t12 96.5q0 48 -16 75t-48 27 q-34 0 -63 -29t-50.5 -74.5t-33.5 -97t-12 -97.5zM261 -118q0 -21 -13 -41t-34.5 -33t-47.5 -13q-24 0 -38 12t-14 33t13 41t35 33.5t48 13.5q22 0 36.5 -12t14.5 -34z" />
<glyph unicode="&#x1ee4;" horiz-adv-x="637" d="M285 62q52 0 87 41.5t50 114.5l65 310l17 122l130 10l-93 -433q-16 -77 -57 -130t-98.5 -80t-123.5 -27q-84 0 -131 41.5t-47 118.5q0 12 1 25.5t5.5 36t12.5 61t21 100t33 155.5l18 122l130 10q-29 -133 -47.5 -219.5t-29.5 -139t-16.5 -80.5t-7 -42.5t-1.5 -27.5 q0 -39 20.5 -64t61.5 -25zM311 -118q0 -21 -13 -41t-34.5 -33t-47.5 -13q-24 0 -38 12t-14 33t13 41t35 33.5t48 13.5q22 0 36.5 -12t14.5 -34z" />
<glyph unicode="&#x1ee5;" horiz-adv-x="552" d="M96 372l12 128l135 10q-18 -102 -35.5 -182t-29 -133.5t-11.5 -73.5q0 -21 9.5 -32.5t25.5 -11.5q22 0 47 23t49 63.5t44 93.5t32 113q6 31 7.5 44.5t2.5 36.5q0 6 1 24t1 25l135 10q-30 -160 -53.5 -270t-23.5 -187q0 -9 1 -23.5t4 -29.5h-120q-3 17 -4 30.5t-1 25.5 q0 20 1 36t3.5 36.5t9.5 54.5q-39 -88 -96.5 -140.5t-115.5 -52.5q-39 0 -61.5 25t-22.5 77q0 14 2 30.5t8 45t16.5 77t27.5 127.5zM276 -118q0 -21 -13 -41t-34.5 -33t-47.5 -13q-24 0 -38 12t-14 33t13 41t35 33.5t48 13.5q22 0 36.5 -12t14.5 -34z" />
<glyph unicode="&#x1ef2;" horiz-adv-x="542" d="M495 750l-19 -36q-45 11 -94.5 33t-94.5 56l62 77q33 -38 71 -70.5t75 -59.5zM278 0h-118l43 207l-93 443l118 10l58 -351h2l208 351l108 -10l-281 -443h-1z" />
<glyph unicode="&#x1ef3;" horiz-adv-x="477" d="M388 599l-22 -33q-39 20 -78.5 52t-72.5 74l61 63q25 -42 53.5 -81.5t58.5 -74.5zM252 2q-47 -58 -99 -102.5t-105 -69.5t-101 -25q-35 0 -56 12.5t-21 38.5q0 15 6.5 30.5t18.5 24.5q17 -6 39 -9t41 -3q34 0 72.5 15t73.5 41.5t57 58.5l-86 5q2 53 2 112t-1 121 q-2 67 -8 132.5t-16 115.5l122 10q8 -41 12.5 -87.5t7.5 -94.5q2 -65 -1.5 -132.5t-10.5 -127.5h2q44 71 79.5 148.5t56.5 151.5t21 133q17 5 31 7t26 2q25 0 40.5 -10t15.5 -37q0 -32 -17 -86.5t-47.5 -119.5t-70 -131.5t-84.5 -123.5z" />
<glyph unicode="&#x1ef8;" horiz-adv-x="542" d="M348 859q25 0 41.5 -11t31 -21.5t33.5 -10.5t33.5 13t30.5 34l27 -7q-9 -29 -25 -56t-38.5 -44t-49.5 -17q-23 0 -40.5 10.5t-33 21t-33.5 10.5q-16 0 -32 -12t-32 -35l-28 7q9 28 24.5 55t38.5 45t52 18zM278 0h-118l43 207l-93 443l118 10l58 -351h2l208 351l108 -10 l-281 -443h-1z" />
<glyph unicode="&#x1ef9;" horiz-adv-x="477" d="M260 728q26 0 43.5 -12.5t33.5 -25t36 -12.5q17 0 31 15t29 37l27 -7q-7 -29 -23 -57.5t-38 -46.5t-48 -18q-24 0 -43 12.5t-35.5 25t-34.5 12.5q-15 0 -30.5 -13.5t-29.5 -37.5l-27 6q7 29 22 57t37 46.5t50 18.5zM252 2q-47 -58 -99 -102.5t-105 -69.5t-101 -25 q-35 0 -56 12.5t-21 38.5q0 15 6.5 30.5t18.5 24.5q17 -6 39 -9t41 -3q34 0 72.5 15t73.5 41.5t57 58.5l-86 5q2 53 2 112t-1 121q-2 67 -8 132.5t-16 115.5l122 10q8 -41 12.5 -87.5t7.5 -94.5q2 -65 -1.5 -132.5t-10.5 -127.5h2q44 71 79.5 148.5t56.5 151.5t21 133 q17 5 31 7t26 2q25 0 40.5 -10t15.5 -37q0 -32 -17 -86.5t-47.5 -119.5t-70 -131.5t-84.5 -123.5z" />
<glyph unicode="&#x2013;" horiz-adv-x="473" d="M31 259l5 43h418l-6 -43h-417z" />
<glyph unicode="&#x2014;" horiz-adv-x="776" d="M32 259l9 43h673l-9 -43h-673z" />
<glyph unicode="&#x2018;" horiz-adv-x="277" d="M119 472q0 33 24 75.5t61 82.5t77 65l16 -23q-28 -28 -53 -61t-40 -66q15 -4 24.5 -14.5t9.5 -28.5q0 -30 -22 -53.5t-52 -23.5q-22 0 -33.5 13t-11.5 34z" />
<glyph unicode="&#x2019;" horiz-adv-x="278" d="M290 649q0 -34 -24 -76.5t-61 -82t-76 -64.5l-17 23q28 28 53 61t40 66q-15 3 -24.5 14t-9.5 29q0 30 22 53.5t53 23.5q21 0 32.5 -13t11.5 -34z" />
<glyph unicode="&#x201a;" horiz-adv-x="243" d="M131 64q0 -33 -24 -75.5t-61 -82.5t-76 -65l-17 24q28 27 53 60t40 66q-15 4 -24.5 14.5t-9.5 29.5q0 29 22 52.5t53 23.5q21 0 32.5 -13t11.5 -34z" />
<glyph unicode="&#x201c;" horiz-adv-x="476" d="M119 472q0 33 24 75.5t61 82t77 65.5l16 -24q-28 -28 -53 -61t-40 -66q15 -3 24.5 -14t9.5 -29q0 -30 -22 -53t-52 -23q-22 0 -33.5 12.5t-11.5 34.5zM318 472q0 33 23.5 75.5t60.5 82t77 65.5l16 -24q-28 -28 -53 -61t-39 -66q15 -3 24.5 -14t9.5 -29q0 -30 -22.5 -53 t-52.5 -23q-22 0 -33 12.5t-11 34.5z" />
<glyph unicode="&#x201d;" horiz-adv-x="476" d="M489 648q0 -33 -24 -75.5t-61 -82.5t-77 -65l-16 23q28 28 53 61t39 66q-15 4 -24 14.5t-9 29.5q0 29 22 52.5t52 23.5q22 0 33.5 -13t11.5 -34zM290 648q0 -33 -24 -75.5t-61 -82.5t-76 -65l-17 23q28 28 53 61t40 66q-15 4 -24.5 14.5t-9.5 29.5q0 29 22 52.5t53 23.5 q21 0 32.5 -13t11.5 -34z" />
<glyph unicode="&#x201e;" horiz-adv-x="435" d="M131 64q0 -33 -24 -75.5t-61 -82.5t-76 -65l-17 24q28 27 53 60t40 66q-15 4 -24.5 14.5t-9.5 29.5q0 29 22 52.5t53 23.5q21 0 32.5 -13t11.5 -34zM323 64q0 -33 -24 -75.5t-61 -82.5t-76 -65l-17 24q28 27 53 60t40 66q-15 4 -24.5 14.5t-9.5 29.5q0 29 22 52.5 t53 23.5q21 0 32.5 -13t11.5 -34z" />
<glyph unicode="&#x2020;" horiz-adv-x="487" d="M246 -5l-114 -5l97 407l-141 -6l21 91l136 -6l28 179l114 5l-49 -184l140 6l-21 -91l-137 6z" />
<glyph unicode="&#x2021;" horiz-adv-x="487" d="M246 -5l-114 -5l50 171l-145 -9l22 91l139 -9l13 94l24 83l-145 -8l22 91l139 -9l22 170l114 5l-51 -175l145 9l-21 -91l-140 8l-11 -82l-27 -94l146 8l-22 -91l-139 8z" />
<glyph unicode="&#x2022;" horiz-adv-x="439" d="M349 300q0 -41 -23 -78.5t-60 -61t-81 -23.5q-40 0 -65 21.5t-25 64.5q0 41 23 78t61 60.5t81 23.5q39 0 64 -21.5t25 -63.5z" />
<glyph unicode="&#x2026;" horiz-adv-x="749" d="M563 -10q-20 0 -32 12t-12 33q0 28 23 52t54 24q20 0 32 -11t12 -29q0 -30 -23 -55.5t-54 -25.5zM317 -10q-20 0 -32.5 12t-12.5 33q0 28 23.5 52t54.5 24q20 0 31.5 -11t11.5 -29q0 -30 -22.5 -55.5t-53.5 -25.5zM70 -10q-20 0 -32 12t-12 33q0 28 23 52t54 24 q20 0 32 -11t12 -29q0 -30 -23 -55.5t-54 -25.5z" />
<glyph unicode="&#x2030;" horiz-adv-x="1341" d="M255 -10h-70l514 670h71zM426 524q0 -42 -15 -84t-42 -76.5t-66 -55.5t-88 -21q-59 0 -90 33t-31 96q0 42 14.5 84t42 77t66.5 56.5t88 21.5q58 0 89.5 -34t31.5 -97zM184 400q0 -67 45 -67q25 0 45 21t33.5 54.5t21 69.5t7.5 65q0 66 -45 66q-26 0 -46 -21.5t-33.5 -55 t-20.5 -69t-7 -63.5zM871 232q0 -42 -15 -84t-42 -76.5t-66 -55.5t-88 -21q-59 0 -90 33t-31 96q0 42 14.5 84t42 77t66.5 56.5t88 21.5q58 0 89.5 -34t31.5 -97zM1279 232q0 -42 -14.5 -84t-42 -76.5t-66.5 -55.5t-87 -21q-59 0 -90.5 33t-31.5 96q0 42 14.5 84t42.5 77 t67 56.5t88 21.5q58 0 89 -34t31 -97zM629 108q0 -67 45 -67q25 0 45 21t33.5 54.5t21 69.5t7.5 65q0 66 -45 66q-26 0 -46 -21.5t-33.5 -55t-20.5 -69t-7 -63.5zM1037 108q0 -67 46 -67q25 0 44.5 21t33.5 54.5t21.5 69.5t7.5 65q0 66 -45 66q-26 0 -46 -21.5t-34 -55 t-21 -69t-7 -63.5z" />
<glyph unicode="&#x2039;" horiz-adv-x="305" d="M54 271l6 31q60 46 114.5 94t111.5 107l21 -15q-34 -55 -74.5 -105.5t-79.5 -96.5q20 -46 39 -97t29 -105l-27 -14q-33 58 -66.5 106t-73.5 95z" />
<glyph unicode="&#x203a;" horiz-adv-x="305" d="M267 302l-6 -31q-60 -47 -114.5 -95t-111.5 -106l-22 14q35 55 75 105.5t79 96.5q-20 46 -38.5 97t-28.5 105l27 15q33 -59 66.5 -107t73.5 -94z" />
<glyph unicode="&#x2044;" horiz-adv-x="556" d="M-13 -10h-70l514 670h71z" />
<glyph unicode="&#x2070;" horiz-adv-x="426" d="M443 604q0 -42 -15 -84t-42 -76.5t-66 -55.5t-88 -21q-59 0 -90 33t-31 96q0 42 14.5 84t42 77t66.5 56.5t88 21.5q58 0 89.5 -34t31.5 -97zM201 480q0 -67 45 -67q25 0 45 21t33.5 54.5t21 69.5t7.5 65q0 66 -45 66q-26 0 -46 -21.5t-33.5 -55t-20.5 -69t-7 -63.5z" />
<glyph unicode="&#x2074;" horiz-adv-x="419" d="M322 372h-84l14 65h-161l2 35l246 263l59 -5l-48 -228q28 2 54 5l-19 -70h-49zM264 499h2l35 157l-157 -157h120z" />
<glyph unicode="&#x2075;" horiz-adv-x="383" d="M370 497q0 -39 -24.5 -68t-67 -45.5t-95.5 -16.5q-52 0 -91 13l15 45q15 -5 36 -8.5t38 -3.5q46 0 73.5 24t27.5 56q0 26 -18.5 37.5t-44.5 11.5q-16 0 -35 -3.5t-33 -7.5l-7 4l41 195h125q24 0 51 1t53 4l-19 -72h-178l-23 -95q17 5 37 8.5t39 3.5q48 0 74 -21t26 -62z " />
<glyph unicode="&#x2076;" horiz-adv-x="394" d="M399 509q0 -37 -22.5 -69.5t-60.5 -52.5t-87 -20q-57 0 -89 29.5t-32 89.5q0 46 19 90.5t54 80t82 57t103 21.5q16 0 31.5 -2t21.5 -4l-16 -47q-17 7 -41 7q-42 0 -84 -32.5t-65 -104.5q21 18 47.5 27.5t53.5 9.5q39 0 62 -21.5t23 -58.5zM198 474q0 -28 10.5 -44.5 t32.5 -16.5q30 0 50 27t20 60q0 52 -49 52q-12 0 -27 -6t-29 -18q-5 -17 -6.5 -31.5t-1.5 -22.5z" />
<glyph unicode="&#x2077;" horiz-adv-x="373" d="M210 372h-94q15 52 49.5 106.5t82.5 103t104 81.5h-86q-33 0 -65 -2t-59 -5l19 74h250l5 -5l-5 -40q-71 -65 -125.5 -145.5t-75.5 -167.5z" />
<glyph unicode="&#x2078;" horiz-adv-x="399" d="M94 440q0 33 34.5 61t84.5 41q-30 17 -48 39t-18 49q0 29 22 53t58.5 38t79.5 14q50 0 81 -19.5t31 -52.5q0 -35 -31 -60.5t-75 -37.5q80 -41 80 -92q0 -30 -23.5 -54t-62.5 -38t-87 -14q-57 0 -91.5 20t-34.5 53zM231 644q0 -19 14 -34.5t34 -27.5q25 14 41.5 33.5 t16.5 40.5q0 17 -12.5 27t-31.5 10q-24 0 -43 -14t-19 -35zM179 450q0 -18 15 -29.5t42 -11.5q28 0 50.5 14t22.5 38q0 21 -18 35.5t-46 28.5q-28 -14 -47 -34t-19 -41z" />
<glyph unicode="&#x2079;" horiz-adv-x="394" d="M124 589q0 39 22 72t60 53.5t88 20.5q57 0 89 -29.5t32 -88.5q0 -47 -19.5 -91.5t-54.5 -80t-82 -57t-102 -21.5q-17 0 -32.5 2t-21.5 4l17 47q16 -7 41 -7q41 0 83 30t66 95q-43 -36 -98 -36q-42 0 -65 23.5t-23 63.5zM325 629q0 27 -10.5 44t-31.5 17q-31 0 -51 -30 t-20 -66q0 -55 49 -55q12 0 26.5 5.5t29.5 17.5q3 15 5.5 35.5t2.5 31.5z" />
<glyph unicode="&#x207f;" horiz-adv-x="472" d="M226 372h-99q-2 10 -3 21t-1 22q0 42 9.5 98.5t25.5 124.5l8 94l110 7q-8 -40 -16 -76.5t-15 -69.5q28 63 72 104.5t93 41.5q32 0 53 -20.5t16 -67.5q-7 -59 -23 -118.5t-16 -119.5q0 -10 1.5 -20t3.5 -21h-99q-3 12 -4 22.5t-1 26.5q0 39 12.5 87t21.5 118q3 42 -26 42 q-19 0 -40.5 -20.5t-41 -55.5t-32.5 -78.5t-13 -90.5v-2v0v-4q0 -25 4 -45z" />
<glyph unicode="&#x2080;" horiz-adv-x="426" d="M329 67q0 -42 -15 -84t-42 -76.5t-66 -55.5t-88 -21q-59 0 -90 33t-31 96q0 42 14.5 84t42 77t66.5 56.5t88 21.5q58 0 89.5 -34t31.5 -97zM87 -57q0 -67 45 -67q25 0 45 21t33.5 54.5t21 69.5t7.5 65q0 66 -45 66q-26 0 -46 -21.5t-33.5 -55t-20.5 -69t-7 -63.5z" />
<glyph unicode="&#x2081;" horiz-adv-x="294" d="M82 -168h-83l66 305l-67 -25l-4 39l160 44l5 -4z" />
<glyph unicode="&#x2082;" horiz-adv-x="368" d="M209 -168h-246l1 48q30 18 66.5 45t70.5 57.5t55.5 60.5t21.5 55q0 20 -15 31t-40 11q-24 0 -49.5 -9.5t-47.5 -24.5l3 59q23 11 58.5 20.5t72.5 9.5q50 0 79 -21t29 -57q0 -32 -22 -63t-57.5 -59t-79 -52.5t-86.5 -44.5h80q63 0 125 9z" />
<glyph unicode="&#x2083;" horiz-adv-x="336" d="M214 -56q0 -35 -25 -60.5t-65 -39.5t-87 -14q-53 0 -91 13l16 48q13 -7 31 -11t36 -4q42 0 69 21t27 48q0 26 -23 36.5t-49 10.5q-10 0 -20.5 -1.5t-16.5 -2.5l5 30q35 8 65 22t48.5 32t18.5 37q0 16 -14 25t-38 9q-20 0 -42.5 -6t-42.5 -16l6 51q19 9 51.5 17.5 t66.5 8.5q47 0 74 -18t27 -50q0 -40 -41 -67.5t-96 -40.5q48 -2 79 -20.5t31 -57.5z" />
<glyph unicode="&#x2084;" horiz-adv-x="393" d="M189 -168h-84l14 65h-161l2 35l246 263l59 -5l-48 -228q28 2 54 5l-19 -70h-49zM131 -41h2l35 157l-157 -157h120z" />
<glyph unicode="&#x2085;" horiz-adv-x="364" d="M247 -40q0 -39 -25 -68t-67.5 -45.5t-95.5 -16.5q-52 0 -91 13l16 45q15 -5 36 -8.5t38 -3.5q45 0 72.5 24t27.5 56q0 26 -18.5 37.5t-43.5 11.5q-16 0 -35 -3.5t-34 -7.5l-6 4l41 195h125q23 0 50.5 1t52.5 4l-18 -72h-178l-23 -95q16 5 36 8.5t40 3.5q47 0 73.5 -21 t26.5 -62z" />
<glyph unicode="&#x2086;" horiz-adv-x="376" d="M285 -28q0 -37 -22.5 -69.5t-60.5 -52.5t-87 -20q-57 0 -89 29.5t-32 89.5q0 46 19 90.5t54 80t82 57t103 21.5q16 0 31.5 -2t21.5 -4l-16 -47q-17 7 -41 7q-42 0 -84 -32.5t-65 -104.5q21 18 47.5 27.5t53.5 9.5q39 0 62 -21.5t23 -58.5zM84 -63q0 -28 10.5 -44.5 t32.5 -16.5q30 0 50 27t20 60q0 52 -49 52q-12 0 -27 -6t-29 -18q-5 -17 -6.5 -31.5t-1.5 -22.5z" />
<glyph unicode="&#x2087;" horiz-adv-x="343" d="M77 -168h-94q15 52 50 106.5t83 103t103 81.5h-85q-34 0 -66 -2t-59 -5l20 74h250l4 -5l-4 -40q-71 -65 -125.5 -145.5t-76.5 -167.5z" />
<glyph unicode="&#x2088;" horiz-adv-x="400" d="M-20 -97q0 33 34.5 61t84.5 41q-30 17 -48 39t-18 49q0 29 22 53t58.5 38t79.5 14q50 0 81 -19.5t31 -52.5q0 -35 -31 -60.5t-75 -37.5q80 -41 80 -92q0 -30 -23.5 -54t-62.5 -38t-87 -14q-57 0 -91.5 20t-34.5 53zM117 107q0 -19 14 -34.5t34 -27.5q25 14 41.5 33.5 t16.5 40.5q0 17 -12.5 27t-31.5 10q-24 0 -43 -14t-19 -35zM65 -87q0 -18 15 -29.5t42 -11.5q28 0 50.5 14t22.5 38q0 21 -18 35.5t-46 28.5q-28 -14 -47 -34t-19 -41z" />
<glyph unicode="&#x2089;" horiz-adv-x="377" d="M-7 52q0 39 22 72t60.5 53.5t87.5 20.5q57 0 89 -29.5t32 -88.5q0 -47 -19.5 -91.5t-54.5 -80t-82 -57t-102 -21.5q-17 0 -32.5 2t-21.5 4l17 47q16 -7 41 -7q41 0 83 30t66 95q-43 -36 -98 -36q-42 0 -65 23.5t-23 63.5zM194 92q0 27 -10.5 44t-31.5 17q-31 0 -51 -30 t-20 -66q0 -55 49 -55q12 0 26.5 5.5t29.5 17.5q3 15 5.5 35.5t2.5 31.5z" />
<glyph unicode="&#x20ac;" horiz-adv-x="537" d="M32 245l13 41h48q6 41 18 81h-42l12 41h44q28 71 75 128t109 90.5t135 33.5q38 0 77 -8t63 -19l-36 -100q-19 16 -51.5 30.5t-65.5 14.5q-43 0 -77.5 -23t-60 -61.5t-41.5 -85.5h194l-12 -41h-195q-10 -40 -14 -81h185l-13 -41h-174v-6q0 -76 27 -119.5t87 -43.5 q34 0 67 11.5t55 25.5l-5 -87q-74 -36 -161 -36q-100 0 -152 59.5t-52 172.5q0 11 1 23h-58z" />
<glyph unicode="&#x2122;" horiz-adv-x="567" d="M361 598h-1l-54 -173h-46l76 225l80 3l-6 -183l71 180l80 3l-20 -228h-60l21 175l-75 -175h-67zM183 425h-59l39 185l-57 -3l13 43h166l-7 -43l-56 3l1 3z" />
<glyph unicode="&#x2212;" horiz-adv-x="561" d="M477 284h-380l17 78q32 1 82 1.5t106 1t107.5 1t86.5 0.5z" />
<glyph unicode="&#x221e;" horiz-adv-x="828" d="M753 347q0 -43 -15.5 -84.5t-43 -75t-64.5 -53.5t-80 -20q-40 0 -66.5 15.5t-44 41t-30.5 55.5q-40 -51 -89.5 -81.5t-102.5 -30.5q-59 0 -90.5 36.5t-31.5 96.5q0 44 15.5 85t43.5 73.5t65 52t79 19.5q39 0 65.5 -16t44.5 -42.5t32 -55.5q41 52 90.5 83t103.5 31 q57 0 88 -35.5t31 -94.5zM604 405q-38 0 -75 -30t-66 -69q19 -51 40 -84.5t59 -33.5q31 0 54.5 21t37.5 53.5t14 65.5q0 37 -18 57t-46 20zM180 265q0 -38 17.5 -58t47.5 -20q39 0 76.5 30.5t64.5 66.5q-20 54 -42 86.5t-58 32.5q-32 0 -55.5 -21t-37 -53t-13.5 -64z" />
<glyph unicode="&#x2248;" horiz-adv-x="602" d="M224 421q-8 0 -26.5 -17t-40.5 -41l-38 21q17 25 38.5 53t44.5 48t44 20q17 0 47 -8t63 -18.5t60.5 -18t41.5 -7.5q7 0 25.5 16.5t42.5 40.5l37 -21q-17 -25 -38.5 -53t-44 -48t-43.5 -20q-18 0 -48 8t-63.5 18.5t-61.5 18.5t-40 8zM176 197q-8 0 -26.5 -17t-40.5 -41 l-38 21q17 25 38.5 53t44.5 48t44 20q17 0 47 -8t63 -18.5t60.5 -18t41.5 -7.5q7 0 25.5 16.5t42.5 40.5l37 -21q-17 -25 -38.5 -53t-44 -48t-43.5 -20q-18 0 -48 8t-63.5 18.5t-61.5 18.5t-40 8z" />
<glyph unicode="&#x2260;" horiz-adv-x="563" d="M138 70l-37 26l60 84h-85l16 78q23 0 56.5 1t70.5 1l93 128h-192l17 78q39 1 103.5 2t129.5 1l79 110l8 3l37 -26l-62 -86h87l-19 -82h-127l-92 -127q55 0 106.5 0.5t87.5 0.5l-19 -82h-233l-77 -107z" />
<glyph unicode="&#x2264;" horiz-adv-x="568" d="M545 576l-19 -87l-293 -88l255 -86l-19 -90q-37 12 -84.5 30t-97.5 38t-94.5 38.5t-73.5 31.5l16 75zM437 76h-380l16 77q33 1 83 2t105.5 1.5t107 1t87.5 0.5z" />
<glyph unicode="&#x2265;" horiz-adv-x="569" d="M87 225l19 87l293 87l-255 87l19 90q36 -13 84 -31t98 -37.5t94 -38t73 -31.5l-15 -75zM436 76h-380l17 77q32 1 82 2t106 1.5t107.5 1t86.5 0.5z" />
<glyph unicode="&#x25fc;" horiz-adv-x="510" d="M0 510h510v-510h-510v510z" />
<glyph unicode="&#xfb00;" horiz-adv-x="623" d="M636 415l-109 3l-85 -404q-10 -46 -33.5 -87t-67.5 -73t-118 -49l-18 44q58 29 82 72t36 99l83 395l-166 4l-85 -405q-10 -45 -33.5 -86.5t-67.5 -73.5t-118 -49l-18 44q58 29 82 72t36 99l84 401l-52 2l7 34l56 12v2q-1 9 -1 30t2 38q6 62 59 100.5t133 38.5q38 0 76 -9 t63 -21q47 47 126 47q34 0 65 -8.5t50 -18.5l-29 -77q-16 15 -36.5 23.5t-41.5 8.5q-30 0 -51 -20t-26 -58q-3 -18 -2.5 -39t5.5 -37h129zM232 532q-3 -13 -2 -31.5t6 -31.5h182v2q-1 14 -0.5 38.5t2.5 41.5q1 16 5 31q-20 11 -44 17.5t-48 6.5q-38 0 -66.5 -18t-34.5 -56z " />
<glyph unicode="&#xfb01;" horiz-adv-x="559" d="M527 500q-29 -153 -52 -261.5t-23 -185.5q0 -9 0.5 -23.5t3.5 -29.5h-120l-2.5 22.5t-1.5 35.5q0 52 8 104t17 94l27 127l2 31l-146 4l-85 -404q-10 -45 -33.5 -86.5t-67.5 -73.5t-118 -49l-18 44q57 29 81.5 72t36.5 99l84 401l-52 2l7 34l56 12v2q-1 14 -0.5 38.5 t2.5 40.5q4 45 33.5 77.5t78 50t107.5 17.5q42 0 78.5 -7.5t61.5 -16.5l-29 -79q-27 14 -57.5 22.5t-60.5 8.5q-45 0 -75 -20t-37 -59q-3 -16 -2 -38t5 -37h154l122 35z" />
<glyph unicode="&#xfb02;" horiz-adv-x="573" d="M340 415l-100 3l-85 -404q-10 -45 -33.5 -86.5t-67.5 -73.5t-118 -49l-18 44q57 29 81.5 72t36.5 99l84 401l-52 2l7 34l56 12v2q-1 14 -0.5 38.5t2.5 41.5q6 67 62 105.5t145 38.5q32 0 68 -4.5t60 -10.5l114 15q-28 -147 -55 -267t-44.5 -213t-17.5 -161q0 -11 1 -25 t4 -29h-120q-2 8 -3.5 22.5t-1.5 26.5q0 63 13 135.5t32 164.5l46 214l4 43q-47 17 -95 17t-77 -21t-35 -57q-3 -15 -2.5 -37.5t5.5 -38.5h117z" />
<glyph unicode="&#xfb03;" horiz-adv-x="847" d="M814 500q-28 -153 -51.5 -261.5t-23.5 -185.5q0 -9 1 -23.5t4 -29.5h-120q-2 9 -3.5 22.5t-1.5 35.5q0 52 8 104t17 94l27 127l2 31l-146 4l-85 -404q-10 -45 -33 -86.5t-67.5 -73.5t-117.5 -49l-19 44q57 29 81.5 72t36.5 99l84 395l-167 4l-85 -405 q-10 -45 -33.5 -86.5t-67.5 -73.5t-118 -49l-18 44q58 29 82 72t36 99l84 401l-52 2l7 34l56 12v2q-1 9 -1 30t2 38q6 62 59 100.5t133 38.5q41 0 82 -10.5t64 -24.5q62 52 169 52q42 0 78.5 -7.5t62.5 -16.5l-29 -79q-28 14 -58 22.5t-61 8.5q-44 0 -74.5 -20t-36.5 -59 q-3 -16 -2.5 -38t5.5 -37h154l122 35zM232 532q-3 -13 -2 -31.5t6 -31.5h183v2q-2 14 -1 38.5t2 40.5q2 16 7 31q-21 12 -45.5 18.5t-48.5 6.5q-38 0 -66 -18t-35 -56z" />
<glyph unicode="&#xfb04;" horiz-adv-x="860" d="M627 415l-100 3l-85 -404q-10 -45 -33.5 -86.5t-67.5 -73.5t-118 -49l-18 44q57 29 81.5 72t36.5 99l83 395l-166 4l-85 -405q-10 -45 -33.5 -86.5t-67.5 -73.5t-118 -49l-18 44q58 29 82 72t36 99l84 401l-52 2l7 34l56 12v2q-1 9 -1 30t2 38q6 62 59 100.5t133 38.5 q40 0 79.5 -10t63.5 -23q57 50 159 50q33 0 69 -4.5t60 -10.5l114 15q-28 -147 -55 -267t-44.5 -213t-17.5 -161q0 -11 1 -25t4 -29h-120q-2 8 -3.5 22.5t-1.5 26.5q0 63 13 135.5t32 164.5l46 214l4 43q-47 17 -95 17t-77 -21t-35 -57q-3 -15 -2.5 -37.5t5.5 -38.5h117z M232 532q-3 -13 -2 -31.5t6 -31.5h182v2q-1 14 -0.5 38.5t2.5 41.5q1 16 6 31q-21 11 -45 17.5t-48 6.5q-38 0 -66 -18t-35 -56z" />
<glyph unicode="&#xfb06;" horiz-adv-x="824" d="M364 151q0 -47 -30 -83.5t-82 -57t-118 -20.5q-36 0 -76.5 6.5t-67.5 16.5l28 96q26 -16 65 -28t75 -12q40 0 64.5 18t24.5 46q0 30 -26.5 48.5t-62.5 42.5q-32 21 -57.5 48t-25.5 72q0 47 30 84.5t82 59.5t119 22q36 0 70 -7q-11 21 -11 46q0 43 29 78.5t77 57t104 21.5 q64 0 101.5 -30.5t37.5 -77.5q0 -33 -17 -64t-38 -51h168l-16 -54l-149 3q-24 -111 -38 -176t-20 -97.5t-6 -45.5q0 -45 47 -45q31 0 60 20t58 49l3 -61q-36 -41 -81.5 -63.5t-94.5 -22.5q-53 0 -83.5 25t-30.5 79q0 14 3 34t10 56t20 96t33 155l-52 2l8 34l66 12 q11 14 22.5 38t11.5 50q0 29 -19.5 47.5t-54.5 18.5q-47 0 -78.5 -30.5t-31.5 -69.5q0 -12 3 -24.5t10 -24.5l-28 -92q-26 15 -58 25.5t-60 10.5q-40 0 -64 -21t-24 -48q0 -26 23 -44.5t51 -37.5q23 -14 45 -31.5t37 -41.5t15 -57z" />
<glyph horiz-adv-x="477" d="M30 106q0 44 18 92t52.5 89t83.5 66.5t111 25.5q32 0 63.5 -7t56.5 -17l-28 -127q-8 -31 -16.5 -76t-8.5 -92q0 -24 5 -48h-99q-3 12 -4 22t-1 24q0 39 10 96q-30 -65 -76.5 -107t-92.5 -42q-34 0 -54 26.5t-20 74.5zM132 126q0 -25 8 -39.5t22 -14.5q22 0 47.5 28.5 t49.5 77.5t42 110q4 16 8 36q-19 8 -34 8q-30 0 -55.5 -20.5t-45.5 -52.5t-31 -67.5t-11 -65.5z" />
<glyph horiz-adv-x="469" d="M414 279q0 -45 -18.5 -93t-53 -89t-83.5 -66.5t-112 -25.5q-30 0 -62 6.5t-57 16.5l82 383l8 94l111 7q-17 -81 -33.5 -155t-30.5 -139q20 47 48.5 83t61 57t64.5 21q34 0 54.5 -26.5t20.5 -73.5zM281 313q-24 0 -52.5 -35t-54.5 -92.5t-41 -125.5q19 -7 36 -7 q29 0 55 20t46 52t31 67.5t11 65.5q0 24 -8 39.5t-23 15.5z" />
<glyph horiz-adv-x="394" d="M304 114l3 -52q-27 -25 -65 -41t-78 -16q-57 0 -92.5 31.5t-35.5 97.5q0 47 18 91t50 78.5t74.5 55t91.5 20.5q25 0 47.5 -6t39.5 -15l-25 -80q-35 47 -74 47q-32 0 -59.5 -28t-44 -69.5t-16.5 -81.5q0 -38 14.5 -60t46.5 -22q25 0 53 14t52 36z" />
<glyph horiz-adv-x="484" d="M30 106q0 44 18 92t52.5 89t83.5 66.5t111 25.5q13 0 26 -1q3 14 8 33l8 94l111 7q-9 -41 -17.5 -80t-16.5 -77h1l-2 -1q-20 -91 -34.5 -166.5t-14.5 -127.5q0 -25 5 -48h-99q-1 8 -3 19.5t-2 27.5q0 22 2 43t9 59q-20 -45 -48 -80t-60 -55.5t-64 -20.5q-34 0 -54 26.5 t-20 74.5zM132 126q0 -25 8 -39.5t22 -15.5q23 1 50 32t52 84t42 118q2 9 4 19q-20 8 -35 8q-30 0 -55.5 -20.5t-45.5 -52.5t-31 -67.5t-11 -65.5z" />
<glyph horiz-adv-x="411" d="M320 114l2 -52q-24 -24 -70 -40.5t-89 -16.5q-60 0 -93.5 33.5t-33.5 95.5q0 45 17 88.5t47.5 79t71 56.5t87.5 21q45 0 74 -20.5t29 -57.5q0 -35 -25.5 -65t-68 -49t-96.5 -22q-17 -1 -33 1q-1 -10 -1 -20q0 -41 17.5 -61.5t49.5 -20.5q27 0 58 14t57 36zM241 332 q-23 0 -43.5 -22.5t-35.5 -56.5t-21 -69q46 7 75.5 26.5t44 43.5t14.5 44q0 15 -9 24.5t-25 9.5z" />
<glyph horiz-adv-x="303" d="M277 306l-84 2l-60 -282q-7 -32 -23.5 -64t-51.5 -56t-96 -34l-16 35q45 21 62.5 52.5t26.5 70.5l60 280l-40 2l5 27l44 10v2q-1 9 -1.5 25t1.5 32q3 50 40.5 77t89.5 27q27 0 52.5 -6.5t40.5 -14.5l-22 -62q-28 25 -61 25q-23 0 -39 -14t-19 -38q-1 -12 -0.5 -27.5 t4.5 -25.5h99z" />
<glyph horiz-adv-x="430" d="M327 -24q0 -33 -26.5 -56t-72 -35.5t-103.5 -12.5q-74 0 -112.5 19.5t-38.5 55.5q0 28 20.5 47.5t46.5 27.5l8 -8q-6 -18 -8 -36t6 -34q16 -44 84 -44q36 0 65 14t29 35q0 15 -16 25t-38.5 17.5t-45.5 16.5t-38.5 21t-15.5 32q0 24 27 44.5t73 27.5v2q-58 0 -89 23 t-31 68q0 37 21.5 72t64 58t105.5 23q48 0 82.5 1t80.5 5q14 -13 14 -29q0 -13 -10 -23t-26 -10q-18 0 -39.5 10.5t-52.5 22.5l-1 -3q28 -12 49.5 -32t21.5 -54q0 -43 -33 -77t-87 -55q-10 -4 -27 -10.5t-30 -14t-13 -16.5q-1 -10 15 -17t39.5 -14t46.5 -17.5t39 -27 t16 -42.5zM148 213q0 -47 35 -47q23 0 41 21t29 50t11 53q0 46 -36 46q-25 0 -43 -21t-27.5 -49.5t-9.5 -52.5z" />
<glyph horiz-adv-x="473" d="M369 12h-99q-3 12 -4 22.5t-1 26.5q0 24 5.5 55.5t12 63.5t12 58t5.5 39q0 14 -8 22.5t-19 8.5q-23 0 -50 -30.5t-48.5 -79.5t-27.5 -106q-1 -21 -1 -38q0 -12 1 -20.5t3 -21.5h-99q-1 8 -2.5 19.5t-1.5 24.5q0 30 5 68t12.5 76t14.5 68l31 143l8 94l110 7 q-15 -75 -30.5 -145.5t-28.5 -132.5q28 63 72 104t93 41q30 0 50 -17t20 -54q0 -26 -10 -68.5t-20 -91.5t-10 -94q0 -10 1.5 -20.5t3.5 -21.5z" />
<glyph horiz-adv-x="260" d="M229 493q0 -26 -22.5 -46.5t-52.5 -20.5q-19 0 -30.5 9t-11.5 26q0 25 22.5 46.5t53.5 21.5q18 0 29.5 -10t11.5 -26zM200 379q-20 -102 -37 -184t-17 -138q0 -10 1 -22t3 -23h-99q-4 23 -4 52q0 26 4 54.5t13 70.5l18 88l8 95z" />
<glyph horiz-adv-x="254" d="M232 493q0 -25 -22.5 -46t-52.5 -21q-19 0 -31 9t-12 26q0 25 23.5 46.5t53.5 21.5q18 0 29.5 -9.5t11.5 -26.5zM201 379q-10 -48 -30 -140t-44 -212q-13 -64 -53.5 -103.5t-117.5 -51.5l-16 35q45 21 62.5 53t26.5 71l54 247l8 94z" />
<glyph horiz-adv-x="459" d="M150 12h-99q-4 28 -4 42q0 47 9 100t23 115l31 142l8 94l111 7q-16 -78 -32.5 -149.5t-28.5 -134.5q30 68 79.5 109.5t99.5 41.5q32 0 49.5 -16.5t16.5 -43.5q1 -38 -34 -75.5t-96 -72.5q17 -39 41 -80t53 -79l-109 -7q-21 30 -43 68.5t-36 81.5q54 33 88.5 66.5 t34.5 63.5t-29 30q-23 0 -47.5 -23t-45 -60.5t-33 -83t-11.5 -92.5q0 -10 0.5 -21.5t3.5 -22.5z" />
<glyph horiz-adv-x="260" d="M229 512q-19 -93 -38.5 -177.5t-32 -154.5t-12.5 -122q0 -10 0.5 -22t3.5 -24h-99q-2 11 -3 21.5t-1 21.5q0 43 8.5 97.5t22.5 116.5l32 142l8 94z" />
<glyph horiz-adv-x="676" d="M150 12h-99q-2 10 -3 21t-1 22q0 42 9.5 98.5t25.5 124.5l8 94l110 7q-8 -40 -16 -75.5t-14 -67.5q26 63 69.5 103t89.5 40q30 0 50.5 -20.5t15.5 -67.5q-3 -17 -6 -37q28 56 68 90.5t82 34.5q31 0 51 -21.5t15 -65.5q-7 -62 -22.5 -120.5t-15.5 -115.5q0 -13 1 -23.5 t3 -20.5h-99q-1 8 -2.5 18t-1.5 24q0 44 12.5 96.5t21.5 117.5q1 14 -5 27t-18 13q-20 0 -44.5 -28t-45 -73t-29.5 -98q-1 -14 -2 -27t-1 -26q0 -26 4 -44h-99q-4 19 -4 42q0 43 12.5 99.5t20.5 114.5q1 15 -5 27.5t-18 12.5q-17 0 -38 -21.5t-40.5 -57.5t-32 -80.5 t-11.5 -91.5q0 -26 4 -45z" />
<glyph horiz-adv-x="473" d="M150 12h-99q-2 10 -3 21t-1 22q0 42 9.5 98.5t25.5 124.5l8 94l110 7q-8 -40 -16 -76.5t-15 -69.5q28 63 72 104.5t93 41.5q32 0 53 -20.5t16 -67.5q-7 -59 -23 -118.5t-16 -119.5q0 -10 1.5 -20t3.5 -21h-99q-3 12 -4 22.5t-1 26.5q0 39 12.5 87t21.5 118q3 42 -26 42 q-19 0 -40.5 -20.5t-41 -55.5t-32.5 -78.5t-13 -90.5v-2v0v-4q0 -25 4 -45z" />
<glyph horiz-adv-x="463" d="M402 248q0 -44 -17.5 -87t-49 -78t-74 -56t-91.5 -21q-60 0 -97 31.5t-37 95.5q0 44 17.5 87.5t49.5 79.5t74.5 57.5t91.5 21.5q63 0 98 -35.5t35 -95.5zM138 126q0 -38 13 -55t35 -17q25 0 46 20t36 52t23.5 67.5t8.5 66.5q0 71 -47 71q-25 0 -46 -20t-36.5 -51.5 t-24 -67t-8.5 -66.5z" />
<glyph horiz-adv-x="469" d="M201 379q-9 -42 -18 -82t-17 -79q20 47 48.5 83t61 57t64.5 21q34 0 54 -26t20 -74q0 -45 -18 -92.5t-52.5 -89t-83.5 -67t-111 -25.5q-12 0 -25 3q-3 -23 -4.5 -43.5t-1.5 -37.5q0 -27 4 -48h-99q-2 9 -3 21t-1 23q0 35 7.5 83t25.5 129l31 143l7 94zM283 313 q-25 0 -54 -34.5t-55 -92t-41 -126.5q20 -7 37 -7q29 0 55 20t45.5 52t31 67.5t11.5 65.5q0 25 -8.5 40t-21.5 15z" />
<glyph horiz-adv-x="469" d="M30 106q0 44 18 92t52.5 89t83.5 66.5t111 25.5q32 0 63.5 -7t56.5 -17q-24 -113 -39.5 -185.5t-24 -118t-12 -74t-3.5 -51.5q0 -27 5 -47h-99q-2 9 -3.5 21t-1.5 23q0 25 3.5 54t11 71t20.5 104q-30 -64 -76 -105.5t-92 -41.5q-34 0 -54 26.5t-20 74.5zM132 126 q0 -25 8 -39.5t22 -14.5q23 0 49 30t50.5 81t42.5 114q1 7 2.5 13.5t3.5 13.5q-20 8 -35 8q-30 0 -55.5 -20.5t-45.5 -52.5t-31 -67.5t-11 -65.5z" />
<glyph horiz-adv-x="358" d="M150 12h-99q-2 10 -3 21t-1 22q0 42 9.5 98.5t25.5 124.5l8 94l110 7q-9 -42 -17 -79t-15 -71q21 63 54 106.5t74 43.5q17 0 31 -6t22 -14l-39 -80q-9 4 -22.5 7.5t-23.5 3.5q-23 0 -43.5 -20.5t-37.5 -55t-27 -76.5t-10 -85q0 -23 4 -41z" />
<glyph horiz-adv-x="376" d="M296 122q0 -34 -23 -60.5t-63.5 -41.5t-91.5 -15q-27 0 -59 4.5t-54 12.5l21 77q20 -12 50.5 -21t58.5 -9q29 0 46.5 11t17.5 29q0 21 -20 33t-49 29q-25 15 -44.5 34.5t-19.5 52.5q0 34 23.5 61.5t64.5 43.5t94 16q54 0 93 -13l-22 -78q-21 12 -46.5 19.5t-45.5 7.5 q-29 0 -46.5 -12.5t-17.5 -30.5t18 -30.5t39 -24.5q29 -16 52.5 -36.5t23.5 -58.5z" />
<glyph horiz-adv-x="353" d="M276 62q-28 -28 -63 -42.5t-71 -14.5q-44 0 -68 20t-24 60q0 14 3.5 37t14 69.5t28.5 131.5l-39 1l6 27l51 10v0l45 96l66 5q-6 -28 -11.5 -53.5t-10.5 -47.5h117l-13 -43l-113 3q-23 -105 -33.5 -155.5t-10.5 -65.5q0 -31 36 -31q23 0 44.5 13t42.5 32z" />
<glyph horiz-adv-x="469" d="M72 278l8 94l111 7q-19 -104 -36.5 -178t-17.5 -97q0 -27 25 -27q20 0 44.5 26t46.5 71.5t33 102.5v0q4 20 5.5 30.5t1.5 25.5q0 5 0.5 18t0.5 21l110 7q-20 -102 -37 -184t-17 -138q0 -25 5 -45h-99q-3 12 -4 24t-1 33q0 16 1 28.5t5 36.5q-28 -60 -71 -94.5t-87 -34.5 q-29 0 -47 18.5t-18 58.5q0 13 3 31t11 55.5t24 109.5z" />
<glyph horiz-adv-x="412" d="M75 168q-1 52 -6 109.5t-14 94.5l101 7q6 -26 10 -61.5t5 -70.5q1 -43 -1 -96t-7 -99h2q33 53 58.5 110t40 111.5t14.5 99.5q14 3 25.5 4.5t20.5 1.5q21 0 34 -8t13 -32t-13.5 -63.5t-40.5 -87t-67 -95.5t-92 -88l-82 7q1 32 0.5 74.5t-1.5 81.5z" />
<glyph horiz-adv-x="624" d="M75 166q-2 61 -7 114t-13 92l101 7q6 -27 9.5 -61t4.5 -72q2 -48 -1 -99.5t-7 -94.5h2q32 53 57.5 110t40 111.5t14.5 98.5l93 7q6 -27 10 -61t5 -70q2 -46 -0.5 -99t-7.5 -97h2q31 52 56.5 109.5t40.5 112t14 99.5q14 3 26 4.5t21 1.5q21 0 34 -8t13 -32t-13.5 -64 t-40.5 -87.5t-66.5 -95t-91.5 -87.5l-76 7q3 37 4.5 82t1.5 92.5t-2 89.5v0q-12 -41 -33.5 -91.5t-49.5 -98t-59 -81.5l-83 7q1 35 1.5 74.5t-0.5 79.5z" />
<glyph horiz-adv-x="409" d="M5 39q0 18 18.5 45.5t51 54t72.5 42.5q-14 49 -32.5 98t-49.5 93l100 7q23 -34 37.5 -74t27.5 -83q22 28 38.5 66t21.5 81q8 4 20.5 7t23.5 3q20 0 32 -9.5t12 -24.5q0 -19 -19.5 -45.5t-51.5 -52.5t-72 -43q15 -49 33 -98t50 -94l-100 -7q-23 34 -38 74.5t-27 82.5 q-22 -29 -39 -67t-21 -79q-9 -5 -21.5 -8t-22.5 -3q-21 0 -32.5 9.5t-11.5 24.5z" />
<glyph horiz-adv-x="417" d="M214 15q-55 -65 -116.5 -104t-119.5 -39q-28 0 -45.5 10t-17.5 32q0 12 5.5 24.5t14.5 18.5q13 -5 30.5 -7.5t34.5 -2.5q26 0 55.5 10t55.5 27.5t41 39.5l-72 4q3 69 0 149q-1 51 -6.5 104t-13.5 91l101 7q12 -55 15 -127q1 -50 -1 -97.5t-7 -87.5h2q32 49 57.5 103.5 t40.5 107t15 95.5q14 3 25.5 4.5t20.5 1.5q21 0 34.5 -8t13.5 -31t-12.5 -61t-34.5 -83.5t-52 -92t-64 -88.5z" />
<glyph horiz-adv-x="400" d="M15 5l-16 25q71 64 132 127.5t109 125.5q-31 3 -60 9.5t-49 6.5q-18 0 -33 -8t-25 -27l-19 6q8 65 32.5 87t56.5 22q36 0 73 -13t75 -13q8 13 17 26q15 0 28.5 -6.5t12.5 -24.5q1 -22 -22 -53.5t-59 -67t-77.5 -70t-80.5 -61.5q33 0 58.5 -5t53.5 -5q27 0 50.5 9t37.5 36 l20 -6q-18 -73 -48.5 -96.5t-71.5 -23.5q-38 0 -66.5 9.5t-60.5 9.5q-16 0 -32 -4.5t-36 -14.5z" />
<glyph horiz-adv-x="476" d="M107 466q0 44 18 92t52.5 89t83.5 66.5t110 25.5q33 0 64 -7t57 -17l-29 -127q-7 -31 -15.5 -76t-8.5 -92q0 -24 4 -48h-99q-2 12 -3 22.5t-1 23.5q0 39 10 96q-31 -65 -77 -107t-92 -42q-34 0 -54 26.5t-20 74.5zM208 486q0 -25 8 -39.5t22 -15.5q22 1 48 29.5t50 77.5 t42 110q3 16 8 36q-19 8 -35 8q-29 0 -55 -20.5t-45.5 -52.5t-31 -67.5t-11.5 -65.5z" />
<glyph horiz-adv-x="469" d="M491 639q0 -45 -18.5 -93t-53 -89t-83.5 -66.5t-112 -25.5q-30 0 -62 6.5t-57 16.5l82 383l8 94l111 7q-17 -81 -33.5 -155t-30.5 -139q20 47 48.5 83t61 57t64.5 21q34 0 54.5 -26.5t20.5 -73.5zM358 673q-24 0 -52.5 -35t-54.5 -92.5t-41 -125.5q19 -7 36 -7 q29 0 55 20t46 52t31 67.5t11 65.5q0 24 -8 39.5t-23 15.5z" />
<glyph horiz-adv-x="394" d="M381 474l3 -52q-27 -25 -65 -41t-78 -16q-57 0 -92.5 31.5t-35.5 97.5q0 47 18 91t50 78.5t74.5 55t91.5 20.5q25 0 47.5 -6t39.5 -15l-25 -80q-35 47 -74 47q-32 0 -59.5 -28t-44 -69.5t-16.5 -81.5q0 -38 14.5 -60t46.5 -22q25 0 53 14t52 36z" />
<glyph horiz-adv-x="483" d="M107 466q0 44 18 92t52.5 89t83.5 66.5t110 25.5q13 0 27 -1q3 14 7 33l8 94l111 7q-8 -41 -17 -80t-17 -77h2l-2 -1q-20 -91 -34.5 -166.5t-14.5 -127.5q0 -25 5 -48h-99q-2 8 -3.5 19.5t-1.5 27.5q0 22 2 43t9 59q-20 -45 -48.5 -80t-60.5 -55.5t-63 -20.5 q-34 0 -54 26.5t-20 74.5zM208 486q0 -25 8 -39.5t22 -14.5q23 0 50 31t52 84t42 118q2 9 4 19q-19 8 -35 8q-29 0 -55 -20.5t-45.5 -52.5t-31 -67.5t-11.5 -65.5z" />
<glyph horiz-adv-x="411" d="M396 474l2 -52q-24 -24 -69.5 -40.5t-88.5 -16.5q-60 0 -93.5 33.5t-33.5 95.5q0 45 17 88.5t47.5 79t71 56.5t86.5 21t74.5 -20.5t28.5 -57.5q0 -35 -25 -65t-68 -49t-96 -22q-17 -1 -34 1q-1 -10 -1 -20q0 -41 18 -61.5t50 -20.5q26 0 57.5 14t56.5 36zM318 692 q-23 0 -43.5 -22.5t-35.5 -56.5t-21 -69q45 7 75 26.5t44 43.5t14 44q0 15 -8.5 24.5t-24.5 9.5z" />
<glyph horiz-adv-x="303" d="M353 666l-83 2l-60 -282q-7 -32 -24 -64t-51.5 -56t-95.5 -34l-16 35q44 21 61.5 52.5t26.5 70.5l60 280l-40 2l6 27l43 10v2q-1 9 -1 25t1 32q4 50 41 77t89 27q27 0 53 -6.5t41 -14.5l-23 -62q-28 25 -61 25q-22 0 -38 -14t-19 -38q-2 -12 -1.5 -27.5t4.5 -25.5h100z " />
<glyph horiz-adv-x="430" d="M404 336q0 -33 -26.5 -56t-72.5 -35.5t-104 -12.5q-74 0 -112 19.5t-38 55.5q0 28 20.5 47.5t45.5 27.5l8 -8q-6 -18 -7.5 -36t5.5 -34q17 -44 84 -44q36 0 65 14t29 35q0 15 -15.5 25t-38.5 17.5t-45.5 16.5t-38 21t-15.5 32q0 24 26.5 44.5t73.5 27.5v2q-59 0 -90 23 t-31 68q0 37 21.5 72t64 58t106.5 23q48 0 82.5 1t80.5 5q14 -13 14 -29q0 -13 -10 -23t-27 -10t-38.5 10.5t-53.5 22.5l-1 -3q29 -12 50.5 -32t21.5 -54q0 -43 -33 -77t-87 -55q-11 -4 -28 -10.5t-30 -14t-13 -16.5q0 -10 16 -17t39 -14t46.5 -17.5t39.5 -27t16 -42.5z M225 573q0 -47 34 -47q23 0 41.5 21t29 50t10.5 53q0 46 -36 46q-24 0 -42 -21t-27.5 -49.5t-9.5 -52.5z" />
<glyph horiz-adv-x="473" d="M446 372h-99q-3 12 -4 22.5t-1 26.5q0 24 5.5 55.5t12 63.5t12 58t5.5 39q0 14 -8 22.5t-19 7.5q-23 0 -50 -30t-48.5 -79t-27.5 -106q-1 -21 -1 -38q0 -12 1 -20.5t3 -21.5h-99q-1 8 -2.5 19.5t-1.5 24.5q0 30 5 68t12.5 76t14.5 68l31 143l8 94l111 7 q-16 -75 -31.5 -145.5t-28.5 -132.5q28 63 72 104t93 41q30 0 50 -17t20 -54q0 -26 -10 -68.5t-20 -91.5t-10 -94q0 -10 1.5 -20.5t3.5 -21.5z" />
<glyph horiz-adv-x="259" d="M305 853q0 -26 -22.5 -46.5t-52.5 -20.5q-19 0 -30.5 9t-11.5 26q0 25 22.5 46.5t53.5 21.5q18 0 29.5 -10t11.5 -26zM276 739q-20 -102 -37 -184t-17 -138q0 -10 1 -22t3 -23h-99q-4 23 -4 52q0 26 4 54.5t13 70.5l18 88l8 95z" />
<glyph horiz-adv-x="255" d="M309 853q0 -25 -22.5 -46t-52.5 -21q-19 0 -31 9t-12 26q0 25 23 46.5t53 21.5q19 0 30.5 -9.5t11.5 -26.5zM278 739q-11 -48 -31 -140t-43 -212q-13 -64 -53.5 -103.5t-117.5 -51.5l-16 35q44 21 61.5 53t26.5 71l54 247l8 94z" />
<glyph horiz-adv-x="459" d="M227 372h-99q-4 28 -4 42q0 47 9 100t23 115l31 142l8 94l111 7q-16 -78 -32.5 -149.5t-28.5 -134.5q30 68 79.5 109.5t99.5 41.5q32 0 49.5 -16.5t16.5 -43.5q1 -38 -34 -75.5t-96 -72.5q17 -39 41 -80t53 -79l-109 -7q-21 30 -43 68.5t-36 81.5q54 33 88.5 66.5 t34.5 63.5t-29 30q-23 0 -47.5 -23t-45 -60.5t-33 -83t-11.5 -92.5q0 -10 0.5 -21.5t3.5 -22.5z" />
<glyph horiz-adv-x="260" d="M306 872q-19 -93 -38.5 -177.5t-32 -154.5t-12.5 -122q0 -10 0.5 -22t3.5 -24h-99q-2 11 -3 21.5t-1 21.5q0 43 8.5 97.5t22.5 116.5l32 142l8 94z" />
<glyph horiz-adv-x="675" d="M226 372h-99q-2 10 -3 21t-1 22q0 42 9.5 98.5t25.5 124.5l8 94l110 7q-8 -40 -16 -75.5t-14 -67.5q26 63 69.5 103t89.5 40q30 0 50.5 -20.5t15.5 -67.5q-3 -17 -6 -37q28 56 68 90.5t82 34.5q31 0 51 -21.5t15 -65.5q-7 -62 -22.5 -120.5t-15.5 -115.5q0 -13 1 -23.5 t3 -20.5h-99q-1 8 -2.5 18t-1.5 24q0 44 12.5 96.5t21.5 117.5q1 14 -5 27t-18 13q-20 0 -44.5 -28t-45 -73t-29.5 -98q-1 -14 -2 -27t-1 -26q0 -26 4 -44h-99q-4 19 -4 42q0 43 12.5 99.5t20.5 114.5q1 15 -5 27.5t-18 12.5q-17 0 -38 -21.5t-40.5 -57.5t-32 -80.5 t-11.5 -91.5q0 -26 4 -45z" />
<glyph horiz-adv-x="464" d="M479 608q0 -44 -17.5 -87t-49 -78t-74 -56t-91.5 -21q-60 0 -97 31.5t-37 95.5q0 44 17.5 87.5t49.5 79.5t74.5 57.5t91.5 21.5q63 0 98 -35.5t35 -95.5zM215 486q0 -38 13 -55t35 -17q25 0 46 20t36 52t23.5 67.5t8.5 66.5q0 71 -47 71q-25 0 -46 -20t-36.5 -51.5 t-24 -67t-8.5 -66.5z" />
<glyph horiz-adv-x="469" d="M277 739q-9 -42 -18 -82t-17 -79q20 47 48.5 83t61 57t64.5 21q34 0 54 -26t20 -74q0 -45 -18 -92.5t-52.5 -89t-83.5 -67t-111 -25.5q-12 0 -25 3q-3 -23 -4.5 -43.5t-1.5 -37.5q0 -27 4 -48h-99q-2 9 -3 21t-1 23q0 35 7.5 83t25.5 129l31 143l7 94zM359 673 q-25 0 -54 -34.5t-55 -92t-41 -126.5q20 -7 37 -7q29 0 55 20t45.5 52t31 67.5t11.5 65.5q0 25 -8.5 40t-21.5 15z" />
<glyph horiz-adv-x="468" d="M107 466q0 44 18 92t52.5 89t83.5 66.5t110 25.5q33 0 64 -7t57 -17q-24 -113 -39.5 -185.5t-24.5 -118t-12 -74t-3 -51.5q0 -27 4 -47h-99q-2 9 -3 21t-1 23q0 25 3 54t10.5 71t21.5 104q-31 -64 -77 -105.5t-91 -41.5q-34 0 -54 26.5t-20 74.5zM208 486q0 -25 8 -39.5 t23 -15.5q22 1 48 31t51 81t42 114q2 7 3 13.5t3 13.5q-19 8 -35 8q-29 0 -55 -20.5t-45.5 -52.5t-31 -67.5t-11.5 -65.5z" />
<glyph horiz-adv-x="357" d="M226 372h-99q-2 10 -3 21t-1 22q0 42 9.5 98.5t25.5 124.5l8 94l110 7q-9 -42 -17 -79t-15 -71q21 63 54 106.5t74 43.5q17 0 31 -6t22 -14l-39 -80q-9 4 -22.5 7.5t-23.5 3.5q-23 0 -43.5 -20.5t-37.5 -55t-27 -76.5t-10 -85q0 -23 4 -41z" />
<glyph horiz-adv-x="377" d="M373 482q0 -34 -23.5 -60.5t-63.5 -41.5t-92 -15q-27 0 -58.5 4.5t-54.5 12.5l22 77q19 -12 49.5 -21t59.5 -9q28 0 46 11t18 29q0 21 -20 33t-49 29q-25 15 -44.5 34.5t-19.5 52.5q0 34 23 61.5t64 43.5t94 16q54 0 93 -13l-21 -78q-21 12 -46.5 19.5t-46.5 7.5 q-28 0 -45.5 -12.5t-17.5 -30.5t18 -30.5t39 -24.5q28 -16 52 -36.5t24 -58.5z" />
<glyph horiz-adv-x="353" d="M352 422q-28 -28 -63 -42.5t-71 -14.5q-44 0 -68 20t-24 60q0 14 3.5 37t14 69.5t28.5 131.5l-39 1l6 27l51 10v0l45 96l67 5q-7 -28 -12.5 -53.5t-10.5 -47.5h117l-13 -43l-113 3q-23 -105 -33.5 -155.5t-10.5 -65.5q0 -31 36 -31q23 0 44.5 13t42.5 32z" />
<glyph horiz-adv-x="468" d="M431 372h-99q-3 12 -4 24t-1 33q0 16 1 28.5t5 36.5q-28 -60 -71 -94.5t-87 -34.5q-29 0 -47 18.5t-18 58.5q0 13 3 31t11 55.5t24 109.5l8 94l111 7q-19 -104 -36.5 -178t-17.5 -97q0 -27 25 -27q20 0 44.5 26t46.5 71.5t33 102.5v0q4 20 5.5 30.5t1.5 25.5q0 5 0.5 18 t0.5 21l110 7q-20 -102 -37 -184t-17 -138q0 -25 5 -45z" />
<glyph horiz-adv-x="411" d="M151 528q-1 52 -6 109.5t-14 94.5l101 7q6 -26 10 -61.5t5 -70.5q1 -43 -1 -96t-7 -99h2q33 53 58.5 110t40 111.5t14.5 99.5q14 3 25.5 4.5t20.5 1.5q21 0 34 -8t13 -32t-13.5 -63.5t-40.5 -87t-67 -95.5t-92 -88l-82 7q1 32 0.5 74.5t-1.5 81.5z" />
<glyph horiz-adv-x="623" d="M151 526q-2 61 -7 114t-13 92l101 7q6 -27 9.5 -61t4.5 -72q2 -48 -1 -99.5t-7 -94.5h2q32 53 57.5 110t40 111.5t14.5 98.5l93 7q6 -27 10 -61t5 -70q2 -46 -0.5 -99t-7.5 -97h2q31 52 56.5 109.5t40.5 112t14 99.5q14 3 26 4.5t21 1.5q21 0 34 -8t13 -32t-13.5 -64 t-40.5 -87.5t-66.5 -95t-91.5 -87.5l-76 7q3 37 4.5 82t1.5 92.5t-2 89.5v0q-12 -41 -33.5 -91.5t-49.5 -98t-59 -81.5l-83 7q1 35 1.5 74.5t-0.5 79.5z" />
<glyph horiz-adv-x="408" d="M81 399q0 18 18.5 45.5t51 54t72.5 42.5q-14 49 -32.5 98t-49.5 93l99 7q24 -34 38.5 -74t27.5 -83q22 28 38.5 66t21.5 81q8 4 20.5 7t23.5 3q20 0 32 -9.5t12 -24.5q0 -19 -19.5 -45.5t-51.5 -52.5t-72 -43q15 -49 33 -98t50 -94l-100 -7q-23 34 -38 74.5t-27 82.5 q-22 -29 -39 -67t-21 -79q-9 -5 -21.5 -8t-22.5 -3q-21 0 -32.5 9.5t-11.5 24.5z" />
<glyph horiz-adv-x="417" d="M291 375q-55 -65 -116.5 -104t-119.5 -39q-28 0 -45.5 10t-17.5 32q0 12 5.5 24.5t14.5 18.5q13 -5 30.5 -7.5t34.5 -2.5q26 0 55.5 10t55.5 27.5t41 39.5l-72 4q3 69 0 149q-1 51 -6.5 104t-13.5 91l101 7q12 -55 15 -127q1 -50 -1 -97.5t-7 -87.5h2q32 49 57.5 103.5 t40.5 107t15 95.5q14 3 25.5 4.5t20.5 1.5q21 0 34.5 -8t13.5 -31t-12.5 -61t-34.5 -83.5t-52 -92t-64 -88.5z" />
<glyph horiz-adv-x="400" d="M92 365l-16 25q71 64 132 127.5t109 125.5q-31 3 -60 9.5t-49 6.5q-18 0 -33 -8t-25 -27l-19 6q8 65 32.5 87t56.5 22q36 0 73 -13t75 -13q8 13 17 26q15 0 28.5 -6.5t12.5 -24.5q1 -22 -22 -53.5t-59 -67t-77.5 -70t-80.5 -61.5q33 0 58.5 -5t53.5 -5q27 0 50.5 9 t37.5 36l20 -6q-18 -73 -48.5 -96.5t-71.5 -23.5q-38 0 -66.5 9.5t-60.5 9.5q-16 0 -32 -4.5t-36 -14.5z" />
<glyph horiz-adv-x="994" d="M379 137l3 -61q-36 -39 -86 -62.5t-101 -23.5q-73 0 -116.5 42.5t-43.5 130.5q0 66 23 128t65 111.5t97 78.5t119 29q27 0 52 -6q-10 24 -10 48q0 43 30.5 77.5t84 55.5t122.5 21q22 0 52.5 -2.5t55.5 -8.5q-22 -112 -43 -209.5t-38 -179.5q26 59 60 105t74 72.5t82 26.5 q36 0 62.5 -22t26.5 -75q0 -28 -8.5 -69.5t-19.5 -90.5t-19.5 -101.5t-8.5 -102.5q0 -11 1 -24t3 -25h-120q-3 17 -3.5 27.5t-0.5 32.5q0 37 7.5 83.5t17 93t17.5 84t8 56.5q0 22 -11 34t-27 12q-23 0 -49 -23.5t-50.5 -64.5t-43.5 -93.5t-28 -110.5q-6 -48 -6 -83 q0 -13 1 -21.5t4 -26.5h-120q-2 9 -3.5 22t-1.5 31q0 42 7.5 93.5t18 104.5t19.5 98l45 208l6 63q-15 3 -32 3q-53 0 -85 -23.5t-32 -66.5q0 -13 3.5 -27t11.5 -27l-33 -99q-44 63 -95 63q-33 0 -62.5 -24t-52.5 -63.5t-36.5 -86t-13.5 -90.5q0 -53 19 -85t62 -32 q35 0 71.5 22t68.5 53z" />
<glyph horiz-adv-x="842" d="M379 137l3 -61q-36 -39 -86 -62.5t-102 -23.5q-72 0 -115.5 42.5t-43.5 130.5q0 66 23.5 128t65 111.5t96 78.5t115.5 29q28 0 57 -10q-4 15 -4 32q0 46 26 85.5t71 64t102 24.5q61 0 97.5 -29.5t36.5 -75.5q0 -34 -15.5 -66.5t-32.5 -51.5h172l-16 -54l-149 3 q-24 -111 -38 -176t-20 -97.5t-6 -45.5q0 -45 47 -45q31 0 60 20t58 49l3 -61q-36 -41 -81.5 -63.5t-94.5 -22.5q-53 0 -83.5 25t-30.5 79q0 14 3 34t10 56t20 96t33 155l-52 2l8 34l66 12q8 16 16 40.5t8 46.5q0 31 -17.5 49t-49.5 18q-45 0 -74.5 -34t-29.5 -79 q0 -13 3 -27t10 -28l-30 -89q-44 63 -95 63q-33 0 -62.5 -24t-52.5 -63.5t-36.5 -86.5t-13.5 -92q0 -51 19 -83t62 -32q35 0 71.5 22t68.5 53z" />
<glyph horiz-adv-x="975" d="M364 151q0 -47 -30 -83.5t-82 -57t-118 -20.5q-36 0 -76.5 6.5t-67.5 16.5l28 96q26 -16 65 -28t75 -12q40 0 64.5 18t24.5 46q0 30 -26.5 48.5t-62.5 42.5q-32 21 -57.5 48t-25.5 72q0 47 30 84.5t82.5 59.5t120.5 22q32 0 64 -5q-14 27 -14 55q0 40 30.5 73.5t84 53 t122.5 19.5q22 0 53.5 -2.5t57.5 -8.5v0h1q-21 -112 -42.5 -209.5t-37.5 -179.5q25 59 59.5 105t74.5 72.5t82 26.5q36 0 62.5 -22t26.5 -75q0 -28 -9 -69.5t-20 -90.5t-19.5 -101.5t-8.5 -102.5q0 -11 1 -24t4 -25h-120q-3 17 -4 27.5t-1 32.5q0 37 7.5 83.5t17.5 93 t17.5 84t7.5 56.5q0 22 -11 34t-27 12q-22 0 -48 -23.5t-51 -64.5t-44 -93.5t-28 -110.5q-5 -48 -5 -83q0 -13 0.5 -21.5t3.5 -26.5h-120q-1 9 -2.5 22t-1.5 31q0 42 7 93.5t17.5 104.5t20.5 98l44 208l6 62q-17 4 -36 4q-54 0 -86 -21t-32 -59q0 -12 3.5 -25.5t11.5 -25.5 l-28 -96q-26 15 -58 25.5t-60 10.5q-40 0 -64 -21t-24 -48q0 -26 23 -44.5t51 -37.5q23 -15 45.5 -32t37 -41t14.5 -57z" />
<glyph horiz-adv-x="426" d="M364 232q0 -42 -15 -84t-42 -76.5t-66 -55.5t-88 -21q-59 0 -90 33t-31 96q0 42 14.5 84t42 77t66.5 56.5t88 21.5q58 0 89.5 -34t31.5 -97zM122 108q0 -67 45 -67q25 0 45 21t33.5 54.5t21 69.5t7.5 65q0 66 -45 66q-26 0 -46 -21.5t-33.5 -55t-20.5 -69t-7 -63.5z" />
<glyph horiz-adv-x="300" d="M142 0h-84l66 305l-67 -25l-4 39l160 44l5 -4z" />
<glyph horiz-adv-x="385" d="M254 0h-246l2 48q30 18 66.5 45t70 57.5t55.5 60.5t22 55q0 20 -15 31t-41 11q-24 0 -49.5 -9.5t-46.5 -24.5l2 59q23 11 59 20.5t73 9.5q50 0 79 -21t29 -57q0 -32 -22 -63t-58 -59t-79 -52.5t-86 -44.5h80q62 0 124 9z" />
<glyph horiz-adv-x="362" d="M267 109q0 -35 -25 -60.5t-65 -39.5t-87 -14q-53 0 -91 13l16 48q13 -7 31 -11t36 -4q42 0 69 21t27 48q0 26 -23 36.5t-49 10.5q-10 0 -20.5 -1.5t-16.5 -2.5l5 30q35 8 65 22t48.5 32t18.5 37q0 16 -14 25t-38 9q-20 0 -42.5 -6t-42.5 -16l6 51q19 9 51.5 17.5 t66.5 8.5q47 0 74 -18t27 -50q0 -40 -41 -67.5t-96 -40.5q48 -2 79 -20.5t31 -57.5z" />
<glyph horiz-adv-x="419" d="M243 0h-84l14 65h-161l2 35l246 263l59 -5l-48 -228q28 2 54 5l-19 -70h-49zM185 127h2l35 157l-157 -157h120z" />
<glyph horiz-adv-x="383" d="M291 125q0 -39 -24.5 -68t-67 -45.5t-95.5 -16.5q-52 0 -91 13l15 45q15 -5 36 -8.5t38 -3.5q46 0 73.5 24t27.5 56q0 26 -18.5 37.5t-44.5 11.5q-16 0 -35 -3.5t-33 -7.5l-7 4l41 195h125q24 0 51 1t53 4l-19 -72h-178l-23 -95q17 5 37 8.5t39 3.5q48 0 74 -21t26 -62z " />
<glyph horiz-adv-x="394" d="M320 137q0 -37 -22.5 -69.5t-60.5 -52.5t-87 -20q-57 0 -89 29.5t-32 89.5q0 46 19 90.5t54 80t82 57t103 21.5q16 0 31.5 -2t21.5 -4l-16 -47q-17 7 -41 7q-42 0 -84 -32.5t-65 -104.5q21 18 47.5 27.5t53.5 9.5q39 0 62 -21.5t23 -58.5zM119 102q0 -28 10.5 -44.5 t32.5 -16.5q30 0 50 27t20 60q0 52 -49 52q-12 0 -27 -6t-29 -18q-5 -17 -6.5 -31.5t-1.5 -22.5z" />
<glyph horiz-adv-x="373" d="M131 0h-95q16 52 50.5 106.5t82.5 103t104 81.5h-86q-33 0 -65 -2t-59 -5l19 74h250l5 -5l-5 -40q-71 -65 -125.5 -145.5t-75.5 -167.5z" />
<glyph horiz-adv-x="399" d="M15 68q0 33 34.5 61t84.5 41q-30 17 -48 39t-18 49q0 29 22 53t58.5 38t79.5 14q50 0 81 -19.5t31 -52.5q0 -35 -31 -60.5t-75 -37.5q80 -41 80 -92q0 -30 -23.5 -54t-62.5 -38t-87 -14q-57 0 -91.5 20t-34.5 53zM152 272q0 -19 14 -34.5t34 -27.5q25 14 41.5 33.5 t16.5 40.5q0 17 -12.5 27t-31.5 10q-24 0 -43 -14t-19 -35zM100 78q0 -18 15 -29.5t42 -11.5q28 0 50.5 14t22.5 38q0 21 -18 35.5t-46 28.5q-28 -14 -47 -34t-19 -41z" />
<glyph horiz-adv-x="394" d="M45 217q0 39 22 72t60.5 53.5t87.5 20.5q57 0 89 -29.5t32 -88.5q0 -47 -19.5 -91.5t-54.5 -80t-82 -57t-102 -21.5q-17 0 -32.5 2t-21.5 4l17 47q16 -7 40 -7q42 0 84 30t66 95q-43 -36 -98 -36q-42 0 -65 23.5t-23 63.5zM246 257q0 27 -10.5 44t-31.5 17q-31 0 -51 -30 t-20 -66q0 -55 49 -55q12 0 26.5 5.5t29.5 17.5q3 15 5.5 35.5t2.5 31.5z" />
<glyph horiz-adv-x="600" d="M576 442q0 -61 -15.5 -125t-44.5 -122.5t-71 -104.5t-94.5 -73t-114.5 -27q-82 0 -131.5 52.5t-49.5 163.5q0 61 15.5 125t45 123t71.5 105.5t94.5 73.5t114.5 27q85 0 132.5 -54.5t47.5 -163.5zM181 189q0 -61 19 -96.5t59 -35.5q35 0 64.5 27.5t53 72.5t40 99t25 108.5 t8.5 99.5q0 60 -18 94.5t-58 34.5q-36 0 -66 -27.5t-53.5 -72.5t-40 -99t-25 -107.5t-8.5 -97.5z" />
<glyph horiz-adv-x="371" d="M196 0h-118l122 574l-111 -49l-3 59l242 76l7 -6z" />
<glyph horiz-adv-x="513" d="M384 0h-384l4 67q41 33 89.5 74t96.5 86.5t87 92.5t63 92.5t24 85.5q0 39 -23.5 61t-66.5 22q-39 0 -79.5 -17.5t-78.5 -44.5l6 86q37 20 93 37.5t114 17.5q76 0 120 -35.5t44 -99.5q0 -61 -37 -120t-96.5 -114.5t-131.5 -105t-142 -91.5h130q101 0 200 14z" />
<glyph horiz-adv-x="476" d="M407 203q0 -63 -39 -111t-103.5 -75t-140.5 -27q-38 0 -75.5 6.5t-65.5 17.5l25 70q23 -12 52 -19t57 -7q47 0 84 20t58.5 53t21.5 70q0 34 -17 54t-44.5 28.5t-56.5 8.5q-31 0 -59 -6l10 45q57 16 107 43.5t81 62.5t31 76q0 32 -22.5 50t-62.5 18q-34 0 -69.5 -12 t-68.5 -30l10 74q31 17 81.5 32t104.5 15q72 0 112.5 -31t40.5 -85q0 -51 -31.5 -90.5t-83 -68.5t-110.5 -46q77 -4 125 -36t48 -100z" />
<glyph horiz-adv-x="562" d="M359 0h-118l28 131h-260l4 50l402 479l82 -10l-91 -426q45 3 90 10l-31 -103h-78zM356 540l-269 -321h188h13z" />
<glyph horiz-adv-x="506" d="M445 234q0 -70 -39.5 -125.5t-107 -87t-152.5 -31.5q-40 0 -76.5 6.5t-64.5 17.5l25 67q24 -11 57 -17.5t60 -6.5q52 0 90.5 24t60 62t21.5 81q0 51 -29 74t-73 23q-25 0 -56 -6.5t-54 -14.5l-9 9l73 341h192q40 0 81.5 2.5t80.5 7.5l-30 -103h-281l-42 -199q26 8 57 14 t62 6q73 0 113.5 -36.5t40.5 -107.5z" />
<glyph horiz-adv-x="535" d="M500 249q0 -49 -20.5 -95.5t-57 -83.5t-85.5 -58.5t-106 -21.5q-80 0 -130.5 47.5t-50.5 152.5q0 66 20.5 133.5t57.5 128t88.5 107.5t113.5 74t132 27q27 0 51.5 -3.5t33.5 -8.5l-26 -68q-27 13 -67 13q-45 0 -93 -29t-90.5 -92t-70.5 -165q35 40 80 60.5t89 20.5 q61 0 96 -37t35 -102zM176 158q0 -101 70 -101q39 0 68.5 28t45.5 71t16 86q0 41 -16.5 65.5t-50.5 24.5q-27 0 -59.5 -16.5t-58.5 -48.5q-9 -35 -12 -63t-3 -46z" />
<glyph horiz-adv-x="490" d="M177 0h-132q20 75 59 153.5t92 153t114 139t126 111.5h-136q-101 0 -200 -15l32 108h389l7 -7l-9 -56q-76 -77 -144 -172.5t-119.5 -201t-78.5 -213.5z" />
<glyph horiz-adv-x="559" d="M28 119q0 43 26.5 81t71 67.5t98.5 45.5q-43 29 -72.5 68t-29.5 90q0 53 34.5 95.5t92 68t124.5 25.5q75 0 121.5 -33.5t46.5 -91.5q0 -43 -24.5 -80t-65 -65.5t-89.5 -44.5q58 -33 92 -76t34 -91q0 -52 -36.5 -94.5t-98 -68t-136.5 -25.5q-88 0 -138.5 35.5t-50.5 93.5z M240 492q0 -36 21.5 -66.5t54.5 -53.5q45 27 76.5 67.5t31.5 84.5q0 34 -20.5 54t-53.5 20q-28 0 -53.5 -14t-41 -38t-15.5 -54zM148 134q0 -36 25 -59t70 -23q33 0 61.5 13.5t46.5 37.5t18 57q0 39 -27.5 68t-72.5 58q-50 -27 -85.5 -67.5t-35.5 -84.5z" />
<glyph horiz-adv-x="536" d="M518 460q0 -67 -20.5 -134t-57.5 -127.5t-89 -107.5t-115 -74t-135 -27q-27 0 -47.5 4t-28.5 8l25 68q28 -13 67 -13q44 0 91.5 26.5t89 84.5t67.5 153q-34 -39 -79 -59t-86 -20q-58 0 -95 38t-37 111q0 52 20.5 100.5t57.5 86.5t86.5 60t106.5 22q79 0 129 -48t50 -152z M191 394q0 -44 17.5 -69.5t52.5 -25.5q27 0 58 15.5t57 50.5q9 37 12.5 68.5t3.5 51.5q0 51 -16.5 79.5t-52.5 28.5q-30 0 -54.5 -18.5t-42 -48.5t-26.5 -65t-9 -67z" />
<glyph horiz-adv-x="426" d="M426 524q0 -42 -15 -84t-42 -76.5t-66 -55.5t-88 -21q-59 0 -90 33t-31 96q0 42 14.5 84t42 77t66.5 56.5t88 21.5q58 0 89.5 -34t31.5 -97zM184 400q0 -67 45 -67q25 0 45 21t33.5 54.5t21 69.5t7.5 65q0 66 -45 66q-26 0 -46 -21.5t-33.5 -55t-20.5 -69t-7 -63.5z" />
<glyph horiz-adv-x="300" d="M204 292h-84l66 305l-67 -25l-4 39l160 44l5 -4z" />
<glyph horiz-adv-x="385" d="M316 292h-246l2 48q30 18 66.5 45t70 57.5t55.5 60.5t22 55q0 20 -15 31t-41 11q-24 0 -49.5 -9.5t-46.5 -24.5l2 59q23 11 59 20.5t73 9.5q50 0 79 -21t29 -57q0 -32 -22 -63t-58 -59t-79 -52.5t-86 -44.5h80q62 0 124 9z" />
<glyph horiz-adv-x="362" d="M329 401q0 -35 -25 -60.5t-65 -39.5t-87 -14q-53 0 -91 13l16 48q13 -7 31 -11t36 -4q42 0 69 21t27 48q0 26 -23 36.5t-49 10.5q-10 0 -20.5 -1.5t-16.5 -2.5l5 30q35 8 65 22t48.5 32t18.5 37q0 16 -14 25t-38 9q-20 0 -42.5 -6t-42.5 -16l6 51q19 9 51.5 17.5 t66.5 8.5q47 0 74 -18t27 -50q0 -40 -41 -67.5t-96 -40.5q48 -2 79 -20.5t31 -57.5z" />
<glyph horiz-adv-x="419" d="M305 292h-84l14 65h-161l2 35l246 263l59 -5l-48 -228q28 2 54 5l-19 -70h-49zM247 419h2l35 157l-157 -157h120z" />
<glyph horiz-adv-x="383" d="M353 417q0 -39 -24.5 -68t-67 -45.5t-95.5 -16.5q-52 0 -91 13l15 45q15 -5 36 -8.5t38 -3.5q46 0 73.5 24t27.5 56q0 26 -18.5 37.5t-44.5 11.5q-16 0 -35 -3.5t-33 -7.5l-7 4l41 195h125q24 0 51 1t53 4l-19 -72h-178l-23 -95q17 5 37 8.5t39 3.5q48 0 74 -21t26 -62z " />
<glyph horiz-adv-x="394" d="M382 429q0 -37 -22.5 -69.5t-60.5 -52.5t-87 -20q-57 0 -89 29.5t-32 89.5q0 46 19 90.5t54 80t82 57t103 21.5q16 0 31.5 -2t21.5 -4l-16 -47q-17 7 -41 7q-42 0 -84 -32.5t-65 -104.5q21 18 47.5 27.5t53.5 9.5q39 0 62 -21.5t23 -58.5zM181 394q0 -28 10.5 -44.5 t32.5 -16.5q30 0 50 27t20 60q0 52 -49 52q-12 0 -27 -6t-29 -18q-5 -17 -6.5 -31.5t-1.5 -22.5z" />
<glyph horiz-adv-x="373" d="M193 292h-94q15 52 49.5 106.5t82.5 103t104 81.5h-86q-33 0 -65 -2t-59 -5l19 74h250l5 -5l-5 -40q-71 -65 -125.5 -145.5t-75.5 -167.5z" />
</font>
</defs>
</svg>
