<?xml version="1.0" standalone="no"?>
<!DOCTYPE svg PUBLIC "-//W3C//DTD SVG 1.1//EN" "http://www.w3.org/Graphics/SVG/1.1/DTD/svg11.dtd" >
<svg xmlns="http://www.w3.org/2000/svg" xmlns:xlink="http://www.w3.org/1999/xlink" version="1.1">
<metadata></metadata>
<defs>
<font id="indivisa_display_sansThIt" horiz-adv-x="486" >
<font-face units-per-em="1000" ascent="800" descent="-200" />
<missing-glyph horiz-adv-x="172" />
<glyph unicode="&#x2f;symbol&#x31;&#x2f;" horiz-adv-x="5534" d="M1865 412q-25 0 -40.5 14.5t-15.5 37.5q0 24 15.5 45t39 34.5t48.5 13.5q24 0 39 -13.5t15 -37.5t-14.5 -45.5t-37.5 -35t-49 -13.5zM1284 412q-26 0 -41.5 14.5t-15.5 37.5q0 24 15.5 45t39.5 34.5t49 13.5q24 0 38.5 -13.5t14.5 -37.5t-14.5 -45.5t-37 -35t-48.5 -13.5 zM959 0q0 21 2.5 46.5t8.5 61.5q-16 -49 -51 -82t-79 -33q-41 0 -63 30t-22 82q0 45 15.5 91t46.5 85.5t76.5 63.5t104.5 24h12.5t12.5 -1l16 73l6 102l136 7q0 -40 -9.5 -95t-23 -116.5t-27 -123.5t-23 -117.5t-9.5 -97.5h-130zM100 0l78 364q8 38 13.5 72.5t7.5 63.5 l128 7l11 -15l-104 -492h-134zM3503 492l-57 -492h-131l20 175q3 30 9 69t12.5 78t11.5 68h-3q-16 -53 -37 -107.5t-44 -107.5l-76 -175h-149l-2 175q-1 56 1 109t8 106h-2q-15 -61 -30 -115.5t-29 -99.5l-53 -175h-109l154 500l184 6l1 -137q1 -50 -2.5 -121.5 t-12.5 -137.5h2q20 65 36 111t30.5 81t27.5 67l56 131l169 7zM5316 300q-15 -74 -23 -110.5t-11 -51t-3 -21.5q0 -34 36 -34q13 0 28 5t31 13l-9 -79q-20 -11 -50 -20t-64 -9q-50 0 -77.5 25t-27.5 75q0 11 1.5 23.5t6 33.5t12.5 57.5t20 95.5l-47 1l9 44l54 14l53 95l81 6 l13 -15l-20 -86h99l6 -14l-17 -51zM336 0q0 28 4 62t13 82t24 116l6 102l137 7q0 -18 -2 -41t-5 -48h2q29 49 65.5 69t68.5 20q35 0 53.5 -19.5t18.5 -51.5q0 -23 -8 -62.5t-18 -84.5q-7 -33 -11 -57t-5.5 -45.5t-1.5 -48.5h-131q0 38 4.5 69.5t14.5 80.5q7 35 11 55.5 t4 31.5q0 24 -17 24t-34 -22.5t-30.5 -60.5t-22 -84t-9.5 -94h-131zM1170 0q0 39 7 87.5t20 105.5l14 67l6 102l137 7q0 -36 -8 -81.5t-19 -95.5t-19 -99t-8 -93h-130zM1399 362l140 7q6 -59 4.5 -137.5t-9.5 -151.5h2q23 45 42 95t32 99t17 90q17 4 28.5 4.5t21.5 0.5 q28 0 46.5 -7t18.5 -35q0 -22 -13.5 -60.5t-36.5 -85t-53.5 -94t-63.5 -87.5h-149q-2 111 -9.5 207.5t-17.5 154.5zM1752 0q0 39 7 87.5t19 105.5l15 67l6 102l137 7q0 -36 -8 -81.5t-19 -95.5t-19 -99t-8 -93h-130zM4716 0q0 28 4 62t13 82t24 116l6 102l137 7 q0 -18 -2.5 -41t-4.5 -48h2q29 49 65 69t69 20q35 0 53.5 -19.5t18.5 -51.5q0 -23 -8 -62.5t-18 -84.5q-7 -33 -11 -57t-6 -45.5t-2 -48.5h-130q0 38 4.5 69.5t14.5 80.5q7 35 11 55.5t4 31.5q0 24 -17 24q-18 0 -34.5 -22.5t-30.5 -60.5t-22.5 -84t-9.5 -94h-130zM2245 256 q-25 14 -51.5 22t-45.5 8q-17 0 -29.5 -7t-12.5 -19q0 -13 13 -22t32 -17.5t38 -20.5t32 -30.5t13 -47.5q0 -39 -25 -68t-66.5 -45t-89.5 -16q-33 0 -66.5 7.5t-51.5 20.5l27 93q27 -18 58.5 -28t52.5 -10q20 0 30 8t10 18q0 13 -13 22t-32 18t-38 21t-32 30t-13 46 q0 39 25.5 68t67.5 45.5t90 16.5q20 0 48.5 -3.5t55.5 -14.5zM2525 369q32 0 73.5 -7.5t72.5 -24.5l-29 -128q-20 -94 -25.5 -140.5t-5.5 -68.5h-130q0 20 2.5 45t9.5 67q-15 -50 -50.5 -84.5t-81.5 -34.5q-41 0 -62.5 30t-21.5 83q0 44 15.5 90.5t46.5 85.5t77.5 63 t108.5 24zM4653 51q-32 -28 -74 -43t-85 -15q-62 0 -102 33.5t-40 103.5q0 46 17.5 88.5t49.5 76.5t75 54t94 20q53 0 86 -23t33 -65q0 -56 -59 -95.5t-162 -44.5v-1q0 -29 15 -46.5t48 -17.5q22 0 45 7.5t45 20.5zM3936 0q0 28 4 62t13.5 82t24.5 116l5 102l137 7 q0 -18 -2 -41t-5 -48h2q29 49 65.5 69t68.5 20q35 0 53.5 -19.5t18.5 -51.5q0 -23 -8 -62.5t-18 -84.5q-7 -33 -11 -57t-5.5 -45.5t-1.5 -48.5h-131q0 38 4.5 69.5t14.5 80.5q8 35 11.5 55.5t3.5 31.5q0 24 -17 24t-34 -22.5t-30.5 -60.5t-22 -84t-9.5 -94h-131zM3768 369 q32 0 73 -7.5t72 -24.5l-28 -128q-20 -94 -25.5 -140.5t-5.5 -68.5h-130q0 20 2.5 45t9.5 67q-15 -50 -50.5 -84.5t-81.5 -34.5q-41 0 -63 30t-22 83q0 44 15.5 90.5t47 85.5t78 63t108.5 24zM4490 177q46 10 72.5 33.5t26.5 59.5q0 17 -5.5 24t-16.5 7q-20 0 -36 -20 t-26 -48.5t-15 -55.5zM3677 101q17 0 33 21t30 54t22 69q2 11 4.5 22t4.5 22q-16 8 -27 8q-18 0 -34.5 -16t-29 -40.5t-20 -51.5t-7.5 -48q0 -40 24 -40zM913 101q16 0 31 19.5t28.5 50t22.5 64.5l4 20l4 20l3 14q-14 8 -27 8q-18 0 -34 -16t-28.5 -40.5t-20 -51.5t-7.5 -48 q0 -40 24 -40zM2435 101q16 0 32.5 21t30 54t21.5 69q2 11 4.5 22t4.5 22q-14 8 -27 8q-18 0 -34 -16t-29 -40.5t-20 -51.5t-7 -48q0 -40 24 -40z" />
<glyph unicode="&#x2f;symbol&#x32;&#x2f;" horiz-adv-x="932" d="M494 570l52 -90l-137 -240h-103l137 240l-52 90h103zM357 570l52 -90l-138 -240h-103l138 240l-52 90h103zM752 120h-103l-137 240l51 90l137 -240h103zM683 0h-103l-137 240l51 90l138 -240h103zM100 120l51 90h275l51 -90h-274l-52 -90zM168 0l52 90h274l52 -90h-275 l-51 -90zM789 88q18 0 30.5 -13t12.5 -31t-12.5 -31t-30.5 -13t-30.5 13t-12.5 31t12.5 31t30.5 13zM829 44q0 17 -11.5 28.5t-28.5 11.5q-16 0 -28 -11.5t-12 -28.5q0 -16 12 -28t28 -12q17 0 28.5 12t11.5 28zM771 69h18h5t6 -2q5 -4 5 -11q0 -5 -3 -8q-1 -2 -2.5 -2.5 t-3.5 -1.5q7 -1 8 -9q0 -8 3 -16h-8q-1 2 -1 6t-1 7q-1 5 -2.5 7.5t-8.5 2.5h-8v-23h-7v50zM778 47h10h3.5t3.5 1q3 3 3 7q0 6 -4 7t-6 1h-10v-16z" />
<glyph unicode="&#x2f;symbol&#x33;&#x2f;" horiz-adv-x="957" d="M505 638l68 -270h270l-203 -135l136 -270l-271 135l-270 -270l135 405l-270 203l338 -68zM814 87q18 0 30.5 -12.5t12.5 -31.5q0 -18 -12.5 -30.5t-30.5 -12.5t-30.5 12.5t-12.5 30.5q0 19 12.5 31.5t30.5 12.5zM854 43q0 17 -11.5 29t-28.5 12q-16 0 -28 -12t-12 -29 q0 -16 12 -28t28 -12q17 0 28.5 12t11.5 28zM796 68h18h5.5t5.5 -2q6 -3 6 -10q0 -5 -4 -9q-3 -3 -6 -3q7 -3 8 -10q1 -4 1.5 -7.5t1.5 -8.5h-7q-1 3 -1.5 7t-1.5 7q0 9 -10 9h-9v-23h-7v50zM803 47h10h3.5t3.5 1l2 2t1 4q0 7 -4 8t-6 1h-10v-16z" />
<glyph unicode="&#x2f;symbol&#x34;&#x2f;" horiz-adv-x="2607" d="M1684 406q0 32 -2.5 63t-8.5 65l126 14l15 -15v-533h-130v406zM1889 406q0 62 -10 128l126 14l14 -15v-533h-130v406zM427 101v-101h-320v362q0 38 -1.5 72t-5.5 63l126 7l14 -14v-396zM925 21l7 109q31 -18 72 -27t72 -9q50 0 50 36q0 19 -20.5 34t-50 31t-59.5 37 t-50.5 51t-20.5 74q0 48 26 80.5t70 49.5t97 17q81 0 127 -18l-14 -111q-28 14 -55 21.5t-56 7.5q-28 0 -43 -11t-15 -29q0 -22 20.5 -38.5t50.5 -32.5t59.5 -36.5t50 -49.5t20.5 -73q0 -67 -54 -104t-139 -37q-40 0 -82.5 8t-62.5 20zM795 0l-106 -7q-7 11 -12 24t-9 25h-4 q-15 -22 -42.5 -35.5t-61.5 -13.5q-41 0 -69 22t-28 67q0 61 53.5 88.5t137.5 29.5v20q0 54 -58 54q-55 0 -108 -29l-8 97q27 10 68.5 18t81.5 8q154 0 154 -135q0 -38 -2 -69.5t-2 -69.5q0 -24 4.5 -50.5t10.5 -43.5zM1626 0l-107 -7q-7 11 -12 24t-9 25h-3 q-15 -22 -42.5 -35.5t-62.5 -13.5q-40 0 -68 22t-28 67q0 61 53 88.5t138 29.5v20q0 54 -58 54q-54 0 -109 -29l-7 97q27 10 68.5 18t81.5 8q153 0 153 -135q0 -38 -1.5 -69.5t-1.5 -69.5q0 -24 4.5 -50.5t10.5 -43.5zM2405 213v-17t-1 -19l-11 -11h-191q8 -45 33.5 -64 t64.5 -19q24 0 45.5 6t38.5 15l7 -81q-17 -11 -49.5 -20.5t-77.5 -9.5q-88 0 -143 47t-55 135q0 58 24 101t66 67.5t94 24.5q73 0 114 -43.5t41 -111.5zM2199 207l78 4q1 5 1.5 11t0.5 15q0 23 -7.5 41t-26.5 18q-23 0 -34 -25.5t-12 -63.5zM654 74v88q-27 -3 -46 -17 t-19 -40q0 -18 10.5 -29t26.5 -11t28 9zM1485 74v88q-27 -3 -46 -17t-19 -40q0 -18 10 -29t27 -11q16 0 28 9zM2464 85q18 0 30.5 -13t12.5 -31t-12.5 -31t-30.5 -13t-31 13t-13 31t13 31t31 13zM2504 41q0 17 -11.5 28.5t-28.5 11.5q-16 0 -28 -11.5t-12 -28.5 q0 -16 12 -28t28 -12q17 0 28.5 12t11.5 28zM2446 66h18q2 0 5 -0.5t6 -2.5q5 -2 5 -10q0 -4 -3 -9q-3 -3 -6 -3q7 -1 8 -10q0 -7 3 -15h-8q-1 2 -1 6t-1 7q-1 5 -2.5 7t-8.5 2h-8v-22h-7v50zM2453 44h10h3.5t3.5 1q3 3 3 7q0 6 -4 7t-6 1h-10v-16z" />
<glyph unicode="&#x2f;symbol&#x35;&#x2f;" horiz-adv-x="705" d="M232 -6l-132 136l124 234l129 -136zM474 -6l-121 234l128 136l124 -234z" />
<glyph unicode=" "  horiz-adv-x="172" />
<glyph unicode="&#x09;" horiz-adv-x="172" />
<glyph unicode="&#xa0;" horiz-adv-x="172" />
<glyph unicode="!" horiz-adv-x="250" d="M110 123h-22q11 53 26 120.5t30 140.5t29 142t23 124l34 10q-4 -28 -12.5 -69t-18.5 -88q-19 -92 -42 -187t-47 -193zM102 12q0 -17 -10.5 -36t-27.5 -19q-20 0 -20 25q0 20 12 37.5t27 17.5q19 0 19 -25z" />
<glyph unicode="&#x22;" horiz-adv-x="310" d="M195 695l-61 -234h-17l38 234h40zM345 695l-61 -234h-17l38 234h40z" />
<glyph unicode="#" horiz-adv-x="599" d="M507 193h-141l-86 -203l-19 1l-4 6l83 196h-155l-86 -203l-19 1l-3 6l83 196h-127l-4 5l6 20h136l91 215h-140l-4 5l6 20h148l86 202l18 -1l4 -6l-83 -195h155l86 202l19 -1l4 -6l-83 -195h120l4 -5l-6 -20h-128l-91 -215h132l4 -5zM196 218h155l91 215h-155z" />
<glyph unicode="$" horiz-adv-x="410" d="M112 -122l24 112h-4q-33 0 -65 8.5t-56 20.5l13 35q14 -12 47 -26t73 -14q46 0 80.5 20.5t54.5 54.5t20 74t-18 69.5t-44.5 54.5t-53.5 51t-45 58t-18 77q0 46 21.5 85.5t59 66t86.5 33.5l23 111l26 3l-24 -112h4q26 0 54 -5.5t48 -16.5l-12 -35q-10 9 -37.5 21t-63.5 12 q-44 0 -79.5 -21.5t-55.5 -56t-20 -74.5t18 -70t44.5 -56t53.5 -52.5t45 -59t18 -75.5q0 -45 -22 -83.5t-59.5 -63.5t-85.5 -32l-24 -111z" />
<glyph unicode="%" horiz-adv-x="887" d="M217 -10h-26l486 670h26zM378 539q0 -40 -12 -84t-35 -82t-56 -62t-74 -24q-44 0 -68 30t-24 86q0 40 12 83.5t35 82t56 62.5t75 24q44 0 67.5 -30t23.5 -86zM141 403q0 -46 16.5 -71.5t50.5 -25.5q33 0 58.5 23t43.5 59t27.5 76t9.5 75q0 44 -16.5 70t-51.5 26 q-33 0 -58.5 -23t-43 -58.5t-27 -75.5t-9.5 -75zM810 247q0 -40 -12 -84t-35 -82t-56 -62t-74 -24q-44 0 -68 30t-24 86q0 40 12 83.5t35 82t56 62.5t75 24q44 0 67.5 -30t23.5 -86zM573 111q0 -46 16.5 -71.5t50.5 -25.5q33 0 58.5 23t43.5 59t27.5 76t9.5 75 q0 44 -16.5 70t-51.5 26q-33 0 -58.5 -23t-43 -58.5t-27 -75.5t-9.5 -75z" />
<glyph unicode="&#x26;" horiz-adv-x="615" d="M551 55q0 -23 -10.5 -40.5t-32.5 -24.5l-7 7q7 8 12.5 24.5t5.5 31.5q0 32 -26 60t-65 55q-47 -76 -115.5 -127t-151.5 -51q-73 0 -108 39t-35 97q0 70 46.5 133t117.5 104q-16 25 -25 53.5t-9 61.5q0 61 28.5 101t71 60.5t84.5 20.5q50 0 78 -25.5t28 -63.5 q0 -28 -13.5 -60t-35.5 -53q33 0 78 0.5t88 2t70 2.5q0 -7 -2 -17.5t-4 -17.5q-21 0 -50.5 1t-61.5 3q-1 -59 -17.5 -120.5t-46.5 -117.5q45 -30 76.5 -63t31.5 -76zM180 486q0 -52 22.5 -93t58.5 -73t78.5 -59.5t82.5 -53.5q25 51 39 109t14 117q-32 1 -60.5 2.5t-46.5 2.5 l-5 11q19 26 31 54.5t12 54.5q0 31 -19.5 54.5t-64.5 23.5q-33 0 -66 -16t-54.5 -49t-21.5 -85zM50 133q0 -51 31.5 -85t91.5 -34q69 0 131 46t104 121q-36 23 -75.5 48.5t-76.5 54.5t-63 64q-63 -38 -103 -96.5t-40 -118.5z" />
<glyph unicode="'" horiz-adv-x="160" d="M195 695l-61 -234h-17l38 234h40z" />
<glyph unicode="(" horiz-adv-x="275" d="M58 150q0 105 34 206t96.5 188.5t147.5 150.5l9 -21q-79 -66 -136 -151t-87 -179.5t-30 -190.5q0 -72 20 -138.5t66 -126.5l-18 -21q-54 59 -78 131.5t-24 151.5z" />
<glyph unicode=")" horiz-adv-x="275" d="M230 412q0 -105 -34 -206t-96 -188t-148 -151l-9 21q80 67 136.5 151.5t86.5 179.5t30 190q0 72 -19.5 138.5t-66.5 126.5l18 21q54 -58 78 -130.5t24 -152.5z" />
<glyph unicode="*" horiz-adv-x="361" d="M207 449l35 112l-94 -66l-9 31l100 46l-80 46l22 31l65 -67l14 113h31l-35 -113l94 67l9 -31l-99 -46l79 -46l-22 -31l-65 67l-14 -113h-31z" />
<glyph unicode="+" horiz-adv-x="531" d="M443 312h-150l-39 -182h-24l39 182h-156l5 23q27 1 69 1.5t87 0.5l39 183h24l-39 -183q44 1 84 1h68z" />
<glyph unicode="," horiz-adv-x="190" d="M67 33q0 -18 -12.5 -51t-35.5 -71t-54 -70l-10 9q30 37 48.5 72t29.5 68h-1q-19 3 -19 25q0 17 11 30t24 13q19 0 19 -25z" />
<glyph unicode="-" horiz-adv-x="276" d="M33 277l2 26h224l-2 -26h-224z" />
<glyph unicode="." horiz-adv-x="201" d="M44 -10q-9 0 -14 6.5t-5 16.5q0 15 11 30t25 15q19 0 19 -21q0 -15 -10 -31t-26 -16z" />
<glyph unicode="/" horiz-adv-x="389" d="M315 695l22 -6l-299 -700l-22 6z" />
<glyph unicode="0" horiz-adv-x="542" d="M504 463q0 -58 -13 -123t-38 -127t-61 -112.5t-82 -80.5t-100 -30q-67 0 -103.5 50.5t-36.5 147.5q0 58 13 122.5t38 126.5t61 112.5t82 80.5t100 30q66 0 103 -49.5t37 -147.5zM102 195q0 -82 28.5 -131.5t89.5 -49.5q47 0 86.5 28.5t70 76t52 105.5t32.5 118t11 113 q0 82 -28 131.5t-90 49.5q-47 0 -86.5 -28.5t-70 -76t-52 -105.5t-32.5 -118t-11 -113z" />
<glyph unicode="1" horiz-adv-x="302" d="M109 0h-25l132 623l-117 -53l-1 25l147 65l4 -2z" />
<glyph unicode="2" horiz-adv-x="453" d="M327 0h-330l-2 16q54 47 111 98t110 104t95 106t67 104.5t25 100.5q0 52 -28.5 79.5t-79.5 27.5q-43 0 -84.5 -17.5t-81.5 -43.5l-1 30q32 20 80 37.5t96 17.5q60 0 95.5 -32.5t35.5 -94.5q0 -63 -36 -128.5t-95.5 -130.5t-130 -128.5t-139.5 -122.5h110q50 0 100.5 3.5 t98.5 10.5z" />
<glyph unicode="3" horiz-adv-x="432" d="M358 205q0 -60 -34 -109t-91.5 -77.5t-128.5 -28.5q-34 0 -64.5 7t-54.5 17l10 27q60 -26 117 -26q60 0 108.5 25.5t77 67t28.5 90.5q0 43 -21.5 68t-55 35.5t-71.5 10.5q-30 0 -57 -7l5 24q66 16 122.5 47.5t91.5 75t35 94.5q0 43 -26 66.5t-76 23.5q-41 0 -76.5 -14 t-71.5 -34l2 26q24 16 67 31t89 15q56 0 90 -27t34 -81q0 -50 -28 -92t-75 -74.5t-102 -52.5q75 -4 115.5 -34t40.5 -94z" />
<glyph unicode="4" horiz-adv-x="490" d="M282 0h-26l35 164h-264l-2 15l379 481l16 -10l-97 -459q46 4 92 10l-17 -37h-81zM384 600l-325 -414l157 1q40 0 80 2z" />
<glyph unicode="5" horiz-adv-x="448" d="M383 234q0 -63 -30.5 -119t-88 -90.5t-138.5 -34.5q-38 0 -66.5 7.5t-49.5 16.5l10 24q26 -10 55 -17t59 -7q66 0 115 31.5t75.5 81t26.5 103.5q0 66 -36 94.5t-88 28.5q-25 0 -57.5 -6t-53.5 -17l-7 8l67 312h147q35 0 71.5 2.5t70.5 7.5l-15 -33h-253l-58 -269 q48 19 103 19q66 0 103.5 -36t37.5 -107z" />
<glyph unicode="6" horiz-adv-x="468" d="M419 235q0 -45 -16.5 -88.5t-46 -79t-69 -56.5t-86.5 -21q-66 0 -101 44t-35 135q0 64 16.5 132.5t47.5 132.5t75 115t98 81t117 30q26 0 44 -4.5t25 -9.5l-13 -25q-23 15 -68 15q-55 0 -113 -36.5t-106.5 -117.5t-78.5 -212q41 51 92 76t95 25q56 0 89.5 -35.5 t33.5 -100.5zM97 162q0 -72 28 -110t82 -38q52 0 92.5 32.5t64 83t23.5 103.5q0 54 -25.5 84t-72.5 30q-43 0 -94 -28t-92 -85q-6 -37 -6 -72z" />
<glyph unicode="7" horiz-adv-x="433" d="M89 0h-28q18 67 49 138t71.5 141.5t84.5 135t87.5 119t80.5 93.5h-118q-50 0 -100 -3.5t-99 -10.5l17 37h329l4 -5l-3 -12q-52 -55 -108 -128.5t-108.5 -158t-94 -173t-64.5 -173.5z" />
<glyph unicode="8" horiz-adv-x="492" d="M44 113q0 47 27.5 89.5t71.5 75t93 49.5q-38 29 -68 68t-30 91q0 48 29 87.5t74.5 63t93.5 23.5q54 0 90 -32t36 -85q0 -46 -25.5 -88t-66.5 -75t-90 -53q31 -22 58 -48.5t44.5 -57.5t17.5 -67q0 -45 -28.5 -82t-75.5 -59.5t-103 -22.5q-68 0 -108 34t-40 89zM168 491 q0 -48 29.5 -87t66.5 -65q43 20 81 50.5t62 68.5t24 80q0 44 -30 71t-77 27q-40 0 -76 -19.5t-58 -52t-22 -73.5zM74 119q0 -47 35 -76t92 -29q45 0 83.5 18.5t61.5 49.5t23 70q0 47 -34 86.5t-84 76.5q-44 -18 -85 -48.5t-66.5 -68t-25.5 -79.5z" />
<glyph unicode="9" horiz-adv-x="471" d="M437 478q0 -63 -16 -131t-46.5 -131.5t-73.5 -114.5t-97.5 -81t-118.5 -30q-26 0 -44 5t-25 9l13 25q23 -15 68 -15q53 0 110.5 34.5t107 111.5t77.5 204h-1q-40 -53 -92 -79t-96 -26q-54 0 -87.5 36.5t-33.5 104.5q0 47 16.5 93t46 84t69.5 60.5t88 22.5q65 0 100 -45.5 t35 -136.5zM114 401q0 -55 25 -86.5t74 -31.5q42 0 91.5 26t92.5 87q4 23 6 44.5t2 41.5q0 67 -25 110.5t-83 43.5q-40 0 -74 -21t-58 -55.5t-37.5 -76t-13.5 -82.5z" />
<glyph unicode=":" horiz-adv-x="202" d="M136 420q-9 0 -14 6.5t-5 16.5q0 15 11 30t25 15q19 0 19 -21q0 -15 -10 -31t-26 -16zM45 -10q-9 0 -14 6.5t-5 16.5q0 15 11 30t25 15q19 0 19 -21q0 -15 -10 -31t-26 -16z" />
<glyph unicode=";" horiz-adv-x="216" d="M150 420q-9 0 -14 6.5t-5 16.5q0 15 11 30t25 15q19 0 19 -21q0 -15 -10 -31t-26 -16zM82 33q0 -18 -12.5 -51t-35.5 -71t-54 -70l-10 9q30 37 48.5 72t29.5 68h-1q-19 3 -19 25q0 17 11 30t24 13q19 0 19 -25z" />
<glyph unicode="&#x3c;" horiz-adv-x="524" d="M481 518l-6 -30l-324 -165l254 -160l-7 -30q-25 15 -63 39t-79 50.5t-78.5 51t-63.5 41.5l3 16z" />
<glyph unicode="=" horiz-adv-x="533" d="M466 413h-330l5 23q29 1 72.5 1.5t92 1t93 0.5h74.5zM422 211h-330l5 23q29 1 72.5 1.5t92 1t93 0.5h74.5z" />
<glyph unicode="&#x3e;" horiz-adv-x="525" d="M76 133l6 30l324 165l-254 160l7 30q26 -15 63.5 -39t78.5 -50.5t79 -51t63 -41.5l-3 -16z" />
<glyph unicode="?" horiz-adv-x="450" d="M192 131h-22q-1 13 1.5 36.5t5.5 36.5q8 36 31 67.5t53.5 61.5t60.5 60.5t53 65t31 75.5q13 62 -17 97.5t-78 35.5q-37 0 -80.5 -19.5t-80.5 -55.5l-10 19q39 37 85.5 60.5t95.5 23.5q63 0 95.5 -44t16.5 -118q-10 -47 -33.5 -83.5t-53.5 -67t-59.5 -59t-52.5 -60 t-32 -71.5q-2 -10 -5 -29t-5 -32zM184 12q0 -17 -10.5 -36t-27.5 -19q-20 0 -20 25q0 20 12 37.5t27 17.5q19 0 19 -25z" />
<glyph unicode="@" horiz-adv-x="1097" d="M718 -123q-40 -27 -100 -49.5t-139 -22.5q-110 0 -194 48t-131.5 133t-47.5 195q0 86 29 163.5t80 141.5t118 111t144.5 72.5t158.5 25.5q108 0 189.5 -44.5t127 -122.5t45.5 -178q0 -61 -17.5 -124t-50 -116.5t-78.5 -86.5t-103 -33q-54 0 -83.5 30t-35 79.5t11.5 106.5 h-4q-14 -33 -34.5 -70.5t-47 -70.5t-58.5 -54t-68 -21q-48 0 -76 38.5t-28 105.5q0 49 15.5 102t44.5 101.5t68.5 87.5t87.5 62t101 23q18 0 42.5 -3.5t47.5 -11.5l-46 -187q-5 -20 -13.5 -56t-13 -77.5t0 -78.5t25 -60.5t62.5 -23.5q46 0 86 28.5t71 76.5t48.5 107.5 t17.5 121.5q0 99 -44 172.5t-120 114t-174 40.5q-73 0 -145 -23t-136 -66t-113 -103t-77.5 -134t-28.5 -160q0 -104 43.5 -185.5t122.5 -128t185 -46.5q76 0 130 21t94 45zM426 14q35 0 68.5 28t64 73.5t55.5 99t43.5 104.5t27.5 90l16 67q-16 4 -34 7t-35 3 q-54 0 -103.5 -30t-88 -81t-60.5 -114.5t-22 -131.5q0 -54 16.5 -84.5t51.5 -30.5z" />
<glyph unicode="A" horiz-adv-x="501" d="M15 0h-28l267 532l59 118l46 10l49 -660h-28l-14 182h-259zM331 628l-209 -416h242l-32 416h-1z" />
<glyph unicode="B" horiz-adv-x="510" d="M162 0h-103l114 535l17 115h110q80 0 120.5 -32.5t40.5 -91.5q0 -40 -17.5 -77.5t-48 -66t-69.5 -42.5q97 -21 97 -126q0 -59 -31.5 -108t-89.5 -77.5t-140 -28.5zM289 624h-70l-58 -274h89q53 0 94 23.5t64 62t23 82.5q0 106 -142 106zM253 324h-97l-63 -298h79 q75 0 124 25.5t73 67t24 89.5q0 60 -36 88t-104 28z" />
<glyph unicode="C" horiz-adv-x="468" d="M381 53v-24q-25 -19 -60.5 -29t-71.5 -10q-86 0 -131 57.5t-45 161.5q0 60 15 123.5t42.5 122t67.5 105t90 73.5t108 27q28 0 59 -6.5t55 -19.5l-17 -34q-21 17 -50.5 26.5t-59.5 9.5q-52 0 -95 -25.5t-77 -69.5t-57.5 -98.5t-35.5 -112.5t-12 -113q0 -96 38.5 -149 t112.5 -53q35 0 67.5 11t56.5 27z" />
<glyph unicode="D" horiz-adv-x="565" d="M173 535l17 115h96q19 0 48 -2t61 -13t60 -35.5t46 -69t18 -115.5q0 -73 -22.5 -146.5t-67 -134.5t-112 -97.5t-157.5 -36.5h-101zM275 624h-56l-126 -598h77q83 0 143 34t99 90t57.5 122.5t18.5 132.5t-16 107.5t-41.5 64.5t-54.5 33t-56 12t-45 2z" />
<glyph unicode="E" horiz-adv-x="439" d="M331 0h-272l114 535l17 115h283l-11 -31l-243 5l-61 -289l172 3l-11 -31l-166 2l-60 -283l249 5z" />
<glyph unicode="F" horiz-adv-x="418" d="M87 0h-28l114 535l17 115h283l-11 -31l-243 5l-65 -307l1 3l171 3l-11 -31l-166 2z" />
<glyph unicode="G" horiz-adv-x="517" d="M400 29q-31 -19 -69 -29t-75 -10q-90 0 -136.5 59t-46.5 165q0 62 16 125t45.5 120.5t71.5 103t94.5 71.5t113.5 26q30 0 58.5 -7.5t50.5 -19.5l-17 -34q-19 17 -46.5 27t-59.5 10q-55 0 -100.5 -25t-81.5 -67.5t-61.5 -96t-38.5 -111.5t-13 -113q0 -97 41 -152.5 t121 -55.5q58 0 109 26l21 102l18 115l36 10z" />
<glyph unicode="H" horiz-adv-x="585" d="M87 0h-28l114 535l17 115l37 10l-71 -333h313l44 208l18 115l36 10l-140 -660h-27l63 297h-313z" />
<glyph unicode="I" horiz-adv-x="245" d="M87 0h-28l114 535l17 115l37 10z" />
<glyph unicode="J" horiz-adv-x="243" d="M-64 -171q53 24 80.5 64t40.5 98l116 544l17 115l35 10l-140 -660q-13 -64 -48 -117t-103 -78z" />
<glyph unicode="K" horiz-adv-x="465" d="M173 535l17 115l38 10l-70 -328h77l252 328l28 -10l-258 -333l119 -317l-31 -10l-116 312h-77l-65 -302h-28z" />
<glyph unicode="L" horiz-adv-x="414" d="M331 0h-272l114 535l17 115l37 10l-134 -634l249 5z" />
<glyph unicode="M" horiz-adv-x="706" d="M230 620h-1l-198 -620h-29l214 650l41 10l47 -635h2l314 625l39 10l-61 -660h-30l65 620h-1l-313 -620h-38z" />
<glyph unicode="N" horiz-adv-x="587" d="M173 535l17 115l45 10l173 -632h2l127 622l32 10l-140 -660h-42l-171 623h-1l-128 -623h-28z" />
<glyph unicode="O" horiz-adv-x="584" d="M543 444q0 -60 -14.5 -123.5t-41.5 -122.5t-65 -106t-85.5 -74.5t-102.5 -27.5q-77 0 -119 58t-42 159q0 59 14.5 122.5t41.5 122.5t65 106t85.5 74.5t102.5 27.5q78 0 119.5 -57.5t41.5 -158.5zM105 213q0 -92 36 -145.5t104 -53.5q49 0 90.5 26t74 70.5t55 99.5 t34.5 113.5t12 112.5q0 93 -35.5 146.5t-103.5 53.5q-49 0 -90.5 -26.5t-74 -71t-55.5 -100t-35 -114t-12 -111.5z" />
<glyph unicode="P" horiz-adv-x="463" d="M87 0h-28l114 535l17 115h100q84 0 124.5 -39t40.5 -110q0 -66 -30.5 -123t-87.5 -92.5t-138 -35.5h-59zM279 624h-60l-73 -348h64q71 0 119 32t72 82.5t24 104.5q0 63 -34.5 96t-111.5 33z" />
<glyph unicode="Q" horiz-adv-x="584" d="M653 -114q0 -13 -22 -21.5t-65 -8.5q-60 0 -125 17.5t-128.5 49t-119.5 72.5q-58 14 -89 69.5t-31 142.5q0 59 14.5 122.5t41.5 122.5t65 106t85.5 74.5t102.5 27.5q78 0 119.5 -57.5t41.5 -158.5q0 -59 -14 -122t-41 -121.5t-64 -105.5t-83.5 -75t-100.5 -30 q40 -26 95 -49.5t116 -38t120 -14.5q46 0 78 8q4 -4 4 -10zM245 14q49 0 90.5 26t74 70.5t55 99.5t34.5 113.5t12 112.5q0 93 -35.5 146.5t-103.5 53.5q-49 0 -90.5 -26.5t-74 -71t-55.5 -100t-35 -114t-12 -111.5q0 -92 36 -145.5t104 -53.5z" />
<glyph unicode="R" horiz-adv-x="474" d="M87 0h-28l114 535l17 115h100q85 0 125.5 -38.5t40.5 -106.5q0 -77 -44 -138.5t-128 -84.5l92 -282l-31 -10l-91 285q-29 -5 -60 -5h-50zM279 624h-60l-69 -328h54q76 0 125 29.5t73 75.5t24 97q0 47 -17 73t-42 37t-49.5 13.5t-38.5 2.5z" />
<glyph unicode="S" horiz-adv-x="420" d="M340 171q0 -50 -27 -91t-73.5 -65.5t-103.5 -24.5q-34 0 -67 8.5t-58 20.5l13 35q15 -12 49 -26t76 -14q47 0 83 20.5t56.5 54.5t20.5 74t-18.5 69.5t-46 54.5t-55.5 51t-46.5 58t-18.5 77q0 51 26.5 93.5t72.5 68t104 25.5q27 0 55.5 -5.5t49.5 -16.5l-12 -35 q-10 9 -38.5 21t-66.5 12q-46 0 -82 -21.5t-57 -56t-21 -74.5t18.5 -70t46.5 -56t55.5 -52.5t46 -59t18.5 -75.5z" />
<glyph unicode="T" horiz-adv-x="411" d="M167 0h-28l132 624l-168 -5l11 31h352l-2 -31l-165 5z" />
<glyph unicode="U" horiz-adv-x="568" d="M242 14q73 0 120 54.5t67 151.5l67 315l17 115l37 10l-92 -430q-25 -116 -83 -178t-143 -62q-67 0 -102.5 37.5t-35.5 102.5q0 14 1.5 28.5t6 39.5t13 66t22.5 107t35 164l18 115l37 10q-29 -136 -48 -224.5t-30 -142t-17 -82.5t-7.5 -44.5t-1.5 -29.5q0 -57 30.5 -90 t88.5 -33z" />
<glyph unicode="V" horiz-adv-x="495" d="M518 660l22 -10l-324 -650h-42l-49 650l27 10l48 -635h1z" />
<glyph unicode="W" horiz-adv-x="771" d="M143 0l-18 650l27 10l17 -635h1l287 625h28l20 -625h1l287 635l23 -10l-295 -650h-40l-20 600h-2l-275 -600h-41z" />
<glyph unicode="X" horiz-adv-x="482" d="M-13 0l251 326l-102 324l27 10l99 -313l231 313l23 -10l-239 -323l112 -327h-30l-106 307l-236 -307h-30z" />
<glyph unicode="Y" horiz-adv-x="481" d="M200 0h-27l45 213l-93 437l27 10l88 -410h1l262 410l23 -10l-280 -438v0z" />
<glyph unicode="Z" horiz-adv-x="436" d="M338 0h-345l-2 18l444 604h-118t-80 -0.5t-58.5 -2t-53.5 -4.5l12 35h334l1 -18l-444 -604h119.5t80 1.5t61 5t63.5 10.5z" />
<glyph unicode="[" horiz-adv-x="352" d="M3 -111v0l169 796h152l-6 -24h-122l-165 -772h123l-5 -24h-151z" />
<glyph unicode="\" horiz-adv-x="314" d="M165 -11l-2 700l25 6l2 -700z" />
<glyph unicode="]" horiz-adv-x="352" d="M190 -135h-152l6 24h122l165 772h-123l5 24h151l-5 -24v0z" />
<glyph unicode="^" horiz-adv-x="476" d="M106 190h-29l208 335h18l70 -335h-28l-59 298z" />
<glyph unicode="_" horiz-adv-x="293" d="M-84 -143l6 26h292l-5 -26h-293z" />
<glyph unicode="`" horiz-adv-x="232" d="M234 587l-13 -5q-17 29 -30 66t-19 83l31 2q3 -37 11 -75t20 -71z" />
<glyph unicode="a" horiz-adv-x="492" d="M41 124q0 65 24 132.5t67 125t100.5 93t125.5 35.5q26 0 48 -5t41 -15l-42 -173q-12 -49 -27 -125.5t-15 -162.5v-12.5t1 -16.5h-30q0 4 -0.5 8.5t-0.5 21.5q0 45 6 92.5t20 118.5q-28 -73 -66 -130t-80 -89t-84 -32q-40 0 -64 34.5t-24 99.5zM73 127q0 -48 15.5 -80.5 t45.5 -32.5q31 0 67.5 30.5t73 85.5t69 128.5t56.5 159.5q5 22 11 49q-15 9 -35 14t-41 5q-43 0 -82.5 -22.5t-72 -60t-56.5 -84.5t-37.5 -96.5t-13.5 -95.5z" />
<glyph unicode="b" horiz-adv-x="484" d="M443 376q0 -64 -23.5 -132t-67 -125.5t-102 -93t-129.5 -35.5q-45 0 -85 14l119 563l17 118l40 10q-36 -172 -59 -281.5t-39 -181.5q29 80 68 143t84 99t89 36q40 0 64 -34.5t24 -99.5zM348 486q-33 0 -71.5 -34.5t-77 -96.5t-72 -144.5t-55.5 -177.5q16 -9 36 -14t41 -5 q43 0 82.5 22.5t72 60t56.5 84.5t37.5 96.5t13.5 95.5q0 47 -15.5 80t-47.5 33z" />
<glyph unicode="c" horiz-adv-x="420" d="M335 114l14 -8q-33 -51 -82 -83.5t-98 -32.5q-58 0 -89.5 40.5t-31.5 120.5q0 65 19.5 128.5t54.5 116t80.5 83.5t96.5 31q32 0 55 -11.5t39 -27.5l-14 -32q-16 20 -37.5 33.5t-48.5 13.5q-41 0 -79 -29t-68.5 -77.5t-48 -107.5t-17.5 -119q0 -63 23 -101t74 -38 q44 0 85.5 30t72.5 70z" />
<glyph unicode="d" horiz-adv-x="493" d="M41 124q0 65 24 132.5t67 125t100.5 93t125.5 35.5q33 0 61 -9q4 16 7.5 33.5t7.5 35.5l17 115l40 10q-29 -137 -50 -234t-35 -164t-22 -114t-11.5 -82.5t-3.5 -71.5v-12.5t1 -16.5h-30q0 2 -0.5 10t-0.5 13q0 28 1 52t4 49.5t9.5 60t16.5 84.5q-29 -81 -68 -144t-84 -99 t-89 -36q-40 0 -64 34.5t-24 99.5zM73 127q0 -48 15.5 -80.5t45.5 -32.5q33 0 72.5 35t78.5 97t72 144t55 177q-16 8 -36 13.5t-41 5.5q-43 0 -82.5 -22.5t-72 -60t-56.5 -84.5t-37.5 -96.5t-13.5 -95.5z" />
<glyph unicode="e" horiz-adv-x="425" d="M335 114l14 -8q-33 -51 -82 -83.5t-98 -32.5q-55 0 -87.5 44t-32.5 123q0 62 19.5 124.5t54 114t79.5 83t95 31.5q41 0 67.5 -22t26.5 -65q0 -44 -30.5 -85.5t-87.5 -71t-136 -37.5q-26 -3 -49 -2q-7 -36 -7 -68q0 -64 25 -104.5t74 -40.5q42 0 83 30t72 70zM285 486 q-33 0 -63 -20.5t-56 -55t-45 -77.5t-30 -88q76 4 127.5 22t82.5 43.5t44.5 53t13.5 51.5q0 30 -19.5 50.5t-54.5 20.5z" />
<glyph unicode="f" horiz-adv-x="275" d="M291 451l-122 3l-99 -470q-6 -26 -18.5 -57.5t-40 -63t-78.5 -58.5l-8 18q46 26 74.5 64t41.5 101l98 467l-51 1l3 15l53 5v2q-1 15 1 35t4.5 37.5t4.5 26.5q12 54 46.5 86t86.5 32q19 0 34.5 -4t25.5 -10l-11 -28q-29 17 -65 17q-31 0 -55 -21.5t-35 -72.5 q-4 -22 -7 -51t-2 -49h126z" />
<glyph unicode="g" horiz-adv-x="429" d="M331 -55q0 -39 -32.5 -70.5t-84.5 -50.5t-113 -19q-70 0 -106.5 26.5t-36.5 70.5q0 30 13.5 53t31.5 39t31 23l7 -11q-19 -16 -37 -41t-18 -57q0 -36 31.5 -57.5t89.5 -21.5q46 0 91 13.5t75 38t30 56.5q0 26 -20 43t-49 28.5t-58 22t-49 23.5t-20 33t20 39t51 38v1 q-98 0 -98 104q0 40 14.5 82t41 78t62 58.5t76.5 22.5h56.5t54 1.5t65.5 3.5q3 -6 3 -11q0 -9 -9 -16.5t-26 -7.5q-15 0 -41.5 6t-55.5 14l-2 -2q24 -10 36 -33.5t12 -63.5q0 -67 -37 -128.5t-120 -113.5q-24 -15 -49 -32t-25 -34q0 -14 19.5 -24t49 -19t58.5 -21.5 t48.5 -32t19.5 -51.5zM110 274q0 -46 19 -67.5t49 -21.5q31 0 59.5 20t51 52.5t35.5 70t13 71.5q0 39 -18 63.5t-54 24.5q-32 0 -60 -19.5t-49.5 -51.5t-33.5 -69t-12 -73z" />
<glyph unicode="h" horiz-adv-x="482" d="M364 0h-30q0 4 -0.5 9.5t-0.5 19.5q0 53 9 111t20 112.5t20 98t9 67.5q0 34 -17.5 51t-39.5 17q-27 0 -59 -24.5t-63.5 -67.5t-58 -99t-43.5 -119t-20 -128v-28v-8l0.5 -1t0.5 -11h-30q0 5 -0.5 9t-0.5 21q0 73 11.5 137t27.5 141l56 262l17 115l40 10 q-31 -145 -52.5 -244.5t-35.5 -168.5q27 67 63 118.5t76 80.5t81 29q29 0 53 -19.5t24 -73.5q0 -45 -14.5 -105t-29 -133t-14.5 -158q0 -5 0.5 -12t0.5 -9z" />
<glyph unicode="i" horiz-adv-x="220" d="M206 670q0 -17 -10.5 -36t-27.5 -19q-20 0 -20 25q0 20 12 37.5t27 17.5q19 0 19 -25zM173 510q-21 -99 -35.5 -168.5t-23.5 -117t-14 -80.5t-7 -59.5t-2 -55.5v-12.5t1 -16.5h-30q0 2 -0.5 10t-0.5 13q0 40 4 80.5t12.5 90t22.5 114.5l16 74l17 118z" />
<glyph unicode="j" horiz-adv-x="216" d="M217 670q0 -17 -10.5 -36t-27.5 -19q-20 0 -20 25q0 20 12 37.5t27 17.5q19 0 19 -25zM176 510q-28 -131 -56.5 -265t-55.5 -261q-13 -61 -46 -104.5t-91 -74.5l-8 18q44 26 73.5 64t42.5 100l85 398l17 115z" />
<glyph unicode="k" horiz-adv-x="417" d="M91 0h-30q0 2 -0.5 10t-0.5 13q0 39 2 68.5t6 58.5t11.5 66t19.5 92l56 262l17 115l40 10q-26 -120 -45 -208t-33 -154q39 91 90 134t100 43q37 0 57.5 -22t20.5 -54q0 -42 -30 -82.5t-75 -74t-92 -52.5q27 -57 64 -117.5t75 -107.5l-32 -10q-36 49 -73 112t-67 130 q47 22 92.5 52.5t75.5 68t30 78.5q0 26 -13.5 40.5t-36.5 14.5q-32 0 -64.5 -25.5t-62 -70.5t-53 -103.5t-37 -124.5t-13.5 -133v-1v-12t1 -16z" />
<glyph unicode="l" horiz-adv-x="219" d="M212 695q-29 -138 -50 -235t-35 -164t-22 -113.5t-11.5 -82t-3.5 -71.5v-12.5t1 -16.5h-30q0 2 -0.5 10t-0.5 13q0 36 2 65t6 59t11.5 68t19.5 93l56 262l17 115z" />
<glyph unicode="m" horiz-adv-x="744" d="M92 0h-30q0 2 -0.5 10t-0.5 13q0 34 2 63.5t7.5 66t16.5 91.5t29 140l17 116l40 10q-15 -70 -26.5 -124t-19.5 -96q27 64 61.5 114t73 78t77.5 28q29 0 53 -19.5t24 -73.5q0 -24 -5 -54t-13 -64q27 62 61 109.5t71.5 74.5t75.5 27q29 0 53 -19.5t24 -73.5 q0 -45 -14.5 -106t-29 -132.5t-14.5 -150.5q0 -16 0.5 -19.5t0.5 -8.5h-30q0 4 -0.5 9.5t-0.5 19.5q0 53 9 111t20 112.5t20 98t9 67.5q0 34 -17.5 51t-39.5 17q-27 0 -59 -26t-63.5 -71.5t-58 -104t-42 -124.5t-15.5 -132q0 -16 0.5 -19.5t0.5 -8.5h-30q0 4 -0.5 9.5 t-0.5 19.5q0 53 9 111t20 112.5t20 98t9 67.5q0 34 -17.5 51t-39.5 17q-27 0 -59 -26t-63.5 -71t-58 -104t-42 -124.5t-15.5 -132.5v-12t1 -16z" />
<glyph unicode="n" horiz-adv-x="483" d="M92 0h-30q0 2 -0.5 10t-0.5 13q0 34 2 63.5t7.5 66t16.5 91.5t29 140l17 116l40 10q-15 -72 -27 -127.5t-20 -98.5q27 66 62.5 117t75.5 80t81 29q29 0 53 -19.5t24 -73.5q0 -45 -14.5 -105t-29 -133t-14.5 -158q0 -5 0.5 -12t0.5 -9h-30q0 4 -0.5 9.5t-0.5 19.5 q0 53 9 111t20 112.5t20 98t9 67.5q0 34 -17.5 51t-39.5 17q-28 0 -61 -26t-65 -71t-59 -104t-43 -124.5t-16 -132.5v-12t1 -16z" />
<glyph unicode="o" horiz-adv-x="471" d="M425 356q0 -59 -19.5 -122t-55 -117.5t-83 -88.5t-102.5 -34t-87.5 36.5t-32.5 108.5q0 61 20.5 125t56 119t83 89t101.5 34q60 0 89.5 -41t29.5 -109zM79 148q0 -68 28 -100t70 -32q44 0 83 31t68.5 81t46.5 108.5t17 113.5q0 61 -24 97.5t-71 36.5q-43 0 -82.5 -31 t-70 -81.5t-48 -109.5t-17.5 -114z" />
<glyph unicode="p" horiz-adv-x="484" d="M173 510q-19 -88 -34 -159t-28 -128q29 83 68.5 147.5t85 102t90.5 37.5q40 0 64 -34.5t24 -99.5q0 -64 -24 -132t-67 -125.5t-100.5 -93t-125.5 -35.5q-33 0 -60 9q-8 -48 -11.5 -83.5t-3.5 -71.5v-12.5t1 -16.5h-30q0 2 -0.5 10t-0.5 13q0 36 2 65t6 59t11.5 68 t19.5 93l56 262l17 115zM350 486q-33 0 -72.5 -35t-78.5 -97t-72 -144t-55 -177q16 -8 36 -13.5t41 -5.5q43 0 82.5 22.5t72 60t56.5 84.5t37.5 96.5t13.5 95.5q0 48 -15.5 80.5t-45.5 32.5z" />
<glyph unicode="q" horiz-adv-x="487" d="M41 124q0 65 24 132.5t67 125t100.5 93t125.5 35.5q26 0 48 -5t41 -15q-28 -133 -48.5 -227t-34 -159t-21 -110.5t-11 -80t-3.5 -69.5v-12.5t1 -16.5h-30q0 2 -0.5 10t-0.5 13q0 29 1 53.5t5 53.5t11.5 69.5t20.5 101t32 149.5q-29 -79 -68 -141.5t-83.5 -98t-88.5 -35.5 q-40 0 -64 34.5t-24 99.5zM73 127q0 -47 15.5 -80t47.5 -33q33 0 71.5 34.5t77 96.5t72 144.5t55.5 177.5q-16 9 -36 14t-41 5q-43 0 -82.5 -22.5t-72 -60t-56.5 -84.5t-37.5 -96.5t-13.5 -95.5z" />
<glyph unicode="r" horiz-adv-x="344" d="M92 0h-30q0 2 -0.5 10t-0.5 13q0 34 2 63.5t7.5 66t16.5 91.5t29 140l17 116l40 10q-11 -54 -20.5 -98.5t-17.5 -80.5q31 79 74.5 129t93.5 50q20 0 38 -4t30 -10l-14 -32q-10 9 -29 15.5t-36 6.5q-26 0 -54 -26.5t-54 -72t-47 -104.5t-33.5 -124.5t-12.5 -130.5v-12 t1 -16z" />
<glyph unicode="s" horiz-adv-x="365" d="M287 128q0 -38 -23 -69.5t-63 -50t-91 -18.5q-31 0 -61.5 7.5t-53.5 17.5l13 35q16 -12 46 -24t69 -12q59 0 97 30.5t38 76.5q0 38 -24.5 65t-60.5 55q-20 16 -39.5 33t-32 39.5t-12.5 52.5q0 38 22.5 71t62 53t91.5 20q25 0 51.5 -4.5t42.5 -12.5l-13 -35 q-11 9 -35.5 18.5t-56.5 9.5q-41 0 -72 -16.5t-47.5 -42t-16.5 -54.5q0 -32 20 -56.5t52 -51.5q22 -18 44 -37t37.5 -43t15.5 -57z" />
<glyph unicode="t" horiz-adv-x="375" d="M314 106q-36 -54 -80.5 -85t-91.5 -31q-33 0 -53.5 19t-20.5 62q0 9 1.5 21t6 34t13 62t22.5 104.5t35 162.5l-52 1l3 16l54 4l40 155l22 3q-9 -44 -17.5 -83.5t-15.5 -74.5h179l-7 -25l-177 3q-25 -117 -40.5 -189t-23 -111t-10.5 -56.5t-3 -26.5q0 -22 12 -39.5 t43 -17.5q39 0 77.5 30t69.5 70z" />
<glyph unicode="u" d="M358 0h-30q0 4 -0.5 9t-0.5 21q0 12 0.5 23.5t3 30t8 50.5t14.5 84q-25 -65 -59.5 -116.5t-75 -81.5t-83.5 -30q-31 0 -55 19.5t-24 71.5q0 13 2.5 29t8.5 46.5t18 85t31 143.5l17 115l40 10q-40 -188 -63 -289.5t-23 -136.5q0 -31 16 -50.5t43 -19.5q36 0 73 34t70 88.5 t57.5 119.5t35.5 126q5 26 6.5 34t2.5 12.5t2 17.5q0 1 1.5 13.5t3 26t1.5 14.5l40 10q-21 -99 -35.5 -168.5t-23.5 -117t-14 -80.5t-7 -59.5t-2 -55.5v-12.5t1 -16.5z" />
<glyph unicode="v" horiz-adv-x="390" d="M103 264q-4 64 -11 124t-17 112l29 10q10 -55 17 -116.5t11 -124.5q9 -126 9 -244h1q38 59 73 122t62 126.5t43 122t16 106.5q9 8 19 8q14 0 14 -18q0 -29 -16 -85.5t-46 -128t-71 -146.5t-92 -141l-32 9q0 65 -2.5 132t-6.5 132z" />
<glyph unicode="w" horiz-adv-x="636" d="M102 256q-4 66 -10 128.5t-17 115.5l29 10q10 -52 16 -118t10 -133q4 -61 5.5 -121.5t1.5 -112.5h1q51 78 94 164t69.5 167t26.5 144l29 10q9 -51 15.5 -114t10.5 -129q4 -64 5.5 -126t1.5 -116h1q51 78 94.5 164t69.5 167.5t26 145.5q9 8 19 8q14 0 14 -18 q0 -29 -15.5 -85.5t-44.5 -128t-69.5 -146.5t-91.5 -141l-32 9q0 64 -2 138t-6.5 147t-9.5 137v0q-7 -42 -25 -95.5t-45 -112t-61 -116t-72 -107.5l-32 9q0 60 -1 125.5t-5 130.5z" />
<glyph unicode="x" horiz-adv-x="399" d="M8 5q0 17 15 47.5t40.5 66.5t56.5 72t62 64q-16 66 -35 129.5t-50 115.5l27 10q30 -51 48.5 -113t33.5 -126q52 51 92 109.5t54 121.5q8 8 19 8q13 0 13 -15q0 -17 -15 -47t-40 -66t-55.5 -71.5t-61.5 -62.5q16 -67 35.5 -131t50.5 -117l-27 -10q-30 52 -48.5 114 t-34.5 127q-52 -51 -93 -110t-55 -123q-8 -8 -19 -8q-13 0 -13 15z" />
<glyph unicode="y" horiz-adv-x="395" d="M148 -10q-37 -48 -81.5 -90.5t-88 -68.5t-79.5 -26q-16 0 -27 6.5t-11 16.5q0 11 8 19q6 -2 15.5 -4t18.5 -2q29 0 69.5 22.5t82.5 59.5t74 80l-12 1q0 65 -2.5 130t-6.5 130q-4 64 -11 124t-17 112l29 10q10 -55 17 -116.5t11 -124.5q9 -126 9 -244h1q38 59 73 122 t62 126.5t43 122t16 106.5q9 8 19 8q14 0 14 -18q0 -28 -16 -84.5t-45.5 -128t-71 -147t-93.5 -142.5z" />
<glyph unicode="z" horiz-adv-x="415" d="M3 -10l-7 14q101 108 185 217t140 213q-41 24 -83.5 34t-66.5 10q-19 0 -36 -9t-29 -41l-22 5q11 46 33 61.5t55 15.5q40 0 79 -16.5t79 -43.5q16 30 29 60q23 0 23 -15q0 -14 -18.5 -49.5t-51 -84.5t-73.5 -104.5t-86.5 -110.5t-90.5 -101q37 0 62.5 -6t45.5 -11.5 t42 -5.5q31 0 55 11.5t41 57.5l22 -5q-16 -55 -45.5 -75.5t-71.5 -20.5q-25 0 -47 7.5t-43.5 15t-47.5 7.5q-25 0 -40 -7t-32 -23z" />
<glyph unicode="{" horiz-adv-x="259" d="M128 191q0 30 -17.5 50t-57.5 24l7 30q64 8 92 49.5t28 102.5q0 21 -2 40t-2 41q0 79 37.5 123t116.5 44l-4 -24q-66 -1 -94 -37.5t-28 -105.5q0 -20 1.5 -40.5t1.5 -37.5q0 -63 -30 -110.5t-81 -60.5q25 -8 42 -29t17 -54q0 -28 -11.5 -59t-27 -62.5t-27 -62.5 t-11.5 -59q0 -31 19.5 -47t62.5 -17l-6 -24q-55 0 -80 20t-25 61q0 32 12 64t27.5 63t27.5 60.5t12 57.5z" />
<glyph unicode="|" horiz-adv-x="261" d="M45 -202l-22 -3l191 897l21 3z" />
<glyph unicode="}" horiz-adv-x="258" d="M143 369q0 -30 17.5 -49.5t57.5 -24.5l-7 -30q-64 -7 -92 -48.5t-28 -103.5q0 -21 2 -39.5t2 -41.5q0 -79 -37 -123t-117 -44l4 24q66 1 94 37.5t28 105.5q0 20 -1.5 40.5t-1.5 37.5q0 63 30 110.5t81 60.5q-25 8 -42 29t-17 54q0 29 11.5 59.5t27 62t27 62.5t11.5 59 q0 32 -19 47.5t-63 16.5l6 24q55 0 80 -20t25 -61q0 -32 -12 -64t-27.5 -63t-27.5 -60.5t-12 -57.5z" />
<glyph unicode="~" horiz-adv-x="559" d="M176 279q-8 0 -28.5 -20t-43.5 -46l-10 8q13 18 28 38.5t31 34.5t30 14t42 -9t60 -21.5t60.5 -21.5t43.5 -9q8 0 28 19.5t44 46.5l10 -8q-12 -18 -27 -38t-31 -34.5t-31 -14.5q-14 0 -42.5 9t-61.5 21.5t-61 21.5t-41 9z" />
<glyph unicode="&#xa1;" horiz-adv-x="250" d="M148 488q0 17 10.5 36t27.5 19q20 0 20 -25q0 -20 -12 -37.5t-27 -17.5q-19 0 -19 25zM140 377h22q-11 -53 -26 -120.5t-30 -140.5t-29 -141.5t-23 -124.5l-34 -10q5 29 13 70t18 87q20 92 42.5 187.5t46.5 192.5z" />
<glyph unicode="&#xa2;" horiz-adv-x="420" d="M146 -122l24 112h-1q-58 0 -89.5 40.5t-31.5 120.5q0 65 19.5 128.5t54 115.5t79.5 83.5t96 31.5l24 109l26 3l-24 -114q22 -4 39.5 -14t30.5 -23l-14 -32q-16 20 -37.5 33.5t-48.5 13.5q-41 0 -79 -29t-68.5 -77.5t-48 -107.5t-17.5 -119q0 -63 23 -101t74 -38 q44 0 85.5 30t72.5 70l14 -8q-28 -44 -69 -74.5t-84 -38.5l-23 -112z" />
<glyph unicode="&#xa3;" horiz-adv-x="428" d="M375 320l-157 3l-23 -83q-23 -82 -61 -142t-81 -88q25 -17 55 -39.5t65.5 -39t78.5 -16.5q22 0 45 4.5t35 11.5l-17 -32q-10 -4 -30 -7t-36 -3q-40 0 -78 16.5t-72.5 42t-65.5 51.5q-21 -9 -42 -9q-19 0 -23.5 6t-3.5 14q2 11 12 16.5t22 5.5q16 0 37 -11 q32 18 70.5 73.5t63.5 144.5l23 84l-92 2l3 17l95 5h1q21 76 42 139.5t47 110.5t61.5 72.5t84.5 25.5q23 0 40 -5.5t30 -13.5l-17 -38q-11 13 -29.5 22.5t-44.5 9.5q-40 0 -67.5 -23.5t-47 -66.5t-37 -102.5t-37.5 -130.5h158z" />
<glyph unicode="&#xa4;" horiz-adv-x="475" d="M358 66l-52 82q-24 -21 -51.5 -33.5t-56.5 -12.5q-27 0 -47.5 9.5t-34.5 25.5l-77 -72l-13 21l76 71q-15 29 -15 68q0 43 18.5 85.5t49.5 74.5l-50 78l23 21q13 -20 25.5 -40.5t24.5 -37.5q21 16 46 26t51 10q27 0 48 -10.5t34 -29.5l87 82l14 -21l-88 -82l-1 1 q14 -29 14 -66q0 -40 -15.5 -78.5t-41.5 -68.5q15 -23 30 -44t25 -36zM114 233q0 -43 23 -72t67 -29t78.5 27t54.5 67.5t20 82.5t-22.5 72.5t-67.5 30.5q-42 0 -77 -26.5t-55.5 -67.5t-20.5 -85z" />
<glyph unicode="&#xa5;" horiz-adv-x="481" d="M52 125l5 22h147l14 65h-147l5 22h137l-88 416l27 10l88 -410h1l262 410l23 -10l-266 -416h134l-5 -22h-143l-14 -65h143l-4 -22h-144l-27 -125h-27l26 125h-147z" />
<glyph unicode="&#xa6;" horiz-adv-x="261" d="M161 347l-21 -3l74 348l21 3zM45 -202l-22 -3l75 352l21 3z" />
<glyph unicode="&#xa7;" horiz-adv-x="450" d="M349 90q0 -67 -28.5 -126.5t-80 -96.5t-119.5 -37q-36 0 -61.5 10.5t-44.5 25.5l17 55q8 -13 31.5 -30t57.5 -17q38 0 66 21t44 54.5t16 68.5q0 37 -15 69t-37.5 64t-45 67t-37.5 77.5t-15 96.5q0 69 28 130.5t80 99.5t123 38q31 0 53 -7.5t38 -21.5l-17 -55 q-7 11 -26.5 25.5t-51.5 14.5q-37 0 -64.5 -21.5t-43 -55t-15.5 -70.5q0 -38 15 -71.5t37 -67t44 -69t37 -77.5t15 -94zM207 -125l1 -1q55 33 84.5 90.5t29.5 116.5q0 45 -15 83.5t-37 73.5t-44.5 69.5t-37.5 71t-15 79.5q0 41 16.5 81t44.5 69v1q-54 -32 -82 -90t-28 -118 q0 -47 15 -86t37.5 -73t45 -67t37.5 -68.5t15 -76.5q0 -43 -18 -84t-49 -71z" />
<glyph unicode="&#xa8;" horiz-adv-x="333" d="M209 659q-4 -16 -13 -28.5t-23 -12.5q-12 0 -16.5 10t-1.5 24q4 17 14 29t23 12q11 0 15.5 -10t1.5 -24zM350 659q-3 -16 -12 -28.5t-23 -12.5q-12 0 -16.5 10t-1.5 24q4 17 14 29t23 12q11 0 15.5 -10t0.5 -24z" />
<glyph unicode="&#xa9;" horiz-adv-x="575" d="M43 183q0 64 25 124.5t67.5 109t96.5 77t113 28.5q57 0 99 -27t65 -73.5t23 -106.5q0 -63 -25 -123t-68 -108.5t-97.5 -77t-114.5 -28.5q-55 0 -96.5 26t-64.5 72t-23 107zM232 0q55 0 105 27t88.5 71.5t61 100t22.5 112.5q0 54 -21 97t-59 67.5t-89 24.5 q-55 0 -104.5 -27t-88 -73t-60.5 -101.5t-22 -112.5q0 -54 20.5 -96t58.5 -66t88 -24zM339 126l-1 -22q-36 -19 -78 -19q-49 0 -74.5 31t-25.5 86q0 39 12.5 79t35.5 73t55 53t71 20q40 0 68 -18l-11 -24q-12 9 -28 15t-36 6q-33 0 -59 -18t-44.5 -48t-28 -64.5t-9.5 -67.5 q0 -48 21 -75t61 -27q17 0 37 5t34 15z" />
<glyph unicode="&#xaa;" horiz-adv-x="429" d="M125 462q0 46 17.5 94.5t49 90t74 67t92.5 25.5q23 0 39.5 -4t31.5 -11l-30 -125q-8 -35 -19 -88t-11 -114q0 -7 0.5 -13t0.5 -12h-30q0 4 -0.5 8t-0.5 17q0 30 4 63.5t14 81.5q-31 -78 -76.5 -127.5t-90.5 -49.5q-29 0 -47 25t-18 72zM157 466q0 -34 11 -56.5t32 -22.5 q29 0 64 38t68 102.5t55 144.5q3 16 8 34q-26 13 -54 13q-38 0 -71.5 -24t-58.5 -62.5t-39.5 -82.5t-14.5 -84z" />
<glyph unicode="&#xab;" horiz-adv-x="440" d="M235 288l1 8q46 44 91 91.5t95 107.5l8 -7q-35 -49 -79.5 -101.5t-81.5 -94.5q20 -43 42 -95t36 -101l-11 -7q-25 60 -50 108t-51 91zM69 288l1 8q46 44 91 91.5t95 107.5l8 -7q-35 -49 -79.5 -101.5t-81.5 -94.5q20 -43 42 -95t36 -101l-11 -7q-25 60 -50 108t-51 91z " />
<glyph unicode="&#xac;" horiz-adv-x="554" d="M451 333l-42 -201h-25l36 171h-309l6 25q28 1 71.5 2t92.5 1.5t94 1t76 0.5z" />
<glyph unicode="&#xae;" horiz-adv-x="575" d="M43 183q0 64 25 124.5t67.5 109t96.5 77t113 28.5q57 0 99 -27t65 -73.5t23 -106.5q0 -63 -25 -123t-68 -108.5t-97.5 -77t-114.5 -28.5q-55 0 -96.5 26t-64.5 72t-23 107zM232 0q55 0 105 27t88.5 71.5t61 100t22.5 112.5q0 54 -21 97t-59 67.5t-89 24.5 q-55 0 -104.5 -27t-88 -73t-60.5 -101.5t-22 -112.5q0 -54 20.5 -96t58.5 -66t88 -24zM198 89h-23l58 272l8 60h67q45 0 68.5 -20.5t23.5 -56.5q0 -40 -26 -71t-67 -44l53 -140l-26 -5l-50 140q-10 -1 -21 -1h-36zM301 402h-36l-34 -161h38q47 0 76.5 30t29.5 69 q0 62 -74 62z" />
<glyph unicode="&#xaf;" horiz-adv-x="340" d="M154 646l6 26h200l-6 -26h-200z" />
<glyph unicode="&#xb0;" horiz-adv-x="332" d="M310 471q0 -35 -17 -69t-46 -56t-65 -22q-35 0 -55 23.5t-20 61.5q0 36 17 69t46 54.5t64 21.5q36 0 56 -23t20 -60zM136 419q0 -31 15 -49.5t40 -18.5q27 0 47 17.5t31 43.5t11 51q0 29 -14 46.5t-40 17.5q-25 0 -45.5 -15.5t-32.5 -40t-12 -52.5z" />
<glyph unicode="&#xb1;" horiz-adv-x="533" d="M452 348h-151l-35 -162h-24l34 162h-154l5 23q27 1 68.5 1.5t86.5 0.5l34 163h25l-35 -163q44 1 84.5 1h68.5zM392 71h-330l5 23q29 1 72.5 1.5t92 1t93 0.5h74.5z" />
<glyph unicode="&#xb2;" horiz-adv-x="318" d="M280 372h-205l-1 16q38 30 78.5 63.5t75.5 69t57 70t22 66.5q0 26 -16.5 41t-46.5 15q-25 0 -50 -9.5t-48 -23.5v25q20 11 50 20.5t59 9.5q39 0 61.5 -19t22.5 -54q0 -34 -21.5 -68.5t-56.5 -69t-76.5 -67t-82.5 -62.5h70q29 0 60 2t59 6z" />
<glyph unicode="&#xb3;" horiz-adv-x="305" d="M297 483q0 -33 -21 -59.5t-55.5 -41.5t-77.5 -15q-22 0 -41 3.5t-34 9.5l8 21q17 -7 33.5 -10.5t35.5 -3.5q50 0 85 28t35 65q0 35 -27 48t-59 13q-10 0 -18.5 -1t-15.5 -3l3 16q38 9 70.5 25.5t52.5 39t20 48.5q0 47 -60 47q-22 0 -43.5 -7t-43.5 -18l2 21q14 8 40.5 17 t56.5 9q35 0 57.5 -15.5t22.5 -46.5q0 -41 -37.5 -71.5t-87.5 -45.5q46 -2 72.5 -19t26.5 -54z" />
<glyph unicode="&#xb4;" horiz-adv-x="236" d="M268 730q-26 -46 -55 -83t-58 -66l-13 6q26 33 50.5 71t42.5 75z" />
<glyph unicode="&#xb6;" horiz-adv-x="543" d="M161 -147q50 0 82 22.5t50.5 55t27.5 64.5t13 51l103 484l20 98h-42l-93 -433h-26q-5 0 -22 1.5t-39 9t-42.5 25.5t-34.5 50t-14 82q0 55 18.5 106.5t52 92t80 64.5t102.5 24h91l-26 -120l-102 -484q-22 -106 -72.5 -161.5t-124.5 -55.5q-28 0 -62.5 7t-58.5 17l9 26 q26 -11 54 -18.5t56 -7.5z" />
<glyph unicode="&#xb7;" horiz-adv-x="192" d="M86 208q-9 0 -14 6.5t-5 16.5q0 15 11 30t25 15q19 0 19 -21q0 -15 -10 -31t-26 -16z" />
<glyph unicode="&#xb8;" horiz-adv-x="260" d="M78 -110q3 14 -10.5 24.5t-48.5 14.5l40 71h24l-30 -54q67 -13 58 -53q-4 -21 -24.5 -35.5t-48 -22.5t-55.5 -9l2 18q41 5 65 17t28 29z" />
<glyph unicode="&#xb9;" horiz-adv-x="230" d="M154 372h-27l71 335l-68 -28l-2 19l100 37l3 -2z" />
<glyph unicode="&#xba;" horiz-adv-x="414" d="M413 626q0 -43 -14.5 -88t-41 -84t-61.5 -63t-76 -24q-42 0 -67 27.5t-25 80.5q0 44 15 89.5t41.5 85t62 63.5t75.5 24q45 0 68 -30.5t23 -80.5zM161 480q0 -48 19.5 -70.5t49.5 -22.5q31 0 58.5 22t48 58t32.5 77t12 79q0 43 -17 68.5t-50 25.5q-31 0 -58.5 -22t-49 -58 t-33.5 -77t-12 -80z" />
<glyph unicode="&#xbb;" horiz-adv-x="440" d="M223 296l-1 -8q-46 -43 -91 -91t-95 -108l-8 7q35 49 79.5 101.5t81.5 94.5q-20 43 -42 95t-36 101l11 7q26 -60 50.5 -107.5t50.5 -91.5zM389 296l-1 -8q-46 -43 -91 -91t-95 -108l-8 7q35 49 79.5 101.5t81.5 94.5q-20 43 -42 95t-36 101l11 7q26 -60 50.5 -107.5 t50.5 -91.5z" />
<glyph unicode="&#xbc;" horiz-adv-x="756" d="M119 -10h-26l486 670h26zM137 292h-27l71 335l-68 -28l-2 19l100 37l3 -2zM547 0h-28l18 85h-157l-1 14l225 264l19 -5l-53 -248q30 2 55 5l-11 -30h-49zM503 107q18 0 39 1l46 213l-184 -214h99z" />
<glyph unicode="&#xbd;" horiz-adv-x="736" d="M98 -10h-26l486 670h26zM137 292h-27l71 335l-68 -28l-2 19l100 37l3 -2zM618 0h-205l-1 16q38 30 78.5 63.5t75.5 69t57 70t22 66.5q0 26 -16.5 41t-46.5 15q-25 0 -50 -9.5t-48 -23.5v25q20 11 50 20.5t59 9.5q39 0 61.5 -19t22.5 -54q0 -34 -21.5 -68.5t-56.5 -69 t-76.5 -67t-82.5 -62.5h70q29 0 60 2t59 6z" />
<glyph unicode="&#xbe;" horiz-adv-x="793" d="M190 -10h-26l486 670h26zM280 403q0 -33 -21 -59.5t-55.5 -41.5t-77.5 -15q-22 0 -41 3.5t-34 9.5l8 21q17 -7 33.5 -10.5t35.5 -3.5q50 0 85 28t35 65q0 35 -27 48t-59 13q-10 0 -18.5 -1t-15.5 -3l3 16q38 9 70.5 25.5t52.5 39t20 48.5q0 47 -60 47q-22 0 -43.5 -7 t-43.5 -18l2 21q14 8 40.5 17t56.5 9q35 0 57.5 -15.5t22.5 -46.5q0 -41 -37.5 -71.5t-87.5 -45.5q46 -2 72.5 -19t26.5 -54zM628 0h-28l18 85h-157l-1 14l225 264l19 -5l-53 -248q30 2 55 5l-11 -30h-49zM584 107q18 0 39 1l46 213l-184 -214h99z" />
<glyph unicode="&#xbf;" horiz-adv-x="450" d="M266 488q0 17 10.5 36t27.5 19q20 0 20 -25q0 -20 -12 -37.5t-27 -17.5q-19 0 -19 25zM258 369h22q1 -13 -1.5 -36.5t-5.5 -36.5q-8 -36 -31 -67.5t-53 -61.5l-60.5 -60.5t-53.5 -65t-31 -75.5q-13 -62 17 -97.5t78 -35.5q37 0 80.5 19.5t80.5 55.5l10 -19 q-39 -37 -85.5 -60.5t-95.5 -23.5q-63 0 -95.5 44t-16.5 118q10 47 33.5 83.5t53.5 67t59.5 59t52.5 60t32 71.5q2 10 5 29t5 32z" />
<glyph unicode="&#xc0;" horiz-adv-x="501" d="M433 748l-11 -17q-31 11 -63 31.5t-61 52.5l35 25q42 -53 100 -92zM15 0h-28l267 532l59 118l46 10l49 -660h-28l-14 182h-259zM331 628l-209 -416h242l-32 416h-1z" />
<glyph unicode="&#xc1;" horiz-adv-x="501" d="M444 816q-40 -32 -80.5 -52.5t-75.5 -31.5l-4 17q35 19 69.5 43t64.5 49zM15 0h-28l267 532l59 118l46 10l49 -660h-28l-14 182h-259zM331 628l-209 -416h242l-32 416h-1z" />
<glyph unicode="&#xc2;" horiz-adv-x="501" d="M260 732l-5 13q30 23 54 43.5t48 48.5l32 6q11 -27 26 -50t37 -48l-11 -13q-45 30 -74 75q-50 -45 -107 -75zM15 0h-28l267 532l59 118l46 10l49 -660h-28l-14 182h-259zM331 628l-209 -416h242l-32 416h-1z" />
<glyph unicode="&#xc3;" horiz-adv-x="501" d="M330 825q20 0 31.5 -10.5t22.5 -21.5t27 -11q17 0 32 14t28 33l13 -5q-11 -26 -33.5 -49.5t-50.5 -23.5q-19 0 -30.5 11t-22 21.5t-27.5 10.5q-16 0 -31.5 -13.5t-28.5 -33.5l-13 5q11 25 33 49t50 24zM15 0h-28l267 532l59 118l46 10l49 -660h-28l-14 182h-259zM331 628 l-209 -416h242l-32 416h-1z" />
<glyph unicode="&#xc4;" horiz-adv-x="501" d="M309 802q0 -20 -9.5 -36.5t-26.5 -16.5q-10 0 -14.5 6.5t-4.5 16.5q0 20 11 36t27 16q17 0 17 -22zM477 801q0 -18 -9.5 -35t-26.5 -17q-19 0 -19 24q0 18 11 34.5t27 16.5q17 0 17 -23zM15 0h-28l267 532l59 118l46 10l49 -660h-28l-14 182h-259zM331 628l-209 -416h242 l-32 416h-1z" />
<glyph unicode="&#xc5;" horiz-adv-x="501" d="M434 808q0 -24 -12.5 -45t-32 -33.5t-40.5 -12.5q-23 0 -37 14.5t-14 37.5t12.5 43.5t32.5 33.5t42 13q23 0 36 -14t13 -37zM326 776q0 -33 28 -33q20 0 36 18t16 40q0 14 -8 23t-21 9q-19 0 -35 -17t-16 -40zM15 0h-28l267 532l59 118l46 10l49 -660h-28l-14 182h-259z M331 628l-209 -416h242l-32 416h-1z" />
<glyph unicode="&#xc6;" horiz-adv-x="735" d="M15 0h-28l353 532l74 118h278l-11 -31l-224 5l-33 -289l198 3l-11 -31l-190 2l-33 -283l250 5l-11 -31h-270l22 182h-243zM433 628l-277 -416h227z" />
<glyph unicode="&#xc7;" horiz-adv-x="468" d="M240 -110q3 14 -10.5 24.5t-48.5 14.5l36 63q-71 11 -107.5 67t-36.5 150q0 60 15 123.5t42.5 122t67.5 105t90 73.5t108 27q28 0 59 -6.5t55 -19.5l-17 -34q-21 17 -50.5 26.5t-59.5 9.5q-52 0 -95 -25.5t-77 -69.5t-57.5 -98.5t-35.5 -112.5t-12 -113q0 -96 38.5 -149 t112.5 -53q35 0 67.5 11t56.5 27v-24q-25 -19 -60.5 -29t-71.5 -10h-10l-24 -44q67 -13 58 -53q-4 -21 -24.5 -35.5t-48 -22.5t-55.5 -9l2 18q41 5 65 17t28 29z" />
<glyph unicode="&#xc8;" horiz-adv-x="439" d="M430 748l-11 -17q-31 11 -63 31.5t-61 52.5l35 25q42 -53 100 -92zM331 0h-272l114 535l17 115h283l-11 -31l-243 5l-61 -289l172 3l-11 -31l-166 2l-60 -283l249 5z" />
<glyph unicode="&#xc9;" horiz-adv-x="439" d="M441 816q-40 -32 -80.5 -52.5t-75.5 -31.5l-4 17q35 19 69.5 43t64.5 49zM331 0h-272l114 535l17 115h283l-11 -31l-243 5l-61 -289l172 3l-11 -31l-166 2l-60 -283l249 5z" />
<glyph unicode="&#xca;" horiz-adv-x="439" d="M257 732l-5 13q30 23 54 43.5t48 48.5l32 6q11 -27 26 -50t37 -48l-11 -13q-45 30 -74 75q-50 -45 -107 -75zM331 0h-272l114 535l17 115h283l-11 -31l-243 5l-61 -289l172 3l-11 -31l-166 2l-60 -283l249 5z" />
<glyph unicode="&#xcb;" horiz-adv-x="439" d="M306 802q0 -20 -9.5 -36.5t-26.5 -16.5q-10 0 -14.5 6.5t-4.5 16.5q0 20 11 36t27 16q17 0 17 -22zM474 801q0 -18 -9.5 -35t-26.5 -17q-19 0 -19 24q0 18 11 34.5t27 16.5q17 0 17 -23zM331 0h-272l114 535l17 115h283l-11 -31l-243 5l-61 -289l172 3l-11 -31l-166 2 l-60 -283l249 5z" />
<glyph unicode="&#xcc;" horiz-adv-x="245" d="M302 748l-11 -17q-31 11 -63 31.5t-61 52.5l35 25q42 -53 100 -92zM87 0h-28l114 535l17 115l37 10z" />
<glyph unicode="&#xcd;" horiz-adv-x="245" d="M313 816q-40 -32 -80.5 -52.5t-75.5 -31.5l-4 17q35 19 69.5 43t64.5 49zM87 0h-28l114 535l17 115l37 10z" />
<glyph unicode="&#xce;" horiz-adv-x="245" d="M129 732l-5 13q30 23 54 43.5t48 48.5l32 6q11 -27 26 -50t37 -48l-11 -13q-45 30 -74 75q-50 -45 -107 -75zM87 0h-28l114 535l17 115l37 10z" />
<glyph unicode="&#xcf;" horiz-adv-x="264" d="M210 786q0 -18 -9.5 -35t-26.5 -17q-19 0 -19 24q0 18 11 34.5t27 16.5q17 0 17 -23zM300 786q0 -18 -10 -35t-27 -17q-10 0 -14 6.5t-4 16.5q0 20 11 36t26 16q9 0 13.5 -6.5t4.5 -16.5zM102 0h-28l114 535l17 115l37 10z" />
<glyph unicode="&#xd0;" horiz-adv-x="565" d="M173 535l17 115h96q19 0 48 -2t61 -13t60 -35.5t46 -69t18 -115.5q0 -73 -22.5 -146.5t-67 -134.5t-112 -97.5t-157.5 -36.5h-101l67 314h-64l4 22h65zM371 314h-217l-61 -288h77q83 0 143 34t99 90t57.5 122.5t18.5 132.5t-16 107.5t-41.5 64.5t-54.5 33t-56 12t-45 2 h-56l-61 -288h218z" />
<glyph unicode="&#xd1;" horiz-adv-x="587" d="M373 825q20 0 31.5 -10.5t22.5 -21.5t27 -11q17 0 32 14t28 33l13 -5q-11 -26 -33.5 -49.5t-50.5 -23.5q-19 0 -30.5 11t-22 21.5t-27.5 10.5q-16 0 -31.5 -13.5t-28.5 -33.5l-13 5q11 25 33 49t50 24zM173 535l17 115l45 10l173 -632h2l127 622l32 10l-140 -660h-42 l-171 623h-1l-128 -623h-28z" />
<glyph unicode="&#xd2;" horiz-adv-x="584" d="M474 748l-11 -17q-31 11 -63 31.5t-61 52.5l35 25q42 -53 100 -92zM543 444q0 -60 -14.5 -123.5t-41.5 -122.5t-65 -106t-85.5 -74.5t-102.5 -27.5q-77 0 -119 58t-42 159q0 59 14.5 122.5t41.5 122.5t65 106t85.5 74.5t102.5 27.5q78 0 119.5 -57.5t41.5 -158.5z M105 213q0 -92 36 -145.5t104 -53.5q49 0 90.5 26t74 70.5t55 99.5t34.5 113.5t12 112.5q0 93 -35.5 146.5t-103.5 53.5q-49 0 -90.5 -26.5t-74 -71t-55.5 -100t-35 -114t-12 -111.5z" />
<glyph unicode="&#xd3;" horiz-adv-x="584" d="M485 816q-40 -32 -80.5 -52.5t-75.5 -31.5l-4 17q35 19 69.5 43t64.5 49zM543 444q0 -60 -14.5 -123.5t-41.5 -122.5t-65 -106t-85.5 -74.5t-102.5 -27.5q-77 0 -119 58t-42 159q0 59 14.5 122.5t41.5 122.5t65 106t85.5 74.5t102.5 27.5q78 0 119.5 -57.5t41.5 -158.5z M105 213q0 -92 36 -145.5t104 -53.5q49 0 90.5 26t74 70.5t55 99.5t34.5 113.5t12 112.5q0 93 -35.5 146.5t-103.5 53.5q-49 0 -90.5 -26.5t-74 -71t-55.5 -100t-35 -114t-12 -111.5z" />
<glyph unicode="&#xd4;" horiz-adv-x="584" d="M301 732l-5 13q30 23 54 43.5t48 48.5l32 6q11 -27 26 -50t37 -48l-11 -13q-45 30 -74 75q-50 -45 -107 -75zM543 444q0 -60 -14.5 -123.5t-41.5 -122.5t-65 -106t-85.5 -74.5t-102.5 -27.5q-77 0 -119 58t-42 159q0 59 14.5 122.5t41.5 122.5t65 106t85.5 74.5 t102.5 27.5q78 0 119.5 -57.5t41.5 -158.5zM105 213q0 -92 36 -145.5t104 -53.5q49 0 90.5 26t74 70.5t55 99.5t34.5 113.5t12 112.5q0 93 -35.5 146.5t-103.5 53.5q-49 0 -90.5 -26.5t-74 -71t-55.5 -100t-35 -114t-12 -111.5z" />
<glyph unicode="&#xd5;" horiz-adv-x="584" d="M371 825q20 0 31.5 -10.5t22.5 -21.5t27 -11q17 0 32 14t28 33l13 -5q-11 -26 -33.5 -49.5t-50.5 -23.5q-19 0 -30.5 11t-22 21.5t-27.5 10.5q-16 0 -31.5 -13.5t-28.5 -33.5l-13 5q11 25 33 49t50 24zM543 444q0 -60 -14.5 -123.5t-41.5 -122.5t-65 -106t-85.5 -74.5 t-102.5 -27.5q-77 0 -119 58t-42 159q0 59 14.5 122.5t41.5 122.5t65 106t85.5 74.5t102.5 27.5q78 0 119.5 -57.5t41.5 -158.5zM105 213q0 -92 36 -145.5t104 -53.5q49 0 90.5 26t74 70.5t55 99.5t34.5 113.5t12 112.5q0 93 -35.5 146.5t-103.5 53.5q-49 0 -90.5 -26.5 t-74 -71t-55.5 -100t-35 -114t-12 -111.5z" />
<glyph unicode="&#xd6;" horiz-adv-x="584" d="M350 802q0 -20 -9.5 -36.5t-26.5 -16.5q-10 0 -14.5 6.5t-4.5 16.5q0 20 11 36t27 16q17 0 17 -22zM518 801q0 -18 -9.5 -35t-26.5 -17q-19 0 -19 24q0 18 11 34.5t27 16.5q17 0 17 -23zM543 444q0 -60 -14.5 -123.5t-41.5 -122.5t-65 -106t-85.5 -74.5t-102.5 -27.5 q-77 0 -119 58t-42 159q0 59 14.5 122.5t41.5 122.5t65 106t85.5 74.5t102.5 27.5q78 0 119.5 -57.5t41.5 -158.5zM105 213q0 -92 36 -145.5t104 -53.5q49 0 90.5 26t74 70.5t55 99.5t34.5 113.5t12 112.5q0 93 -35.5 146.5t-103.5 53.5q-49 0 -90.5 -26.5t-74 -71 t-55.5 -100t-35 -114t-12 -111.5z" />
<glyph unicode="&#xd7;" horiz-adv-x="515" d="M375 140l-105 166l-170 -158l-13 19l171 159l-106 168l18 16q19 -28 48 -72.5t60 -93.5l171 159l12 -19l-171 -159q31 -47 59 -91.5t47 -73.5l-3 -6z" />
<glyph unicode="&#xd8;" horiz-adv-x="584" d="M543 444q0 -60 -14.5 -123.5t-41.5 -122.5t-65 -106t-85.5 -74.5t-102.5 -27.5q-49 0 -84 24t-54 68l-98 -102l-14 19l103 107q-14 44 -14 101q0 59 14.5 122.5t41.5 122.5t65 106t85.5 74.5t102.5 27.5q51 0 87 -25.5t55 -73.5l97 102l15 -18l-104 -109q11 -40 11 -92z M105 213q0 -44 8 -79l385 401q-15 48 -47 74.5t-79 26.5q-49 0 -90.5 -26.5t-74 -71t-55.5 -100t-35 -114t-12 -111.5zM511 436q0 39 -7 72l-383 -400q16 -45 47 -69.5t77 -24.5q49 0 90.5 26t74 70.5t55 99.5t34.5 113.5t12 112.5z" />
<glyph unicode="&#xd9;" horiz-adv-x="568" d="M469 748l-11 -17q-31 11 -63 31.5t-61 52.5l35 25q42 -53 100 -92zM242 14q73 0 120 54.5t67 151.5l67 315l17 115l37 10l-92 -430q-25 -116 -83 -178t-143 -62q-67 0 -102.5 37.5t-35.5 102.5q0 14 1.5 28.5t6 39.5t13 66t22.5 107t35 164l18 115l37 10 q-29 -136 -48 -224.5t-30 -142t-17 -82.5t-7.5 -44.5t-1.5 -29.5q0 -57 30.5 -90t88.5 -33z" />
<glyph unicode="&#xda;" horiz-adv-x="568" d="M480 816q-40 -32 -80.5 -52.5t-75.5 -31.5l-4 17q35 19 69.5 43t64.5 49zM242 14q73 0 120 54.5t67 151.5l67 315l17 115l37 10l-92 -430q-25 -116 -83 -178t-143 -62q-67 0 -102.5 37.5t-35.5 102.5q0 14 1.5 28.5t6 39.5t13 66t22.5 107t35 164l18 115l37 10 q-29 -136 -48 -224.5t-30 -142t-17 -82.5t-7.5 -44.5t-1.5 -29.5q0 -57 30.5 -90t88.5 -33z" />
<glyph unicode="&#xdb;" horiz-adv-x="568" d="M296 732l-5 13q30 23 54 43.5t48 48.5l32 6q11 -27 26 -50t37 -48l-11 -13q-45 30 -74 75q-50 -45 -107 -75zM242 14q73 0 120 54.5t67 151.5l67 315l17 115l37 10l-92 -430q-25 -116 -83 -178t-143 -62q-67 0 -102.5 37.5t-35.5 102.5q0 14 1.5 28.5t6 39.5t13 66 t22.5 107t35 164l18 115l37 10q-29 -136 -48 -224.5t-30 -142t-17 -82.5t-7.5 -44.5t-1.5 -29.5q0 -57 30.5 -90t88.5 -33z" />
<glyph unicode="&#xdc;" horiz-adv-x="568" d="M345 802q0 -20 -9.5 -36.5t-26.5 -16.5q-10 0 -14.5 6.5t-4.5 16.5q0 20 11 36t27 16q17 0 17 -22zM513 801q0 -18 -9.5 -35t-26.5 -17q-19 0 -19 24q0 18 11 34.5t27 16.5q17 0 17 -23zM242 14q73 0 120 54.5t67 151.5l67 315l17 115l37 10l-92 -430q-25 -116 -83 -178 t-143 -62q-67 0 -102.5 37.5t-35.5 102.5q0 14 1.5 28.5t6 39.5t13 66t22.5 107t35 164l18 115l37 10q-29 -136 -48 -224.5t-30 -142t-17 -82.5t-7.5 -44.5t-1.5 -29.5q0 -57 30.5 -90t88.5 -33z" />
<glyph unicode="&#xdd;" horiz-adv-x="481" d="M434 816q-40 -32 -80.5 -52.5t-75.5 -31.5l-4 17q35 19 69.5 43t64.5 49zM200 0h-27l45 213l-93 437l27 10l88 -410h1l262 410l23 -10l-280 -438v0z" />
<glyph unicode="&#xde;" horiz-adv-x="463" d="M87 0h-28l114 535l17 115h35l-26 -121l1 3h65q84 0 124.5 -39t40.5 -110q0 -66 -30.5 -123.5t-87.5 -92.5t-138 -35h-59zM254 506h-60l-73 -348h64q71 0 119 32t72 82.5t24 104.5q0 63 -34.5 96t-111.5 33z" />
<glyph unicode="&#xdf;" horiz-adv-x="465" d="M-73 -195l-8 18q54 36 79 72.5t37 91.5l99 468l-48 1l3 15l49 5l3 13q18 82 49.5 126.5t68.5 62t69 17.5q43 0 72.5 -24.5t29.5 -74.5q0 -43 -21 -82t-56.5 -68t-78.5 -42q34 -24 59.5 -60.5t39 -77.5t13.5 -81q0 -53 -23 -97.5t-61 -71t-83 -26.5q-24 0 -49 8.5 t-41 21.5l5 24q14 -12 38.5 -21t48.5 -9q38 0 68 23.5t47.5 62.5t17.5 84q0 46 -16.5 87.5t-43.5 73.5t-57 48l3 18q67 26 112.5 72t45.5 107q0 39 -21.5 60t-57.5 21q-52 0 -89.5 -44t-54.5 -124l-112 -519q-5 -26 -16.5 -56.5t-38.5 -62t-81 -60.5z" />
<glyph unicode="&#xe0;" horiz-adv-x="492" d="M380 587l-13 -5q-17 29 -30 66t-19 83l31 2q3 -37 11 -75t20 -71zM41 124q0 65 24 132.5t67 125t100.5 93t125.5 35.5q26 0 48 -5t41 -15l-42 -173q-12 -49 -27 -125.5t-15 -162.5v-12.5t1 -16.5h-30q0 4 -0.5 8.5t-0.5 21.5q0 45 6 92.5t20 118.5q-28 -73 -66 -130 t-80 -89t-84 -32q-40 0 -64 34.5t-24 99.5zM73 127q0 -48 15.5 -80.5t45.5 -32.5q31 0 67.5 30.5t73 85.5t69 128.5t56.5 159.5q5 22 11 49q-15 9 -35 14t-41 5q-43 0 -82.5 -22.5t-72 -60t-56.5 -84.5t-37.5 -96.5t-13.5 -95.5z" />
<glyph unicode="&#xe1;" horiz-adv-x="492" d="M412 730q-26 -46 -55 -83t-58 -66l-13 6q26 33 50.5 71t42.5 75zM41 124q0 65 24 132.5t67 125t100.5 93t125.5 35.5q26 0 48 -5t41 -15l-42 -173q-12 -49 -27 -125.5t-15 -162.5v-12.5t1 -16.5h-30q0 4 -0.5 8.5t-0.5 21.5q0 45 6 92.5t20 118.5q-28 -73 -66 -130 t-80 -89t-84 -32q-40 0 -64 34.5t-24 99.5zM73 127q0 -48 15.5 -80.5t45.5 -32.5q31 0 67.5 30.5t73 85.5t69 128.5t56.5 159.5q5 22 11 49q-15 9 -35 14t-41 5q-43 0 -82.5 -22.5t-72 -60t-56.5 -84.5t-37.5 -96.5t-13.5 -95.5z" />
<glyph unicode="&#xe2;" horiz-adv-x="492" d="M260 582l-6 9q28 34 50.5 67t44.5 73l29 6q5 -40 13.5 -74.5t21.5 -71.5l-9 -9q-16 24 -27 55t-19 66q-23 -35 -47.5 -66t-50.5 -55zM41 124q0 65 24 132.5t67 125t100.5 93t125.5 35.5q26 0 48 -5t41 -15l-42 -173q-12 -49 -27 -125.5t-15 -162.5v-12.5t1 -16.5h-30 q0 4 -0.5 8.5t-0.5 21.5q0 45 6 92.5t20 118.5q-28 -73 -66 -130t-80 -89t-84 -32q-40 0 -64 34.5t-24 99.5zM73 127q0 -48 15.5 -80.5t45.5 -32.5q31 0 67.5 30.5t73 85.5t69 128.5t56.5 159.5q5 22 11 49q-15 9 -35 14t-41 5q-43 0 -82.5 -22.5t-72 -60t-56.5 -84.5 t-37.5 -96.5t-13.5 -95.5z" />
<glyph unicode="&#xe3;" horiz-adv-x="492" d="M314 703q22 0 36 -12t26.5 -24t29.5 -12t32.5 16t27.5 35l12 -4q-7 -26 -30 -51.5t-52 -25.5q-21 0 -35 12t-26 24t-30 12q-16 0 -32.5 -15.5t-27.5 -35.5l-11 4q6 17 17.5 34.5t27.5 30t35 12.5zM41 124q0 65 24 132.5t67 125t100.5 93t125.5 35.5q26 0 48 -5t41 -15 l-42 -173q-12 -49 -27 -125.5t-15 -162.5v-12.5t1 -16.5h-30q0 4 -0.5 8.5t-0.5 21.5q0 45 6 92.5t20 118.5q-28 -73 -66 -130t-80 -89t-84 -32q-40 0 -64 34.5t-24 99.5zM73 127q0 -48 15.5 -80.5t45.5 -32.5q31 0 67.5 30.5t73 85.5t69 128.5t56.5 159.5q5 22 11 49 q-15 9 -35 14t-41 5q-43 0 -82.5 -22.5t-72 -60t-56.5 -84.5t-37.5 -96.5t-13.5 -95.5z" />
<glyph unicode="&#xe4;" horiz-adv-x="492" d="M305 659q-4 -16 -13 -28.5t-23 -12.5q-12 0 -16.5 10t-1.5 24q4 17 14 29t23 12q11 0 15.5 -10t1.5 -24zM446 659q-3 -16 -12 -28.5t-23 -12.5q-12 0 -16.5 10t-1.5 24q4 17 14 29t23 12q11 0 15.5 -10t0.5 -24zM41 124q0 65 24 132.5t67 125t100.5 93t125.5 35.5 q26 0 48 -5t41 -15l-42 -173q-12 -49 -27 -125.5t-15 -162.5v-12.5t1 -16.5h-30q0 4 -0.5 8.5t-0.5 21.5q0 45 6 92.5t20 118.5q-28 -73 -66 -130t-80 -89t-84 -32q-40 0 -64 34.5t-24 99.5zM73 127q0 -48 15.5 -80.5t45.5 -32.5q31 0 67.5 30.5t73 85.5t69 128.5 t56.5 159.5q5 22 11 49q-15 9 -35 14t-41 5q-43 0 -82.5 -22.5t-72 -60t-56.5 -84.5t-37.5 -96.5t-13.5 -95.5z" />
<glyph unicode="&#xe5;" horiz-adv-x="492" d="M417 682q0 -26 -12 -49t-31.5 -37t-40.5 -14q-22 0 -36.5 16t-14.5 41q0 27 12.5 49.5t32.5 36t41 13.5q23 0 36 -15.5t13 -40.5zM309 645q0 -16 8 -27t21 -11q19 0 36 20.5t17 48.5q0 17 -8 27t-22 10q-19 0 -35.5 -19.5t-16.5 -48.5zM41 124q0 65 24 132.5t67 125 t100.5 93t125.5 35.5q26 0 48 -5t41 -15l-42 -173q-12 -49 -27 -125.5t-15 -162.5v-12.5t1 -16.5h-30q0 4 -0.5 8.5t-0.5 21.5q0 45 6 92.5t20 118.5q-28 -73 -66 -130t-80 -89t-84 -32q-40 0 -64 34.5t-24 99.5zM73 127q0 -48 15.5 -80.5t45.5 -32.5q31 0 67.5 30.5 t73 85.5t69 128.5t56.5 159.5q5 22 11 49q-15 9 -35 14t-41 5q-43 0 -82.5 -22.5t-72 -60t-56.5 -84.5t-37.5 -96.5t-13.5 -95.5z" />
<glyph unicode="&#xe6;" horiz-adv-x="710" d="M41 124q0 65 24 132.5t67 125t101.5 93t127.5 35.5q64 0 124 -33q23 16 47 24.5t50 8.5q41 0 67.5 -22t26.5 -65q0 -44 -30.5 -85.5t-87.5 -70.5t-136 -38q-26 -3 -49 -2q-7 -36 -7 -68q0 -64 25 -104.5t74 -40.5q42 0 83 30t72 70l14 -8q-33 -51 -82 -83.5t-98 -32.5 q-55 0 -87.5 44t-32.5 123q0 14 1 28q-42 -87 -97 -141t-109 -54q-40 0 -64 34.5t-24 99.5zM73 127q0 -47 15.5 -80t47.5 -33q33 0 73 36.5t79.5 101.5t71.5 149q16 44 40 83t54 67q-24 15 -55 25t-61 10q-44 0 -84 -22.5t-73 -60t-57.5 -84.5t-37.5 -96.5t-13 -95.5z M570 486q-33 0 -63 -20.5t-56 -55t-45 -77.5t-30 -88q76 4 127.5 22t82.5 43.5t44.5 53t13.5 51.5q0 30 -19.5 50.5t-54.5 20.5z" />
<glyph unicode="&#xe7;" horiz-adv-x="420" d="M206 -110q3 14 -10.5 24.5t-48.5 14.5l35 62q-7 -1 -13 -1q-58 0 -89.5 40.5t-31.5 120.5q0 65 19.5 128.5t54.5 116t80.5 83.5t96.5 31q32 0 55 -11.5t39 -27.5l-14 -32q-16 20 -37.5 33.5t-48.5 13.5q-41 0 -79 -29t-68.5 -77.5t-48 -107.5t-17.5 -119q0 -63 23 -101 t74 -38q44 0 85.5 30t72.5 70l14 -8q-26 -41 -63.5 -70.5t-76.5 -39.5l-28 -50q67 -13 58 -53q-4 -21 -24.5 -35.5t-48 -22.5t-55.5 -9l2 18q41 5 65 17t28 29z" />
<glyph unicode="&#xe8;" horiz-adv-x="425" d="M330 587l-13 -5q-17 29 -30 66t-19 83l31 2q3 -37 11 -75t20 -71zM335 114l14 -8q-33 -51 -82 -83.5t-98 -32.5q-55 0 -87.5 44t-32.5 123q0 62 19.5 124.5t54 114t79.5 83t95 31.5q41 0 67.5 -22t26.5 -65q0 -44 -30.5 -85.5t-87.5 -71t-136 -37.5q-26 -3 -49 -2 q-7 -36 -7 -68q0 -64 25 -104.5t74 -40.5q42 0 83 30t72 70zM285 486q-33 0 -63 -20.5t-56 -55t-45 -77.5t-30 -88q76 4 127.5 22t82.5 43.5t44.5 53t13.5 51.5q0 30 -19.5 50.5t-54.5 20.5z" />
<glyph unicode="&#xe9;" horiz-adv-x="425" d="M362 730q-26 -46 -55 -83t-58 -66l-13 6q26 33 50.5 71t42.5 75zM335 114l14 -8q-33 -51 -82 -83.5t-98 -32.5q-55 0 -87.5 44t-32.5 123q0 62 19.5 124.5t54 114t79.5 83t95 31.5q41 0 67.5 -22t26.5 -65q0 -44 -30.5 -85.5t-87.5 -71t-136 -37.5q-26 -3 -49 -2 q-7 -36 -7 -68q0 -64 25 -104.5t74 -40.5q42 0 83 30t72 70zM285 486q-33 0 -63 -20.5t-56 -55t-45 -77.5t-30 -88q76 4 127.5 22t82.5 43.5t44.5 53t13.5 51.5q0 30 -19.5 50.5t-54.5 20.5z" />
<glyph unicode="&#xea;" horiz-adv-x="425" d="M210 582l-6 9q28 34 50.5 67t44.5 73l29 6q5 -40 13.5 -74.5t21.5 -71.5l-9 -9q-16 24 -27 55t-19 66q-23 -35 -47.5 -66t-50.5 -55zM335 114l14 -8q-33 -51 -82 -83.5t-98 -32.5q-55 0 -87.5 44t-32.5 123q0 62 19.5 124.5t54 114t79.5 83t95 31.5q41 0 67.5 -22 t26.5 -65q0 -44 -30.5 -85.5t-87.5 -71t-136 -37.5q-26 -3 -49 -2q-7 -36 -7 -68q0 -64 25 -104.5t74 -40.5q42 0 83 30t72 70zM285 486q-33 0 -63 -20.5t-56 -55t-45 -77.5t-30 -88q76 4 127.5 22t82.5 43.5t44.5 53t13.5 51.5q0 30 -19.5 50.5t-54.5 20.5z" />
<glyph unicode="&#xeb;" horiz-adv-x="425" d="M255 659q-4 -16 -13 -28.5t-23 -12.5q-12 0 -16.5 10t-1.5 24q4 17 14 29t23 12q11 0 15.5 -10t1.5 -24zM396 659q-3 -16 -12 -28.5t-23 -12.5q-12 0 -16.5 10t-1.5 24q4 17 14 29t23 12q11 0 15.5 -10t0.5 -24zM335 114l14 -8q-33 -51 -82 -83.5t-98 -32.5 q-55 0 -87.5 44t-32.5 123q0 62 19.5 124.5t54 114t79.5 83t95 31.5q41 0 67.5 -22t26.5 -65q0 -44 -30.5 -85.5t-87.5 -71t-136 -37.5q-26 -3 -49 -2q-7 -36 -7 -68q0 -64 25 -104.5t74 -40.5q42 0 83 30t72 70zM285 486q-33 0 -63 -20.5t-56 -55t-45 -77.5t-30 -88 q76 4 127.5 22t82.5 43.5t44.5 53t13.5 51.5q0 30 -19.5 50.5t-54.5 20.5z" />
<glyph unicode="&#xec;" horiz-adv-x="220" d="M208 587l-13 -5q-17 29 -30 66t-19 83l31 2q3 -37 11 -75t20 -71zM173 510q-21 -99 -35.5 -168.5t-23.5 -117t-14 -80.5t-7 -59.5t-2 -55.5v-12.5t1 -16.5h-30q0 2 -0.5 10t-0.5 13q0 40 4 80.5t12.5 90t22.5 114.5l16 74l17 118z" />
<glyph unicode="&#xed;" horiz-adv-x="220" d="M240 730q-26 -46 -55 -83t-58 -66l-13 6q26 33 50.5 71t42.5 75zM173 510q-21 -99 -35.5 -168.5t-23.5 -117t-14 -80.5t-7 -59.5t-2 -55.5v-12.5t1 -16.5h-30q0 2 -0.5 10t-0.5 13q0 40 4 80.5t12.5 90t22.5 114.5l16 74l17 118z" />
<glyph unicode="&#xee;" horiz-adv-x="220" d="M116 582l-10 7q24 35 43.5 68t41.5 74l33 6q5 -40 10.5 -75t14.5 -73l-12 -7q-19 49 -35 120q-46 -68 -86 -120zM173 510q-21 -99 -35.5 -168.5t-23.5 -117t-14 -80.5t-7 -59.5t-2 -55.5v-12.5t1 -16.5h-30q0 2 -0.5 10t-0.5 13q0 40 4 80.5t12.5 90t22.5 114.5l16 74 l17 118z" />
<glyph unicode="&#xef;" horiz-adv-x="220" d="M159 662q-3 -16 -12 -28.5t-23 -12.5q-12 0 -16.5 10t-1.5 24q4 17 13.5 29t22.5 12q12 0 16 -10t1 -24zM250 662q-4 -16 -13 -28.5t-23 -12.5q-12 0 -16.5 10t-0.5 24q3 17 13 29t23 12q11 0 15.5 -10t1.5 -24zM173 510q-21 -99 -35.5 -168.5t-23.5 -117t-14 -80.5 t-7 -59.5t-2 -55.5v-12.5t1 -16.5h-30q0 2 -0.5 10t-0.5 13q0 40 4 80.5t12.5 90t22.5 114.5l16 74l17 118z" />
<glyph unicode="&#xf0;" horiz-adv-x="465" d="M405 354q0 -65 -15.5 -129.5t-45.5 -117.5t-74 -85t-100 -32q-61 0 -92.5 40t-31.5 115q0 57 17 114t48 105t73.5 77t92.5 29q69 0 98 -58q-7 47 -24 92t-45 83l-124 -63l-5 21l116 59q-19 23 -43 41.5t-52 31.5l14 18q61 -23 107 -77l129 66l8 -21l-124 -63 q35 -47 54 -109.5t19 -136.5zM75 153q0 -69 27.5 -104t76.5 -35q45 0 81 26t60.5 68.5t37.5 93.5t13 101q0 68 -25.5 105.5t-76.5 37.5q-45 0 -81 -27t-61 -71t-38.5 -95.5t-13.5 -99.5z" />
<glyph unicode="&#xf1;" horiz-adv-x="483" d="M278 703q22 0 36 -12t26.5 -24t29.5 -12t32.5 16t27.5 35l12 -4q-7 -26 -30 -51.5t-52 -25.5q-21 0 -35 12t-26 24t-30 12q-16 0 -32.5 -15.5t-27.5 -35.5l-11 4q6 17 17.5 34.5t27.5 30t35 12.5zM92 0h-30q0 2 -0.5 10t-0.5 13q0 34 2 63.5t7.5 66t16.5 91.5t29 140 l17 116l40 10q-15 -72 -27 -127.5t-20 -98.5q27 66 62.5 117t75.5 80t81 29q29 0 53 -19.5t24 -73.5q0 -45 -14.5 -105t-29 -133t-14.5 -158q0 -5 0.5 -12t0.5 -9h-30q0 4 -0.5 9.5t-0.5 19.5q0 53 9 111t20 112.5t20 98t9 67.5q0 34 -17.5 51t-39.5 17q-28 0 -61 -26 t-65 -71t-59 -104t-43 -124.5t-16 -132.5v-12t1 -16z" />
<glyph unicode="&#xf2;" horiz-adv-x="471" d="M370 587l-13 -5q-17 29 -30 66t-19 83l31 2q3 -37 11 -75t20 -71zM425 356q0 -59 -19.5 -122t-55 -117.5t-83 -88.5t-102.5 -34t-87.5 36.5t-32.5 108.5q0 61 20.5 125t56 119t83 89t101.5 34q60 0 89.5 -41t29.5 -109zM79 148q0 -68 28 -100t70 -32q44 0 83 31t68.5 81 t46.5 108.5t17 113.5q0 61 -24 97.5t-71 36.5q-43 0 -82.5 -31t-70 -81.5t-48 -109.5t-17.5 -114z" />
<glyph unicode="&#xf3;" horiz-adv-x="471" d="M402 730q-26 -46 -55 -83t-58 -66l-13 6q26 33 50.5 71t42.5 75zM425 356q0 -59 -19.5 -122t-55 -117.5t-83 -88.5t-102.5 -34t-87.5 36.5t-32.5 108.5q0 61 20.5 125t56 119t83 89t101.5 34q60 0 89.5 -41t29.5 -109zM79 148q0 -68 28 -100t70 -32q44 0 83 31t68.5 81 t46.5 108.5t17 113.5q0 61 -24 97.5t-71 36.5q-43 0 -82.5 -31t-70 -81.5t-48 -109.5t-17.5 -114z" />
<glyph unicode="&#xf4;" horiz-adv-x="471" d="M250 582l-6 9q28 34 50.5 67t44.5 73l29 6q5 -40 13.5 -74.5t21.5 -71.5l-9 -9q-16 24 -27 55t-19 66q-23 -35 -47.5 -66t-50.5 -55zM425 356q0 -59 -19.5 -122t-55 -117.5t-83 -88.5t-102.5 -34t-87.5 36.5t-32.5 108.5q0 61 20.5 125t56 119t83 89t101.5 34 q60 0 89.5 -41t29.5 -109zM79 148q0 -68 28 -100t70 -32q44 0 83 31t68.5 81t46.5 108.5t17 113.5q0 61 -24 97.5t-71 36.5q-43 0 -82.5 -31t-70 -81.5t-48 -109.5t-17.5 -114z" />
<glyph unicode="&#xf5;" horiz-adv-x="471" d="M304 703q22 0 36 -12t26.5 -24t29.5 -12t32.5 16t27.5 35l12 -4q-7 -26 -30 -51.5t-52 -25.5q-21 0 -35 12t-26 24t-30 12q-16 0 -32.5 -15.5t-27.5 -35.5l-11 4q6 17 17.5 34.5t27.5 30t35 12.5zM425 356q0 -59 -19.5 -122t-55 -117.5t-83 -88.5t-102.5 -34t-87.5 36.5 t-32.5 108.5q0 61 20.5 125t56 119t83 89t101.5 34q60 0 89.5 -41t29.5 -109zM79 148q0 -68 28 -100t70 -32q44 0 83 31t68.5 81t46.5 108.5t17 113.5q0 61 -24 97.5t-71 36.5q-43 0 -82.5 -31t-70 -81.5t-48 -109.5t-17.5 -114z" />
<glyph unicode="&#xf6;" horiz-adv-x="471" d="M295 659q-4 -16 -13 -28.5t-23 -12.5q-12 0 -16.5 10t-1.5 24q4 17 14 29t23 12q11 0 15.5 -10t1.5 -24zM436 659q-3 -16 -12 -28.5t-23 -12.5q-12 0 -16.5 10t-1.5 24q4 17 14 29t23 12q11 0 15.5 -10t0.5 -24zM425 356q0 -59 -19.5 -122t-55 -117.5t-83 -88.5 t-102.5 -34t-87.5 36.5t-32.5 108.5q0 61 20.5 125t56 119t83 89t101.5 34q60 0 89.5 -41t29.5 -109zM79 148q0 -68 28 -100t70 -32q44 0 83 31t68.5 81t46.5 108.5t17 113.5q0 61 -24 97.5t-71 36.5q-43 0 -82.5 -31t-70 -81.5t-48 -109.5t-17.5 -114z" />
<glyph unicode="&#xf7;" horiz-adv-x="531" d="M345 505q0 -17 -10 -37t-30 -20q-10 0 -15.5 7.5t-5.5 18.5q0 20 12.5 38t28.5 18q20 0 20 -25zM443 312h-330l5 23q29 1 72.5 1.5t92 1t93 0.5h74.5zM276 177q0 -17 -10.5 -36.5t-29.5 -19.5q-22 0 -22 27q0 19 12.5 37t29.5 18q20 0 20 -26z" />
<glyph unicode="&#xf8;" horiz-adv-x="471" d="M425 356q0 -59 -19.5 -122t-55 -117.5t-83 -88.5t-102.5 -34q-78 0 -106 67l-55 -54l-12 16l60 59q-7 25 -7 57q0 61 20.5 125t56 119t83 89t101.5 34q40 0 66 -18.5t40 -51.5l57 57l13 -16l-64 -62q7 -27 7 -59zM79 148q0 -20 3 -37l303 299q-10 35 -32 54.5t-56 19.5 q-43 0 -82.5 -31t-70 -81.5t-48 -109.5t-17.5 -114zM392 350q0 19 -2 36l-303 -298q11 -37 35 -54.5t55 -17.5q44 0 83 31t68.5 81t46.5 108.5t17 113.5z" />
<glyph unicode="&#xf9;" d="M351 587l-13 -5q-17 29 -30 66t-19 83l31 2q3 -37 11 -75t20 -71zM358 0h-30q0 4 -0.5 9t-0.5 21q0 12 0.5 23.5t3 30t8 50.5t14.5 84q-25 -65 -59.5 -116.5t-75 -81.5t-83.5 -30q-31 0 -55 19.5t-24 71.5q0 13 2.5 29t8.5 46.5t18 85t31 143.5l17 115l40 10 q-40 -188 -63 -289.5t-23 -136.5q0 -31 16 -50.5t43 -19.5q36 0 73 34t70 88.5t57.5 119.5t35.5 126q5 26 6.5 34t2.5 12.5t2 17.5q0 1 1.5 13.5t3 26t1.5 14.5l40 10q-21 -99 -35.5 -168.5t-23.5 -117t-14 -80.5t-7 -59.5t-2 -55.5v-12.5t1 -16.5z" />
<glyph unicode="&#xfa;" d="M383 730q-26 -46 -55 -83t-58 -66l-13 6q26 33 50.5 71t42.5 75zM358 0h-30q0 4 -0.5 9t-0.5 21q0 12 0.5 23.5t3 30t8 50.5t14.5 84q-25 -65 -59.5 -116.5t-75 -81.5t-83.5 -30q-31 0 -55 19.5t-24 71.5q0 13 2.5 29t8.5 46.5t18 85t31 143.5l17 115l40 10 q-40 -188 -63 -289.5t-23 -136.5q0 -31 16 -50.5t43 -19.5q36 0 73 34t70 88.5t57.5 119.5t35.5 126q5 26 6.5 34t2.5 12.5t2 17.5q0 1 1.5 13.5t3 26t1.5 14.5l40 10q-21 -99 -35.5 -168.5t-23.5 -117t-14 -80.5t-7 -59.5t-2 -55.5v-12.5t1 -16.5z" />
<glyph unicode="&#xfb;" d="M231 582l-6 9q28 34 50.5 67t44.5 73l29 6q5 -40 13.5 -74.5t21.5 -71.5l-9 -9q-16 24 -27 55t-19 66q-23 -35 -47.5 -66t-50.5 -55zM358 0h-30q0 4 -0.5 9t-0.5 21q0 12 0.5 23.5t3 30t8 50.5t14.5 84q-25 -65 -59.5 -116.5t-75 -81.5t-83.5 -30q-31 0 -55 19.5 t-24 71.5q0 13 2.5 29t8.5 46.5t18 85t31 143.5l17 115l40 10q-40 -188 -63 -289.5t-23 -136.5q0 -31 16 -50.5t43 -19.5q36 0 73 34t70 88.5t57.5 119.5t35.5 126q5 26 6.5 34t2.5 12.5t2 17.5q0 1 1.5 13.5t3 26t1.5 14.5l40 10q-21 -99 -35.5 -168.5t-23.5 -117 t-14 -80.5t-7 -59.5t-2 -55.5v-12.5t1 -16.5z" />
<glyph unicode="&#xfc;" d="M276 659q-4 -16 -13 -28.5t-23 -12.5q-12 0 -16.5 10t-1.5 24q4 17 14 29t23 12q11 0 15.5 -10t1.5 -24zM417 659q-3 -16 -12 -28.5t-23 -12.5q-12 0 -16.5 10t-1.5 24q4 17 14 29t23 12q11 0 15.5 -10t0.5 -24zM358 0h-30q0 4 -0.5 9t-0.5 21q0 12 0.5 23.5t3 30t8 50.5 t14.5 84q-25 -65 -59.5 -116.5t-75 -81.5t-83.5 -30q-31 0 -55 19.5t-24 71.5q0 13 2.5 29t8.5 46.5t18 85t31 143.5l17 115l40 10q-40 -188 -63 -289.5t-23 -136.5q0 -31 16 -50.5t43 -19.5q36 0 73 34t70 88.5t57.5 119.5t35.5 126q5 26 6.5 34t2.5 12.5t2 17.5 q0 1 1.5 13.5t3 26t1.5 14.5l40 10q-21 -99 -35.5 -168.5t-23.5 -117t-14 -80.5t-7 -59.5t-2 -55.5v-12.5t1 -16.5z" />
<glyph unicode="&#xfd;" horiz-adv-x="395" d="M315 730q-26 -46 -55 -83t-58 -66l-13 6q26 33 50.5 71t42.5 75zM148 -10q-37 -48 -81.5 -90.5t-88 -68.5t-79.5 -26q-16 0 -27 6.5t-11 16.5q0 11 8 19q6 -2 15.5 -4t18.5 -2q29 0 69.5 22.5t82.5 59.5t74 80l-12 1q0 65 -2.5 130t-6.5 130q-4 64 -11 124t-17 112l29 10 q10 -55 17 -116.5t11 -124.5q9 -126 9 -244h1q38 59 73 122t62 126.5t43 122t16 106.5q9 8 19 8q14 0 14 -18q0 -28 -16 -84.5t-45.5 -128t-71 -147t-93.5 -142.5z" />
<glyph unicode="&#xfe;" horiz-adv-x="485" d="M173 510l-6 -26q-18 -86 -31 -149t-23 -110q28 82 67.5 146.5t85 101.5t90.5 37q40 0 64 -34.5t24 -99.5q0 -64 -24 -132t-67 -125.5t-100.5 -93t-125.5 -35.5q-33 0 -60 9q-9 -48 -12 -83.5t-3 -71.5v-12.5t1 -16.5h-30q0 2 -0.5 10t-0.5 13q0 36 2 65t6 59t11.5 68 t19.5 93l94 444l17 118l40 10q-11 -52 -21 -98.5t-18 -86.5v0zM351 486q-33 0 -72.5 -35t-78.5 -97t-72 -144t-55 -177q16 -8 36 -13.5t41 -5.5q43 0 82.5 22.5t72 60t56.5 84.5t37.5 96.5t13.5 95.5q0 48 -15.5 80.5t-45.5 32.5z" />
<glyph unicode="&#xff;" horiz-adv-x="395" d="M208 659q-4 -16 -13 -28.5t-23 -12.5q-12 0 -16.5 10t-1.5 24q4 17 14 29t23 12q11 0 15.5 -10t1.5 -24zM349 659q-3 -16 -12 -28.5t-23 -12.5q-12 0 -16.5 10t-1.5 24q4 17 14 29t23 12q11 0 15.5 -10t0.5 -24zM148 -10q-37 -48 -81.5 -90.5t-88 -68.5t-79.5 -26 q-16 0 -27 6.5t-11 16.5q0 11 8 19q6 -2 15.5 -4t18.5 -2q29 0 69.5 22.5t82.5 59.5t74 80l-12 1q0 65 -2.5 130t-6.5 130q-4 64 -11 124t-17 112l29 10q10 -55 17 -116.5t11 -124.5q9 -126 9 -244h1q38 59 73 122t62 126.5t43 122t16 106.5q9 8 19 8q14 0 14 -18 q0 -28 -16 -84.5t-45.5 -128t-71 -147t-93.5 -142.5z" />
<glyph unicode="&#x100;" horiz-adv-x="501" d="M267 770l7 33h190l-7 -33h-190zM15 0h-28l267 532l59 118l46 10l49 -660h-28l-14 182h-259zM331 628l-209 -416h242l-32 416h-1z" />
<glyph unicode="&#x101;" horiz-adv-x="492" d="M247 646l6 26h200l-6 -26h-200zM41 124q0 65 24 132.5t67 125t100.5 93t125.5 35.5q26 0 48 -5t41 -15l-42 -173q-12 -49 -27 -125.5t-15 -162.5v-12.5t1 -16.5h-30q0 4 -0.5 8.5t-0.5 21.5q0 45 6 92.5t20 118.5q-28 -73 -66 -130t-80 -89t-84 -32q-40 0 -64 34.5 t-24 99.5zM73 127q0 -48 15.5 -80.5t45.5 -32.5q31 0 67.5 30.5t73 85.5t69 128.5t56.5 159.5q5 22 11 49q-15 9 -35 14t-41 5q-43 0 -82.5 -22.5t-72 -60t-56.5 -84.5t-37.5 -96.5t-13.5 -95.5z" />
<glyph unicode="&#x102;" horiz-adv-x="501" d="M345 737q-36 0 -55.5 30.5t-15.5 67.5l14 4q5 -31 21.5 -49.5t42.5 -18.5t49.5 20t42.5 50l15 4q-13 -44 -46 -76t-68 -32zM15 0h-28l267 532l59 118l46 10l49 -660h-28l-14 182h-259zM331 628l-209 -416h242l-32 416h-1z" />
<glyph unicode="&#x103;" horiz-adv-x="492" d="M317 588q-33 0 -50 34.5t-5 100.5l17 4q-5 -60 7.5 -85.5t40.5 -25.5q56 0 96 113l15 4q-16 -67 -49 -106t-72 -39zM41 124q0 65 24 132.5t67 125t100.5 93t125.5 35.5q26 0 48 -5t41 -15l-42 -173q-12 -49 -27 -125.5t-15 -162.5v-12.5t1 -16.5h-30q0 4 -0.5 8.5 t-0.5 21.5q0 45 6 92.5t20 118.5q-28 -73 -66 -130t-80 -89t-84 -32q-40 0 -64 34.5t-24 99.5zM73 127q0 -48 15.5 -80.5t45.5 -32.5q31 0 67.5 30.5t73 85.5t69 128.5t56.5 159.5q5 22 11 49q-15 9 -35 14t-41 5q-43 0 -82.5 -22.5t-72 -60t-56.5 -84.5t-37.5 -96.5 t-13.5 -95.5z" />
<glyph unicode="&#x104;" horiz-adv-x="501" d="M15 0h-28l267 532l59 118l46 10l49 -660q-35 -12 -65 -32.5t-48 -44t-18 -45.5q0 -16 11 -23.5t29 -7.5q14 0 27.5 4t26.5 11l4 -16q-13 -9 -32.5 -15.5t-41.5 -6.5q-27 0 -43 11.5t-16 32.5q0 27 20.5 54t52.5 49t65 35l-14 176h-259zM331 628l-209 -416h242l-32 416h-1 z" />
<glyph unicode="&#x105;" horiz-adv-x="492" d="M41 124q0 65 24 132.5t67 125t100.5 93t125.5 35.5q26 0 48 -5t41 -15l-42 -173q-12 -49 -27 -125.5t-15 -162.5v-12.5t1 -16.5q-35 -12 -65 -32.5t-48 -44t-18 -45.5q0 -16 11 -23.5t29 -7.5q14 0 27.5 4t26.5 11l4 -16q-13 -9 -32.5 -15.5t-41.5 -6.5q-27 0 -43 11.5 t-16 32.5q0 27 20.5 53.5t51.5 48.5t64 36q-1 3 -1 8v16q0 45 6 92.5t20 118.5q-28 -73 -66 -130t-80 -89t-84 -32q-40 0 -64 34.5t-24 99.5zM73 127q0 -48 15.5 -80.5t45.5 -32.5q31 0 67.5 30.5t73 85.5t69 128.5t56.5 159.5q5 22 11 49q-15 9 -35 14t-41 5 q-43 0 -82.5 -22.5t-72 -60t-56.5 -84.5t-37.5 -96.5t-13.5 -95.5z" />
<glyph unicode="&#x106;" horiz-adv-x="468" d="M481 816q-40 -32 -80.5 -52.5t-75.5 -31.5l-4 17q35 19 69.5 43t64.5 49zM381 53v-24q-25 -19 -60.5 -29t-71.5 -10q-86 0 -131 57.5t-45 161.5q0 60 15 123.5t42.5 122t67.5 105t90 73.5t108 27q28 0 59 -6.5t55 -19.5l-17 -34q-21 17 -50.5 26.5t-59.5 9.5 q-52 0 -95 -25.5t-77 -69.5t-57.5 -98.5t-35.5 -112.5t-12 -113q0 -96 38.5 -149t112.5 -53q35 0 67.5 11t56.5 27z" />
<glyph unicode="&#x107;" horiz-adv-x="420" d="M358 730q-26 -46 -55 -83t-58 -66l-13 6q26 33 50.5 71t42.5 75zM335 114l14 -8q-33 -51 -82 -83.5t-98 -32.5q-58 0 -89.5 40.5t-31.5 120.5q0 65 19.5 128.5t54.5 116t80.5 83.5t96.5 31q32 0 55 -11.5t39 -27.5l-14 -32q-16 20 -37.5 33.5t-48.5 13.5q-41 0 -79 -29 t-68.5 -77.5t-48 -107.5t-17.5 -119q0 -63 23 -101t74 -38q44 0 85.5 30t72.5 70z" />
<glyph unicode="&#x108;" horiz-adv-x="468" d="M297 732l-5 13q30 23 54 43.5t48 48.5l32 6q11 -27 26 -50t37 -48l-11 -13q-45 30 -74 75q-50 -45 -107 -75zM381 53v-24q-25 -19 -60.5 -29t-71.5 -10q-86 0 -131 57.5t-45 161.5q0 60 15 123.5t42.5 122t67.5 105t90 73.5t108 27q28 0 59 -6.5t55 -19.5l-17 -34 q-21 17 -50.5 26.5t-59.5 9.5q-52 0 -95 -25.5t-77 -69.5t-57.5 -98.5t-35.5 -112.5t-12 -113q0 -96 38.5 -149t112.5 -53q35 0 67.5 11t56.5 27z" />
<glyph unicode="&#x109;" horiz-adv-x="420" d="M206 582l-6 9q28 34 50.5 67t44.5 73l29 6q5 -40 13.5 -74.5t21.5 -71.5l-9 -9q-16 24 -27 55t-19 66q-23 -35 -47.5 -66t-50.5 -55zM335 114l14 -8q-33 -51 -82 -83.5t-98 -32.5q-58 0 -89.5 40.5t-31.5 120.5q0 65 19.5 128.5t54.5 116t80.5 83.5t96.5 31 q32 0 55 -11.5t39 -27.5l-14 -32q-16 20 -37.5 33.5t-48.5 13.5q-41 0 -79 -29t-68.5 -77.5t-48 -107.5t-17.5 -119q0 -63 23 -101t74 -38q44 0 85.5 30t72.5 70z" />
<glyph unicode="&#x10a;" horiz-adv-x="468" d="M431 803q0 -17 -10.5 -36t-27.5 -19q-20 0 -20 25q0 20 12 37.5t27 17.5q19 0 19 -25zM381 53v-24q-25 -19 -60.5 -29t-71.5 -10q-86 0 -131 57.5t-45 161.5q0 60 15 123.5t42.5 122t67.5 105t90 73.5t108 27q28 0 59 -6.5t55 -19.5l-17 -34q-21 17 -50.5 26.5t-59.5 9.5 q-52 0 -95 -25.5t-77 -69.5t-57.5 -98.5t-35.5 -112.5t-12 -113q0 -96 38.5 -149t112.5 -53q35 0 67.5 11t56.5 27z" />
<glyph unicode="&#x10b;" horiz-adv-x="420" d="M324 670q0 -17 -10.5 -36t-27.5 -19q-20 0 -20 25q0 20 12 37.5t27 17.5q19 0 19 -25zM335 114l14 -8q-33 -51 -82 -83.5t-98 -32.5q-58 0 -89.5 40.5t-31.5 120.5q0 65 19.5 128.5t54.5 116t80.5 83.5t96.5 31q32 0 55 -11.5t39 -27.5l-14 -32q-16 20 -37.5 33.5 t-48.5 13.5q-41 0 -79 -29t-68.5 -77.5t-48 -107.5t-17.5 -119q0 -63 23 -101t74 -38q44 0 85.5 30t72.5 70z" />
<glyph unicode="&#x10c;" horiz-adv-x="468" d="M496 842l5 -13q-30 -22 -54 -43t-48 -49l-32 -6q-11 27 -26 50t-37 48l11 13q45 -30 74 -75q50 45 107 75zM381 53v-24q-25 -19 -60.5 -29t-71.5 -10q-86 0 -131 57.5t-45 161.5q0 60 15 123.5t42.5 122t67.5 105t90 73.5t108 27q28 0 59 -6.5t55 -19.5l-17 -34 q-21 17 -50.5 26.5t-59.5 9.5q-52 0 -95 -25.5t-77 -69.5t-57.5 -98.5t-35.5 -112.5t-12 -113q0 -96 38.5 -149t112.5 -53q35 0 67.5 11t56.5 27z" />
<glyph unicode="&#x10d;" horiz-adv-x="420" d="M372 749l6 -9q-28 -34 -50.5 -66.5t-44.5 -73.5l-29 -6q-4 40 -13 74.5t-22 71.5l9 9q16 -24 27 -55t19 -66q23 35 47.5 66t50.5 55zM335 114l14 -8q-33 -51 -82 -83.5t-98 -32.5q-58 0 -89.5 40.5t-31.5 120.5q0 65 19.5 128.5t54.5 116t80.5 83.5t96.5 31 q32 0 55 -11.5t39 -27.5l-14 -32q-16 20 -37.5 33.5t-48.5 13.5q-41 0 -79 -29t-68.5 -77.5t-48 -107.5t-17.5 -119q0 -63 23 -101t74 -38q44 0 85.5 30t72.5 70z" />
<glyph unicode="&#x10e;" horiz-adv-x="565" d="M475 842l5 -13q-30 -22 -54 -43t-48 -49l-32 -6q-11 27 -26 50t-37 48l11 13q45 -30 74 -75q50 45 107 75zM173 535l17 115h96q19 0 48 -2t61 -13t60 -35.5t46 -69t18 -115.5q0 -73 -22.5 -146.5t-67 -134.5t-112 -97.5t-157.5 -36.5h-101zM275 624h-56l-126 -598h77 q83 0 143 34t99 90t57.5 122.5t18.5 132.5t-16 107.5t-41.5 64.5t-54.5 33t-56 12t-45 2z" />
<glyph unicode="&#x10f;" horiz-adv-x="493" d="M640 699q-19 -53 -44 -96t-48 -76l-14 8q19 38 37.5 81.5t32.5 84.5zM41 124q0 65 24 132.5t67 125t100.5 93t125.5 35.5q33 0 61 -9q4 16 7.5 33.5t7.5 35.5l17 115l40 10q-29 -137 -50 -234t-35 -164t-22 -114t-11.5 -82.5t-3.5 -71.5v-12.5t1 -16.5h-30q0 2 -0.5 10 t-0.5 13q0 28 1 52t4 49.5t9.5 60t16.5 84.5q-29 -81 -68 -144t-84 -99t-89 -36q-40 0 -64 34.5t-24 99.5zM73 127q0 -48 15.5 -80.5t45.5 -32.5q33 0 72.5 35t78.5 97t72 144t55 177q-16 8 -36 13.5t-41 5.5q-43 0 -82.5 -22.5t-72 -60t-56.5 -84.5t-37.5 -96.5 t-13.5 -95.5z" />
<glyph unicode="&#x110;" horiz-adv-x="565" d="M173 535l17 115h96q19 0 48 -2t61 -13t60 -35.5t46 -69t18 -115.5q0 -73 -22.5 -146.5t-67 -134.5t-112 -97.5t-157.5 -36.5h-101l67 314h-64l4 22h65zM371 314h-217l-61 -288h77q83 0 143 34t99 90t57.5 122.5t18.5 132.5t-16 107.5t-41.5 64.5t-54.5 33t-56 12t-45 2 h-56l-61 -288h218z" />
<glyph unicode="&#x111;" horiz-adv-x="493" d="M41 124q0 65 24 132.5t67 125t100.5 93t125.5 35.5q33 0 61 -9q4 16 7.5 33.5t7.5 35.5v1h-203l4 22h202l14 92l40 10q-6 -27 -11.5 -52.5t-10.5 -49.5h76l-5 -22h-75q-23 -106 -39.5 -182t-27.5 -130t-17 -94t-9 -72t-3 -64v-12.5t1 -16.5h-30q0 2 -0.5 10t-0.5 13 q0 28 1 52t4 49.5t9.5 60t16.5 84.5q-29 -81 -68 -144t-84 -99t-89 -36q-40 0 -64 34.5t-24 99.5zM73 127q0 -48 15.5 -80.5t45.5 -32.5q33 0 72.5 35t78.5 97t72 144t55 177q-16 8 -36 13.5t-41 5.5q-43 0 -82.5 -22.5t-72 -60t-56.5 -84.5t-37.5 -96.5t-13.5 -95.5z" />
<glyph unicode="&#x112;" horiz-adv-x="439" d="M264 770l7 33h190l-7 -33h-190zM331 0h-272l114 535l17 115h283l-11 -31l-243 5l-61 -289l172 3l-11 -31l-166 2l-60 -283l249 5z" />
<glyph unicode="&#x113;" horiz-adv-x="425" d="M197 646l6 26h200l-6 -26h-200zM335 114l14 -8q-33 -51 -82 -83.5t-98 -32.5q-55 0 -87.5 44t-32.5 123q0 62 19.5 124.5t54 114t79.5 83t95 31.5q41 0 67.5 -22t26.5 -65q0 -44 -30.5 -85.5t-87.5 -71t-136 -37.5q-26 -3 -49 -2q-7 -36 -7 -68q0 -64 25 -104.5t74 -40.5 q42 0 83 30t72 70zM285 486q-33 0 -63 -20.5t-56 -55t-45 -77.5t-30 -88q76 4 127.5 22t82.5 43.5t44.5 53t13.5 51.5q0 30 -19.5 50.5t-54.5 20.5z" />
<glyph unicode="&#x114;" horiz-adv-x="439" d="M342 737q-36 0 -55.5 30.5t-15.5 67.5l14 4q5 -31 21.5 -49.5t42.5 -18.5t49.5 20t42.5 50l15 4q-13 -44 -46 -76t-68 -32zM331 0h-272l114 535l17 115h283l-11 -31l-243 5l-61 -289l172 3l-11 -31l-166 2l-60 -283l249 5z" />
<glyph unicode="&#x115;" horiz-adv-x="425" d="M267 588q-33 0 -50 34.5t-5 100.5l17 4q-5 -60 7.5 -85.5t40.5 -25.5q56 0 96 113l15 4q-16 -67 -49 -106t-72 -39zM335 114l14 -8q-33 -51 -82 -83.5t-98 -32.5q-55 0 -87.5 44t-32.5 123q0 62 19.5 124.5t54 114t79.5 83t95 31.5q41 0 67.5 -22t26.5 -65 q0 -44 -30.5 -85.5t-87.5 -71t-136 -37.5q-26 -3 -49 -2q-7 -36 -7 -68q0 -64 25 -104.5t74 -40.5q42 0 83 30t72 70zM285 486q-33 0 -63 -20.5t-56 -55t-45 -77.5t-30 -88q76 4 127.5 22t82.5 43.5t44.5 53t13.5 51.5q0 30 -19.5 50.5t-54.5 20.5z" />
<glyph unicode="&#x116;" horiz-adv-x="439" d="M391 803q0 -17 -10.5 -36t-27.5 -19q-20 0 -20 25q0 20 12 37.5t27 17.5q19 0 19 -25zM331 0h-272l114 535l17 115h283l-11 -31l-243 5l-61 -289l172 3l-11 -31l-166 2l-60 -283l249 5z" />
<glyph unicode="&#x117;" horiz-adv-x="425" d="M328 670q0 -17 -10.5 -36t-27.5 -19q-20 0 -20 25q0 20 12 37.5t27 17.5q19 0 19 -25zM335 114l14 -8q-33 -51 -82 -83.5t-98 -32.5q-55 0 -87.5 44t-32.5 123q0 62 19.5 124.5t54 114t79.5 83t95 31.5q41 0 67.5 -22t26.5 -65q0 -44 -30.5 -85.5t-87.5 -71t-136 -37.5 q-26 -3 -49 -2q-7 -36 -7 -68q0 -64 25 -104.5t74 -40.5q42 0 83 30t72 70zM285 486q-33 0 -63 -20.5t-56 -55t-45 -77.5t-30 -88q76 4 127.5 22t82.5 43.5t44.5 53t13.5 51.5q0 30 -19.5 50.5t-54.5 20.5z" />
<glyph unicode="&#x118;" horiz-adv-x="439" d="M331 0q-35 -12 -65 -32.5t-48 -44t-18 -45.5q0 -16 11 -23.5t29 -7.5q14 0 27.5 4t26.5 11l4 -16q-13 -9 -32.5 -15.5t-41.5 -6.5q-27 0 -43 11.5t-16 32.5q0 25 18 50t46 46.5t59 35.5h-229l114 535l17 115h283l-11 -31l-243 5l-61 -289l172 3l-11 -31l-166 2l-60 -283 l249 5z" />
<glyph unicode="&#x119;" horiz-adv-x="449" d="M350 114l14 -8q-23 -35 -53 -62q-56 -53 -88 -91.5t-32 -67.5q0 -18 11 -28t29 -10q14 0 27.5 4t26.5 11l4 -16q-13 -9 -32.5 -15.5t-41.5 -6.5q-27 0 -43 13.5t-16 37.5q0 29 22.5 60t58.5 65q-27 -10 -53 -10q-55 0 -87.5 44t-32.5 123q0 62 19.5 124.5t54 114t79.5 83 t95 31.5q41 0 67.5 -22t26.5 -65q0 -44 -30.5 -85.5t-87.5 -71t-136 -37.5q-26 -3 -49 -2q-7 -36 -7 -68q0 -64 25 -104.5t74 -40.5q42 0 83 30t72 70zM300 486q-33 0 -63 -20.5t-56 -55t-45 -77.5t-30 -88q76 4 127.5 22t82.5 43.5t44.5 53t13.5 51.5q0 30 -19.5 50.5 t-54.5 20.5z" />
<glyph unicode="&#x11a;" horiz-adv-x="439" d="M456 842l5 -13q-30 -22 -54 -43t-48 -49l-32 -6q-11 27 -26 50t-37 48l11 13q45 -30 74 -75q50 45 107 75zM331 0h-272l114 535l17 115h283l-11 -31l-243 5l-61 -289l172 3l-11 -31l-166 2l-60 -283l249 5z" />
<glyph unicode="&#x11b;" horiz-adv-x="425" d="M376 749l6 -9q-28 -34 -50.5 -66.5t-44.5 -73.5l-29 -6q-4 40 -13 74.5t-22 71.5l9 9q16 -24 27 -55t19 -66q23 35 47.5 66t50.5 55zM335 114l14 -8q-33 -51 -82 -83.5t-98 -32.5q-55 0 -87.5 44t-32.5 123q0 62 19.5 124.5t54 114t79.5 83t95 31.5q41 0 67.5 -22 t26.5 -65q0 -44 -30.5 -85.5t-87.5 -71t-136 -37.5q-26 -3 -49 -2q-7 -36 -7 -68q0 -64 25 -104.5t74 -40.5q42 0 83 30t72 70zM285 486q-33 0 -63 -20.5t-56 -55t-45 -77.5t-30 -88q76 4 127.5 22t82.5 43.5t44.5 53t13.5 51.5q0 30 -19.5 50.5t-54.5 20.5z" />
<glyph unicode="&#x11c;" horiz-adv-x="517" d="M317 732l-5 13q30 23 54 43.5t48 48.5l32 6q11 -27 26 -50t37 -48l-11 -13q-45 30 -74 75q-50 -45 -107 -75zM400 29q-31 -19 -69 -29t-75 -10q-90 0 -136.5 59t-46.5 165q0 62 16 125t45.5 120.5t71.5 103t94.5 71.5t113.5 26q30 0 58.5 -7.5t50.5 -19.5l-17 -34 q-19 17 -46.5 27t-59.5 10q-55 0 -100.5 -25t-81.5 -67.5t-61.5 -96t-38.5 -111.5t-13 -113q0 -97 41 -152.5t121 -55.5q58 0 109 26l21 102l18 115l36 10z" />
<glyph unicode="&#x11d;" horiz-adv-x="429" d="M176 582l-6 9q28 34 50.5 67t44.5 73l29 6q5 -40 13.5 -74.5t21.5 -71.5l-9 -9q-16 24 -27 55t-19 66q-23 -35 -47.5 -66t-50.5 -55zM331 -55q0 -39 -32.5 -70.5t-84.5 -50.5t-113 -19q-70 0 -106.5 26.5t-36.5 70.5q0 30 13.5 53t31.5 39t31 23l7 -11q-19 -16 -37 -41 t-18 -57q0 -36 31.5 -57.5t89.5 -21.5q46 0 91 13.5t75 38t30 56.5q0 26 -20 43t-49 28.5t-58 22t-49 23.5t-20 33t20 39t51 38v1q-98 0 -98 104q0 40 14.5 82t41 78t62 58.5t76.5 22.5h56.5t54 1.5t65.5 3.5q3 -6 3 -11q0 -9 -9 -16.5t-26 -7.5q-15 0 -41.5 6t-55.5 14 l-2 -2q24 -10 36 -33.5t12 -63.5q0 -67 -37 -128.5t-120 -113.5q-24 -15 -49 -32t-25 -34q0 -14 19.5 -24t49 -19t58.5 -21.5t48.5 -32t19.5 -51.5zM110 274q0 -46 19 -67.5t49 -21.5q31 0 59.5 20t51 52.5t35.5 70t13 71.5q0 39 -18 63.5t-54 24.5q-32 0 -60 -19.5 t-49.5 -51.5t-33.5 -69t-12 -73z" />
<glyph unicode="&#x11e;" horiz-adv-x="517" d="M402 737q-36 0 -55.5 30.5t-15.5 67.5l14 4q5 -31 21.5 -49.5t42.5 -18.5t49.5 20t42.5 50l15 4q-13 -44 -46 -76t-68 -32zM400 29q-31 -19 -69 -29t-75 -10q-90 0 -136.5 59t-46.5 165q0 62 16 125t45.5 120.5t71.5 103t94.5 71.5t113.5 26q30 0 58.5 -7.5t50.5 -19.5 l-17 -34q-19 17 -46.5 27t-59.5 10q-55 0 -100.5 -25t-81.5 -67.5t-61.5 -96t-38.5 -111.5t-13 -113q0 -97 41 -152.5t121 -55.5q58 0 109 26l21 102l18 115l36 10z" />
<glyph unicode="&#x11f;" horiz-adv-x="429" d="M261 588q-33 0 -50 34.5t-5 100.5l17 4q-5 -60 7.5 -85.5t40.5 -25.5q56 0 96 113l15 4q-16 -67 -49 -106t-72 -39zM331 -55q0 -39 -32.5 -70.5t-84.5 -50.5t-113 -19q-70 0 -106.5 26.5t-36.5 70.5q0 30 13.5 53t31.5 39t31 23l7 -11q-19 -16 -37 -41t-18 -57 q0 -36 31.5 -57.5t89.5 -21.5q46 0 91 13.5t75 38t30 56.5q0 26 -20 43t-49 28.5t-58 22t-49 23.5t-20 33t20 39t51 38v1q-98 0 -98 104q0 40 14.5 82t41 78t62 58.5t76.5 22.5h56.5t54 1.5t65.5 3.5q3 -6 3 -11q0 -9 -9 -16.5t-26 -7.5q-15 0 -41.5 6t-55.5 14l-2 -2 q24 -10 36 -33.5t12 -63.5q0 -67 -37 -128.5t-120 -113.5q-24 -15 -49 -32t-25 -34q0 -14 19.5 -24t49 -19t58.5 -21.5t48.5 -32t19.5 -51.5zM110 274q0 -46 19 -67.5t49 -21.5q31 0 59.5 20t51 52.5t35.5 70t13 71.5q0 39 -18 63.5t-54 24.5q-32 0 -60 -19.5t-49.5 -51.5 t-33.5 -69t-12 -73z" />
<glyph unicode="&#x120;" horiz-adv-x="517" d="M451 803q0 -17 -10.5 -36t-27.5 -19q-20 0 -20 25q0 20 12 37.5t27 17.5q19 0 19 -25zM400 29q-31 -19 -69 -29t-75 -10q-90 0 -136.5 59t-46.5 165q0 62 16 125t45.5 120.5t71.5 103t94.5 71.5t113.5 26q30 0 58.5 -7.5t50.5 -19.5l-17 -34q-19 17 -46.5 27t-59.5 10 q-55 0 -100.5 -25t-81.5 -67.5t-61.5 -96t-38.5 -111.5t-13 -113q0 -97 41 -152.5t121 -55.5q58 0 109 26l21 102l18 115l36 10z" />
<glyph unicode="&#x121;" horiz-adv-x="429" d="M309 670q0 -17 -10.5 -36t-27.5 -19q-20 0 -20 25q0 20 12 37.5t27 17.5q19 0 19 -25zM331 -55q0 -39 -32.5 -70.5t-84.5 -50.5t-113 -19q-70 0 -106.5 26.5t-36.5 70.5q0 30 13.5 53t31.5 39t31 23l7 -11q-19 -16 -37 -41t-18 -57q0 -36 31.5 -57.5t89.5 -21.5 q46 0 91 13.5t75 38t30 56.5q0 26 -20 43t-49 28.5t-58 22t-49 23.5t-20 33t20 39t51 38v1q-98 0 -98 104q0 40 14.5 82t41 78t62 58.5t76.5 22.5h56.5t54 1.5t65.5 3.5q3 -6 3 -11q0 -9 -9 -16.5t-26 -7.5q-15 0 -41.5 6t-55.5 14l-2 -2q24 -10 36 -33.5t12 -63.5 q0 -67 -37 -128.5t-120 -113.5q-24 -15 -49 -32t-25 -34q0 -14 19.5 -24t49 -19t58.5 -21.5t48.5 -32t19.5 -51.5zM110 274q0 -46 19 -67.5t49 -21.5q31 0 59.5 20t51 52.5t35.5 70t13 71.5q0 39 -18 63.5t-54 24.5q-32 0 -60 -19.5t-49.5 -51.5t-33.5 -69t-12 -73z" />
<glyph unicode="&#x122;" horiz-adv-x="517" d="M400 29q-31 -19 -69 -29t-75 -10q-90 0 -136.5 59t-46.5 165q0 62 16 125t45.5 120.5t71.5 103t94.5 71.5t113.5 26q30 0 58.5 -7.5t50.5 -19.5l-17 -34q-19 17 -46.5 27t-59.5 10q-55 0 -100.5 -25t-81.5 -67.5t-61.5 -96t-38.5 -111.5t-13 -113q0 -97 41 -152.5 t121 -55.5q58 0 109 26l21 102l18 115l36 10zM273 -126q-4 -22 -20.5 -55.5t-40.5 -62.5l-6 5q12 23 20.5 44.5t14.5 42.5h-1q-24 6 -18 33q3 15 12.5 25t21.5 10t16.5 -11.5t0.5 -30.5z" />
<glyph unicode="&#x123;" horiz-adv-x="429" d="M258 635q5 22 21 56t40 62l6 -5q-12 -23 -20.5 -44.5t-14.5 -42.5h1q24 -6 18 -33q-3 -15 -12.5 -25t-21.5 -10t-16.5 11.5t-0.5 30.5zM331 -55q0 -39 -32.5 -70.5t-84.5 -50.5t-113 -19q-70 0 -106.5 26.5t-36.5 70.5q0 30 13.5 53t31.5 39t31 23l7 -11q-19 -16 -37 -41 t-18 -57q0 -36 31.5 -57.5t89.5 -21.5q46 0 91 13.5t75 38t30 56.5q0 26 -20 43t-49 28.5t-58 22t-49 23.5t-20 33t20 39t51 38v1q-98 0 -98 104q0 40 14.5 82t41 78t62 58.5t76.5 22.5h56.5t54 1.5t65.5 3.5q3 -6 3 -11q0 -9 -9 -16.5t-26 -7.5q-15 0 -41.5 6t-55.5 14 l-2 -2q24 -10 36 -33.5t12 -63.5q0 -67 -37 -128.5t-120 -113.5q-24 -15 -49 -32t-25 -34q0 -14 19.5 -24t49 -19t58.5 -21.5t48.5 -32t19.5 -51.5zM110 274q0 -46 19 -67.5t49 -21.5q31 0 59.5 20t51 52.5t35.5 70t13 71.5q0 39 -18 63.5t-54 24.5q-32 0 -60 -19.5 t-49.5 -51.5t-33.5 -69t-12 -73z" />
<glyph unicode="&#x124;" horiz-adv-x="585" d="M291 732l-5 13q30 23 54 43.5t48 48.5l32 6q11 -27 26 -50t37 -48l-11 -13q-45 30 -74 75q-50 -45 -107 -75zM87 0h-28l114 535l17 115l37 10l-71 -333h313l44 208l18 115l36 10l-140 -660h-27l63 297h-313z" />
<glyph unicode="&#x125;" horiz-adv-x="482" d="M93 733l-5 13q30 23 54 43.5t48 48.5l32 6q11 -27 26 -50t37 -48l-11 -13q-45 30 -74 75q-50 -45 -107 -75zM364 0h-30q0 4 -0.5 9.5t-0.5 19.5q0 53 9 111t20 112.5t20 98t9 67.5q0 34 -17.5 51t-39.5 17q-27 0 -59 -24.5t-63.5 -67.5t-58 -99t-43.5 -119t-20 -128v-28 v-8l0.5 -1t0.5 -11h-30q0 5 -0.5 9t-0.5 21q0 73 11.5 137t27.5 141l56 262l17 115l40 10q-31 -145 -52.5 -244.5t-35.5 -168.5q27 67 63 118.5t76 80.5t81 29q29 0 53 -19.5t24 -73.5q0 -45 -14.5 -105t-29 -133t-14.5 -158q0 -5 0.5 -12t0.5 -9z" />
<glyph unicode="&#x126;" horiz-adv-x="585" d="M87 0h-28l102 478h-82l7 30h81l6 27l17 115l37 10l-32 -152h312l6 27l18 115l36 10l-32 -152h84l-6 -30h-85l-101 -478h-27l63 297h-313zM156 327h313l32 151h-313z" />
<glyph unicode="&#x127;" horiz-adv-x="482" d="M364 0h-30q0 4 -0.5 9.5t-0.5 19.5q0 53 9 111t20 112.5t20 98t9 67.5q0 34 -17.5 51t-39.5 17q-27 0 -59 -24.5t-63.5 -67.5t-58 -99t-43.5 -119t-20 -128v-28v-8l0.5 -1t0.5 -11h-30q0 5 -0.5 9t-0.5 21q0 73 11.5 137t27.5 141l56 262l1 8h-89l4 22h88l13 85l40 10 q-5 -25 -10.5 -49t-9.5 -46h189l-5 -22h-189q-21 -98 -36.5 -170t-26.5 -126q27 67 63 118.5t76 80.5t81 29q29 0 53 -19.5t24 -73.5q0 -45 -14.5 -105t-29 -133t-14.5 -158q0 -5 0.5 -12t0.5 -9z" />
<glyph unicode="&#x128;" horiz-adv-x="245" d="M199 825q20 0 31.5 -10.5t22.5 -21.5t27 -11q17 0 32 14t28 33l13 -5q-11 -26 -33.5 -49.5t-50.5 -23.5q-19 0 -31 11t-22 21.5t-27 10.5q-16 0 -31.5 -13.5t-28.5 -33.5l-13 5q11 25 33 49t50 24zM87 0h-28l114 535l17 115l37 10z" />
<glyph unicode="&#x129;" horiz-adv-x="220" d="M154 703q17 0 25 -12t15 -24t18 -12q12 0 23.5 16t19.5 35l13 -4q-7 -26 -24 -51.5t-41 -25.5q-17 0 -25.5 12t-14.5 24t-18 12t-23.5 -15.5t-19.5 -35.5l-13 4q6 17 15 34.5t21.5 30t28.5 12.5zM173 510q-21 -99 -35.5 -168.5t-23.5 -117t-14 -80.5t-7 -59.5t-2 -55.5 v-12.5t1 -16.5h-30q0 2 -0.5 10t-0.5 13q0 40 4 80.5t12.5 90t22.5 114.5l16 74l17 118z" />
<glyph unicode="&#x12a;" horiz-adv-x="245" d="M136 770l7 33h190l-7 -33h-190zM87 0h-28l114 535l17 115l37 10z" />
<glyph unicode="&#x12b;" horiz-adv-x="220" d="M116 646l4 26h140l-4 -26h-140zM173 510q-21 -99 -35.5 -168.5t-23.5 -117t-14 -80.5t-7 -59.5t-2 -55.5v-12.5t1 -16.5h-30q0 2 -0.5 10t-0.5 13q0 40 4 80.5t12.5 90t22.5 114.5l16 74l17 118z" />
<glyph unicode="&#x12c;" horiz-adv-x="245" d="M214 737q-36 0 -55.5 30.5t-15.5 67.5l14 4q5 -31 21.5 -49.5t42.5 -18.5t49.5 20t42.5 50l15 4q-13 -44 -46 -76t-68 -32zM87 0h-28l114 535l17 115l37 10z" />
<glyph unicode="&#x12d;" horiz-adv-x="220" d="M146 583q-30 0 -45 36t-2 104l19 4q-7 -63 3 -89.5t35 -26.5q50 0 89 118l18 4q-17 -69 -48.5 -109.5t-68.5 -40.5zM173 510q-21 -99 -35.5 -168.5t-23.5 -117t-14 -80.5t-7 -59.5t-2 -55.5v-12.5t1 -16.5h-30q0 2 -0.5 10t-0.5 13q0 40 4 80.5t12.5 90t22.5 114.5l16 74 l17 118z" />
<glyph unicode="&#x12e;" horiz-adv-x="264" d="M102 0q-18 -12 -40.5 -31.5t-38.5 -42t-16 -44.5q0 -18 11 -26.5t29 -8.5q14 0 27.5 4t26.5 11l4 -16q-13 -9 -32.5 -15.5t-41.5 -6.5q-27 0 -43 12.5t-16 35.5q0 24 17 48.5t40.5 45.5t44.5 35l114 534l17 115l37 10z" />
<glyph unicode="&#x12f;" horiz-adv-x="220" d="M221 670q0 -17 -10.5 -36t-27.5 -19q-20 0 -20 25q0 20 12 37.5t27 17.5q19 0 19 -25zM107 0q-30 -27 -53.5 -60t-23.5 -59q0 -16 11 -25t29 -9q14 0 27.5 4t26.5 11l4 -16q-13 -9 -32.5 -15.5t-41.5 -6.5q-27 0 -43 13.5t-16 37.5q0 19 13 41.5t32.5 44.5t40.5 39h-4 q0 2 -0.5 10t-0.5 13q0 40 4 80.5t12.5 90t22.5 114.5l16 74l17 118l40 10q-21 -99 -35.5 -168.5t-23.5 -117t-14 -80.5t-7 -59.5t-2 -55.5v-12.5t1 -16.5z" />
<glyph unicode="&#x130;" horiz-adv-x="245" d="M263 803q0 -17 -10.5 -36t-27.5 -19q-20 0 -20 25q0 20 12 37.5t27 17.5q19 0 19 -25zM87 0h-28l114 535l17 115l37 10z" />
<glyph unicode="&#x131;" horiz-adv-x="220" d="M173 510q-21 -99 -35.5 -168.5t-23.5 -117t-14 -80.5t-7 -59.5t-2 -55.5v-12.5t1 -16.5h-30q0 2 -0.5 10t-0.5 13q0 40 4 80.5t12.5 90t22.5 114.5l16 74l17 118z" />
<glyph unicode="&#x132;" horiz-adv-x="488" d="M87 0h-28l114 535l17 115l37 10zM181 -171q53 24 80.5 64t40.5 98l116 544l17 115l35 10l-140 -660q-13 -64 -48 -117t-103 -78z" />
<glyph unicode="&#x133;" horiz-adv-x="436" d="M206 670q0 -17 -10.5 -36t-27.5 -19q-20 0 -20 25q0 20 12 37.5t27 17.5q19 0 19 -25zM437 670q0 -17 -10.5 -36t-27.5 -19q-20 0 -20 25q0 20 12 37.5t27 17.5q19 0 19 -25zM173 510q-21 -99 -35.5 -168.5t-23.5 -117t-14 -80.5t-7 -59.5t-2 -55.5v-12.5t1 -16.5h-30 q0 2 -0.5 10t-0.5 13q0 40 4 80.5t12.5 90t22.5 114.5l16 74l17 118zM396 510q-28 -131 -56.5 -265t-55.5 -261q-13 -61 -46 -104.5t-91 -74.5l-8 18q44 26 73.5 64t42.5 100l85 398l17 115z" />
<glyph unicode="&#x134;" horiz-adv-x="243" d="M118 732l-5 13q30 23 54 43.5t48 48.5l32 6q11 -27 26 -50t37 -48l-11 -13q-45 30 -74 75q-50 -45 -107 -75zM-64 -171q53 24 80.5 64t40.5 98l116 544l17 115l35 10l-140 -660q-13 -64 -48 -117t-103 -78z" />
<glyph unicode="&#x135;" horiz-adv-x="216" d="M127 582l-10 7q24 35 43.5 68t41.5 74l33 6q5 -40 10.5 -75t14.5 -73l-12 -7q-19 49 -35 120q-46 -68 -86 -120zM176 510q-28 -131 -56.5 -265t-55.5 -261q-13 -61 -46 -104.5t-91 -74.5l-8 18q44 26 73.5 64t42.5 100l85 398l17 115z" />
<glyph unicode="&#x136;" horiz-adv-x="465" d="M173 535l17 115l38 10l-70 -328h77l252 328l28 -10l-258 -333l119 -317l-31 -10l-116 312h-77l-65 -302h-28zM216 -126q-4 -22 -20.5 -55.5t-40.5 -62.5l-6 5q12 23 20.5 44.5t14.5 42.5h-1q-24 6 -18 33q3 15 12.5 25t21.5 10t16.5 -11.5t0.5 -30.5z" />
<glyph unicode="&#x137;" horiz-adv-x="417" d="M91 0h-30q0 2 -0.5 10t-0.5 13q0 39 2 68.5t6 58.5t11.5 66t19.5 92l56 262l17 115l40 10q-26 -120 -45 -208t-33 -154q39 91 90 134t100 43q37 0 57.5 -22t20.5 -54q0 -42 -30 -82.5t-75 -74t-92 -52.5q27 -57 64 -117.5t75 -107.5l-32 -10q-36 49 -73 112t-67 130 q47 22 92.5 52.5t75.5 68t30 78.5q0 26 -13.5 40.5t-36.5 14.5q-32 0 -64.5 -25.5t-62 -70.5t-53 -103.5t-37 -124.5t-13.5 -133v-1v-12t1 -16zM213 -126q-4 -22 -20.5 -55.5t-40.5 -62.5l-6 5q12 23 20.5 44.5t14.5 42.5h-1q-24 6 -18 33q3 15 12.5 25t21.5 10t16.5 -11.5 t0.5 -30.5z" />
<glyph unicode="&#x138;" horiz-adv-x="396" d="M92 0h-30q0 2 -0.5 10t-0.5 13q0 34 2 63.5t7.5 66t16.5 91.5t29 140l17 116l40 10q-25 -120 -41 -195t-25 -125h1q31 96 73.5 168t88.5 112t87 40q14 0 26 -4t22 -11l-20 -33q-5 5 -15.5 11t-26.5 6q-38 0 -79.5 -43.5t-77.5 -107.5q9 -47 32 -104.5t55.5 -116 t69.5 -107.5l-26 -10q-36 47 -67 103t-52 110t-29 92q-23 -45 -40.5 -93.5t-27.5 -93.5t-10 -80v-12t1 -16z" />
<glyph unicode="&#x139;" horiz-adv-x="414" d="M322 816q-40 -32 -80.5 -52.5t-75.5 -31.5l-4 17q35 19 69.5 43t64.5 49zM331 0h-272l114 535l17 115l37 10l-134 -634l249 5z" />
<glyph unicode="&#x13a;" horiz-adv-x="219" d="M299 833q-40 -32 -80.5 -52.5t-75.5 -31.5l-4 17q35 19 69.5 43t64.5 49zM212 695q-29 -138 -50 -235t-35 -164t-22 -113.5t-11.5 -82t-3.5 -71.5v-12.5t1 -16.5h-30q0 2 -0.5 10t-0.5 13q0 36 2 65t6 59t11.5 68t19.5 93l56 262l17 115z" />
<glyph unicode="&#x13b;" horiz-adv-x="414" d="M331 0h-272l114 535l17 115l37 10l-134 -634l249 5zM215 -126q-4 -22 -20.5 -55.5t-40.5 -62.5l-6 5q12 23 20.5 44.5t14.5 42.5h-1q-24 6 -18 33q3 15 12.5 25t21.5 10t16.5 -11.5t0.5 -30.5z" />
<glyph unicode="&#x13c;" horiz-adv-x="219" d="M212 695q-29 -138 -50 -235t-35 -164t-22 -113.5t-11.5 -82t-3.5 -71.5v-12.5t1 -16.5h-30q0 2 -0.5 10t-0.5 13q0 36 2 65t6 59t11.5 68t19.5 93l56 262l17 115zM90 -126q-4 -22 -20.5 -55.5t-40.5 -62.5l-6 5q12 23 20.5 44.5t14.5 42.5h-1q-24 6 -18 33q3 15 12.5 25 t21.5 10t16.5 -11.5t0.5 -30.5z" />
<glyph unicode="&#x13d;" horiz-adv-x="414" d="M404 683q-19 -53 -44 -96t-48 -76l-14 8q19 38 37.5 81.5t32.5 84.5zM331 0h-272l114 535l17 115l37 10l-134 -634l249 5z" />
<glyph unicode="&#x13e;" horiz-adv-x="219" d="M335 719q-19 -53 -44 -96t-48 -76l-14 8q19 38 37.5 81.5t32.5 84.5zM212 695q-29 -138 -50 -235t-35 -164t-22 -113.5t-11.5 -82t-3.5 -71.5v-12.5t1 -16.5h-30q0 2 -0.5 10t-0.5 13q0 36 2 65t6 59t11.5 68t19.5 93l56 262l17 115z" />
<glyph unicode="&#x13f;" horiz-adv-x="531" d="M331 0h-272l114 535l17 115l37 10l-134 -634l249 5zM396 278q-9 0 -14 6.5t-5 16.5q0 15 11 30t25 15q19 0 19 -21q0 -15 -10 -31t-26 -16z" />
<glyph unicode="&#x140;" horiz-adv-x="394" d="M212 695q-29 -138 -50 -235t-35 -164t-22 -113.5t-11.5 -82t-3.5 -71.5v-12.5t1 -16.5h-30q0 2 -0.5 10t-0.5 13q0 36 2 65t6 59t11.5 68t19.5 93l56 262l17 115zM299 258q-9 0 -14 6.5t-5 16.5q0 15 11 30t25 15q19 0 19 -21q0 -15 -10 -31t-26 -16z" />
<glyph unicode="&#x141;" horiz-adv-x="414" d="M331 0h-272l60 281l-88 -50l-6 21l100 57l48 226l17 115l37 10l-71 -333l163 92l7 -21l-176 -99l-57 -273l249 5z" />
<glyph unicode="&#x142;" horiz-adv-x="219" d="M280 445l-139 -78q-15 -71 -24.5 -121t-15.5 -87.5t-8.5 -68t-2.5 -61.5v-12.5t1 -16.5h-30q0 2 -0.5 10t-0.5 13q0 36 2 65t6 59t11.5 68t19.5 93l8 39l-122 -69l-6 21l134 76l42 195l17 115l40 10q-20 -94 -36 -168t-29 -132l126 71z" />
<glyph unicode="&#x143;" horiz-adv-x="587" d="M487 816q-40 -32 -80.5 -52.5t-75.5 -31.5l-4 17q35 19 69.5 43t64.5 49zM173 535l17 115l45 10l173 -632h2l127 622l32 10l-140 -660h-42l-171 623h-1l-128 -623h-28z" />
<glyph unicode="&#x144;" horiz-adv-x="483" d="M376 730q-26 -46 -55 -83t-58 -66l-13 6q26 33 50.5 71t42.5 75zM92 0h-30q0 2 -0.5 10t-0.5 13q0 34 2 63.5t7.5 66t16.5 91.5t29 140l17 116l40 10q-15 -72 -27 -127.5t-20 -98.5q27 66 62.5 117t75.5 80t81 29q29 0 53 -19.5t24 -73.5q0 -45 -14.5 -105t-29 -133 t-14.5 -158q0 -5 0.5 -12t0.5 -9h-30q0 4 -0.5 9.5t-0.5 19.5q0 53 9 111t20 112.5t20 98t9 67.5q0 34 -17.5 51t-39.5 17q-28 0 -61 -26t-65 -71t-59 -104t-43 -124.5t-16 -132.5v-12t1 -16z" />
<glyph unicode="&#x145;" horiz-adv-x="587" d="M173 535l17 115l45 10l173 -632h2l127 622l32 10l-140 -660h-42l-171 623h-1l-128 -623h-28zM239 -126q-4 -22 -20.5 -55.5t-40.5 -62.5l-6 5q12 23 20.5 44.5t14.5 42.5h-1q-24 6 -18 33q3 15 12.5 25t21.5 10t16.5 -11.5t0.5 -30.5z" />
<glyph unicode="&#x146;" horiz-adv-x="483" d="M92 0h-30q0 2 -0.5 10t-0.5 13q0 34 2 63.5t7.5 66t16.5 91.5t29 140l17 116l40 10q-15 -72 -27 -127.5t-20 -98.5q27 66 62.5 117t75.5 80t81 29q29 0 53 -19.5t24 -73.5q0 -45 -14.5 -105t-29 -133t-14.5 -158q0 -5 0.5 -12t0.5 -9h-30q0 4 -0.5 9.5t-0.5 19.5 q0 53 9 111t20 112.5t20 98t9 67.5q0 34 -17.5 51t-39.5 17q-28 0 -61 -26t-65 -71t-59 -104t-43 -124.5t-16 -132.5v-12t1 -16zM232 -126q-4 -22 -20.5 -55.5t-40.5 -62.5l-6 5q12 23 20.5 44.5t14.5 42.5h-1q-24 6 -18 33q3 15 12.5 25t21.5 10t16.5 -11.5t0.5 -30.5z" />
<glyph unicode="&#x147;" horiz-adv-x="587" d="M502 842l5 -13q-30 -22 -54 -43t-48 -49l-32 -6q-11 27 -26 50t-37 48l11 13q45 -30 74 -75q50 45 107 75zM173 535l17 115l45 10l173 -632h2l127 622l32 10l-140 -660h-42l-171 623h-1l-128 -623h-28z" />
<glyph unicode="&#x148;" horiz-adv-x="483" d="M390 749l6 -9q-28 -34 -50.5 -66.5t-44.5 -73.5l-29 -6q-4 40 -13 74.5t-22 71.5l9 9q16 -24 27 -55t19 -66q23 35 47.5 66t50.5 55zM92 0h-30q0 2 -0.5 10t-0.5 13q0 34 2 63.5t7.5 66t16.5 91.5t29 140l17 116l40 10q-15 -72 -27 -127.5t-20 -98.5q27 66 62.5 117 t75.5 80t81 29q29 0 53 -19.5t24 -73.5q0 -45 -14.5 -105t-29 -133t-14.5 -158q0 -5 0.5 -12t0.5 -9h-30q0 4 -0.5 9.5t-0.5 19.5q0 53 9 111t20 112.5t20 98t9 67.5q0 34 -17.5 51t-39.5 17q-28 0 -61 -26t-65 -71t-59 -104t-43 -124.5t-16 -132.5v-12t1 -16z" />
<glyph unicode="&#x14a;" horiz-adv-x="587" d="M280 -171q48 22 75 57t41 83l-180 654h-1l-128 -623h-28l114 535l17 115l45 10l173 -632h2l127 622l32 10l-140 -660q-13 -64 -48 -117t-103 -78z" />
<glyph unicode="&#x14b;" horiz-adv-x="458" d="M92 0h-30q0 2 -0.5 10t-0.5 13q0 34 2 63.5t7.5 66t16.5 91.5t29 140l17 116l40 10q-15 -72 -27 -127.5t-20 -98.5q27 66 62.5 117t75.5 80t81 29q29 0 53 -19.5t24 -73.5q0 -23 -12 -85t-32 -152t-43 -197q-13 -59 -46 -103t-91 -75l-8 18q44 26 73.5 64.5t42.5 99.5 q25 119 42 195t27 121t14 69.5t4 40.5q0 32 -14 52.5t-44 20.5q-28 0 -61 -26t-65 -71t-59 -104t-43 -124.5t-16 -132.5v-12t1 -16z" />
<glyph unicode="&#x14c;" horiz-adv-x="584" d="M308 770l7 33h190l-7 -33h-190zM543 444q0 -60 -14.5 -123.5t-41.5 -122.5t-65 -106t-85.5 -74.5t-102.5 -27.5q-77 0 -119 58t-42 159q0 59 14.5 122.5t41.5 122.5t65 106t85.5 74.5t102.5 27.5q78 0 119.5 -57.5t41.5 -158.5zM105 213q0 -92 36 -145.5t104 -53.5 q49 0 90.5 26t74 70.5t55 99.5t34.5 113.5t12 112.5q0 93 -35.5 146.5t-103.5 53.5q-49 0 -90.5 -26.5t-74 -71t-55.5 -100t-35 -114t-12 -111.5z" />
<glyph unicode="&#x14d;" horiz-adv-x="471" d="M237 646l6 26h200l-6 -26h-200zM425 356q0 -59 -19.5 -122t-55 -117.5t-83 -88.5t-102.5 -34t-87.5 36.5t-32.5 108.5q0 61 20.5 125t56 119t83 89t101.5 34q60 0 89.5 -41t29.5 -109zM79 148q0 -68 28 -100t70 -32q44 0 83 31t68.5 81t46.5 108.5t17 113.5 q0 61 -24 97.5t-71 36.5q-43 0 -82.5 -31t-70 -81.5t-48 -109.5t-17.5 -114z" />
<glyph unicode="&#x14e;" horiz-adv-x="584" d="M386 737q-36 0 -55.5 30.5t-15.5 67.5l14 4q5 -31 21.5 -49.5t42.5 -18.5t49.5 20t42.5 50l15 4q-13 -44 -46 -76t-68 -32zM543 444q0 -60 -14.5 -123.5t-41.5 -122.5t-65 -106t-85.5 -74.5t-102.5 -27.5q-77 0 -119 58t-42 159q0 59 14.5 122.5t41.5 122.5t65 106 t85.5 74.5t102.5 27.5q78 0 119.5 -57.5t41.5 -158.5zM105 213q0 -92 36 -145.5t104 -53.5q49 0 90.5 26t74 70.5t55 99.5t34.5 113.5t12 112.5q0 93 -35.5 146.5t-103.5 53.5q-49 0 -90.5 -26.5t-74 -71t-55.5 -100t-35 -114t-12 -111.5z" />
<glyph unicode="&#x14f;" horiz-adv-x="471" d="M307 588q-33 0 -50 34.5t-5 100.5l17 4q-5 -60 7.5 -85.5t40.5 -25.5q56 0 96 113l15 4q-16 -67 -49 -106t-72 -39zM425 356q0 -59 -19.5 -122t-55 -117.5t-83 -88.5t-102.5 -34t-87.5 36.5t-32.5 108.5q0 61 20.5 125t56 119t83 89t101.5 34q60 0 89.5 -41t29.5 -109z M79 148q0 -68 28 -100t70 -32q44 0 83 31t68.5 81t46.5 108.5t17 113.5q0 61 -24 97.5t-71 36.5q-43 0 -82.5 -31t-70 -81.5t-48 -109.5t-17.5 -114z" />
<glyph unicode="&#x150;" horiz-adv-x="584" d="M407 819q-47 -32 -93 -52.5t-87 -31.5l-4 14q41 19 81 43t74 49zM589 819q-47 -32 -93 -52.5t-87 -31.5l-4 14q41 19 81 43t74 49zM543 444q0 -60 -14.5 -123.5t-41.5 -122.5t-65 -106t-85.5 -74.5t-102.5 -27.5q-77 0 -119 58t-42 159q0 59 14.5 122.5t41.5 122.5 t65 106t85.5 74.5t102.5 27.5q78 0 119.5 -57.5t41.5 -158.5zM105 213q0 -92 36 -145.5t104 -53.5q49 0 90.5 26t74 70.5t55 99.5t34.5 113.5t12 112.5q0 93 -35.5 146.5t-103.5 53.5q-49 0 -90.5 -26.5t-74 -71t-55.5 -100t-35 -114t-12 -111.5z" />
<glyph unicode="&#x151;" horiz-adv-x="471" d="M346 731q-25 -46 -52 -83t-56 -66l-11 6q55 69 92 145zM451 731q-25 -46 -52 -83t-56 -66l-11 6q55 69 92 145zM425 356q0 -59 -19.5 -122t-55 -117.5t-83 -88.5t-102.5 -34t-87.5 36.5t-32.5 108.5q0 61 20.5 125t56 119t83 89t101.5 34q60 0 89.5 -41t29.5 -109z M79 148q0 -68 28 -100t70 -32q44 0 83 31t68.5 81t46.5 108.5t17 113.5q0 61 -24 97.5t-71 36.5q-43 0 -82.5 -31t-70 -81.5t-48 -109.5t-17.5 -114z" />
<glyph unicode="&#x152;" horiz-adv-x="744" d="M636 0h-340q-31 -10 -62 -10q-77 0 -119 58t-42 159q0 59 14.5 122.5t41.5 122.5t65 106t85.5 74.5t102.5 27.5q32 0 58 -10h338l-11 -31l-284 4q60 -55 60 -179q0 -52 -11 -109l103 3l-11 -31l-98 2q-22 -87 -67.5 -164t-108.5 -119l297 5zM105 213q0 -92 36 -145.5 t104 -53.5q49 0 90.5 26t74 70.5t55 99.5t34.5 113.5t12 112.5q0 93 -35.5 146.5t-103.5 53.5q-49 0 -90.5 -26.5t-74 -71t-55.5 -100t-35 -114t-12 -111.5z" />
<glyph unicode="&#x153;" horiz-adv-x="744" d="M654 114l14 -8q-33 -51 -82 -83.5t-98 -32.5q-53 0 -85 41t-35 115q-35 -64 -87.5 -108t-115.5 -44q-55 0 -87.5 36.5t-32.5 108.5q0 61 20.5 125t56 119t83 89t101.5 34q57 0 86.5 -37.5t32.5 -100.5q34 61 84 101.5t107 40.5q41 0 67.5 -22t26.5 -65q0 -44 -30.5 -85.5 t-87.5 -70.5t-136 -38q-26 -3 -49 -2q-7 -36 -7 -68q0 -64 25 -104.5t74 -40.5q42 0 83 30t72 70zM604 486q-33 0 -63 -20.5t-56 -55t-45 -77.5t-30 -88q76 4 127.5 22t82.5 43.5t44.5 53t13.5 51.5q0 30 -19.5 50.5t-54.5 20.5zM79 148q0 -68 28 -100t70 -32q44 0 83 31 t68.5 81t46.5 108.5t17 113.5q0 61 -24 97.5t-71 36.5q-43 0 -82.5 -31t-70 -81.5t-48 -109.5t-17.5 -114z" />
<glyph unicode="&#x154;" horiz-adv-x="474" d="M428 816q-40 -32 -80.5 -52.5t-75.5 -31.5l-4 17q35 19 69.5 43t64.5 49zM87 0h-28l114 535l17 115h100q85 0 125.5 -38.5t40.5 -106.5q0 -77 -44 -138.5t-128 -84.5l92 -282l-31 -10l-91 285q-29 -5 -60 -5h-50zM279 624h-60l-69 -328h54q76 0 125 29.5t73 75.5t24 97 q0 47 -17 73t-42 37t-49.5 13.5t-38.5 2.5z" />
<glyph unicode="&#x155;" horiz-adv-x="344" d="M337 730q-26 -46 -55 -83t-58 -66l-13 6q26 33 50.5 71t42.5 75zM92 0h-30q0 2 -0.5 10t-0.5 13q0 34 2 63.5t7.5 66t16.5 91.5t29 140l17 116l40 10q-11 -54 -20.5 -98.5t-17.5 -80.5q31 79 74.5 129t93.5 50q20 0 38 -4t30 -10l-14 -32q-10 9 -29 15.5t-36 6.5 q-26 0 -54 -26.5t-54 -72t-47 -104.5t-33.5 -124.5t-12.5 -130.5v-12t1 -16z" />
<glyph unicode="&#x156;" horiz-adv-x="474" d="M87 0h-28l114 535l17 115h100q85 0 125.5 -38.5t40.5 -106.5q0 -77 -44 -138.5t-128 -84.5l92 -282l-31 -10l-91 285q-29 -5 -60 -5h-50zM279 624h-60l-69 -328h54q76 0 125 29.5t73 75.5t24 97q0 47 -17 73t-42 37t-49.5 13.5t-38.5 2.5zM217 -126q-4 -22 -20.5 -55.5 t-40.5 -62.5l-6 5q12 23 20.5 44.5t14.5 42.5h-1q-24 6 -18 33q3 15 12.5 25t21.5 10t16.5 -11.5t0.5 -30.5z" />
<glyph unicode="&#x157;" horiz-adv-x="344" d="M92 0h-30q0 2 -0.5 10t-0.5 13q0 34 2 63.5t7.5 66t16.5 91.5t29 140l17 116l40 10q-11 -54 -20.5 -98.5t-17.5 -80.5q31 79 74.5 129t93.5 50q20 0 38 -4t30 -10l-14 -32q-10 9 -29 15.5t-36 6.5q-26 0 -54 -26.5t-54 -72t-47 -104.5t-33.5 -124.5t-12.5 -130.5v-12 t1 -16zM84 -126q-4 -22 -20.5 -55.5t-40.5 -62.5l-6 5q12 23 20.5 44.5t14.5 42.5h-1q-24 6 -18 33q3 15 12.5 25t21.5 10t16.5 -11.5t0.5 -30.5z" />
<glyph unicode="&#x158;" horiz-adv-x="474" d="M443 842l5 -13q-30 -22 -54 -43t-48 -49l-32 -6q-11 27 -26 50t-37 48l11 13q45 -30 74 -75q50 45 107 75zM87 0h-28l114 535l17 115h100q85 0 125.5 -38.5t40.5 -106.5q0 -77 -44 -138.5t-128 -84.5l92 -282l-31 -10l-91 285q-29 -5 -60 -5h-50zM279 624h-60l-69 -328 h54q76 0 125 29.5t73 75.5t24 97q0 47 -17 73t-42 37t-49.5 13.5t-38.5 2.5z" />
<glyph unicode="&#x159;" horiz-adv-x="344" d="M351 749l6 -9q-28 -34 -50.5 -66.5t-44.5 -73.5l-29 -6q-4 40 -13 74.5t-22 71.5l9 9q16 -24 27 -55t19 -66q23 35 47.5 66t50.5 55zM92 0h-30q0 2 -0.5 10t-0.5 13q0 34 2 63.5t7.5 66t16.5 91.5t29 140l17 116l40 10q-11 -54 -20.5 -98.5t-17.5 -80.5q31 79 74.5 129 t93.5 50q20 0 38 -4t30 -10l-14 -32q-10 9 -29 15.5t-36 6.5q-26 0 -54 -26.5t-54 -72t-47 -104.5t-33.5 -124.5t-12.5 -130.5v-12t1 -16z" />
<glyph unicode="&#x15a;" horiz-adv-x="420" d="M419 816q-40 -32 -80.5 -52.5t-75.5 -31.5l-4 17q35 19 69.5 43t64.5 49zM340 171q0 -50 -27 -91t-73.5 -65.5t-103.5 -24.5q-34 0 -67 8.5t-58 20.5l13 35q15 -12 49 -26t76 -14q47 0 83 20.5t56.5 54.5t20.5 74t-18.5 69.5t-46 54.5t-55.5 51t-46.5 58t-18.5 77 q0 51 26.5 93.5t72.5 68t104 25.5q27 0 55.5 -5.5t49.5 -16.5l-12 -35q-10 9 -38.5 21t-66.5 12q-46 0 -82 -21.5t-57 -56t-21 -74.5t18.5 -70t46.5 -56t55.5 -52.5t46 -59t18.5 -75.5z" />
<glyph unicode="&#x15b;" horiz-adv-x="365" d="M331 716q-26 -46 -55 -83t-58 -66l-13 6q26 33 50.5 71t42.5 75zM287 128q0 -38 -23 -69.5t-63 -50t-91 -18.5q-31 0 -61.5 7.5t-53.5 17.5l13 35q16 -12 46 -24t69 -12q59 0 97 30.5t38 76.5q0 38 -24.5 65t-60.5 55q-20 16 -39.5 33t-32 39.5t-12.5 52.5q0 38 22.5 71 t62 53t91.5 20q25 0 51.5 -4.5t42.5 -12.5l-13 -35q-11 9 -35.5 18.5t-56.5 9.5q-41 0 -72 -16.5t-47.5 -42t-16.5 -54.5q0 -32 20 -56.5t52 -51.5q22 -18 44 -37t37.5 -43t15.5 -57z" />
<glyph unicode="&#x15c;" horiz-adv-x="420" d="M235 732l-5 13q30 23 54 43.5t48 48.5l32 6q11 -27 26 -50t37 -48l-11 -13q-45 30 -74 75q-50 -45 -107 -75zM340 171q0 -50 -27 -91t-73.5 -65.5t-103.5 -24.5q-34 0 -67 8.5t-58 20.5l13 35q15 -12 49 -26t76 -14q47 0 83 20.5t56.5 54.5t20.5 74t-18.5 69.5t-46 54.5 t-55.5 51t-46.5 58t-18.5 77q0 51 26.5 93.5t72.5 68t104 25.5q27 0 55.5 -5.5t49.5 -16.5l-12 -35q-10 9 -38.5 21t-66.5 12q-46 0 -82 -21.5t-57 -56t-21 -74.5t18.5 -70t46.5 -56t55.5 -52.5t46 -59t18.5 -75.5z" />
<glyph unicode="&#x15d;" horiz-adv-x="365" d="M179 568l-6 9q28 34 50.5 67t44.5 73l29 6q5 -40 13.5 -74.5t21.5 -71.5l-9 -9q-16 24 -27 55t-19 66q-23 -35 -47.5 -66t-50.5 -55zM287 128q0 -38 -23 -69.5t-63 -50t-91 -18.5q-31 0 -61.5 7.5t-53.5 17.5l13 35q16 -12 46 -24t69 -12q59 0 97 30.5t38 76.5 q0 38 -24.5 65t-60.5 55q-20 16 -39.5 33t-32 39.5t-12.5 52.5q0 38 22.5 71t62 53t91.5 20q25 0 51.5 -4.5t42.5 -12.5l-13 -35q-11 9 -35.5 18.5t-56.5 9.5q-41 0 -72 -16.5t-47.5 -42t-16.5 -54.5q0 -32 20 -56.5t52 -51.5q22 -18 44 -37t37.5 -43t15.5 -57z" />
<glyph unicode="&#x15e;" horiz-adv-x="420" d="M169 -110q3 14 -10.5 24.5t-48.5 14.5l34 61h-8q-34 0 -67 8.5t-58 20.5l13 35q15 -12 49 -26t76 -14q47 0 83 20.5t56.5 54.5t20.5 74t-18.5 69.5t-46 54.5t-55.5 51t-46.5 58t-18.5 77q0 51 26.5 93.5t72.5 68t104 25.5q27 0 55.5 -5.5t49.5 -16.5l-12 -35 q-10 9 -38.5 21t-66.5 12q-46 0 -82 -21.5t-57 -56t-21 -74.5t18.5 -70t46.5 -56t55.5 -52.5t46 -59t18.5 -75.5q0 -45 -22 -83t-60.5 -63.5t-87.5 -32.5l-26 -46q67 -13 58 -53q-4 -21 -24.5 -35.5t-48 -22.5t-55.5 -9l2 18q41 5 65 17t28 29z" />
<glyph unicode="&#x15f;" horiz-adv-x="365" d="M157 -110q3 14 -10.5 24.5t-48.5 14.5l35 62q-11 -1 -23 -1q-31 0 -61.5 7.5t-53.5 17.5l13 35q16 -12 46 -24t69 -12q59 0 97 30.5t38 76.5q0 38 -24.5 65t-60.5 55q-20 16 -39.5 33t-32 39.5t-12.5 52.5q0 38 22.5 71t62 53t91.5 20q25 0 51.5 -4.5t42.5 -12.5l-13 -35 q-11 9 -35.5 18.5t-56.5 9.5q-41 0 -72 -16.5t-47.5 -42t-16.5 -54.5q0 -32 20 -56.5t52 -51.5q22 -18 44 -37t37.5 -43t15.5 -57q0 -47 -35.5 -84t-92.5 -49l-27 -49q67 -13 58 -53q-4 -21 -24.5 -35.5t-48 -22.5t-55.5 -9l2 18q41 5 65 17t28 29z" />
<glyph unicode="&#x160;" horiz-adv-x="420" d="M434 842l5 -13q-30 -22 -54 -43t-48 -49l-32 -6q-11 27 -26 50t-37 48l11 13q45 -30 74 -75q50 45 107 75zM340 171q0 -50 -27 -91t-73.5 -65.5t-103.5 -24.5q-34 0 -67 8.5t-58 20.5l13 35q15 -12 49 -26t76 -14q47 0 83 20.5t56.5 54.5t20.5 74t-18.5 69.5t-46 54.5 t-55.5 51t-46.5 58t-18.5 77q0 51 26.5 93.5t72.5 68t104 25.5q27 0 55.5 -5.5t49.5 -16.5l-12 -35q-10 9 -38.5 21t-66.5 12q-46 0 -82 -21.5t-57 -56t-21 -74.5t18.5 -70t46.5 -56t55.5 -52.5t46 -59t18.5 -75.5z" />
<glyph unicode="&#x161;" horiz-adv-x="365" d="M345 735l6 -9q-28 -34 -50.5 -66.5t-44.5 -73.5l-29 -6q-4 40 -13 74.5t-22 71.5l9 9q16 -24 27 -55t19 -66q23 35 47.5 66t50.5 55zM287 128q0 -38 -23 -69.5t-63 -50t-91 -18.5q-31 0 -61.5 7.5t-53.5 17.5l13 35q16 -12 46 -24t69 -12q59 0 97 30.5t38 76.5 q0 38 -24.5 65t-60.5 55q-20 16 -39.5 33t-32 39.5t-12.5 52.5q0 38 22.5 71t62 53t91.5 20q25 0 51.5 -4.5t42.5 -12.5l-13 -35q-11 9 -35.5 18.5t-56.5 9.5q-41 0 -72 -16.5t-47.5 -42t-16.5 -54.5q0 -32 20 -56.5t52 -51.5q22 -18 44 -37t37.5 -43t15.5 -57z" />
<glyph unicode="&#x162;" horiz-adv-x="411" d="M162 -110q3 14 -10.5 24.5t-48.5 14.5l40 71h-4l132 624l-168 -5l11 31h352l-2 -31l-165 5l-132 -624l-30 -54q67 -13 58 -53q-4 -21 -24.5 -35.5t-48 -22.5t-55.5 -9l2 18q41 5 65 17t28 29z" />
<glyph unicode="&#x163;" horiz-adv-x="375" d="M174 -110q3 14 -10.5 24.5t-48.5 14.5l34 61h-7q-33 0 -53.5 19t-20.5 62q0 9 1.5 21t6 34t13 62t22.5 104.5t35 162.5l-52 1l3 16l54 4l40 155l22 3q-9 -44 -17.5 -83.5t-15.5 -74.5h179l-7 -25l-177 3q-25 -117 -40.5 -189t-23 -111t-10.5 -56.5t-3 -26.5 q0 -22 12 -39.5t43 -17.5q39 0 77.5 30t69.5 70l14 -8q-29 -44 -64.5 -73t-73.5 -39l-27 -48q67 -13 58 -53q-4 -21 -24.5 -35.5t-48 -22.5t-55.5 -9l2 18q41 5 65 17t28 29z" />
<glyph unicode="&#x164;" horiz-adv-x="411" d="M413 842l5 -13q-30 -22 -54 -43t-48 -49l-32 -6q-11 27 -26 50t-37 48l11 13q45 -30 74 -75q50 45 107 75zM167 0h-28l132 624l-168 -5l11 31h352l-2 -31l-165 5z" />
<glyph unicode="&#x165;" horiz-adv-x="375" d="M355 694q-19 -53 -44 -96t-48 -76l-14 8q19 38 37.5 81.5t32.5 84.5zM314 106q-36 -54 -80.5 -85t-91.5 -31q-33 0 -53.5 19t-20.5 62q0 9 1.5 21t6 34t13 62t22.5 104.5t35 162.5l-52 1l3 16l54 4l40 155l22 3q-9 -44 -17.5 -83.5t-15.5 -74.5h179l-7 -25l-177 3 q-25 -117 -40.5 -189t-23 -111t-10.5 -56.5t-3 -26.5q0 -22 12 -39.5t43 -17.5q39 0 77.5 30t69.5 70z" />
<glyph unicode="&#x166;" horiz-adv-x="411" d="M167 0h-28l67 314h-142l4 22h142l61 288l-168 -5l11 31h352l-2 -31l-165 5l-61 -288h140l-5 -22h-139z" />
<glyph unicode="&#x167;" horiz-adv-x="375" d="M314 106q-36 -54 -80.5 -85t-91.5 -31q-33 0 -53.5 18.5t-20.5 62.5q0 11 2.5 27t10 52t22.5 107h-50l3 22h52q7 35 16.5 79t21.5 97l-52 1l3 16l54 4l40 155l22 3q-9 -44 -17.5 -83.5t-15.5 -74.5h179l-7 -25l-177 3q-11 -53 -20.5 -96.5t-16.5 -78.5h160l-4 -22h-161 q-15 -70 -22.5 -107t-10 -53.5t-2.5 -25.5q0 -22 12 -39.5t43 -17.5q39 0 77.5 30t69.5 70z" />
<glyph unicode="&#x168;" horiz-adv-x="568" d="M366 825q20 0 31.5 -10.5t22.5 -21.5t27 -11q17 0 32 14t28 33l13 -5q-11 -26 -33.5 -49.5t-50.5 -23.5q-19 0 -30.5 11t-22 21.5t-27.5 10.5q-16 0 -31.5 -13.5t-28.5 -33.5l-13 5q11 25 33 49t50 24zM242 14q73 0 120 54.5t67 151.5l67 315l17 115l37 10l-92 -430 q-25 -116 -83 -178t-143 -62q-67 0 -102.5 37.5t-35.5 102.5q0 14 1.5 28.5t6 39.5t13 66t22.5 107t35 164l18 115l37 10q-29 -136 -48 -224.5t-30 -142t-17 -82.5t-7.5 -44.5t-1.5 -29.5q0 -57 30.5 -90t88.5 -33z" />
<glyph unicode="&#x169;" d="M285 703q22 0 36 -12t26.5 -24t29.5 -12t32.5 16t27.5 35l12 -4q-7 -26 -30 -51.5t-52 -25.5q-21 0 -35 12t-26 24t-30 12q-16 0 -32.5 -15.5t-27.5 -35.5l-11 4q6 17 17.5 34.5t27.5 30t35 12.5zM358 0h-30q0 4 -0.5 9t-0.5 21q0 12 0.5 23.5t3 30t8 50.5t14.5 84 q-25 -65 -59.5 -116.5t-75 -81.5t-83.5 -30q-31 0 -55 19.5t-24 71.5q0 13 2.5 29t8.5 46.5t18 85t31 143.5l17 115l40 10q-40 -188 -63 -289.5t-23 -136.5q0 -31 16 -50.5t43 -19.5q36 0 73 34t70 88.5t57.5 119.5t35.5 126q5 26 6.5 34t2.5 12.5t2 17.5q0 1 1.5 13.5t3 26 t1.5 14.5l40 10q-21 -99 -35.5 -168.5t-23.5 -117t-14 -80.5t-7 -59.5t-2 -55.5v-12.5t1 -16.5z" />
<glyph unicode="&#x16a;" horiz-adv-x="568" d="M303 770l7 33h190l-7 -33h-190zM242 14q73 0 120 54.5t67 151.5l67 315l17 115l37 10l-92 -430q-25 -116 -83 -178t-143 -62q-67 0 -102.5 37.5t-35.5 102.5q0 14 1.5 28.5t6 39.5t13 66t22.5 107t35 164l18 115l37 10q-29 -136 -48 -224.5t-30 -142t-17 -82.5 t-7.5 -44.5t-1.5 -29.5q0 -57 30.5 -90t88.5 -33z" />
<glyph unicode="&#x16b;" d="M218 646l6 26h200l-6 -26h-200zM358 0h-30q0 4 -0.5 9t-0.5 21q0 12 0.5 23.5t3 30t8 50.5t14.5 84q-25 -65 -59.5 -116.5t-75 -81.5t-83.5 -30q-31 0 -55 19.5t-24 71.5q0 13 2.5 29t8.5 46.5t18 85t31 143.5l17 115l40 10q-40 -188 -63 -289.5t-23 -136.5 q0 -31 16 -50.5t43 -19.5q36 0 73 34t70 88.5t57.5 119.5t35.5 126q5 26 6.5 34t2.5 12.5t2 17.5q0 1 1.5 13.5t3 26t1.5 14.5l40 10q-21 -99 -35.5 -168.5t-23.5 -117t-14 -80.5t-7 -59.5t-2 -55.5v-12.5t1 -16.5z" />
<glyph unicode="&#x16c;" horiz-adv-x="568" d="M381 737q-36 0 -55.5 30.5t-15.5 67.5l14 4q5 -31 21.5 -49.5t42.5 -18.5t49.5 20t42.5 50l15 4q-13 -44 -46 -76t-68 -32zM242 14q73 0 120 54.5t67 151.5l67 315l17 115l37 10l-92 -430q-25 -116 -83 -178t-143 -62q-67 0 -102.5 37.5t-35.5 102.5q0 14 1.5 28.5 t6 39.5t13 66t22.5 107t35 164l18 115l37 10q-29 -136 -48 -224.5t-30 -142t-17 -82.5t-7.5 -44.5t-1.5 -29.5q0 -57 30.5 -90t88.5 -33z" />
<glyph unicode="&#x16d;" d="M288 588q-33 0 -50 34.5t-5 100.5l17 4q-5 -60 7.5 -85.5t40.5 -25.5q56 0 96 113l15 4q-16 -67 -49 -106t-72 -39zM358 0h-30q0 4 -0.5 9t-0.5 21q0 12 0.5 23.5t3 30t8 50.5t14.5 84q-25 -65 -59.5 -116.5t-75 -81.5t-83.5 -30q-31 0 -55 19.5t-24 71.5q0 13 2.5 29 t8.5 46.5t18 85t31 143.5l17 115l40 10q-40 -188 -63 -289.5t-23 -136.5q0 -31 16 -50.5t43 -19.5q36 0 73 34t70 88.5t57.5 119.5t35.5 126q5 26 6.5 34t2.5 12.5t2 17.5q0 1 1.5 13.5t3 26t1.5 14.5l40 10q-21 -99 -35.5 -168.5t-23.5 -117t-14 -80.5t-7 -59.5t-2 -55.5 v-12.5t1 -16.5z" />
<glyph unicode="&#x16e;" horiz-adv-x="568" d="M470 808q0 -24 -12.5 -45t-32 -33.5t-40.5 -12.5q-23 0 -37 14.5t-14 37.5t12.5 43.5t32.5 33.5t42 13q23 0 36 -14t13 -37zM362 776q0 -33 28 -33q20 0 36 18t16 40q0 14 -8 23t-21 9q-19 0 -35 -17t-16 -40zM242 14q73 0 120 54.5t67 151.5l67 315l17 115l37 10 l-92 -430q-25 -116 -83 -178t-143 -62q-67 0 -102.5 37.5t-35.5 102.5q0 14 1.5 28.5t6 39.5t13 66t22.5 107t35 164l18 115l37 10q-29 -136 -48 -224.5t-30 -142t-17 -82.5t-7.5 -44.5t-1.5 -29.5q0 -57 30.5 -90t88.5 -33z" />
<glyph unicode="&#x16f;" d="M388 682q0 -26 -12 -49t-31.5 -37t-40.5 -14q-22 0 -36.5 16t-14.5 41q0 27 12.5 49.5t32.5 36t41 13.5q23 0 36 -15.5t13 -40.5zM280 645q0 -16 8 -27t21 -11q19 0 36 20.5t17 48.5q0 17 -8 27t-22 10q-19 0 -35.5 -19.5t-16.5 -48.5zM358 0h-30q0 4 -0.5 9t-0.5 21 q0 12 0.5 23.5t3 30t8 50.5t14.5 84q-25 -65 -59.5 -116.5t-75 -81.5t-83.5 -30q-31 0 -55 19.5t-24 71.5q0 13 2.5 29t8.5 46.5t18 85t31 143.5l17 115l40 10q-40 -188 -63 -289.5t-23 -136.5q0 -31 16 -50.5t43 -19.5q36 0 73 34t70 88.5t57.5 119.5t35.5 126q5 26 6.5 34 t2.5 12.5t2 17.5q0 1 1.5 13.5t3 26t1.5 14.5l40 10q-21 -99 -35.5 -168.5t-23.5 -117t-14 -80.5t-7 -59.5t-2 -55.5v-12.5t1 -16.5z" />
<glyph unicode="&#x170;" horiz-adv-x="568" d="M402 819q-47 -32 -93 -52.5t-87 -31.5l-4 14q41 19 81 43t74 49zM584 819q-47 -32 -93 -52.5t-87 -31.5l-4 14q41 19 81 43t74 49zM242 14q73 0 120 54.5t67 151.5l67 315l17 115l37 10l-92 -430q-25 -116 -83 -178t-143 -62q-67 0 -102.5 37.5t-35.5 102.5 q0 14 1.5 28.5t6 39.5t13 66t22.5 107t35 164l18 115l37 10q-29 -136 -48 -224.5t-30 -142t-17 -82.5t-7.5 -44.5t-1.5 -29.5q0 -57 30.5 -90t88.5 -33z" />
<glyph unicode="&#x171;" d="M327 731q-25 -46 -52 -83t-56 -66l-11 6q55 69 92 145zM432 731q-25 -46 -52 -83t-56 -66l-11 6q55 69 92 145zM358 0h-30q0 4 -0.5 9t-0.5 21q0 12 0.5 23.5t3 30t8 50.5t14.5 84q-25 -65 -59.5 -116.5t-75 -81.5t-83.5 -30q-31 0 -55 19.5t-24 71.5q0 13 2.5 29 t8.5 46.5t18 85t31 143.5l17 115l40 10q-40 -188 -63 -289.5t-23 -136.5q0 -31 16 -50.5t43 -19.5q36 0 73 34t70 88.5t57.5 119.5t35.5 126q5 26 6.5 34t2.5 12.5t2 17.5q0 1 1.5 13.5t3 26t1.5 14.5l40 10q-21 -99 -35.5 -168.5t-23.5 -117t-14 -80.5t-7 -59.5t-2 -55.5 v-12.5t1 -16.5z" />
<glyph unicode="&#x172;" horiz-adv-x="579" d="M257 14q73 0 120 54.5t67 151.5l67 315l17 115l37 10l-92 -430q-32 -151 -119 -209q-51 -39 -86.5 -71.5t-35.5 -67.5q0 -19 11 -27t29 -8q14 0 27.5 4t26.5 11l4 -16q-13 -9 -32.5 -15.5t-41.5 -6.5q-27 0 -43 11.5t-16 36.5q0 34 28 64.5t67 58.5q-22 -5 -45 -5 q-67 0 -102.5 37.5t-35.5 102.5q0 14 1.5 28.5t6 39.5t13 66t22.5 107t35 164l18 115l37 10q-29 -136 -48 -224.5t-30 -142t-17 -82.5t-7.5 -44.5t-1.5 -29.5q0 -57 30.5 -90t88.5 -33z" />
<glyph unicode="&#x173;" d="M358 0q-35 -12 -65 -32.5t-48 -44t-18 -45.5q0 -16 11 -23.5t29 -7.5q14 0 27.5 4t26.5 11l4 -16q-13 -9 -32.5 -15.5t-41.5 -6.5q-27 0 -43 11.5t-16 32.5q0 27 20.5 53.5t51.5 48.5t64 36q-1 3 -1 8.5v15.5q0 12 0.5 23.5t3 30t8 50.5t14.5 84q-25 -65 -59.5 -116.5 t-75 -81.5t-83.5 -30q-31 0 -55 19.5t-24 71.5q0 13 2.5 29t8.5 46.5t18 85t31 143.5l17 115l40 10q-40 -188 -63 -289.5t-23 -136.5q0 -31 16 -50.5t43 -19.5q36 0 73 34t70 88.5t57.5 119.5t35.5 126q5 26 6.5 34t2.5 12.5t2 17.5q0 1 1.5 13.5t3 26t1.5 14.5l40 10 q-21 -99 -35.5 -168.5t-23.5 -117t-14 -80.5t-7 -59.5t-2 -55.5v-12.5t1 -16.5z" />
<glyph unicode="&#x174;" horiz-adv-x="771" d="M395 732l-5 13q30 23 54 43.5t48 48.5l32 6q11 -27 26 -50t37 -48l-11 -13q-45 30 -74 75q-50 -45 -107 -75zM143 0l-18 650l27 10l17 -635h1l287 625h28l20 -625h1l287 635l23 -10l-295 -650h-40l-20 600h-2l-275 -600h-41z" />
<glyph unicode="&#x175;" horiz-adv-x="636" d="M281 582l-6 9q28 34 50.5 67t44.5 73l29 6q5 -40 13.5 -74.5t21.5 -71.5l-9 -9q-16 24 -27 55t-19 66q-23 -35 -47.5 -66t-50.5 -55zM102 256q-4 66 -10 128.5t-17 115.5l29 10q10 -52 16 -118t10 -133q4 -61 5.5 -121.5t1.5 -112.5h1q51 78 94 164t69.5 167t26.5 144 l29 10q9 -51 15.5 -114t10.5 -129q4 -64 5.5 -126t1.5 -116h1q51 78 94.5 164t69.5 167.5t26 145.5q9 8 19 8q14 0 14 -18q0 -29 -15.5 -85.5t-44.5 -128t-69.5 -146.5t-91.5 -141l-32 9q0 64 -2 138t-6.5 147t-9.5 137v0q-7 -42 -25 -95.5t-45 -112t-61 -116t-72 -107.5 l-32 9q0 60 -1 125.5t-5 130.5z" />
<glyph unicode="&#x176;" horiz-adv-x="481" d="M250 732l-5 13q30 23 54 43.5t48 48.5l32 6q11 -27 26 -50t37 -48l-11 -13q-45 30 -74 75q-50 -45 -107 -75zM200 0h-27l45 213l-93 437l27 10l88 -410h1l262 410l23 -10l-280 -438v0z" />
<glyph unicode="&#x177;" horiz-adv-x="395" d="M163 582l-6 9q28 34 50.5 67t44.5 73l29 6q5 -40 13.5 -74.5t21.5 -71.5l-9 -9q-16 24 -27 55t-19 66q-23 -35 -47.5 -66t-50.5 -55zM148 -10q-37 -48 -81.5 -90.5t-88 -68.5t-79.5 -26q-16 0 -27 6.5t-11 16.5q0 11 8 19q6 -2 15.5 -4t18.5 -2q29 0 69.5 22.5t82.5 59.5 t74 80l-12 1q0 65 -2.5 130t-6.5 130q-4 64 -11 124t-17 112l29 10q10 -55 17 -116.5t11 -124.5q9 -126 9 -244h1q38 59 73 122t62 126.5t43 122t16 106.5q9 8 19 8q14 0 14 -18q0 -28 -16 -84.5t-45.5 -128t-71 -147t-93.5 -142.5z" />
<glyph unicode="&#x178;" horiz-adv-x="481" d="M299 802q0 -20 -9.5 -36.5t-26.5 -16.5q-10 0 -14.5 6.5t-4.5 16.5q0 20 11 36t27 16q17 0 17 -22zM467 801q0 -18 -9.5 -35t-26.5 -17q-19 0 -19 24q0 18 11 34.5t27 16.5q17 0 17 -23zM200 0h-27l45 213l-93 437l27 10l88 -410h1l262 410l23 -10l-280 -438v0z" />
<glyph unicode="&#x179;" horiz-adv-x="436" d="M412 816q-40 -32 -80.5 -52.5t-75.5 -31.5l-4 17q35 19 69.5 43t64.5 49zM338 0h-345l-2 18l444 604h-118t-80 -0.5t-58.5 -2t-53.5 -4.5l12 35h334l1 -18l-444 -604h119.5t80 1.5t61 5t63.5 10.5z" />
<glyph unicode="&#x17a;" horiz-adv-x="415" d="M338 730q-26 -46 -55 -83t-58 -66l-13 6q26 33 50.5 71t42.5 75zM3 -10l-7 14q101 108 185 217t140 213q-41 24 -83.5 34t-66.5 10q-19 0 -36 -9t-29 -41l-22 5q11 46 33 61.5t55 15.5q40 0 79 -16.5t79 -43.5q16 30 29 60q23 0 23 -15q0 -14 -18.5 -49.5t-51 -84.5 t-73.5 -104.5t-86.5 -110.5t-90.5 -101q37 0 62.5 -6t45.5 -11.5t42 -5.5q31 0 55 11.5t41 57.5l22 -5q-16 -55 -45.5 -75.5t-71.5 -20.5q-25 0 -47 7.5t-43.5 15t-47.5 7.5q-25 0 -40 -7t-32 -23z" />
<glyph unicode="&#x17b;" horiz-adv-x="436" d="M362 803q0 -17 -10.5 -36t-27.5 -19q-20 0 -20 25q0 20 12 37.5t27 17.5q19 0 19 -25zM338 0h-345l-2 18l444 604h-118t-80 -0.5t-58.5 -2t-53.5 -4.5l12 35h334l1 -18l-444 -604h119.5t80 1.5t61 5t63.5 10.5z" />
<glyph unicode="&#x17c;" horiz-adv-x="415" d="M304 670q0 -17 -10.5 -36t-27.5 -19q-20 0 -20 25q0 20 12 37.5t27 17.5q19 0 19 -25zM3 -10l-7 14q101 108 185 217t140 213q-41 24 -83.5 34t-66.5 10q-19 0 -36 -9t-29 -41l-22 5q11 46 33 61.5t55 15.5q40 0 79 -16.5t79 -43.5q16 30 29 60q23 0 23 -15 q0 -14 -18.5 -49.5t-51 -84.5t-73.5 -104.5t-86.5 -110.5t-90.5 -101q37 0 62.5 -6t45.5 -11.5t42 -5.5q31 0 55 11.5t41 57.5l22 -5q-16 -55 -45.5 -75.5t-71.5 -20.5q-25 0 -47 7.5t-43.5 15t-47.5 7.5q-25 0 -40 -7t-32 -23z" />
<glyph unicode="&#x17d;" horiz-adv-x="436" d="M427 842l5 -13q-30 -22 -54 -43t-48 -49l-32 -6q-11 27 -26 50t-37 48l11 13q45 -30 74 -75q50 45 107 75zM338 0h-345l-2 18l444 604h-118t-80 -0.5t-58.5 -2t-53.5 -4.5l12 35h334l1 -18l-444 -604h119.5t80 1.5t61 5t63.5 10.5z" />
<glyph unicode="&#x17e;" horiz-adv-x="415" d="M352 749l6 -9q-28 -34 -50.5 -66.5t-44.5 -73.5l-29 -6q-4 40 -13 74.5t-22 71.5l9 9q16 -24 27 -55t19 -66q23 35 47.5 66t50.5 55zM3 -10l-7 14q101 108 185 217t140 213q-41 24 -83.5 34t-66.5 10q-19 0 -36 -9t-29 -41l-22 5q11 46 33 61.5t55 15.5q40 0 79 -16.5 t79 -43.5q16 30 29 60q23 0 23 -15q0 -14 -18.5 -49.5t-51 -84.5t-73.5 -104.5t-86.5 -110.5t-90.5 -101q37 0 62.5 -6t45.5 -11.5t42 -5.5q31 0 55 11.5t41 57.5l22 -5q-16 -55 -45.5 -75.5t-71.5 -20.5q-25 0 -47 7.5t-43.5 15t-47.5 7.5q-25 0 -40 -7t-32 -23z" />
<glyph unicode="&#x18f;" horiz-adv-x="512" d="M133 500l-18 10q24 41 57.5 75t73 54.5t81.5 20.5q68 0 106.5 -56t38.5 -157q0 -65 -15.5 -130.5t-43.5 -124t-65.5 -104t-81 -72t-90.5 -26.5q-45 0 -74 26.5t-29 78.5q0 48 24.5 90t66.5 75.5t94.5 55.5t109.5 31l32 4t33 3q7 43 7 85q0 87 -31 140.5t-93 53.5 q-37 0 -71 -18.5t-62.5 -48.5t-49.5 -66zM103 96q0 -36 21.5 -59t61.5 -23q43 0 82.5 26.5t71.5 72t55 103t35 118.5q-93 -7 -156 -32.5t-100.5 -61.5t-54 -74t-16.5 -70z" />
<glyph unicode="&#x192;" horiz-adv-x="432" d="M386 307l-163 3l-78 -260q-9 -30 -23 -64.5t-35 -66t-51 -51t-71 -19.5q-22 0 -46.5 6.5t-43.5 19.5l19 28q7 -7 29 -18.5t50 -11.5q38 0 66 25.5t48 67t34 87.5l76 258l-78 1l6 15l78 5q6 19 15.5 52t19 65.5t15.5 50.5q27 81 72 120.5t103 39.5q49 0 83 -26l-21 -36 q-10 15 -28.5 26.5t-49.5 11.5q-43 0 -75 -31t-58 -108q-9 -25 -18.5 -56t-17.5 -60.5t-14 -48.5h166z" />
<glyph unicode="&#x19d;" horiz-adv-x="587" d="M-66 -195l2 24q52 25 80 64.5t41 97.5l116 544l17 115l45 10l173 -632h2l127 622l32 10l-140 -660h-42l-171 623h-1q-9 -44 -14.5 -72t-10 -49t-9 -43t-11.5 -54.5t-17.5 -83.5t-26.5 -129t-39 -192q-13 -64 -49 -117t-104 -78z" />
<glyph unicode="&#x1cd;" horiz-adv-x="501" d="M459 842l5 -13q-30 -22 -54 -43t-48 -49l-32 -6q-11 27 -26 50t-37 48l11 13q45 -30 74 -75q50 45 107 75zM15 0h-28l267 532l59 118l46 10l49 -660h-28l-14 182h-259zM331 628l-209 -416h242l-32 416h-1z" />
<glyph unicode="&#x1ce;" horiz-adv-x="492" d="M426 749l6 -9q-28 -34 -50.5 -66.5t-44.5 -73.5l-29 -6q-4 40 -13 74.5t-22 71.5l9 9q16 -24 27 -55t19 -66q23 35 47.5 66t50.5 55zM41 124q0 65 24 132.5t67 125t100.5 93t125.5 35.5q26 0 48 -5t41 -15l-42 -173q-12 -49 -27 -125.5t-15 -162.5v-12.5t1 -16.5h-30 q0 4 -0.5 8.5t-0.5 21.5q0 45 6 92.5t20 118.5q-28 -73 -66 -130t-80 -89t-84 -32q-40 0 -64 34.5t-24 99.5zM73 127q0 -48 15.5 -80.5t45.5 -32.5q31 0 67.5 30.5t73 85.5t69 128.5t56.5 159.5q5 22 11 49q-15 9 -35 14t-41 5q-43 0 -82.5 -22.5t-72 -60t-56.5 -84.5 t-37.5 -96.5t-13.5 -95.5z" />
<glyph unicode="&#x1cf;" horiz-adv-x="245" d="M328 842l5 -13q-30 -22 -54 -43t-48 -49l-32 -6q-11 27 -26 50t-37 48l11 13q45 -30 74 -75q50 45 107 75zM87 0h-28l114 535l17 115l37 10z" />
<glyph unicode="&#x1d0;" horiz-adv-x="220" d="M239 737l10 -7q-24 -35 -43.5 -68t-41.5 -74l-33 -6q-4 41 -10 75.5t-15 72.5l12 7q19 -49 35 -120q46 68 86 120zM173 510q-21 -99 -35.5 -168.5t-23.5 -117t-14 -80.5t-7 -59.5t-2 -55.5v-12.5t1 -16.5h-30q0 2 -0.5 10t-0.5 13q0 40 4 80.5t12.5 90t22.5 114.5l16 74 l17 118z" />
<glyph unicode="&#x1d1;" horiz-adv-x="584" d="M500 842l5 -13q-30 -22 -54 -43t-48 -49l-32 -6q-11 27 -26 50t-37 48l11 13q45 -30 74 -75q50 45 107 75zM543 444q0 -60 -14.5 -123.5t-41.5 -122.5t-65 -106t-85.5 -74.5t-102.5 -27.5q-77 0 -119 58t-42 159q0 59 14.5 122.5t41.5 122.5t65 106t85.5 74.5t102.5 27.5 q78 0 119.5 -57.5t41.5 -158.5zM105 213q0 -92 36 -145.5t104 -53.5q49 0 90.5 26t74 70.5t55 99.5t34.5 113.5t12 112.5q0 93 -35.5 146.5t-103.5 53.5q-49 0 -90.5 -26.5t-74 -71t-55.5 -100t-35 -114t-12 -111.5z" />
<glyph unicode="&#x1d2;" horiz-adv-x="471" d="M416 749l6 -9q-28 -34 -50.5 -66.5t-44.5 -73.5l-29 -6q-4 40 -13 74.5t-22 71.5l9 9q16 -24 27 -55t19 -66q23 35 47.5 66t50.5 55zM425 356q0 -59 -19.5 -122t-55 -117.5t-83 -88.5t-102.5 -34t-87.5 36.5t-32.5 108.5q0 61 20.5 125t56 119t83 89t101.5 34 q60 0 89.5 -41t29.5 -109zM79 148q0 -68 28 -100t70 -32q44 0 83 31t68.5 81t46.5 108.5t17 113.5q0 61 -24 97.5t-71 36.5q-43 0 -82.5 -31t-70 -81.5t-48 -109.5t-17.5 -114z" />
<glyph unicode="&#x1d3;" horiz-adv-x="568" d="M495 842l5 -13q-30 -22 -54 -43t-48 -49l-32 -6q-11 27 -26 50t-37 48l11 13q45 -30 74 -75q50 45 107 75zM242 14q73 0 120 54.5t67 151.5l67 315l17 115l37 10l-92 -430q-25 -116 -83 -178t-143 -62q-67 0 -102.5 37.5t-35.5 102.5q0 14 1.5 28.5t6 39.5t13 66 t22.5 107t35 164l18 115l37 10q-29 -136 -48 -224.5t-30 -142t-17 -82.5t-7.5 -44.5t-1.5 -29.5q0 -57 30.5 -90t88.5 -33z" />
<glyph unicode="&#x1d4;" d="M397 749l6 -9q-28 -34 -50.5 -66.5t-44.5 -73.5l-29 -6q-4 40 -13 74.5t-22 71.5l9 9q16 -24 27 -55t19 -66q23 35 47.5 66t50.5 55zM358 0h-30q0 4 -0.5 9t-0.5 21q0 12 0.5 23.5t3 30t8 50.5t14.5 84q-25 -65 -59.5 -116.5t-75 -81.5t-83.5 -30q-31 0 -55 19.5 t-24 71.5q0 13 2.5 29t8.5 46.5t18 85t31 143.5l17 115l40 10q-40 -188 -63 -289.5t-23 -136.5q0 -31 16 -50.5t43 -19.5q36 0 73 34t70 88.5t57.5 119.5t35.5 126q5 26 6.5 34t2.5 12.5t2 17.5q0 1 1.5 13.5t3 26t1.5 14.5l40 10q-21 -99 -35.5 -168.5t-23.5 -117 t-14 -80.5t-7 -59.5t-2 -55.5v-12.5t1 -16.5z" />
<glyph unicode="&#x1d5;" horiz-adv-x="568" d="M340 944l7 33h190l-7 -33h-190zM345 802q0 -20 -9.5 -36.5t-26.5 -16.5q-10 0 -14.5 6.5t-4.5 16.5q0 20 11 36t27 16q17 0 17 -22zM513 801q0 -18 -9.5 -35t-26.5 -17q-19 0 -19 24q0 18 11 34.5t27 16.5q17 0 17 -23zM242 14q73 0 120 54.5t67 151.5l67 315l17 115 l37 10l-92 -430q-25 -116 -83 -178t-143 -62q-67 0 -102.5 37.5t-35.5 102.5q0 14 1.5 28.5t6 39.5t13 66t22.5 107t35 164l18 115l37 10q-29 -136 -48 -224.5t-30 -142t-17 -82.5t-7.5 -44.5t-1.5 -29.5q0 -57 30.5 -90t88.5 -33z" />
<glyph unicode="&#x1d6;" d="M259 839l6 26h200l-6 -26h-200zM276 659q-4 -16 -13 -28.5t-23 -12.5q-12 0 -16.5 10t-1.5 24q4 17 14 29t23 12q11 0 15.5 -10t1.5 -24zM417 659q-3 -16 -12 -28.5t-23 -12.5q-12 0 -16.5 10t-1.5 24q4 17 14 29t23 12q11 0 15.5 -10t0.5 -24zM358 0h-30q0 4 -0.5 9 t-0.5 21q0 12 0.5 23.5t3 30t8 50.5t14.5 84q-25 -65 -59.5 -116.5t-75 -81.5t-83.5 -30q-31 0 -55 19.5t-24 71.5q0 13 2.5 29t8.5 46.5t18 85t31 143.5l17 115l40 10q-40 -188 -63 -289.5t-23 -136.5q0 -31 16 -50.5t43 -19.5q36 0 73 34t70 88.5t57.5 119.5t35.5 126 q5 26 6.5 34t2.5 12.5t2 17.5q0 1 1.5 13.5t3 26t1.5 14.5l40 10q-21 -99 -35.5 -168.5t-23.5 -117t-14 -80.5t-7 -59.5t-2 -55.5v-12.5t1 -16.5z" />
<glyph unicode="&#x1d7;" horiz-adv-x="568" d="M517 990q-40 -32 -80.5 -52.5t-75.5 -31.5l-4 17q35 19 69.5 43t64.5 49zM345 802q0 -20 -9.5 -36.5t-26.5 -16.5q-10 0 -14.5 6.5t-4.5 16.5q0 20 11 36t27 16q17 0 17 -22zM513 801q0 -18 -9.5 -35t-26.5 -17q-19 0 -19 24q0 18 11 34.5t27 16.5q17 0 17 -23zM242 14 q73 0 120 54.5t67 151.5l67 315l17 115l37 10l-92 -430q-25 -116 -83 -178t-143 -62q-67 0 -102.5 37.5t-35.5 102.5q0 14 1.5 28.5t6 39.5t13 66t22.5 107t35 164l18 115l37 10q-29 -136 -48 -224.5t-30 -142t-17 -82.5t-7.5 -44.5t-1.5 -29.5q0 -57 30.5 -90t88.5 -33z " />
<glyph unicode="&#x1d8;" d="M424 923q-26 -46 -55 -83t-58 -66l-13 6q26 33 50.5 71t42.5 75zM276 659q-4 -16 -13 -28.5t-23 -12.5q-12 0 -16.5 10t-1.5 24q4 17 14 29t23 12q11 0 15.5 -10t1.5 -24zM417 659q-3 -16 -12 -28.5t-23 -12.5q-12 0 -16.5 10t-1.5 24q4 17 14 29t23 12q11 0 15.5 -10 t0.5 -24zM358 0h-30q0 4 -0.5 9t-0.5 21q0 12 0.5 23.5t3 30t8 50.5t14.5 84q-25 -65 -59.5 -116.5t-75 -81.5t-83.5 -30q-31 0 -55 19.5t-24 71.5q0 13 2.5 29t8.5 46.5t18 85t31 143.5l17 115l40 10q-40 -188 -63 -289.5t-23 -136.5q0 -31 16 -50.5t43 -19.5q36 0 73 34 t70 88.5t57.5 119.5t35.5 126q5 26 6.5 34t2.5 12.5t2 17.5q0 1 1.5 13.5t3 26t1.5 14.5l40 10q-21 -99 -35.5 -168.5t-23.5 -117t-14 -80.5t-7 -59.5t-2 -55.5v-12.5t1 -16.5z" />
<glyph unicode="&#x1d9;" horiz-adv-x="568" d="M532 1016l5 -13q-30 -22 -54 -43t-48 -49l-32 -6q-11 27 -26 50t-37 48l11 13q45 -30 74 -75q50 45 107 75zM345 802q0 -20 -9.5 -36.5t-26.5 -16.5q-10 0 -14.5 6.5t-4.5 16.5q0 20 11 36t27 16q17 0 17 -22zM513 801q0 -18 -9.5 -35t-26.5 -17q-19 0 -19 24 q0 18 11 34.5t27 16.5q17 0 17 -23zM242 14q73 0 120 54.5t67 151.5l67 315l17 115l37 10l-92 -430q-25 -116 -83 -178t-143 -62q-67 0 -102.5 37.5t-35.5 102.5q0 14 1.5 28.5t6 39.5t13 66t22.5 107t35 164l18 115l37 10q-29 -136 -48 -224.5t-30 -142t-17 -82.5 t-7.5 -44.5t-1.5 -29.5q0 -57 30.5 -90t88.5 -33z" />
<glyph unicode="&#x1da;" d="M438 942l6 -9q-28 -34 -50.5 -66.5t-44.5 -73.5l-29 -6q-4 40 -13 74.5t-22 71.5l9 9q16 -24 27 -55t19 -66q23 35 47.5 66t50.5 55zM276 659q-4 -16 -13 -28.5t-23 -12.5q-12 0 -16.5 10t-1.5 24q4 17 14 29t23 12q11 0 15.5 -10t1.5 -24zM417 659q-3 -16 -12 -28.5 t-23 -12.5q-12 0 -16.5 10t-1.5 24q4 17 14 29t23 12q11 0 15.5 -10t0.5 -24zM358 0h-30q0 4 -0.5 9t-0.5 21q0 12 0.5 23.5t3 30t8 50.5t14.5 84q-25 -65 -59.5 -116.5t-75 -81.5t-83.5 -30q-31 0 -55 19.5t-24 71.5q0 13 2.5 29t8.5 46.5t18 85t31 143.5l17 115l40 10 q-40 -188 -63 -289.5t-23 -136.5q0 -31 16 -50.5t43 -19.5q36 0 73 34t70 88.5t57.5 119.5t35.5 126q5 26 6.5 34t2.5 12.5t2 17.5q0 1 1.5 13.5t3 26t1.5 14.5l40 10q-21 -99 -35.5 -168.5t-23.5 -117t-14 -80.5t-7 -59.5t-2 -55.5v-12.5t1 -16.5z" />
<glyph unicode="&#x1db;" horiz-adv-x="568" d="M506 922l-11 -17q-31 11 -63 31.5t-61 52.5l35 25q42 -53 100 -92zM345 802q0 -20 -9.5 -36.5t-26.5 -16.5q-10 0 -14.5 6.5t-4.5 16.5q0 20 11 36t27 16q17 0 17 -22zM513 801q0 -18 -9.5 -35t-26.5 -17q-19 0 -19 24q0 18 11 34.5t27 16.5q17 0 17 -23zM242 14 q73 0 120 54.5t67 151.5l67 315l17 115l37 10l-92 -430q-25 -116 -83 -178t-143 -62q-67 0 -102.5 37.5t-35.5 102.5q0 14 1.5 28.5t6 39.5t13 66t22.5 107t35 164l18 115l37 10q-29 -136 -48 -224.5t-30 -142t-17 -82.5t-7.5 -44.5t-1.5 -29.5q0 -57 30.5 -90t88.5 -33z " />
<glyph unicode="&#x1dc;" d="M392 780l-13 -5q-17 29 -30 66t-19 83l31 2q3 -37 11 -75t20 -71zM276 659q-4 -16 -13 -28.5t-23 -12.5q-12 0 -16.5 10t-1.5 24q4 17 14 29t23 12q11 0 15.5 -10t1.5 -24zM417 659q-3 -16 -12 -28.5t-23 -12.5q-12 0 -16.5 10t-1.5 24q4 17 14 29t23 12q11 0 15.5 -10 t0.5 -24zM358 0h-30q0 4 -0.5 9t-0.5 21q0 12 0.5 23.5t3 30t8 50.5t14.5 84q-25 -65 -59.5 -116.5t-75 -81.5t-83.5 -30q-31 0 -55 19.5t-24 71.5q0 13 2.5 29t8.5 46.5t18 85t31 143.5l17 115l40 10q-40 -188 -63 -289.5t-23 -136.5q0 -31 16 -50.5t43 -19.5q36 0 73 34 t70 88.5t57.5 119.5t35.5 126q5 26 6.5 34t2.5 12.5t2 17.5q0 1 1.5 13.5t3 26t1.5 14.5l40 10q-21 -99 -35.5 -168.5t-23.5 -117t-14 -80.5t-7 -59.5t-2 -55.5v-12.5t1 -16.5z" />
<glyph unicode="&#x1e6;" horiz-adv-x="517" d="M516 842l5 -13q-30 -22 -54 -43t-48 -49l-32 -6q-11 27 -26 50t-37 48l11 13q45 -30 74 -75q50 45 107 75zM400 29q-31 -19 -69 -29t-75 -10q-90 0 -136.5 59t-46.5 165q0 62 16 125t45.5 120.5t71.5 103t94.5 71.5t113.5 26q30 0 58.5 -7.5t50.5 -19.5l-17 -34 q-19 17 -46.5 27t-59.5 10q-55 0 -100.5 -25t-81.5 -67.5t-61.5 -96t-38.5 -111.5t-13 -113q0 -97 41 -152.5t121 -55.5q58 0 109 26l21 102l18 115l36 10z" />
<glyph unicode="&#x1e7;" horiz-adv-x="429" d="M369 749l6 -9q-28 -34 -50.5 -66.5t-44.5 -73.5l-29 -6q-4 40 -13 74.5t-22 71.5l9 9q16 -24 27 -55t19 -66q23 35 47.5 66t50.5 55zM331 -55q0 -39 -32.5 -70.5t-84.5 -50.5t-113 -19q-70 0 -106.5 26.5t-36.5 70.5q0 30 13.5 53t31.5 39t31 23l7 -11q-19 -16 -37 -41 t-18 -57q0 -36 31.5 -57.5t89.5 -21.5q46 0 91 13.5t75 38t30 56.5q0 26 -20 43t-49 28.5t-58 22t-49 23.5t-20 33t20 39t51 38v1q-98 0 -98 104q0 40 14.5 82t41 78t62 58.5t76.5 22.5h56.5t54 1.5t65.5 3.5q3 -6 3 -11q0 -9 -9 -16.5t-26 -7.5q-15 0 -41.5 6t-55.5 14 l-2 -2q24 -10 36 -33.5t12 -63.5q0 -67 -37 -128.5t-120 -113.5q-24 -15 -49 -32t-25 -34q0 -14 19.5 -24t49 -19t58.5 -21.5t48.5 -32t19.5 -51.5zM110 274q0 -46 19 -67.5t49 -21.5q31 0 59.5 20t51 52.5t35.5 70t13 71.5q0 39 -18 63.5t-54 24.5q-32 0 -60 -19.5 t-49.5 -51.5t-33.5 -69t-12 -73z" />
<glyph unicode="&#x1ea;" horiz-adv-x="598" d="M558 444q0 -61 -15 -126t-43.5 -125t-68 -107t-88.5 -72q-52 -30 -89.5 -65t-37.5 -67q0 -18 11 -26.5t29 -8.5q14 0 27.5 4t26.5 11l4 -16q-13 -9 -32.5 -15.5t-40.5 -6.5q-28 0 -44 13t-16 35q0 31 28 62.5t66 57.5q-13 -2 -26 -2q-77 0 -119 58t-42 159 q0 59 14.5 122.5t41.5 122.5t65 106t85.5 74.5t102.5 27.5q78 0 119.5 -57.5t41.5 -158.5zM120 213q0 -92 36 -145.5t104 -53.5q49 0 90.5 26t74 70.5t55 99.5t34.5 113.5t12 112.5q0 93 -35.5 146.5t-103.5 53.5q-49 0 -90.5 -26.5t-74 -71t-55.5 -100t-35 -114t-12 -111.5 z" />
<glyph unicode="&#x1eb;" horiz-adv-x="471" d="M425 356q0 -60 -21 -125.5t-58 -120.5t-86 -87q-51 -38 -78 -71.5t-27 -73.5q0 -16 11 -23.5t29 -7.5q14 0 27.5 4t26.5 11l4 -16q-13 -9 -32.5 -15.5t-41.5 -6.5q-27 0 -43 11.5t-16 32.5q0 38 21.5 69.5t55.5 59.5q-16 -3 -32 -3q-55 0 -87.5 36.5t-32.5 108.5 q0 61 20.5 125t56 119t83 89t101.5 34q60 0 89.5 -41t29.5 -109zM79 148q0 -68 28 -100t70 -32q44 0 83 31t68.5 81t46.5 108.5t17 113.5q0 61 -24 97.5t-71 36.5q-43 0 -82.5 -31t-70 -81.5t-48 -109.5t-17.5 -114z" />
<glyph unicode="&#x1f4;" horiz-adv-x="517" d="M501 816q-40 -32 -80.5 -52.5t-75.5 -31.5l-4 17q35 19 69.5 43t64.5 49zM400 29q-31 -19 -69 -29t-75 -10q-90 0 -136.5 59t-46.5 165q0 62 16 125t45.5 120.5t71.5 103t94.5 71.5t113.5 26q30 0 58.5 -7.5t50.5 -19.5l-17 -34q-19 17 -46.5 27t-59.5 10 q-55 0 -100.5 -25t-81.5 -67.5t-61.5 -96t-38.5 -111.5t-13 -113q0 -97 41 -152.5t121 -55.5q58 0 109 26l21 102l18 115l36 10z" />
<glyph unicode="&#x1f5;" horiz-adv-x="429" d="M342 730q-26 -46 -55 -83t-58 -66l-13 6q26 33 50.5 71t42.5 75zM331 -55q0 -39 -32.5 -70.5t-84.5 -50.5t-113 -19q-70 0 -106.5 26.5t-36.5 70.5q0 30 13.5 53t31.5 39t31 23l7 -11q-19 -16 -37 -41t-18 -57q0 -36 31.5 -57.5t89.5 -21.5q46 0 91 13.5t75 38t30 56.5 q0 26 -20 43t-49 28.5t-58 22t-49 23.5t-20 33t20 39t51 38v1q-98 0 -98 104q0 40 14.5 82t41 78t62 58.5t76.5 22.5h56.5t54 1.5t65.5 3.5q3 -6 3 -11q0 -9 -9 -16.5t-26 -7.5q-15 0 -41.5 6t-55.5 14l-2 -2q24 -10 36 -33.5t12 -63.5q0 -67 -37 -128.5t-120 -113.5 q-24 -15 -49 -32t-25 -34q0 -14 19.5 -24t49 -19t58.5 -21.5t48.5 -32t19.5 -51.5zM110 274q0 -46 19 -67.5t49 -21.5q31 0 59.5 20t51 52.5t35.5 70t13 71.5q0 39 -18 63.5t-54 24.5q-32 0 -60 -19.5t-49.5 -51.5t-33.5 -69t-12 -73z" />
<glyph unicode="&#x1fa;" horiz-adv-x="501" d="M485 1008q-40 -32 -80.5 -52.5t-75.5 -31.5l-4 17q35 19 69.5 43t64.5 49zM434 808q0 -24 -12.5 -45t-32 -33.5t-40.5 -12.5q-23 0 -37 14.5t-14 37.5t12.5 43.5t32.5 33.5t42 13q23 0 36 -14t13 -37zM326 776q0 -33 28 -33q20 0 36 18t16 40q0 14 -8 23t-21 9 q-19 0 -35 -17t-16 -40zM15 0h-28l267 532l59 118l46 10l49 -660h-28l-14 182h-259zM331 628l-209 -416h242l-32 416h-1z" />
<glyph unicode="&#x1fb;" horiz-adv-x="492" d="M463 968q-26 -46 -55 -83t-58 -66l-13 6q26 33 50.5 71t42.5 75zM417 682q0 -26 -12 -49t-31.5 -37t-40.5 -14q-22 0 -36.5 16t-14.5 41q0 27 12.5 49.5t32.5 36t41 13.5q23 0 36 -15.5t13 -40.5zM309 645q0 -16 8 -27t21 -11q19 0 36 20.5t17 48.5q0 17 -8 27t-22 10 q-19 0 -35.5 -19.5t-16.5 -48.5zM41 124q0 65 24 132.5t67 125t100.5 93t125.5 35.5q26 0 48 -5t41 -15l-42 -173q-12 -49 -27 -125.5t-15 -162.5v-12.5t1 -16.5h-30q0 4 -0.5 8.5t-0.5 21.5q0 45 6 92.5t20 118.5q-28 -73 -66 -130t-80 -89t-84 -32q-40 0 -64 34.5 t-24 99.5zM73 127q0 -48 15.5 -80.5t45.5 -32.5q31 0 67.5 30.5t73 85.5t69 128.5t56.5 159.5q5 22 11 49q-15 9 -35 14t-41 5q-43 0 -82.5 -22.5t-72 -60t-56.5 -84.5t-37.5 -96.5t-13.5 -95.5z" />
<glyph unicode="&#x1fc;" horiz-adv-x="735" d="M582 816q-40 -32 -80.5 -52.5t-75.5 -31.5l-4 17q35 19 69.5 43t64.5 49zM15 0h-28l353 532l74 118h278l-11 -31l-224 5l-33 -289l198 3l-11 -31l-190 2l-33 -283l250 5l-11 -31h-270l22 182h-243zM433 628l-277 -416h227z" />
<glyph unicode="&#x1fd;" horiz-adv-x="710" d="M538 730q-26 -46 -55 -83t-58 -66l-13 6q26 33 50.5 71t42.5 75zM41 124q0 65 24 132.5t67 125t101.5 93t127.5 35.5q64 0 124 -33q23 16 47 24.5t50 8.5q41 0 67.5 -22t26.5 -65q0 -44 -30.5 -85.5t-87.5 -70.5t-136 -38q-26 -3 -49 -2q-7 -36 -7 -68q0 -64 25 -104.5 t74 -40.5q42 0 83 30t72 70l14 -8q-33 -51 -82 -83.5t-98 -32.5q-55 0 -87.5 44t-32.5 123q0 14 1 28q-42 -87 -97 -141t-109 -54q-40 0 -64 34.5t-24 99.5zM73 127q0 -47 15.5 -80t47.5 -33q33 0 73 36.5t79.5 101.5t71.5 149q16 44 40 83t54 67q-24 15 -55 25t-61 10 q-44 0 -84 -22.5t-73 -60t-57.5 -84.5t-37.5 -96.5t-13 -95.5zM570 486q-33 0 -63 -20.5t-56 -55t-45 -77.5t-30 -88q76 4 127.5 22t82.5 43.5t44.5 53t13.5 51.5q0 30 -19.5 50.5t-54.5 20.5z" />
<glyph unicode="&#x1fe;" horiz-adv-x="584" d="M485 816q-40 -32 -80.5 -52.5t-75.5 -31.5l-4 17q35 19 69.5 43t64.5 49zM543 444q0 -60 -14.5 -123.5t-41.5 -122.5t-65 -106t-85.5 -74.5t-102.5 -27.5q-49 0 -84 24t-54 68l-98 -102l-14 19l103 107q-14 44 -14 101q0 59 14.5 122.5t41.5 122.5t65 106t85.5 74.5 t102.5 27.5q51 0 87 -25.5t55 -73.5l97 102l15 -18l-104 -109q11 -40 11 -92zM105 213q0 -44 8 -79l385 401q-15 48 -47 74.5t-79 26.5q-49 0 -90.5 -26.5t-74 -71t-55.5 -100t-35 -114t-12 -111.5zM511 436q0 39 -7 72l-383 -400q16 -45 47 -69.5t77 -24.5q49 0 90.5 26 t74 70.5t55 99.5t34.5 113.5t12 112.5z" />
<glyph unicode="&#x1ff;" horiz-adv-x="471" d="M402 730q-26 -46 -55 -83t-58 -66l-13 6q26 33 50.5 71t42.5 75zM425 356q0 -59 -19.5 -122t-55 -117.5t-83 -88.5t-102.5 -34q-78 0 -106 67l-55 -54l-12 16l60 59q-7 25 -7 57q0 61 20.5 125t56 119t83 89t101.5 34q40 0 66 -18.5t40 -51.5l57 57l13 -16l-64 -62 q7 -27 7 -59zM79 148q0 -20 3 -37l303 299q-10 35 -32 54.5t-56 19.5q-43 0 -82.5 -31t-70 -81.5t-48 -109.5t-17.5 -114zM392 350q0 19 -2 36l-303 -298q11 -37 35 -54.5t55 -17.5q44 0 83 31t68.5 81t46.5 108.5t17 113.5z" />
<glyph unicode="&#x218;" horiz-adv-x="420" d="M340 171q0 -50 -27 -91t-73.5 -65.5t-103.5 -24.5q-34 0 -67 8.5t-58 20.5l13 35q15 -12 49 -26t76 -14q47 0 83 20.5t56.5 54.5t20.5 74t-18.5 69.5t-46 54.5t-55.5 51t-46.5 58t-18.5 77q0 51 26.5 93.5t72.5 68t104 25.5q27 0 55.5 -5.5t49.5 -16.5l-12 -35 q-10 9 -38.5 21t-66.5 12q-46 0 -82 -21.5t-57 -56t-21 -74.5t18.5 -70t46.5 -56t55.5 -52.5t46 -59t18.5 -75.5zM154 -126q-4 -22 -20.5 -55.5t-40.5 -62.5l-6 5q12 23 20.5 44.5t14.5 42.5h-1q-24 6 -18 33q3 15 12.5 25t21.5 10t16.5 -11.5t0.5 -30.5z" />
<glyph unicode="&#x219;" horiz-adv-x="365" d="M287 128q0 -38 -23 -69.5t-63 -50t-91 -18.5q-31 0 -61.5 7.5t-53.5 17.5l13 35q16 -12 46 -24t69 -12q59 0 97 30.5t38 76.5q0 38 -24.5 65t-60.5 55q-20 16 -39.5 33t-32 39.5t-12.5 52.5q0 38 22.5 71t62 53t91.5 20q25 0 51.5 -4.5t42.5 -12.5l-13 -35 q-11 9 -35.5 18.5t-56.5 9.5q-41 0 -72 -16.5t-47.5 -42t-16.5 -54.5q0 -32 20 -56.5t52 -51.5q22 -18 44 -37t37.5 -43t15.5 -57zM142 -126q-4 -22 -20.5 -55.5t-40.5 -62.5l-6 5q12 23 20.5 44.5t14.5 42.5h-1q-24 6 -18 33q3 15 12.5 25t21.5 10t16.5 -11.5t0.5 -30.5z " />
<glyph unicode="&#x21a;" horiz-adv-x="411" d="M167 0h-28l132 624l-168 -5l11 31h352l-2 -31l-165 5zM154 -126q-4 -22 -20.5 -55.5t-40.5 -62.5l-6 5q12 23 20.5 44.5t14.5 42.5h-1q-24 6 -18 33q3 15 12.5 25t21.5 10t16.5 -11.5t0.5 -30.5z" />
<glyph unicode="&#x21b;" horiz-adv-x="375" d="M314 106q-36 -54 -80.5 -85t-91.5 -31q-33 0 -53.5 19t-20.5 62q0 9 1.5 21t6 34t13 62t22.5 104.5t35 162.5l-52 1l3 16l54 4l40 155l22 3q-9 -44 -17.5 -83.5t-15.5 -74.5h179l-7 -25l-177 3q-25 -117 -40.5 -189t-23 -111t-10.5 -56.5t-3 -26.5q0 -22 12 -39.5 t43 -17.5q39 0 77.5 30t69.5 70zM159 -126q-4 -22 -20.5 -55.5t-40.5 -62.5l-6 5q12 23 20.5 44.5t14.5 42.5h-1q-24 6 -18 33q3 15 12.5 25t21.5 10t16.5 -11.5t0.5 -30.5z" />
<glyph unicode="&#x232;" horiz-adv-x="481" d="M257 770l7 33h190l-7 -33h-190zM200 0h-27l45 213l-93 437l27 10l88 -410h1l262 410l23 -10l-280 -438v0z" />
<glyph unicode="&#x233;" horiz-adv-x="395" d="M150 646l6 26h200l-6 -26h-200zM148 -10q-37 -48 -81.5 -90.5t-88 -68.5t-79.5 -26q-16 0 -27 6.5t-11 16.5q0 11 8 19q6 -2 15.5 -4t18.5 -2q29 0 69.5 22.5t82.5 59.5t74 80l-12 1q0 65 -2.5 130t-6.5 130q-4 64 -11 124t-17 112l29 10q10 -55 17 -116.5t11 -124.5 q9 -126 9 -244h1q38 59 73 122t62 126.5t43 122t16 106.5q9 8 19 8q14 0 14 -18q0 -28 -16 -84.5t-45.5 -128t-71 -147t-93.5 -142.5z" />
<glyph unicode="&#x237;" horiz-adv-x="216" d="M176 510q-28 -131 -56.5 -265t-55.5 -261q-13 -61 -46 -104.5t-91 -74.5l-8 18q44 26 73.5 64t42.5 100l85 398l17 115z" />
<glyph unicode="&#x259;" horiz-adv-x="425" d="M90 386l-14 8q33 51 82 83.5t98 32.5q55 0 87.5 -43.5t32.5 -123.5q0 -62 -19.5 -124.5t-54 -114t-79.5 -83t-95 -31.5q-41 0 -67.5 22t-26.5 65q0 45 30.5 86t87.5 70.5t136 37.5q26 3 49 2q7 36 7 68q0 64 -25 104.5t-74 40.5q-42 0 -82.5 -29.5t-72.5 -70.5zM66 85 q0 -30 19.5 -50.5t54.5 -20.5q33 0 63 20.5t56 55t45 77.5t30 88q-76 -4 -127.5 -22t-82.5 -43.5t-44.5 -53t-13.5 -51.5z" />
<glyph unicode="&#x272;" d="M368 0h-30q0 4 -0.5 9.5t-0.5 19.5q0 53 9 111t20 112.5t20 98t9 67.5q0 34 -17.5 51t-39.5 17q-32 0 -67.5 -30.5t-71 -85.5t-65.5 -130.5t-51 -165.5q-5 -23 -9.5 -45.5t-9.5 -44.5q-13 -61 -46 -104.5t-91 -74.5l-8 18q44 26 73.5 64t42.5 100l85 398l17 115l39 10 l-24 -114t-25 -115q28 67 63.5 118.5t76 81t81.5 29.5q29 0 53 -19.5t24 -73.5q0 -45 -14.5 -105t-29 -133t-14.5 -158q0 -5 0.5 -12t0.5 -9z" />
<glyph unicode="&#x2c6;" horiz-adv-x="299" d="M148 582l-6 9q28 34 50.5 67t44.5 73l29 6q5 -40 13.5 -74.5t21.5 -71.5l-9 -9q-16 24 -27 55t-19 66q-23 -35 -47.5 -66t-50.5 -55z" />
<glyph unicode="&#x2c7;" horiz-adv-x="299" d="M327 749l6 -9q-28 -34 -50.5 -66.5t-44.5 -73.5l-29 -6q-4 40 -13 74.5t-22 71.5l9 9q16 -24 27 -55t19 -66q23 35 47.5 66t50.5 55z" />
<glyph unicode="&#x2d8;" horiz-adv-x="314" d="M226 588q-33 0 -50 34.5t-5 100.5l17 4q-5 -60 7.5 -85.5t40.5 -25.5q56 0 96 113l15 4q-16 -67 -49 -106t-72 -39z" />
<glyph unicode="&#x2d9;" horiz-adv-x="190" d="M212 670q0 -17 -10.5 -36t-27.5 -19q-20 0 -20 25q0 20 12 37.5t27 17.5q19 0 19 -25z" />
<glyph unicode="&#x2da;" horiz-adv-x="270" d="M290 682q0 -26 -12 -49t-31.5 -37t-40.5 -14q-22 0 -36.5 16t-14.5 41q0 27 13 49.5t32.5 36t40.5 13.5q23 0 36 -15.5t13 -40.5zM182 645q0 -16 8 -27t21 -11q19 0 36 20.5t17 48.5q0 17 -8 27t-22 10q-19 0 -35.5 -19.5t-16.5 -48.5z" />
<glyph unicode="&#x2db;" horiz-adv-x="299" d="M166 0q-35 -12 -65 -32.5t-48 -44t-18 -45.5q0 -16 11 -23.5t29 -7.5q14 0 27.5 4t26.5 11l4 -16q-13 -9 -32.5 -15.5t-41.5 -6.5q-27 0 -43 11.5t-16 32.5q0 30 24.5 59t60.5 52t71 34z" />
<glyph unicode="&#x2dc;" horiz-adv-x="368" d="M230 703q22 0 36 -12t26.5 -24t29.5 -12t32.5 16t27.5 35l12 -4q-7 -26 -30 -51.5t-52 -25.5q-21 0 -35 12t-26 24t-30 12q-16 0 -32.5 -15.5t-27.5 -35.5l-11 4q6 17 17.5 34.5t27.5 30t35 12.5z" />
<glyph unicode="&#x2dd;" horiz-adv-x="334" d="M256 731q-25 -46 -52 -83t-56 -66l-11 6q55 69 92 145zM361 731q-25 -46 -52 -83t-56 -66l-11 6q55 69 92 145z" />
<glyph unicode="&#x1e0c;" horiz-adv-x="565" d="M173 535l17 115h96q19 0 48 -2t61 -13t60 -35.5t46 -69t18 -115.5q0 -73 -22.5 -146.5t-67 -134.5t-112 -97.5t-157.5 -36.5h-101zM275 624h-56l-126 -598h77q83 0 143 34t99 90t57.5 122.5t18.5 132.5t-16 107.5t-41.5 64.5t-54.5 33t-56 12t-45 2zM247 -113 q0 -17 -10.5 -36t-27.5 -19q-20 0 -20 25q0 20 12 37.5t27 17.5q19 0 19 -25z" />
<glyph unicode="&#x1e0d;" horiz-adv-x="493" d="M41 124q0 65 24 132.5t67 125t100.5 93t125.5 35.5q33 0 61 -9q4 16 7.5 33.5t7.5 35.5l17 115l40 10q-29 -137 -50 -234t-35 -164t-22 -114t-11.5 -82.5t-3.5 -71.5v-12.5t1 -16.5h-30q0 2 -0.5 10t-0.5 13q0 28 1 52t4 49.5t9.5 60t16.5 84.5q-29 -81 -68 -144t-84 -99 t-89 -36q-40 0 -64 34.5t-24 99.5zM73 127q0 -48 15.5 -80.5t45.5 -32.5q33 0 72.5 35t78.5 97t72 144t55 177q-16 8 -36 13.5t-41 5.5q-43 0 -82.5 -22.5t-72 -60t-56.5 -84.5t-37.5 -96.5t-13.5 -95.5zM215 -113q0 -17 -10.5 -36t-27.5 -19q-20 0 -20 25q0 20 12 37.5 t27 17.5q19 0 19 -25z" />
<glyph unicode="&#x1e24;" horiz-adv-x="585" d="M87 0h-28l114 535l17 115l37 10l-71 -333h313l44 208l18 115l36 10l-140 -660h-27l63 297h-313zM255 -113q0 -17 -10.5 -36t-27.5 -19q-20 0 -20 25q0 20 12 37.5t27 17.5q19 0 19 -25z" />
<glyph unicode="&#x1e25;" horiz-adv-x="482" d="M364 0h-30q0 4 -0.5 9.5t-0.5 19.5q0 53 9 111t20 112.5t20 98t9 67.5q0 34 -17.5 51t-39.5 17q-27 0 -59 -24.5t-63.5 -67.5t-58 -99t-43.5 -119t-20 -128v-28v-8l0.5 -1t0.5 -11h-30q0 5 -0.5 9t-0.5 21q0 73 11.5 137t27.5 141l56 262l17 115l40 10 q-31 -145 -52.5 -244.5t-35.5 -168.5q27 67 63 118.5t76 80.5t81 29q29 0 53 -19.5t24 -73.5q0 -45 -14.5 -105t-29 -133t-14.5 -158q0 -5 0.5 -12t0.5 -9zM243 -113q0 -17 -10.5 -36t-27.5 -19q-20 0 -20 25q0 20 12 37.5t27 17.5q19 0 19 -25z" />
<glyph unicode="&#x1e44;" horiz-adv-x="587" d="M437 803q0 -17 -10.5 -36t-27.5 -19q-20 0 -20 25q0 20 12 37.5t27 17.5q19 0 19 -25zM173 535l17 115l45 10l173 -632h2l127 622l32 10l-140 -660h-42l-171 623h-1l-128 -623h-28z" />
<glyph unicode="&#x1e45;" horiz-adv-x="483" d="M342 670q0 -17 -10.5 -36t-27.5 -19q-20 0 -20 25q0 20 12 37.5t27 17.5q19 0 19 -25zM92 0h-30q0 2 -0.5 10t-0.5 13q0 34 2 63.5t7.5 66t16.5 91.5t29 140l17 116l40 10q-15 -72 -27 -127.5t-20 -98.5q27 66 62.5 117t75.5 80t81 29q29 0 53 -19.5t24 -73.5 q0 -45 -14.5 -105t-29 -133t-14.5 -158q0 -5 0.5 -12t0.5 -9h-30q0 4 -0.5 9.5t-0.5 19.5q0 53 9 111t20 112.5t20 98t9 67.5q0 34 -17.5 51t-39.5 17q-28 0 -61 -26t-65 -71t-59 -104t-43 -124.5t-16 -132.5v-12t1 -16z" />
<glyph unicode="&#x1e5a;" horiz-adv-x="474" d="M87 0h-28l114 535l17 115h100q85 0 125.5 -38.5t40.5 -106.5q0 -77 -44 -138.5t-128 -84.5l92 -282l-31 -10l-91 285q-29 -5 -60 -5h-50zM279 624h-60l-69 -328h54q76 0 125 29.5t73 75.5t24 97q0 47 -17 73t-42 37t-49.5 13.5t-38.5 2.5zM221 -113q0 -17 -10.5 -36 t-27.5 -19q-20 0 -20 25q0 20 12 37.5t27 17.5q19 0 19 -25z" />
<glyph unicode="&#x1e5b;" horiz-adv-x="344" d="M92 0h-30q0 2 -0.5 10t-0.5 13q0 34 2 63.5t7.5 66t16.5 91.5t29 140l17 116l40 10q-11 -54 -20.5 -98.5t-17.5 -80.5q31 79 74.5 129t93.5 50q20 0 38 -4t30 -10l-14 -32q-10 9 -29 15.5t-36 6.5q-26 0 -54 -26.5t-54 -72t-47 -104.5t-33.5 -124.5t-12.5 -130.5v-12 t1 -16zM88 -113q0 -17 -10.5 -36t-27.5 -19q-20 0 -20 25q0 20 12 37.5t27 17.5q19 0 19 -25z" />
<glyph unicode="&#x1e62;" horiz-adv-x="420" d="M340 171q0 -50 -27 -91t-73.5 -65.5t-103.5 -24.5q-34 0 -67 8.5t-58 20.5l13 35q15 -12 49 -26t76 -14q47 0 83 20.5t56.5 54.5t20.5 74t-18.5 69.5t-46 54.5t-55.5 51t-46.5 58t-18.5 77q0 51 26.5 93.5t72.5 68t104 25.5q27 0 55.5 -5.5t49.5 -16.5l-12 -35 q-10 9 -38.5 21t-66.5 12q-46 0 -82 -21.5t-57 -56t-21 -74.5t18.5 -70t46.5 -56t55.5 -52.5t46 -59t18.5 -75.5zM158 -113q0 -17 -10.5 -36t-27.5 -19q-20 0 -20 25q0 20 12 37.5t27 17.5q19 0 19 -25z" />
<glyph unicode="&#x1e63;" horiz-adv-x="365" d="M287 128q0 -38 -23 -69.5t-63 -50t-91 -18.5q-31 0 -61.5 7.5t-53.5 17.5l13 35q16 -12 46 -24t69 -12q59 0 97 30.5t38 76.5q0 38 -24.5 65t-60.5 55q-20 16 -39.5 33t-32 39.5t-12.5 52.5q0 38 22.5 71t62 53t91.5 20q25 0 51.5 -4.5t42.5 -12.5l-13 -35 q-11 9 -35.5 18.5t-56.5 9.5q-41 0 -72 -16.5t-47.5 -42t-16.5 -54.5q0 -32 20 -56.5t52 -51.5q22 -18 44 -37t37.5 -43t15.5 -57zM146 -113q0 -17 -10.5 -36t-27.5 -19q-20 0 -20 25q0 20 12 37.5t27 17.5q19 0 19 -25z" />
<glyph unicode="&#x1e6c;" horiz-adv-x="411" d="M167 0h-28l132 624l-168 -5l11 31h352l-2 -31l-165 5zM158 -113q0 -17 -10.5 -36t-27.5 -19q-20 0 -20 25q0 20 12 37.5t27 17.5q19 0 19 -25z" />
<glyph unicode="&#x1e6d;" horiz-adv-x="375" d="M314 106q-36 -54 -80.5 -85t-91.5 -31q-33 0 -53.5 19t-20.5 62q0 9 1.5 21t6 34t13 62t22.5 104.5t35 162.5l-52 1l3 16l54 4l40 155l22 3q-9 -44 -17.5 -83.5t-15.5 -74.5h179l-7 -25l-177 3q-25 -117 -40.5 -189t-23 -111t-10.5 -56.5t-3 -26.5q0 -22 12 -39.5 t43 -17.5q39 0 77.5 30t69.5 70zM163 -113q0 -17 -10.5 -36t-27.5 -19q-20 0 -20 25q0 20 12 37.5t27 17.5q19 0 19 -25z" />
<glyph unicode="&#x1e80;" horiz-adv-x="771" d="M568 748l-11 -17q-31 11 -63 31.5t-61 52.5l35 25q42 -53 100 -92zM143 0l-18 650l27 10l17 -635h1l287 625h28l20 -625h1l287 635l23 -10l-295 -650h-40l-20 600h-2l-275 -600h-41z" />
<glyph unicode="&#x1e81;" horiz-adv-x="636" d="M401 587l-13 -5q-17 29 -30 66t-19 83l31 2q3 -37 11 -75t20 -71zM102 256q-4 66 -10 128.5t-17 115.5l29 10q10 -52 16 -118t10 -133q4 -61 5.5 -121.5t1.5 -112.5h1q51 78 94 164t69.5 167t26.5 144l29 10q9 -51 15.5 -114t10.5 -129q4 -64 5.5 -126t1.5 -116h1 q51 78 94.5 164t69.5 167.5t26 145.5q9 8 19 8q14 0 14 -18q0 -29 -15.5 -85.5t-44.5 -128t-69.5 -146.5t-91.5 -141l-32 9q0 64 -2 138t-6.5 147t-9.5 137v0q-7 -42 -25 -95.5t-45 -112t-61 -116t-72 -107.5l-32 9q0 60 -1 125.5t-5 130.5z" />
<glyph unicode="&#x1e82;" horiz-adv-x="771" d="M579 816q-40 -32 -80.5 -52.5t-75.5 -31.5l-4 17q35 19 69.5 43t64.5 49zM143 0l-18 650l27 10l17 -635h1l287 625h28l20 -625h1l287 635l23 -10l-295 -650h-40l-20 600h-2l-275 -600h-41z" />
<glyph unicode="&#x1e83;" horiz-adv-x="636" d="M433 730q-26 -46 -55 -83t-58 -66l-13 6q26 33 50.5 71t42.5 75zM102 256q-4 66 -10 128.5t-17 115.5l29 10q10 -52 16 -118t10 -133q4 -61 5.5 -121.5t1.5 -112.5h1q51 78 94 164t69.5 167t26.5 144l29 10q9 -51 15.5 -114t10.5 -129q4 -64 5.5 -126t1.5 -116h1 q51 78 94.5 164t69.5 167.5t26 145.5q9 8 19 8q14 0 14 -18q0 -29 -15.5 -85.5t-44.5 -128t-69.5 -146.5t-91.5 -141l-32 9q0 64 -2 138t-6.5 147t-9.5 137v0q-7 -42 -25 -95.5t-45 -112t-61 -116t-72 -107.5l-32 9q0 60 -1 125.5t-5 130.5z" />
<glyph unicode="&#x1e84;" horiz-adv-x="771" d="M444 802q0 -20 -9.5 -36.5t-26.5 -16.5q-10 0 -14.5 6.5t-4.5 16.5q0 20 11 36t27 16q17 0 17 -22zM612 801q0 -18 -9.5 -35t-26.5 -17q-19 0 -19 24q0 18 11 34.5t27 16.5q17 0 17 -23zM143 0l-18 650l27 10l17 -635h1l287 625h28l20 -625h1l287 635l23 -10l-295 -650 h-40l-20 600h-2l-275 -600h-41z" />
<glyph unicode="&#x1e85;" horiz-adv-x="636" d="M326 659q-4 -16 -13 -28.5t-23 -12.5q-12 0 -16.5 10t-1.5 24q4 17 14 29t23 12q11 0 15.5 -10t1.5 -24zM467 659q-3 -16 -12 -28.5t-23 -12.5q-12 0 -16.5 10t-1.5 24q4 17 14 29t23 12q11 0 15.5 -10t0.5 -24zM102 256q-4 66 -10 128.5t-17 115.5l29 10q10 -52 16 -118 t10 -133q4 -61 5.5 -121.5t1.5 -112.5h1q51 78 94 164t69.5 167t26.5 144l29 10q9 -51 15.5 -114t10.5 -129q4 -64 5.5 -126t1.5 -116h1q51 78 94.5 164t69.5 167.5t26 145.5q9 8 19 8q14 0 14 -18q0 -29 -15.5 -85.5t-44.5 -128t-69.5 -146.5t-91.5 -141l-32 9q0 64 -2 138 t-6.5 147t-9.5 137v0q-7 -42 -25 -95.5t-45 -112t-61 -116t-72 -107.5l-32 9q0 60 -1 125.5t-5 130.5z" />
<glyph unicode="&#x1e92;" horiz-adv-x="436" d="M338 0h-345l-2 18l444 604h-118t-80 -0.5t-58.5 -2t-53.5 -4.5l12 35h334l1 -18l-444 -604h119.5t80 1.5t61 5t63.5 10.5zM168 -113q0 -17 -10.5 -36t-27.5 -19q-20 0 -20 25q0 20 12 37.5t27 17.5q19 0 19 -25z" />
<glyph unicode="&#x1e93;" horiz-adv-x="415" d="M3 -10l-7 14q101 108 185 217t140 213q-41 24 -83.5 34t-66.5 10q-19 0 -36 -9t-29 -41l-22 5q11 46 33 61.5t55 15.5q40 0 79 -16.5t79 -43.5q16 30 29 60q23 0 23 -15q0 -14 -18.5 -49.5t-51 -84.5t-73.5 -104.5t-86.5 -110.5t-90.5 -101q37 0 62.5 -6t45.5 -11.5 t42 -5.5q31 0 55 11.5t41 57.5l22 -5q-16 -55 -45.5 -75.5t-71.5 -20.5q-25 0 -47 7.5t-43.5 15t-47.5 7.5q-25 0 -40 -7t-32 -23zM159 -113q0 -17 -10.5 -36t-27.5 -19q-20 0 -20 25q0 20 12 37.5t27 17.5q19 0 19 -25z" />
<glyph unicode="&#x1e9e;" horiz-adv-x="544" d="M79 77l78 367q16 72 51.5 120t81.5 72t92 24q50 0 86 -28t41 -81l-199 -178q37 -25 72.5 -53t58.5 -63t23 -82q0 -49 -26.5 -91.5t-70.5 -68t-99 -25.5q-22 0 -50.5 6t-54.5 19l6 29q24 -17 53.5 -23.5t49.5 -6.5q44 0 81 21.5t59.5 57.5t22.5 80q0 42 -20.5 74t-55 59.5 t-76.5 55.5l3 19l195 174q-7 42 -35.5 61.5t-63.5 19.5q-45 0 -86 -25.5t-70.5 -68.5t-40.5 -95l-79 -369q-4 -22 -13 -46.5t-17 -41.5l-24 10q13 28 18 42.5t9 34.5z" />
<glyph unicode="&#x1ea0;" horiz-adv-x="501" d="M15 0h-28l267 532l59 118l46 10l49 -660h-28l-14 182h-259zM331 628l-209 -416h242l-32 416h-1zM200 -113q0 -17 -10.5 -36t-27.5 -19q-20 0 -20 25q0 20 12 37.5t27 17.5q19 0 19 -25z" />
<glyph unicode="&#x1ea1;" horiz-adv-x="492" d="M41 124q0 65 24 132.5t67 125t100.5 93t125.5 35.5q26 0 48 -5t41 -15l-42 -173q-12 -49 -27 -125.5t-15 -162.5v-12.5t1 -16.5h-30q0 4 -0.5 8.5t-0.5 21.5q0 45 6 92.5t20 118.5q-28 -73 -66 -130t-80 -89t-84 -32q-40 0 -64 34.5t-24 99.5zM73 127q0 -48 15.5 -80.5 t45.5 -32.5q31 0 67.5 30.5t73 85.5t69 128.5t56.5 159.5q5 22 11 49q-15 9 -35 14t-41 5q-43 0 -82.5 -22.5t-72 -60t-56.5 -84.5t-37.5 -96.5t-13.5 -95.5zM189 -113q0 -17 -10.5 -36t-27.5 -19q-20 0 -20 25q0 20 12 37.5t27 17.5q19 0 19 -25z" />
<glyph unicode="&#x1eb8;" horiz-adv-x="439" d="M331 0h-272l114 535l17 115h283l-11 -31l-243 5l-61 -289l172 3l-11 -31l-166 2l-60 -283l249 5zM216 -113q0 -17 -10.5 -36t-27.5 -19q-20 0 -20 25q0 20 12 37.5t27 17.5q19 0 19 -25z" />
<glyph unicode="&#x1eb9;" horiz-adv-x="425" d="M335 114l14 -8q-33 -51 -82 -83.5t-98 -32.5q-55 0 -87.5 44t-32.5 123q0 62 19.5 124.5t54 114t79.5 83t95 31.5q41 0 67.5 -22t26.5 -65q0 -44 -30.5 -85.5t-87.5 -71t-136 -37.5q-26 -3 -49 -2q-7 -36 -7 -68q0 -64 25 -104.5t74 -40.5q42 0 83 30t72 70zM285 486 q-33 0 -63 -20.5t-56 -55t-45 -77.5t-30 -88q76 4 127.5 22t82.5 43.5t44.5 53t13.5 51.5q0 30 -19.5 50.5t-54.5 20.5zM211 -113q0 -17 -10.5 -36t-27.5 -19q-20 0 -20 25q0 20 12 37.5t27 17.5q19 0 19 -25z" />
<glyph unicode="&#x1ebc;" horiz-adv-x="439" d="M327 825q20 0 31.5 -10.5t22.5 -21.5t27 -11q17 0 32 14t28 33l13 -5q-11 -26 -33.5 -49.5t-50.5 -23.5q-19 0 -30.5 11t-22 21.5t-27.5 10.5q-16 0 -31.5 -13.5t-28.5 -33.5l-13 5q11 25 33 49t50 24zM331 0h-272l114 535l17 115h283l-11 -31l-243 5l-61 -289l172 3 l-11 -31l-166 2l-60 -283l249 5z" />
<glyph unicode="&#x1ebd;" horiz-adv-x="425" d="M264 703q22 0 36 -12t26.5 -24t29.5 -12t32.5 16t27.5 35l12 -4q-7 -26 -30 -51.5t-52 -25.5q-21 0 -35 12t-26 24t-30 12q-16 0 -32.5 -15.5t-27.5 -35.5l-11 4q6 17 17.5 34.5t27.5 30t35 12.5zM335 114l14 -8q-33 -51 -82 -83.5t-98 -32.5q-55 0 -87.5 44t-32.5 123 q0 62 19.5 124.5t54 114t79.5 83t95 31.5q41 0 67.5 -22t26.5 -65q0 -44 -30.5 -85.5t-87.5 -71t-136 -37.5q-26 -3 -49 -2q-7 -36 -7 -68q0 -64 25 -104.5t74 -40.5q42 0 83 30t72 70zM285 486q-33 0 -63 -20.5t-56 -55t-45 -77.5t-30 -88q76 4 127.5 22t82.5 43.5t44.5 53 t13.5 51.5q0 30 -19.5 50.5t-54.5 20.5z" />
<glyph unicode="&#x1eca;" horiz-adv-x="245" d="M87 0h-28l114 535l17 115l37 10zM72 -113q0 -17 -10.5 -36t-27.5 -19q-20 0 -20 25q0 20 12 37.5t27 17.5q19 0 19 -25z" />
<glyph unicode="&#x1ecb;" horiz-adv-x="220" d="M206 670q0 -17 -10.5 -36t-27.5 -19q-20 0 -20 25q0 20 12 37.5t27 17.5q19 0 19 -25zM173 510q-21 -99 -35.5 -168.5t-23.5 -117t-14 -80.5t-7 -59.5t-2 -55.5v-12.5t1 -16.5h-30q0 2 -0.5 10t-0.5 13q0 40 4 80.5t12.5 90t22.5 114.5l16 74l17 118zM61 -113 q0 -17 -10.5 -36t-27.5 -19q-20 0 -20 25q0 20 12 37.5t27 17.5q19 0 19 -25z" />
<glyph unicode="&#x1ecc;" horiz-adv-x="584" d="M543 444q0 -60 -14.5 -123.5t-41.5 -122.5t-65 -106t-85.5 -74.5t-102.5 -27.5q-77 0 -119 58t-42 159q0 59 14.5 122.5t41.5 122.5t65 106t85.5 74.5t102.5 27.5q78 0 119.5 -57.5t41.5 -158.5zM105 213q0 -92 36 -145.5t104 -53.5q49 0 90.5 26t74 70.5t55 99.5 t34.5 113.5t12 112.5q0 93 -35.5 146.5t-103.5 53.5q-49 0 -90.5 -26.5t-74 -71t-55.5 -100t-35 -114t-12 -111.5zM241 -113q0 -17 -10.5 -36t-27.5 -19q-20 0 -20 25q0 20 12 37.5t27 17.5q19 0 19 -25z" />
<glyph unicode="&#x1ecd;" horiz-adv-x="471" d="M425 356q0 -59 -19.5 -122t-55 -117.5t-83 -88.5t-102.5 -34t-87.5 36.5t-32.5 108.5q0 61 20.5 125t56 119t83 89t101.5 34q60 0 89.5 -41t29.5 -109zM79 148q0 -68 28 -100t70 -32q44 0 83 31t68.5 81t46.5 108.5t17 113.5q0 61 -24 97.5t-71 36.5q-43 0 -82.5 -31 t-70 -81.5t-48 -109.5t-17.5 -114zM185 -113q0 -17 -10.5 -36t-27.5 -19q-20 0 -20 25q0 20 12 37.5t27 17.5q19 0 19 -25z" />
<glyph unicode="&#x1ee4;" horiz-adv-x="568" d="M242 14q73 0 120 54.5t67 151.5l67 315l17 115l37 10l-92 -430q-25 -116 -83 -178t-143 -62q-67 0 -102.5 37.5t-35.5 102.5q0 14 1.5 28.5t6 39.5t13 66t22.5 107t35 164l18 115l37 10q-29 -136 -48 -224.5t-30 -142t-17 -82.5t-7.5 -44.5t-1.5 -29.5q0 -57 30.5 -90 t88.5 -33zM236 -113q0 -17 -10.5 -36t-27.5 -19q-20 0 -20 25q0 20 12 37.5t27 17.5q19 0 19 -25z" />
<glyph unicode="&#x1ee5;" d="M358 0h-30q0 4 -0.5 9t-0.5 21q0 12 0.5 23.5t3 30t8 50.5t14.5 84q-25 -65 -59.5 -116.5t-75 -81.5t-83.5 -30q-31 0 -55 19.5t-24 71.5q0 13 2.5 29t8.5 46.5t18 85t31 143.5l17 115l40 10q-40 -188 -63 -289.5t-23 -136.5q0 -31 16 -50.5t43 -19.5q36 0 73 34t70 88.5 t57.5 119.5t35.5 126q5 26 6.5 34t2.5 12.5t2 17.5q0 1 1.5 13.5t3 26t1.5 14.5l40 10q-21 -99 -35.5 -168.5t-23.5 -117t-14 -80.5t-7 -59.5t-2 -55.5v-12.5t1 -16.5zM215 -113q0 -17 -10.5 -36t-27.5 -19q-20 0 -20 25q0 20 12 37.5t27 17.5q19 0 19 -25z" />
<glyph unicode="&#x1ef2;" horiz-adv-x="481" d="M423 748l-11 -17q-31 11 -63 31.5t-61 52.5l35 25q42 -53 100 -92zM200 0h-27l45 213l-93 437l27 10l88 -410h1l262 410l23 -10l-280 -438v0z" />
<glyph unicode="&#x1ef3;" horiz-adv-x="395" d="M283 587l-13 -5q-17 29 -30 66t-19 83l31 2q3 -37 11 -75t20 -71zM148 -10q-37 -48 -81.5 -90.5t-88 -68.5t-79.5 -26q-16 0 -27 6.5t-11 16.5q0 11 8 19q6 -2 15.5 -4t18.5 -2q29 0 69.5 22.5t82.5 59.5t74 80l-12 1q0 65 -2.5 130t-6.5 130q-4 64 -11 124t-17 112 l29 10q10 -55 17 -116.5t11 -124.5q9 -126 9 -244h1q38 59 73 122t62 126.5t43 122t16 106.5q9 8 19 8q14 0 14 -18q0 -28 -16 -84.5t-45.5 -128t-71 -147t-93.5 -142.5z" />
<glyph unicode="&#x1ef8;" horiz-adv-x="481" d="M320 825q20 0 31.5 -10.5t22.5 -21.5t27 -11q17 0 32 14t28 33l13 -5q-11 -26 -33.5 -49.5t-50.5 -23.5q-19 0 -30.5 11t-22 21.5t-27.5 10.5q-16 0 -31.5 -13.5t-28.5 -33.5l-13 5q11 25 33 49t50 24zM200 0h-27l45 213l-93 437l27 10l88 -410h1l262 410l23 -10 l-280 -438v0z" />
<glyph unicode="&#x1ef9;" horiz-adv-x="395" d="M217 703q22 0 36 -12t26.5 -24t29.5 -12t32.5 16t27.5 35l12 -4q-7 -26 -30 -51.5t-52 -25.5q-21 0 -35 12t-26 24t-30 12q-16 0 -32.5 -15.5t-27.5 -35.5l-11 4q6 17 17.5 34.5t27.5 30t35 12.5zM148 -10q-37 -48 -81.5 -90.5t-88 -68.5t-79.5 -26q-16 0 -27 6.5 t-11 16.5q0 11 8 19q6 -2 15.5 -4t18.5 -2q29 0 69.5 22.5t82.5 59.5t74 80l-12 1q0 65 -2.5 130t-6.5 130q-4 64 -11 124t-17 112l29 10q10 -55 17 -116.5t11 -124.5q9 -126 9 -244h1q38 59 73 122t62 126.5t43 122t16 106.5q9 8 19 8q14 0 14 -18q0 -28 -16 -84.5 t-45.5 -128t-71 -147t-93.5 -142.5z" />
<glyph unicode="&#x2013;" horiz-adv-x="390" d="M33 277l3 26h339l-3 -26h-339z" />
<glyph unicode="&#x2014;" horiz-adv-x="606" d="M36 277l5 26h546l-5 -26h-546z" />
<glyph unicode="&#x2018;" horiz-adv-x="224" d="M130 503q0 18 12.5 51t35.5 71t54 70l10 -9q-30 -37 -48.5 -72t-29.5 -68h1q19 -3 19 -25q0 -17 -10.5 -30t-24.5 -13q-19 0 -19 25z" />
<glyph unicode="&#x2019;" horiz-adv-x="224" d="M237 670q0 -18 -12.5 -51t-35.5 -70.5t-54 -70.5l-10 9q30 37 48.5 72t29.5 68h-1q-19 3 -19 25q0 17 11 30t24 13q19 0 19 -25z" />
<glyph unicode="&#x201a;" horiz-adv-x="190" d="M67 33q0 -18 -12.5 -51t-35.5 -71t-54 -70l-10 9q30 37 48.5 72t29.5 68h-1q-19 3 -19 25q0 17 11 30t24 13q19 0 19 -25z" />
<glyph unicode="&#x201c;" horiz-adv-x="351" d="M130 503q0 18 12.5 51t35.5 71t54 70l10 -9q-30 -37 -48.5 -72t-29.5 -68h1q19 -3 19 -25q0 -17 -10.5 -30t-24.5 -13q-19 0 -19 25zM257 503q0 18 12.5 51t35.5 71t54 70l10 -9q-30 -37 -48.5 -72t-29.5 -68h1q19 -3 19 -25q0 -17 -10.5 -30t-24.5 -13q-19 0 -19 25z " />
<glyph unicode="&#x201d;" horiz-adv-x="351" d="M364 670q0 -18 -12.5 -51t-35.5 -70.5t-54 -70.5l-10 9q30 37 48.5 72t29.5 68h-1q-19 3 -19 25q0 17 11 30t24 13q19 0 19 -25zM237 670q0 -18 -12.5 -51t-35.5 -70.5t-54 -70.5l-10 9q30 37 48.5 72t29.5 68h-1q-19 3 -19 25q0 17 11 30t24 13q19 0 19 -25z" />
<glyph unicode="&#x201e;" horiz-adv-x="317" d="M67 33q0 -18 -12.5 -51t-35.5 -71t-54 -70l-10 9q30 37 48.5 72t29.5 68h-1q-19 3 -19 25q0 17 11 30t24 13q19 0 19 -25zM194 33q0 -18 -12.5 -51t-35.5 -71t-54 -70l-10 9q30 37 48.5 72t29.5 68h-1q-19 3 -19 25q0 17 11 30t24 13q19 0 19 -25z" />
<glyph unicode="&#x2020;" horiz-adv-x="449" d="M184 -5l-27 -5l100 450l-152 -4l7 28l149 -4l37 195l27 5l-47 -200l151 4l-6 -28l-149 4z" />
<glyph unicode="&#x2021;" horiz-adv-x="449" d="M184 -5l-27 -5l47 200l-152 -4l7 28l149 -4l20 117l28 113l-151 -4l7 28l149 -4l37 195l27 5l-47 -200l151 4l-6 -28l-149 4l-20 -113l-29 -117l151 4l-7 -28l-148 4z" />
<glyph unicode="&#x2022;" horiz-adv-x="396" d="M288 292q0 -29 -15.5 -58t-41 -47.5t-57.5 -18.5q-27 0 -44 15.5t-17 46.5t16.5 59t43 46.5t56.5 18.5q26 0 42.5 -15.5t16.5 -46.5z" />
<glyph unicode="&#x2026;" horiz-adv-x="601" d="M444 -10q-9 0 -14 6.5t-5 16.5q0 15 11 30t25 15q19 0 19 -21q0 -15 -10 -31t-26 -16zM244 -10q-9 0 -14 6.5t-5 16.5q0 15 11 30t25 15q19 0 19 -21q0 -15 -10 -31t-26 -16zM44 -10q-9 0 -14 6.5t-5 16.5q0 15 11 30t25 15q19 0 19 -21q0 -15 -10 -31t-26 -16z" />
<glyph unicode="&#x2030;" horiz-adv-x="1261" d="M217 -10h-26l486 670h26zM378 539q0 -40 -12 -84t-35 -82t-56 -62t-74 -24q-44 0 -68 30t-24 86q0 40 12 83.5t35 82t56 62.5t75 24q44 0 67.5 -30t23.5 -86zM141 403q0 -46 16.5 -71.5t50.5 -25.5q33 0 58.5 23t43.5 59t27.5 76t9.5 75q0 44 -16.5 70t-51.5 26 q-33 0 -58.5 -23t-43 -58.5t-27 -75.5t-9.5 -75zM810 247q0 -40 -12 -84t-35 -82t-56 -62t-74 -24q-44 0 -68 30t-24 86q0 40 12 83.5t35 82t56 62.5t75 24q44 0 67.5 -30t23.5 -86zM1184 247q0 -40 -12 -84t-35 -82t-56 -62t-74 -24q-44 0 -68 30t-24 86q0 40 12 83.5 t35 82t56 62.5t75 24q44 0 67.5 -30t23.5 -86zM573 111q0 -46 16.5 -71.5t50.5 -25.5q33 0 58.5 23t43.5 59t27.5 76t9.5 75q0 44 -16.5 70t-51.5 26q-33 0 -58.5 -23t-43 -58.5t-27 -75.5t-9.5 -75zM947 111q0 -46 16.5 -71.5t50.5 -25.5q33 0 58.5 23t43.5 59t27.5 76 t9.5 75q0 44 -16.5 70t-51.5 26q-33 0 -58.5 -23t-43 -58.5t-27 -75.5t-9.5 -75z" />
<glyph unicode="&#x2039;" horiz-adv-x="274" d="M69 288l1 8q46 44 91 91.5t95 107.5l8 -7q-35 -49 -79.5 -101.5t-81.5 -94.5q20 -43 42 -95t36 -101l-11 -7q-25 60 -50 108t-51 91z" />
<glyph unicode="&#x203a;" horiz-adv-x="274" d="M223 296l-1 -8q-46 -43 -91 -91t-95 -108l-8 7q35 49 79.5 101.5t81.5 94.5q-20 43 -42 95t-36 101l11 7q26 -60 50.5 -107.5t50.5 -91.5z" />
<glyph unicode="&#x2044;" horiz-adv-x="456" d="M-71 -10h-26l486 670h26z" />
<glyph unicode="&#x2070;" horiz-adv-x="393" d="M395 619q0 -40 -12 -84t-35 -82t-56 -62t-74 -24q-44 0 -68 30t-24 86q0 40 12 83.5t35 82t56 62.5t75 24q44 0 67.5 -30t23.5 -86zM158 483q0 -46 16.5 -71.5t50.5 -25.5q33 0 58.5 23t43.5 59t27.5 76t9.5 75q0 44 -16.5 70t-51.5 26q-33 0 -58.5 -23t-43 -58.5 t-27 -75.5t-9.5 -75z" />
<glyph unicode="&#x2074;" horiz-adv-x="343" d="M257 372h-28l18 85h-157l-1 14l225 264l19 -5l-53 -248q30 2 55 5l-11 -30h-49zM213 479q18 0 39 1l46 213l-184 -214h99z" />
<glyph unicode="&#x2075;" horiz-adv-x="317" d="M313 498q0 -35 -19 -65t-54 -48t-84 -18q-23 0 -41 4t-32 9l8 19q15 -5 32.5 -9t36.5 -4q37 0 64.5 16t42.5 41t15 53q0 35 -22 50t-51 15q-15 0 -33.5 -3t-32.5 -9l-5 4l38 177h94q20 0 43 1t45 4l-11 -29h-155l-31 -137q30 10 64 10q88 0 88 -81z" />
<glyph unicode="&#x2076;" horiz-adv-x="340" d="M348 501q0 -33 -17.5 -64t-48 -50.5t-69.5 -19.5q-42 0 -66 25.5t-24 80.5q0 44 15.5 90t44.5 85t68 63t87 24q15 0 27.5 -2.5t16.5 -4.5l-10 -21q-13 8 -40 8q-50 0 -98 -45t-70 -140q23 24 52.5 36.5t54.5 12.5q35 0 56 -20.5t21 -57.5zM155 466q0 -80 62 -80 q29 0 51.5 17t35 43t12.5 53q0 29 -14.5 45.5t-41.5 16.5q-25 0 -52 -14.5t-50 -41.5q-2 -12 -2.5 -22t-0.5 -17z" />
<glyph unicode="&#x2077;" horiz-adv-x="307" d="M143 372h-31q12 45 36.5 92.5t55.5 93t64.5 83.5t63.5 65h-74q-33 0 -63 -2t-56 -5l12 31h205l3 -4l-2 -13q-42 -41 -85.5 -97.5t-78 -119.5t-50.5 -124z" />
<glyph unicode="&#x2078;" horiz-adv-x="365" d="M111 436q0 37 34.5 68.5t79.5 45.5q-24 15 -43 37.5t-19 50.5q0 27 18 49t46.5 35t59.5 13q35 0 58.5 -18t23.5 -49q0 -37 -31.5 -67.5t-75.5 -45.5q76 -47 76 -96q0 -25 -18 -46t-48 -33.5t-65 -12.5q-43 0 -69.5 19t-26.5 50zM193 643q0 -25 17.5 -45.5t39.5 -34.5 q37 17 63.5 44t26.5 58q0 23 -17.5 37t-43.5 14q-34 0 -60 -21t-26 -52zM141 441q0 -25 20 -40.5t53 -15.5q37 0 65.5 20t28.5 51q0 26 -21 46.5t-50 39.5q-37 -16 -66.5 -43t-29.5 -58z" />
<glyph unicode="&#x2079;" horiz-adv-x="341" d="M121 596q0 35 18 67t49 52t70 20q41 0 64.5 -25t23.5 -81q0 -44 -15.5 -90t-44.5 -85t-68 -63t-87 -24q-15 0 -27 2.5t-17 4.5l10 21q13 -8 40 -8q50 0 98.5 42.5t70.5 131.5q-23 -25 -52.5 -37t-54.5 -12q-35 0 -56.5 22.5t-21.5 61.5zM314 635q0 81 -61 81 q-29 0 -52 -17.5t-35.5 -44.5t-12.5 -57q0 -31 14.5 -49t42.5 -18q25 0 52 14t49 41q2 15 2.5 28.5t0.5 21.5z" />
<glyph unicode="&#x207f;" horiz-adv-x="423" d="M171 372h-30q-1 6 -1 12v10q0 24 1.5 45.5t6 48.5t12 65t19.5 94l12 85l37 7q-11 -52 -19 -91.5t-15 -70.5q30 71 72.5 116.5t87.5 45.5q22 0 40 -14.5t18 -52.5q0 -34 -10.5 -76.5t-21 -93.5t-10.5 -111q0 -4 0.5 -8t0.5 -11h-30q0 4 -0.5 9t-0.5 16q0 51 10.5 103.5 t20.5 97t10 70.5q0 23 -12 35.5t-28 12.5q-25 0 -54.5 -28t-56 -74.5t-43.5 -103.5t-17 -115v-12t1 -11z" />
<glyph unicode="&#x2080;" horiz-adv-x="393" d="M281 82q0 -40 -12 -84t-35 -82t-56 -62t-74 -24q-44 0 -68 30t-24 86q0 40 12 83.5t35 82t56 62.5t75 24q44 0 67.5 -30t23.5 -86zM44 -54q0 -46 16.5 -71.5t50.5 -25.5q33 0 58.5 23t43.5 59t27.5 76t9.5 75q0 44 -16.5 70t-51.5 26q-33 0 -58.5 -23t-43 -58.5 t-27 -75.5t-9.5 -75z" />
<glyph unicode="&#x2081;" horiz-adv-x="260" d="M31 -168h-27l71 335l-68 -28l-2 19l100 37l3 -2z" />
<glyph unicode="&#x2082;" horiz-adv-x="324" d="M166 -168h-205l-1 16q38 30 78.5 63.5t75.5 69t57 70t22 66.5q0 26 -16.5 41t-46.5 15q-25 0 -50 -9.5t-48 -23.5v25q20 11 50 20.5t59 9.5q39 0 61.5 -19t22.5 -54q0 -34 -21.5 -68.5t-56.5 -69t-76.5 -67t-82.5 -62.5h70q29 0 60 2t59 6z" />
<glyph unicode="&#x2083;" horiz-adv-x="304" d="M177 -54q0 -33 -21 -59.5t-55.5 -41.5t-77.5 -15q-22 0 -41 3.5t-34 9.5l8 21q17 -7 33.5 -10.5t35.5 -3.5q50 0 85 28t35 65q0 35 -27 48t-59 13q-10 0 -18.5 -1t-15.5 -3l3 16q38 9 70.5 25.5t52.5 39t20 48.5q0 47 -60 47q-22 0 -43.5 -7t-43.5 -18l2 21q14 8 40.5 17 t56.5 9q35 0 57.5 -15.5t22.5 -46.5q0 -41 -37.5 -71.5t-87.5 -45.5q46 -2 72.5 -19t26.5 -54z" />
<glyph unicode="&#x2084;" horiz-adv-x="347" d="M140 -168h-28l18 85h-157l-1 14l225 264l19 -5l-53 -248q30 2 55 5l-11 -30h-49zM96 -61q18 0 39 1l46 213l-184 -214h99z" />
<glyph unicode="&#x2085;" horiz-adv-x="323" d="M203 -39q0 -35 -19 -65t-54 -48t-84 -18q-23 0 -41 4t-32 9l8 19q15 -5 32.5 -9t36.5 -4q37 0 64.5 16t42.5 41t15 53q0 35 -22 50t-51 15q-15 0 -33.5 -3t-32.5 -9l-5 4l38 177h94q20 0 43 1t45 4l-11 -29h-155l-31 -137q30 10 64 10q88 0 88 -81z" />
<glyph unicode="&#x2086;" horiz-adv-x="337" d="M234 -36q0 -33 -17.5 -64t-48 -50.5t-69.5 -19.5q-42 0 -66 25.5t-24 80.5q0 44 15.5 90t44.5 85t68 63t87 24q15 0 27.5 -2.5t16.5 -4.5l-10 -21q-13 8 -40 8q-50 0 -98 -45t-70 -140q23 24 52.5 36.5t54.5 12.5q35 0 56 -20.5t21 -57.5zM41 -71q0 -80 62 -80 q29 0 51.5 17t35 43t12.5 53q0 29 -14.5 45.5t-41.5 16.5q-25 0 -52 -14.5t-50 -41.5q-2 -12 -2.5 -22t-0.5 -17z" />
<glyph unicode="&#x2087;" horiz-adv-x="305" d="M25 -168h-31q12 45 36.5 92.5t55.5 93t64.5 83.5t63.5 65h-74q-33 0 -63 -2t-56 -5l12 31h205l3 -4l-2 -13q-42 -41 -85.5 -97.5t-78 -119.5t-50.5 -124z" />
<glyph unicode="&#x2088;" horiz-adv-x="365" d="M-3 -101q0 37 34.5 68.5t79.5 45.5q-24 15 -43 37.5t-19 50.5q0 27 18 49t46.5 35t59.5 13q35 0 58.5 -18t23.5 -49q0 -37 -31.5 -67.5t-75.5 -45.5q76 -47 76 -96q0 -25 -18 -46t-48 -33.5t-65 -12.5q-43 0 -69.5 19t-26.5 50zM79 106q0 -25 17.5 -45.5t39.5 -34.5 q37 17 63.5 44t26.5 58q0 23 -17.5 37t-43.5 14q-34 0 -60 -21t-26 -52zM27 -96q0 -25 20 -40.5t53 -15.5q37 0 65.5 20t28.5 51q0 26 -21 46.5t-50 39.5q-37 -16 -66.5 -43t-29.5 -58z" />
<glyph unicode="&#x2089;" horiz-adv-x="340" d="M6 59q0 35 18 67t49 52t70 20q41 0 64.5 -25t23.5 -81q0 -44 -15.5 -90t-44.5 -85t-68 -63t-87 -24q-15 0 -27 2.5t-17 4.5l10 21q13 -8 40 -8q50 0 98.5 42.5t70.5 131.5q-23 -25 -52.5 -37t-54.5 -12q-35 0 -56.5 22.5t-21.5 61.5zM199 98q0 81 -61 81q-29 0 -52 -17.5 t-35.5 -44.5t-12.5 -57q0 -31 14.5 -49t42.5 -18q25 0 52 14t49 41q2 15 2.5 28.5t0.5 21.5z" />
<glyph unicode="&#x20ac;" horiz-adv-x="489" d="M50 250l8 22h56q6 55 23 108h-46l7 22h46q24 70 64 128.5t93.5 94t117.5 35.5q26 0 57 -6.5t55 -19.5l-17 -34q-21 17 -50 26.5t-58 9.5q-55 0 -100 -32t-78.5 -85.5t-54.5 -116.5h237l-6 -22h-237q-16 -53 -21 -108h224l-7 -22h-219q-1 -18 -1 -35q0 -94 34 -147 t101 -53q35 0 67.5 11t56.5 27v-24q-25 -19 -60.5 -29t-71.5 -10q-79 0 -119.5 57t-40.5 160q0 21 2 43h-62z" />
<glyph unicode="&#x2122;" d="M314 628h-1l-64 -203h-18l72 225l32 3l8 -208l96 205l31 3l-22 -228h-23l23 205l-98 -205h-26zM145 425h-22l44 207l-56 -3l7 21h128l-2 -21l-55 3z" />
<glyph unicode="&#x2212;" horiz-adv-x="531" d="M443 312h-330l5 23q29 1 72.5 1.5t92 1t93 0.5h74.5z" />
<glyph unicode="&#x221e;" horiz-adv-x="770" d="M680 320q0 -39 -12.5 -78t-36 -71.5t-55.5 -52.5t-70 -20t-61 19t-37 50t-24 66q-44 -61 -90.5 -98t-96.5 -37q-47 0 -73 33t-26 87t23.5 103.5t63.5 81t88 31.5q39 0 62.5 -20.5t37 -53t23.5 -66.5q46 64 93 102t98 38q45 0 69 -30.5t24 -83.5zM125 223q0 -47 21 -73 t56 -26q47 0 91 40t84 95l-1 3q-19 68 -42 107t-70 39q-41 0 -72.5 -28t-49 -70.5t-17.5 -86.5zM578 408q-46 0 -90.5 -41.5t-84.5 -97.5q20 -66 42.5 -105.5t68.5 -39.5q41 0 72 28.5t48.5 71.5t17.5 87q0 47 -20 72t-54 25z" />
<glyph unicode="&#x2248;" horiz-adv-x="559" d="M213 453q-8 0 -28.5 -20t-43.5 -46l-10 8q13 18 28 38.5t31 34.5t30 14t42 -9t60 -21.5t60.5 -21.5t43.5 -9q8 0 28 19.5t44 46.5l10 -8q-12 -18 -27 -38t-31 -34.5t-31 -14.5q-14 0 -42.5 9t-61.5 21.5t-61 21.5t-41 9zM165 229q-8 0 -28.5 -20t-43.5 -46l-10 8 q13 18 28 38t31 34.5t30 14.5t42 -9t60 -21.5t60.5 -21.5t43.5 -9q8 0 28 19.5t44 46.5l10 -8q-12 -18 -27 -38.5t-31 -34.5t-31 -14q-14 0 -42.5 9t-61.5 21.5t-61 21.5t-41 9z" />
<glyph unicode="&#x2260;" horiz-adv-x="533" d="M150 116l-13 13l57 82h-102l5 23q21 1 50.5 1t63.5 1l122 177h-197l5 23q35 1 93.5 1.5t116.5 1.5l64 93l5 3l12 -13l-57 -83h98l-7 -26h-109l-122 -177q54 1 107 1h87l-7 -26h-204l-63 -92z" />
<glyph unicode="&#x2264;" horiz-adv-x="531" d="M491 537l-6 -28l-316 -122l263 -123l-5 -28q-49 22 -104 47t-105 49.5t-86 42.5l5 24zM401 115h-330l5 23q29 1 72.5 1.5t92 1t93 0.5h74.5z" />
<glyph unicode="&#x2265;" horiz-adv-x="532" d="M97 236l6 28l317 122l-264 123l6 28q49 -21 103.5 -46.5t105 -49.5t85.5 -43l-5 -24zM402 115h-330l5 23q29 1 72.5 1.5t92 1t93 0.5h74.5z" />
<glyph unicode="&#x25fc;" horiz-adv-x="510" d="M0 510h510v-510h-510v510z" />
<glyph unicode="&#xfb00;" horiz-adv-x="499" d="M515 451l-122 3l-99 -470q-4 -21 -15 -51.5t-38.5 -64t-83.5 -63.5l-8 18q47 27 75 64.5t41 100.5l98 463l-194 4l-99 -471q-4 -20 -15 -51t-38.5 -64.5t-83.5 -63.5l-8 18q47 27 75 64.5t41 100.5l98 467l-51 1l3 15l53 5v2q-1 15 1.5 41.5t6.5 41.5q12 50 58.5 81.5 t107.5 31.5q27 0 54 -6t43 -14q38 41 96 41q19 0 34.5 -4t25.5 -10l-11 -28q-29 17 -65 17q-31 0 -55 -21.5t-35 -72.5q-4 -22 -7 -51t-2 -49h126zM180 562q-5 -19 -7 -44t-1 -42h196v2q-1 15 1 35t4.5 37.5t4.5 26.5q7 32 22 56q-42 17 -94 17q-44 0 -78.5 -20.5 t-47.5 -67.5z" />
<glyph unicode="&#xfb01;" horiz-adv-x="449" d="M400 500q-20 -96 -34.5 -163.5t-23.5 -114t-13.5 -79t-6.5 -59t-2 -55.5v-12.5t1 -16.5h-30q0 4 -0.5 9t-0.5 20q0 68 13 143t26 136l16 74l9 67l-185 5l-99 -470q-4 -20 -15 -51t-38.5 -64.5t-83.5 -63.5l-8 18q46 26 74.5 64t41.5 101l98 467l-51 1l3 15l53 5v2 q-1 24 3 54.5t7 43.5q13 53 56.5 86t107.5 33q28 0 51 -6t38 -15l-11 -28q-21 12 -46 18t-48 6q-43 0 -74.5 -21.5t-45.5 -71.5q-5 -21 -8 -51t-2 -50h185l33 27z" />
<glyph unicode="&#xfb02;" horiz-adv-x="464" d="M291 451l-122 3l-99 -470q-4 -20 -15 -51t-38.5 -64.5t-83.5 -63.5l-8 18q46 27 74.5 64.5t41.5 100.5l98 467l-51 1l3 15l53 5v2q-1 24 3 54.5t7 43.5q12 52 58.5 85.5t120.5 33.5q22 0 44.5 -3t39.5 -7l40 10q-29 -138 -50 -235t-35 -164t-22 -113.5t-11.5 -82 t-3.5 -71.5v-12.5t1 -16.5h-30q0 2 -0.5 10t-0.5 13q0 38 2 67t6 58.5t11.5 67t19.5 92.5l56 262l13 87q-23 6 -49 9.5t-47 3.5q-52 0 -87.5 -23t-47.5 -70q-5 -20 -8 -50.5t-2 -50.5h125z" />
<glyph unicode="&#xfb03;" horiz-adv-x="674" d="M625 500q-20 -96 -34.5 -163.5t-23.5 -114t-13.5 -79t-6.5 -59t-2 -55.5v-12.5t1 -16.5h-30q0 4 -0.5 9t-0.5 20q0 68 13 143t26 136l16 74l9 67l-185 5l-99 -470q-4 -20 -15 -51t-38.5 -64.5t-83.5 -63.5l-8 18q46 26 74.5 64t41.5 101l98 463l-195 4l-99 -471 q-4 -20 -15 -51t-38.5 -64.5t-83.5 -63.5l-8 18q47 27 75 64.5t41 100.5l98 467l-51 1l3 15l53 5v2q-1 15 1.5 41.5t6.5 41.5q13 50 59 81.5t107 31.5q31 0 60.5 -7.5t42.5 -15.5q22 21 53 32.5t69 11.5q28 0 51 -6t38 -15l-11 -28q-21 12 -46 18t-48 6q-43 0 -74.5 -21.5 t-45.5 -71.5q-5 -21 -8 -51t-2 -50h185l33 27zM180 562q-5 -19 -7 -44t-1 -42h197v2q-1 24 3 54.5t7 43.5q7 31 25 55q-22 10 -47 14.5t-51 4.5q-44 0 -78 -20.5t-48 -67.5z" />
<glyph unicode="&#xfb04;" horiz-adv-x="688" d="M515 451l-122 3l-99 -470q-4 -20 -15 -51t-38.5 -64.5t-83.5 -63.5l-8 18q46 27 74.5 64.5t41.5 100.5l98 463l-194 4l-99 -471q-4 -20 -15 -51t-38.5 -64.5t-83.5 -63.5l-8 18q47 27 75 64.5t41 100.5l98 467l-51 1l3 15l53 5v2q-1 15 1.5 41.5t6.5 41.5q13 50 59 81.5 t107 31.5q31 0 61 -7.5t43 -16.5q24 21 58 33t77 12q22 0 44.5 -3t39.5 -7l40 10q-29 -138 -50 -235t-35 -164t-22 -113.5t-11.5 -82t-3.5 -71.5v-12.5t1 -16.5h-30q0 2 -0.5 10t-0.5 13q0 38 2 67t6 58.5t11.5 67t19.5 92.5l56 262l13 87q-23 6 -49 9.5t-47 3.5 q-52 0 -87.5 -23t-47.5 -70q-5 -20 -8 -50.5t-2 -50.5h125zM180 562q-5 -19 -7 -44t-1 -42h196v2q-1 24 3 54.5t7 43.5q7 31 26 55q-22 10 -47 14.5t-51 4.5q-44 0 -78 -20.5t-48 -67.5z" />
<glyph unicode="&#xfb06;" horiz-adv-x="740" d="M287 128q0 -38 -23 -69.5t-63 -50t-91 -18.5q-31 0 -61.5 7.5t-53.5 17.5l13 35q16 -12 46 -24t69 -12q59 0 97 30.5t38 76.5q0 38 -24.5 65t-60.5 55q-20 16 -39.5 33t-32 39.5t-12.5 52.5q0 38 22.5 71t62 53t91.5 20q34 0 67 -8q-12 28 -12 55q0 38 22 70.5t57.5 52.5 t76.5 20q53 0 83.5 -32t30.5 -76q0 -29 -15.5 -60.5t-38.5 -55.5h188l-7 -25l-177 3q-25 -117 -40 -189t-23 -111t-11 -56.5t-3 -26.5q0 -22 12 -39.5t43 -17.5q39 0 77.5 30t69.5 70l14 -8q-36 -54 -80.5 -85t-91.5 -31q-33 0 -53.5 19t-20.5 62q0 9 1.5 21t6 34t13 62 t22.5 104.5t35 162.5l-52 1l3 16l54 4q15 21 29 52.5t14 62.5q0 38 -24.5 61.5t-65.5 23.5q-38 0 -65.5 -18.5t-42.5 -46.5t-15 -59q0 -13 3 -29t10 -30l-13 -35q-11 9 -35.5 18.5t-56.5 9.5q-41 0 -72 -16.5t-47.5 -42t-16.5 -54.5q0 -32 20 -56.5t52 -51.5q22 -18 44 -37 t37.5 -43t15.5 -57z" />
<glyph horiz-adv-x="887" d="M335 114l14 -8q-33 -51 -82 -83.5t-98 -32.5q-58 0 -89.5 40.5t-31.5 120.5q0 65 19.5 128.5t54.5 116t80.5 83.5t96.5 31q17 0 31 -3.5t26 -9.5q-15 32 -15 61q0 38 23 70.5t66.5 52t105.5 19.5q16 0 39.5 -1.5t41.5 -3.5q-31 -145 -52.5 -244.5t-35.5 -168.5 q27 67 63 118.5t76 80.5t81 29q29 0 53 -19.5t24 -73.5q0 -45 -14.5 -105t-29 -133t-14.5 -158q0 -5 0.5 -12t0.5 -9h-30q0 4 -0.5 9.5t-0.5 19.5q0 53 9 111t20 112.5t20 98t9 67.5q0 34 -17.5 51t-39.5 17q-27 0 -59 -24.5t-63.5 -67.5t-58 -99t-43.5 -119t-20 -128v-28 v-8l0.5 -1t0.5 -11h-30q0 5 -0.5 9t-0.5 21q0 73 11.5 137t27.5 141l56 262l15 99q-24 7 -55 7q-71 0 -111 -32.5t-40 -91.5q0 -17 5.5 -37.5t18.5 -43.5l-14 -32q-16 20 -37.5 33.5t-48.5 13.5q-41 0 -79 -29t-68.5 -77.5t-48 -107.5t-17.5 -119q0 -63 23 -101t74 -38 q44 0 85.5 30t72.5 70z" />
<glyph horiz-adv-x="779" d="M335 114l14 -8q-33 -51 -82 -83.5t-101 -32.5q-55 0 -86.5 40.5t-31.5 120.5q0 65 19.5 128.5t54.5 116t80.5 83.5t96.5 31q20 0 36 -5t29 -13q-6 22 -6 44q0 45 21.5 82t57 59.5t75.5 22.5q47 0 75.5 -29.5t28.5 -73.5q0 -30 -12.5 -64.5t-27.5 -56.5h187l-7 -25l-177 3 q-25 -117 -40 -189t-23 -111t-11 -56.5t-3 -26.5q0 -22 12 -39.5t43 -17.5q39 0 77.5 30t69.5 70l14 -8q-36 -54 -80.5 -85t-91.5 -31q-33 0 -53.5 19t-20.5 62q0 9 1.5 21t6 34t13 62t22.5 104.5t35 162.5l-52 1l3 16l53 4q13 25 23.5 57t10.5 59q0 40 -22 62t-61 22 q-36 0 -64 -20t-44.5 -53t-16.5 -72q0 -15 3 -31t10 -33l-14 -28q-16 20 -37.5 33.5t-48.5 13.5q-41 0 -79 -29t-68.5 -77.5t-48 -107.5t-17.5 -119q0 -63 23 -101t74 -38q44 0 85.5 30t72.5 70z" />
<glyph horiz-adv-x="847" d="M287 128q0 -38 -23 -69.5t-63 -50t-91 -18.5q-31 0 -61.5 7.5t-53.5 17.5l13 35q16 -12 46 -24t69 -12q59 0 97 30.5t38 76.5q0 38 -24.5 65t-60.5 55q-20 16 -39.5 33t-32 39.5t-12.5 52.5q0 38 22.5 71t62 53t91.5 20q32 0 64 -7q-23 36 -23 70q0 51 49.5 89t140.5 38 q16 0 39.5 -1.5t41.5 -3.5q-31 -145 -52.5 -244.5t-35.5 -168.5q27 67 63 118.5t76 80.5t81 29q29 0 53 -19.5t24 -73.5q0 -45 -14.5 -105t-29 -133t-14.5 -158q0 -5 0.5 -12t0.5 -9h-30q0 4 -0.5 9.5t-0.5 19.5q0 53 9 111t20 112.5t20 98t9 67.5q0 34 -17.5 51t-39.5 17 q-27 0 -59 -24.5t-63.5 -67.5t-58 -99t-43.5 -119t-20 -128v-28v-8l0.5 -1t0.5 -11h-30q0 5 -0.5 9t-0.5 21q0 73 11.5 137t27.5 141l56 262l15 99q-24 7 -55 7q-69 0 -107.5 -28.5t-38.5 -80.5q0 -16 5.5 -35t19.5 -39l-13 -35q-11 9 -35.5 18.5t-56.5 9.5q-41 0 -72 -16.5 t-47.5 -42t-16.5 -54.5q0 -32 20 -56.5t52 -51.5q22 -18 44 -37t37.5 -43t15.5 -57z" />
<glyph horiz-adv-x="429" d="M125 462q0 46 17.5 94.5t49 90t74 67t92.5 25.5q23 0 39.5 -4t31.5 -11l-30 -125q-8 -35 -19 -88t-11 -114q0 -7 0.5 -13t0.5 -12h-30q0 4 -0.5 8t-0.5 17q0 30 4 63.5t14 81.5q-31 -78 -76.5 -127.5t-90.5 -49.5q-29 0 -47 25t-18 72zM157 466q0 -34 11 -56.5t32 -22.5 q29 0 64 38t68 102.5t55 144.5q3 16 8 34q-26 13 -54 13q-38 0 -71.5 -24t-58.5 -62.5t-39.5 -82.5t-14.5 -84z" />
<glyph horiz-adv-x="425" d="M428 642q0 -46 -17.5 -94.5t-49 -90t-75 -67t-95.5 -25.5q-37 0 -68 11l85 403l12 86l38 7q-26 -120 -42.5 -198t-27.5 -131q21 57 49.5 101.5t61 69.5t63.5 25q29 0 47.5 -25t18.5 -72zM352 717q-23 0 -50.5 -24.5t-54.5 -68t-50.5 -101.5t-38.5 -125q11 -5 24.5 -9 t28.5 -4q38 0 71.5 24t59 62.5t40 82.5t14.5 84q0 32 -10.5 55.5t-33.5 23.5z" />
<glyph horiz-adv-x="374" d="M345 456l9 -11q-24 -35 -60.5 -57.5t-71.5 -22.5q-43 0 -67.5 30t-24.5 88q0 47 14.5 92t40.5 82.5t60 59.5t72 22q22 0 40 -8t31 -19l-12 -29q-12 15 -28 25t-36 10q-29 0 -56 -20.5t-48 -54.5t-33.5 -75t-12.5 -83q0 -45 16.5 -71.5t52.5 -26.5q31 0 60.5 20t53.5 49z " />
<glyph horiz-adv-x="438" d="M125 462q0 46 17.5 94.5t49 90t74 67t92.5 25.5q23 0 43 -5q2 11 4.5 23t5.5 24l12 84l38 7q-25 -117 -42 -194.5t-27 -127.5t-14.5 -85t-4.5 -68q0 -7 0.5 -13.5t1.5 -11.5h-30q-1 5 -1.5 11t-0.5 13q0 24 1.5 44t6 47t13.5 72q-21 -56 -49.5 -100t-60.5 -69t-64 -25 q-29 0 -47 25t-18 72zM157 466q0 -34 11 -56.5t32 -22.5q31 0 68 41.5t70.5 112t54.5 156.5q1 3 2 9q-26 13 -54 13q-38 0 -71.5 -24t-58.5 -62.5t-39.5 -82.5t-14.5 -84z" />
<glyph horiz-adv-x="378" d="M346 456l9 -11q-24 -35 -61 -57.5t-72 -22.5q-42 0 -67 31.5t-25 89.5q0 45 14.5 89.5t40 81.5t59 59.5t70.5 22.5q32 0 52 -16t20 -48t-22 -62t-63 -50.5t-99 -26.5q-18 -2 -36 -1q-4 -24 -4 -46q0 -46 18.5 -74t52.5 -28q29 0 59.5 20.5t53.5 48.5zM304 719 q-30 0 -57.5 -25t-48 -64.5t-29.5 -81.5q70 4 111 25t58.5 47.5t17.5 48.5q0 21 -13.5 35.5t-38.5 14.5z" />
<glyph horiz-adv-x="269" d="M313 693l-88 2l-71 -332q-4 -20 -14 -44t-31.5 -46.5t-60.5 -40.5l-7 15q35 20 54.5 47.5t29.5 71.5l70 330l-38 1l3 13l39 4v2q-1 17 1.5 37t5.5 35q8 38 35 61t64 23q14 0 27.5 -3t21.5 -8l-9 -25q-22 14 -49 14q-22 0 -39.5 -15t-24.5 -49q-3 -14 -5 -36t-1 -36h93z " />
<glyph horiz-adv-x="383" d="M344 333q0 -28 -23.5 -51t-62 -36.5t-84.5 -13.5q-53 0 -81 19t-28 51t20.5 53.5t35.5 28.5l6 -8q-13 -12 -24.5 -29.5t-11.5 -38.5q0 -27 23 -42.5t64 -15.5q33 0 64.5 9.5t52 26.5t20.5 39q0 18 -14.5 30t-35.5 20t-42.5 15.5t-36 17.5t-14.5 25t15.5 29.5t40.5 27.5v1 q-76 0 -76 77q0 38 19 77.5t52 66.5t75 27q35 0 62.5 0.5t68.5 3.5q4 -5 4 -10q0 -7 -7 -13t-20 -6q-12 0 -32 5t-41 11l-1 -1q39 -17 39 -72q0 -48 -27.5 -91t-87.5 -79q-16 -10 -35.5 -22t-19.5 -24q0 -11 14.5 -17.5t36 -13.5t42.5 -16t35.5 -23.5t14.5 -37.5zM182 570 q0 -32 13.5 -47.5t34.5 -15.5q29 0 54.5 24.5t41 60t15.5 66.5q0 27 -12.5 44.5t-38.5 17.5q-30 0 -54.5 -24t-39 -58.5t-14.5 -67.5z" />
<glyph horiz-adv-x="424" d="M372 372h-30q0 4 -0.5 9t-0.5 16q0 37 6 77.5t14.5 78.5t14.5 68.5t6 47.5q0 23 -12.5 35t-27.5 12q-24 0 -53 -27t-55 -71.5t-43.5 -100t-19.5 -112.5v-14q0 -10 0 -9t1 -10h-30q0 4 -0.5 8t-0.5 17q0 52 8.5 100t19.5 100l40 184l11 84l38 7q-22 -103 -37.5 -174 t-25.5 -122q30 72 72.5 117.5t87.5 45.5q22 0 40 -14t18 -54q0 -31 -10.5 -74t-21 -95t-10.5 -111q0 -4 0.5 -8t0.5 -11z" />
<glyph horiz-adv-x="229" d="M250 849q0 -15 -8.5 -29.5t-22.5 -14.5q-16 0 -16 20q0 16 9.5 29.5t22.5 13.5q15 0 15 -19zM228 739q-18 -84 -29 -139t-17.5 -91t-9 -61.5t-2.5 -50.5v-13.5t1 -11.5h-30q0 2 -0.5 9t-0.5 12q0 41 6.5 85t20.5 111l12 57l12 86z" />
<glyph horiz-adv-x="227" d="M258 849q0 -14 -9 -29t-23 -15q-16 0 -16 20q0 16 10 29.5t22 13.5q16 0 16 -19zM231 739q-8 -36 -18 -84t-20.5 -97.5t-20 -92.5t-15 -71t-6.5 -30q-10 -46 -35.5 -78.5t-71.5 -53.5l-7 15q35 19 54.5 47t29.5 72l61 282l12 84z" />
<glyph horiz-adv-x="383" d="M172 372h-30q-1 12 -1 16.5v5.5q0 38 3 64.5t9.5 57.5t16.5 81l39 184l11 84l38 7q-18 -88 -32 -152t-24 -112q28 67 66.5 99t75.5 32q27 0 42 -16t15 -39q0 -29 -20.5 -58t-53 -53t-67.5 -40q20 -41 46.5 -83.5t53.5 -77.5l-32 -7q-24 32 -51 77t-49 94q34 16 66.5 38.5 t54 49t21.5 54.5q0 18 -9.5 28.5t-26.5 10.5q-28 0 -57 -28t-53 -74.5t-38.5 -103.5t-14.5 -116v-12t1 -11z" />
<glyph horiz-adv-x="231" d="M258 872q-25 -117 -41.5 -194t-26.5 -127.5t-14.5 -85.5t-4.5 -68v-13.5t1 -11.5h-30q-1 9 -1 13.5v8.5q0 33 2.5 60t8.5 60t17 83l40 184l11 84z" />
<glyph horiz-adv-x="614" d="M171 372h-30q-1 6 -1 12v10q0 24 1.5 45.5t6 48.5t12 65t19.5 94l12 85l37 7q-10 -50 -18.5 -89t-14.5 -69q29 70 70.5 114t84.5 44q22 0 39.5 -14.5t17.5 -52.5q0 -17 -3 -37t-8 -43q29 65 68.5 106t80.5 41q22 0 39.5 -14.5t17.5 -52.5q0 -34 -10 -77t-20.5 -93 t-10.5 -106q0 -12 0.5 -16t0.5 -8h-30q0 4 -0.5 8.5t-0.5 15.5q0 51 10.5 104t20.5 98t10 70q0 23 -12 35.5t-28 12.5q-23 0 -51 -27t-54 -72.5t-43 -101.5t-18 -114v-4v-3q0 -17 1 -22h-30q-1 5 -1 24q0 51 10 104t20 98t10 70q0 23 -12 35.5t-27 12.5q-24 0 -52.5 -28 t-55 -74.5t-43 -103.5t-16.5 -116v-11.5t1 -10.5z" />
<glyph horiz-adv-x="414" d="M413 626q0 -43 -14.5 -88t-41 -84t-61.5 -63t-76 -24q-42 0 -67 27.5t-25 80.5q0 44 15 89.5t41.5 85t62 63.5t75.5 24q45 0 68 -30.5t23 -80.5zM161 480q0 -48 19.5 -70.5t49.5 -22.5q31 0 58.5 22t48 58t32.5 77t12 79q0 43 -17 68.5t-50 25.5q-31 0 -58.5 -22t-49 -58 t-33.5 -77t-12 -80z" />
<glyph horiz-adv-x="424" d="M427 642q0 -46 -17.5 -94.5t-48.5 -90t-73.5 -67t-93.5 -25.5q-22 0 -42 6q-10 -60 -10 -107v-12.5t1 -12.5h-30q-1 6 -1 12v10q0 33 2.5 59t9 59t17.5 85l39 184l11 84l38 7q-13 -61 -23.5 -110t-19.5 -89q21 57 50 102t61.5 71t64.5 26q29 0 47 -25t18 -72zM353 717 q-31 0 -68 -41.5t-71 -111.5t-55 -157q-1 -4 -2 -9q25 -13 54 -13q38 0 71.5 24t59 62.5t40 82.5t14.5 84q0 34 -11.5 56.5t-31.5 22.5z" />
<glyph horiz-adv-x="425" d="M346 239h-30q-1 6 -1 12v10q0 24 1.5 45.5t6.5 51.5t14.5 77.5t26.5 123.5q-21 -56 -49.5 -100t-60.5 -69t-64 -25q-29 0 -47 25t-18 72q0 46 17.5 94.5t49 90t74 67t92.5 25.5q23 0 39.5 -4t31.5 -11q-25 -118 -41.5 -194.5t-25.5 -124.5t-13 -79.5t-4 -61.5v-13.5 t1 -11.5zM157 466q0 -33 11 -56t33 -23q23 0 50 24.5t54.5 68t50.5 101.5t39 125q-26 13 -54 13q-38 0 -71.5 -24t-58.5 -62.5t-39.5 -82.5t-14.5 -84z" />
<glyph horiz-adv-x="321" d="M171 372h-30q-1 6 -1 12v10q0 24 1.5 45.5t6 48.5t12 65t19.5 94l12 85l37 7q-8 -40 -15 -72.5t-12 -59.5q22 59 53.5 95.5t68.5 36.5q15 0 28 -3t22 -8l-14 -29q-7 6 -21 10.5t-26 4.5q-23 0 -48 -28.5t-46.5 -75t-34.5 -103.5t-13 -114v-10.5t1 -10.5z" />
<glyph horiz-adv-x="336" d="M313 466q0 -42 -37.5 -71.5t-95.5 -29.5q-48 0 -87 18l11 31q13 -10 35.5 -18.5t50.5 -8.5q41 0 67.5 21t26.5 52q0 27 -18 45.5t-45 38.5q-23 18 -42 38.5t-19 51.5q0 42 37.5 73.5t95.5 31.5q44 0 71 -12l-10 -31q-10 7 -28.5 14t-41.5 7q-43 0 -69 -24t-26 -53 q0 -22 15 -39.5t38 -36.5q24 -19 47.5 -40.5t23.5 -57.5z" />
<glyph horiz-adv-x="340" d="M328 445q-27 -39 -60 -59.5t-65 -20.5q-25 0 -41.5 14t-16.5 47q0 9 2 20.5t7.5 38t16 77t29.5 136.5l-38 1l3 13l40 3l31 110l21 3q-7 -32 -13 -60t-11 -53h129l-6 -20l-127 3q-17 -82 -28 -132.5t-16.5 -78.5t-7.5 -40.5t-2 -19.5q0 -16 9 -28t31 -12q28 0 55 20.5 t49 48.5z" />
<glyph horiz-adv-x="419" d="M356 372h-30q0 5 -0.5 9.5t-0.5 16.5t0.5 22.5t4.5 33.5t13 73q-28 -70 -70 -116t-89 -46q-23 0 -40.5 15t-17.5 52q0 9 1.5 21t6.5 34t13.5 60.5t21.5 100.5l11 84l38 7q-28 -132 -44.5 -204.5t-16.5 -98.5q0 -22 11.5 -35t29.5 -13q24 0 50 23.5t49.5 61.5t41 83.5 t25.5 89.5q5 26 6 31.5t2 16.5q0 -1 1 8t2 19t1 11l37 7q-18 -84 -29 -139t-17.5 -91t-9 -61.5t-2.5 -50.5v-13t1 -12z" />
<glyph horiz-adv-x="355" d="M170 560q-2 36 -7.5 85.5t-13.5 86.5l30 7q7 -34 12 -82t8 -86q2 -34 4.5 -85t0.5 -94h1q37 56 68 117.5t50 120t19 103.5q8 6 17 6q14 0 14 -16q0 -22 -12 -62.5t-34 -91.5t-53 -104t-69 -100l-29 7q0 27 -1 60.5t-2 67.5t-3 60z" />
<glyph horiz-adv-x="537" d="M169 554q-3 54 -7.5 97t-12.5 81l30 7q7 -37 11 -82t7 -89q3 -45 4 -91.5t0 -84.5h1q37 56 67.5 117.5t49 119.5t18.5 103l28 7q7 -35 12 -80t7 -86q3 -45 4 -93t0 -88h1q36 56 66.5 117t49.5 119.5t18 104.5q5 4 9.5 5t8.5 1q14 0 14 -16q0 -21 -11.5 -62t-33 -92 t-52.5 -104t-69 -100l-28 7q0 69 -3 149.5t-9 150.5v0q-7 -40 -28 -94t-51.5 -110t-66.5 -103l-30 7q0 47 -1 94t-3 88z" />
<glyph horiz-adv-x="361" d="M101 378q0 16 19 48t48 67t61 61q-12 48 -26.5 94t-37.5 84l28 7q22 -37 35.5 -80.5t25.5 -89.5q36 35 63.5 77t36.5 87q3 3 8 4.5t9 1.5q13 0 13 -13q0 -17 -19 -49t-48 -66.5t-59 -58.5q12 -48 26.5 -94.5t37.5 -85.5l-28 -7q-22 37 -35.5 81.5t-25.5 90.5 q-36 -37 -64.5 -79t-37.5 -87q-3 -3 -8 -4.5t-9 -1.5q-13 0 -13 13z" />
<glyph horiz-adv-x="359" d="M213 365q-27 -35 -60 -65.5t-65.5 -49t-60.5 -18.5q-13 0 -22 5t-9 14q0 6 3 11t4 6q15 -5 29 -5q22 0 51.5 15.5t59.5 41.5t52 55l-16 1q0 91 -6 188q-2 40 -7 84t-13 84l29 7q8 -39 12.5 -81t7.5 -82q4 -52 5 -97t1 -85q37 56 68 116.5t50.5 118.5t19.5 104q8 6 17 6 q14 0 14 -16q0 -21 -11.5 -61.5t-33.5 -91t-52 -104t-67 -101.5z" />
<glyph horiz-adv-x="371" d="M99 365l-6 11q76 79 140.5 162t106.5 160q-37 2 -69.5 7t-50.5 5q-15 0 -27.5 -7t-20.5 -29l-17 4q8 38 26.5 49.5t40.5 11.5q30 0 60.5 -9.5t68.5 -10.5l10 20q18 0 18 -13t-21.5 -50t-57.5 -86t-78 -99t-83 -89q39 -1 66.5 -4.5t51.5 -3.5q20 0 39 7.5t32 41.5l17 -4 q-13 -45 -36 -59.5t-53 -14.5t-54 7.5t-54 7.5q-16 0 -26.5 -3.5t-22.5 -11.5z" />
<glyph horiz-adv-x="429" d="M48 102q0 46 17.5 94.5t49 90t74 67t92.5 25.5q23 0 39.5 -4t31.5 -11l-30 -125q-8 -35 -19 -88t-11 -114q0 -7 0.5 -13t0.5 -12h-30q0 4 -0.5 8t-0.5 17q0 30 4 63.5t14 81.5q-31 -78 -76.5 -127.5t-90.5 -49.5q-29 0 -47 25t-18 72zM80 106q0 -34 11 -56.5t32 -22.5 q29 0 64 38t68 102.5t55 144.5q3 16 8 34q-26 13 -54 13q-38 0 -71.5 -24t-58.5 -62.5t-39.5 -82.5t-14.5 -84z" />
<glyph horiz-adv-x="425" d="M351 282q0 -46 -17.5 -94.5t-49 -90t-75 -67t-95.5 -25.5q-37 0 -68 11l85 403l12 86l38 7q-26 -120 -42.5 -198t-27.5 -131q21 57 49.5 101.5t61 69.5t63.5 25q29 0 47.5 -25t18.5 -72zM275 357q-23 0 -50.5 -24.5t-54.5 -68t-50.5 -101.5t-38.5 -125q11 -5 24.5 -9 t28.5 -4q38 0 71.5 24t59 62.5t40 82.5t14.5 84q0 32 -10.5 55.5t-33.5 23.5z" />
<glyph horiz-adv-x="373" d="M268 96l9 -11q-24 -35 -60.5 -57.5t-71.5 -22.5q-43 0 -67.5 30t-24.5 88q0 47 14.5 92t40.5 82.5t60 59.5t72 22q22 0 40 -8t31 -19l-12 -29q-12 15 -28 25t-36 10q-29 0 -56 -20.5t-48 -54.5t-33.5 -75t-12.5 -83q0 -45 16.5 -71.5t52.5 -26.5q31 0 60.5 20t53.5 49z " />
<glyph horiz-adv-x="438" d="M48 102q0 46 17.5 94.5t49 90t74 67t92.5 25.5q23 0 43 -5q2 11 4.5 23t5.5 24l12 84l38 7q-25 -117 -42 -194.5t-27 -127.5t-14.5 -85t-4.5 -68q0 -7 0.5 -13.5t1.5 -11.5h-30q-1 5 -1.5 11t-0.5 13q0 24 1.5 44t6 47t13.5 72q-21 -56 -49.5 -100t-60.5 -69t-64 -25 q-29 0 -47 25t-18 72zM80 106q0 -34 11 -56.5t32 -22.5q31 0 68 41.5t70.5 112t54.5 156.5q1 3 2 9q-26 13 -54 13q-38 0 -71.5 -24t-58.5 -62.5t-39.5 -82.5t-14.5 -84z" />
<glyph horiz-adv-x="378" d="M270 96l9 -11q-24 -35 -61 -57.5t-72 -22.5q-42 0 -67 31.5t-25 89.5q0 45 14.5 89.5t40 81.5t59 59.5t70.5 22.5q32 0 52 -16t20 -48t-22 -62t-63 -51t-99 -26q-18 -2 -36 -1q-4 -24 -4 -46q0 -46 18.5 -74t52.5 -28q29 0 59.5 20.5t53.5 48.5zM228 359q-30 0 -57.5 -25 t-48 -64.5t-29.5 -81.5q70 4 111 25t58.5 47.5t17.5 48.5q0 21 -13.5 35.5t-38.5 14.5z" />
<glyph horiz-adv-x="270" d="M237 333l-88 2l-71 -332q-4 -20 -14 -44t-31.5 -46.5t-60.5 -40.5l-7 15q35 20 54.5 47.5t29.5 71.5l70 330l-38 1l3 13l39 4v2q-1 17 1.5 37t5.5 35q8 38 35 61t64 23q14 0 27.5 -3t21.5 -8l-9 -25q-22 14 -49 14q-22 0 -39.5 -15t-24.5 -49q-3 -14 -5 -36t-1 -36h93z " />
<glyph horiz-adv-x="382" d="M267 -27q0 -28 -23.5 -51t-62 -36.5t-84.5 -13.5q-53 0 -81 19t-28 51t20.5 53.5t35.5 28.5l6 -8q-13 -12 -24.5 -29.5t-11.5 -38.5q0 -27 23 -42.5t64 -15.5q33 0 64.5 9.5t52 26.5t20.5 39q0 18 -14.5 30t-35.5 20t-42.5 15.5t-36 17.5t-14.5 25t15.5 29.5t40.5 27.5v1 q-76 0 -76 77q0 38 19 77.5t52 66.5t75 27q35 0 62.5 0.5t68.5 3.5q4 -5 4 -10q0 -7 -7 -13t-20 -6q-12 0 -32 5t-41 11l-1 -1q39 -17 39 -72q0 -48 -27.5 -91t-87.5 -79q-16 -10 -35.5 -22t-19.5 -24q0 -11 14.5 -17.5t35.5 -13.5t42.5 -16t36 -23.5t14.5 -37.5zM105 210 q0 -32 13.5 -47.5t34.5 -15.5q29 0 54.5 24.5t41 60t15.5 66.5q0 27 -12.5 44.5t-38.5 17.5q-30 0 -54.5 -23.5t-39 -58.5t-14.5 -68z" />
<glyph horiz-adv-x="424" d="M295 12h-30q0 4 -0.5 9t-0.5 16q0 37 6 77.5t14.5 78.5t14.5 68.5t6 47.5q0 23 -12.5 35t-27.5 12q-24 0 -53 -27t-55 -71.5t-43.5 -100t-19.5 -112.5v-14q0 -10 0 -9t1 -10h-30q0 4 -0.5 8t-0.5 17q0 52 8.5 100t19.5 100l40 184l11 84l38 7q-22 -103 -37.5 -174 t-25.5 -122q30 72 72.5 117.5t87.5 45.5q22 0 40 -14t18 -54q0 -31 -10.5 -74t-21 -95t-10.5 -111q0 -4 0.5 -8t0.5 -11z" />
<glyph horiz-adv-x="230" d="M174 489q0 -15 -8.5 -29.5t-22.5 -14.5q-16 0 -16 20q0 16 9.5 29.5t22.5 13.5q15 0 15 -19zM152 379q-18 -84 -29 -139t-17.5 -91t-9 -61.5t-2.5 -50.5v-13.5t1 -11.5h-30q0 2 -0.5 9t-0.5 12q0 41 6.5 85t20.5 111l12 57l12 86z" />
<glyph horiz-adv-x="227" d="M182 489q0 -14 -9 -29t-23 -15q-16 0 -16 20q0 16 10 29.5t22 13.5q16 0 16 -19zM155 379q-8 -36 -18 -84t-20.5 -97.5t-20 -92.5t-15 -71t-6.5 -30q-10 -46 -35.5 -78.5t-71.5 -53.5l-7 15q35 19 54.5 47t29.5 72l61 282l12 84z" />
<glyph horiz-adv-x="383" d="M95 12h-30q-1 12 -1 16.5v5.5q0 38 3 64.5t9.5 57.5t16.5 81l39 184l11 84l38 7q-18 -88 -32 -152t-24 -112q28 67 66.5 99t75.5 32q27 0 42 -16t15 -39q0 -29 -20.5 -58t-53 -53t-67.5 -40q20 -41 46.5 -83.5t53.5 -77.5l-32 -7q-24 32 -51 77t-49 94q34 16 66.5 38.5 t54 49t21.5 54.5q0 18 -9.5 28.5t-26.5 10.5q-28 0 -57 -28t-53 -74.5t-38.5 -103.5t-14.5 -116v-12t1 -11z" />
<glyph horiz-adv-x="231" d="M181 512q-25 -117 -41.5 -194t-26.5 -127.5t-14.5 -85.5t-4.5 -68v-13.5t1 -11.5h-30q-1 9 -1 13.5v8.5q0 33 2.5 60t8.5 60t17 83l40 184l11 84z" />
<glyph horiz-adv-x="615" d="M95 12h-30q-1 6 -1 12v10q0 24 1.5 45.5t6 48.5t12 65t19.5 94l12 85l37 7q-10 -50 -18.5 -89t-14.5 -69q29 70 70.5 114t84.5 44q22 0 39.5 -14.5t17.5 -52.5q0 -17 -3 -37t-8 -43q29 65 68.5 106t80.5 41q22 0 39.5 -14.5t17.5 -52.5q0 -34 -10 -77t-20.5 -93 t-10.5 -106q0 -12 0.5 -16t0.5 -8h-30q0 4 -0.5 8.5t-0.5 15.5q0 51 10.5 104t20.5 98t10 70q0 23 -12 35.5t-28 12.5q-23 0 -51 -27t-54 -72.5t-43 -101.5t-18 -114v-4v-3q0 -17 1 -22h-30q-1 5 -1 24q0 51 10 104t20 98t10 70q0 23 -12 35.5t-27 12.5q-24 0 -52.5 -28 t-55 -74.5t-43 -103.5t-16.5 -116v-11.5t1 -10.5z" />
<glyph horiz-adv-x="424" d="M95 12h-30q-1 6 -1 12v10q0 24 1.5 45.5t6 48.5t12 65t19.5 94l12 85l37 7q-11 -52 -19 -91.5t-15 -70.5q30 71 72.5 116.5t87.5 45.5q22 0 40 -14.5t18 -52.5q0 -34 -10.5 -76.5t-21 -93.5t-10.5 -111q0 -4 0.5 -8t0.5 -11h-30q0 4 -0.5 9t-0.5 16q0 51 10.5 103.5 t20.5 97t10 70.5q0 23 -12 35.5t-28 12.5q-25 0 -54.5 -28t-56 -74.5t-43.5 -103.5t-17 -115v-12t1 -11z" />
<glyph horiz-adv-x="413" d="M336 266q0 -43 -14.5 -88t-41 -84t-61.5 -63t-76 -24q-42 0 -67 27.5t-25 80.5q0 44 15 89.5t41.5 85t62 63.5t75.5 24q45 0 68 -30.5t23 -80.5zM84 120q0 -48 19.5 -70.5t49.5 -22.5q31 0 58.5 22t48 58t32.5 77t12 79q0 43 -17 68.5t-50 25.5q-31 0 -58.5 -22t-49 -58 t-33.5 -77t-12 -80z" />
<glyph horiz-adv-x="425" d="M153 379q-13 -61 -23.5 -110t-19.5 -89q21 57 50 102t61.5 71t64.5 26q29 0 47 -25t18 -72q0 -46 -17.5 -94.5t-48.5 -90t-73.5 -67t-93.5 -25.5q-22 0 -42 6q-10 -60 -10 -107v-12.5t1 -12.5h-30q-1 6 -1 12v10q0 33 2.5 59t9 59t17.5 85l39 184l11 84zM277 357 q-31 0 -68 -41.5t-71 -111.5t-55 -157q-1 -4 -2 -9q25 -13 54 -13q38 0 71.5 24t59 62.5t40 82.5t14.5 84q0 34 -11.5 56.5t-31.5 22.5z" />
<glyph horiz-adv-x="425" d="M48 102q0 46 17.5 94.5t49 90t74 67t92.5 25.5q23 0 39.5 -4t31.5 -11q-25 -118 -41.5 -194.5t-25.5 -124.5t-13 -79.5t-4 -61.5v-13.5t1 -11.5h-30q-1 6 -1 12v10q0 24 1.5 45.5t6.5 51.5t14.5 77.5t26.5 123.5q-21 -56 -49.5 -100t-60.5 -69t-64 -25q-29 0 -47 25 t-18 72zM80 106q0 -33 11 -56t33 -23q23 0 50 24.5t54.5 68t50.5 101.5t39 125q-26 13 -54 13q-38 0 -71.5 -24t-58.5 -62.5t-39.5 -82.5t-14.5 -84z" />
<glyph horiz-adv-x="322" d="M95 12h-30q-1 6 -1 12v10q0 24 1.5 45.5t6 48.5t12 65t19.5 94l12 85l37 7q-8 -40 -15 -72.5t-12 -59.5q22 59 53.5 95.5t68.5 36.5q15 0 28 -3t22 -8l-14 -29q-7 6 -21 10.5t-26 4.5q-23 0 -48 -28.5t-46.5 -75t-34.5 -103.5t-13 -114v-10.5t1 -10.5z" />
<glyph horiz-adv-x="336" d="M237 106q0 -42 -37.5 -71.5t-95.5 -29.5q-48 0 -87 18l11 31q13 -10 35.5 -18.5t50.5 -8.5q41 0 67.5 21t26.5 52q0 27 -18 45.5t-45 38.5q-23 18 -42 38.5t-19 51.5q0 42 37.5 73.5t95.5 31.5q44 0 71 -12l-10 -31q-10 7 -28.5 14t-41.5 7q-43 0 -69 -24t-26 -53 q0 -22 15 -39.5t38 -36.5q24 -19 47.5 -40.5t23.5 -57.5z" />
<glyph horiz-adv-x="340" d="M252 85q-27 -39 -60 -59.5t-65 -20.5q-25 0 -41.5 14t-16.5 47q0 9 2 20.5t7.5 38t16 77t29.5 136.5l-38 1l3 13l40 3l31 110l21 3q-7 -32 -13 -60t-11 -53h129l-6 -20l-127 3q-17 -82 -28 -132.5t-16.5 -78.5t-7.5 -40.5t-2 -19.5q0 -16 9 -28t31 -12q28 0 55 20.5 t49 48.5z" />
<glyph horiz-adv-x="420" d="M280 12h-30q0 5 -0.5 9.5t-0.5 16.5t0.5 22.5t4.5 33.5t13 73q-28 -70 -70 -116t-89 -46q-23 0 -40.5 15t-17.5 52q0 9 1.5 21t6.5 34t13.5 60.5t21.5 100.5l11 84l38 7q-28 -132 -44.5 -204.5t-16.5 -98.5q0 -22 11.5 -35t29.5 -13q24 0 50 23.5t49.5 61.5t41 83.5 t25.5 89.5q5 26 6 31.5t2 16.5q0 -1 1 8t2 19t1 11l37 7q-18 -84 -29 -139t-17.5 -91t-9 -61.5t-2.5 -50.5v-13t1 -12z" />
<glyph horiz-adv-x="356" d="M94 200q-2 36 -7.5 85.5t-13.5 86.5l30 7q7 -34 12 -82t8 -86q2 -34 4.5 -85t0.5 -94h1q37 56 68 117.5t50 120t19 103.5q8 6 17 6q14 0 14 -16q0 -22 -12 -62.5t-34 -91.5t-53 -104t-69 -100l-29 7q0 27 -1 60.5t-2 67.5t-3 60z" />
<glyph horiz-adv-x="538" d="M93 194q-3 54 -7.5 97t-12.5 81l30 7q7 -37 11 -82t7 -89q3 -45 4 -91.5t0 -84.5h1q37 56 67.5 117.5t49 119.5t18.5 103l28 7q7 -35 12 -80t7 -86q3 -45 4 -93t0 -88h1q36 56 66.5 117t49.5 119.5t18 104.5q5 4 9.5 5t8.5 1q14 0 14 -16q0 -21 -11.5 -62t-33 -92 t-52.5 -104t-69 -100l-28 7q0 69 -3 149.5t-9 150.5v0q-7 -40 -28 -94t-51.5 -110t-66.5 -103l-30 7q0 47 -1 94t-3 88z" />
<glyph horiz-adv-x="362" d="M25 18q0 16 19 48t48 67t61 61q-12 48 -26.5 94t-37.5 84l28 7q22 -37 35.5 -80.5t25.5 -89.5q36 35 63.5 77t36.5 87q3 3 8 4.5t9 1.5q13 0 13 -13q0 -17 -19 -49t-48 -66.5t-59 -58.5q12 -48 26.5 -94.5t37.5 -85.5l-28 -7q-22 37 -35.5 81.5t-25.5 90.5 q-36 -37 -64.5 -79t-37.5 -87q-3 -3 -8 -4.5t-9 -1.5q-13 0 -13 13z" />
<glyph horiz-adv-x="359" d="M136 5q-27 -35 -60 -65.5t-65.5 -49t-60.5 -18.5q-13 0 -22 5t-9 14q0 6 3 11t4 6q15 -5 29 -5q22 0 51.5 15.5t59.5 41.5t52 55l-16 1q0 91 -6 188q-2 40 -7 84t-13 84l29 7q8 -39 12.5 -81t7.5 -82q4 -52 5 -97t1 -85q37 56 68 116.5t50.5 118.5t19.5 104q8 6 17 6 q14 0 14 -16q0 -21 -11.5 -61.5t-33.5 -91t-52 -104t-67 -101.5z" />
<glyph horiz-adv-x="370" d="M22 5l-6 11q76 79 140.5 162t106.5 160q-37 2 -69.5 7t-50.5 5q-15 0 -27.5 -7t-20.5 -29l-17 4q8 38 26.5 49.5t40.5 11.5q30 0 60.5 -9.5t68.5 -10.5l10 20q18 0 18 -13t-21.5 -50t-57.5 -86t-78 -99t-83 -89q39 -1 66.5 -4.5t51.5 -3.5q20 0 39 7.5t32 41.5l17 -4 q-13 -45 -36 -59.5t-53 -14.5t-54 7.5t-54 7.5q-16 0 -26.5 -3.5t-22.5 -11.5z" />
<glyph horiz-adv-x="542" d="M504 463q0 -58 -13 -123t-38 -127t-61 -112.5t-82 -80.5t-100 -30q-67 0 -103.5 50.5t-36.5 147.5q0 58 13 122.5t38 126.5t61 112.5t82 80.5t100 30q66 0 103 -49.5t37 -147.5zM102 195q0 -82 28.5 -131.5t89.5 -49.5q47 0 86.5 28.5t70 76t52 105.5t32.5 118t11 113 q0 82 -28 131.5t-90 49.5q-47 0 -86.5 -28.5t-70 -76t-52 -105.5t-32.5 -118t-11 -113z" />
<glyph horiz-adv-x="302" d="M109 0h-25l132 623l-117 -53l-1 25l147 65l4 -2z" />
<glyph horiz-adv-x="453" d="M327 0h-330l-2 16q54 47 111 98t110 104t95 106t67 104.5t25 100.5q0 52 -28.5 79.5t-79.5 27.5q-43 0 -84.5 -17.5t-81.5 -43.5l-1 30q32 20 80 37.5t96 17.5q60 0 95.5 -32.5t35.5 -94.5q0 -63 -36 -128.5t-95.5 -130.5t-130 -128.5t-139.5 -122.5h110q50 0 100.5 3.5 t98.5 10.5z" />
<glyph horiz-adv-x="432" d="M358 205q0 -60 -34 -109t-91.5 -77.5t-128.5 -28.5q-34 0 -64.5 7t-54.5 17l10 27q60 -26 117 -26q60 0 108.5 25.5t77 67t28.5 90.5q0 43 -21.5 68t-55 35.5t-71.5 10.5q-30 0 -57 -7l5 24q66 16 122.5 47.5t91.5 75t35 94.5q0 43 -26 66.5t-76 23.5q-41 0 -76.5 -14 t-71.5 -34l2 26q24 16 67 31t89 15q56 0 90 -27t34 -81q0 -50 -28 -92t-75 -74.5t-102 -52.5q75 -4 115.5 -34t40.5 -94z" />
<glyph horiz-adv-x="490" d="M282 0h-26l35 164h-264l-2 15l379 481l16 -10l-97 -459q46 4 92 10l-17 -37h-81zM384 600l-325 -414l157 1q40 0 80 2z" />
<glyph horiz-adv-x="448" d="M383 234q0 -63 -30.5 -119t-88 -90.5t-138.5 -34.5q-38 0 -66.5 7.5t-49.5 16.5l10 24q26 -10 55 -17t59 -7q66 0 115 31.5t75.5 81t26.5 103.5q0 66 -36 94.5t-88 28.5q-25 0 -57.5 -6t-53.5 -17l-7 8l67 312h147q35 0 71.5 2.5t70.5 7.5l-15 -33h-253l-58 -269 q48 19 103 19q66 0 103.5 -36t37.5 -107z" />
<glyph horiz-adv-x="468" d="M419 235q0 -45 -16.5 -88.5t-46 -79t-69 -56.5t-86.5 -21q-66 0 -101 44t-35 135q0 64 16.5 132.5t47.5 132.5t75 115t98 81t117 30q26 0 44 -4.5t25 -9.5l-13 -25q-23 15 -68 15q-55 0 -113 -36.5t-106.5 -117.5t-78.5 -212q41 51 92 76t95 25q56 0 89.5 -35.5 t33.5 -100.5zM97 162q0 -72 28 -110t82 -38q52 0 92.5 32.5t64 83t23.5 103.5q0 54 -25.5 84t-72.5 30q-43 0 -94 -28t-92 -85q-6 -37 -6 -72z" />
<glyph horiz-adv-x="433" d="M89 0h-28q18 67 49 138t71.5 141.5t84.5 135t87.5 119t80.5 93.5h-118q-50 0 -100 -3.5t-99 -10.5l17 37h329l4 -5l-3 -12q-52 -55 -108 -128.5t-108.5 -158t-94 -173t-64.5 -173.5z" />
<glyph horiz-adv-x="492" d="M44 113q0 47 27.5 89.5t71.5 75t93 49.5q-38 29 -68 68t-30 91q0 48 29 87.5t74.5 63t93.5 23.5q54 0 90 -32t36 -85q0 -46 -25.5 -88t-66.5 -75t-90 -53q31 -22 58 -48.5t44.5 -57.5t17.5 -67q0 -45 -28.5 -82t-75.5 -59.5t-103 -22.5q-68 0 -108 34t-40 89zM168 491 q0 -48 29.5 -87t66.5 -65q43 20 81 50.5t62 68.5t24 80q0 44 -30 71t-77 27q-40 0 -76 -19.5t-58 -52t-22 -73.5zM74 119q0 -47 35 -76t92 -29q45 0 83.5 18.5t61.5 49.5t23 70q0 47 -34 86.5t-84 76.5q-44 -18 -85 -48.5t-66.5 -68t-25.5 -79.5z" />
<glyph horiz-adv-x="471" d="M437 478q0 -63 -16 -131t-46.5 -131.5t-73.5 -114.5t-97.5 -81t-118.5 -30q-26 0 -44 5t-25 9l13 25q23 -15 68 -15q53 0 110.5 34.5t107 111.5t77.5 204h-1q-40 -53 -92 -79t-96 -26q-54 0 -87.5 36.5t-33.5 104.5q0 47 16.5 93t46 84t69.5 60.5t88 22.5q65 0 100 -45.5 t35 -136.5zM114 401q0 -55 25 -86.5t74 -31.5q42 0 91.5 26t92.5 87q4 23 6 44.5t2 41.5q0 67 -25 110.5t-83 43.5q-40 0 -74 -21t-58 -55.5t-37.5 -76t-13.5 -82.5z" />
<glyph horiz-adv-x="475" d="M417 352q0 -57 -16.5 -120t-48.5 -118t-76 -89.5t-100 -34.5t-87 40t-31 119q0 58 16.5 121t48 117.5t76 88.5t99.5 34q56 0 87.5 -39t31.5 -119zM90 155q0 -63 23.5 -102t72.5 -39q46 0 82.5 31.5t62.5 82t40 108t14 108.5q0 65 -23.5 103.5t-72.5 38.5q-47 0 -84 -32 t-62.5 -83t-39 -108t-13.5 -108z" />
<glyph horiz-adv-x="302" d="M109 0h-25l100 473l-117 -53l-1 25l148 65l3 -2z" />
<glyph horiz-adv-x="427" d="M301 0h-302l-2 16q96 75 173.5 141t123 127t45.5 118q0 41 -26 62.5t-69 21.5q-42 0 -80 -19.5t-76 -48.5l-1 30q32 23 76 42.5t91 19.5q51 0 84 -26.5t33 -76.5q0 -49 -31 -100t-81.5 -100t-109.5 -96t-115 -88h84q50 0 100 3.5t99 10.5z" />
<glyph horiz-adv-x="433" d="M326 50q0 -59 -34.5 -106.5t-92 -75.5t-128.5 -28q-34 0 -64 6t-55 15l10 27q60 -23 118 -23q60 0 108.5 25t77 66.5t28.5 90.5q0 43 -21 68t-55 36t-73 11q-30 0 -57 -7l5 24q83 20 138 54.5t83 77t28 85.5t-26.5 66.5t-76.5 23.5q-40 0 -75.5 -12.5t-71.5 -30.5l2 26 q24 14 67 27.5t89 13.5q55 0 89.5 -26.5t34.5 -80.5q0 -68 -56 -127.5t-149 -92.5q77 -4 117 -35.5t40 -97.5z" />
<glyph horiz-adv-x="505" d="M258 -185h-26l39 185h-279l-2 15l397 495l16 -10l-100 -473q46 4 92 10l-16 -37h-82zM367 450l-343 -428l172 1q40 0 81 2z" />
<glyph horiz-adv-x="448" d="M351 84q0 -63 -30.5 -118.5t-88 -90.5t-138.5 -35q-38 0 -66.5 7.5t-49.5 16.5l10 24q26 -10 55 -17t59 -7q66 0 115 31.5t75.5 81t26.5 103.5q0 66 -36 94.5t-88 28.5q-25 0 -57.5 -6t-53.5 -17l-7 8l67 312h147q35 0 71.5 2.5t70.5 7.5l-15 -33h-253l-58 -269 q48 19 103 19q66 0 103.5 -36t37.5 -107z" />
<glyph horiz-adv-x="468" d="M419 235q0 -45 -16.5 -88.5t-46 -79t-69 -56.5t-86.5 -21q-66 0 -101 44t-35 135q0 64 16.5 132.5t47.5 132.5t75 115t98 81t117 30q26 0 44 -4.5t25 -9.5l-13 -25q-23 15 -68 15q-55 0 -113 -36.5t-106.5 -117.5t-78.5 -212q41 51 92 76t95 25q56 0 89.5 -35.5 t33.5 -100.5zM97 162q0 -72 28 -110t82 -38q52 0 92.5 32.5t64 83t23.5 103.5q0 54 -25.5 84t-72.5 30q-43 0 -94 -28t-92 -85q-6 -37 -6 -72z" />
<glyph horiz-adv-x="433" d="M57 -150h-28q18 67 49 138t71.5 141.5t84.5 135t87.5 119t80.5 93.5h-118q-50 0 -100 -3.5t-99 -10.5l17 37h329l4 -5l-3 -12q-52 -55 -108 -128.5t-108.5 -158t-94 -173t-64.5 -173.5z" />
<glyph horiz-adv-x="492" d="M44 113q0 47 27.5 89.5t71.5 75t93 49.5q-38 29 -68 68t-30 91q0 48 29 87.5t74.5 63t93.5 23.5q54 0 90 -32t36 -85q0 -46 -25.5 -88t-66.5 -75t-90 -53q31 -22 58 -48.5t44.5 -57.5t17.5 -67q0 -45 -28.5 -82t-75.5 -59.5t-103 -22.5q-68 0 -108 34t-40 89zM168 491 q0 -48 29.5 -87t66.5 -65q43 20 81 50.5t62 68.5t24 80q0 44 -30 71t-77 27q-40 0 -76 -19.5t-58 -52t-22 -73.5zM74 119q0 -47 35 -76t92 -29q45 0 83.5 18.5t61.5 49.5t23 70q0 47 -34 86.5t-84 76.5q-44 -18 -85 -48.5t-66.5 -68t-25.5 -79.5z" />
<glyph horiz-adv-x="466" d="M401 328q0 -63 -16 -131t-46.5 -131.5t-73.5 -114.5t-97.5 -81t-118.5 -30q-26 0 -44 5t-25 9l13 25q23 -15 68 -15q53 0 110.5 34.5t107 111.5t77.5 204h-1q-40 -53 -92 -79t-96 -26q-54 0 -87.5 36.5t-33.5 104.5q0 47 16.5 93t46 84t69.5 60.5t88 22.5q65 0 100 -45.5 t35 -136.5zM78 251q0 -55 25 -86.5t74 -31.5q42 0 91.5 26t92.5 87q4 23 6 44.5t2 41.5q0 67 -25 110.5t-83 43.5q-40 0 -74 -21t-58 -55.5t-37.5 -76t-13.5 -82.5z" />
<glyph horiz-adv-x="393" d="M378 539q0 -40 -12 -84t-35 -82t-56 -62t-74 -24q-44 0 -68 30t-24 86q0 40 12 83.5t35 82t56 62.5t75 24q44 0 67.5 -30t23.5 -86zM141 403q0 -46 16.5 -71.5t50.5 -25.5q33 0 58.5 23t43.5 59t27.5 76t9.5 75q0 44 -16.5 70t-51.5 26q-33 0 -58.5 -23t-43 -58.5 t-27 -75.5t-9.5 -75z" />
<glyph horiz-adv-x="230" d="M137 292h-27l71 335l-68 -28l-2 19l100 37l3 -2z" />
<glyph horiz-adv-x="318" d="M263 292h-205l-1 16q38 30 78.5 63.5t75.5 69t57 70t22 66.5q0 26 -16.5 41t-46.5 15q-25 0 -50 -9.5t-48 -23.5v25q20 11 50 20.5t59 9.5q39 0 61.5 -19t22.5 -54q0 -34 -21.5 -68.5t-56.5 -69t-76.5 -67t-82.5 -62.5h70q29 0 60 2t59 6z" />
<glyph horiz-adv-x="305" d="M280 403q0 -33 -21 -59.5t-55.5 -41.5t-77.5 -15q-22 0 -41 3.5t-34 9.5l8 21q17 -7 33.5 -10.5t35.5 -3.5q50 0 85 28t35 65q0 35 -27 48t-59 13q-10 0 -18.5 -1t-15.5 -3l3 16q38 9 70.5 25.5t52.5 39t20 48.5q0 47 -60 47q-22 0 -43.5 -7t-43.5 -18l2 21q14 8 40.5 17 t56.5 9q35 0 57.5 -15.5t22.5 -46.5q0 -41 -37.5 -71.5t-87.5 -45.5q46 -2 72.5 -19t26.5 -54z" />
<glyph horiz-adv-x="343" d="M240 292h-28l18 85h-157l-1 14l225 264l19 -5l-53 -248q30 2 55 5l-11 -30h-49zM196 399q18 0 39 1l46 213l-184 -214h99z" />
<glyph horiz-adv-x="317" d="M296 418q0 -35 -19 -65t-54 -48t-84 -18q-23 0 -41 4t-32 9l8 19q15 -5 32.5 -9t36.5 -4q37 0 64.5 16t42.5 41t15 53q0 35 -22 50t-51 15q-15 0 -33.5 -3t-32.5 -9l-5 4l38 177h94q20 0 43 1t45 4l-11 -29h-155l-31 -137q30 10 64 10q88 0 88 -81z" />
<glyph horiz-adv-x="340" d="M331 421q0 -33 -17.5 -64t-48 -50.5t-69.5 -19.5q-42 0 -66 25.5t-24 80.5q0 44 15.5 90t44.5 85t68 63t87 24q15 0 27.5 -2.5t16.5 -4.5l-10 -21q-13 8 -40 8q-50 0 -98 -45t-70 -140q23 24 52.5 36.5t54.5 12.5q35 0 56 -20.5t21 -57.5zM138 386q0 -80 62 -80 q29 0 51.5 17t35 43t12.5 53q0 29 -14.5 45.5t-41.5 16.5q-25 0 -52 -14.5t-50 -41.5q-2 -12 -2.5 -22t-0.5 -17z" />
<glyph horiz-adv-x="307" d="M126 292h-31q12 45 36.5 92.5t55.5 93t64.5 83.5t63.5 65h-74q-33 0 -63 -2t-56 -5l12 31h205l3 -4l-2 -13q-42 -41 -85.5 -97.5t-78 -119.5t-50.5 -124z" />
<glyph horiz-adv-x="365" d="M94 356q0 37 34.5 68.5t79.5 45.5q-24 15 -43 37.5t-19 50.5q0 27 18 49t46.5 35t59.5 13q35 0 58.5 -18t23.5 -49q0 -37 -31.5 -67.5t-75.5 -45.5q76 -47 76 -96q0 -25 -18 -46t-48 -33.5t-65 -12.5q-43 0 -69.5 19t-26.5 50zM176 563q0 -25 17.5 -45.5t39.5 -34.5 q37 17 63.5 44t26.5 58q0 23 -17.5 37t-43.5 14q-34 0 -60 -21t-26 -52zM124 361q0 -25 20 -40.5t53 -15.5q37 0 65.5 20t28.5 51q0 26 -21 46.5t-50 39.5q-37 -16 -66.5 -43t-29.5 -58z" />
<glyph horiz-adv-x="341" d="M104 516q0 35 18 67t49 52t70 20q41 0 64.5 -25t23.5 -81q0 -44 -15.5 -90t-44.5 -85t-68 -63t-87 -24q-15 0 -27 2.5t-17 4.5l10 21q13 -8 40 -8q50 0 98.5 42.5t70.5 131.5q-23 -25 -52.5 -37t-54.5 -12q-35 0 -56.5 22.5t-21.5 61.5zM297 555q0 81 -61 81 q-29 0 -52 -17.5t-35.5 -44.5t-12.5 -57q0 -31 14.5 -49t42.5 -18q25 0 52 14t49 41q2 15 2.5 28.5t0.5 21.5z" />
<glyph horiz-adv-x="393" d="M316 247q0 -40 -12 -84t-35 -82t-56 -62t-74 -24q-44 0 -68 30t-24 86q0 40 12 83.5t35 82t56 62.5t75 24q44 0 67.5 -30t23.5 -86zM79 111q0 -46 16.5 -71.5t50.5 -25.5q33 0 58.5 23t43.5 59t27.5 76t9.5 75q0 44 -16.5 70t-51.5 26q-33 0 -58.5 -23t-43 -58.5 t-27 -75.5t-9.5 -75z" />
</font>
</defs>
</svg>
