<?xml version="1.0" standalone="no"?>
<!DOCTYPE svg PUBLIC "-//W3C//DTD SVG 1.1//EN" "http://www.w3.org/Graphics/SVG/1.1/DTD/svg11.dtd" >
<svg xmlns="http://www.w3.org/2000/svg" xmlns:xlink="http://www.w3.org/1999/xlink" version="1.1">
<metadata></metadata>
<defs>
<font id="indivisa_display_serifHvIt" horiz-adv-x="638" >
<font-face units-per-em="1000" ascent="800" descent="-200" />
<missing-glyph horiz-adv-x="200" />
<glyph unicode=" "  horiz-adv-x="200" />
<glyph unicode="&#x09;" horiz-adv-x="200" />
<glyph unicode="&#xa0;" horiz-adv-x="200" />
<glyph unicode="!" horiz-adv-x="352" d="M183 672l6 10q30 4 70 6.5t78 4.5t61 2q29 0 40.5 -9.5t11.5 -27.5t-9.5 -43t-25.5 -57l-155 -324h-70zM311 103q0 -34 -19.5 -59.5t-50.5 -39.5t-67 -14q-44 0 -70.5 20.5t-26.5 55.5q0 33 20 58.5t51.5 39.5t65.5 14q45 0 71 -20t26 -55z" />
<glyph unicode="&#x22;" horiz-adv-x="437" d="M186 689l5 6q85 0 139 -23l9 -17l-132 -250l-32 4l6 126zM383 689l5 6q85 0 139 -23l9 -17l-132 -250l-32 4l6 126z" />
<glyph unicode="#" d="M616 164h-119l-55 -174l-91 17l-6 6l48 151h-111l-55 -174l-91 17l-6 6l48 151h-96l-6 7l19 83h111l45 142h-104l-6 7l19 83h120l55 174l91 -17l6 -6l-48 -151h111l55 174l91 -17l6 -6l-48 -151h95l6 -7l-19 -83h-110l-45 -142h103l6 -7zM311 254h110l45 142h-110z" />
<glyph unicode="$" horiz-adv-x="589" d="M297 -120l-43 -3l-7 6l23 107q-57 1 -108.5 7t-79.5 24q-20 13 -20 38q0 24 15.5 56t38 62.5t42.5 50.5l10 -2l60 -191q12 -2 24.5 -3.5t27.5 -1.5q41 0 68.5 23.5t27.5 63.5q0 35 -23 63.5t-57 55t-68.5 56t-57.5 66t-23 85.5q0 71 40 118.5t105 72t140 26.5l24 110 l42 3l7 -6l-23 -108q103 -6 157 -41q15 -10 15 -26q0 -22 -18 -54.5t-42.5 -62.5t-44.5 -48l-10 2l-48 189q-14 2 -31 2q-38 0 -70.5 -25t-32.5 -72q0 -32 16.5 -58t42.5 -49t55 -45.5t55 -48.5t42.5 -58.5t16.5 -74.5q0 -61 -36 -104t-96 -66.5t-133 -27.5z" />
<glyph unicode="%" horiz-adv-x="1052" d="M544 516q0 -64 -32 -114.5t-85.5 -79.5t-119.5 -30q-79 -1 -123.5 41t-44.5 106q0 66 32 117t85 80.5t116 29.5q80 0 126 -40.5t46 -109.5zM819 660h101l-539 -670h-103zM292 352q0 -36 16 -36q13 0 26.5 27t25 70t18.5 94t7 99q0 37 -16 37q-13 0 -26.5 -27t-25 -70.5 t-18.5 -94.5t-7 -99zM1053 218q0 -64 -32 -114.5t-85.5 -79.5t-119.5 -30q-79 -1 -123.5 41t-44.5 106q0 66 32 117t85 80.5t116 29.5q80 0 126 -40.5t46 -109.5zM801 54q0 -36 16 -36q13 0 26.5 27t25 70t18.5 94t7 99q0 37 -16 37q-13 0 -26.5 -27t-25 -70.5t-18.5 -94.5 t-7 -99z" />
<glyph unicode="&#x26;" horiz-adv-x="853" d="M501 660q51 0 91.5 -12t64.5 -35t24 -56q0 -75 -116 -112q81 6 149 25t132 40l14 -3q11 -13 19.5 -31.5t8.5 -38.5q0 -34 -21 -53.5t-71 -19.5q-22 0 -46 2.5t-50 6.5q-10 -62 -31 -117l35 -17.5t33 -17.5q44 -25 73.5 -55t29.5 -74q0 -49 -31 -75.5t-75 -26.5 q-20 0 -41 6t-36 16l-3 18q15 20 29.5 41.5t25.5 43.5q15 28 22 52q-39 -13 -99 -13h-15q-50 -74 -128.5 -119t-186.5 -45q-103 0 -166 41t-63 112q0 61 52 105.5t143 60.5q-23 31 -36 66t-13 73q0 66 38.5 113.5t102.5 73t141 25.5zM437 512q0 -63 28 -106t72 -74t92 -56 q26 49 38 103q-39 8 -79 19t-80 23l-10 16q18 24 34 60t16 68q0 55 -42 55q-31 0 -50 -32.5t-19 -75.5zM291 211q0 -46 31 -71t76 -25q37 0 71.5 12.5t64.5 34.5q-69 13 -128 40.5t-102 66.5q-13 -27 -13 -58z" />
<glyph unicode="'" horiz-adv-x="240" d="M186 689l5 6q85 0 139 -23l9 -17l-132 -250l-32 4l6 126z" />
<glyph unicode="(" horiz-adv-x="386" d="M341 -108l-14 -15q-106 40 -170 123.5t-64 200.5q0 106 48.5 201.5t139.5 171t218 121.5l11 -17q-69 -65 -116 -151t-71 -183.5t-24 -199.5q0 -65 10.5 -126t31.5 -126z" />
<glyph unicode=")" horiz-adv-x="385" d="M166 680l14 15q107 -40 170.5 -123.5t63.5 -200.5q0 -106 -48.5 -201.5t-139.5 -171t-218 -121.5l-11 17q69 66 116 151.5t71 183.5t24 199q0 65 -10.5 126t-31.5 126z" />
<glyph unicode="*" horiz-adv-x="423" d="M339 466q0 -24 -7.5 -39.5t-31.5 -15.5q-28 0 -28 26q0 19 12.5 38t22.5 52q-41 -29 -58 -45.5t-35 -16.5q-12 0 -20 9.5t-8 22.5q0 24 30 35q15 5 34 9t45 13q-20 8 -37.5 12.5t-25.5 8.5q-21 11 -21 29q0 17 11 27t25 10q20 0 34.5 -18.5t37.5 -41.5q2 19 1 34t-1 31 q0 49 39 49q28 0 28 -25q0 -19 -12 -38.5t-23 -52.5q30 22 46 35.5t26 20t21 6.5q13 0 20.5 -8.5t7.5 -21.5q0 -10 -4.5 -19.5t-16.5 -14.5q-16 -7 -37.5 -11.5t-51.5 -13.5q20 -8 37.5 -12t29.5 -10q17 -9 17 -25q0 -15 -11 -27.5t-25 -12.5q-18 0 -29 15t-42 46 q-2 -17 -1 -31t1 -29z" />
<glyph unicode="+" horiz-adv-x="519" d="M524 256h-138l-31 -144h-147l30 144h-144l28 132q26 1 63.5 2t80.5 2l30 147h150l-31 -146q41 1 77.5 1h62.5l6 -8z" />
<glyph unicode="," horiz-adv-x="231" d="M222 83q0 -44 -28.5 -91t-78 -86.5t-112.5 -64.5l-10 12q25 24 53.5 62t44.5 79q-24 6 -37.5 24t-13.5 44q0 29 15 52t39 36.5t51 13.5q34 0 55.5 -22t21.5 -59z" />
<glyph unicode="-" horiz-adv-x="377" d="M78 250l9 45h328l-9 -45h-328z" />
<glyph unicode="." horiz-adv-x="227" d="M118 -10q-36 0 -57.5 20t-21.5 52q0 29 15 52t39.5 36.5t52.5 13.5q33 0 54 -18.5t21 -50.5q0 -28 -14 -52t-37.5 -38.5t-51.5 -14.5z" />
<glyph unicode="/" horiz-adv-x="376" d="M143 -10l-77 36l306 666l7 3l77 -36l-306 -666z" />
<glyph unicode="0" horiz-adv-x="655" d="M707 410q0 -90 -28.5 -166.5t-79 -133.5t-117 -88.5t-142.5 -31.5q-81 0 -138 31.5t-87 87t-30 126.5q0 92 29.5 169.5t81.5 135t119.5 89t142.5 31.5q119 0 184 -67t65 -183zM305 106q0 -74 36 -74q18 0 35.5 27t34 72.5t30.5 101t24 114t16 112t6 92.5q0 67 -29 67 q-23 0 -45.5 -35t-42 -92.5t-34 -125.5t-23 -136t-8.5 -123z" />
<glyph unicode="1" horiz-adv-x="390" d="M364 0h-319v16l34 11q17 5 23.5 15.5t10.5 29.5l105 488l-72 5l1 14l297 81l7 -8l-127 -580l-7 -31l52 -25z" />
<glyph unicode="2" horiz-adv-x="506" d="M165 9q-31 0 -60 -5.5t-55 -13.5l-18 104q143 80 215 160.5t72 163.5q0 38 -20 60t-58 22q-40 0 -72 -20t-60 -59l-10 7q35 103 104.5 167.5t175.5 64.5q54 0 96 -22.5t66 -62t24 -92.5q0 -51 -27.5 -94.5t-74 -80.5t-104 -68.5t-117.5 -58.5q-13 -6 -26 -10.5t-26 -9.5 q37 4 72 4q49 0 95 -5t85 -5q20 0 35.5 13.5t31.5 47.5l10 -3q-17 -92 -38 -150q-27 -73 -72 -73q-52 0 -113.5 9.5t-130.5 9.5z" />
<glyph unicode="3" horiz-adv-x="476" d="M491 195q0 -94 -127 -149.5t-360 -55.5l-2 20q126 24 190 74t64 117q0 36 -22 56.5t-63 20.5q-19 0 -36 -3l-6 38q85 20 130.5 57t45.5 81q0 27 -16.5 43t-47.5 16q-36 0 -68 -20t-57 -54l-10 7q22 65 63 113.5t96 76t116 27.5q77 0 118 -37t41 -93q0 -57 -35.5 -99 t-98 -69.5t-142.5 -38.5q65 2 116.5 -14t81 -45t29.5 -69z" />
<glyph unicode="4" horiz-adv-x="571" d="M55 220l428 440l123 -20l-82 -388l77 3l-24 -114l-77 1l-30 -142h-210l31 145l-241 4zM363 483l-225 -243l174 6z" />
<glyph unicode="5" horiz-adv-x="488" d="M507 221q0 -67 -52.5 -119.5t-157 -82t-261.5 -29.5l-2 20q116 22 177 63.5t61 101.5q0 35 -29 54.5t-76 19.5q-13 0 -25.5 -1t-23.5 -3l-14 13l88 396q65 -3 146 -5.5t154 -2.5q26 0 42 12.5t35 49.5l10 -3q-15 -75 -28.5 -125.5t-36 -76t-64.5 -25.5q-34 0 -77 3.5 t-86.5 8.5t-80.5 10l-28 -131q26 5 54 6t56 1q100 0 159.5 -42.5t59.5 -112.5z" />
<glyph unicode="6" horiz-adv-x="605" d="M80 227q0 92 42.5 170t119.5 136t182 91t230 36l1 -24q-111 -40 -199.5 -121t-131.5 -196q27 45 70 70t101 25q64 0 104.5 -38.5t40.5 -108.5q0 -60 -25 -110.5t-68.5 -88t-99 -58t-117.5 -20.5q-118 0 -184 63.5t-66 173.5zM420 252q2 42 -5 67.5t-21 25.5 q-24 0 -45.5 -36.5t-35 -95t-13.5 -125.5q0 -58 27 -58q22 0 42.5 31t34.5 82t16 109z" />
<glyph unicode="7" horiz-adv-x="452" d="M327 47q-16 -28 -40 -42.5t-59 -14.5q-46 0 -83 29t-57 69q95 110 174.5 201t149.5 183q-57 6 -114 10t-97 4q-35 0 -52.5 -11.5t-37.5 -50.5l-10 3q11 70 29 122.5t48 81.5t75 29q46 0 83 -23.5t63.5 -58t40.5 -68.5q26 36 50.5 73t48.5 77q13 0 21.5 -8.5t8.5 -21.5 q0 -9 -14 -48t-36.5 -97t-50 -124t-55 -129t-50 -112t-36.5 -73z" />
<glyph unicode="8" horiz-adv-x="582" d="M594 190q0 -64 -39 -108.5t-104.5 -68t-145.5 -23.5q-72 0 -128 18t-88.5 51t-32.5 78q0 43 26.5 74.5t71.5 50.5t101 24q-40 38 -71.5 83.5t-31.5 103.5q0 63 37 104.5t97 62t127 20.5q69 0 120 -19t79 -51t28 -72q0 -42 -23.5 -71.5t-62 -47.5t-82.5 -25 q31 -27 59 -54.5t45.5 -59.5t17.5 -70zM345 553q0 -47 30.5 -84.5t70.5 -72.5q24 72 24 134q0 41 -16 65.5t-48 24.5q-27 0 -44 -19t-17 -48zM257 122q0 -46 20 -69t49 -23q27 0 47.5 21t20.5 58q0 40 -32 75t-73 72q-17 -37 -24.5 -71.5t-7.5 -62.5z" />
<glyph unicode="9" horiz-adv-x="605" d="M663 423q0 -92 -42.5 -170t-119.5 -136t-182 -91t-230 -36l-1 24q111 40 199.5 121t131.5 196q-27 -45 -70 -70t-101 -25q-64 0 -104.5 38.5t-40.5 108.5q0 60 25 110.5t68.5 88t99.5 58t117 20.5q118 0 184 -63.5t66 -173.5zM323 398q-1 -42 5.5 -67.5t20.5 -25.5 q24 0 45.5 36.5t35 95t13.5 125.5q0 58 -27 58q-22 0 -42.5 -31t-34.5 -81.5t-16 -109.5z" />
<glyph unicode=":" horiz-adv-x="228" d="M192 336q-36 0 -57.5 20t-21.5 52q0 29 15 52t39.5 36.5t52.5 13.5q33 0 54 -18.5t21 -50.5q0 -28 -14 -52t-37.5 -38.5t-51.5 -14.5zM119 -10q-36 0 -57.5 20t-21.5 52q0 29 15 52t39.5 36.5t52.5 13.5q33 0 54 -18.5t21 -50.5q0 -28 -14 -52t-37.5 -38.5t-51.5 -14.5z " />
<glyph unicode=";" horiz-adv-x="231" d="M192 336q-36 0 -57.5 20t-21.5 52q0 29 15 52t39.5 36.5t52.5 13.5q33 0 54 -18.5t21 -50.5q0 -28 -14 -52t-37.5 -38.5t-51.5 -14.5zM222 83q0 -44 -28.5 -91t-78 -86.5t-112.5 -64.5l-10 12q25 24 53.5 62t44.5 79q-24 6 -37.5 24t-13.5 44q0 29 15 52t39 36.5t51 13.5 q34 0 55.5 -22t21.5 -59z" />
<glyph unicode="&#x3c;" horiz-adv-x="536" d="M606 566l-37 -165l-265 -79l232 -79l-33 -155q-27 10 -67 26.5t-86 37t-91.5 41t-84 39t-63.5 31.5l-2 11l24 115z" />
<glyph unicode="=" horiz-adv-x="540" d="M557 363h-430l28 132q37 2 94 3t121 1.5t122 1t96 0.5l6 -8zM512 149h-430l28 132q37 2 94 3t121 1.5t122 1t96 0.5l6 -8z" />
<glyph unicode="&#x3e;" horiz-adv-x="535" d="M68 85l37 165l265 79l-232 79l33 155q27 -10 67 -26.5t86 -37t91.5 -41t84 -39t63.5 -31.5l2 -11l-24 -115z" />
<glyph unicode="?" horiz-adv-x="585" d="M436 695q114 0 183 -40.5t69 -117.5q0 -42 -20.5 -74.5t-53 -57t-69.5 -43.5t-69.5 -34.5t-53 -30t-20.5 -30.5q0 -19 25 -28l-3 -10q-24 -3 -45 -3q-44 0 -70.5 16t-26.5 48q0 30 19 57t46.5 53.5t55 55.5t46.5 63t19 76q0 26 -12.5 43t-39.5 17q-32 0 -54 -24.5 t-33 -62.5t-11 -81q0 -10 0.5 -20t1.5 -21q-18 -7 -37.5 -11.5t-49.5 -4.5q-115 0 -115 79q0 37 26 70.5t70.5 59.5t101.5 41t120 15zM432 103q0 -34 -19.5 -59.5t-50.5 -39.5t-67 -14q-44 0 -70.5 20.5t-26.5 55.5q0 33 20 58.5t51.5 39.5t65.5 14q45 0 71 -20t26 -55z" />
<glyph unicode="@" horiz-adv-x="1021" d="M647 660q-72 0 -146 -22t-141 -64t-119.5 -101t-83 -133.5t-30.5 -161.5q0 -107 45.5 -182.5t125 -115.5t181.5 -40q70 0 122.5 14t94 35t78.5 42l16 -26q-55 -44 -135 -72t-185 -28q-110 0 -197 44t-136.5 126t-49.5 196q0 94 32.5 175t88.5 145.5t128.5 110t153.5 69.5 t163 24q88 0 160 -26.5t124 -74t80 -110.5t28 -137q0 -73 -21.5 -138t-61 -114t-94 -77t-119.5 -28q-89 0 -127.5 52.5t-23.5 137.5l7 40h-3q-46 -112 -100 -171t-112 -59q-60 0 -90.5 44t-30.5 106q0 69 24.5 135t72.5 119t117 84.5t158 31.5q66 0 129 -12t109 -32l-26 -69 l-48 -217q-24 -111 44 -111q33 0 69 33.5t61.5 96t25.5 148.5q0 91 -45.5 161.5t-126.5 111t-186 40.5zM491 101q11 0 27 21t34 56.5t36.5 78.5t35 87.5t28.5 84.5l10 33q-15 13 -38 13q-22 0 -43.5 -25t-41 -64.5t-34.5 -84.5t-23.5 -87.5t-8.5 -71.5q0 -19 3.5 -30 t14.5 -11z" />
<glyph unicode="A" horiz-adv-x="698" d="M424 650h115l101 -572q5 -34 35 -49l26 -13l-5 -16h-353l1 16l68 25l-17 123l-207 -2l-71 -123l63 -23l-5 -16h-173l1 16l34 11q23 8 34.5 21t24.5 36zM212 203l178 -2l-34 250z" />
<glyph unicode="B" horiz-adv-x="688" d="M451 610h-22l-7 -32l-48 -224h25q42 0 71.5 22t45.5 59t16 80q0 46 -21 70.5t-60 24.5zM394 314h-28l-52 -242l-7 -32h31q66 0 107.5 49t42.5 130q1 46 -24 70.5t-70 24.5zM363 0h-334l-1 16l40 13q13 5 19.5 16.5t8.5 26.5l108 506l7 31l-52 25l4 16h313 q128 0 197.5 -37t69.5 -106q0 -60 -46 -104t-137 -64q67 -13 112.5 -51t45.5 -93q0 -86 -86 -140.5t-269 -54.5z" />
<glyph unicode="C" horiz-adv-x="646" d="M530 660q62 0 108.5 -8t77.5 -26q-4 -33 -15 -72t-26.5 -77t-33.5 -68h-10l-78 211h-8q-43 0 -82.5 -28.5t-71 -78.5t-49.5 -116.5t-18 -141.5q1 -101 35 -163t89 -62q4 0 9 1l165 205h10q8 -27 8 -67q0 -37 -8 -81.5t-19 -71.5q-39 -13 -88.5 -19.5t-115.5 -6.5 q-94 0 -166 31.5t-113 92.5t-41 150q0 87 33 159.5t93 125.5t140.5 82t174.5 29z" />
<glyph unicode="D" horiz-adv-x="725" d="M422 578l-108 -506l-7 -32h30q44 0 80 26t63.5 69.5t46.5 96t28.5 106t9.5 99.5q0 91 -28.5 132t-82.5 41h-25zM336 0h-307l-1 16l40 13q13 5 19.5 16.5t8.5 26.5l108 506l7 31l-52 25l4 16h307q142 0 225 -59t83 -184q0 -88 -32 -162t-90.5 -129t-139.5 -85.5 t-180 -30.5z" />
<glyph unicode="E" horiz-adv-x="594" d="M556 0h-526l-1 16l40 13q13 5 19.5 16.5t8.5 26.5l107 506l7 31l-52 25l4 16h522q0 -32 -8.5 -71.5t-22.5 -77t-32 -65.5h-10l-87 174h-96l-7 -32l-50 -235l160 12l-14 -65l-154 13l-49 -231l-7 -32h103l164 181h10q2 -12 3.5 -25t1.5 -26q0 -43 -10 -88t-24 -82z" />
<glyph unicode="F" horiz-adv-x="565" d="M314 72v0l-6 -31l78 -25l-5 -16h-354l1 16l32 10q19 6 25.5 16.5t10.5 29.5v0l108 506l7 31l-52 25l4 16h517q-2 -55 -19.5 -117t-46.5 -107h-10l-82 179h-94l-6 -27l-55 -260l165 12l-14 -65l-160 13z" />
<glyph unicode="G" horiz-adv-x="701" d="M629 16q-53 -13 -104 -19.5t-116 -6.5q-97 0 -169 31.5t-111.5 93t-39.5 149.5q0 90 34.5 162.5t95.5 125t140.5 80.5t169.5 28q64 0 119.5 -9t92.5 -25q-4 -34 -18.5 -73.5t-33.5 -77t-38 -66.5h-10l-78 211h-19q-43 0 -82.5 -28.5t-70.5 -79.5t-49 -117.5t-18 -141.5 q0 -60 14 -108.5t38.5 -78.5t57.5 -35l51 216l7 31l-48 25l6 16h301l-2 -16l-29 -10q-19 -7 -25.5 -16.5t-11.5 -29.5z" />
<glyph unicode="H" horiz-adv-x="771" d="M354 0h-326v16l34 11q17 5 23.5 15.5t10.5 29.5l108 506l7 31l-52 25l5 16h326v-16l-34 -11q-17 -5 -23.5 -15.5t-10.5 -29.5l-50 -233h173l49 233l7 31l-52 25l5 16h326v-16l-34 -11q-17 -5 -23.5 -15.5t-10.5 -29.5l-107 -506l-7 -31l52 -25l-5 -16h-326v16l34 11 q17 5 23.5 15.5t10.5 29.5l48 228h-172l-49 -228l-7 -31l52 -25z" />
<glyph unicode="I" horiz-adv-x="381" d="M355 0h-326v16l34 11q17 5 23.5 15.5t10.5 29.5l107 506l7 31l-52 25l5 16h326v-16l-34 -11q-17 -5 -23.5 -15.5t-10.5 -29.5l-107 -506l-7 -31l52 -25z" />
<glyph unicode="J" horiz-adv-x="377" d="M323 121q-15 -74 -63 -131.5t-120 -91.5t-159 -38l-4 11q37 35 62 75.5t43 95.5t34 131l86 405l7 31l-52 25l5 16h326v-16l-34 -11q-17 -5 -23.5 -15.5t-10.5 -29.5z" />
<glyph unicode="K" horiz-adv-x="768" d="M355 0h-326v16l34 11q17 5 23.5 15.5t10.5 29.5l107 506l7 31l-52 25l5 16h326v-16l-34 -11q-17 -5 -23.5 -15.5t-10.5 -29.5l-53 -253h41l238 284l-56 25l5 16h272l-1 -16l-64 -28q-30 -13 -72 -37.5t-82.5 -52t-68.5 -50.5l131 -375q11 -30 23.5 -43.5t25.5 -21.5 l18 -10l-6 -16l-203 -3q-52 -1 -71 21.5t-33 65.5l-63 201h-43l-45 -213l-7 -31l52 -25z" />
<glyph unicode="L" horiz-adv-x="569" d="M544 0h-515l-1 16l40 13q13 5 19.5 16.5t8.5 26.5l108 506l7 31l-52 25l5 16h326v-16l-34 -11q-17 -5 -23.5 -15.5t-10.5 -29.5l-108 -506l-7 -32h100l159 224h10q3 -10 4 -27.5t1 -37.5q0 -51 -11.5 -106t-25.5 -93z" />
<glyph unicode="M" horiz-adv-x="903" d="M198 650h279l37 -375l196 375h270v-16l-78 -25l-60 -564l64 -29l-5 -16h-344v16l35 11q29 9 33 45l46 414l-217 -411l-35 -75h-97l-7 75l-50 414l-140 -448l84 -25l-5 -16h-201v16l46 16q20 7 29.5 18.5t16.5 33.5l164 523l-66 27z" />
<glyph unicode="N" horiz-adv-x="675" d="M217 1h-197v16l50 15q20 6 26 14.5t10 26.5l114 536l-68 25l5 16h207l225 -421l74 349l7 31l-78 25l5 16h197v-16l-50 -15q-19 -6 -25.5 -14.5t-10.5 -26.5l-123 -578h-135l-223 431l-76 -358l-7 -31l78 -25z" />
<glyph unicode="O" horiz-adv-x="727" d="M778 400q0 -87 -31.5 -162t-88 -130.5t-130 -86.5t-157.5 -31q-91 0 -154.5 33t-97 90.5t-33.5 131.5q0 90 32.5 165.5t89.5 131.5t131 87t157 31q132 0 207 -70t75 -190zM321 124q0 -49 12 -71.5t38 -22.5q25 0 50 33t47 88t39 121.5t26.5 134.5t9.5 126q0 87 -49 87 q-26 0 -51 -32t-47 -86t-39 -119t-26.5 -132.5t-9.5 -126.5z" />
<glyph unicode="P" horiz-adv-x="650" d="M450 610h-21l-7 -32l-66 -308h23q36 0 63.5 21.5t45.5 56t27.5 76t9.5 81.5q0 50 -19 77.5t-56 27.5zM314 72v0l-6 -31l78 -25l-5 -16h-354l1 16l32 10q19 6 25.5 16.5t10.5 29.5v0l108 506l7 31l-52 25l4 16h311q127 0 199 -44.5t72 -137.5q0 -68 -43.5 -122t-121 -85 t-179.5 -31h-53z" />
<glyph unicode="Q" horiz-adv-x="727" d="M778 400q0 -83 -29 -155t-80 -126.5t-119 -88t-147 -39.5q38 -20 101.5 -34t141 -20.5t157.5 -6.5q51 0 98.5 5t80.5 12q6 -8 10.5 -23.5t4.5 -36.5q0 -61 -50.5 -94t-138.5 -33q-68 0 -137.5 18t-134 50t-118 74t-91.5 90q-77 8 -131 42.5t-82 88.5t-28 122 q0 90 32.5 165.5t89.5 131.5t131 87t157 31q132 0 207 -70t75 -190zM321 124q0 -49 12 -71.5t38 -22.5q25 0 50 33t47 88t39 121.5t26.5 134.5t9.5 126q0 87 -49 87q-26 0 -51 -32t-47 -86t-39 -119t-26.5 -132.5t-9.5 -126.5z" />
<glyph unicode="R" horiz-adv-x="740" d="M450 610h-21l-7 -32l-59 -278h29q44 0 75 30t47.5 76t16.5 94q0 52 -20.5 81t-60.5 29zM355 0h-326v16l34 11q17 5 23.5 15.5t10.5 29.5l107 506l7 31l-52 25l4 16h315q134 0 203.5 -42.5t69.5 -121.5q0 -59 -39.5 -104t-100.5 -76l16 -56q20 -71 33 -115.5t27 -69 t36 -35.5l28 -14l-5 -16l-205 -5q-42 -1 -61.5 14.5t-27.5 47.5l-48 203h-49l-40 -188l-7 -31l52 -25z" />
<glyph unicode="S" horiz-adv-x="548" d="M120 443q0 54 25 95t68.5 68t99.5 40.5t117 13.5q133 0 197 -42q15 -10 15 -26q0 -22 -18 -54.5t-42.5 -62.5t-44.5 -48l-10 2l-48 189q-14 2 -31 2q-29 0 -56.5 -11.5t-44.5 -33t-17 -52.5q0 -32 17 -58t44.5 -49t57.5 -45.5t57.5 -48.5t44.5 -58.5t17 -74.5 q0 -68 -42.5 -112t-113.5 -65.5t-155 -21.5q-61 0 -118.5 6t-88.5 25q-20 13 -20 38q0 24 15.5 56t38 62.5t42.5 50.5l10 -2l60 -191q12 -2 24.5 -3.5t27.5 -1.5q47 0 79 25.5t32 61.5q0 31 -17.5 55t-44.5 46t-57.5 44t-57.5 48t-44.5 58.5t-17.5 74.5z" />
<glyph unicode="T" horiz-adv-x="660" d="M134 396h-10q-3 21 -3 47q0 50 11.5 105.5t27.5 101.5h616q-1 -38 -11 -85t-26 -92t-35 -77h-10l-70 214h-55l-114 -538l-7 -31l52 -25l-5 -16h-326v16l34 11q17 5 23.5 15.5t10.5 29.5l114 538h-56z" />
<glyph unicode="U" horiz-adv-x="685" d="M164 650h326v-16l-34 -11q-17 -5 -23.5 -15.5t-10.5 -29.5l-72 -338q-4 -19 -6 -36t-2 -32q0 -59 28.5 -89t78.5 -30q61 0 101 45.5t60 141.5l72 338l7 32l-69 24l5 16h187v-16l-79 -24l-7 -32l-72 -338q-28 -131 -94 -190.5t-185 -59.5q-121 0 -184 57t-63 148 q0 27 6 55l70 328l7 31l-52 25z" />
<glyph unicode="V" horiz-adv-x="696" d="M417 0h-122l-100 572q-4 25 -12 33.5t-23 15.5l-25 13l3 16h354l-1 -16l-67 -26l53 -423l217 425l-60 24l5 16h193l-1 -16q-19 -10 -34 -19q-30 -20 -56 -51t-53.5 -76.5t-64.5 -112.5z" />
<glyph unicode="W" horiz-adv-x="1044" d="M1038 480l-263 -480h-115l-46 418l-218 -418h-115l-81 572q-6 36 -35 49l-30 13l5 16h342l-1 -16l-62 -23l41 -402l145 290l-8 73q-2 19 -11 30.5t-24 18.5l-27 13l5 16h351l-1 -16l-73 -26l28 -400l196 400l-69 26l5 16h203l-1 -16q-16 -6 -28 -13t-25 -17 q-22 -17 -42 -46t-46 -78z" />
<glyph unicode="X" horiz-adv-x="690" d="M192 140l125 135l-117 295q-10 24 -18 36t-26 19l-21 9l5 16h334l-1 -16l-57 -22l78 -195l132 195l-53 22l5 16h230l-1 -16q-8 -3 -16 -5.5t-16 -5.5q-21 -8 -40.5 -19.5t-44 -33t-60.5 -60.5l-121 -131l117 -294q13 -31 22.5 -42.5t23.5 -17.5l21 -9l-5 -16h-340l1 16 l62 24l-79 198l-136 -200l53 -22l-5 -16h-230l1 16q8 3 16 5.5t16 5.5q21 9 40.5 20t44 32.5t60.5 60.5z" />
<glyph unicode="Y" horiz-adv-x="605" d="M465 0h-326v16l34 11q17 5 23.5 15.5t10.5 29.5l26 125q7 33 9 78t-1.5 93t-11.5 89t-21 66.5t-30 25.5q-18 0 -39.5 -26t-41.5 -55l-12 5q15 46 42.5 88.5t67.5 70.5t90 28q65 0 102.5 -47t52 -127.5t9.5 -180.5q66 177 126 266t108 89q30 0 44 -26t18 -66.5t3 -83.5 l-11 -6q-7 32 -17 54t-31 22q-22 0 -50.5 -26.5t-59 -71t-58.5 -99t-49.5 -111.5t-32.5 -108l-14 -66l-7 -31l52 -25z" />
<glyph unicode="Z" d="M639 208q0 -33 -5.5 -71t-14.5 -74t-20 -63h-526l-10 85l415 525h-146l-173 -214h-10q-3 21 -3 47q0 50 11.5 107t27.5 100h521l10 -80l-410 -530h146l173 214h10q2 -10 3 -21.5t1 -24.5z" />
<glyph unicode="[" horiz-adv-x="401" d="M355 -118h-300l173 813h300l-9 -40h-90l-155 -733h90z" />
<glyph unicode="\" horiz-adv-x="452" d="M390 1l-86 -11l-100 687l4 7l86 11l100 -687z" />
<glyph unicode="]" horiz-adv-x="400" d="M168 695h300l-173 -813h-300l9 40h90l155 733h-90z" />
<glyph unicode="^" horiz-adv-x="526" d="M237 200h-160l233 350h138l85 -350h-160l-32 179z" />
<glyph unicode="_" horiz-adv-x="568" d="M-15 -185l9 45h520l-9 -45h-520z" />
<glyph unicode="`" horiz-adv-x="381" d="M315 562l-10 -11q-115 14 -177 45.5t-62 74.5q0 41 34 58.5t83 17.5q13 0 23 -0.5t17 -1.5q14 -35 39.5 -86t52.5 -97z" />
<glyph unicode="a" horiz-adv-x="624" d="M62 140q0 69 24.5 135t72.5 119t117 84.5t158 31.5q65 0 128.5 -12t109.5 -32l-26 -69l-48 -217q-6 -24 -9.5 -41t-3.5 -24q0 -14 10 -14t30 25t44 56l9 -5q-16 -48 -44.5 -91t-67.5 -69.5t-88 -26.5q-50 0 -75 30.5t-25 82.5q0 17 3 36.5t7 40.5l10 40h-3 q-46 -112 -100 -171t-112 -59q-60 0 -90.5 44t-30.5 106zM445 429l10 31q-18 15 -38 15q-22 0 -43.5 -25t-41 -64.5t-34.5 -84.5t-23.5 -87.5t-8.5 -71.5q0 -19 3.5 -30t14.5 -11t27 21t34 56.5t36.5 78.5t35 87.5t28.5 84.5z" />
<glyph unicode="b" horiz-adv-x="593" d="M69 110l97 444l11 54l-70 35v12q41 10 93 18t104 13.5t92 7.5l8 -10l-28 -130q-15 -60 -35.5 -134.5t-42.5 -138.5h3q92 229 216 229q41 0 67 -21.5t39 -56t13 -74.5q0 -68 -23 -133.5t-67 -118.5t-108 -84.5t-147 -31.5q-64 0 -129 13t-119 38zM416 399q-13 0 -36 -29 t-47 -79t-39 -112l-31 -142q16 -12 35 -12q22 0 42 24.5t37 64t29 84.5t19 87t7 71q0 20 -3 31.5t-13 11.5z" />
<glyph unicode="c" horiz-adv-x="519" d="M539 171q-19 -49 -57.5 -90t-92 -66t-116.5 -25q-50 0 -96.5 21.5t-76 65.5t-29.5 112q0 67 26 125t71 102t103.5 69t124.5 25q80 0 126.5 -37t46.5 -93q0 -43 -34 -71.5t-84 -28.5q-22 0 -41.5 4t-35.5 9q11 37 20.5 76.5t9.5 64.5q0 19 -4.5 27.5t-17.5 8.5 q-16 0 -32 -21.5t-29 -55t-21 -71t-8 -70.5q0 -71 27 -104t73 -33q41 0 76 19.5t63 42.5z" />
<glyph unicode="d" horiz-adv-x="623" d="M387 180l10 45q-47 -115 -101 -175t-113 -60q-40 0 -67 21t-40.5 55.5t-13.5 73.5q0 69 24.5 134.5t72.5 119t117 85t158 31.5q14 0 29 -1l10 45l11 54l-70 35v12q41 10 93 18t104 13.5t92 7.5l8 -10l-28 -130l-86 -374q-6 -24 -9.5 -41t-3.5 -24q0 -14 10 -14t30 25 t44 56l9 -5q-16 -48 -44.5 -91t-67.5 -69.5t-88 -26.5q-50 0 -75 30.5t-25 82.5q0 17 3 36.5t7 40.5zM284 101q11 0 27 21t34 56.5t36.5 78.5t35 87.5t28.5 84.5l7 33q-16 13 -35 13q-22 0 -43.5 -25t-41 -64.5t-34.5 -84.5t-23.5 -87.5t-8.5 -71.5q0 -19 3.5 -30t14.5 -11z " />
<glyph unicode="e" horiz-adv-x="520" d="M538 171q-20 -56 -60 -96.5t-91.5 -62.5t-106.5 -22q-94 0 -151.5 54t-57.5 144q0 66 24.5 124.5t68.5 103t102.5 69.5t125.5 25q48 0 88 -14.5t64 -43.5t24 -73q0 -69 -67 -116.5t-208 -52.5q6 -49 31.5 -72t64.5 -23q38 0 73.5 17t67.5 45zM381 470q-16 0 -32 -20.5 t-29 -54.5t-21 -74t-8 -79q31 10 56.5 40.5t40.5 73t15 86.5q0 12 -5.5 20t-16.5 8z" />
<glyph unicode="f" horiz-adv-x="364" d="M278 74q-19 -91 -64 -151t-105.5 -89t-127.5 -29q-59 0 -95.5 23t-36.5 57q0 31 25 48t62 22q3 -13 7.5 -31t13 -32t22.5 -14q26 0 45 41.5t38 129.5l84 396h-66l1 9l74 30v1q7 35 32.5 71.5t64.5 68t87.5 51t102.5 19.5q56 0 89.5 -20.5t33.5 -62.5q0 -20 -12.5 -35 t-30.5 -24t-35 -13q-20 30 -42 54.5t-45 24.5q-20 0 -27 -15.5t-7.5 -38.5t0.5 -46t-2 -39h104l-8 -35h-103z" />
<glyph unicode="g" horiz-adv-x="542" d="M545 -51q0 -46 -39.5 -78.5t-108.5 -49t-156 -16.5q-71 0 -134 13.5t-101.5 38.5t-38.5 58q0 32 39 56.5t104 28.5l8 -6q2 -43 17 -78.5t44.5 -56.5t73.5 -21q26 0 46 11.5t20 32.5q0 15 -18 27.5t-44 24.5t-52.5 25.5t-44.5 31.5t-18 42q0 32 39 60t120 50h-5 q-68 0 -119.5 19.5t-80.5 54t-29 80.5q0 59 37 107t101.5 77t148.5 29q89 0 157 0.5t120 12.5q2 -4 3.5 -14t1.5 -21q0 -38 -11.5 -58t-38.5 -20q-17 0 -45.5 9.5t-56.5 22.5l-1 -3q27 -18 53 -48.5t26 -70.5q0 -43 -23 -73t-56.5 -50.5t-67.5 -35t-57 -26t-23 -22.5 q0 -13 21 -23t52.5 -20.5t63 -25.5t52.5 -37.5t21 -57.5zM271 263q0 -32 5.5 -56t24.5 -23q13 0 23.5 22t18 56.5t11.5 73.5t4 72q0 30 -5.5 51t-22.5 20q-13 0 -24 -20t-19 -52t-12 -70t-4 -74z" />
<glyph unicode="h" horiz-adv-x="616" d="M258 0q-6 0 -25.5 -1t-46 -2t-52.5 -2t-45 -1.5t-23 -0.5q-21 0 -16 17l36 170l80 374l11 54l-70 35v12q41 10 93 18t104 13.5t92 7.5l8 -10l-28 -130q-6 -25 -18 -71t-27 -99.5t-31 -102.5h3q47 113 106.5 171t124.5 58q47 0 75 -27.5t28 -73.5q0 -27 -8 -67.5 t-18.5 -83.5t-20.5 -78q-6 -24 -9.5 -41t-3.5 -24q0 -14 10 -14t30 25t44 56l9 -5q-16 -48 -44.5 -91t-67.5 -69.5t-88 -26.5q-50 0 -75 30.5t-25 82.5q0 17 3 36.5t7 40.5q8 38 18 74.5t17.5 67t7.5 48.5q0 7 -2.5 12t-10.5 5q-14 0 -35.5 -29t-42.5 -76t-36 -102z" />
<glyph unicode="i" horiz-adv-x="334" d="M416 669q0 -34 -19.5 -59.5t-50.5 -39.5t-67 -14q-44 0 -70.5 20.5t-26.5 55.5q0 33 20 58.5t51.5 39.5t65.5 14q45 0 71 -20t26 -55zM98 180q8 37 18 74t17 66q6 24 9.5 41t3.5 24q0 14 -10 14t-30 -24.5t-44 -56.5l-9 5q17 48 45 91t67 69.5t88 26.5q50 0 75 -30 t25 -83q0 -17 -2.5 -36.5t-7.5 -40.5q-7 -35 -17 -72t-18 -68q-6 -24 -9.5 -41t-3.5 -24q0 -14 10 -14t30 25t44 56l9 -5q-16 -48 -44.5 -91t-67.5 -69.5t-88 -26.5q-50 0 -75 30.5t-25 82.5q0 17 3 36.5t7 40.5z" />
<glyph unicode="j" horiz-adv-x="318" d="M419 669q0 -34 -19.5 -59.5t-50.5 -39.5t-67 -14q-44 0 -70.5 20.5t-26.5 55.5q0 33 20 58.5t51.5 39.5t65.5 14q45 0 71 -20t26 -55zM294 74q-19 -91 -64 -151t-105.5 -89t-127.5 -29q-59 0 -95.5 23t-36.5 57q0 31 25 48t62 22q3 -13 7.5 -31t13 -32t22.5 -14 q26 0 45 41.5t38 129.5l58 271q6 24 9.5 41t3.5 24q0 14 -10 14t-30 -24.5t-44 -56.5l-9 5q17 48 45 91t67 69.5t88 26.5q50 0 75 -30t25 -83q0 -17 -2.5 -36.5t-7.5 -40.5z" />
<glyph unicode="k" horiz-adv-x="623" d="M258 0q-6 0 -25.5 -1t-46 -2t-52.5 -2t-45 -1.5t-23 -0.5q-21 0 -16 17l36 170l80 374l11 54l-70 35v12q41 10 93 18t104 13.5t92 7.5l8 -10l-28 -130q-13 -60 -33.5 -134.5t-42.5 -138.5h3q53 122 114 175.5t134 53.5q52 0 80.5 -32t28.5 -74q0 -38 -19.5 -67.5 t-50 -51.5t-64.5 -37q22 -58 42 -97.5t41 -39.5q16 0 38.5 20t48.5 51l9 -5q-19 -47 -51.5 -90t-74.5 -70t-91 -27q-39 0 -62.5 15.5t-38.5 42.5t-26 62t-23 75l1 5q51 33 81 80t30 85q0 34 -25 34q-17 0 -41.5 -27.5t-48 -75t-39.5 -106.5z" />
<glyph unicode="l" horiz-adv-x="316" d="M80 180l86 374l11 54l-70 35v12q41 10 93 18t104 13.5t92 7.5l8 -10l-28 -130l-86 -374q-6 -24 -9.5 -41t-3.5 -24q0 -14 10 -14t30 25t44 56l9 -5q-16 -48 -44.5 -91t-67.5 -69.5t-88 -26.5q-50 0 -75 30.5t-25 82.5q0 17 3 36.5t7 40.5z" />
<glyph unicode="m" horiz-adv-x="921" d="M276 0q-6 0 -25.5 -1t-46 -2t-52.5 -2t-45 -1.5t-23 -0.5q-21 0 -16 17l36 170l22 101l7 33q13 64 13 72q0 13 -8 13q-10 0 -30.5 -24.5t-44.5 -56.5l-10 5q15 48 41 91t64 69.5t87 26.5q44 0 70.5 -24t26.5 -71q0 -31 -7.5 -67t-16.5 -67h3q46 113 106 171t125 58 q40 0 64 -23.5t24 -61.5q0 -26 -7.5 -64.5t-16.5 -79.5h3q47 113 106 171t120 58q44 0 70.5 -27.5t26.5 -73.5q0 -27 -8 -67.5t-18.5 -83.5t-20.5 -78q-6 -24 -9.5 -41t-3.5 -24q0 -14 10 -14t30 25t44 56l9 -5q-16 -48 -44.5 -91t-67.5 -69.5t-88 -26.5q-50 0 -75 30.5 t-25 82.5q0 17 3 36.5t7 40.5q8 38 18 75.5t17.5 68.5t7.5 49q0 5 -2 9.5t-7 4.5q-11 0 -31.5 -29t-41 -76t-34.5 -102l-38 -180q-6 0 -25.5 -1t-46 -2t-52.5 -2t-45 -1.5t-23 -0.5q-21 0 -16 17l36 170q15 66 23 104t11.5 57.5t3.5 28.5q0 7 -2 12t-9 5q-14 0 -35.5 -29 t-43 -76t-36.5 -102z" />
<glyph unicode="n" horiz-adv-x="634" d="M276 0q-6 0 -25.5 -1t-46 -2t-52.5 -2t-45 -1.5t-23 -0.5q-21 0 -16 17l36 170l22 101l7 33q13 64 13 72q0 13 -8 13q-10 0 -30.5 -24.5t-44.5 -56.5l-10 5q15 48 41 91t64 69.5t87 26.5q44 0 70.5 -24t26.5 -71q0 -31 -7.5 -67t-16.5 -67h3q47 113 106.5 171t124.5 58 q47 0 75 -27.5t28 -73.5q0 -27 -8 -67.5t-18.5 -83.5t-20.5 -78q-6 -24 -9.5 -41t-3.5 -24q0 -14 10 -14t30 25t44 56l9 -5q-16 -48 -44.5 -91t-67.5 -69.5t-88 -26.5q-50 0 -75 30.5t-25 82.5q0 17 3 36.5t7 40.5q8 38 18 74.5t17.5 67t7.5 48.5q0 7 -2.5 12t-10.5 5 q-14 0 -35.5 -29t-42.5 -76t-36 -102z" />
<glyph unicode="o" horiz-adv-x="607" d="M640 302q0 -69 -26 -126.5t-71.5 -99t-105 -64.5t-125.5 -23q-112 0 -175.5 55t-63.5 155q0 66 26 123t72 99t105.5 65.5t126.5 23.5q76 0 129 -28t80.5 -75t27.5 -105zM291 131q0 -46 6.5 -73.5t22.5 -27.5q17 0 32 26.5t27.5 69t21.5 91t14 93t5 73.5q0 87 -29 87 q-17 0 -32 -24t-27.5 -62.5t-21.5 -84.5t-14 -90t-5 -78z" />
<glyph unicode="p" horiz-adv-x="609" d="M232 -188q-6 0 -25.5 -1t-46 -2t-52.5 -2t-45 -1.5t-23 -0.5q-21 0 -16 17l36 170l62 289l7 33q13 64 13 72q0 13 -8 13q-10 0 -30.5 -24.5t-44.5 -56.5l-10 5q15 48 41 91t64 69.5t87 26.5q44 0 70.5 -24t26.5 -71q0 -31 -7.5 -67t-16.5 -67h3q92 229 216 229 q41 0 67 -21.5t39 -56t13 -74.5q0 -68 -23 -133.5t-69 -118.5t-114.5 -84.5t-158.5 -31.5h-17zM432 399q-13 0 -35 -27.5t-45.5 -75.5t-39.5 -109l-35 -161q7 -1 16 -1q26 0 49.5 23.5t43 62t33.5 83t21.5 87.5t7.5 75q0 20 -3 31.5t-13 11.5z" />
<glyph unicode="q" horiz-adv-x="611" d="M520 -188q-6 0 -25.5 -1t-46 -2t-52.5 -2t-45 -1.5t-23 -0.5q-21 0 -16 17l36 170q13 59 25.5 115.5t25.5 112.5h-4q-46 -112 -100 -171t-112 -59q-40 0 -67 21t-40.5 55.5t-13.5 73.5q0 69 24.5 134.5t72.5 119t117 85t158 31.5q64 0 127 -12t109 -32l-26 -69l-86 -405z M266 142q0 -19 3.5 -30t14.5 -11q13 0 33.5 30t43 78.5t44 103.5t36.5 104l11 45q-16 13 -35 13q-22 0 -43.5 -25t-41 -64.5t-34.5 -84.5t-23.5 -87.5t-8.5 -71.5z" />
<glyph unicode="r" horiz-adv-x="514" d="M276 0q-6 0 -25.5 -1t-46 -2t-52.5 -2t-45 -1.5t-23 -0.5q-21 0 -16 17l36 170l22 101l7 33q13 64 13 72q0 13 -8 13q-10 0 -30.5 -24.5t-44.5 -56.5l-10 5q15 48 41 91t64 69.5t87 26.5q44 0 70.5 -24t26.5 -71q0 -31 -7.5 -67t-16.5 -67h3q42 103 90.5 166t100.5 63 q31 0 44.5 -22t13.5 -55q0 -42 -18 -84.5t-45 -75.5q-18 10 -45.5 19t-53.5 9q-44 0 -63.5 -34t-30.5 -87z" />
<glyph unicode="s" horiz-adv-x="501" d="M516 143q0 -68 -63 -110.5t-194 -42.5q-57 0 -107 11t-81 34t-31 57q0 29 38.5 49.5t111.5 20.5l9 -4q3 -20 6.5 -38.5t7.5 -33.5q8 -25 21.5 -40.5t36.5 -15.5q17 0 28 12t11 28q0 25 -22 49.5t-54 49.5t-64 53t-54 59.5t-22 69.5q0 71 63.5 115t179.5 44 q64 0 112.5 -13.5t76.5 -37t28 -52.5q0 -33 -38 -53t-102 -16l-9 4q-3 40 -12 73q-7 24 -19.5 39.5t-32.5 15.5q-21 0 -31.5 -12t-10.5 -31q0 -26 22 -50.5t54.5 -50t64.5 -53t54 -59.5t22 -71z" />
<glyph unicode="t" horiz-adv-x="374" d="M412 177q-17 -48 -47.5 -91t-72.5 -69.5t-95 -26.5q-57 0 -85.5 32.5t-28.5 84.5q0 21 2.5 38.5t6.5 34.5l57 265h-69l1 10l80 42l222 115l10 -2l-28 -130h86l-8 -35h-85l-56 -265q-5 -27 -7.5 -39.5t-2.5 -21.5q0 -18 16 -18q14 0 40 22.5t55 58.5z" />
<glyph unicode="u" d="M423 219h-3q-47 -113 -106.5 -171t-124.5 -58q-46 0 -74.5 27.5t-28.5 73.5q0 27 8 67.5t19 83.5t20 78q6 24 9.5 41t3.5 24q0 14 -10 14t-30 -24.5t-44 -56.5l-9 5q17 48 45 91t67 69.5t88 26.5q50 0 75 -30t25 -83q0 -17 -2.5 -36.5t-7.5 -40.5q-7 -37 -17.5 -74 t-18 -67.5t-7.5 -48.5q0 -7 3 -12t10 -5q15 0 36 29t42.5 76t35.5 102l38 180q6 0 25.5 1t46 2t52.5 2t45 1.5t23 0.5q21 0 16 -17l-36 -170l-22 -101l-7 -33q-13 -64 -13 -72q0 -13 8 -13q11 0 31 25t44 56l10 -5q-14 -48 -40.5 -91t-64.5 -69.5t-87 -26.5q-43 0 -70 24.5 t-27 70.5q0 32 7.5 67.5t16.5 66.5z" />
<glyph unicode="v" horiz-adv-x="591" d="M147 -1q1 47 2 90t1 80q0 79 -1.5 125.5t-4.5 69t-7.5 29t-10.5 6.5q-14 0 -36.5 -25t-42.5 -56l-10 5q15 46 44 88.5t71.5 70.5t97.5 28q51 0 82.5 -36.5t31.5 -125.5q0 -63 -10.5 -133.5t-32.5 -160.5q46 61 70.5 121.5t34 116.5t9.5 104q0 30 -3 54t-8 41 q14 7 41.5 13t50.5 6q59 0 94 -30.5t35 -91.5q0 -66 -43.5 -134.5t-125 -135t-194.5 -128.5z" />
<glyph unicode="w" horiz-adv-x="877" d="M516 510q62 0 98 -34t36 -118q0 -65 -10.5 -138.5t-32.5 -165.5q45 61 70 121.5t34.5 116.5t9.5 104q0 30 -3 54t-8 41q14 7 41.5 13t50.5 6q59 0 94 -30.5t35 -91.5q0 -66 -43.5 -134.5t-125 -135t-194.5 -128.5l-135 9q1 50 1.5 90t0.5 77q-54 -91 -153 -176l-135 9 q1 47 2 90t1 80q0 79 -1.5 125.5t-4.5 69t-7.5 29t-10.5 6.5q-14 0 -36.5 -26t-42.5 -55l-10 5q15 46 44 88.5t71.5 70.5t97.5 28q51 0 82.5 -36.5t31.5 -125.5q0 -60 -9.5 -126.5t-29.5 -149.5q58 78 86 161t28 163q0 30 -3 54t-8 41q14 7 40 13t48 6z" />
<glyph unicode="x" horiz-adv-x="570" d="M240 5q-19 -7 -42.5 -11t-47.5 -4q-44 0 -74 21t-30 63q0 41 26 72t68 53.5t92 37.5l-36 86q-16 39 -24 55t-19 16q-14 0 -34.5 -22.5t-40.5 -48.5l-8 6q32 82 82.5 131.5t113.5 49.5q43 0 65.5 -17.5t39.5 -55t42 -99.5l16 -39q5 33 7 70.5t2 70.5q0 36 -4 55 q35 15 86 15q45 0 76.5 -21.5t31.5 -59.5q0 -42 -25.5 -73.5t-67.5 -54t-91 -38.5l36 -86q16 -39 24.5 -55t18.5 -16q14 0 35 23t40 48l8 -6q-31 -82 -82 -131.5t-114 -49.5q-43 0 -65.5 17.5t-39 55.5t-42.5 99l-18 43q-4 -34 -6.5 -72.5t-2.5 -72.5q0 -36 4 -55z" />
<glyph unicode="y" horiz-adv-x="604" d="M373 341q0 -44 -9 -98.5t-26.5 -111.5t-43.5 -111q59 59 91.5 124.5t45.5 130.5t13 121q0 30 -3 54t-8 41q14 7 40 13t54 6q61 0 94 -35t33 -97q0 -76 -44 -151t-128 -138t-206 -102q-29 -51 -66.5 -92t-83.5 -65t-100 -24q-51 0 -82 23t-31 56q0 28 25 47.5t62 22.5 q3 -14 7.5 -34.5t12.5 -36t22 -15.5q16 0 32 32.5t30 85t25 114.5t17 122.5t6 107.5q0 28 -2.5 48t-14.5 20q-15 0 -36.5 -26t-41.5 -55l-10 5q15 46 43 88.5t69.5 70.5t95.5 28q57 0 87.5 -38.5t30.5 -130.5z" />
<glyph unicode="z" horiz-adv-x="452" d="M135 25q-37 0 -66 -9t-51 -26l-16 20q70 70 138.5 139.5t131.5 140.5q-28 8 -58.5 14t-58.5 6q-31 0 -47.5 -10.5t-34.5 -44.5l-10 3q19 136 52.5 194t98.5 58q28 0 55.5 -17t52.5 -41.5t46 -48.5q21 26 41 53t39 54q35 -1 56.5 -17.5t21.5 -44.5q0 -29 -19.5 -52 t-57.5 -50q-45 -32 -107 -77t-144 -101q30 11 59 11q46 0 85.5 -6t67.5 -6q38 0 74 70l10 -4q-14 -63 -29.5 -118.5t-40 -90t-66.5 -34.5q-31 0 -67 9t-75 17.5t-81 8.5z" />
<glyph unicode="{" horiz-adv-x="428" d="M102 293q54 6 83 32.5t29 79.5q0 30 -6.5 61.5t-6.5 64.5q0 70 43 105t117.5 47t170.5 12l-4 -33q-54 -1 -80.5 -34t-26.5 -83q0 -28 6 -56.5t6 -56.5q0 -50 -30 -81.5t-80.5 -48t-111.5 -22.5q47 -5 85.5 -17t60.5 -33.5t22 -54.5q0 -25 -12 -52t-28 -55t-28 -55.5 t-12 -52.5q0 -29 15.5 -44.5t51.5 -17.5l-10 -33q-103 0 -162.5 13.5t-85 40t-25.5 63.5q0 28 13.5 55.5t31 54.5t31 52.5t13.5 49.5q0 25 -14.5 45.5t-59.5 27.5z" />
<glyph unicode="|" horiz-adv-x="330" d="M170 -190l-83 -5l-6 8l186 877l83 5l6 -8z" />
<glyph unicode="}" horiz-adv-x="428" d="M445 267q-54 -6 -83 -32.5t-29 -79.5q0 -30 6.5 -61.5t6.5 -64.5q0 -69 -42.5 -104.5t-117.5 -47.5t-171 -12l4 33q54 2 80.5 35t26.5 82q0 29 -6 57t-6 56q0 50 30 81.5t80.5 48t111.5 22.5q-47 5 -85.5 17t-60.5 33.5t-22 54.5q0 25 12 52t28 55t28 55.5t12 52.5 q0 29 -15.5 45t-51.5 17l10 33q103 0 162.5 -13.5t85 -39.5t25.5 -64q0 -28 -13.5 -55.5t-31 -54.5t-31 -52.5t-13.5 -49.5q0 -25 14.5 -45.5t59.5 -27.5z" />
<glyph unicode="~" horiz-adv-x="554" d="M199 217q-8 0 -24 -13t-39 -36l-65 34q22 33 49 69t57.5 61t60.5 25q21 0 51.5 -6.5t63 -15.5t60 -15.5t41.5 -6.5q12 0 27.5 14t36.5 35l64 -34q-22 -32 -49.5 -68t-57.5 -61.5t-59 -25.5q-23 0 -55 6.5t-65 15.5t-59 15.5t-38 6.5z" />
<glyph unicode="&#xa1;" horiz-adv-x="328" d="M147 397q0 34 19.5 59.5t50.5 39.5t67 14q44 0 70.5 -20.5t26.5 -55.5q0 -33 -20 -58.5t-51.5 -39.5t-65.5 -14q-45 0 -71 20.5t-26 54.5zM275 -172l-6 -10q-30 -3 -70 -6t-78 -5t-61 -2q-28 0 -40 9.5t-12 27.5t9.5 43t25.5 57l155 324h70z" />
<glyph unicode="&#xa2;" horiz-adv-x="535" d="M281 -120l-43 -3l-7 6l24 108q-46 6 -86 29t-65 65t-25 104q0 63 23.5 119t64.5 99.5t95 70t115 31.5l24 111l43 3l6 -6l-23 -108q70 -5 110 -41t40 -88q0 -43 -34 -71.5t-84 -28.5q-22 0 -41.5 4t-35.5 9q11 37 20.5 76.5t9.5 64.5q0 19 -4.5 27.5t-17.5 8.5 q-16 0 -32 -21.5t-29 -55t-21 -71t-8 -70.5q0 -71 27 -104t73 -33q41 0 76 19.5t63 42.5l8 -6q-18 -46 -53 -85t-83.5 -64.5t-105.5 -30.5z" />
<glyph unicode="&#xa3;" horiz-adv-x="595" d="M579 14q-2 -35 -15 -70t-41.5 -58t-75.5 -23q-45 0 -77.5 19.5t-60 48t-55 56.5t-62.5 45q-62 -42 -112 -42q-28 0 -41.5 13t-13.5 32q0 26 23.5 49.5t67.5 23.5q19 0 38 -5.5t41 -14.5q12 47 13 91.5t3 95.5h-106l11 45h98q2 26 6 54.5t11 59.5q15 63 51.5 114.5 t94 81.5t134.5 30q71 0 118 -27.5t47 -72.5q0 -38 -34 -64.5t-81 -30.5q-7 77 -16.5 115t-32.5 38q-22 0 -36 -33.5t-36 -110.5l-38 -133q-3 -11 -6 -21h141l-11 -45h-147q-26 -65 -62.5 -116.5t-76.5 -88.5q45 -18 111 -34t168 -16q15 0 30 1.5t30 3.5v-11z" />
<glyph unicode="&#xa4;" horiz-adv-x="490" d="M433 120l-42 55q-23 -15 -50.5 -24t-57.5 -9q-34 0 -61 9.5t-47 26.5l-70 -58l-31 40l70 58q-18 33 -18 74q0 40 17 78t48 68l-43 56l44 36q9 -11 21 -25.5t25 -30.5q23 13 49.5 20.5t55.5 7.5q31 0 56.5 -10t44.5 -27l78 65l32 -40l-80 -65q15 -30 15 -65 q0 -40 -13.5 -77t-38.5 -66q13 -15 23.5 -28.5t19.5 -24.5l-2 -11zM327 417q-34 0 -58.5 -17.5t-37.5 -43.5t-13 -52q0 -30 17.5 -53.5t56.5 -23.5q34 0 57.5 17.5t36 45t12.5 55.5q0 30 -18 51t-53 21z" />
<glyph unicode="&#xa5;" horiz-adv-x="677" d="M489 0h-326v16l34 11q17 5 23.5 15.5t10.5 29.5l12 57h-123l10 45h122l5 23q2 10 4 22h-122l10 45h116q3 45 0 94.5t-11 93t-21 70.5t-31 27t-39.5 -26t-41.5 -55l-12 5q15 46 42.5 88.5t67.5 70.5t90 28q65 0 102.5 -47t52 -127.5t9.5 -180.5q66 177 126 266t108 89 q30 0 44 -26t18 -66.5t3 -83.5l-11 -6q-7 32 -17 54t-31 22t-48.5 -24.5t-56.5 -66t-56.5 -93.5t-48.5 -106h110l-10 -45h-117q-8 -23 -14 -45h122l-10 -45h-123l-12 -57l-7 -31l52 -25z" />
<glyph unicode="&#xa6;" horiz-adv-x="331" d="M280 325l-84 -5l-6 8l77 362l83 5l6 -8zM170 -190l-83 -5l-6 8l77 362l83 5l6 -8z" />
<glyph unicode="&#xa7;" horiz-adv-x="605" d="M589 135q0 -54 -25.5 -106.5t-73.5 -95t-114 -68t-147 -25.5q-85 0 -137.5 26t-52.5 73q0 37 25 66.5t69 50.5l10 -1q17 -49 43.5 -90t65.5 -75q20 7 32 33t12 53q0 37 -17.5 72t-43.5 70t-52 72.5t-43.5 79t-17.5 90.5q0 59 27.5 113t78 96t119.5 66.5t151 24.5 q75 0 124.5 -25t49.5 -71q0 -34 -25.5 -66.5t-69.5 -53.5l-9 1q-21 47 -50 89.5t-65 75.5q-17 -17 -29.5 -43.5t-12.5 -60.5q0 -37 18 -72t44.5 -69t53 -69.5t44.5 -75t18 -85.5zM362 -86l4 -3q52 26 80.5 78t28.5 107q0 44 -17.5 80t-43 69t-51 66.5t-43 70.5t-17.5 81 q0 38 11 64.5t33 50.5l-4 3q-51 -26 -79 -71.5t-28 -103.5q0 -44 17 -81.5t42.5 -71t51 -66.5t42.5 -69.5t17 -79.5q0 -31 -11 -64.5t-33 -59.5z" />
<glyph unicode="&#xa8;" horiz-adv-x="585" d="M266 665q0 -29 -16.5 -52t-43.5 -36t-58 -13q-39 0 -62 19.5t-23 52.5q0 28 17.5 50.5t44.5 36t57 13.5q39 0 61.5 -19t22.5 -52zM522 665q0 -29 -16.5 -52t-43.5 -36t-58 -13q-39 0 -62 19.5t-23 52.5q0 28 17.5 50.5t44.5 36t57 13.5q39 0 61.5 -19t22.5 -52z" />
<glyph unicode="&#xa9;" horiz-adv-x="618" d="M307 -10q-66 0 -115 26t-76.5 72t-27.5 106q0 64 26.5 121t72.5 101t105 69t124 25q67 0 116.5 -27.5t77 -74t27.5 -104.5q0 -61 -26.5 -117.5t-72.5 -100.5t-105.5 -70t-125.5 -26zM315 29q56 0 106 22.5t89.5 60.5t62 86t22.5 98q0 80 -49 127.5t-135 47.5 q-55 0 -106 -22t-90 -59.5t-62 -86t-23 -102.5q0 -78 48.5 -125t136.5 -47zM482 181q-18 -26 -57 -51.5t-90 -25.5q-46 0 -78 31t-32 84q0 49 24.5 89t66.5 64t93 24q40 0 65 -19.5t25 -48.5q0 -22 -17.5 -35t-36.5 -13q-23 0 -40 10q0 1 2.5 17.5t2.5 25.5q0 25 -18 25 q-20 0 -38.5 -31t-18.5 -77q0 -32 15.5 -50t48.5 -18q23 0 40 4.5t31 8.5z" />
<glyph unicode="&#xaa;" horiz-adv-x="496" d="M114 395q0 50 19 97t55.5 85t89.5 60.5t121 22.5q50 0 99 -8.5t83 -23.5l-20 -49l-36 -155q-4 -17 -7 -29.5t-3 -17.5q0 -10 7 -10q8 0 23.5 18t33.5 40l7 -3q-12 -34 -34 -65t-51.5 -50t-67.5 -19q-39 0 -58 22t-19 59q0 23 8 55l7 28h-2q-36 -80 -77 -122t-85 -42 q-46 0 -69.5 31.5t-23.5 75.5zM407 602l8 22q-13 11 -29 11t-33 -17.5t-31.5 -46t-26.5 -61t-18.5 -62.5t-6.5 -51q0 -30 14 -30q11 0 27 23t34 59t34.5 77t27.5 76z" />
<glyph unicode="&#xab;" horiz-adv-x="524" d="M492 52l-13 -8q-41 53 -85.5 103.5t-82.5 89.5l-2 6l10 50q72 48 139 92.5t113 78.5l10 -8q-28 -54 -61 -107t-64 -99q10 -43 19.5 -93.5t16.5 -104.5zM275 52l-13 -8q-41 53 -85.5 103.5t-82.5 89.5l-2 6l10 50q72 48 139 92.5t113 78.5l10 -8q-28 -54 -61 -107t-64 -99 q10 -43 19.5 -93.5t16.5 -104.5z" />
<glyph unicode="&#xac;" horiz-adv-x="529" d="M569 425l-56 -263h-145l29 133h-294l28 132q37 2 94 3t121 1.5t121.5 1t95.5 0.5z" />
<glyph unicode="&#xae;" horiz-adv-x="618" d="M307 -10q-66 0 -115 26t-76.5 72t-27.5 106q0 64 26.5 121t72.5 101t105 69t124 25q67 0 116.5 -27.5t77 -74t27.5 -104.5q0 -61 -26.5 -117.5t-72.5 -100.5t-105.5 -70t-125.5 -26zM315 29q56 0 106 22.5t89.5 60.5t62 86t22.5 98q0 80 -49 127.5t-135 47.5 q-55 0 -106 -22t-90 -59.5t-62 -86t-23 -102.5q0 -78 48.5 -125t136.5 -47zM392 352h-22l-4 -19l-17 -80h23q31 0 45 18.5t14 45.5q0 16 -9.5 25.5t-29.5 9.5zM325 142l24 -11l-5 -17h-145l2 17l11 4q11 4 13 11t6 22l35 165q2 13 2 18t-7 9l-10 5l6 22h159q55 0 83 -18 t28 -49q0 -33 -21 -55t-46 -33q12 -27 23 -57.5t23 -40.5l3 -3l-4 -17l-74 -4q-18 -1 -24.5 5t-10.5 15l-34 83h-21l-10 -45z" />
<glyph unicode="&#xaf;" horiz-adv-x="533" d="M84 591l23 106h342l-23 -106h-342z" />
<glyph unicode="&#xb0;" horiz-adv-x="323" d="M256 420q-45 0 -74 26t-29 72q0 40 20 72t53.5 51t71.5 19q47 0 74.5 -25.5t27.5 -69.5q0 -36 -17.5 -69t-49.5 -54.5t-77 -21.5zM287 605q-33 0 -52.5 -24.5t-19.5 -51.5q0 -26 16.5 -40t38.5 -14q31 0 49.5 24t18.5 52q0 25 -14.5 39.5t-36.5 14.5z" />
<glyph unicode="&#xb1;" horiz-adv-x="549" d="M555 352h-138l-31 -144h-147l30 144h-144l28 132q26 1 63.5 2t80.5 2l30 147h150l-31 -146q41 1 77.5 1h62.5l6 -8zM493 15h-430l28 132q37 2 94 3t121 1.5t122 1t96 0.5l6 -8z" />
<glyph unicode="&#xb2;" horiz-adv-x="343" d="M188 376q-19 0 -37 -3t-35 -8l-13 60q77 43 118 86t41 89q0 22 -12 34.5t-33 12.5q-22 0 -39.5 -11t-34.5 -32l-6 4q22 58 66 94.5t114 36.5q53 0 87.5 -28t34.5 -72q0 -100 -200 -166q-7 -2 -14 -4.5t-14 -4.5q12 0 23 1t22 1q31 0 57.5 -3t52.5 -3q13 0 23 7.5t20 26.5 l7 -2q-6 -26 -12 -47.5t-13 -37.5q-18 -42 -48 -42q-34 0 -72 5.5t-83 5.5z" />
<glyph unicode="&#xb3;" horiz-adv-x="319" d="M395 476q0 -51 -81 -81t-233 -30l-1 12q74 13 109.5 39.5t35.5 62.5q0 20 -12 32t-35 12q-5 0 -10.5 -0.5t-10.5 -1.5l-4 22q47 11 72 31t25 45q0 33 -37 33q-20 0 -38 -10.5t-32 -29.5l-6 4q20 55 67.5 89t108.5 34q51 0 78.5 -22t27.5 -54q0 -46 -46.5 -74t-118.5 -39 q61 5 101 -15.5t40 -58.5z" />
<glyph unicode="&#xb4;" horiz-adv-x="422" d="M356 670q0 -49 -76 -79.5t-207 -35.5l-7 13q44 43 87 92.5t70 84.5q62 0 97.5 -20t35.5 -55z" />
<glyph unicode="&#xb6;" horiz-adv-x="570" d="M483 44q-21 -101 -68 -152.5t-136 -51.5q-40 0 -73.5 12.5t-53.5 35t-20 52.5q0 29 16.5 51t42 36.5t52.5 19.5l6 -5q0 -10 -0.5 -19.5t-0.5 -19.5q0 -49 16.5 -83.5t62.5 -34.5q43 0 69 36.5t39 97.5l119 559l7 32h-80l-90 -420q-79 0 -139.5 20.5t-94 60.5t-33.5 97 q0 82 45 145.5t127 100t193 36.5h176v-16l-31 -10q-19 -6 -26 -16t-11 -30z" />
<glyph unicode="&#xb7;" horiz-adv-x="339" d="M227 238q-36 0 -57.5 20t-21.5 52q0 29 15 52t39.5 36.5t52.5 13.5q33 0 54 -18.5t21 -50.5q0 -28 -14 -52t-37.5 -38.5t-51.5 -14.5z" />
<glyph unicode="&#xb8;" horiz-adv-x="381" d="M119 -106l-2 6l36 100h47l-12 -33q61 -4 94 -23.5t33 -54.5q0 -31 -21.5 -52t-57.5 -34t-80 -19t-89 -6l-1 15q20 8 42 19t37.5 25t15.5 30q0 24 -42 27z" />
<glyph unicode="&#xb9;" horiz-adv-x="263" d="M317 371h-205v9l13 6q11 3 15.5 9.5t6.5 16.5l62 269l-39 4l1 8l202 46l5 -5l-78 -322l-5 -18l25 -14z" />
<glyph unicode="&#xba;" horiz-adv-x="475" d="M555 511q0 -66 -34.5 -116.5t-91.5 -79t-125 -28.5q-85 0 -134 39.5t-49 110.5q0 64 34.5 114t92.5 79.5t126 29.5q87 0 134 -43.5t47 -105.5zM288 389q0 -33 4.5 -53t17.5 -20t24.5 19t21 49.5t16.5 65.5t11 66.5t4 52.5q0 62 -22 62q-16 0 -30 -26t-24.5 -65t-16.5 -80 t-6 -71z" />
<glyph unicode="&#xbb;" horiz-adv-x="524" d="M313 215q-72 -48 -139 -92.5t-113 -78.5l-10 8q28 54 61 107t64 99q-10 43 -19.5 93.5t-16.5 104.5l13 8q41 -52 85.5 -103t82.5 -90l2 -6zM530 215q-72 -48 -139 -92.5t-113 -78.5l-10 8q28 54 61 107t64 99q-10 43 -19.5 93.5t-16.5 104.5l13 8q41 -52 85.5 -103 t82.5 -90l2 -6z" />
<glyph unicode="&#xbc;" horiz-adv-x="1000" d="M744 660h101l-539 -670h-103zM358 288h-205v9l13 6q11 3 15.5 9.5t6.5 16.5l62 269l-39 4l1 8l202 46l5 -5l-78 -322l-5 -18l25 -14zM526 123l260 245l89 -12l-46 -214l49 1l-17 -65l-45 1l-17 -79h-152l16 80l-142 2zM696 248l-114 -113l92 2z" />
<glyph unicode="&#xbd;" horiz-adv-x="1000" d="M744 660h101l-539 -670h-103zM358 288h-205v9l13 6q11 3 15.5 9.5t6.5 16.5l62 269l-39 4l1 8l202 46l5 -5l-78 -322l-5 -18l25 -14zM660 5q-19 0 -37 -3t-35 -8l-13 60q77 43 118 86t41 89q0 22 -12 34.5t-33 12.5q-22 0 -39.5 -11t-34.5 -32l-6 4q22 58 66 94.5 t114 36.5q53 0 87.5 -28t34.5 -72q0 -100 -200 -166q-7 -2 -14 -4.5t-14 -4.5q12 0 23 1t22 1q31 0 57.5 -3t52.5 -3q13 0 23 7.5t20 26.5l7 -2q-6 -26 -12 -47.5t-13 -37.5q-18 -42 -48 -42q-34 0 -72 5.5t-83 5.5z" />
<glyph unicode="&#xbe;" horiz-adv-x="1000" d="M744 660h101l-539 -670h-103zM415 393q0 -51 -81 -81t-233 -30l-1 12q74 13 109.5 39.5t35.5 62.5q0 20 -12 32t-35 12q-5 0 -10.5 -0.5t-10.5 -1.5l-4 22q47 11 72 31t25 45q0 33 -37 33q-20 0 -38 -10.5t-32 -29.5l-6 4q20 55 67.5 89t108.5 34q51 0 78.5 -22t27.5 -54 q0 -46 -46.5 -74t-118.5 -39q61 5 101 -15.5t40 -58.5zM526 123l260 245l89 -12l-46 -214l49 1l-17 -65l-45 1l-17 -79h-152l16 80l-142 2zM696 248l-114 -113l92 2z" />
<glyph unicode="&#xbf;" horiz-adv-x="609" d="M283 397q0 34 19.5 59.5t51 39.5t66.5 14q44 0 70.5 -20.5t26.5 -55.5q0 -33 -20 -58.5t-51.5 -39.5t-65.5 -14q-45 0 -71 20.5t-26 54.5zM279 -195q-114 0 -183 40.5t-69 117.5q0 42 20.5 74.5t53 57t69.5 43.5t69.5 34.5t53 30t20.5 30.5q0 19 -25 28l3 10q24 3 45 3 q44 0 70.5 -16t26.5 -48q0 -30 -19 -57t-46.5 -53.5t-55 -55.5t-46.5 -63t-19 -76q0 -25 12.5 -42.5t39.5 -17.5q33 0 54.5 24.5t32.5 63t11 80.5v21t-2 20q18 8 37.5 12t49.5 4q115 0 115 -79q0 -37 -26 -70.5t-70.5 -59.5t-101.5 -41t-120 -15z" />
<glyph unicode="&#xc0;" horiz-adv-x="698" d="M638 713l-10 -11q-115 14 -177 45.5t-62 74.5q0 41 34 58.5t83 17.5q13 0 23 -0.5t17 -1.5q14 -35 39.5 -86t52.5 -97zM424 650h115l101 -572q5 -34 35 -49l26 -13l-5 -16h-353l1 16l68 25l-17 123l-207 -2l-71 -123l63 -23l-5 -16h-173l1 16l34 11q23 8 34.5 21t24.5 36 zM212 203l178 -2l-34 250z" />
<glyph unicode="&#xc1;" horiz-adv-x="698" d="M659 821q0 -49 -76 -79.5t-207 -35.5l-7 13q44 43 87 92.5t70 84.5q62 0 97.5 -20t35.5 -55zM424 650h115l101 -572q5 -34 35 -49l26 -13l-5 -16h-353l1 16l68 25l-17 123l-207 -2l-71 -123l63 -23l-5 -16h-173l1 16l34 11q23 8 34.5 21t24.5 36zM212 203l178 -2l-34 250 z" />
<glyph unicode="&#xc2;" horiz-adv-x="698" d="M662 718l-11 -7q-67 33 -142 60q-39 -13 -82.5 -28.5t-87.5 -31.5l-7 8q33 41 66 84.5t56 76.5l13 8h141q18 -44 31.5 -89.5t22.5 -80.5zM424 650h115l101 -572q5 -34 35 -49l26 -13l-5 -16h-353l1 16l68 25l-17 123l-207 -2l-71 -123l63 -23l-5 -16h-173l1 16l34 11 q23 8 34.5 21t24.5 36zM212 203l178 -2l-34 250z" />
<glyph unicode="&#xc3;" horiz-adv-x="698" d="M636 831q17 14 35 27t35 26l9 -3q-3 -44 -21.5 -82t-50.5 -61t-77 -23q-52 0 -96.5 18.5t-77.5 34.5q-17 -13 -35 -26t-35 -27l-9 3q5 71 44.5 118.5t104.5 47.5q50 0 92.5 -19.5t81.5 -33.5zM424 650h115l101 -572q5 -34 35 -49l26 -13l-5 -16h-353l1 16l68 25l-17 123 l-207 -2l-71 -123l63 -23l-5 -16h-173l1 16l34 11q23 8 34.5 21t24.5 36zM212 203l178 -2l-34 250z" />
<glyph unicode="&#xc4;" horiz-adv-x="698" d="M487 815q0 -29 -16.5 -52t-43.5 -36t-58 -13q-39 0 -62 19.5t-23 52.5q0 28 17.5 50.5t44.5 36t57 13.5q39 0 61.5 -19t22.5 -52zM743 815q0 -29 -16.5 -52t-43.5 -36t-58 -13q-39 0 -62 19.5t-23 52.5q0 28 17 50.5t44.5 36t57.5 13.5q39 0 61.5 -19t22.5 -52zM424 650 h115l101 -572q5 -34 35 -49l26 -13l-5 -16h-353l1 16l68 25l-17 123l-207 -2l-71 -123l63 -23l-5 -16h-173l1 16l34 11q23 8 34.5 21t24.5 36zM212 203l178 -2l-34 250z" />
<glyph unicode="&#xc5;" horiz-adv-x="698" d="M627 816q0 -31 -18 -56.5t-48.5 -40.5t-67.5 -15q-42 0 -66.5 21t-24.5 58q0 32 18 57.5t48.5 40t67.5 14.5q42 0 66.5 -21t24.5 -58zM475 786q0 -16 8 -25.5t21 -9.5q21 0 35.5 18t14.5 45q0 34 -29 34q-21 0 -35.5 -18t-14.5 -44zM424 650h115l101 -572q5 -34 35 -49 l26 -13l-5 -16h-353l1 16l68 25l-17 123l-207 -2l-71 -123l63 -23l-5 -16h-173l1 16l34 11q23 8 34.5 21t24.5 36zM212 203l178 -2l-34 250z" />
<glyph unicode="&#xc6;" horiz-adv-x="897" d="M180 16l-5 -16h-173l1 16l34 11q23 8 34.5 21t24.5 36l305 526l-66 24l5 16h649q0 -32 -8.5 -71.5t-22.5 -77t-32 -65.5h-10l-87 174h-97l-57 -270l158 12l-14 -65l-153 13l-48 -228l-7 -32h103l164 181h10q2 -12 3.5 -25t1.5 -26q0 -43 -10 -88t-24 -82h-526l-1 16 l40 13q13 5 19.5 16.5t8.5 26.5l49 229l-181 -2l-151 -260zM515 610h-67l-157 -270l166 -2z" />
<glyph unicode="&#xc7;" horiz-adv-x="646" d="M351 -106l-2 6l33 91q-87 4 -153 37t-103 92t-37 144q0 87 33 159.5t93 125.5t140.5 82t174.5 29q62 0 108.5 -8t77.5 -26q-4 -33 -15 -72t-26.5 -77t-33.5 -68h-10l-78 211h-8q-43 0 -82.5 -28.5t-71 -78.5t-49.5 -116.5t-18 -141.5q1 -101 35 -163t89 -62q4 0 9 1 l165 205h10q8 -27 8 -67q0 -37 -8 -81.5t-19 -71.5q-36 -12 -81 -18.5t-103 -7.5l-9 -23q61 -4 94 -23.5t33 -54.5q0 -31 -21.5 -52t-57.5 -34t-80 -19t-89 -6l-1 15q20 8 42 19t37.5 25t15.5 30q0 24 -42 27z" />
<glyph unicode="&#xc8;" horiz-adv-x="594" d="M616 713l-10 -11q-115 14 -177 45.5t-62 74.5q0 41 34 58.5t83 17.5q13 0 23 -0.5t17 -1.5q14 -35 39.5 -86t52.5 -97zM556 0h-526l-1 16l40 13q13 5 19.5 16.5t8.5 26.5l107 506l7 31l-52 25l4 16h522q0 -32 -8.5 -71.5t-22.5 -77t-32 -65.5h-10l-87 174h-96l-7 -32 l-50 -235l160 12l-14 -65l-154 13l-49 -231l-7 -32h103l164 181h10q2 -12 3.5 -25t1.5 -26q0 -43 -10 -88t-24 -82z" />
<glyph unicode="&#xc9;" horiz-adv-x="594" d="M637 821q0 -49 -76 -79.5t-207 -35.5l-7 13q44 43 87 92.5t70 84.5q62 0 97.5 -20t35.5 -55zM556 0h-526l-1 16l40 13q13 5 19.5 16.5t8.5 26.5l107 507l7 31l-52 25l4 16h522q0 -33 -8.5 -72.5t-22.5 -77t-32 -65.5h-10l-87 175h-96l-7 -32l-50 -236l160 12l-14 -65 l-154 13l-49 -231l-7 -32h103l164 181h10q2 -12 3.5 -25t1.5 -26q0 -43 -10 -88t-24 -82z" />
<glyph unicode="&#xca;" horiz-adv-x="594" d="M640 718l-11 -7q-67 33 -142 60q-39 -13 -82.5 -28.5t-87.5 -31.5l-7 8q33 41 66 84.5t56 76.5l13 8h141q18 -44 31.5 -89.5t22.5 -80.5zM556 0h-526l-1 16l40 13q13 5 19.5 16.5t8.5 26.5l107 506l7 31l-52 25l4 16h522q0 -32 -8.5 -71.5t-22.5 -77t-32 -65.5h-10 l-87 174h-96l-7 -32l-50 -235l160 12l-14 -65l-154 13l-49 -231l-7 -32h103l164 181h10q2 -12 3.5 -25t1.5 -26q0 -43 -10 -88t-24 -82z" />
<glyph unicode="&#xcb;" horiz-adv-x="594" d="M465 815q0 -29 -16.5 -52t-43.5 -36t-58 -13q-39 0 -62 19.5t-23 52.5q0 28 17.5 50.5t44.5 36t57 13.5q39 0 61.5 -19t22.5 -52zM721 815q0 -29 -16.5 -52t-43.5 -36t-58 -13q-39 0 -62 19.5t-23 52.5q0 28 17 50.5t44.5 36t57.5 13.5q39 0 61.5 -19t22.5 -52zM556 0 h-526l-1 16l40 13q13 5 19.5 16.5t8.5 26.5l107 506l7 31l-52 25l4 16h522q0 -32 -8.5 -71.5t-22.5 -77t-32 -65.5h-10l-87 174h-96l-7 -32l-50 -235l160 12l-14 -65l-154 13l-49 -231l-7 -32h103l164 181h10q2 -12 3.5 -25t1.5 -26q0 -43 -10 -88t-24 -82z" />
<glyph unicode="&#xcc;" horiz-adv-x="381" d="M485 713l-10 -11q-115 14 -177 45.5t-62 74.5q0 41 34 58.5t83 17.5q13 0 23 -0.5t17 -1.5q14 -35 39.5 -86t52.5 -97zM355 0h-326v16l34 11q17 5 23.5 15.5t10.5 29.5l107 506l7 31l-52 25l5 16h326v-16l-34 -11q-17 -5 -23.5 -15.5t-10.5 -29.5l-107 -506l-7 -31 l52 -25z" />
<glyph unicode="&#xcd;" horiz-adv-x="381" d="M506 821q0 -49 -76 -79.5t-207 -35.5l-7 13q44 43 87 92.5t70 84.5q62 0 97.5 -20t35.5 -55zM355 0h-326v16l34 11q17 5 23.5 15.5t10.5 29.5l107 506l7 31l-52 25l5 16h326v-16l-34 -11q-17 -5 -23.5 -15.5t-10.5 -29.5l-107 -506l-7 -31l52 -25z" />
<glyph unicode="&#xce;" horiz-adv-x="381" d="M509 718l-11 -7q-67 33 -142 60q-39 -13 -82.5 -28.5t-87.5 -31.5l-7 8q33 41 66 84.5t56 76.5l13 8h141q18 -44 31.5 -89.5t22.5 -80.5zM355 0h-326v16l34 11q17 5 23.5 15.5t10.5 29.5l107 506l7 31l-52 25l5 16h326v-16l-34 -11q-17 -5 -23.5 -15.5t-10.5 -29.5 l-107 -506l-7 -31l52 -25z" />
<glyph unicode="&#xcf;" horiz-adv-x="381" d="M334 815q0 -29 -16.5 -52t-43.5 -36t-58 -13q-39 0 -62 19.5t-23 52.5q0 28 17.5 50.5t44.5 36t57 13.5q39 0 61.5 -19t22.5 -52zM590 815q0 -29 -16.5 -52t-43.5 -36t-58 -13q-39 0 -62 19.5t-23 52.5q0 28 17.5 50.5t44.5 36t57 13.5q39 0 61.5 -19t22.5 -52zM355 0 h-326v16l34 11q17 5 23.5 15.5t10.5 29.5l107 506l7 31l-52 25l5 16h326v-16l-34 -11q-17 -5 -23.5 -15.5t-10.5 -29.5l-107 -506l-7 -31l52 -25z" />
<glyph unicode="&#xd0;" horiz-adv-x="725" d="M462 312h-97l-51 -240l-7 -32h30q44 0 80 26t63.5 69.5t46.5 96t28.5 106t9.5 99.5q0 91 -28.5 132t-82.5 41h-25l-7 -32l-49 -231h97zM336 0h-307l-1 16l40 13q13 5 19.5 16.5t8.5 26.5l51 240h-57l8 35h57l49 231l7 31l-52 25l4 16h307q142 0 225 -59t83 -184 q0 -88 -32 -162t-90.5 -129t-139.5 -85.5t-180 -30.5z" />
<glyph unicode="&#xd1;" horiz-adv-x="675" d="M629 831q17 14 35 27t35 26l9 -3q-3 -44 -21.5 -82t-50.5 -61t-77 -23q-52 0 -96.5 18.5t-77.5 34.5q-17 -13 -35 -26t-35 -27l-9 3q5 71 44.5 118.5t104.5 47.5q50 0 92.5 -19.5t81.5 -33.5zM217 1h-197v16l50 15q20 6 26 14.5t10 26.5l114 536l-68 25l5 16h207 l225 -421l74 349l7 31l-78 25l5 16h197v-16l-50 -15q-19 -6 -25.5 -14.5t-10.5 -26.5l-123 -578h-135l-223 431l-76 -358l-7 -31l78 -25z" />
<glyph unicode="&#xd2;" horiz-adv-x="727" d="M658 713l-10 -11q-115 14 -177 45.5t-62 74.5q0 41 34 58.5t83 17.5q13 0 23 -0.5t17 -1.5q14 -35 39.5 -86t52.5 -97zM778 400q0 -87 -31.5 -162t-88 -130.5t-130 -86.5t-157.5 -31q-91 0 -154.5 33t-97 90.5t-33.5 131.5q0 90 32.5 165.5t89.5 131.5t131 87t157 31 q132 0 207 -70t75 -190zM321 124q0 -49 12 -71.5t38 -22.5q25 0 50 33t47 88t39 121.5t26.5 134.5t9.5 126q0 87 -49 87q-26 0 -51 -32t-47 -86t-39 -119t-26.5 -132.5t-9.5 -126.5z" />
<glyph unicode="&#xd3;" horiz-adv-x="727" d="M677 821q0 -49 -76 -79.5t-207 -35.5l-7 13q44 43 87 92.5t70 84.5q62 0 97.5 -20t35.5 -55zM778 400q0 -87 -31.5 -162t-88 -130.5t-130 -86.5t-157.5 -31q-91 0 -154.5 33t-97 90.5t-33.5 131.5q0 90 32.5 165.5t89.5 131.5t131 87t157 31q132 0 207 -70t75 -190z M321 124q0 -49 12 -71.5t38 -22.5q25 0 50 33t47 88t39 121.5t26.5 134.5t9.5 126q0 87 -49 87q-26 0 -51 -32t-47 -86t-39 -119t-26.5 -132.5t-9.5 -126.5z" />
<glyph unicode="&#xd4;" horiz-adv-x="727" d="M680 718l-11 -7q-67 33 -142 60q-39 -13 -82.5 -28.5t-87.5 -31.5l-7 8q33 41 66 84.5t56 76.5l13 8h141q18 -44 31.5 -89.5t22.5 -80.5zM778 400q0 -87 -31.5 -162t-88 -130.5t-130 -86.5t-157.5 -31q-91 0 -154.5 33t-97 90.5t-33.5 131.5q0 90 32.5 165.5t89.5 131.5 t131 87t157 31q132 0 207 -70t75 -190zM321 124q0 -49 12 -71.5t38 -22.5q25 0 50 33t47 88t39 121.5t26.5 134.5t9.5 126q0 87 -49 87q-26 0 -51 -32t-47 -86t-39 -119t-26.5 -132.5t-9.5 -126.5z" />
<glyph unicode="&#xd5;" horiz-adv-x="727" d="M654 831q17 14 35 27t35 26l9 -3q-3 -44 -21.5 -82t-50.5 -61t-77 -23q-52 0 -96.5 18.5t-77.5 34.5q-17 -13 -35 -26t-35 -27l-9 3q5 71 44.5 118.5t104.5 47.5q50 0 92.5 -19.5t81.5 -33.5zM778 400q0 -87 -31.5 -162t-88 -130.5t-130 -86.5t-157.5 -31 q-91 0 -154.5 33t-97 90.5t-33.5 131.5q0 90 32.5 165.5t89.5 131.5t131 87t157 31q132 0 207 -70t75 -190zM321 124q0 -49 12 -71.5t38 -22.5q25 0 50 33t47 88t39 121.5t26.5 134.5t9.5 126q0 87 -49 87q-26 0 -51 -32t-47 -86t-39 -119t-26.5 -132.5t-9.5 -126.5z" />
<glyph unicode="&#xd6;" horiz-adv-x="727" d="M505 815q0 -29 -16.5 -52t-43.5 -36t-58 -13q-39 0 -62 19.5t-23 52.5q0 28 17.5 50.5t44.5 36t57 13.5q39 0 61.5 -19t22.5 -52zM761 815q0 -29 -16.5 -52t-43.5 -36t-58 -13q-39 0 -62 19.5t-23 52.5q0 28 17 50.5t44.5 36t57.5 13.5q39 0 61.5 -19t22.5 -52zM778 400 q0 -87 -31.5 -162t-88 -130.5t-130 -86.5t-157.5 -31q-91 0 -154.5 33t-97 90.5t-33.5 131.5q0 90 32.5 165.5t89.5 131.5t131 87t157 31q132 0 207 -70t75 -190zM321 124q0 -49 12 -71.5t38 -22.5q25 0 50 33t47 88t39 121.5t26.5 134.5t9.5 126q0 87 -49 87q-26 0 -51 -32 t-47 -86t-39 -119t-26.5 -132.5t-9.5 -126.5z" />
<glyph unicode="&#xd7;" horiz-adv-x="467" d="M370 114l-88 113l-139 -114l-77 98l138 115l-90 116l116 96q17 -20 41.5 -49.5t51.5 -62.5l135 112l80 -100l-135 -111q26 -33 49.5 -62.5t39.5 -50.5l-2 -12z" />
<glyph unicode="&#xd8;" horiz-adv-x="727" d="M778 400q0 -87 -31.5 -162t-88 -130.5t-130 -86.5t-157.5 -31q-63 0 -113 16.5t-86 45.5l-67 -62l-33 36l65 61q-51 65 -51 158q0 90 32.5 165.5t89.5 131.5t131 87t157 31q119 0 193 -58l62 58l35 -36l-61 -57q53 -66 53 -167zM494 620q-25 0 -49.5 -30t-46 -80.5 t-38 -112.5t-26.5 -127l206 193q3 37 3 70q0 87 -49 87zM321 124q0 -49 12 -71.5t38 -22.5q24 0 48 31t45.5 82.5t38.5 114.5t27 128l-206 -192q-3 -37 -3 -70z" />
<glyph unicode="&#xd9;" horiz-adv-x="685" d="M684 713l-10 -11q-115 14 -177 45.5t-62 74.5q0 41 34 58.5t83 17.5q13 0 23 -0.5t17 -1.5q14 -35 39.5 -86t52.5 -97zM164 650h326v-16l-34 -11q-17 -5 -23.5 -15.5t-10.5 -29.5l-72 -338q-4 -19 -6 -36t-2 -32q0 -59 28.5 -89t78.5 -30q61 0 101 45.5t60 141.5l72 338 l7 32l-69 24l5 16h187v-16l-79 -24l-7 -32l-72 -338q-28 -131 -94 -190.5t-185 -59.5q-121 0 -184 57t-63 148q0 27 6 55l70 328l7 31l-52 25z" />
<glyph unicode="&#xda;" horiz-adv-x="685" d="M705 821q0 -49 -76 -79.5t-207 -35.5l-7 13q44 43 87 92.5t70 84.5q62 0 97.5 -20t35.5 -55zM164 650h326v-16l-34 -11q-17 -5 -23.5 -15.5t-10.5 -29.5l-72 -338q-4 -19 -6 -36t-2 -32q0 -59 28.5 -89t78.5 -30q61 0 101 45.5t60 141.5l72 338l7 32l-69 24l5 16h187v-16 l-79 -24l-7 -32l-72 -338q-28 -131 -94 -190.5t-185 -59.5q-121 0 -184 57t-63 148q0 27 6 55l70 328l7 31l-52 25z" />
<glyph unicode="&#xdb;" horiz-adv-x="685" d="M708 718l-11 -7q-67 33 -142 60q-39 -13 -82.5 -28.5t-87.5 -31.5l-7 8q33 41 66 84.5t56 76.5l13 8h141q18 -44 31.5 -89.5t22.5 -80.5zM164 650h326v-16l-34 -11q-17 -5 -23.5 -15.5t-10.5 -29.5l-72 -338q-4 -19 -6 -36t-2 -32q0 -59 28.5 -89t78.5 -30q61 0 101 45.5 t60 141.5l72 338l7 32l-69 24l5 16h187v-16l-79 -24l-7 -32l-72 -338q-28 -131 -94 -190.5t-185 -59.5q-121 0 -184 57t-63 148q0 27 6 55l70 328l7 31l-52 25z" />
<glyph unicode="&#xdc;" horiz-adv-x="685" d="M533 815q0 -29 -16.5 -52t-43.5 -36t-58 -13q-39 0 -62 19.5t-23 52.5q0 28 17.5 50.5t44.5 36t57 13.5q39 0 61.5 -19t22.5 -52zM789 815q0 -29 -16.5 -52t-43.5 -36t-58 -13q-39 0 -62 19.5t-23 52.5q0 28 17 50.5t44.5 36t57.5 13.5q39 0 61.5 -19t22.5 -52zM164 650 h326v-16l-34 -11q-17 -5 -23.5 -15.5t-10.5 -29.5l-72 -338q-4 -19 -6 -36t-2 -32q0 -59 28.5 -89t78.5 -30q61 0 101 45.5t60 141.5l72 338l7 32l-69 24l5 16h187v-16l-79 -24l-7 -32l-72 -338q-28 -131 -94 -190.5t-185 -59.5q-121 0 -184 57t-63 148q0 27 6 55l70 328 l7 31l-52 25z" />
<glyph unicode="&#xdd;" horiz-adv-x="605" d="M636 821q0 -49 -76 -79.5t-207 -35.5l-7 13q44 43 87 92.5t70 84.5q62 0 97.5 -20t35.5 -55zM465 0h-326v16l34 11q17 5 23.5 15.5t10.5 29.5l26 125q7 33 9 78t-1.5 93t-11.5 89t-21 66.5t-30 25.5q-18 0 -39.5 -26t-41.5 -55l-12 5q15 46 42.5 88.5t67.5 70.5t90 28 q65 0 102.5 -47t52 -127.5t9.5 -180.5q66 177 126 266t108 89q30 0 44 -26t18 -66.5t3 -83.5l-11 -6q-7 32 -17 54t-31 22q-22 0 -50.5 -26.5t-59 -71t-58.5 -99t-49.5 -111.5t-32.5 -108l-14 -66l-7 -31l52 -25z" />
<glyph unicode="&#xde;" horiz-adv-x="665" d="M314 72v0l-6 -31l78 -25l-5 -16h-354l1 16l32 10q19 6 25.5 16.5t10.5 29.5v0l108 506l7 31l-52 25l5 16h326v-16l-34 -11q-17 -5 -23.5 -15.5t-10.5 -29.5l-9 -40h36q127 0 199 -44.5t72 -137.5q0 -68 -43.5 -122t-121 -85t-179.5 -31h-52zM425 498h-20l-73 -340h22 q36 0 63.5 21.5t45.5 56t27.5 76t9.5 81.5q0 50 -19 77.5t-56 27.5z" />
<glyph unicode="&#xdf;" horiz-adv-x="626" d="M278 74q-19 -91 -64 -151t-105.5 -89t-127.5 -29q-59 0 -95.5 23t-36.5 57q0 31 25 48t62 22q3 -13 7.5 -31t13 -32t22.5 -14q26 0 45 41.5t38 129.5l74 346q27 145 113 222.5t231 77.5q83 0 132.5 -36.5t49.5 -102.5q0 -61 -47 -102.5t-126 -57.5q93 -33 131.5 -83 t38.5 -116q0 -63 -29 -109.5t-78.5 -72t-111.5 -25.5q-56 0 -89 21t-33 58q0 46 48 59q6 -63 36 -63q24 0 38.5 37t14.5 101q0 68 -16 110.5t-49 69.5l6 29q27 6 48 31t33 61.5t12 74.5q0 70 -35 70q-24 0 -49 -44t-44 -139z" />
<glyph unicode="&#xe0;" horiz-adv-x="624" d="M570 562l-10 -11q-115 14 -177 45.5t-62 74.5q0 41 34 58.5t83 17.5q13 0 23 -0.5t17 -1.5q14 -35 39.5 -86t52.5 -97zM62 140q0 69 24.5 135t72.5 119t117 84.5t158 31.5q65 0 128.5 -12t109.5 -32l-26 -69l-48 -217q-6 -24 -9.5 -41t-3.5 -24q0 -14 10 -14t30 25t44 56 l9 -5q-16 -48 -44.5 -91t-67.5 -69.5t-88 -26.5q-50 0 -75 30.5t-25 82.5q0 17 3 36.5t7 40.5l10 40h-3q-46 -112 -100 -171t-112 -59q-60 0 -90.5 44t-30.5 106zM445 429l10 31q-18 15 -38 15q-22 0 -43.5 -25t-41 -64.5t-34.5 -84.5t-23.5 -87.5t-8.5 -71.5q0 -19 3.5 -30 t14.5 -11t27 21t34 56.5t36.5 78.5t35 87.5t28.5 84.5z" />
<glyph unicode="&#xe1;" horiz-adv-x="624" d="M595 670q0 -49 -76 -79.5t-207 -35.5l-7 13q44 43 87 92.5t70 84.5q62 0 97.5 -20t35.5 -55zM62 140q0 69 24.5 135t72.5 119t117 84.5t158 31.5q65 0 128.5 -12t109.5 -32l-26 -69l-48 -217q-6 -24 -9.5 -41t-3.5 -24q0 -14 10 -14t30 25t44 56l9 -5q-16 -48 -44.5 -91 t-67.5 -69.5t-88 -26.5q-50 0 -75 30.5t-25 82.5q0 17 3 36.5t7 40.5l10 40h-3q-46 -112 -100 -171t-112 -59q-60 0 -90.5 44t-30.5 106zM445 429l10 31q-18 15 -38 15q-22 0 -43.5 -25t-41 -64.5t-34.5 -84.5t-23.5 -87.5t-8.5 -71.5q0 -19 3.5 -30t14.5 -11t27 21t34 56.5 t36.5 78.5t35 87.5t28.5 84.5z" />
<glyph unicode="&#xe2;" horiz-adv-x="624" d="M602 568l-11 -7q-67 33 -142 60q-39 -13 -82.5 -28.5t-87.5 -31.5l-7 8q33 41 66 84.5t56 76.5l13 8h141q18 -44 31.5 -89.5t22.5 -80.5zM62 140q0 69 24.5 135t72.5 119t117 84.5t158 31.5q65 0 128.5 -12t109.5 -32l-26 -69l-48 -217q-6 -24 -9.5 -41t-3.5 -24 q0 -14 10 -14t30 25t44 56l9 -5q-16 -48 -44.5 -91t-67.5 -69.5t-88 -26.5q-50 0 -75 30.5t-25 82.5q0 17 3 36.5t7 40.5l10 40h-3q-46 -112 -100 -171t-112 -59q-60 0 -90.5 44t-30.5 106zM445 429l10 31q-18 15 -38 15q-22 0 -43.5 -25t-41 -64.5t-34.5 -84.5t-23.5 -87.5 t-8.5 -71.5q0 -19 3.5 -30t14.5 -11t27 21t34 56.5t36.5 78.5t35 87.5t28.5 84.5z" />
<glyph unicode="&#xe3;" horiz-adv-x="624" d="M568 681q17 14 35 27t35 26l9 -3q-3 -44 -21.5 -82t-50.5 -61t-77 -23q-52 0 -96.5 18.5t-77.5 34.5q-17 -13 -35 -26t-35 -27l-9 3q5 71 44.5 118.5t104.5 47.5q50 0 92.5 -19.5t81.5 -33.5zM62 140q0 69 24.5 135t72.5 119t117 84.5t158 31.5q65 0 128.5 -12t109.5 -32 l-26 -69l-48 -217q-6 -24 -9.5 -41t-3.5 -24q0 -14 10 -14t30 25t44 56l9 -5q-16 -48 -44.5 -91t-67.5 -69.5t-88 -26.5q-50 0 -75 30.5t-25 82.5q0 17 3 36.5t7 40.5l10 40h-3q-46 -112 -100 -171t-112 -59q-60 0 -90.5 44t-30.5 106zM445 429l10 31q-18 15 -38 15 q-22 0 -43.5 -25t-41 -64.5t-34.5 -84.5t-23.5 -87.5t-8.5 -71.5q0 -19 3.5 -30t14.5 -11t27 21t34 56.5t36.5 78.5t35 87.5t28.5 84.5z" />
<glyph unicode="&#xe4;" horiz-adv-x="624" d="M421 665q0 -29 -16.5 -52t-43.5 -36t-58 -13q-39 0 -62 19.5t-23 52.5q0 28 17.5 50.5t44.5 36t57 13.5q39 0 61.5 -19t22.5 -52zM677 665q0 -29 -16.5 -52t-43.5 -36t-58 -13q-39 0 -62 19.5t-23 52.5q0 28 17 50.5t44.5 36t57.5 13.5q39 0 61.5 -19t22.5 -52zM62 140 q0 69 24.5 135t72.5 119t117 84.5t158 31.5q65 0 128.5 -12t109.5 -32l-26 -69l-48 -217q-6 -24 -9.5 -41t-3.5 -24q0 -14 10 -14t30 25t44 56l9 -5q-16 -48 -44.5 -91t-67.5 -69.5t-88 -26.5q-50 0 -75 30.5t-25 82.5q0 17 3 36.5t7 40.5l10 40h-3q-46 -112 -100 -171 t-112 -59q-60 0 -90.5 44t-30.5 106zM445 429l10 31q-18 15 -38 15q-22 0 -43.5 -25t-41 -64.5t-34.5 -84.5t-23.5 -87.5t-8.5 -71.5q0 -19 3.5 -30t14.5 -11t27 21t34 56.5t36.5 78.5t35 87.5t28.5 84.5z" />
<glyph unicode="&#xe5;" horiz-adv-x="624" d="M558 666q0 -31 -18 -56.5t-48.5 -40.5t-67.5 -15q-42 0 -66.5 21t-24.5 58q0 32 18 57.5t48.5 40t67.5 14.5q42 0 66.5 -21t24.5 -58zM406 636q0 -16 8 -25.5t21 -9.5q21 0 35.5 18t14.5 45q0 34 -29 34q-21 0 -35.5 -18t-14.5 -44zM62 140q0 69 24.5 135t72.5 119 t117 84.5t158 31.5q65 0 128.5 -12t109.5 -32l-26 -69l-48 -217q-6 -24 -9.5 -41t-3.5 -24q0 -14 10 -14t30 25t44 56l9 -5q-16 -48 -44.5 -91t-67.5 -69.5t-88 -26.5q-50 0 -75 30.5t-25 82.5q0 17 3 36.5t7 40.5l10 40h-3q-46 -112 -100 -171t-112 -59q-60 0 -90.5 44 t-30.5 106zM445 429l10 31q-18 15 -38 15q-22 0 -43.5 -25t-41 -64.5t-34.5 -84.5t-23.5 -87.5t-8.5 -71.5q0 -19 3.5 -30t14.5 -11t27 21t34 56.5t36.5 78.5t35 87.5t28.5 84.5z" />
<glyph unicode="&#xe6;" horiz-adv-x="811" d="M859 171q-20 -56 -60 -96.5t-91.5 -62.5t-106.5 -22q-94 0 -151.5 54t-57.5 144q0 14 1 29q-46 -111 -99 -169t-111 -58q-60 0 -90.5 44t-30.5 106q0 69 24.5 135t72.5 119t117 84.5t158 31.5q42 0 85 -5.5t81 -14.5q54 20 113 20q48 0 88 -14.5t64 -43.5t24 -73 q0 -69 -67 -116.5t-208 -52.5q6 -49 31.5 -72t64.5 -23q38 0 73.5 17t67.5 45zM284 101q11 0 27 21t34 56.5t36.5 78.5t35 87.5t28.5 84.5l10 31q-18 15 -38 15q-22 0 -43.5 -25t-41 -64.5t-34.5 -84.5t-23.5 -87.5t-8.5 -71.5q0 -19 3.5 -30t14.5 -11zM646 397l-5 -4 q-13 -33 -21 -73t-8 -78q31 10 56.5 40.5t40.5 73t15 86.5q0 12 -5.5 20t-16.5 8t-21.5 -10t-20.5 -27z" />
<glyph unicode="&#xe7;" horiz-adv-x="519" d="M215 -106l-2 6l33 92q-46 5 -86 28t-64.5 65t-24.5 104q0 67 26 125t71 102t103.5 69t124.5 25q80 0 126.5 -37t46.5 -93q0 -43 -34 -71.5t-84 -28.5q-22 0 -41.5 4t-35.5 9q11 37 20.5 76.5t9.5 64.5q0 19 -4.5 27.5t-17.5 8.5q-16 0 -32 -21.5t-29 -55t-21 -71 t-8 -70.5q0 -71 27 -104t73 -33q41 0 76 19.5t63 42.5l8 -6q-18 -46 -53.5 -85.5t-85 -65t-107.5 -29.5l-9 -24q61 -4 94 -23.5t33 -54.5q0 -31 -21.5 -52t-57.5 -34t-80 -19t-89 -6l-1 15q20 8 42 19t37.5 25t15.5 30q0 24 -42 27z" />
<glyph unicode="&#xe8;" horiz-adv-x="520" d="M539 562l-10 -11q-115 14 -177 45.5t-62 74.5q0 41 34 58.5t83 17.5q13 0 23 -0.5t17 -1.5q14 -35 39.5 -86t52.5 -97zM538 171q-20 -56 -60 -96.5t-91.5 -62.5t-106.5 -22q-94 0 -151.5 54t-57.5 144q0 66 24.5 124.5t68.5 103t102.5 69.5t125.5 25q48 0 88 -14.5 t64 -43.5t24 -73q0 -69 -67 -116.5t-208 -52.5q6 -49 31.5 -72t64.5 -23q38 0 73.5 17t67.5 45zM381 470q-16 0 -32 -20.5t-29 -54.5t-21 -74t-8 -79q31 10 56.5 40.5t40.5 73t15 86.5q0 12 -5.5 20t-16.5 8z" />
<glyph unicode="&#xe9;" horiz-adv-x="520" d="M564 670q0 -49 -76 -79.5t-207 -35.5l-7 13q44 43 87 92.5t70 84.5q62 0 97.5 -20t35.5 -55zM538 171q-20 -56 -60 -96.5t-91.5 -62.5t-106.5 -22q-94 0 -151.5 54t-57.5 144q0 66 24.5 124.5t68.5 103t102.5 69.5t125.5 25q48 0 88 -14.5t64 -43.5t24 -73 q0 -69 -67 -116.5t-208 -52.5q6 -49 31.5 -72t64.5 -23q38 0 73.5 17t67.5 45zM381 470q-16 0 -32 -20.5t-29 -54.5t-21 -74t-8 -79q31 10 56.5 40.5t40.5 73t15 86.5q0 12 -5.5 20t-16.5 8z" />
<glyph unicode="&#xea;" horiz-adv-x="520" d="M571 568l-11 -7q-67 33 -142 60q-39 -13 -82.5 -28.5t-87.5 -31.5l-7 8q33 41 66 84.5t56 76.5l13 8h141q18 -44 31.5 -89.5t22.5 -80.5zM538 171q-20 -56 -60 -96.5t-91.5 -62.5t-106.5 -22q-94 0 -151.5 54t-57.5 144q0 66 24.5 124.5t68.5 103t102.5 69.5t125.5 25 q48 0 88 -14.5t64 -43.5t24 -73q0 -69 -67 -116.5t-208 -52.5q6 -49 31.5 -72t64.5 -23q38 0 73.5 17t67.5 45zM381 470q-16 0 -32 -20.5t-29 -54.5t-21 -74t-8 -79q31 10 56.5 40.5t40.5 73t15 86.5q0 12 -5.5 20t-16.5 8z" />
<glyph unicode="&#xeb;" horiz-adv-x="519" d="M390 665q0 -29 -16.5 -52t-43.5 -36t-58 -13q-39 0 -62 19.5t-23 52.5q0 28 17.5 50.5t44.5 36t57 13.5q39 0 61.5 -19t22.5 -52zM646 665q0 -29 -16.5 -52t-43.5 -36t-58 -13q-39 0 -62 19.5t-23 52.5q0 28 17.5 50.5t44.5 36t57 13.5q39 0 61.5 -19t22.5 -52zM538 171 q-20 -56 -60 -96.5t-91.5 -62.5t-106.5 -22q-94 0 -151.5 54t-57.5 144q0 66 24.5 124.5t68.5 103t102.5 69.5t125.5 25q48 0 88 -14.5t64 -43.5t24 -73q0 -69 -67 -116.5t-208 -52.5q6 -49 31.5 -72t64.5 -23q38 0 73.5 17t67.5 45zM381 470q-16 0 -32 -20.5t-29 -54.5 t-21 -74t-8 -79q31 10 56.5 40.5t40.5 73t15 86.5q0 12 -5.5 20t-16.5 8z" />
<glyph unicode="&#xec;" horiz-adv-x="334" d="M422 562l-10 -11q-115 14 -177 45.5t-62 74.5q0 41 34 58.5t83 17.5q13 0 23 -0.5t17 -1.5q14 -35 39.5 -86t52.5 -97zM98 180q8 37 18 74t17 66q6 24 9.5 41t3.5 24q0 14 -10 14t-30 -24.5t-44 -56.5l-9 5q17 48 45 91t67 69.5t88 26.5q50 0 75 -30t25 -83 q0 -17 -2.5 -36.5t-7.5 -40.5q-7 -35 -17 -72t-18 -68q-6 -24 -9.5 -41t-3.5 -24q0 -14 10 -14t30 25t44 56l9 -5q-16 -48 -44.5 -91t-67.5 -69.5t-88 -26.5q-50 0 -75 30.5t-25 82.5q0 17 3 36.5t7 40.5z" />
<glyph unicode="&#xed;" horiz-adv-x="334" d="M447 670q0 -49 -76 -79.5t-207 -35.5l-7 13q44 43 87 92.5t70 84.5q62 0 97.5 -20t35.5 -55zM98 180q8 37 18 74t17 66q6 24 9.5 41t3.5 24q0 14 -10 14t-30 -24.5t-44 -56.5l-9 5q17 48 45 91t67 69.5t88 26.5q50 0 75 -30t25 -83q0 -17 -2.5 -36.5t-7.5 -40.5 q-7 -35 -17 -72t-18 -68q-6 -24 -9.5 -41t-3.5 -24q0 -14 10 -14t30 25t44 56l9 -5q-16 -48 -44.5 -91t-67.5 -69.5t-88 -26.5q-50 0 -75 30.5t-25 82.5q0 17 3 36.5t7 40.5z" />
<glyph unicode="&#xee;" horiz-adv-x="334" d="M427 568l-11 -7q-58 32 -123 58q-34 -13 -72 -28t-77 -30l-7 8q28 41 55.5 84.5t46.5 76.5l13 8h141q11 -44 19.5 -89.5t14.5 -80.5zM98 180q8 37 18 74t17 66q6 24 9.5 41t3.5 24q0 14 -10 14t-30 -24.5t-44 -56.5l-9 5q17 48 45 91t67 69.5t88 26.5q50 0 75 -30t25 -83 q0 -17 -2.5 -36.5t-7.5 -40.5q-7 -35 -17 -72t-18 -68q-6 -24 -9.5 -41t-3.5 -24q0 -14 10 -14t30 25t44 56l9 -5q-16 -48 -44.5 -91t-67.5 -69.5t-88 -26.5q-50 0 -75 30.5t-25 82.5q0 17 3 36.5t7 40.5z" />
<glyph unicode="&#xef;" horiz-adv-x="334" d="M273 664q0 -26 -13 -48.5t-34 -36.5t-47 -14q-30 0 -47.5 19.5t-17.5 52.5q0 39 28 68.5t67 29.5q29 0 46.5 -19t17.5 -52zM484 664q0 -26 -13 -48.5t-34 -36.5t-47 -14q-30 0 -47.5 19.5t-17.5 52.5q0 39 28 68.5t67 29.5q29 0 46.5 -19t17.5 -52zM98 180q8 37 18 74 t17 66q6 24 9.5 41t3.5 24q0 14 -10 14t-30 -24.5t-44 -56.5l-9 5q17 48 45 91t67 69.5t88 26.5q50 0 75 -30t25 -83q0 -17 -2.5 -36.5t-7.5 -40.5q-7 -35 -17 -72t-18 -68q-6 -24 -9.5 -41t-3.5 -24q0 -14 10 -14t30 25t44 56l9 -5q-16 -48 -44.5 -91t-67.5 -69.5 t-88 -26.5q-50 0 -75 30.5t-25 82.5q0 17 3 36.5t7 40.5z" />
<glyph unicode="&#xf0;" horiz-adv-x="604" d="M645 670l-113 -36q111 -106 111 -292q0 -104 -43.5 -183.5t-118 -124.5t-168.5 -45q-112 0 -175.5 53t-63.5 157q0 66 24.5 123t67.5 99t99 65.5t119 23.5q19 0 37 -3q-7 46 -23 84l-187 -61l-12 36l182 58q-21 35 -52.5 65t-76.5 59l7 12q149 -30 239 -98l136 44z M292 131q0 -46 6.5 -73.5t22.5 -27.5q17 0 32 26.5t27.5 69t21.5 91t14 93t5 73.5q0 87 -29 87q-17 0 -32 -24t-27.5 -62.5t-21.5 -84.5t-14 -90t-5 -78z" />
<glyph unicode="&#xf1;" horiz-adv-x="634" d="M567 681q17 14 35 27t35 26l9 -3q-3 -44 -21.5 -82t-50.5 -61t-77 -23q-52 0 -96.5 18.5t-77.5 34.5q-17 -13 -35 -26t-35 -27l-9 3q5 71 44.5 118.5t104.5 47.5q50 0 92.5 -19.5t81.5 -33.5zM276 0q-6 0 -25.5 -1t-46 -2t-52.5 -2t-45 -1.5t-23 -0.5q-21 0 -16 17 l36 170l22 101l7 33q13 64 13 72q0 13 -8 13q-10 0 -30.5 -24.5t-44.5 -56.5l-10 5q15 48 41 91t64 69.5t87 26.5q44 0 70.5 -24t26.5 -71q0 -31 -7.5 -67t-16.5 -67h3q47 113 106.5 171t124.5 58q47 0 75 -27.5t28 -73.5q0 -27 -8 -67.5t-18.5 -83.5t-20.5 -78 q-6 -24 -9.5 -41t-3.5 -24q0 -14 10 -14t30 25t44 56l9 -5q-16 -48 -44.5 -91t-67.5 -69.5t-88 -26.5q-50 0 -75 30.5t-25 82.5q0 17 3 36.5t7 40.5q8 38 18 74.5t17.5 67t7.5 48.5q0 7 -2.5 12t-10.5 5q-14 0 -35.5 -29t-42.5 -76t-36 -102z" />
<glyph unicode="&#xf2;" horiz-adv-x="607" d="M564 562l-10 -11q-115 14 -177 45.5t-62 74.5q0 41 34 58.5t83 17.5q13 0 23 -0.5t17 -1.5q14 -35 39.5 -86t52.5 -97zM640 302q0 -69 -26 -126.5t-71.5 -99t-105 -64.5t-125.5 -23q-112 0 -175.5 55t-63.5 155q0 66 26 123t72 99t105.5 65.5t126.5 23.5q76 0 129 -28 t80.5 -75t27.5 -105zM291 131q0 -46 6.5 -73.5t22.5 -27.5q17 0 32 26.5t27.5 69t21.5 91t14 93t5 73.5q0 87 -29 87q-17 0 -32 -24t-27.5 -62.5t-21.5 -84.5t-14 -90t-5 -78z" />
<glyph unicode="&#xf3;" horiz-adv-x="607" d="M589 670q0 -49 -76 -79.5t-207 -35.5l-7 13q44 43 87 92.5t70 84.5q62 0 97.5 -20t35.5 -55zM640 302q0 -69 -26 -126.5t-71.5 -99t-105 -64.5t-125.5 -23q-112 0 -175.5 55t-63.5 155q0 66 26 123t72 99t105.5 65.5t126.5 23.5q76 0 129 -28t80.5 -75t27.5 -105z M291 131q0 -46 6.5 -73.5t22.5 -27.5q17 0 32 26.5t27.5 69t21.5 91t14 93t5 73.5q0 87 -29 87q-17 0 -32 -24t-27.5 -62.5t-21.5 -84.5t-14 -90t-5 -78z" />
<glyph unicode="&#xf4;" horiz-adv-x="607" d="M596 568l-11 -7q-67 33 -142 60q-39 -13 -82.5 -28.5t-87.5 -31.5l-7 8q33 41 66 84.5t56 76.5l13 8h141q18 -44 31.5 -89.5t22.5 -80.5zM640 302q0 -69 -26 -126.5t-71.5 -99t-105 -64.5t-125.5 -23q-112 0 -175.5 55t-63.5 155q0 66 26 123t72 99t105.5 65.5 t126.5 23.5q76 0 129 -28t80.5 -75t27.5 -105zM291 131q0 -46 6.5 -73.5t22.5 -27.5q17 0 32 26.5t27.5 69t21.5 91t14 93t5 73.5q0 87 -29 87q-17 0 -32 -24t-27.5 -62.5t-21.5 -84.5t-14 -90t-5 -78z" />
<glyph unicode="&#xf5;" horiz-adv-x="607" d="M562 681q17 14 35 27t35 26l9 -3q-3 -44 -21.5 -82t-50.5 -61t-77 -23q-52 0 -96.5 18.5t-77.5 34.5q-17 -13 -35 -26t-35 -27l-9 3q5 71 44.5 118.5t104.5 47.5q50 0 92.5 -19.5t81.5 -33.5zM640 302q0 -69 -26 -126.5t-71.5 -99t-105 -64.5t-125.5 -23 q-112 0 -175.5 55t-63.5 155q0 66 26 123t72 99t105.5 65.5t126.5 23.5q76 0 129 -28t80.5 -75t27.5 -105zM291 131q0 -46 6.5 -73.5t22.5 -27.5q17 0 32 26.5t27.5 69t21.5 91t14 93t5 73.5q0 87 -29 87q-17 0 -32 -24t-27.5 -62.5t-21.5 -84.5t-14 -90t-5 -78z" />
<glyph unicode="&#xf6;" horiz-adv-x="607" d="M415 665q0 -29 -16.5 -52t-43.5 -36t-58 -13q-39 0 -62 19.5t-23 52.5q0 28 17.5 50.5t44.5 36t57 13.5q39 0 61.5 -19t22.5 -52zM671 665q0 -29 -16.5 -52t-43.5 -36t-58 -13q-39 0 -62 19.5t-23 52.5q0 28 17 50.5t44.5 36t57.5 13.5q39 0 61.5 -19t22.5 -52zM640 302 q0 -69 -26 -126.5t-71.5 -99t-105 -64.5t-125.5 -23q-112 0 -175.5 55t-63.5 155q0 66 26 123t72 99t105.5 65.5t126.5 23.5q76 0 129 -28t80.5 -75t27.5 -105zM291 131q0 -46 6.5 -73.5t22.5 -27.5q17 0 32 26.5t27.5 69t21.5 91t14 93t5 73.5q0 87 -29 87q-17 0 -32 -24 t-27.5 -62.5t-21.5 -84.5t-14 -90t-5 -78z" />
<glyph unicode="&#xf7;" horiz-adv-x="539" d="M368 438q-36 0 -57.5 20t-21.5 52q0 29 15 52t39.5 36.5t52.5 13.5q33 0 54 -18.5t21 -50.5q0 -28 -14 -52t-37.5 -38.5t-51.5 -14.5zM534 256h-430l28 132q37 2 94 3t121 1.5t122 1t96 0.5l6 -8zM284 37q-36 0 -57.5 20t-21.5 52q0 29 15 52t39.5 36.5t52.5 13.5 q33 0 54 -18.5t21 -50.5q0 -28 -14 -52t-37.5 -38.5t-51.5 -14.5z" />
<glyph unicode="&#xf8;" horiz-adv-x="607" d="M640 302q0 -69 -26 -126.5t-71.5 -99t-105 -64.5t-125.5 -23q-104 0 -167 48l-51 -44l-26 32l48 41q-43 52 -43 133q0 66 26 123t72 99t105.5 65.5t126.5 23.5q53 0 94.5 -14t71.5 -38l57 49l26 -32l-54 -47q42 -53 42 -126zM391 470q-16 0 -30.5 -22t-27 -58.5 t-21.5 -80t-14 -86.5l119 103q3 34 3 57q0 87 -29 87zM291 131q0 -46 6.5 -73.5t22.5 -27.5q15 0 28.5 21t25 55.5t20.5 76t15 82.5l-117 -101q-1 -18 -1 -33z" />
<glyph unicode="&#xf9;" d="M569 562l-10 -11q-115 14 -177 45.5t-62 74.5q0 41 34 58.5t83 17.5q13 0 23 -0.5t17 -1.5q14 -35 39.5 -86t52.5 -97zM423 219h-3q-47 -113 -106.5 -171t-124.5 -58q-46 0 -74.5 27.5t-28.5 73.5q0 27 8 67.5t19 83.5t20 78q6 24 9.5 41t3.5 24q0 14 -10 14t-30 -24.5 t-44 -56.5l-9 5q17 48 45 91t67 69.5t88 26.5q50 0 75 -30t25 -83q0 -17 -2.5 -36.5t-7.5 -40.5q-7 -37 -17.5 -74t-18 -67.5t-7.5 -48.5q0 -7 3 -12t10 -5q15 0 36 29t42.5 76t35.5 102l38 180q6 0 25.5 1t46 2t52.5 2t45 1.5t23 0.5q21 0 16 -17l-36 -170l-22 -101l-7 -33 q-13 -64 -13 -72q0 -13 8 -13q11 0 31 25t44 56l10 -5q-14 -48 -40.5 -91t-64.5 -69.5t-87 -26.5q-43 0 -70 24.5t-27 70.5q0 32 7.5 67.5t16.5 66.5z" />
<glyph unicode="&#xfa;" d="M594 670q0 -49 -76 -79.5t-207 -35.5l-7 13q44 43 87 92.5t70 84.5q62 0 97.5 -20t35.5 -55zM423 219h-3q-47 -113 -106.5 -171t-124.5 -58q-46 0 -74.5 27.5t-28.5 73.5q0 27 8 67.5t19 83.5t20 78q6 24 9.5 41t3.5 24q0 14 -10 14t-30 -24.5t-44 -56.5l-9 5 q17 48 45 91t67 69.5t88 26.5q50 0 75 -30t25 -83q0 -17 -2.5 -36.5t-7.5 -40.5q-7 -37 -17.5 -74t-18 -67.5t-7.5 -48.5q0 -7 3 -12t10 -5q15 0 36 29t42.5 76t35.5 102l38 180q6 0 25.5 1t46 2t52.5 2t45 1.5t23 0.5q21 0 16 -17l-36 -170l-22 -101l-7 -33 q-13 -64 -13 -72q0 -13 8 -13q11 0 31 25t44 56l10 -5q-14 -48 -40.5 -91t-64.5 -69.5t-87 -26.5q-43 0 -70 24.5t-27 70.5q0 32 7.5 67.5t16.5 66.5z" />
<glyph unicode="&#xfb;" d="M601 568l-11 -7q-67 33 -142 60q-39 -13 -82.5 -28.5t-87.5 -31.5l-7 8q33 41 66 84.5t56 76.5l13 8h141q18 -44 31.5 -89.5t22.5 -80.5zM423 219h-3q-47 -113 -106.5 -171t-124.5 -58q-46 0 -74.5 27.5t-28.5 73.5q0 27 8 67.5t19 83.5t20 78q6 24 9.5 41t3.5 24 q0 14 -10 14t-30 -24.5t-44 -56.5l-9 5q17 48 45 91t67 69.5t88 26.5q50 0 75 -30t25 -83q0 -17 -2.5 -36.5t-7.5 -40.5q-7 -37 -17.5 -74t-18 -67.5t-7.5 -48.5q0 -7 3 -12t10 -5q15 0 36 29t42.5 76t35.5 102l38 180q6 0 25.5 1t46 2t52.5 2t45 1.5t23 0.5q21 0 16 -17 l-36 -170l-22 -101l-7 -33q-13 -64 -13 -72q0 -13 8 -13q11 0 31 25t44 56l10 -5q-14 -48 -40.5 -91t-64.5 -69.5t-87 -26.5q-43 0 -70 24.5t-27 70.5q0 32 7.5 67.5t16.5 66.5z" />
<glyph unicode="&#xfc;" d="M420 665q0 -29 -16.5 -52t-43.5 -36t-58 -13q-39 0 -62 19.5t-23 52.5q0 28 17.5 50.5t44.5 36t57 13.5q39 0 61.5 -19t22.5 -52zM676 665q0 -29 -16.5 -52t-43.5 -36t-58 -13q-39 0 -62 19.5t-23 52.5q0 28 17 50.5t44.5 36t57.5 13.5q39 0 61.5 -19t22.5 -52zM423 219 h-3q-47 -113 -106.5 -171t-124.5 -58q-46 0 -74.5 27.5t-28.5 73.5q0 27 8 67.5t19 83.5t20 78q6 24 9.5 41t3.5 24q0 14 -10 14t-30 -24.5t-44 -56.5l-9 5q17 48 45 91t67 69.5t88 26.5q50 0 75 -30t25 -83q0 -17 -2.5 -36.5t-7.5 -40.5q-7 -37 -17.5 -74t-18 -67.5 t-7.5 -48.5q0 -7 3 -12t10 -5q15 0 36 29t42.5 76t35.5 102l38 180q6 0 25.5 1t46 2t52.5 2t45 1.5t23 0.5q21 0 16 -17l-36 -170l-22 -101l-7 -33q-13 -64 -13 -72q0 -13 8 -13q11 0 31 25t44 56l10 -5q-14 -48 -40.5 -91t-64.5 -69.5t-87 -26.5q-43 0 -70 24.5t-27 70.5 q0 32 7.5 67.5t16.5 66.5z" />
<glyph unicode="&#xfd;" horiz-adv-x="604" d="M554 670q0 -49 -76 -79.5t-207 -35.5l-7 13q44 43 87 92.5t70 84.5q62 0 97.5 -20t35.5 -55zM373 341q0 -44 -9 -98.5t-26.5 -111.5t-43.5 -111q59 59 91.5 124.5t45.5 130.5t13 121q0 30 -3 54t-8 41q14 7 40 13t54 6q61 0 94 -35t33 -97q0 -76 -44 -151t-128 -138 t-206 -102q-29 -51 -66.5 -92t-83.5 -65t-100 -24q-51 0 -82 23t-31 56q0 28 25 47.5t62 22.5q3 -14 7.5 -34.5t12.5 -36t22 -15.5q16 0 32 32.5t30 85t25 114.5t17 122.5t6 107.5q0 28 -2.5 48t-14.5 20q-15 0 -36.5 -26t-41.5 -55l-10 5q15 46 43 88.5t69.5 70.5t95.5 28 q57 0 87.5 -38.5t30.5 -130.5z" />
<glyph unicode="&#xfe;" horiz-adv-x="588" d="M211 -188q-6 0 -25.5 -1t-46 -2t-52.5 -2t-45 -1.5t-23 -0.5q-21 0 -16 17l36 170l119 562l11 54l-70 35v12q41 10 93 18t104 13.5t92 7.5l8 -10l-28 -130l-12 -56q-8 -39 -17.5 -82t-21.5 -86q85 180 195 180q41 0 67 -21.5t39 -56t13 -74.5q0 -68 -23 -133.5 t-69 -118.5t-114.5 -84.5t-158.5 -31.5h-17zM411 399q-13 0 -35 -27.5t-45.5 -75.5t-39.5 -109l-35 -161q7 -1 16 -1q26 0 49.5 23.5t43 62t33.5 83t21.5 87.5t7.5 75q0 20 -3 31.5t-13 11.5z" />
<glyph unicode="&#xff;" horiz-adv-x="604" d="M380 665q0 -29 -16.5 -52t-43.5 -36t-58 -13q-39 0 -62 19.5t-23 52.5q0 28 17.5 50.5t44.5 36t57 13.5q39 0 61.5 -19t22.5 -52zM636 665q0 -29 -16.5 -52t-43.5 -36t-58 -13q-39 0 -62 19.5t-23 52.5q0 28 17.5 50.5t44.5 36t57 13.5q39 0 61.5 -19t22.5 -52zM373 341 q0 -44 -9 -98.5t-26.5 -111.5t-43.5 -111q59 59 91.5 124.5t45.5 130.5t13 121q0 30 -3 54t-8 41q14 7 40 13t54 6q61 0 94 -35t33 -97q0 -76 -44 -151t-128 -138t-206 -102q-29 -51 -66.5 -92t-83.5 -65t-100 -24q-51 0 -82 23t-31 56q0 28 25 47.5t62 22.5 q3 -14 7.5 -34.5t12.5 -36t22 -15.5q16 0 32 32.5t30 85t25 114.5t17 122.5t6 107.5q0 28 -2.5 48t-14.5 20q-15 0 -36.5 -26t-41.5 -55l-10 5q15 46 43 88.5t69.5 70.5t95.5 28q57 0 87.5 -38.5t30.5 -130.5z" />
<glyph unicode="&#x100;" horiz-adv-x="698" d="M331 747l23 106h342l-23 -106h-342zM424 650h115l101 -572q5 -34 35 -49l26 -13l-5 -16h-353l1 16l68 25l-17 123l-207 -2l-71 -123l63 -23l-5 -16h-173l1 16l34 11q23 8 34.5 21t24.5 36zM212 203l178 -2l-34 250z" />
<glyph unicode="&#x101;" horiz-adv-x="624" d="M265 597l23 106h342l-23 -106h-342zM62 140q0 69 24.5 135t72.5 119t117 84.5t158 31.5q65 0 128.5 -12t109.5 -32l-26 -69l-48 -217q-6 -24 -9.5 -41t-3.5 -24q0 -14 10 -14t30 25t44 56l9 -5q-16 -48 -44.5 -91t-67.5 -69.5t-88 -26.5q-50 0 -75 30.5t-25 82.5 q0 17 3 36.5t7 40.5l10 40h-3q-46 -112 -100 -171t-112 -59q-60 0 -90.5 44t-30.5 106zM445 429l10 31q-18 15 -38 15q-22 0 -43.5 -25t-41 -64.5t-34.5 -84.5t-23.5 -87.5t-8.5 -71.5q0 -19 3.5 -30t14.5 -11t27 21t34 56.5t36.5 78.5t35 87.5t28.5 84.5z" />
<glyph unicode="&#x102;" horiz-adv-x="698" d="M670 895h3l12 -5q-58 -185 -191 -185q-62 0 -89 47.5t-16 138.5l15 4q15 -28 41.5 -43.5t77.5 -15.5q49 0 83 15.5t64 43.5zM424 650h115l101 -572q5 -34 35 -49l26 -13l-5 -16h-353l1 16l68 25l-17 123l-207 -2l-71 -123l63 -23l-5 -16h-173l1 16l34 11q23 8 34.5 21 t24.5 36zM212 203l178 -2l-34 250z" />
<glyph unicode="&#x103;" horiz-adv-x="624" d="M599 746h3l12 -5q-58 -185 -191 -185q-62 0 -89 47.5t-16 138.5l15 4q15 -28 41.5 -43.5t77.5 -15.5q49 0 83 15.5t64 43.5zM62 140q0 69 24.5 135t72.5 119t117 84.5t158 31.5q65 0 128.5 -12t109.5 -32l-26 -69l-48 -217q-6 -24 -9.5 -41t-3.5 -24q0 -14 10 -14t30 25 t44 56l9 -5q-16 -48 -44.5 -91t-67.5 -69.5t-88 -26.5q-50 0 -75 30.5t-25 82.5q0 17 3 36.5t7 40.5l10 40h-3q-46 -112 -100 -171t-112 -59q-60 0 -90.5 44t-30.5 106zM445 429l10 31q-18 15 -38 15q-22 0 -43.5 -25t-41 -64.5t-34.5 -84.5t-23.5 -87.5t-8.5 -71.5 q0 -19 3.5 -30t14.5 -11t27 21t34 56.5t36.5 78.5t35 87.5t28.5 84.5z" />
<glyph unicode="&#x104;" horiz-adv-x="698" d="M727 -63q-31 -70 -76 -112t-92 -42q-32 0 -50.5 15.5t-18.5 42.5q0 46 42.5 89.5t107.5 69.5h-297l1 16l68 25l-17 123l-207 -2l-71 -123l63 -23l-5 -16h-173l1 16l34 11q23 8 34.5 21t24.5 36l328 566h115l101 -572q5 -34 35 -49l26 -13l-5 -16q-26 -12 -43.5 -36.5 t-17.5 -49.5q0 -19 17 -19q22 0 67 48zM212 203l178 -2l-34 250z" />
<glyph unicode="&#x105;" horiz-adv-x="624" d="M62 140q0 69 24.5 135t72.5 119t117 84.5t158 31.5q65 0 128.5 -12t109.5 -32l-26 -69l-48 -217q-6 -24 -9.5 -41t-3.5 -24q0 -14 10 -14t30 25t44 56l9 -5q-15 -45 -38 -81v0q-13 -22 -31 -48.5t-35.5 -52.5t-29 -47.5t-11.5 -33.5q0 -19 17 -19q22 0 67 48l8 -6 q-31 -70 -76 -112t-92 -42q-32 0 -48.5 17t-16.5 44q0 29 20 56t51.5 51.5t63.5 46.5q-24 -8 -49 -8q-50 0 -75 30.5t-25 82.5q0 17 3 36.5t7 40.5l10 40h-3q-46 -112 -100 -171t-112 -59q-60 0 -90.5 44t-30.5 106zM445 429l10 31q-18 15 -38 15q-22 0 -43.5 -25t-41 -64.5 t-34.5 -84.5t-23.5 -87.5t-8.5 -71.5q0 -19 3.5 -30t14.5 -11t27 21t34 56.5t36.5 78.5t35 87.5t28.5 84.5z" />
<glyph unicode="&#x106;" horiz-adv-x="646" d="M683 821q0 -49 -76 -79.5t-207 -35.5l-7 13q44 43 87 92.5t70 84.5q62 0 97.5 -20t35.5 -55zM530 660q62 0 108.5 -8t77.5 -26q-4 -33 -15 -72t-26.5 -77t-33.5 -68h-10l-78 211h-8q-43 0 -82.5 -28.5t-71 -78.5t-49.5 -116.5t-18 -141.5q1 -101 35 -163t89 -62q4 0 9 1 l165 205h10q8 -27 8 -67q0 -37 -8 -81.5t-19 -71.5q-39 -13 -88.5 -19.5t-115.5 -6.5q-94 0 -166 31.5t-113 92.5t-41 150q0 87 33 159.5t93 125.5t140.5 82t174.5 29z" />
<glyph unicode="&#x107;" horiz-adv-x="519" d="M564 670q0 -49 -76 -79.5t-207 -35.5l-7 13q44 43 87 92.5t70 84.5q62 0 97.5 -20t35.5 -55zM539 171q-19 -49 -57.5 -90t-92 -66t-116.5 -25q-50 0 -96.5 21.5t-76 65.5t-29.5 112q0 67 26 125t71 102t103.5 69t124.5 25q80 0 126.5 -37t46.5 -93q0 -43 -34 -71.5 t-84 -28.5q-22 0 -41.5 4t-35.5 9q11 37 20.5 76.5t9.5 64.5q0 19 -4.5 27.5t-17.5 8.5q-16 0 -32 -21.5t-29 -55t-21 -71t-8 -70.5q0 -71 27 -104t73 -33q41 0 76 19.5t63 42.5z" />
<glyph unicode="&#x108;" horiz-adv-x="646" d="M686 718l-11 -7q-67 33 -142 60q-39 -13 -82.5 -28.5t-87.5 -31.5l-7 8q33 41 66 84.5t56 76.5l13 8h141q18 -44 31.5 -89.5t22.5 -80.5zM530 660q62 0 108.5 -8t77.5 -26q-4 -33 -15 -72t-26.5 -77t-33.5 -68h-10l-78 211h-8q-43 0 -82.5 -28.5t-71 -78.5t-49.5 -116.5 t-18 -141.5q1 -101 35 -163t89 -62q4 0 9 1l165 205h10q8 -27 8 -67q0 -37 -8 -81.5t-19 -71.5q-39 -13 -88.5 -19.5t-115.5 -6.5q-94 0 -166 31.5t-113 92.5t-41 150q0 87 33 159.5t93 125.5t140.5 82t174.5 29z" />
<glyph unicode="&#x109;" horiz-adv-x="519" d="M571 568l-11 -7q-67 33 -142 60q-39 -13 -82.5 -28.5t-87.5 -31.5l-7 8q33 41 66 84.5t56 76.5l13 8h141q18 -44 31.5 -89.5t22.5 -80.5zM539 171q-19 -49 -57.5 -90t-92 -66t-116.5 -25q-50 0 -96.5 21.5t-76 65.5t-29.5 112q0 67 26 125t71 102t103.5 69t124.5 25 q80 0 126.5 -37t46.5 -93q0 -43 -34 -71.5t-84 -28.5q-22 0 -41.5 4t-35.5 9q11 37 20.5 76.5t9.5 64.5q0 19 -4.5 27.5t-17.5 8.5q-16 0 -32 -21.5t-29 -55t-21 -71t-8 -70.5q0 -71 27 -104t73 -33q41 0 76 19.5t63 42.5z" />
<glyph unicode="&#x10a;" horiz-adv-x="646" d="M655 820q0 -34 -19.5 -59.5t-50.5 -39.5t-67 -14q-44 0 -70.5 20.5t-26.5 55.5q0 33 20 58.5t51.5 39.5t65.5 14q45 0 71 -20t26 -55zM530 660q62 0 108.5 -8t77.5 -26q-4 -33 -15 -72t-26.5 -77t-33.5 -68h-10l-78 211h-8q-43 0 -82.5 -28.5t-71 -78.5t-49.5 -116.5 t-18 -141.5q1 -101 35 -163t89 -62q4 0 9 1l165 205h10q8 -27 8 -67q0 -37 -8 -81.5t-19 -71.5q-39 -13 -88.5 -19.5t-115.5 -6.5q-94 0 -166 31.5t-113 92.5t-41 150q0 87 33 159.5t93 125.5t140.5 82t174.5 29z" />
<glyph unicode="&#x10b;" horiz-adv-x="519" d="M533 669q0 -34 -19.5 -59.5t-50.5 -39.5t-67 -14q-44 0 -70.5 20.5t-26.5 55.5q0 33 20 58.5t51.5 39.5t65.5 14q45 0 71 -20t26 -55zM539 171q-19 -49 -57.5 -90t-92 -66t-116.5 -25q-50 0 -96.5 21.5t-76 65.5t-29.5 112q0 67 26 125t71 102t103.5 69t124.5 25 q80 0 126.5 -37t46.5 -93q0 -43 -34 -71.5t-84 -28.5q-22 0 -41.5 4t-35.5 9q11 37 20.5 76.5t9.5 64.5q0 19 -4.5 27.5t-17.5 8.5q-16 0 -32 -21.5t-29 -55t-21 -71t-8 -70.5q0 -71 27 -104t73 -33q41 0 76 19.5t63 42.5z" />
<glyph unicode="&#x10c;" horiz-adv-x="646" d="M600 719l-13 -8h-141q-18 44 -31.5 90t-22.5 80l11 7q67 -33 142 -60q39 13 82.5 28.5t87.5 31.5l7 -8q-33 -41 -66 -84.5t-56 -76.5zM530 660q62 0 108.5 -8t77.5 -26q-4 -33 -15 -72t-26.5 -77t-33.5 -68h-10l-78 211h-8q-43 0 -82.5 -28.5t-71 -78.5t-49.5 -116.5 t-18 -141.5q1 -101 35 -163t89 -62q4 0 9 1l165 205h10q8 -27 8 -67q0 -37 -8 -81.5t-19 -71.5q-39 -13 -88.5 -19.5t-115.5 -6.5q-94 0 -166 31.5t-113 92.5t-41 150q0 87 33 159.5t93 125.5t140.5 82t174.5 29z" />
<glyph unicode="&#x10d;" horiz-adv-x="519" d="M473 570l-13 -8h-141q-18 44 -31.5 90t-22.5 80l11 7q67 -33 142 -60q39 13 82.5 28.5t87.5 31.5l7 -8q-33 -41 -66 -84.5t-56 -76.5zM539 171q-19 -49 -57.5 -90t-92 -66t-116.5 -25q-50 0 -96.5 21.5t-76 65.5t-29.5 112q0 67 26 125t71 102t103.5 69t124.5 25 q80 0 126.5 -37t46.5 -93q0 -43 -34 -71.5t-84 -28.5q-22 0 -41.5 4t-35.5 9q11 37 20.5 76.5t9.5 64.5q0 19 -4.5 27.5t-17.5 8.5q-16 0 -32 -21.5t-29 -55t-21 -71t-8 -70.5q0 -71 27 -104t73 -33q41 0 76 19.5t63 42.5z" />
<glyph unicode="&#x10e;" horiz-adv-x="725" d="M583 719l-13 -8h-141q-18 44 -31.5 90t-22.5 80l11 7q67 -33 142 -60q39 13 82.5 28.5t87.5 31.5l7 -8q-33 -41 -66 -84.5t-56 -76.5zM422 578l-108 -506l-7 -32h30q44 0 80 26t63.5 69.5t46.5 96t28.5 106t9.5 99.5q0 91 -28.5 132t-82.5 41h-25zM336 0h-307l-1 16 l40 13q13 5 19.5 16.5t8.5 26.5l108 506l7 31l-52 25l4 16h307q142 0 225 -59t83 -184q0 -88 -32 -162t-90.5 -129t-139.5 -85.5t-180 -30.5z" />
<glyph unicode="&#x10f;" horiz-adv-x="728" d="M935 614q0 -41 -24.5 -84.5t-67 -80.5t-96.5 -60l-10 12q18 21 37.5 54t31.5 69q-24 6 -38.5 24.5t-14.5 44.5q0 29 15 52t39 36.5t51 13.5q34 0 55.5 -22t21.5 -59zM387 180l10 45q-47 -115 -101 -175t-113 -60q-40 0 -67 21t-40.5 55.5t-13.5 73.5q0 69 24.5 134.5 t72.5 119t117 85t158 31.5q14 0 29 -1l10 45l11 54l-70 35v12q41 10 93 18t104 13.5t92 7.5l8 -10l-28 -130l-86 -374q-6 -24 -9.5 -41t-3.5 -24q0 -14 10 -14t30 25t44 56l9 -5q-16 -48 -44.5 -91t-67.5 -69.5t-88 -26.5q-50 0 -75 30.5t-25 82.5q0 17 3 36.5t7 40.5z M284 101q11 0 27 21t34 56.5t36.5 78.5t35 87.5t28.5 84.5l7 33q-16 13 -35 13q-22 0 -43.5 -25t-41 -64.5t-34.5 -84.5t-23.5 -87.5t-8.5 -71.5q0 -19 3.5 -30t14.5 -11z" />
<glyph unicode="&#x110;" horiz-adv-x="725" d="M462 312h-97l-51 -240l-7 -32h30q44 0 80 26t63.5 69.5t46.5 96t28.5 106t9.5 99.5q0 91 -28.5 132t-82.5 41h-25l-7 -32l-49 -231h97zM336 0h-307l-1 16l40 13q13 5 19.5 16.5t8.5 26.5l51 240h-57l8 35h57l49 231l7 31l-52 25l4 16h307q142 0 225 -59t83 -184 q0 -88 -32 -162t-90.5 -129t-139.5 -85.5t-180 -30.5z" />
<glyph unicode="&#x111;" horiz-adv-x="623" d="M387 180l10 45q-47 -115 -101 -175t-113 -60q-40 0 -67 21t-40.5 55.5t-13.5 73.5q0 69 24.5 134.5t72.5 119t117 85t158 31.5q14 0 29 -1l9 41h-112l8 35h111l5 23l-70 35v12q41 10 93 18t104 13.5t92 7.5l8 -10l-21 -99h60l-8 -35h-60l-85 -370q-6 -24 -9.5 -41 t-3.5 -24q0 -14 10 -14t30 25t44 56l9 -5q-16 -48 -44.5 -91t-67.5 -69.5t-88 -26.5q-50 0 -75 30.5t-25 82.5q0 17 3 36.5t7 40.5zM284 101q11 0 27 21t34 56.5t36.5 78.5t35 87.5t28.5 84.5l7 33q-16 13 -35 13q-22 0 -43.5 -25t-41 -64.5t-34.5 -84.5t-23.5 -87.5 t-8.5 -71.5q0 -19 3.5 -30t14.5 -11z" />
<glyph unicode="&#x112;" horiz-adv-x="594" d="M309 747l23 106h342l-23 -106h-342zM556 0h-526l-1 16l40 13q13 5 19.5 16.5t8.5 26.5l107 506l7 31l-52 25l4 16h522q0 -32 -8.5 -71.5t-22.5 -77t-32 -65.5h-10l-87 174h-96l-7 -32l-50 -235l160 12l-14 -65l-154 13l-49 -231l-7 -32h103l164 181h10q2 -12 3.5 -25 t1.5 -26q0 -43 -10 -88t-24 -82z" />
<glyph unicode="&#x113;" horiz-adv-x="520" d="M234 597l23 106h342l-23 -106h-342zM538 171q-20 -56 -60 -96.5t-91.5 -62.5t-106.5 -22q-94 0 -151.5 54t-57.5 144q0 66 24.5 124.5t68.5 103t102.5 69.5t125.5 25q48 0 88 -14.5t64 -43.5t24 -73q0 -69 -67 -116.5t-208 -52.5q6 -49 31.5 -72t64.5 -23q38 0 73.5 17 t67.5 45zM381 470q-16 0 -32 -20.5t-29 -54.5t-21 -74t-8 -79q31 10 56.5 40.5t40.5 73t15 86.5q0 12 -5.5 20t-16.5 8z" />
<glyph unicode="&#x114;" horiz-adv-x="594" d="M648 895h3l12 -5q-58 -185 -191 -185q-62 0 -89 47.5t-16 138.5l15 4q15 -28 41.5 -43.5t77.5 -15.5q49 0 83 15.5t64 43.5zM556 0h-526l-1 16l40 13q13 5 19.5 16.5t8.5 26.5l107 506l7 31l-52 25l4 16h522q0 -32 -8.5 -71.5t-22.5 -77t-32 -65.5h-10l-87 174h-96 l-7 -32l-50 -235l160 12l-14 -65l-154 13l-49 -231l-7 -32h103l164 181h10q2 -12 3.5 -25t1.5 -26q0 -43 -10 -88t-24 -82z" />
<glyph unicode="&#x115;" horiz-adv-x="520" d="M568 746h3l12 -5q-58 -185 -191 -185q-62 0 -89 47.5t-16 138.5l15 4q15 -28 41.5 -43.5t77.5 -15.5q49 0 83 15.5t64 43.5zM538 171q-20 -56 -60 -96.5t-91.5 -62.5t-106.5 -22q-94 0 -151.5 54t-57.5 144q0 66 24.5 124.5t68.5 103t102.5 69.5t125.5 25q48 0 88 -14.5 t64 -43.5t24 -73q0 -69 -67 -116.5t-208 -52.5q6 -49 31.5 -72t64.5 -23q38 0 73.5 17t67.5 45zM381 470q-16 0 -32 -20.5t-29 -54.5t-21 -74t-8 -79q31 10 56.5 40.5t40.5 73t15 86.5q0 12 -5.5 20t-16.5 8z" />
<glyph unicode="&#x116;" horiz-adv-x="594" d="M609 820q0 -34 -19.5 -59.5t-50.5 -39.5t-67 -14q-44 0 -70.5 20.5t-26.5 55.5q0 33 20 58.5t51.5 39.5t65.5 14q45 0 71 -20t26 -55zM556 0h-526l-1 16l40 13q13 5 19.5 16.5t8.5 26.5l107 506l7 31l-52 25l4 16h522q0 -32 -8.5 -71.5t-22.5 -77t-32 -65.5h-10l-87 174 h-96l-7 -32l-50 -235l160 12l-14 -65l-154 13l-49 -231l-7 -32h103l164 181h10q2 -12 3.5 -25t1.5 -26q0 -43 -10 -88t-24 -82z" />
<glyph unicode="&#x117;" horiz-adv-x="520" d="M533 669q0 -34 -19.5 -59.5t-50.5 -39.5t-67 -14q-44 0 -70.5 20.5t-26.5 55.5q0 33 20 58.5t51.5 39.5t65.5 14q45 0 71 -20t26 -55zM538 171q-20 -56 -60 -96.5t-91.5 -62.5t-106.5 -22q-94 0 -151.5 54t-57.5 144q0 66 24.5 124.5t68.5 103t102.5 69.5t125.5 25 q48 0 88 -14.5t64 -43.5t24 -73q0 -69 -67 -116.5t-208 -52.5q6 -49 31.5 -72t64.5 -23q38 0 73.5 17t67.5 45zM381 470q-16 0 -32 -20.5t-29 -54.5t-21 -74t-8 -79q31 10 56.5 40.5t40.5 73t15 86.5q0 12 -5.5 20t-16.5 8z" />
<glyph unicode="&#x118;" horiz-adv-x="594" d="M587 -63q-31 -70 -76 -112t-92 -42q-32 0 -50.5 15.5t-18.5 42.5q0 46 42.5 89.5t107.5 69.5h-470l-1 16l40 13q13 5 19.5 16.5t8.5 26.5l107 506l7 31l-52 25l4 16h522q0 -32 -8.5 -71.5t-22.5 -77t-32 -65.5h-10l-87 174h-96l-7 -32l-50 -235l160 12l-14 -65l-154 13 l-49 -231l-7 -32h103l164 181h10q2 -12 3.5 -25t1.5 -26q0 -43 -10 -88t-24 -82q-26 -12 -43.5 -36.5t-17.5 -49.5q0 -19 17 -19q22 0 67 48z" />
<glyph unicode="&#x119;" horiz-adv-x="520" d="M407 -63q-31 -70 -77.5 -112t-93.5 -42q-32 0 -49 16.5t-17 43.5q0 31 23.5 58.5t62.5 51t86 44.5q-31 -7 -62 -7q-94 0 -151.5 54t-57.5 144q0 66 24.5 124.5t68.5 103t102.5 69.5t125.5 25q48 0 88 -14.5t64 -43.5t24 -73q0 -69 -67 -116.5t-208 -52.5q6 -49 31.5 -72 t64.5 -23q38 0 73.5 17t67.5 45l8 -6q-11 -31 -29 -58t-41 -48q-40 -43 -75 -68t-56.5 -43.5t-21.5 -39.5q0 -19 17 -19q22 0 67 48zM381 470q-16 0 -32 -20.5t-29 -54.5t-21 -74t-8 -79q31 10 56.5 40.5t40.5 73t15 86.5q0 12 -5.5 20t-16.5 8z" />
<glyph unicode="&#x11a;" horiz-adv-x="594" d="M554 719l-13 -8h-141q-18 44 -31.5 90t-22.5 80l11 7q67 -33 142 -60q39 13 82.5 28.5t87.5 31.5l7 -8q-33 -41 -66 -84.5t-56 -76.5zM556 0h-526l-1 16l40 13q13 5 19.5 16.5t8.5 26.5l107 506l7 31l-52 25l4 16h522q0 -32 -8.5 -71.5t-22.5 -77t-32 -65.5h-10l-87 174 h-96l-7 -32l-50 -235l160 12l-14 -65l-154 13l-49 -231l-7 -32h103l164 181h10q2 -12 3.5 -25t1.5 -26q0 -43 -10 -88t-24 -82z" />
<glyph unicode="&#x11b;" horiz-adv-x="520" d="M473 570l-13 -8h-141q-18 44 -31.5 90t-22.5 80l11 7q67 -33 142 -60q39 13 82.5 28.5t87.5 31.5l7 -8q-33 -41 -66 -84.5t-56 -76.5zM538 171q-20 -56 -60 -96.5t-91.5 -62.5t-106.5 -22q-94 0 -151.5 54t-57.5 144q0 66 24.5 124.5t68.5 103t102.5 69.5t125.5 25 q48 0 88 -14.5t64 -43.5t24 -73q0 -69 -67 -116.5t-208 -52.5q6 -49 31.5 -72t64.5 -23q38 0 73.5 17t67.5 45zM381 470q-16 0 -32 -20.5t-29 -54.5t-21 -74t-8 -79q31 10 56.5 40.5t40.5 73t15 86.5q0 12 -5.5 20t-16.5 8z" />
<glyph unicode="&#x11c;" horiz-adv-x="701" d="M702 718l-11 -7q-67 33 -142 60q-39 -13 -82.5 -28.5t-87.5 -31.5l-7 8q33 41 66 84.5t56 76.5l13 8h141q18 -44 31.5 -89.5t22.5 -80.5zM629 16q-53 -13 -104 -19.5t-116 -6.5q-97 0 -169 31.5t-111.5 93t-39.5 149.5q0 90 34.5 162.5t95.5 125t140.5 80.5t169.5 28 q64 0 119.5 -9t92.5 -25q-4 -34 -18.5 -73.5t-33.5 -77t-38 -66.5h-10l-78 211h-19q-43 0 -82.5 -28.5t-70.5 -79.5t-49 -117.5t-18 -141.5q0 -60 14 -108.5t38.5 -78.5t57.5 -35l51 216l7 31l-48 25l6 16h301l-2 -16l-29 -10q-19 -7 -25.5 -16.5t-11.5 -29.5z" />
<glyph unicode="&#x11d;" horiz-adv-x="542" d="M525 568l-11 -7q-67 33 -142 60q-39 -13 -82.5 -28.5t-87.5 -31.5l-7 8q33 41 66 84.5t56 76.5l13 8h141q18 -44 31.5 -89.5t22.5 -80.5zM545 -51q0 -46 -39.5 -78.5t-108.5 -49t-156 -16.5q-71 0 -134 13.5t-101.5 38.5t-38.5 58q0 32 39 56.5t104 28.5l8 -6 q2 -43 17 -78.5t44.5 -56.5t73.5 -21q26 0 46 11.5t20 32.5q0 15 -18 27.5t-44 24.5t-52.5 25.5t-44.5 31.5t-18 42q0 32 39 60t120 50h-5q-68 0 -119.5 19.5t-80.5 54t-29 80.5q0 59 37 107t101.5 77t148.5 29q89 0 157 0.5t120 12.5q2 -4 3.5 -14t1.5 -21q0 -38 -11.5 -58 t-38.5 -20q-17 0 -45.5 9.5t-56.5 22.5l-1 -3q27 -18 53 -48.5t26 -70.5q0 -43 -23 -73t-56.5 -50.5t-67.5 -35t-57 -26t-23 -22.5q0 -13 21 -23t52.5 -20.5t63 -25.5t52.5 -37.5t21 -57.5zM271 263q0 -32 5.5 -56t24.5 -23q13 0 23.5 22t18 56.5t11.5 73.5t4 72 q0 30 -5.5 51t-22.5 20q-13 0 -24 -20t-19 -52t-12 -70t-4 -74z" />
<glyph unicode="&#x11e;" horiz-adv-x="701" d="M710 895h3l12 -5q-58 -185 -191 -185q-62 0 -89 47.5t-16 138.5l15 4q15 -28 41.5 -43.5t77.5 -15.5q49 0 83 15.5t64 43.5zM629 16q-53 -13 -104 -19.5t-116 -6.5q-97 0 -169 31.5t-111.5 93t-39.5 149.5q0 90 34.5 162.5t95.5 125t140.5 80.5t169.5 28q64 0 119.5 -9 t92.5 -25q-4 -34 -18.5 -73.5t-33.5 -77t-38 -66.5h-10l-78 211h-19q-43 0 -82.5 -28.5t-70.5 -79.5t-49 -117.5t-18 -141.5q0 -60 14 -108.5t38.5 -78.5t57.5 -35l51 216l7 31l-48 25l6 16h301l-2 -16l-29 -10q-19 -7 -25.5 -16.5t-11.5 -29.5z" />
<glyph unicode="&#x11f;" horiz-adv-x="542" d="M535 746h3l12 -5q-58 -185 -191 -185q-62 0 -89 47.5t-16 138.5l15 4q15 -28 41.5 -43.5t77.5 -15.5q49 0 83 15.5t64 43.5zM545 -51q0 -46 -39.5 -78.5t-108.5 -49t-156 -16.5q-71 0 -134 13.5t-101.5 38.5t-38.5 58q0 32 39 56.5t104 28.5l8 -6q2 -43 17 -78.5 t44.5 -56.5t73.5 -21q26 0 46 11.5t20 32.5q0 15 -18 27.5t-44 24.5t-52.5 25.5t-44.5 31.5t-18 42q0 32 39 60t120 50h-5q-68 0 -119.5 19.5t-80.5 54t-29 80.5q0 59 37 107t101.5 77t148.5 29q89 0 157 0.5t120 12.5q2 -4 3.5 -14t1.5 -21q0 -38 -11.5 -58t-38.5 -20 q-17 0 -45.5 9.5t-56.5 22.5l-1 -3q27 -18 53 -48.5t26 -70.5q0 -43 -23 -73t-56.5 -50.5t-67.5 -35t-57 -26t-23 -22.5q0 -13 21 -23t52.5 -20.5t63 -25.5t52.5 -37.5t21 -57.5zM271 263q0 -32 5.5 -56t24.5 -23q13 0 23.5 22t18 56.5t11.5 73.5t4 72q0 30 -5.5 51 t-22.5 20q-13 0 -24 -20t-19 -52t-12 -70t-4 -74z" />
<glyph unicode="&#x120;" horiz-adv-x="701" d="M671 820q0 -34 -19.5 -59.5t-50.5 -39.5t-67 -14q-44 0 -70.5 20.5t-26.5 55.5q0 33 20 58.5t51.5 39.5t65.5 14q45 0 71 -20t26 -55zM629 16q-53 -13 -104 -19.5t-116 -6.5q-97 0 -169 31.5t-111.5 93t-39.5 149.5q0 90 34.5 162.5t95.5 125t140.5 80.5t169.5 28 q64 0 119.5 -9t92.5 -25q-4 -34 -18.5 -73.5t-33.5 -77t-38 -66.5h-10l-78 211h-19q-43 0 -82.5 -28.5t-70.5 -79.5t-49 -117.5t-18 -141.5q0 -60 14 -108.5t38.5 -78.5t57.5 -35l51 216l7 31l-48 25l6 16h301l-2 -16l-29 -10q-19 -7 -25.5 -16.5t-11.5 -29.5z" />
<glyph unicode="&#x121;" horiz-adv-x="542" d="M500 669q0 -34 -19.5 -59.5t-50.5 -39.5t-67 -14q-44 0 -70.5 20.5t-26.5 55.5q0 33 20 58.5t51.5 39.5t65.5 14q45 0 71 -20t26 -55zM545 -51q0 -46 -39.5 -78.5t-108.5 -49t-156 -16.5q-71 0 -134 13.5t-101.5 38.5t-38.5 58q0 32 39 56.5t104 28.5l8 -6 q2 -43 17 -78.5t44.5 -56.5t73.5 -21q26 0 46 11.5t20 32.5q0 15 -18 27.5t-44 24.5t-52.5 25.5t-44.5 31.5t-18 42q0 32 39 60t120 50h-5q-68 0 -119.5 19.5t-80.5 54t-29 80.5q0 59 37 107t101.5 77t148.5 29q89 0 157 0.5t120 12.5q2 -4 3.5 -14t1.5 -21q0 -38 -11.5 -58 t-38.5 -20q-17 0 -45.5 9.5t-56.5 22.5l-1 -3q27 -18 53 -48.5t26 -70.5q0 -43 -23 -73t-56.5 -50.5t-67.5 -35t-57 -26t-23 -22.5q0 -13 21 -23t52.5 -20.5t63 -25.5t52.5 -37.5t21 -57.5zM271 263q0 -32 5.5 -56t24.5 -23q13 0 23.5 22t18 56.5t11.5 73.5t4 72 q0 30 -5.5 51t-22.5 20q-13 0 -24 -20t-19 -52t-12 -70t-4 -74z" />
<glyph unicode="&#x122;" horiz-adv-x="701" d="M629 16q-53 -13 -104 -19.5t-116 -6.5q-97 0 -169 31.5t-111.5 93t-39.5 149.5q0 90 34.5 162.5t95.5 125t140.5 80.5t169.5 28q64 0 119.5 -9t92.5 -25q-4 -34 -18.5 -73.5t-33.5 -77t-38 -66.5h-10l-78 211h-19q-43 0 -82.5 -28.5t-70.5 -79.5t-49 -117.5t-18 -141.5 q0 -60 14 -108.5t38.5 -78.5t57.5 -35l51 216l7 31l-48 25l6 16h301l-2 -16l-29 -10q-19 -7 -25.5 -16.5t-11.5 -29.5zM460 -137q0 -41 -24.5 -84.5t-67 -80.5t-96.5 -60l-10 12q18 21 37.5 54t31.5 69q-24 6 -38.5 24.5t-14.5 44.5q0 29 15 52t39 36.5t51 13.5 q34 0 55.5 -22t21.5 -59z" />
<glyph unicode="&#x123;" horiz-adv-x="542" d="M292 637q0 42 24.5 85t67.5 80t96 60l10 -12q-18 -21 -37.5 -54t-31.5 -69q24 -6 38.5 -24.5t14.5 -44.5q0 -29 -15 -52t-38.5 -36.5t-51.5 -13.5q-34 0 -55.5 22t-21.5 59zM545 -51q0 -46 -39.5 -78.5t-108.5 -49t-156 -16.5q-71 0 -134 13.5t-101.5 38.5t-38.5 58 q0 32 39 56.5t104 28.5l8 -6q2 -43 17 -78.5t44.5 -56.5t73.5 -21q26 0 46 11.5t20 32.5q0 15 -18 27.5t-44 24.5t-52.5 25.5t-44.5 31.5t-18 42q0 32 39 60t120 50h-5q-68 0 -119.5 19.5t-80.5 54t-29 80.5q0 59 37 107t101.5 77t148.5 29q89 0 157 0.5t120 12.5 q2 -4 3.5 -14t1.5 -21q0 -38 -11.5 -58t-38.5 -20q-17 0 -45.5 9.5t-56.5 22.5l-1 -3q27 -18 53 -48.5t26 -70.5q0 -43 -23 -73t-56.5 -50.5t-67.5 -35t-57 -26t-23 -22.5q0 -13 21 -23t52.5 -20.5t63 -25.5t52.5 -37.5t21 -57.5zM271 263q0 -32 5.5 -56t24.5 -23 q13 0 23.5 22t18 56.5t11.5 73.5t4 72q0 30 -5.5 51t-22.5 20q-13 0 -24 -20t-19 -52t-12 -70t-4 -74zM314 -322q0 -41 -24.5 -84.5t-67 -80.5t-96.5 -60l-10 12q18 21 37.5 54t31.5 69q-24 6 -38.5 24.5t-14.5 44.5q0 29 15 52t39 36.5t51 13.5q34 0 55.5 -22t21.5 -59z " />
<glyph unicode="&#x124;" horiz-adv-x="771" d="M699 718l-11 -7q-67 33 -142 60q-39 -13 -82.5 -28.5t-87.5 -31.5l-7 8q33 41 66 84.5t56 76.5l13 8h141q18 -44 31.5 -89.5t22.5 -80.5zM354 0h-326v16l34 11q17 5 23.5 15.5t10.5 29.5l108 506l7 31l-52 25l5 16h326v-16l-34 -11q-17 -5 -23.5 -15.5t-10.5 -29.5 l-50 -233h173l49 233l7 31l-52 25l5 16h326v-16l-34 -11q-17 -5 -23.5 -15.5t-10.5 -29.5l-107 -506l-7 -31l52 -25l-5 -16h-326v16l34 11q17 5 23.5 15.5t10.5 29.5l48 228h-172l-49 -228l-7 -31l52 -25z" />
<glyph unicode="&#x125;" horiz-adv-x="616" d="M455 718l-11 -7q-67 33 -142 60q-39 -13 -82.5 -28.5t-87.5 -31.5l-7 8q33 41 66 84.5t56 76.5l13 8h141q18 -44 31.5 -89.5t22.5 -80.5zM258 0q-6 0 -25.5 -1t-46 -2t-52.5 -2t-45 -1.5t-23 -0.5q-21 0 -16 17l36 170l80 374l11 54l-70 35v12q41 10 93 18t104 13.5 t92 7.5l8 -10l-28 -130q-6 -25 -18 -71t-27 -99.5t-31 -102.5h3q47 113 106.5 171t124.5 58q47 0 75 -27.5t28 -73.5q0 -27 -8 -67.5t-18.5 -83.5t-20.5 -78q-6 -24 -9.5 -41t-3.5 -24q0 -14 10 -14t30 25t44 56l9 -5q-16 -48 -44.5 -91t-67.5 -69.5t-88 -26.5 q-50 0 -75 30.5t-25 82.5q0 17 3 36.5t7 40.5q8 38 18 74.5t17.5 67t7.5 48.5q0 7 -2.5 12t-10.5 5q-14 0 -35.5 -29t-42.5 -76t-36 -102z" />
<glyph unicode="&#x126;" horiz-adv-x="771" d="M354 0h-326v16l34 11q17 5 23.5 15.5t10.5 29.5l82 384h-80l8 45h82l16 77l7 31l-52 25l5 16h326v-16l-34 -11q-17 -5 -23.5 -15.5t-10.5 -29.5l-16 -77h172l16 77l7 31l-52 25l5 16h326v-16l-34 -11q-17 -5 -23.5 -15.5t-10.5 -29.5l-16 -77h60l-8 -45h-62l-81 -384 l-7 -31l52 -25l-5 -16h-326v16l34 11q17 5 23.5 15.5t10.5 29.5l48 228h-172l-49 -228l-7 -31l52 -25zM372 345h173l23 111h-172z" />
<glyph unicode="&#x127;" horiz-adv-x="616" d="M258 0q-6 0 -25.5 -1t-46 -2t-52.5 -2t-45 -1.5t-23 -0.5q-21 0 -16 17l36 170l79 370h-67l8 35h66l5 23l-70 35v12q41 10 93 18t104 13.5t92 7.5l8 -10l-21 -99h105l-8 -35h-105q-6 -27 -18 -72t-26.5 -97.5t-30.5 -99.5h3q47 113 106.5 171t124.5 58q47 0 75 -27.5 t28 -73.5q0 -27 -8 -67.5t-18.5 -83.5t-20.5 -78q-6 -24 -9.5 -41t-3.5 -24q0 -14 10 -14t30 25t44 56l9 -5q-16 -48 -44.5 -91t-67.5 -69.5t-88 -26.5q-50 0 -75 30.5t-25 82.5q0 17 3 36.5t7 40.5q8 38 18 74.5t17.5 67t7.5 48.5q0 7 -2.5 12t-10.5 5q-14 0 -35.5 -29 t-42.5 -76t-36 -102z" />
<glyph unicode="&#x128;" horiz-adv-x="382" d="M483 831q17 14 35 27t35 26l9 -3q-3 -44 -21.5 -82t-50.5 -61t-77 -23q-52 0 -96.5 18.5t-77.5 34.5q-17 -13 -35 -26t-35 -27l-9 3q5 71 44.5 118.5t104.5 47.5q50 0 92.5 -19.5t81.5 -33.5zM355 0h-326v16l34 11q17 5 23.5 15.5t10.5 29.5l107 506l7 31l-52 25l5 16 h326v-16l-34 -11q-17 -5 -23.5 -15.5t-10.5 -29.5l-107 -506l-7 -31l52 -25z" />
<glyph unicode="&#x129;" horiz-adv-x="334" d="M389 681q17 14 35 27t35 26l9 -3q-2 -44 -18 -82t-43 -61t-63 -23q-43 0 -78 18.5t-61 34.5q-17 -13 -35 -26t-35 -27l-9 3q4 71 38 118.5t86 47.5q42 0 76.5 -19t62.5 -34zM98 180q8 37 18 74t17 66q6 24 9.5 41t3.5 24q0 14 -10 14t-30 -24.5t-44 -56.5l-9 5 q17 48 45 91t67 69.5t88 26.5q50 0 75 -30t25 -83q0 -17 -2.5 -36.5t-7.5 -40.5q-7 -35 -17 -72t-18 -68q-6 -24 -9.5 -41t-3.5 -24q0 -14 10 -14t30 25t44 56l9 -5q-16 -48 -44.5 -91t-67.5 -69.5t-88 -26.5q-50 0 -75 30.5t-25 82.5q0 17 3 36.5t7 40.5z" />
<glyph unicode="&#x12a;" horiz-adv-x="381" d="M178 747l23 106h342l-23 -106h-342zM355 0h-326v16l34 11q17 5 23.5 15.5t10.5 29.5l107 506l7 31l-52 25l5 16h326v-16l-34 -11q-17 -5 -23.5 -15.5t-10.5 -29.5l-107 -506l-7 -31l52 -25z" />
<glyph unicode="&#x12b;" horiz-adv-x="334" d="M147 591l23 106h262l-23 -106h-262zM98 180q8 37 18 74t17 66q6 24 9.5 41t3.5 24q0 14 -10 14t-30 -24.5t-44 -56.5l-9 5q17 48 45 91t67 69.5t88 26.5q50 0 75 -30t25 -83q0 -17 -2.5 -36.5t-7.5 -40.5q-7 -35 -17 -72t-18 -68q-6 -24 -9.5 -41t-3.5 -24q0 -14 10 -14 t30 25t44 56l9 -5q-16 -48 -44.5 -91t-67.5 -69.5t-88 -26.5q-50 0 -75 30.5t-25 82.5q0 17 3 36.5t7 40.5z" />
<glyph unicode="&#x12c;" horiz-adv-x="381" d="M517 895h3l12 -5q-58 -185 -191 -185q-62 0 -89 47.5t-16 138.5l15 4q15 -28 41.5 -43.5t77.5 -15.5q49 0 83 15.5t64 43.5zM355 0h-326v16l34 11q17 5 23.5 15.5t10.5 29.5l107 506l7 31l-52 25l5 16h326v-16l-34 -11q-17 -5 -23.5 -15.5t-10.5 -29.5l-107 -506l-7 -31 l52 -25z" />
<glyph unicode="&#x12d;" horiz-adv-x="334" d="M421 746h3l12 -5q-35 -185 -164 -185q-48 0 -75.5 28t-27.5 83q0 17 3 35.5t8 39.5l15 4q10 -28 31.5 -43.5t67.5 -15.5q45 0 74.5 15.5t52.5 43.5zM98 180q8 37 18 74t17 66q6 24 9.5 41t3.5 24q0 14 -10 14t-30 -24.5t-44 -56.5l-9 5q17 48 45 91t67 69.5t88 26.5 q50 0 75 -30t25 -83q0 -17 -2.5 -36.5t-7.5 -40.5q-7 -35 -17 -72t-18 -68q-6 -24 -9.5 -41t-3.5 -24q0 -14 10 -14t30 25t44 56l9 -5q-16 -48 -44.5 -91t-67.5 -69.5t-88 -26.5q-50 0 -75 30.5t-25 82.5q0 17 3 36.5t7 40.5z" />
<glyph unicode="&#x12e;" horiz-adv-x="380" d="M355 0h-1q-26 -12 -43.5 -36.5t-17.5 -49.5q0 -19 17 -19q22 0 67 48l8 -6q-31 -70 -76 -112t-92 -42q-32 0 -50.5 15.5t-18.5 42.5q0 46 42.5 89.5t107.5 69.5h-269v16l34 11q17 5 23.5 15.5t10.5 29.5l107 506l7 31l-52 25l5 16h326v-16l-34 -11q-17 -5 -23.5 -15.5 t-10.5 -29.5l-107 -506l-7 -31l52 -25z" />
<glyph unicode="&#x12f;" horiz-adv-x="334" d="M416 669q0 -34 -19.5 -59.5t-50.5 -39.5t-67 -14q-44 0 -70.5 20.5t-26.5 55.5q0 33 20 58.5t51.5 39.5t65.5 14q45 0 71 -20t26 -55zM334 -63q-31 -70 -76 -112t-92 -42q-32 0 -48.5 17t-16.5 44q0 29 20.5 56t52.5 51.5t65 47.5q-25 -9 -51 -9q-50 0 -75 30.5t-25 82.5 q0 17 3 36.5t7 40.5q8 37 18 74t17 66q6 24 9.5 41t3.5 24q0 14 -10 14t-30 -24.5t-44 -56.5l-9 5q17 48 45 91t67 69.5t88 26.5q50 0 75 -30t25 -83q0 -17 -2.5 -36.5t-7.5 -40.5q-7 -35 -17 -72t-18 -68q-6 -24 -9.5 -41t-3.5 -24q0 -14 10 -14t30 25t44 56l9 -5 q-9 -25 -20.5 -49.5t-27.5 -45.5q-18 -29 -41 -62.5t-40 -62t-17 -43.5q0 -19 17 -19q22 0 67 48z" />
<glyph unicode="&#x130;" horiz-adv-x="381" d="M478 820q0 -34 -19.5 -59.5t-50.5 -39.5t-67 -14q-44 0 -70.5 20.5t-26.5 55.5q0 33 20 58.5t51.5 39.5t65.5 14q45 0 71 -20t26 -55zM355 0h-326v16l34 11q17 5 23.5 15.5t10.5 29.5l107 506l7 31l-52 25l5 16h326v-16l-34 -11q-17 -5 -23.5 -15.5t-10.5 -29.5 l-107 -506l-7 -31l52 -25z" />
<glyph unicode="&#x131;" horiz-adv-x="334" d="M98 180q8 37 18 74t17 66q6 24 9.5 41t3.5 24q0 14 -10 14t-30 -24.5t-44 -56.5l-9 5q17 48 45 91t67 69.5t88 26.5q50 0 75 -30t25 -83q0 -17 -2.5 -36.5t-7.5 -40.5q-7 -35 -17 -72t-18 -68q-6 -24 -9.5 -41t-3.5 -24q0 -14 10 -14t30 25t44 56l9 -5q-16 -48 -44.5 -91 t-67.5 -69.5t-88 -26.5q-50 0 -75 30.5t-25 82.5q0 17 3 36.5t7 40.5z" />
<glyph unicode="&#x132;" horiz-adv-x="758" d="M355 0h-326v16l34 11q17 5 23.5 15.5t10.5 29.5l107 506l7 31l-52 25l5 16h326v-16l-34 -11q-17 -5 -23.5 -15.5t-10.5 -29.5l-107 -506l-7 -31l52 -25zM704 121q-15 -74 -63 -131.5t-120 -91.5t-159 -38l-4 11q37 35 62 75.5t43 95.5t34 131l86 405l7 31l-52 25l5 16 h326v-16l-34 -11q-17 -5 -23.5 -15.5t-10.5 -29.5z" />
<glyph unicode="&#x133;" horiz-adv-x="642" d="M416 669q0 -34 -19.5 -59.5t-50.5 -39.5t-67 -14q-44 0 -70.5 20.5t-26.5 55.5q0 33 20 58.5t51.5 39.5t65.5 14q45 0 71 -20t26 -55zM743 669q0 -34 -19.5 -59.5t-50.5 -39.5t-67 -14q-44 0 -70.5 20.5t-26.5 55.5q0 33 20 58.5t51.5 39.5t65.5 14q45 0 71 -20t26 -55z M98 180q8 37 18 74t17 66q6 24 9.5 41t3.5 24q0 14 -10 14t-30 -24.5t-44 -56.5l-9 5q17 48 45 91t67 69.5t88 26.5q50 0 75 -30t25 -83q0 -17 -2.5 -36.5t-7.5 -40.5q-7 -35 -17 -72t-18 -68q-6 -24 -9.5 -41t-3.5 -24q0 -14 10 -14t30 25t44 56l9 -5q-16 -48 -44.5 -91 t-67.5 -69.5t-88 -26.5q-50 0 -75 30.5t-25 82.5q0 17 3 36.5t7 40.5zM618 74q-19 -91 -64 -151t-105.5 -89t-127.5 -29q-59 0 -95.5 23t-36.5 57q0 31 25 48t62 22q3 -13 7.5 -31t13 -32t22.5 -14q26 0 45 41.5t38 129.5l58 271q6 24 9.5 41t3.5 24q0 14 -10 14t-30 -24.5 t-44 -56.5l-9 5q17 48 45 91t67 69.5t88 26.5q50 0 75 -30t25 -83q0 -17 -2.5 -36.5t-7.5 -40.5z" />
<glyph unicode="&#x134;" horiz-adv-x="377" d="M510 719l-11 -7q-67 33 -142 60q-39 -13 -82.5 -28.5t-87.5 -31.5l-7 8q33 41 66 84.5t56 76.5l13 8h141q18 -44 31.5 -89.5t22.5 -80.5zM323 121q-15 -74 -63 -131.5t-120 -91.5t-159 -38l-4 11q37 35 62 75.5t43 95.5t34 131l86 405l7 31l-52 25l5 16h326v-16l-34 -11 q-17 -5 -23.5 -15.5t-10.5 -29.5z" />
<glyph unicode="&#x135;" horiz-adv-x="318" d="M430 568l-11 -7q-58 32 -123 58q-34 -13 -72 -28t-77 -30l-7 8q28 41 55.5 84.5t46.5 76.5l13 8h141q11 -44 19.5 -89.5t14.5 -80.5zM294 74q-19 -91 -64 -151t-105.5 -89t-127.5 -29q-59 0 -95.5 23t-36.5 57q0 31 25 48t62 22q3 -13 7.5 -31t13 -32t22.5 -14 q26 0 45 41.5t38 129.5l58 271q6 24 9.5 41t3.5 24q0 14 -10 14t-30 -24.5t-44 -56.5l-9 5q17 48 45 91t67 69.5t88 26.5q50 0 75 -30t25 -83q0 -17 -2.5 -36.5t-7.5 -40.5z" />
<glyph unicode="&#x136;" horiz-adv-x="768" d="M355 0h-326v16l34 11q17 5 23.5 15.5t10.5 29.5l107 506l7 31l-52 25l5 16h326v-16l-34 -11q-17 -5 -23.5 -15.5t-10.5 -29.5l-53 -253h41l238 284l-56 25l5 16h272l-1 -16l-64 -28q-30 -13 -72 -37.5t-82.5 -52t-68.5 -50.5l131 -375q11 -30 23.5 -43.5t25.5 -21.5 l18 -10l-6 -16l-203 -3q-52 -1 -71 21.5t-33 65.5l-63 201h-43l-45 -213l-7 -31l52 -25zM476 -137q0 -41 -24.5 -84.5t-67 -80.5t-96.5 -60l-10 12q18 21 37.5 54t31.5 69q-24 6 -38.5 24.5t-14.5 44.5q0 29 15 52t39 36.5t51 13.5q34 0 55.5 -22t21.5 -59z" />
<glyph unicode="&#x137;" horiz-adv-x="623" d="M258 0q-6 0 -25.5 -1t-46 -2t-52.5 -2t-45 -1.5t-23 -0.5q-21 0 -16 17l36 170l80 374l11 54l-70 35v12q41 10 93 18t104 13.5t92 7.5l8 -10l-28 -130q-13 -60 -33.5 -134.5t-42.5 -138.5h3q53 122 114 175.5t134 53.5q52 0 80.5 -32t28.5 -74q0 -38 -19.5 -67.5 t-50 -51.5t-64.5 -37q22 -58 42 -97.5t41 -39.5q16 0 38.5 20t48.5 51l9 -5q-19 -47 -51.5 -90t-74.5 -70t-91 -27q-39 0 -62.5 15.5t-38.5 42.5t-26 62t-23 75l1 5q51 33 81 80t30 85q0 34 -25 34q-17 0 -41.5 -27.5t-48 -75t-39.5 -106.5zM392 -137q0 -41 -24.5 -84.5 t-67 -80.5t-96.5 -60l-10 12q18 21 37.5 54t31.5 69q-24 6 -38.5 24.5t-14.5 44.5q0 29 15 52t39 36.5t51 13.5q34 0 55.5 -22t21.5 -59z" />
<glyph unicode="&#x138;" horiz-adv-x="644" d="M275 0q-6 0 -25.5 -1t-46 -2t-52.5 -2t-45 -1.5t-23 -0.5q-21 0 -16 17l36 170l30 140q6 24 9.5 41t3.5 24q0 14 -10 14t-30 -24.5t-44 -56.5l-9 5q17 48 45 91t67 69.5t88 26.5q50 0 75 -30t25 -83q0 -17 -2.5 -36.5t-7.5 -40.5l-15 -71h27q43 78 89.5 136.5t93.5 91.5 t94 33q30 0 43.5 -22t13.5 -55q0 -26 -6.5 -50t-17.5 -49q-14 11 -34.5 17.5t-40.5 6.5q-35 0 -73 -15l24 -75q13 -40 27.5 -76t30 -58.5t31.5 -22.5t38.5 20t48.5 51l9 -5q-19 -47 -51.5 -90t-74.5 -70t-91 -27q-40 0 -64.5 17.5t-40 48t-27 71t-23.5 87.5h-34l-7 -34z" />
<glyph unicode="&#x139;" horiz-adv-x="569" d="M506 821q0 -49 -76 -79.5t-207 -35.5l-7 13q44 43 87 92.5t70 84.5q62 0 97.5 -20t35.5 -55zM544 0h-515l-1 16l40 13q13 5 19.5 16.5t8.5 26.5l108 506l7 31l-52 25l5 16h326v-16l-34 -11q-17 -5 -23.5 -15.5t-10.5 -29.5l-108 -506l-7 -32h100l159 224h10 q3 -10 4 -27.5t1 -37.5q0 -51 -11.5 -106t-25.5 -93z" />
<glyph unicode="&#x13a;" horiz-adv-x="316" d="M487 856q0 -49 -76 -79.5t-207 -35.5l-7 13q44 43 87 92.5t70 84.5q62 0 97.5 -20t35.5 -55zM80 180l86 374l11 54l-70 35v12q41 10 93 18t104 13.5t92 7.5l8 -10l-28 -130l-86 -374q-6 -24 -9.5 -41t-3.5 -24q0 -14 10 -14t30 25t44 56l9 -5q-16 -48 -44.5 -91 t-67.5 -69.5t-88 -26.5q-50 0 -75 30.5t-25 82.5q0 17 3 36.5t7 40.5z" />
<glyph unicode="&#x13b;" horiz-adv-x="569" d="M544 0h-515l-1 16l40 13q13 5 19.5 16.5t8.5 26.5l108 506l7 31l-52 25l5 16h326v-16l-34 -11q-17 -5 -23.5 -15.5t-10.5 -29.5l-108 -506l-7 -32h100l159 224h10q3 -10 4 -27.5t1 -37.5q0 -51 -11.5 -106t-25.5 -93zM375 -137q0 -41 -24.5 -84.5t-67 -80.5t-96.5 -60 l-10 12q18 21 37.5 54t31.5 69q-24 6 -38.5 24.5t-14.5 44.5q0 29 15 52t39 36.5t51 13.5q34 0 55.5 -22t21.5 -59z" />
<glyph unicode="&#x13c;" horiz-adv-x="316" d="M80 180l86 374l11 54l-70 35v12q41 10 93 18t104 13.5t92 7.5l8 -10l-28 -130l-86 -374q-6 -24 -9.5 -41t-3.5 -24q0 -14 10 -14t30 25t44 56l9 -5q-16 -48 -44.5 -91t-67.5 -69.5t-88 -26.5q-50 0 -75 30.5t-25 82.5q0 17 3 36.5t7 40.5zM240 -137q0 -41 -24.5 -84.5 t-67 -80.5t-96.5 -60l-10 12q18 21 37.5 54t31.5 69q-24 6 -38.5 24.5t-14.5 44.5q0 29 15 52t39 36.5t51 13.5q34 0 55.5 -22t21.5 -59z" />
<glyph unicode="&#x13d;" horiz-adv-x="569" d="M697 579q0 -41 -24.5 -84.5t-67 -80.5t-96.5 -60l-10 12q18 21 37.5 54t31.5 69q-24 6 -38.5 24.5t-14.5 44.5q0 29 15 52t39 36.5t51 13.5q34 0 55.5 -22t21.5 -59zM544 0h-515l-1 16l40 13q13 5 19.5 16.5t8.5 26.5l108 506l7 31l-52 25l5 16h326v-16l-34 -11 q-17 -5 -23.5 -15.5t-10.5 -29.5l-108 -506l-7 -32h100l159 224h10q3 -10 4 -27.5t1 -37.5q0 -51 -11.5 -106t-25.5 -93z" />
<glyph unicode="&#x13e;" horiz-adv-x="564" d="M635 614q0 -41 -24.5 -84.5t-67 -80.5t-96.5 -60l-10 12q18 21 37.5 54t31.5 69q-24 6 -38.5 24.5t-14.5 44.5q0 29 15 52t39 36.5t51 13.5q34 0 55.5 -22t21.5 -59zM80 180l86 374l11 54l-70 35v12q41 10 93 18t104 13.5t92 7.5l8 -10l-28 -130l-86 -374 q-6 -24 -9.5 -41t-3.5 -24q0 -14 10 -14t30 25t44 56l9 -5q-16 -48 -44.5 -91t-67.5 -69.5t-88 -26.5q-50 0 -75 30.5t-25 82.5q0 17 3 36.5t7 40.5z" />
<glyph unicode="&#x13f;" horiz-adv-x="569" d="M544 0h-515l-1 16l40 13q13 5 19.5 16.5t8.5 26.5l108 506l7 31l-52 25l5 16h326v-16l-34 -11q-17 -5 -23.5 -15.5t-10.5 -29.5l-108 -506l-7 -32h100l159 224h10q3 -10 4 -27.5t1 -37.5q0 -51 -11.5 -106t-25.5 -93zM609 336q-36 0 -57.5 20t-21.5 52q0 29 15 52 t39.5 36.5t52.5 13.5q33 0 54 -18.5t21 -50.5q0 -28 -14 -52t-37.5 -38.5t-51.5 -14.5z" />
<glyph unicode="&#x140;" horiz-adv-x="530" d="M80 180l86 374l11 54l-70 35v12q41 10 93 18t104 13.5t92 7.5l8 -10l-28 -130l-86 -374q-6 -24 -9.5 -41t-3.5 -24q0 -14 10 -14t30 25t44 56l9 -5q-16 -48 -44.5 -91t-67.5 -69.5t-88 -26.5q-50 0 -75 30.5t-25 82.5q0 17 3 36.5t7 40.5zM605 402q0 -34 -17.5 -59.5 t-45.5 -39.5t-60 -14q-40 0 -64 20.5t-24 55.5q0 33 18.5 58.5t46.5 39.5t59 14q40 0 63.5 -20t23.5 -55z" />
<glyph unicode="&#x141;" horiz-adv-x="569" d="M544 0h-515l-1 16l40 13q13 5 19.5 16.5t8.5 26.5l39 182l-77 -34l-15 34l101 45l60 279l7 31l-52 25l5 16h326v-16l-34 -11q-17 -5 -23.5 -15.5t-10.5 -29.5l-37 -172l75 33l15 -34l-99 -44l-62 -289l-7 -32h100l159 224h10q3 -10 4 -27.5t1 -37.5q0 -51 -11.5 -106 t-25.5 -93z" />
<glyph unicode="&#x142;" horiz-adv-x="316" d="M80 180l21 91l-64 -28l-15 34l89 40l55 237l11 54l-70 35v12q41 10 93 18t104 13.5t92 7.5l8 -10l-28 -130l-31 -134l94 42l15 -34l-119 -53l-45 -195q-6 -24 -9.5 -41t-3.5 -24q0 -14 10 -14t30 25t44 56l9 -5q-16 -48 -44.5 -91t-67.5 -69.5t-88 -26.5q-50 0 -75 30.5 t-25 82.5q0 17 3 36.5t7 40.5z" />
<glyph unicode="&#x143;" horiz-adv-x="675" d="M652 821q0 -49 -76 -79.5t-207 -35.5l-7 13q44 43 87 92.5t70 84.5q62 0 97.5 -20t35.5 -55zM217 1h-197v16l50 15q20 6 26 14.5t10 26.5l114 536l-68 25l5 16h207l225 -421l74 349l7 31l-78 25l5 16h197v-16l-50 -15q-19 -6 -25.5 -14.5t-10.5 -26.5l-123 -578h-135 l-223 431l-76 -358l-7 -31l78 -25z" />
<glyph unicode="&#x144;" horiz-adv-x="634" d="M594 670q0 -49 -76 -79.5t-207 -35.5l-7 13q44 43 87 92.5t70 84.5q62 0 97.5 -20t35.5 -55zM276 0q-6 0 -25.5 -1t-46 -2t-52.5 -2t-45 -1.5t-23 -0.5q-21 0 -16 17l36 170l22 101l7 33q13 64 13 72q0 13 -8 13q-10 0 -30.5 -24.5t-44.5 -56.5l-10 5q15 48 41 91 t64 69.5t87 26.5q44 0 70.5 -24t26.5 -71q0 -31 -7.5 -67t-16.5 -67h3q47 113 106.5 171t124.5 58q47 0 75 -27.5t28 -73.5q0 -27 -8 -67.5t-18.5 -83.5t-20.5 -78q-6 -24 -9.5 -41t-3.5 -24q0 -14 10 -14t30 25t44 56l9 -5q-16 -48 -44.5 -91t-67.5 -69.5t-88 -26.5 q-50 0 -75 30.5t-25 82.5q0 17 3 36.5t7 40.5q8 38 18 74.5t17.5 67t7.5 48.5q0 7 -2.5 12t-10.5 5q-14 0 -35.5 -29t-42.5 -76t-36 -102z" />
<glyph unicode="&#x145;" horiz-adv-x="675" d="M217 1h-197v16l50 15q20 6 26 14.5t10 26.5l114 536l-68 25l5 16h207l225 -421l74 349l7 31l-78 25l5 16h197v-16l-50 -15q-19 -6 -25.5 -14.5t-10.5 -26.5l-123 -578h-135l-223 431l-76 -358l-7 -31l78 -25zM395 -137q0 -41 -24.5 -84.5t-67 -80.5t-96.5 -60l-10 12 q18 21 37.5 54t31.5 69q-24 6 -38.5 24.5t-14.5 44.5q0 29 15 52t39 36.5t51 13.5q34 0 55.5 -22t21.5 -59z" />
<glyph unicode="&#x146;" horiz-adv-x="634" d="M276 0q-6 0 -25.5 -1t-46 -2t-52.5 -2t-45 -1.5t-23 -0.5q-21 0 -16 17l36 170l22 101l7 33q13 64 13 72q0 13 -8 13q-10 0 -30.5 -24.5t-44.5 -56.5l-10 5q15 48 41 91t64 69.5t87 26.5q44 0 70.5 -24t26.5 -71q0 -31 -7.5 -67t-16.5 -67h3q47 113 106.5 171t124.5 58 q47 0 75 -27.5t28 -73.5q0 -27 -8 -67.5t-18.5 -83.5t-20.5 -78q-6 -24 -9.5 -41t-3.5 -24q0 -14 10 -14t30 25t44 56l9 -5q-16 -48 -44.5 -91t-67.5 -69.5t-88 -26.5q-50 0 -75 30.5t-25 82.5q0 17 3 36.5t7 40.5q8 38 18 74.5t17.5 67t7.5 48.5q0 7 -2.5 12t-10.5 5 q-14 0 -35.5 -29t-42.5 -76t-36 -102zM406 -137q0 -41 -24.5 -84.5t-67 -80.5t-96.5 -60l-10 12q18 21 37.5 54t31.5 69q-24 6 -38.5 24.5t-14.5 44.5q0 29 15 52t39 36.5t51 13.5q34 0 55.5 -22t21.5 -59z" />
<glyph unicode="&#x147;" horiz-adv-x="675" d="M569 719l-13 -8h-141q-18 44 -31.5 90t-22.5 80l11 7q67 -33 142 -60q39 13 82.5 28.5t87.5 31.5l7 -8q-33 -41 -66 -84.5t-56 -76.5zM217 1h-197v16l50 15q20 6 26 14.5t10 26.5l114 536l-68 25l5 16h207l225 -421l74 349l7 31l-78 25l5 16h197v-16l-50 -15 q-19 -6 -25.5 -14.5t-10.5 -26.5l-123 -578h-135l-223 431l-76 -358l-7 -31l78 -25z" />
<glyph unicode="&#x148;" horiz-adv-x="634" d="M503 570l-13 -8h-141q-18 44 -31.5 90t-22.5 80l11 7q67 -33 142 -60q39 13 82.5 28.5t87.5 31.5l7 -8q-33 -41 -66 -84.5t-56 -76.5zM276 0q-6 0 -25.5 -1t-46 -2t-52.5 -2t-45 -1.5t-23 -0.5q-21 0 -16 17l36 170l22 101l7 33q13 64 13 72q0 13 -8 13 q-10 0 -30.5 -24.5t-44.5 -56.5l-10 5q15 48 41 91t64 69.5t87 26.5q44 0 70.5 -24t26.5 -71q0 -31 -7.5 -67t-16.5 -67h3q47 113 106.5 171t124.5 58q47 0 75 -27.5t28 -73.5q0 -27 -8 -67.5t-18.5 -83.5t-20.5 -78q-6 -24 -9.5 -41t-3.5 -24q0 -14 10 -14t30 25t44 56 l9 -5q-16 -48 -44.5 -91t-67.5 -69.5t-88 -26.5q-50 0 -75 30.5t-25 82.5q0 17 3 36.5t7 40.5q8 38 18 74.5t17.5 67t7.5 48.5q0 7 -2.5 12t-10.5 5q-14 0 -35.5 -29t-42.5 -76t-36 -102z" />
<glyph unicode="&#x14a;" horiz-adv-x="683" d="M225 1h-197v16l50 15q20 6 26 14.5t10 26.5l114 536l-68 25l5 16h207l225 -421l74 349l7 31l-78 25l5 16h197v-16l-50 -15q-19 -6 -25.5 -14.5t-10.5 -26.5l-117 -552q-13 -56 -35.5 -94.5t-59.5 -67.5t-95 -59l-7 11q37 27 64.5 52t46.5 56t33 76h-88l-223 431l-76 -358 l-7 -31l78 -25z" />
<glyph unicode="&#x14b;" horiz-adv-x="617" d="M276 0q-6 0 -25.5 -1t-46 -2t-52.5 -2t-45 -1.5t-23 -0.5q-21 0 -16 17l36 170l22 101l7 33q13 64 13 72q0 13 -8 13q-10 0 -30.5 -24.5t-44.5 -56.5l-10 5q15 48 41 91t64 69.5t87 26.5q44 0 70.5 -24t26.5 -71q0 -31 -7.5 -67t-16.5 -67h3q47 113 106.5 171t124.5 58 q56 0 79 -31.5t23 -81.5q0 -16 -2 -33.5t-8.5 -49.5t-18.5 -88.5t-32 -151.5q-19 -91 -64 -151t-105.5 -89t-127.5 -29q-59 0 -95.5 23t-36.5 57q0 31 25 48t62 22q3 -13 7.5 -31t13 -32t22.5 -14q26 0 45 41.5t38 129.5q12 54 23.5 107t21 97.5t15 73.5t5.5 35q0 25 -14 25 t-35.5 -29t-42.5 -76t-36 -102z" />
<glyph unicode="&#x14c;" horiz-adv-x="727" d="M349 747l23 106h342l-23 -106h-342zM778 400q0 -87 -31.5 -162t-88 -130.5t-130 -86.5t-157.5 -31q-91 0 -154.5 33t-97 90.5t-33.5 131.5q0 90 32.5 165.5t89.5 131.5t131 87t157 31q132 0 207 -70t75 -190zM321 124q0 -49 12 -71.5t38 -22.5q25 0 50 33t47 88t39 121.5 t26.5 134.5t9.5 126q0 87 -49 87q-26 0 -51 -32t-47 -86t-39 -119t-26.5 -132.5t-9.5 -126.5z" />
<glyph unicode="&#x14d;" horiz-adv-x="607" d="M259 597l23 106h342l-23 -106h-342zM640 302q0 -69 -26 -126.5t-71.5 -99t-105 -64.5t-125.5 -23q-112 0 -175.5 55t-63.5 155q0 66 26 123t72 99t105.5 65.5t126.5 23.5q76 0 129 -28t80.5 -75t27.5 -105zM291 131q0 -46 6.5 -73.5t22.5 -27.5q17 0 32 26.5t27.5 69 t21.5 91t14 93t5 73.5q0 87 -29 87q-17 0 -32 -24t-27.5 -62.5t-21.5 -84.5t-14 -90t-5 -78z" />
<glyph unicode="&#x14e;" horiz-adv-x="727" d="M688 895h3l12 -5q-58 -185 -191 -185q-62 0 -89 47.5t-16 138.5l15 4q15 -28 41.5 -43.5t77.5 -15.5q49 0 83 15.5t64 43.5zM778 400q0 -87 -31.5 -162t-88 -130.5t-130 -86.5t-157.5 -31q-91 0 -154.5 33t-97 90.5t-33.5 131.5q0 90 32.5 165.5t89.5 131.5t131 87 t157 31q132 0 207 -70t75 -190zM321 124q0 -49 12 -71.5t38 -22.5q25 0 50 33t47 88t39 121.5t26.5 134.5t9.5 126q0 87 -49 87q-26 0 -51 -32t-47 -86t-39 -119t-26.5 -132.5t-9.5 -126.5z" />
<glyph unicode="&#x14f;" horiz-adv-x="607" d="M593 746h3l12 -5q-58 -185 -191 -185q-62 0 -89 47.5t-16 138.5l15 4q15 -28 41.5 -43.5t77.5 -15.5q49 0 83 15.5t64 43.5zM640 302q0 -69 -26 -126.5t-71.5 -99t-105 -64.5t-125.5 -23q-112 0 -175.5 55t-63.5 155q0 66 26 123t72 99t105.5 65.5t126.5 23.5 q76 0 129 -28t80.5 -75t27.5 -105zM291 131q0 -46 6.5 -73.5t22.5 -27.5q17 0 32 26.5t27.5 69t21.5 91t14 93t5 73.5q0 87 -29 87q-17 0 -32 -24t-27.5 -62.5t-21.5 -84.5t-14 -90t-5 -78z" />
<glyph unicode="&#x150;" horiz-adv-x="727" d="M545 821q0 -49 -66.5 -79.5t-182.5 -35.5l-7 13q44 43 87 92.5t70 84.5q46 0 72.5 -20t26.5 -55zM775 821q0 -49 -66.5 -79.5t-182.5 -35.5l-7 13q44 43 87 92.5t70 84.5q47 0 73 -20t26 -55zM778 400q0 -87 -31.5 -162t-88 -130.5t-130 -86.5t-157.5 -31 q-91 0 -154.5 33t-97 90.5t-33.5 131.5q0 90 32.5 165.5t89.5 131.5t131 87t157 31q132 0 207 -70t75 -190zM321 124q0 -49 12 -71.5t38 -22.5q25 0 50 33t47 88t39 121.5t26.5 134.5t9.5 126q0 87 -49 87q-26 0 -51 -32t-47 -86t-39 -119t-26.5 -132.5t-9.5 -126.5z" />
<glyph unicode="&#x151;" horiz-adv-x="607" d="M459 670q0 -49 -66.5 -79.5t-182.5 -35.5l-7 13q44 43 87 92.5t70 84.5q46 0 72.5 -20t26.5 -55zM689 670q0 -49 -66.5 -79.5t-182.5 -35.5l-7 13q44 43 87 92.5t70 84.5q47 0 73 -20t26 -55zM640 302q0 -69 -26 -126.5t-71.5 -99t-105 -64.5t-125.5 -23 q-112 0 -175.5 55t-63.5 155q0 66 26 123t72 99t105.5 65.5t126.5 23.5q76 0 129 -28t80.5 -75t27.5 -105zM291 131q0 -46 6.5 -73.5t22.5 -27.5q17 0 32 26.5t27.5 69t21.5 91t14 93t5 73.5q0 87 -29 87q-17 0 -32 -24t-27.5 -62.5t-21.5 -84.5t-14 -90t-5 -78z" />
<glyph unicode="&#x152;" horiz-adv-x="985" d="M947 0h-447q-44 -10 -91 -10q-152 0 -236 71t-84 192q0 123 53 214.5t148 142t223 50.5q58 0 107 -10h456q0 -32 -8.5 -71.5t-22.5 -77t-32 -65.5h-10l-87 174h-95l-57 -267l159 12l-14 -65l-154 13l-56 -263h103l164 181h10q2 -12 3.5 -25t1.5 -26q0 -43 -10 -88 t-24 -82zM326 194q0 -85 20 -124.5t63 -39.5q21 0 40.5 9t37.5 26l106 502q-9 53 -61 53q-37 0 -68.5 -29.5t-57 -77.5t-43.5 -105t-27.5 -113t-9.5 -101z" />
<glyph unicode="&#x153;" horiz-adv-x="845" d="M863 171q-18 -56 -55 -96.5t-84.5 -62.5t-98.5 -22q-49 0 -87.5 17t-65.5 47q-39 -31 -87.5 -48t-101.5 -17q-97 0 -153 55t-56 155q0 66 24.5 123t67.5 99t99 65.5t119 23.5q54 0 94.5 -18t66.5 -49q40 31 88.5 49t103.5 18q43 0 78 -14.5t56.5 -43.5t21.5 -73 q0 -69 -67 -116.5t-208 -52.5q6 -49 31.5 -72t64.5 -23q38 0 73.5 17t67.5 45zM292 131q0 -46 6.5 -73.5t22.5 -27.5q17 0 32 26.5t27.5 69t21.5 91t14 93t5 73.5q0 87 -29 87q-17 0 -32 -24t-27.5 -62.5t-21.5 -84.5t-14 -90t-5 -78zM706 470q-16 0 -32 -20.5t-29 -54.5 t-21 -74t-8 -79q31 10 56.5 40.5t40.5 73t15 86.5q0 12 -5.5 20t-16.5 8z" />
<glyph unicode="&#x154;" horiz-adv-x="740" d="M662 821q0 -49 -76 -79.5t-207 -35.5l-7 13q44 43 87 92.5t70 84.5q62 0 97.5 -20t35.5 -55zM450 610h-21l-7 -32l-59 -278h29q44 0 75 30t47.5 76t16.5 94q0 52 -20.5 81t-60.5 29zM355 0h-326v16l34 11q17 5 23.5 15.5t10.5 29.5l107 506l7 31l-52 25l4 16h315 q134 0 203.5 -42.5t69.5 -121.5q0 -59 -39.5 -104t-100.5 -76l16 -56q20 -71 33 -115.5t27 -69t36 -35.5l28 -14l-5 -16l-205 -5q-42 -1 -61.5 14.5t-27.5 47.5l-48 203h-49l-40 -188l-7 -31l52 -25z" />
<glyph unicode="&#x155;" horiz-adv-x="514" d="M537 670q0 -49 -76 -79.5t-207 -35.5l-7 13q44 43 87 92.5t70 84.5q62 0 97.5 -20t35.5 -55zM276 0q-6 0 -25.5 -1t-46 -2t-52.5 -2t-45 -1.5t-23 -0.5q-21 0 -16 17l36 170l22 101l7 33q13 64 13 72q0 13 -8 13q-10 0 -30.5 -24.5t-44.5 -56.5l-10 5q15 48 41 91 t64 69.5t87 26.5q44 0 70.5 -24t26.5 -71q0 -31 -7.5 -67t-16.5 -67h3q42 103 90.5 166t100.5 63q31 0 44.5 -22t13.5 -55q0 -42 -18 -84.5t-45 -75.5q-18 10 -45.5 19t-53.5 9q-44 0 -63.5 -34t-30.5 -87z" />
<glyph unicode="&#x156;" horiz-adv-x="740" d="M450 610h-21l-7 -32l-59 -278h29q44 0 75 30t47.5 76t16.5 94q0 52 -20.5 81t-60.5 29zM455 -137q0 -41 -24.5 -84.5t-67 -80.5t-96.5 -60l-10 12q18 21 37.5 54t31.5 69q-24 6 -38.5 24.5t-14.5 44.5q0 29 15 52t39 36.5t51 13.5q34 0 55.5 -22t21.5 -59zM355 0h-326v16 l34 11q17 5 23.5 15.5t10.5 29.5l107 506l7 31l-52 25l4 16h315q134 0 203.5 -42.5t69.5 -121.5q0 -59 -39.5 -104t-100.5 -76l16 -56q20 -71 33 -115.5t27 -69t36 -35.5l28 -14l-5 -16l-205 -5q-42 -1 -61.5 14.5t-27.5 47.5l-48 203h-49l-40 -188l-7 -31l52 -25z" />
<glyph unicode="&#x157;" horiz-adv-x="514" d="M276 0q-6 0 -25.5 -1t-46 -2t-52.5 -2t-45 -1.5t-23 -0.5q-21 0 -16 17l36 170l22 101l7 33q13 64 13 72q0 13 -8 13q-10 0 -30.5 -24.5t-44.5 -56.5l-10 5q15 48 41 91t64 69.5t87 26.5q44 0 70.5 -24t26.5 -71q0 -31 -7.5 -67t-16.5 -67h3q42 103 90.5 166t100.5 63 q31 0 44.5 -22t13.5 -55q0 -42 -18 -84.5t-45 -75.5q-18 10 -45.5 19t-53.5 9q-44 0 -63.5 -34t-30.5 -87zM237 -137q0 -41 -24.5 -84.5t-67 -80.5t-96.5 -60l-10 12q18 21 37.5 54t31.5 69q-24 6 -38.5 24.5t-14.5 44.5q0 29 15 52t39 36.5t51 13.5q34 0 55.5 -22t21.5 -59 z" />
<glyph unicode="&#x158;" horiz-adv-x="740" d="M579 719l-13 -8h-141q-18 44 -31.5 90t-22.5 80l11 7q67 -33 142 -60q39 13 82.5 28.5t87.5 31.5l7 -8q-33 -41 -66 -84.5t-56 -76.5zM450 610h-21l-7 -32l-59 -278h29q44 0 75 30t47.5 76t16.5 94q0 52 -20.5 81t-60.5 29zM355 0h-326v16l34 11q17 5 23.5 15.5 t10.5 29.5l107 506l7 31l-52 25l4 16h315q134 0 203.5 -42.5t69.5 -121.5q0 -59 -39.5 -104t-100.5 -76l16 -56q20 -71 33 -115.5t27 -69t36 -35.5l28 -14l-5 -16l-205 -5q-42 -1 -61.5 14.5t-27.5 47.5l-48 203h-49l-40 -188l-7 -31l52 -25z" />
<glyph unicode="&#x159;" horiz-adv-x="514" d="M446 570l-13 -8h-141q-18 44 -31.5 90t-22.5 80l11 7q67 -33 142 -60q39 13 82.5 28.5t87.5 31.5l7 -8q-33 -41 -66 -84.5t-56 -76.5zM276 0q-6 0 -25.5 -1t-46 -2t-52.5 -2t-45 -1.5t-23 -0.5q-21 0 -16 17l36 170l22 101l7 33q13 64 13 72q0 13 -8 13 q-10 0 -30.5 -24.5t-44.5 -56.5l-10 5q15 48 41 91t64 69.5t87 26.5q44 0 70.5 -24t26.5 -71q0 -31 -7.5 -67t-16.5 -67h3q42 103 90.5 166t100.5 63q31 0 44.5 -22t13.5 -55q0 -42 -18 -84.5t-45 -75.5q-18 10 -45.5 19t-53.5 9q-44 0 -63.5 -34t-30.5 -87z" />
<glyph unicode="&#x15a;" horiz-adv-x="548" d="M595 821q0 -49 -76 -79.5t-207 -35.5l-7 13q44 43 87 92.5t70 84.5q62 0 97.5 -20t35.5 -55zM120 443q0 54 25 95t68.5 68t99.5 40.5t117 13.5q133 0 197 -42q15 -10 15 -26q0 -22 -18 -54.5t-42.5 -62.5t-44.5 -48l-10 2l-48 189q-14 2 -31 2q-29 0 -56.5 -11.5 t-44.5 -33t-17 -52.5q0 -32 17 -58t44.5 -49t57.5 -45.5t57.5 -48.5t44.5 -58.5t17 -74.5q0 -68 -42.5 -112t-113.5 -65.5t-155 -21.5q-61 0 -118.5 6t-88.5 25q-20 13 -20 38q0 24 15.5 56t38 62.5t42.5 50.5l10 -2l60 -191q12 -2 24.5 -3.5t27.5 -1.5q47 0 79 25.5 t32 61.5q0 31 -17.5 55t-44.5 46t-57.5 44t-57.5 48t-44.5 58.5t-17.5 74.5z" />
<glyph unicode="&#x15b;" horiz-adv-x="501" d="M539 670q0 -49 -76 -79.5t-207 -35.5l-7 13q44 43 87 92.5t70 84.5q62 0 97.5 -20t35.5 -55zM516 143q0 -68 -63 -110.5t-194 -42.5q-57 0 -107 11t-81 34t-31 57q0 29 38.5 49.5t111.5 20.5l9 -4q3 -20 6.5 -38.5t7.5 -33.5q8 -25 21.5 -40.5t36.5 -15.5q17 0 28 12 t11 28q0 25 -22 49.5t-54 49.5t-64 53t-54 59.5t-22 69.5q0 71 63.5 115t179.5 44q64 0 112.5 -13.5t76.5 -37t28 -52.5q0 -33 -38 -53t-102 -16l-9 4q-3 40 -12 73q-7 24 -19.5 39.5t-32.5 15.5q-21 0 -31.5 -12t-10.5 -31q0 -26 22 -50.5t54.5 -50t64.5 -53t54 -59.5 t22 -71z" />
<glyph unicode="&#x15c;" horiz-adv-x="548" d="M598 718l-11 -7q-67 33 -142 60q-39 -13 -82.5 -28.5t-87.5 -31.5l-7 8q33 41 66 84.5t56 76.5l13 8h141q18 -44 31.5 -89.5t22.5 -80.5zM120 443q0 54 25 95t68.5 68t99.5 40.5t117 13.5q133 0 197 -42q15 -10 15 -26q0 -22 -18 -54.5t-42.5 -62.5t-44.5 -48l-10 2 l-48 189q-14 2 -31 2q-29 0 -56.5 -11.5t-44.5 -33t-17 -52.5q0 -32 17 -58t44.5 -49t57.5 -45.5t57.5 -48.5t44.5 -58.5t17 -74.5q0 -68 -42.5 -112t-113.5 -65.5t-155 -21.5q-61 0 -118.5 6t-88.5 25q-20 13 -20 38q0 24 15.5 56t38 62.5t42.5 50.5l10 -2l60 -191 q12 -2 24.5 -3.5t27.5 -1.5q47 0 79 25.5t32 61.5q0 31 -17.5 55t-44.5 46t-57.5 44t-57.5 48t-44.5 58.5t-17.5 74.5z" />
<glyph unicode="&#x15d;" horiz-adv-x="501" d="M536 568l-11 -7q-67 33 -142 60q-39 -13 -82.5 -28.5t-87.5 -31.5l-7 8q33 41 66 84.5t56 76.5l13 8h141q18 -44 31.5 -89.5t22.5 -80.5zM516 143q0 -68 -63 -110.5t-194 -42.5q-57 0 -107 11t-81 34t-31 57q0 29 38.5 49.5t111.5 20.5l9 -4q3 -20 6.5 -38.5t7.5 -33.5 q8 -25 21.5 -40.5t36.5 -15.5q17 0 28 12t11 28q0 25 -22 49.5t-54 49.5t-64 53t-54 59.5t-22 69.5q0 71 63.5 115t179.5 44q64 0 112.5 -13.5t76.5 -37t28 -52.5q0 -33 -38 -53t-102 -16l-9 4q-3 40 -12 73q-7 24 -19.5 39.5t-32.5 15.5q-21 0 -31.5 -12t-10.5 -31 q0 -26 22 -50.5t54.5 -50t64.5 -53t54 -59.5t22 -71z" />
<glyph unicode="&#x15e;" horiz-adv-x="548" d="M182 -106l-2 6l33 91q-50 1 -94 7.5t-69 22.5q-20 13 -20 38q0 24 15.5 56t38 62.5t42.5 50.5l10 -2l60 -191q12 -2 24.5 -3.5t27.5 -1.5q47 0 79 25.5t32 61.5q0 31 -17.5 55t-44.5 46t-57.5 44t-57.5 48t-44.5 58.5t-17.5 74.5q0 54 25 95t68.5 68t99.5 40.5t117 13.5 q133 0 197 -42q15 -10 15 -26q0 -22 -18 -54.5t-42.5 -62.5t-44.5 -48l-10 2l-48 189q-14 2 -31 2q-29 0 -56.5 -11.5t-44.5 -33t-17 -52.5q0 -32 17 -58t44.5 -49t57.5 -45.5t57.5 -48.5t44.5 -58.5t17 -74.5q0 -68 -42.5 -112t-113 -65.5t-152.5 -21.5l-9 -23 q61 -4 94 -23.5t33 -54.5q0 -31 -21.5 -52t-57.5 -34t-80 -19t-89 -6l-1 15q20 8 42 19t37.5 25t15.5 30q0 24 -42 27z" />
<glyph unicode="&#x15f;" horiz-adv-x="501" d="M198 -106l-2 6l33 91q-51 2 -94 14t-69 34t-26 53q0 29 38.5 49.5t111.5 20.5l9 -4q3 -20 6.5 -38.5t7.5 -33.5q8 -25 21.5 -40.5t36.5 -15.5q17 0 28 12t11 28q0 25 -22 49.5t-54 49.5t-64 53t-54 59.5t-22 69.5q0 71 63.5 115t179.5 44q64 0 112.5 -13.5t76.5 -37 t28 -52.5q0 -33 -38 -53t-102 -16l-9 4q-3 40 -12 73q-7 24 -19.5 39.5t-32.5 15.5q-21 0 -31.5 -12t-10.5 -31q0 -26 22 -50.5t54.5 -50t64.5 -53t54 -59.5t22 -71q0 -66 -59 -108t-181 -45l-9 -23q61 -4 94 -23.5t33 -54.5q0 -31 -21.5 -52t-57.5 -34t-80 -19t-89 -6 l-1 15q20 8 42 19t37.5 25t15.5 30q0 24 -42 27z" />
<glyph unicode="&#x160;" horiz-adv-x="548" d="M512 719l-13 -8h-141q-18 44 -31.5 90t-22.5 80l11 7q67 -33 142 -60q39 13 82.5 28.5t87.5 31.5l7 -8q-33 -41 -66 -84.5t-56 -76.5zM120 443q0 54 25 95t68.5 68t99.5 40.5t117 13.5q133 0 197 -42q15 -10 15 -26q0 -22 -18 -54.5t-42.5 -62.5t-44.5 -48l-10 2l-48 189 q-14 2 -31 2q-29 0 -56.5 -11.5t-44.5 -33t-17 -52.5q0 -32 17 -58t44.5 -49t57.5 -45.5t57.5 -48.5t44.5 -58.5t17 -74.5q0 -68 -42.5 -112t-113.5 -65.5t-155 -21.5q-61 0 -118.5 6t-88.5 25q-20 13 -20 38q0 24 15.5 56t38 62.5t42.5 50.5l10 -2l60 -191q12 -2 24.5 -3.5 t27.5 -1.5q47 0 79 25.5t32 61.5q0 31 -17.5 55t-44.5 46t-57.5 44t-57.5 48t-44.5 58.5t-17.5 74.5z" />
<glyph unicode="&#x161;" horiz-adv-x="501" d="M448 570l-13 -8h-141q-18 44 -31.5 90t-22.5 80l11 7q67 -33 142 -60q39 13 82.5 28.5t87.5 31.5l7 -8q-33 -41 -66 -84.5t-56 -76.5zM516 143q0 -68 -63 -110.5t-194 -42.5q-57 0 -107 11t-81 34t-31 57q0 29 38.5 49.5t111.5 20.5l9 -4q3 -20 6.5 -38.5t7.5 -33.5 q8 -25 21.5 -40.5t36.5 -15.5q17 0 28 12t11 28q0 25 -22 49.5t-54 49.5t-64 53t-54 59.5t-22 69.5q0 71 63.5 115t179.5 44q64 0 112.5 -13.5t76.5 -37t28 -52.5q0 -33 -38 -53t-102 -16l-9 4q-3 40 -12 73q-7 24 -19.5 39.5t-32.5 15.5q-21 0 -31.5 -12t-10.5 -31 q0 -26 22 -50.5t54.5 -50t64.5 -53t54 -59.5t22 -71z" />
<glyph unicode="&#x162;" horiz-adv-x="660" d="M279 -106l-2 6l36 100h-144v16l34 11q17 5 23.5 15.5t10.5 29.5l114 538h-56l-161 -214h-10q-3 21 -3 47q0 50 11.5 105.5t27.5 101.5h616q-1 -38 -11 -85t-26 -92t-35 -77h-10l-70 214h-55l-114 -538l-7 -31l52 -25l-5 -16h-135l-12 -33q61 -4 94 -23.5t33 -54.5 q0 -31 -21.5 -52t-57.5 -34t-80 -19t-89 -6l-1 15q20 8 42 19t37.5 25t15.5 30q0 24 -42 27z" />
<glyph unicode="&#x163;" horiz-adv-x="374" d="M140 -106l-2 6l33 92q-44 7 -66 38t-22 77q0 21 2.5 38.5t6.5 34.5l57 265h-69l1 10l80 42l222 115l10 -2l-28 -130h86l-8 -35h-85l-56 -265q-5 -27 -7.5 -39.5t-2.5 -21.5q0 -18 16 -18q14 0 40 22.5t55 58.5l9 -5q-16 -45 -43.5 -85.5t-65.5 -67.5t-85 -33l-9 -24 q61 -4 94 -23.5t33 -54.5q0 -31 -21.5 -52t-57.5 -34t-80 -19t-89 -6l-1 15q20 8 42 19t37.5 25t15.5 30q0 24 -42 27z" />
<glyph unicode="&#x164;" horiz-adv-x="660" d="M562 719l-13 -8h-141q-18 44 -31.5 90t-22.5 80l11 7q67 -33 142 -60q39 13 82.5 28.5t87.5 31.5l7 -8q-33 -41 -66 -84.5t-56 -76.5zM134 396h-10q-3 21 -3 47q0 50 11.5 105.5t27.5 101.5h616q-1 -38 -11 -85t-26 -92t-35 -77h-10l-70 214h-55l-114 -538l-7 -31l52 -25 l-5 -16h-326v16l34 11q17 5 23.5 15.5t10.5 29.5l114 538h-56z" />
<glyph unicode="&#x165;" horiz-adv-x="402" d="M581 704q0 -34 -20.5 -70t-56 -67t-80.5 -50l-8 10q15 17 31.5 45t26.5 58q-45 11 -45 57q0 36 26.5 60.5t61.5 24.5q28 0 46 -18.5t18 -49.5zM412 177q-17 -48 -47.5 -91t-72.5 -69.5t-95 -26.5q-57 0 -85.5 32.5t-28.5 84.5q0 21 2.5 38.5t6.5 34.5l57 265h-69l1 10 l80 42l222 115l10 -2l-28 -130h86l-8 -35h-85l-56 -265q-5 -27 -7.5 -39.5t-2.5 -21.5q0 -18 16 -18q14 0 40 22.5t55 58.5z" />
<glyph unicode="&#x166;" horiz-adv-x="660" d="M134 396h-10q-3 21 -3 47q0 50 11.5 105.5t27.5 101.5h616q-1 -38 -11 -85t-26 -92t-35 -77h-10l-70 214h-55l-60 -282h116l-8 -45h-117l-45 -211l-7 -31l52 -25l-5 -16h-326v16l34 11q17 5 23.5 15.5t10.5 29.5l45 211h-115l8 45h116l60 282h-56z" />
<glyph unicode="&#x167;" horiz-adv-x="374" d="M412 177q-17 -48 -47.5 -91t-72.5 -69.5t-95 -26.5q-57 0 -85.5 32.5t-28.5 84.5q0 21 2.5 38.5t6.5 34.5l27 125h-67l8 35h66l23 105h-69l1 10l80 42l222 115l10 -2l-28 -130h86l-8 -35h-85l-22 -105h88l-8 -35h-88l-26 -125q-5 -27 -7.5 -39.5t-2.5 -21.5q0 -18 16 -18 q14 0 40 22.5t55 58.5z" />
<glyph unicode="&#x168;" horiz-adv-x="685" d="M682 831q17 14 35 27t35 26l9 -3q-3 -44 -21.5 -82t-50.5 -61t-77 -23q-52 0 -96.5 18.5t-77.5 34.5q-17 -13 -35 -26t-35 -27l-9 3q5 71 44.5 118.5t104.5 47.5q50 0 92.5 -19.5t81.5 -33.5zM164 650h326v-16l-34 -11q-17 -5 -23.5 -15.5t-10.5 -29.5l-72 -338 q-4 -19 -6 -36t-2 -32q0 -59 28.5 -89t78.5 -30q61 0 101 45.5t60 141.5l72 338l7 32l-69 24l5 16h187v-16l-79 -24l-7 -32l-72 -338q-28 -131 -94 -190.5t-185 -59.5q-121 0 -184 57t-63 148q0 27 6 55l70 328l7 31l-52 25z" />
<glyph unicode="&#x169;" d="M567 681q17 14 35 27t35 26l9 -3q-3 -44 -21.5 -82t-50.5 -61t-77 -23q-52 0 -96.5 18.5t-77.5 34.5q-17 -13 -35 -26t-35 -27l-9 3q5 71 44.5 118.5t104.5 47.5q50 0 92.5 -19.5t81.5 -33.5zM423 219h-3q-47 -113 -106.5 -171t-124.5 -58q-46 0 -74.5 27.5t-28.5 73.5 q0 27 8 67.5t19 83.5t20 78q6 24 9.5 41t3.5 24q0 14 -10 14t-30 -24.5t-44 -56.5l-9 5q17 48 45 91t67 69.5t88 26.5q50 0 75 -30t25 -83q0 -17 -2.5 -36.5t-7.5 -40.5q-7 -37 -17.5 -74t-18 -67.5t-7.5 -48.5q0 -7 3 -12t10 -5q15 0 36 29t42.5 76t35.5 102l38 180 q6 0 25.5 1t46 2t52.5 2t45 1.5t23 0.5q21 0 16 -17l-36 -170l-22 -101l-7 -33q-13 -64 -13 -72q0 -13 8 -13q11 0 31 25t44 56l10 -5q-14 -48 -40.5 -91t-64.5 -69.5t-87 -26.5q-43 0 -70 24.5t-27 70.5q0 32 7.5 67.5t16.5 66.5z" />
<glyph unicode="&#x16a;" horiz-adv-x="685" d="M377 747l23 106h342l-23 -106h-342zM164 650h326v-16l-34 -11q-17 -5 -23.5 -15.5t-10.5 -29.5l-72 -338q-4 -19 -6 -36t-2 -32q0 -59 28.5 -89t78.5 -30q61 0 101 45.5t60 141.5l72 338l7 32l-69 24l5 16h187v-16l-79 -24l-7 -32l-72 -338q-28 -131 -94 -190.5 t-185 -59.5q-121 0 -184 57t-63 148q0 27 6 55l70 328l7 31l-52 25z" />
<glyph unicode="&#x16b;" d="M264 597l23 106h342l-23 -106h-342zM423 219h-3q-47 -113 -106.5 -171t-124.5 -58q-46 0 -74.5 27.5t-28.5 73.5q0 27 8 67.5t19 83.5t20 78q6 24 9.5 41t3.5 24q0 14 -10 14t-30 -24.5t-44 -56.5l-9 5q17 48 45 91t67 69.5t88 26.5q50 0 75 -30t25 -83q0 -17 -2.5 -36.5 t-7.5 -40.5q-7 -37 -17.5 -74t-18 -67.5t-7.5 -48.5q0 -7 3 -12t10 -5q15 0 36 29t42.5 76t35.5 102l38 180q6 0 25.5 1t46 2t52.5 2t45 1.5t23 0.5q21 0 16 -17l-36 -170l-22 -101l-7 -33q-13 -64 -13 -72q0 -13 8 -13q11 0 31 25t44 56l10 -5q-14 -48 -40.5 -91 t-64.5 -69.5t-87 -26.5q-43 0 -70 24.5t-27 70.5q0 32 7.5 67.5t16.5 66.5z" />
<glyph unicode="&#x16c;" horiz-adv-x="685" d="M716 895h3l12 -5q-58 -185 -191 -185q-62 0 -89 47.5t-16 138.5l15 4q15 -28 41.5 -43.5t77.5 -15.5q49 0 83 15.5t64 43.5zM164 650h326v-16l-34 -11q-17 -5 -23.5 -15.5t-10.5 -29.5l-72 -338q-4 -19 -6 -36t-2 -32q0 -59 28.5 -89t78.5 -30q61 0 101 45.5t60 141.5 l72 338l7 32l-69 24l5 16h187v-16l-79 -24l-7 -32l-72 -338q-28 -131 -94 -190.5t-185 -59.5q-121 0 -184 57t-63 148q0 27 6 55l70 328l7 31l-52 25z" />
<glyph unicode="&#x16d;" d="M598 746h3l12 -5q-58 -185 -191 -185q-62 0 -89 47.5t-16 138.5l15 4q15 -28 41.5 -43.5t77.5 -15.5q49 0 83 15.5t64 43.5zM423 219h-3q-47 -113 -106.5 -171t-124.5 -58q-46 0 -74.5 27.5t-28.5 73.5q0 27 8 67.5t19 83.5t20 78q6 24 9.5 41t3.5 24q0 14 -10 14 t-30 -24.5t-44 -56.5l-9 5q17 48 45 91t67 69.5t88 26.5q50 0 75 -30t25 -83q0 -17 -2.5 -36.5t-7.5 -40.5q-7 -37 -17.5 -74t-18 -67.5t-7.5 -48.5q0 -7 3 -12t10 -5q15 0 36 29t42.5 76t35.5 102l38 180q6 0 25.5 1t46 2t52.5 2t45 1.5t23 0.5q21 0 16 -17l-36 -170 l-22 -101l-7 -33q-13 -64 -13 -72q0 -13 8 -13q11 0 31 25t44 56l10 -5q-14 -48 -40.5 -91t-64.5 -69.5t-87 -26.5q-43 0 -70 24.5t-27 70.5q0 32 7.5 67.5t16.5 66.5z" />
<glyph unicode="&#x16e;" horiz-adv-x="685" d="M673 816q0 -31 -18 -56.5t-48.5 -40.5t-67.5 -15q-42 0 -66.5 21t-24.5 58q0 32 18 57.5t48.5 40t67.5 14.5q42 0 66.5 -21t24.5 -58zM521 786q0 -16 8 -25.5t21 -9.5q21 0 35.5 18t14.5 45q0 34 -29 34q-21 0 -35.5 -18t-14.5 -44zM164 650h326v-16l-34 -11 q-17 -5 -23.5 -15.5t-10.5 -29.5l-72 -338q-4 -19 -6 -36t-2 -32q0 -59 28.5 -89t78.5 -30q61 0 101 45.5t60 141.5l72 338l7 32l-69 24l5 16h187v-16l-79 -24l-7 -32l-72 -338q-28 -131 -94 -190.5t-185 -59.5q-121 0 -184 57t-63 148q0 27 6 55l70 328l7 31l-52 25z" />
<glyph unicode="&#x16f;" d="M557 666q0 -31 -18 -56.5t-48.5 -40.5t-67.5 -15q-42 0 -66.5 21t-24.5 58q0 32 18 57.5t48.5 40t67.5 14.5q42 0 66.5 -21t24.5 -58zM405 636q0 -16 8 -25.5t21 -9.5q21 0 35.5 18t14.5 45q0 34 -29 34q-21 0 -35.5 -18t-14.5 -44zM423 219h-3q-47 -113 -106.5 -171 t-124.5 -58q-46 0 -74.5 27.5t-28.5 73.5q0 27 8 67.5t19 83.5t20 78q6 24 9.5 41t3.5 24q0 14 -10 14t-30 -24.5t-44 -56.5l-9 5q17 48 45 91t67 69.5t88 26.5q50 0 75 -30t25 -83q0 -17 -2.5 -36.5t-7.5 -40.5q-7 -37 -17.5 -74t-18 -67.5t-7.5 -48.5q0 -7 3 -12t10 -5 q15 0 36 29t42.5 76t35.5 102l38 180q6 0 25.5 1t46 2t52.5 2t45 1.5t23 0.5q21 0 16 -17l-36 -170l-22 -101l-7 -33q-13 -64 -13 -72q0 -13 8 -13q11 0 31 25t44 56l10 -5q-14 -48 -40.5 -91t-64.5 -69.5t-87 -26.5q-43 0 -70 24.5t-27 70.5q0 32 7.5 67.5t16.5 66.5z" />
<glyph unicode="&#x170;" horiz-adv-x="685" d="M573 821q0 -49 -66.5 -79.5t-182.5 -35.5l-7 13q44 43 87 92.5t70 84.5q46 0 72.5 -20t26.5 -55zM803 821q0 -49 -66.5 -79.5t-182.5 -35.5l-7 13q44 43 87 92.5t70 84.5q47 0 73 -20t26 -55zM164 650h326v-16l-34 -11q-17 -5 -23.5 -15.5t-10.5 -29.5l-72 -338 q-4 -19 -6 -36t-2 -32q0 -59 28.5 -89t78.5 -30q61 0 101 45.5t60 141.5l72 338l7 32l-69 24l5 16h187v-16l-79 -24l-7 -32l-72 -338q-28 -131 -94 -190.5t-185 -59.5q-121 0 -184 57t-63 148q0 27 6 55l70 328l7 31l-52 25z" />
<glyph unicode="&#x171;" d="M464 670q0 -49 -66.5 -79.5t-182.5 -35.5l-7 13q44 43 87 92.5t70 84.5q46 0 72.5 -20t26.5 -55zM694 670q0 -49 -66.5 -79.5t-182.5 -35.5l-7 13q44 43 87 92.5t70 84.5q47 0 73 -20t26 -55zM423 219h-3q-47 -113 -106.5 -171t-124.5 -58q-46 0 -74.5 27.5t-28.5 73.5 q0 27 8 67.5t19 83.5t20 78q6 24 9.5 41t3.5 24q0 14 -10 14t-30 -24.5t-44 -56.5l-9 5q17 48 45 91t67 69.5t88 26.5q50 0 75 -30t25 -83q0 -17 -2.5 -36.5t-7.5 -40.5q-7 -37 -17.5 -74t-18 -67.5t-7.5 -48.5q0 -7 3 -12t10 -5q15 0 36 29t42.5 76t35.5 102l38 180 q6 0 25.5 1t46 2t52.5 2t45 1.5t23 0.5q21 0 16 -17l-36 -170l-22 -101l-7 -33q-13 -64 -13 -72q0 -13 8 -13q11 0 31 25t44 56l10 -5q-14 -48 -40.5 -91t-64.5 -69.5t-87 -26.5q-43 0 -70 24.5t-27 70.5q0 32 7.5 67.5t16.5 66.5z" />
<glyph unicode="&#x172;" horiz-adv-x="685" d="M495 -63q-31 -70 -77.5 -112t-93.5 -42q-32 0 -49 16.5t-17 43.5q0 43 44 82.5t107 65.5q-16 -1 -34 -1q-121 0 -184 57t-63 148q0 27 6 55l70 328l7 31l-52 25l5 16h326v-16l-34 -11q-17 -5 -23.5 -15.5t-10.5 -29.5l-72 -338q-4 -19 -6 -36t-2 -32q0 -59 28.5 -89 t78.5 -30q61 0 101 45.5t60 141.5l72 338l7 32l-69 24l5 16h187v-16l-79 -24l-7 -32l-72 -338q-19 -88 -54 -143t-91 -81q-55 -31 -80.5 -55.5t-25.5 -46.5q0 -19 17 -19q22 0 67 48z" />
<glyph unicode="&#x173;" d="M423 219h-3q-47 -113 -106.5 -171t-124.5 -58q-46 0 -74.5 27.5t-28.5 73.5q0 27 8 67.5t19 83.5t20 78q6 24 9.5 41t3.5 24q0 14 -10 14t-30 -24.5t-44 -56.5l-9 5q17 48 45 91t67 69.5t88 26.5q50 0 75 -30t25 -83q0 -17 -2.5 -36.5t-7.5 -40.5q-7 -37 -17.5 -74 t-18 -67.5t-7.5 -48.5q0 -7 3 -12t10 -5q15 0 36 29t42.5 76t35.5 102l38 180q6 0 25.5 1t46 2t52.5 2t45 1.5t23 0.5q21 0 16 -17l-36 -170l-22 -101l-7 -33q-13 -64 -13 -72q0 -13 8 -13q11 0 31 25t44 56l10 -5q-8 -26 -19 -50.5t-26 -46.5q-18 -29 -41.5 -62t-40.5 -61 t-17 -43q0 -19 17 -19q22 0 67 48l8 -6q-31 -70 -76 -112t-92 -42q-32 0 -48.5 17t-16.5 44q0 29 19.5 55t49 50t61.5 46q-18 -5 -37 -5q-43 0 -70 24.5t-27 70.5q0 32 7.5 67.5t16.5 66.5z" />
<glyph unicode="&#x174;" horiz-adv-x="1044" d="M848 718l-11 -7q-67 33 -142 60q-39 -13 -82.5 -28.5t-87.5 -31.5l-7 8q33 41 66 84.5t56 76.5l13 8h141q18 -44 31.5 -89.5t22.5 -80.5zM1038 480l-263 -480h-115l-46 418l-218 -418h-115l-81 572q-6 36 -35 49l-30 13l5 16h342l-1 -16l-62 -23l41 -402l145 290l-8 73 q-2 19 -11 30.5t-24 18.5l-27 13l5 16h351l-1 -16l-73 -26l28 -400l196 400l-69 26l5 16h203l-1 -16q-16 -6 -28 -13t-25 -17q-22 -17 -42 -46t-46 -78z" />
<glyph unicode="&#x175;" horiz-adv-x="877" d="M712 568l-11 -7q-67 33 -142 60q-39 -13 -82.5 -28.5t-87.5 -31.5l-7 8q33 41 66 84.5t56 76.5l13 8h141q18 -44 31.5 -89.5t22.5 -80.5zM516 510q62 0 98 -34t36 -118q0 -65 -10.5 -138.5t-32.5 -165.5q45 61 70 121.5t34.5 116.5t9.5 104q0 30 -3 54t-8 41 q14 7 41.5 13t50.5 6q59 0 94 -30.5t35 -91.5q0 -66 -43.5 -134.5t-125 -135t-194.5 -128.5l-135 9q1 50 1.5 90t0.5 77q-54 -91 -153 -176l-135 9q1 47 2 90t1 80q0 79 -1.5 125.5t-4.5 69t-7.5 29t-10.5 6.5q-14 0 -36.5 -26t-42.5 -55l-10 5q15 46 44 88.5t71.5 70.5 t97.5 28q51 0 82.5 -36.5t31.5 -125.5q0 -60 -9.5 -126.5t-29.5 -149.5q58 78 86 161t28 163q0 30 -3 54t-8 41q14 7 40 13t48 6z" />
<glyph unicode="&#x176;" horiz-adv-x="605" d="M639 718l-11 -7q-67 33 -142 60q-39 -13 -82.5 -28.5t-87.5 -31.5l-7 8q33 41 66 84.5t56 76.5l13 8h141q18 -44 31.5 -89.5t22.5 -80.5zM465 0h-326v16l34 11q17 5 23.5 15.5t10.5 29.5l26 125q7 33 9 78t-1.5 93t-11.5 89t-21 66.5t-30 25.5q-18 0 -39.5 -26t-41.5 -55 l-12 5q15 46 42.5 88.5t67.5 70.5t90 28q65 0 102.5 -47t52 -127.5t9.5 -180.5q66 177 126 266t108 89q30 0 44 -26t18 -66.5t3 -83.5l-11 -6q-7 32 -17 54t-31 22q-22 0 -50.5 -26.5t-59 -71t-58.5 -99t-49.5 -111.5t-32.5 -108l-14 -66l-7 -31l52 -25z" />
<glyph unicode="&#x177;" horiz-adv-x="604" d="M561 568l-11 -7q-67 33 -142 60q-39 -13 -82.5 -28.5t-87.5 -31.5l-7 8q33 41 66 84.5t56 76.5l13 8h141q18 -44 31.5 -89.5t22.5 -80.5zM373 341q0 -44 -9 -98.5t-26.5 -111.5t-43.5 -111q59 59 91.5 124.5t45.5 130.5t13 121q0 30 -3 54t-8 41q14 7 40 13t54 6 q61 0 94 -35t33 -97q0 -76 -44 -151t-128 -138t-206 -102q-29 -51 -66.5 -92t-83.5 -65t-100 -24q-51 0 -82 23t-31 56q0 28 25 47.5t62 22.5q3 -14 7.5 -34.5t12.5 -36t22 -15.5q16 0 32 32.5t30 85t25 114.5t17 122.5t6 107.5q0 28 -2.5 48t-14.5 20q-15 0 -36.5 -26 t-41.5 -55l-10 5q15 46 43 88.5t69.5 70.5t95.5 28q57 0 87.5 -38.5t30.5 -130.5z" />
<glyph unicode="&#x178;" horiz-adv-x="605" d="M464 815q0 -29 -16.5 -52t-43.5 -36t-58 -13q-39 0 -62 19.5t-23 52.5q0 28 17.5 50.5t44.5 36t57 13.5q39 0 61.5 -19t22.5 -52zM720 815q0 -29 -16.5 -52t-43.5 -36t-58 -13q-39 0 -62 19.5t-23 52.5q0 28 17 50.5t44.5 36t57.5 13.5q39 0 61.5 -19t22.5 -52zM465 0 h-326v16l34 11q17 5 23.5 15.5t10.5 29.5l26 125q7 33 9 78t-1.5 93t-11.5 89t-21 66.5t-30 25.5q-18 0 -39.5 -26t-41.5 -55l-12 5q15 46 42.5 88.5t67.5 70.5t90 28q65 0 102.5 -47t52 -127.5t9.5 -180.5q66 177 126 266t108 89q30 0 44 -26t18 -66.5t3 -83.5l-11 -6 q-7 32 -17 54t-31 22q-22 0 -50.5 -26.5t-59 -71t-58.5 -99t-49.5 -111.5t-32.5 -108l-14 -66l-7 -31l52 -25z" />
<glyph unicode="&#x179;" d="M636 821q0 -49 -76 -79.5t-207 -35.5l-7 13q44 43 87 92.5t70 84.5q62 0 97.5 -20t35.5 -55zM639 208q0 -33 -5.5 -71t-14.5 -74t-20 -63h-526l-10 85l415 525h-146l-173 -214h-10q-3 21 -3 47q0 50 11.5 107t27.5 100h521l10 -80l-410 -530h146l173 214h10 q2 -10 3 -21.5t1 -24.5z" />
<glyph unicode="&#x17a;" horiz-adv-x="452" d="M507 670q0 -49 -76 -79.5t-207 -35.5l-7 13q44 43 87 92.5t70 84.5q62 0 97.5 -20t35.5 -55zM135 25q-37 0 -66 -9t-51 -26l-16 20q70 70 138.5 139.5t131.5 140.5q-28 8 -58.5 14t-58.5 6q-31 0 -47.5 -10.5t-34.5 -44.5l-10 3q19 136 52.5 194t98.5 58q28 0 55.5 -17 t52.5 -41.5t46 -48.5q21 26 41 53t39 54q35 -1 56.5 -17.5t21.5 -44.5q0 -29 -19.5 -52t-57.5 -50q-45 -32 -107 -77t-144 -101q30 11 59 11q46 0 85.5 -6t67.5 -6q38 0 74 70l10 -4q-14 -63 -29.5 -118.5t-40 -90t-66.5 -34.5q-31 0 -67 9t-75 17.5t-81 8.5z" />
<glyph unicode="&#x17b;" d="M608 820q0 -34 -19.5 -59.5t-50.5 -39.5t-67 -14q-44 0 -70.5 20.5t-26.5 55.5q0 33 20 58.5t51.5 39.5t65.5 14q45 0 71 -20t26 -55zM639 208q0 -33 -5.5 -71t-14.5 -74t-20 -63h-526l-10 85l415 525h-146l-173 -214h-10q-3 21 -3 47q0 50 11.5 107t27.5 100h521l10 -80 l-410 -530h146l173 214h10q2 -10 3 -21.5t1 -24.5z" />
<glyph unicode="&#x17c;" horiz-adv-x="452" d="M476 669q0 -34 -19.5 -59.5t-50.5 -39.5t-67 -14q-44 0 -70.5 20.5t-26.5 55.5q0 33 20 58.5t51.5 39.5t65.5 14q45 0 71 -20t26 -55zM135 25q-37 0 -66 -9t-51 -26l-16 20q70 70 138.5 139.5t131.5 140.5q-28 8 -58.5 14t-58.5 6q-31 0 -47.5 -10.5t-34.5 -44.5l-10 3 q19 136 52.5 194t98.5 58q28 0 55.5 -17t52.5 -41.5t46 -48.5q21 26 41 53t39 54q35 -1 56.5 -17.5t21.5 -44.5q0 -29 -19.5 -52t-57.5 -50q-45 -32 -107 -77t-144 -101q30 11 59 11q46 0 85.5 -6t67.5 -6q38 0 74 70l10 -4q-14 -63 -29.5 -118.5t-40 -90t-66.5 -34.5 q-31 0 -67 9t-75 17.5t-81 8.5z" />
<glyph unicode="&#x17d;" d="M553 719l-13 -8h-141q-18 44 -31.5 90t-22.5 80l11 7q67 -33 142 -60q39 13 82.5 28.5t87.5 31.5l7 -8q-33 -41 -66 -84.5t-56 -76.5zM639 208q0 -33 -5.5 -71t-14.5 -74t-20 -63h-526l-10 85l415 525h-146l-173 -214h-10q-3 21 -3 47q0 50 11.5 107t27.5 100h521l10 -80 l-410 -530h146l173 214h10q2 -10 3 -21.5t1 -24.5z" />
<glyph unicode="&#x17e;" horiz-adv-x="452" d="M416 570l-13 -8h-141q-18 44 -31.5 90t-22.5 80l11 7q67 -33 142 -60q39 13 82.5 28.5t87.5 31.5l7 -8q-33 -41 -66 -84.5t-56 -76.5zM135 25q-37 0 -66 -9t-51 -26l-16 20q70 70 138.5 139.5t131.5 140.5q-28 8 -58.5 14t-58.5 6q-31 0 -47.5 -10.5t-34.5 -44.5l-10 3 q19 136 52.5 194t98.5 58q28 0 55.5 -17t52.5 -41.5t46 -48.5q21 26 41 53t39 54q35 -1 56.5 -17.5t21.5 -44.5q0 -29 -19.5 -52t-57.5 -50q-45 -32 -107 -77t-144 -101q30 11 59 11q46 0 85.5 -6t67.5 -6q38 0 74 70l10 -4q-14 -63 -29.5 -118.5t-40 -90t-66.5 -34.5 q-31 0 -67 9t-75 17.5t-81 8.5z" />
<glyph unicode="&#x18f;" horiz-adv-x="697" d="M78 212q0 60 17 113l16 14h382q10 53 15.5 104t5.5 91q0 86 -48 86q-25 0 -47 -16.5t-38.5 -43.5t-26.5 -58t-10 -60q-53 -34 -135 -34q-39 0 -61.5 14.5t-22.5 39.5q0 40 31 76t81.5 63.5t110.5 43t117 15.5q134 0 209 -68.5t75 -190.5q0 -84 -31 -158t-87 -131 t-131 -89.5t-163 -32.5q-127 0 -193 56.5t-66 165.5zM298 141q0 -47 11.5 -79t37.5 -32q28 0 53.5 38t47 99.5t37.5 131.5l-169 -8q-8 -33 -13 -71t-5 -79z" />
<glyph unicode="&#x192;" horiz-adv-x="609" d="M376 124q-15 -58 -48 -106t-77.5 -83t-95.5 -53.5t-103 -18.5q-45 0 -71.5 17.5t-26.5 46.5t26 56.5t84 43.5q0 -19 1.5 -42t8.5 -40t25 -17t35 18t31.5 61t22.5 116l16 152h-103l11 45h97l5 48q9 80 40.5 135.5t78 90t102 50.5t111.5 16q43 0 80.5 -11t60.5 -33t23 -56 q0 -39 -33.5 -68t-77.5 -37q-5 44 -13 81t-19 59.5t-28 22.5q-28 0 -45.5 -54.5t-43.5 -153.5l-23 -90h149l-11 -45h-150z" />
<glyph unicode="&#x19d;" horiz-adv-x="684" d="M150 26q-12 -57 -34.5 -95t-60 -67t-95.5 -59l-7 11q43 31 72.5 59.5t49.5 67.5t33 99l121 567l-68 25l5 16h207l225 -421l74 349l7 31l-78 25l5 16h197v-16l-50 -15q-19 -6 -25.5 -14.5t-10.5 -26.5l-123 -578h-135l-223 432z" />
<glyph unicode="&#x1cd;" horiz-adv-x="698" d="M576 719l-13 -8h-141q-18 44 -31.5 90t-22.5 80l11 7q67 -33 142 -60q39 13 82.5 28.5t87.5 31.5l7 -8q-33 -41 -66 -84.5t-56 -76.5zM424 650h115l101 -572q5 -34 35 -49l26 -13l-5 -16h-353l1 16l68 25l-17 123l-207 -2l-71 -123l63 -23l-5 -16h-173l1 16l34 11 q23 8 34.5 21t24.5 36zM212 203l178 -2l-34 250z" />
<glyph unicode="&#x1ce;" horiz-adv-x="624" d="M504 570l-13 -8h-141q-18 44 -31.5 90t-22.5 80l11 7q67 -33 142 -60q39 13 82.5 28.5t87.5 31.5l7 -8q-33 -41 -66 -84.5t-56 -76.5zM62 140q0 69 24.5 135t72.5 119t117 84.5t158 31.5q65 0 128.5 -12t109.5 -32l-26 -69l-48 -217q-6 -24 -9.5 -41t-3.5 -24 q0 -14 10 -14t30 25t44 56l9 -5q-16 -48 -44.5 -91t-67.5 -69.5t-88 -26.5q-50 0 -75 30.5t-25 82.5q0 17 3 36.5t7 40.5l10 40h-3q-46 -112 -100 -171t-112 -59q-60 0 -90.5 44t-30.5 106zM445 429l10 31q-18 15 -38 15q-22 0 -43.5 -25t-41 -64.5t-34.5 -84.5t-23.5 -87.5 t-8.5 -71.5q0 -19 3.5 -30t14.5 -11t27 21t34 56.5t36.5 78.5t35 87.5t28.5 84.5z" />
<glyph unicode="&#x1cf;" horiz-adv-x="382" d="M423 719l-13 -8h-141q-18 44 -31.5 90t-22.5 80l11 7q67 -33 142 -60q39 13 82.5 28.5t87.5 31.5l7 -8q-33 -41 -66 -84.5t-56 -76.5zM355 0h-326v16l34 11q17 5 23.5 15.5t10.5 29.5l107 506l7 31l-52 25l5 16h326v-16l-34 -11q-17 -5 -23.5 -15.5t-10.5 -29.5 l-107 -506l-7 -31l52 -25z" />
<glyph unicode="&#x1d0;" horiz-adv-x="334" d="M342 569l-13 -8h-141q-11 44 -19.5 90t-14.5 80l11 7q58 -32 123 -58q34 13 72 28t77 30l7 -8q-28 -41 -55 -84.5t-47 -76.5zM98 180q8 37 18 74t17 66q6 24 9.5 41t3.5 24q0 14 -10 14t-30 -24.5t-44 -56.5l-9 5q17 48 45 91t67 69.5t88 26.5q50 0 75 -30t25 -83 q0 -17 -2.5 -36.5t-7.5 -40.5q-7 -35 -17 -72t-18 -68q-6 -24 -9.5 -41t-3.5 -24q0 -14 10 -14t30 25t44 56l9 -5q-16 -48 -44.5 -91t-67.5 -69.5t-88 -26.5q-50 0 -75 30.5t-25 82.5q0 17 3 36.5t7 40.5z" />
<glyph unicode="&#x1d1;" horiz-adv-x="727" d="M594 719l-13 -8h-141q-18 44 -31.5 90t-22.5 80l11 7q67 -33 142 -60q39 13 82.5 28.5t87.5 31.5l7 -8q-33 -41 -66 -84.5t-56 -76.5zM778 400q0 -87 -31.5 -162t-88 -130.5t-130 -86.5t-157.5 -31q-91 0 -154.5 33t-97 90.5t-33.5 131.5q0 90 32.5 165.5t89.5 131.5 t131 87t157 31q132 0 207 -70t75 -190zM321 124q0 -49 12 -71.5t38 -22.5q25 0 50 33t47 88t39 121.5t26.5 134.5t9.5 126q0 87 -49 87q-26 0 -51 -32t-47 -86t-39 -119t-26.5 -132.5t-9.5 -126.5z" />
<glyph unicode="&#x1d2;" horiz-adv-x="607" d="M498 570l-13 -8h-141q-18 44 -31.5 90t-22.5 80l11 7q67 -33 142 -60q39 13 82.5 28.5t87.5 31.5l7 -8q-33 -41 -66 -84.5t-56 -76.5zM640 302q0 -69 -26 -126.5t-71.5 -99t-105 -64.5t-125.5 -23q-112 0 -175.5 55t-63.5 155q0 66 26 123t72 99t105.5 65.5t126.5 23.5 q76 0 129 -28t80.5 -75t27.5 -105zM291 131q0 -46 6.5 -73.5t22.5 -27.5q17 0 32 26.5t27.5 69t21.5 91t14 93t5 73.5q0 87 -29 87q-17 0 -32 -24t-27.5 -62.5t-21.5 -84.5t-14 -90t-5 -78z" />
<glyph unicode="&#x1d3;" horiz-adv-x="685" d="M622 719l-13 -8h-141q-18 44 -31.5 90t-22.5 80l11 7q67 -33 142 -60q39 13 82.5 28.5t87.5 31.5l7 -8q-33 -41 -66 -84.5t-56 -76.5zM164 650h326v-16l-34 -11q-17 -5 -23.5 -15.5t-10.5 -29.5l-72 -338q-4 -19 -6 -36t-2 -32q0 -59 28.5 -89t78.5 -30q61 0 101 45.5 t60 141.5l72 338l7 32l-69 24l5 16h187v-16l-79 -24l-7 -32l-72 -338q-28 -131 -94 -190.5t-185 -59.5q-121 0 -184 57t-63 148q0 27 6 55l70 328l7 31l-52 25z" />
<glyph unicode="&#x1d4;" d="M503 570l-13 -8h-141q-18 44 -31.5 90t-22.5 80l11 7q67 -33 142 -60q39 13 82.5 28.5t87.5 31.5l7 -8q-33 -41 -66 -84.5t-56 -76.5zM423 219h-3q-47 -113 -106.5 -171t-124.5 -58q-46 0 -74.5 27.5t-28.5 73.5q0 27 8 67.5t19 83.5t20 78q6 24 9.5 41t3.5 24 q0 14 -10 14t-30 -24.5t-44 -56.5l-9 5q17 48 45 91t67 69.5t88 26.5q50 0 75 -30t25 -83q0 -17 -2.5 -36.5t-7.5 -40.5q-7 -37 -17.5 -74t-18 -67.5t-7.5 -48.5q0 -7 3 -12t10 -5q15 0 36 29t42.5 76t35.5 102l38 180q6 0 25.5 1t46 2t52.5 2t45 1.5t23 0.5q21 0 16 -17 l-36 -170l-22 -101l-7 -33q-13 -64 -13 -72q0 -13 8 -13q11 0 31 25t44 56l10 -5q-14 -48 -40.5 -91t-64.5 -69.5t-87 -26.5q-43 0 -70 24.5t-27 70.5q0 32 7.5 67.5t16.5 66.5z" />
<glyph unicode="&#x1d5;" horiz-adv-x="685" d="M429 982l23 106h342l-23 -106h-342zM533 815q0 -29 -16.5 -52t-43.5 -36t-58 -13q-39 0 -62 19.5t-23 52.5q0 28 17.5 50.5t44.5 36t57 13.5q39 0 61.5 -19t22.5 -52zM789 815q0 -29 -16.5 -52t-43.5 -36t-58 -13q-39 0 -62 19.5t-23 52.5q0 28 17 50.5t44.5 36 t57.5 13.5q39 0 61.5 -19t22.5 -52zM164 650h326v-16l-34 -11q-17 -5 -23.5 -15.5t-10.5 -29.5l-72 -338q-4 -19 -6 -36t-2 -32q0 -59 28.5 -89t78.5 -30q61 0 101 45.5t60 141.5l72 338l7 32l-69 24l5 16h187v-16l-79 -24l-7 -32l-72 -338q-28 -131 -94 -190.5t-185 -59.5 q-121 0 -184 57t-63 148q0 27 6 55l70 328l7 31l-52 25z" />
<glyph unicode="&#x1d6;" d="M313 828l23 106h342l-23 -106h-342zM420 665q0 -29 -16.5 -52t-43.5 -36t-58 -13q-39 0 -62 19.5t-23 52.5q0 28 17.5 50.5t44.5 36t57 13.5q39 0 61.5 -19t22.5 -52zM676 665q0 -29 -16.5 -52t-43.5 -36t-58 -13q-39 0 -62 19.5t-23 52.5q0 28 17 50.5t44.5 36 t57.5 13.5q39 0 61.5 -19t22.5 -52zM423 219h-3q-47 -113 -106.5 -171t-124.5 -58q-46 0 -74.5 27.5t-28.5 73.5q0 27 8 67.5t19 83.5t20 78q6 24 9.5 41t3.5 24q0 14 -10 14t-30 -24.5t-44 -56.5l-9 5q17 48 45 91t67 69.5t88 26.5q50 0 75 -30t25 -83q0 -17 -2.5 -36.5 t-7.5 -40.5q-7 -37 -17.5 -74t-18 -67.5t-7.5 -48.5q0 -7 3 -12t10 -5q15 0 36 29t42.5 76t35.5 102l38 180q6 0 25.5 1t46 2t52.5 2t45 1.5t23 0.5q21 0 16 -17l-36 -170l-22 -101l-7 -33q-13 -64 -13 -72q0 -13 8 -13q11 0 31 25t44 56l10 -5q-14 -48 -40.5 -91 t-64.5 -69.5t-87 -26.5q-43 0 -70 24.5t-27 70.5q0 32 7.5 67.5t16.5 66.5z" />
<glyph unicode="&#x1d7;" horiz-adv-x="685" d="M757 1056q0 -49 -76 -79.5t-207 -35.5l-7 13q44 43 87 92.5t70 84.5q62 0 97.5 -20t35.5 -55zM533 815q0 -29 -16.5 -52t-43.5 -36t-58 -13q-39 0 -62 19.5t-23 52.5q0 28 17.5 50.5t44.5 36t57 13.5q39 0 61.5 -19t22.5 -52zM789 815q0 -29 -16.5 -52t-43.5 -36t-58 -13 q-39 0 -62 19.5t-23 52.5q0 28 17 50.5t44.5 36t57.5 13.5q39 0 61.5 -19t22.5 -52zM164 650h326v-16l-34 -11q-17 -5 -23.5 -15.5t-10.5 -29.5l-72 -338q-4 -19 -6 -36t-2 -32q0 -59 28.5 -89t78.5 -30q61 0 101 45.5t60 141.5l72 338l7 32l-69 24l5 16h187v-16l-79 -24 l-7 -32l-72 -338q-28 -131 -94 -190.5t-185 -59.5q-121 0 -184 57t-63 148q0 27 6 55l70 328l7 31l-52 25z" />
<glyph unicode="&#x1d8;" d="M643 901q0 -49 -76 -79.5t-207 -35.5l-7 13q44 43 87 92.5t70 84.5q62 0 97.5 -20t35.5 -55zM420 665q0 -29 -16.5 -52t-43.5 -36t-58 -13q-39 0 -62 19.5t-23 52.5q0 28 17.5 50.5t44.5 36t57 13.5q39 0 61.5 -19t22.5 -52zM676 665q0 -29 -16.5 -52t-43.5 -36t-58 -13 q-39 0 -62 19.5t-23 52.5q0 28 17 50.5t44.5 36t57.5 13.5q39 0 61.5 -19t22.5 -52zM423 219h-3q-47 -113 -106.5 -171t-124.5 -58q-46 0 -74.5 27.5t-28.5 73.5q0 27 8 67.5t19 83.5t20 78q6 24 9.5 41t3.5 24q0 14 -10 14t-30 -24.5t-44 -56.5l-9 5q17 48 45 91t67 69.5 t88 26.5q50 0 75 -30t25 -83q0 -17 -2.5 -36.5t-7.5 -40.5q-7 -37 -17.5 -74t-18 -67.5t-7.5 -48.5q0 -7 3 -12t10 -5q15 0 36 29t42.5 76t35.5 102l38 180q6 0 25.5 1t46 2t52.5 2t45 1.5t23 0.5q21 0 16 -17l-36 -170l-22 -101l-7 -33q-13 -64 -13 -72q0 -13 8 -13 q11 0 31 25t44 56l10 -5q-14 -48 -40.5 -91t-64.5 -69.5t-87 -26.5q-43 0 -70 24.5t-27 70.5q0 32 7.5 67.5t16.5 66.5z" />
<glyph unicode="&#x1d9;" horiz-adv-x="685" d="M672 954l-13 -8h-141q-18 44 -31.5 90t-22.5 80l11 7q67 -33 142 -60q39 13 82.5 28.5t87.5 31.5l7 -8q-33 -41 -66 -84.5t-56 -76.5zM533 815q0 -29 -16.5 -52t-43.5 -36t-58 -13q-39 0 -62 19.5t-23 52.5q0 28 17.5 50.5t44.5 36t57 13.5q39 0 61.5 -19t22.5 -52z M789 815q0 -29 -16.5 -52t-43.5 -36t-58 -13q-39 0 -62 19.5t-23 52.5q0 28 17 50.5t44.5 36t57.5 13.5q39 0 61.5 -19t22.5 -52zM164 650h326v-16l-34 -11q-17 -5 -23.5 -15.5t-10.5 -29.5l-72 -338q-4 -19 -6 -36t-2 -32q0 -59 28.5 -89t78.5 -30q61 0 101 45.5t60 141.5 l72 338l7 32l-69 24l5 16h187v-16l-79 -24l-7 -32l-72 -338q-28 -131 -94 -190.5t-185 -59.5q-121 0 -184 57t-63 148q0 27 6 55l70 328l7 31l-52 25z" />
<glyph unicode="&#x1da;" d="M552 801l-13 -8h-141q-18 44 -31.5 90t-22.5 80l11 7q67 -33 142 -60q39 13 82.5 28.5t87.5 31.5l7 -8q-33 -41 -66 -84.5t-56 -76.5zM420 665q0 -29 -16.5 -52t-43.5 -36t-58 -13q-39 0 -62 19.5t-23 52.5q0 28 17.5 50.5t44.5 36t57 13.5q39 0 61.5 -19t22.5 -52z M676 665q0 -29 -16.5 -52t-43.5 -36t-58 -13q-39 0 -62 19.5t-23 52.5q0 28 17 50.5t44.5 36t57.5 13.5q39 0 61.5 -19t22.5 -52zM423 219h-3q-47 -113 -106.5 -171t-124.5 -58q-46 0 -74.5 27.5t-28.5 73.5q0 27 8 67.5t19 83.5t20 78q6 24 9.5 41t3.5 24q0 14 -10 14 t-30 -24.5t-44 -56.5l-9 5q17 48 45 91t67 69.5t88 26.5q50 0 75 -30t25 -83q0 -17 -2.5 -36.5t-7.5 -40.5q-7 -37 -17.5 -74t-18 -67.5t-7.5 -48.5q0 -7 3 -12t10 -5q15 0 36 29t42.5 76t35.5 102l38 180q6 0 25.5 1t46 2t52.5 2t45 1.5t23 0.5q21 0 16 -17l-36 -170 l-22 -101l-7 -33q-13 -64 -13 -72q0 -13 8 -13q11 0 31 25t44 56l10 -5q-14 -48 -40.5 -91t-64.5 -69.5t-87 -26.5q-43 0 -70 24.5t-27 70.5q0 32 7.5 67.5t16.5 66.5z" />
<glyph unicode="&#x1db;" horiz-adv-x="685" d="M736 948l-10 -11q-115 14 -177 45.5t-62 74.5q0 41 34 58.5t83 17.5q13 0 23 -0.5t17 -1.5q14 -35 39.5 -86t52.5 -97zM533 815q0 -29 -16.5 -52t-43.5 -36t-58 -13q-39 0 -62 19.5t-23 52.5q0 28 17.5 50.5t44.5 36t57 13.5q39 0 61.5 -19t22.5 -52zM789 815 q0 -29 -16.5 -52t-43.5 -36t-58 -13q-39 0 -62 19.5t-23 52.5q0 28 17 50.5t44.5 36t57.5 13.5q39 0 61.5 -19t22.5 -52zM164 650h326v-16l-34 -11q-17 -5 -23.5 -15.5t-10.5 -29.5l-72 -338q-4 -19 -6 -36t-2 -32q0 -59 28.5 -89t78.5 -30q61 0 101 45.5t60 141.5l72 338 l7 32l-69 24l5 16h187v-16l-79 -24l-7 -32l-72 -338q-28 -131 -94 -190.5t-185 -59.5q-121 0 -184 57t-63 148q0 27 6 55l70 328l7 31l-52 25z" />
<glyph unicode="&#x1dc;" d="M618 793l-10 -11q-115 14 -177 45.5t-62 74.5q0 41 34 58.5t83 17.5q13 0 23 -0.5t17 -1.5q14 -35 39.5 -86t52.5 -97zM420 665q0 -29 -16.5 -52t-43.5 -36t-58 -13q-39 0 -62 19.5t-23 52.5q0 28 17.5 50.5t44.5 36t57 13.5q39 0 61.5 -19t22.5 -52zM676 665 q0 -29 -16.5 -52t-43.5 -36t-58 -13q-39 0 -62 19.5t-23 52.5q0 28 17 50.5t44.5 36t57.5 13.5q39 0 61.5 -19t22.5 -52zM423 219h-3q-47 -113 -106.5 -171t-124.5 -58q-46 0 -74.5 27.5t-28.5 73.5q0 27 8 67.5t19 83.5t20 78q6 24 9.5 41t3.5 24q0 14 -10 14t-30 -24.5 t-44 -56.5l-9 5q17 48 45 91t67 69.5t88 26.5q50 0 75 -30t25 -83q0 -17 -2.5 -36.5t-7.5 -40.5q-7 -37 -17.5 -74t-18 -67.5t-7.5 -48.5q0 -7 3 -12t10 -5q15 0 36 29t42.5 76t35.5 102l38 180q6 0 25.5 1t46 2t52.5 2t45 1.5t23 0.5q21 0 16 -17l-36 -170l-22 -101l-7 -33 q-13 -64 -13 -72q0 -13 8 -13q11 0 31 25t44 56l10 -5q-14 -48 -40.5 -91t-64.5 -69.5t-87 -26.5q-43 0 -70 24.5t-27 70.5q0 32 7.5 67.5t16.5 66.5z" />
<glyph unicode="&#x1e6;" horiz-adv-x="701" d="M616 719l-13 -8h-141q-18 44 -31.5 90t-22.5 80l11 7q67 -33 142 -60q39 13 82.5 28.5t87.5 31.5l7 -8q-33 -41 -66 -84.5t-56 -76.5zM629 16q-53 -13 -104 -19.5t-116 -6.5q-97 0 -169 31.5t-111.5 93t-39.5 149.5q0 90 34.5 162.5t95.5 125t140.5 80.5t169.5 28 q64 0 119.5 -9t92.5 -25q-4 -34 -18.5 -73.5t-33.5 -77t-38 -66.5h-10l-78 211h-19q-43 0 -82.5 -28.5t-70.5 -79.5t-49 -117.5t-18 -141.5q0 -60 14 -108.5t38.5 -78.5t57.5 -35l51 216l7 31l-48 25l6 16h301l-2 -16l-29 -10q-19 -7 -25.5 -16.5t-11.5 -29.5z" />
<glyph unicode="&#x1e7;" horiz-adv-x="542" d="M440 570l-13 -8h-141q-18 44 -31.5 90t-22.5 80l11 7q67 -33 142 -60q39 13 82.5 28.5t87.5 31.5l7 -8q-33 -41 -66 -84.5t-56 -76.5zM545 -51q0 -46 -39.5 -78.5t-108.5 -49t-156 -16.5q-71 0 -134 13.5t-101.5 38.5t-38.5 58q0 32 39 56.5t104 28.5l8 -6 q2 -43 17 -78.5t44.5 -56.5t73.5 -21q26 0 46 11.5t20 32.5q0 15 -18 27.5t-44 24.5t-52.5 25.5t-44.5 31.5t-18 42q0 32 39 60t120 50h-5q-68 0 -119.5 19.5t-80.5 54t-29 80.5q0 59 37 107t101.5 77t148.5 29q89 0 157 0.5t120 12.5q2 -4 3.5 -14t1.5 -21q0 -38 -11.5 -58 t-38.5 -20q-17 0 -45.5 9.5t-56.5 22.5l-1 -3q27 -18 53 -48.5t26 -70.5q0 -43 -23 -73t-56.5 -50.5t-67.5 -35t-57 -26t-23 -22.5q0 -13 21 -23t52.5 -20.5t63 -25.5t52.5 -37.5t21 -57.5zM271 263q0 -32 5.5 -56t24.5 -23q13 0 23.5 22t18 56.5t11.5 73.5t4 72 q0 30 -5.5 51t-22.5 20q-13 0 -24 -20t-19 -52t-12 -70t-4 -74z" />
<glyph unicode="&#x1ea;" horiz-adv-x="727" d="M495 -63q-31 -70 -77.5 -112t-93.5 -42q-32 0 -49 16.5t-17 43.5q0 43 44 82.5t107 66.5q-19 -2 -38 -2q-91 0 -154.5 33t-97 90.5t-33.5 131.5q0 90 32.5 165.5t89.5 131.5t131 87t157 31q132 0 207 -70t75 -190q0 -91 -34.5 -168t-94.5 -133.5t-138 -84.5l6 1 q-58 -25 -86 -51.5t-28 -49.5q0 -19 17 -19q22 0 67 48zM321 124q0 -49 12 -71.5t38 -22.5q25 0 50 33t47 88t39 121.5t26.5 134.5t9.5 126q0 87 -49 87q-26 0 -51 -32t-47 -86t-39 -119t-26.5 -132.5t-9.5 -126.5z" />
<glyph unicode="&#x1eb;" horiz-adv-x="607" d="M423 -63q-31 -70 -77.5 -112t-93.5 -42q-32 0 -49 16.5t-17 43.5q0 42 42.5 81t103.5 66q-10 -1 -20 -1q-112 0 -175.5 55t-63.5 155q0 66 26 123t72 99t105.5 65.5t126.5 23.5q76 0 129 -28t80.5 -75t27.5 -105q0 -68 -25.5 -125t-70.5 -99t-103 -65q-56 -25 -83 -51 t-27 -48q0 -19 17 -19q22 0 67 48zM291 131q0 -46 6.5 -73.5t22.5 -27.5q17 0 32 26.5t27.5 69t21.5 91t14 93t5 73.5q0 87 -29 87q-17 0 -32 -24t-27.5 -62.5t-21.5 -84.5t-14 -90t-5 -78z" />
<glyph unicode="&#x1f4;" horiz-adv-x="701" d="M699 821q0 -49 -76 -79.5t-207 -35.5l-7 13q44 43 87 92.5t70 84.5q62 0 97.5 -20t35.5 -55zM629 16q-53 -13 -104 -19.5t-116 -6.5q-97 0 -169 31.5t-111.5 93t-39.5 149.5q0 90 34.5 162.5t95.5 125t140.5 80.5t169.5 28q64 0 119.5 -9t92.5 -25q-4 -34 -18.5 -73.5 t-33.5 -77t-38 -66.5h-10l-78 211h-19q-43 0 -82.5 -28.5t-70.5 -79.5t-49 -117.5t-18 -141.5q0 -60 14 -108.5t38.5 -78.5t57.5 -35l51 216l7 31l-48 25l6 16h301l-2 -16l-29 -10q-19 -7 -25.5 -16.5t-11.5 -29.5z" />
<glyph unicode="&#x1f5;" horiz-adv-x="542" d="M531 670q0 -49 -76 -79.5t-207 -35.5l-7 13q44 43 87 92.5t70 84.5q62 0 97.5 -20t35.5 -55zM545 -51q0 -46 -39.5 -78.5t-108.5 -49t-156 -16.5q-71 0 -134 13.5t-101.5 38.5t-38.5 58q0 32 39 56.5t104 28.5l8 -6q2 -43 17 -78.5t44.5 -56.5t73.5 -21q26 0 46 11.5 t20 32.5q0 15 -18 27.5t-44 24.5t-52.5 25.5t-44.5 31.5t-18 42q0 32 39 60t120 50h-5q-68 0 -119.5 19.5t-80.5 54t-29 80.5q0 59 37 107t101.5 77t148.5 29q89 0 157 0.5t120 12.5q2 -4 3.5 -14t1.5 -21q0 -38 -11.5 -58t-38.5 -20q-17 0 -45.5 9.5t-56.5 22.5l-1 -3 q27 -18 53 -48.5t26 -70.5q0 -43 -23 -73t-56.5 -50.5t-67.5 -35t-57 -26t-23 -22.5q0 -13 21 -23t52.5 -20.5t63 -25.5t52.5 -37.5t21 -57.5zM271 263q0 -32 5.5 -56t24.5 -23q13 0 23.5 22t18 56.5t11.5 73.5t4 72q0 30 -5.5 51t-22.5 20q-13 0 -24 -20t-19 -52t-12 -70 t-4 -74z" />
<glyph unicode="&#x1fa;" horiz-adv-x="698" d="M711 1056q0 -49 -76 -79.5t-207 -35.5l-7 13q44 43 87 92.5t70 84.5q62 0 97.5 -20t35.5 -55zM627 816q0 -31 -18 -56.5t-48.5 -40.5t-67.5 -15q-42 0 -66.5 21t-24.5 58q0 32 18 57.5t48.5 40t67.5 14.5q42 0 66.5 -21t24.5 -58zM475 786q0 -16 8 -25.5t21 -9.5 q21 0 35.5 18t14.5 45q0 34 -29 34q-21 0 -35.5 -18t-14.5 -44zM424 650h115l101 -572q5 -34 35 -49l26 -13l-5 -16h-353l1 16l68 25l-17 123l-207 -2l-71 -123l63 -23l-5 -16h-173l1 16l34 11q23 8 34.5 21t24.5 36zM212 203l178 -2l-34 250z" />
<glyph unicode="&#x1fb;" horiz-adv-x="624" d="M642 901q0 -49 -76 -79.5t-207 -35.5l-7 13q44 43 87 92.5t70 84.5q62 0 97.5 -20t35.5 -55zM558 666q0 -31 -18 -56.5t-48.5 -40.5t-67.5 -15q-42 0 -66.5 21t-24.5 58q0 32 18 57.5t48.5 40t67.5 14.5q42 0 66.5 -21t24.5 -58zM406 636q0 -16 8 -25.5t21 -9.5 q21 0 35.5 18t14.5 45q0 34 -29 34q-21 0 -35.5 -18t-14.5 -44zM62 140q0 69 24.5 135t72.5 119t117 84.5t158 31.5q65 0 128.5 -12t109.5 -32l-26 -69l-48 -217q-6 -24 -9.5 -41t-3.5 -24q0 -14 10 -14t30 25t44 56l9 -5q-16 -48 -44.5 -91t-67.5 -69.5t-88 -26.5 q-50 0 -75 30.5t-25 82.5q0 17 3 36.5t7 40.5l10 40h-3q-46 -112 -100 -171t-112 -59q-60 0 -90.5 44t-30.5 106zM445 429l10 31q-18 15 -38 15q-22 0 -43.5 -25t-41 -64.5t-34.5 -84.5t-23.5 -87.5t-8.5 -71.5q0 -19 3.5 -30t14.5 -11t27 21t34 56.5t36.5 78.5t35 87.5 t28.5 84.5z" />
<glyph unicode="&#x1fc;" horiz-adv-x="897" d="M908 821q0 -49 -76 -79.5t-207 -35.5l-7 13q44 43 87 92.5t70 84.5q62 0 97.5 -20t35.5 -55zM180 16l-5 -16h-173l1 16l34 11q23 8 34.5 21t24.5 36l305 526l-66 24l5 16h649q0 -32 -8.5 -71.5t-22.5 -77t-32 -65.5h-10l-87 174h-97l-57 -270l158 12l-14 -65l-153 13 l-48 -228l-7 -32h103l164 181h10q2 -12 3.5 -25t1.5 -26q0 -43 -10 -88t-24 -82h-526l-1 16l40 13q13 5 19.5 16.5t8.5 26.5l49 229l-181 -2l-151 -260zM515 610h-67l-157 -270l166 -2z" />
<glyph unicode="&#x1fd;" horiz-adv-x="811" d="M705 670q0 -49 -76 -79.5t-207 -35.5l-7 13q44 43 87 92.5t70 84.5q62 0 97.5 -20t35.5 -55zM859 171q-20 -56 -60 -96.5t-91.5 -62.5t-106.5 -22q-94 0 -151.5 54t-57.5 144q0 14 1 29q-46 -111 -99 -169t-111 -58q-60 0 -90.5 44t-30.5 106q0 69 24.5 135t72.5 119 t117 84.5t158 31.5q42 0 85 -5.5t81 -14.5q54 20 113 20q48 0 88 -14.5t64 -43.5t24 -73q0 -69 -67 -116.5t-208 -52.5q6 -49 31.5 -72t64.5 -23q38 0 73.5 17t67.5 45zM284 101q11 0 27 21t34 56.5t36.5 78.5t35 87.5t28.5 84.5l10 31q-18 15 -38 15q-22 0 -43.5 -25 t-41 -64.5t-34.5 -84.5t-23.5 -87.5t-8.5 -71.5q0 -19 3.5 -30t14.5 -11zM646 397l-5 -4q-13 -33 -21 -73t-8 -78q31 10 56.5 40.5t40.5 73t15 86.5q0 12 -5.5 20t-16.5 8t-21.5 -10t-20.5 -27z" />
<glyph unicode="&#x1fe;" horiz-adv-x="727" d="M677 821q0 -49 -76 -79.5t-207 -35.5l-7 13q44 43 87 92.5t70 84.5q62 0 97.5 -20t35.5 -55zM778 400q0 -87 -31.5 -162t-88 -130.5t-130 -86.5t-157.5 -31q-63 0 -113 16.5t-86 45.5l-67 -62l-33 36l65 61q-51 65 -51 158q0 90 32.5 165.5t89.5 131.5t131 87t157 31 q119 0 193 -58l62 58l35 -36l-61 -57q53 -66 53 -167zM494 620q-25 0 -49.5 -30t-46 -80.5t-38 -112.5t-26.5 -127l206 193q3 37 3 70q0 87 -49 87zM321 124q0 -49 12 -71.5t38 -22.5q24 0 48 31t45.5 82.5t38.5 114.5t27 128l-206 -192q-3 -37 -3 -70z" />
<glyph unicode="&#x1ff;" horiz-adv-x="607" d="M589 670q0 -49 -76 -79.5t-207 -35.5l-7 13q44 43 87 92.5t70 84.5q62 0 97.5 -20t35.5 -55zM640 302q0 -69 -26 -126.5t-71.5 -99t-105 -64.5t-125.5 -23q-104 0 -167 48l-51 -44l-26 32l48 41q-43 52 -43 133q0 66 26 123t72 99t105.5 65.5t126.5 23.5q53 0 94.5 -14 t71.5 -38l57 49l26 -32l-54 -47q42 -53 42 -126zM391 470q-16 0 -30.5 -22t-27 -58.5t-21.5 -80t-14 -86.5l119 103q3 34 3 57q0 87 -29 87zM291 131q0 -46 6.5 -73.5t22.5 -27.5q15 0 28.5 21t25 55.5t20.5 76t15 82.5l-117 -101q-1 -18 -1 -33z" />
<glyph unicode="&#x218;" horiz-adv-x="548" d="M120 443q0 54 25 95t68.5 68t99.5 40.5t117 13.5q133 0 197 -42q15 -10 15 -26q0 -22 -18 -54.5t-42.5 -62.5t-44.5 -48l-10 2l-48 189q-14 2 -31 2q-29 0 -56.5 -11.5t-44.5 -33t-17 -52.5q0 -32 17 -58t44.5 -49t57.5 -45.5t57.5 -48.5t44.5 -58.5t17 -74.5 q0 -68 -42.5 -112t-113.5 -65.5t-155 -21.5q-61 0 -118.5 6t-88.5 25q-20 13 -20 38q0 24 15.5 56t38 62.5t42.5 50.5l10 -2l60 -191q12 -2 24.5 -3.5t27.5 -1.5q47 0 79 25.5t32 61.5q0 31 -17.5 55t-44.5 46t-57.5 44t-57.5 48t-44.5 58.5t-17.5 74.5zM325 -137 q0 -41 -24.5 -84.5t-67 -80.5t-96.5 -60l-10 12q18 21 37.5 54t31.5 69q-24 6 -38.5 24.5t-14.5 44.5q0 29 15 52t39 36.5t51 13.5q34 0 55.5 -22t21.5 -59z" />
<glyph unicode="&#x219;" horiz-adv-x="501" d="M516 143q0 -68 -63 -110.5t-194 -42.5q-57 0 -107 11t-81 34t-31 57q0 29 38.5 49.5t111.5 20.5l9 -4q3 -20 6.5 -38.5t7.5 -33.5q8 -25 21.5 -40.5t36.5 -15.5q17 0 28 12t11 28q0 25 -22 49.5t-54 49.5t-64 53t-54 59.5t-22 69.5q0 71 63.5 115t179.5 44 q64 0 112.5 -13.5t76.5 -37t28 -52.5q0 -33 -38 -53t-102 -16l-9 4q-3 40 -12 73q-7 24 -19.5 39.5t-32.5 15.5q-21 0 -31.5 -12t-10.5 -31q0 -26 22 -50.5t54.5 -50t64.5 -53t54 -59.5t22 -71zM331 -137q0 -41 -24.5 -84.5t-67 -80.5t-96.5 -60l-10 12q18 21 37.5 54 t31.5 69q-24 6 -38.5 24.5t-14.5 44.5q0 29 15 52t39 36.5t51 13.5q34 0 55.5 -22t21.5 -59z" />
<glyph unicode="&#x21a;" horiz-adv-x="660" d="M134 396h-10q-3 21 -3 47q0 50 11.5 105.5t27.5 101.5h616q-1 -38 -11 -85t-26 -92t-35 -77h-10l-70 214h-55l-114 -538l-7 -31l52 -25l-5 -16h-326v16l34 11q17 5 23.5 15.5t10.5 29.5l114 538h-56zM392 -137q0 -41 -24.5 -84.5t-67 -80.5t-96.5 -60l-10 12 q18 21 37.5 54t31.5 69q-24 6 -38.5 24.5t-14.5 44.5q0 29 15 52t39 36.5t51 13.5q34 0 55.5 -22t21.5 -59z" />
<glyph unicode="&#x21b;" horiz-adv-x="374" d="M412 177q-17 -48 -47.5 -91t-72.5 -69.5t-95 -26.5q-57 0 -85.5 32.5t-28.5 84.5q0 21 2.5 38.5t6.5 34.5l57 265h-69l1 10l80 42l222 115l10 -2l-28 -130h86l-8 -35h-85l-56 -265q-5 -27 -7.5 -39.5t-2.5 -21.5q0 -18 16 -18q14 0 40 22.5t55 58.5zM253 -137 q0 -41 -24.5 -84.5t-67 -80.5t-96.5 -60l-10 12q18 21 37.5 54t31.5 69q-24 6 -38.5 24.5t-14.5 44.5q0 29 15 52t39 36.5t51 13.5q34 0 55.5 -22t21.5 -59z" />
<glyph unicode="&#x232;" horiz-adv-x="605" d="M308 747l23 106h342l-23 -106h-342zM465 0h-326v16l34 11q17 5 23.5 15.5t10.5 29.5l26 125q7 33 9 78t-1.5 93t-11.5 89t-21 66.5t-30 25.5q-18 0 -39.5 -26t-41.5 -55l-12 5q15 46 42.5 88.5t67.5 70.5t90 28q65 0 102.5 -47t52 -127.5t9.5 -180.5q66 177 126 266 t108 89q30 0 44 -26t18 -66.5t3 -83.5l-11 -6q-7 32 -17 54t-31 22q-22 0 -50.5 -26.5t-59 -71t-58.5 -99t-49.5 -111.5t-32.5 -108l-14 -66l-7 -31l52 -25z" />
<glyph unicode="&#x233;" horiz-adv-x="604" d="M224 597l23 106h342l-23 -106h-342zM373 341q0 -44 -9 -98.5t-26.5 -111.5t-43.5 -111q59 59 91.5 124.5t45.5 130.5t13 121q0 30 -3 54t-8 41q14 7 40 13t54 6q61 0 94 -35t33 -97q0 -76 -44 -151t-128 -138t-206 -102q-29 -51 -66.5 -92t-83.5 -65t-100 -24 q-51 0 -82 23t-31 56q0 28 25 47.5t62 22.5q3 -14 7.5 -34.5t12.5 -36t22 -15.5q16 0 32 32.5t30 85t25 114.5t17 122.5t6 107.5q0 28 -2.5 48t-14.5 20q-15 0 -36.5 -26t-41.5 -55l-10 5q15 46 43 88.5t69.5 70.5t95.5 28q57 0 87.5 -38.5t30.5 -130.5z" />
<glyph unicode="&#x237;" horiz-adv-x="318" d="M294 74q-19 -91 -64 -151t-105.5 -89t-127.5 -29q-59 0 -95.5 23t-36.5 57q0 31 25 48t62 22q3 -13 7.5 -31t13 -32t22.5 -14q26 0 45 41.5t38 129.5l58 271q6 24 9.5 41t3.5 24q0 14 -10 14t-30 -24.5t-44 -56.5l-9 5q17 48 45 91t67 69.5t88 26.5q50 0 75 -30t25 -83 q0 -17 -2.5 -36.5t-7.5 -40.5z" />
<glyph unicode="&#x259;" horiz-adv-x="528" d="M563 312q0 -64 -24.5 -122.5t-68 -103t-102 -70.5t-126.5 -26q-48 0 -88 14t-64 42.5t-24 71.5q0 65 71 110t219 47q4 29 6.5 58t2.5 56q0 35 -5.5 58t-22.5 23q-14 0 -24 -15.5t-17 -39t-10 -48.5t-3 -45q-31 -10 -47.5 -15t-39.5 -5q-39 0 -63 13t-24 40 q0 37 30.5 72.5t86 59t129.5 23.5q96 0 152 -53t56 -145zM231 67q0 -37 26 -37q18 0 36 30t33 79t25 105q-33 -6 -60.5 -33.5t-43.5 -66t-16 -77.5z" />
<glyph unicode="&#x272;" horiz-adv-x="636" d="M294 74q-19 -91 -64 -151t-105.5 -89t-127.5 -29q-59 0 -95.5 23t-36.5 57q0 31 25 48t62 22q3 -13 7.5 -31t13 -32t22.5 -14q26 0 45 41.5t38 129.5l50 232l7 33q13 64 13 72q0 13 -8 13q-10 0 -30.5 -24.5t-44.5 -56.5l-10 5q15 48 41 91t64 69.5t87 26.5 q44 0 70.5 -24t26.5 -71q0 -31 -7.5 -67t-16.5 -67h3q47 113 106.5 171t124.5 58q47 0 75 -27.5t28 -73.5q0 -27 -8 -67.5t-18.5 -83.5t-20.5 -78q-6 -24 -9.5 -41t-3.5 -24q0 -14 10 -14t30 25t44 56l9 -5q-16 -48 -44.5 -91t-67.5 -69.5t-88 -26.5q-50 0 -75 30.5 t-25 82.5q0 17 3 36.5t7 40.5q8 38 18 74.5t17.5 67t7.5 48.5q0 7 -2.5 12t-10.5 5q-14 0 -35.5 -29t-42.5 -76t-36 -102z" />
<glyph unicode="&#x2c6;" horiz-adv-x="472" d="M406 568l-11 -7q-67 33 -142 60q-39 -13 -82.5 -28.5t-87.5 -31.5l-7 8q33 41 66 84.5t56 76.5l13 8h141q18 -44 31.5 -89.5t22.5 -80.5z" />
<glyph unicode="&#x2c7;" horiz-adv-x="406" d="M274 570l-13 -8h-141q-18 44 -31.5 90t-22.5 80l11 7q67 -33 142 -60q39 13 82.5 28.5t87.5 31.5l7 -8q-33 -41 -66 -84.5t-56 -76.5z" />
<glyph unicode="&#x2d8;" horiz-adv-x="431" d="M350 746h3l12 -5q-58 -185 -191 -185q-62 0 -89 47.5t-16 138.5l15 4q15 -28 41.5 -43.5t77.5 -15.5q49 0 83 15.5t64 43.5z" />
<glyph unicode="&#x2d9;" horiz-adv-x="366" d="M300 669q0 -34 -19.5 -59.5t-50.5 -39.5t-67 -14q-44 0 -70.5 20.5t-26.5 55.5q0 33 20 58.5t51.5 39.5t65.5 14q45 0 71 -20t26 -55z" />
<glyph unicode="&#x2da;" horiz-adv-x="587" d="M291 666q0 -31 -18 -56.5t-48.5 -40.5t-67.5 -15q-42 0 -66.5 21t-24.5 58q0 32 18 57.5t48.5 40t67.5 14.5q42 0 66.5 -21t24.5 -58zM139 636q0 -16 8 -25.5t21 -9.5q21 0 35.5 18t14.5 45q0 34 -29 34q-21 0 -35.5 -18t-14.5 -44z" />
<glyph unicode="&#x2db;" horiz-adv-x="407" d="M341 -63q-31 -70 -76 -112t-92 -42q-32 0 -50.5 15.5t-18.5 42.5q0 35 24 67.5t65 59.5t91 43l26 -11q-26 -12 -43.5 -36.5t-17.5 -49.5q0 -19 17 -19q22 0 67 48z" />
<glyph unicode="&#x2dc;" horiz-adv-x="564" d="M409 681q17 14 35 27t35 26l9 -3q-3 -44 -21.5 -82t-50.5 -61t-77 -23q-52 0 -96.5 18.5t-77.5 34.5q-17 -13 -35 -26t-35 -27l-9 3q5 71 44.5 118.5t104.5 47.5q50 0 92.5 -19.5t81.5 -33.5z" />
<glyph unicode="&#x2dd;" horiz-adv-x="618" d="M322 670q0 -49 -66.5 -79.5t-182.5 -35.5l-7 13q44 43 87 92.5t70 84.5q46 0 72.5 -20t26.5 -55zM552 670q0 -49 -66.5 -79.5t-182.5 -35.5l-7 13q44 43 87 92.5t70 84.5q47 0 73 -20t26 -55z" />
<glyph unicode="&#x326;" horiz-adv-x="330" d="M268 -137q0 -41 -24.5 -84.5t-67 -80.5t-96.5 -60l-10 12q18 21 37.5 54t31.5 69q-24 6 -38.5 24.5t-14.5 44.5q0 29 15 52t39 36.5t51 13.5q34 0 55.5 -22t21.5 -59z" />
<glyph unicode="&#x1e0c;" horiz-adv-x="725" d="M422 578l-108 -506l-7 -32h30q44 0 80 26t63.5 69.5t46.5 96t28.5 106t9.5 99.5q0 91 -28.5 132t-82.5 41h-25zM450 -131q0 -34 -19.5 -59.5t-50.5 -39.5t-67 -14q-44 0 -70.5 20.5t-26.5 55.5q0 33 20 58.5t51.5 39.5t65.5 14q45 0 71 -20t26 -55zM336 0h-307l-1 16 l40 13q13 5 19.5 16.5t8.5 26.5l108 506l7 31l-52 25l4 16h307q142 0 225 -59t83 -184q0 -88 -32 -162t-90.5 -129t-139.5 -85.5t-180 -30.5z" />
<glyph unicode="&#x1e0d;" horiz-adv-x="623" d="M387 180l10 45q-47 -115 -101 -175t-113 -60q-40 0 -67 21t-40.5 55.5t-13.5 73.5q0 69 24.5 134.5t72.5 119t117 85t158 31.5q14 0 29 -1l10 45l11 54l-70 35v12q41 10 93 18t104 13.5t92 7.5l8 -10l-28 -130l-86 -374q-6 -24 -9.5 -41t-3.5 -24q0 -14 10 -14t30 25 t44 56l9 -5q-16 -48 -44.5 -91t-67.5 -69.5t-88 -26.5q-50 0 -75 30.5t-25 82.5q0 17 3 36.5t7 40.5zM284 101q11 0 27 21t34 56.5t36.5 78.5t35 87.5t28.5 84.5l7 33q-16 13 -35 13q-22 0 -43.5 -25t-41 -64.5t-34.5 -84.5t-23.5 -87.5t-8.5 -71.5q0 -19 3.5 -30t14.5 -11z M395 -131q0 -34 -19.5 -59.5t-50.5 -39.5t-67 -14q-44 0 -70.5 20.5t-26.5 55.5q0 33 20 58.5t51.5 39.5t65.5 14q45 0 71 -20t26 -55z" />
<glyph unicode="&#x1e24;" horiz-adv-x="771" d="M354 0h-326v16l34 11q17 5 23.5 15.5t10.5 29.5l108 506l7 31l-52 25l5 16h326v-16l-34 -11q-17 -5 -23.5 -15.5t-10.5 -29.5l-50 -233h173l49 233l7 31l-52 25l5 16h326v-16l-34 -11q-17 -5 -23.5 -15.5t-10.5 -29.5l-107 -506l-7 -31l52 -25l-5 -16h-326v16l34 11 q17 5 23.5 15.5t10.5 29.5l48 228h-172l-49 -228l-7 -31l52 -25zM462 -131q0 -34 -19.5 -59.5t-50.5 -39.5t-67 -14q-44 0 -70.5 20.5t-26.5 55.5q0 33 20 58.5t51.5 39.5t65.5 14q45 0 71 -20t26 -55z" />
<glyph unicode="&#x1e25;" horiz-adv-x="616" d="M258 0q-6 0 -25.5 -1t-46 -2t-52.5 -2t-45 -1.5t-23 -0.5q-21 0 -16 17l36 170l80 374l11 54l-70 35v12q41 10 93 18t104 13.5t92 7.5l8 -10l-28 -130q-6 -25 -18 -71t-27 -99.5t-31 -102.5h3q47 113 106.5 171t124.5 58q47 0 75 -27.5t28 -73.5q0 -27 -8 -67.5 t-18.5 -83.5t-20.5 -78q-6 -24 -9.5 -41t-3.5 -24q0 -14 10 -14t30 25t44 56l9 -5q-16 -48 -44.5 -91t-67.5 -69.5t-88 -26.5q-50 0 -75 30.5t-25 82.5q0 17 3 36.5t7 40.5q8 38 18 74.5t17.5 67t7.5 48.5q0 7 -2.5 12t-10.5 5q-14 0 -35.5 -29t-42.5 -76t-36 -102z M404 -131q0 -34 -19.5 -59.5t-50.5 -39.5t-67 -14q-44 0 -70.5 20.5t-26.5 55.5q0 33 20 58.5t51.5 39.5t65.5 14q45 0 71 -20t26 -55z" />
<glyph unicode="&#x1e44;" horiz-adv-x="675" d="M624 820q0 -34 -19.5 -59.5t-50.5 -39.5t-67 -14q-44 0 -70.5 20.5t-26.5 55.5q0 33 20 58.5t51.5 39.5t65.5 14q45 0 71 -20t26 -55zM217 1h-197v16l50 15q20 6 26 14.5t10 26.5l114 536l-68 25l5 16h207l225 -421l74 349l7 31l-78 25l5 16h197v-16l-50 -15 q-19 -6 -25.5 -14.5t-10.5 -26.5l-123 -578h-135l-223 431l-76 -358l-7 -31l78 -25z" />
<glyph unicode="&#x1e45;" horiz-adv-x="634" d="M563 669q0 -34 -19.5 -59.5t-50.5 -39.5t-67 -14q-44 0 -70.5 20.5t-26.5 55.5q0 33 20 58.5t51.5 39.5t65.5 14q45 0 71 -20t26 -55zM276 0q-6 0 -25.5 -1t-46 -2t-52.5 -2t-45 -1.5t-23 -0.5q-21 0 -16 17l36 170l22 101l7 33q13 64 13 72q0 13 -8 13 q-10 0 -30.5 -24.5t-44.5 -56.5l-10 5q15 48 41 91t64 69.5t87 26.5q44 0 70.5 -24t26.5 -71q0 -31 -7.5 -67t-16.5 -67h3q47 113 106.5 171t124.5 58q47 0 75 -27.5t28 -73.5q0 -27 -8 -67.5t-18.5 -83.5t-20.5 -78q-6 -24 -9.5 -41t-3.5 -24q0 -14 10 -14t30 25t44 56 l9 -5q-16 -48 -44.5 -91t-67.5 -69.5t-88 -26.5q-50 0 -75 30.5t-25 82.5q0 17 3 36.5t7 40.5q8 38 18 74.5t17.5 67t7.5 48.5q0 7 -2.5 12t-10.5 5q-14 0 -35.5 -29t-42.5 -76t-36 -102z" />
<glyph unicode="&#x1e5a;" horiz-adv-x="740" d="M450 610h-21l-7 -32l-59 -278h29q44 0 75 30t47.5 76t16.5 94q0 52 -20.5 81t-60.5 29zM484 -131q0 -34 -19.5 -59.5t-50.5 -39.5t-67 -14q-44 0 -70.5 20.5t-26.5 55.5q0 33 20 58.5t51.5 39.5t65.5 14q45 0 71 -20t26 -55zM355 0h-326v16l34 11q17 5 23.5 15.5 t10.5 29.5l107 506l7 31l-52 25l4 16h315q134 0 203.5 -42.5t69.5 -121.5q0 -59 -39.5 -104t-100.5 -76l16 -56q20 -71 33 -115.5t27 -69t36 -35.5l28 -14l-5 -16l-205 -5q-42 -1 -61.5 14.5t-27.5 47.5l-48 203h-49l-40 -188l-7 -31l52 -25z" />
<glyph unicode="&#x1e5b;" horiz-adv-x="514" d="M276 0q-6 0 -25.5 -1t-46 -2t-52.5 -2t-45 -1.5t-23 -0.5q-21 0 -16 17l36 170l22 101l7 33q13 64 13 72q0 13 -8 13q-10 0 -30.5 -24.5t-44.5 -56.5l-10 5q15 48 41 91t64 69.5t87 26.5q44 0 70.5 -24t26.5 -71q0 -31 -7.5 -67t-16.5 -67h3q42 103 90.5 166t100.5 63 q31 0 44.5 -22t13.5 -55q0 -42 -18 -84.5t-45 -75.5q-18 10 -45.5 19t-53.5 9q-44 0 -63.5 -34t-30.5 -87zM266 -131q0 -34 -19.5 -59.5t-50.5 -39.5t-67 -14q-44 0 -70.5 20.5t-26.5 55.5q0 33 20 58.5t51.5 39.5t65.5 14q45 0 71 -20t26 -55z" />
<glyph unicode="&#x1e62;" horiz-adv-x="548" d="M120 443q0 54 25 95t68.5 68t99.5 40.5t117 13.5q133 0 197 -42q15 -10 15 -26q0 -22 -18 -54.5t-42.5 -62.5t-44.5 -48l-10 2l-48 189q-14 2 -31 2q-29 0 -56.5 -11.5t-44.5 -33t-17 -52.5q0 -32 17 -58t44.5 -49t57.5 -45.5t57.5 -48.5t44.5 -58.5t17 -74.5 q0 -68 -42.5 -112t-113.5 -65.5t-155 -21.5q-61 0 -118.5 6t-88.5 25q-20 13 -20 38q0 24 15.5 56t38 62.5t42.5 50.5l10 -2l60 -191q12 -2 24.5 -3.5t27.5 -1.5q47 0 79 25.5t32 61.5q0 31 -17.5 55t-44.5 46t-57.5 44t-57.5 48t-44.5 58.5t-17.5 74.5zM354 -131 q0 -34 -19.5 -59.5t-50.5 -39.5t-67 -14q-44 0 -70.5 20.5t-26.5 55.5q0 33 20 58.5t51.5 39.5t65.5 14q45 0 71 -20t26 -55z" />
<glyph unicode="&#x1e63;" horiz-adv-x="501" d="M516 143q0 -68 -63 -110.5t-194 -42.5q-57 0 -107 11t-81 34t-31 57q0 29 38.5 49.5t111.5 20.5l9 -4q3 -20 6.5 -38.5t7.5 -33.5q8 -25 21.5 -40.5t36.5 -15.5q17 0 28 12t11 28q0 25 -22 49.5t-54 49.5t-64 53t-54 59.5t-22 69.5q0 71 63.5 115t179.5 44 q64 0 112.5 -13.5t76.5 -37t28 -52.5q0 -33 -38 -53t-102 -16l-9 4q-3 40 -12 73q-7 24 -19.5 39.5t-32.5 15.5q-21 0 -31.5 -12t-10.5 -31q0 -26 22 -50.5t54.5 -50t64.5 -53t54 -59.5t22 -71zM340 -131q0 -34 -19.5 -59.5t-50.5 -39.5t-67 -14q-44 0 -70.5 20.5 t-26.5 55.5q0 33 20 58.5t51.5 39.5t65.5 14q45 0 71 -20t26 -55z" />
<glyph unicode="&#x1e6c;" horiz-adv-x="660" d="M134 396h-10q-3 21 -3 47q0 50 11.5 105.5t27.5 101.5h616q-1 -38 -11 -85t-26 -92t-35 -77h-10l-70 214h-55l-114 -538l-7 -31l52 -25l-5 -16h-326v16l34 11q17 5 23.5 15.5t10.5 29.5l114 538h-56zM421 -131q0 -34 -19.5 -59.5t-50.5 -39.5t-67 -14q-44 0 -70.5 20.5 t-26.5 55.5q0 33 20 58.5t51.5 39.5t65.5 14q45 0 71 -20t26 -55z" />
<glyph unicode="&#x1e6d;" horiz-adv-x="374" d="M412 177q-17 -48 -47.5 -91t-72.5 -69.5t-95 -26.5q-57 0 -85.5 32.5t-28.5 84.5q0 21 2.5 38.5t6.5 34.5l57 265h-69l1 10l80 42l222 115l10 -2l-28 -130h86l-8 -35h-85l-56 -265q-5 -27 -7.5 -39.5t-2.5 -21.5q0 -18 16 -18q14 0 40 22.5t55 58.5zM282 -131 q0 -34 -19.5 -59.5t-50.5 -39.5t-67 -14q-44 0 -70.5 20.5t-26.5 55.5q0 33 20 58.5t51.5 39.5t65.5 14q45 0 71 -20t26 -55z" />
<glyph unicode="&#x1e80;" horiz-adv-x="1044" d="M824 713l-10 -11q-115 14 -177 45.5t-62 74.5q0 41 34 58.5t83 17.5q13 0 23 -0.5t17 -1.5q14 -35 39.5 -86t52.5 -97zM1038 480l-263 -480h-115l-46 418l-218 -418h-115l-81 572q-6 36 -35 49l-30 13l5 16h342l-1 -16l-62 -23l41 -402l145 290l-8 73q-2 19 -11 30.5 t-24 18.5l-27 13l5 16h351l-1 -16l-73 -26l28 -400l196 400l-69 26l5 16h203l-1 -16q-16 -6 -28 -13t-25 -17q-22 -17 -42 -46t-46 -78z" />
<glyph unicode="&#x1e81;" horiz-adv-x="877" d="M680 562l-10 -11q-115 14 -177 45.5t-62 74.5q0 41 34 58.5t83 17.5q13 0 23 -0.5t17 -1.5q14 -35 39.5 -86t52.5 -97zM516 510q62 0 98 -34t36 -118q0 -65 -10.5 -138.5t-32.5 -165.5q45 61 70 121.5t34.5 116.5t9.5 104q0 30 -3 54t-8 41q14 7 41.5 13t50.5 6 q59 0 94 -30.5t35 -91.5q0 -66 -43.5 -134.5t-125 -135t-194.5 -128.5l-135 9q1 50 1.5 90t0.5 77q-54 -91 -153 -176l-135 9q1 47 2 90t1 80q0 79 -1.5 125.5t-4.5 69t-7.5 29t-10.5 6.5q-14 0 -36.5 -26t-42.5 -55l-10 5q15 46 44 88.5t71.5 70.5t97.5 28q51 0 82.5 -36.5 t31.5 -125.5q0 -60 -9.5 -126.5t-29.5 -149.5q58 78 86 161t28 163q0 30 -3 54t-8 41q14 7 40 13t48 6z" />
<glyph unicode="&#x1e82;" horiz-adv-x="1044" d="M845 821q0 -49 -76 -79.5t-207 -35.5l-7 13q44 43 87 92.5t70 84.5q62 0 97.5 -20t35.5 -55zM1038 480l-263 -480h-115l-46 418l-218 -418h-115l-81 572q-6 36 -35 49l-30 13l5 16h342l-1 -16l-62 -23l41 -402l145 290l-8 73q-2 19 -11 30.5t-24 18.5l-27 13l5 16h351 l-1 -16l-73 -26l28 -400l196 400l-69 26l5 16h203l-1 -16q-16 -6 -28 -13t-25 -17q-22 -17 -42 -46t-46 -78z" />
<glyph unicode="&#x1e83;" horiz-adv-x="877" d="M705 670q0 -49 -76 -79.5t-207 -35.5l-7 13q44 43 87 92.5t70 84.5q62 0 97.5 -20t35.5 -55zM516 510q62 0 98 -34t36 -118q0 -65 -10.5 -138.5t-32.5 -165.5q45 61 70 121.5t34.5 116.5t9.5 104q0 30 -3 54t-8 41q14 7 41.5 13t50.5 6q59 0 94 -30.5t35 -91.5 q0 -66 -43.5 -134.5t-125 -135t-194.5 -128.5l-135 9q1 50 1.5 90t0.5 77q-54 -91 -153 -176l-135 9q1 47 2 90t1 80q0 79 -1.5 125.5t-4.5 69t-7.5 29t-10.5 6.5q-14 0 -36.5 -26t-42.5 -55l-10 5q15 46 44 88.5t71.5 70.5t97.5 28q51 0 82.5 -36.5t31.5 -125.5 q0 -60 -9.5 -126.5t-29.5 -149.5q58 78 86 161t28 163q0 30 -3 54t-8 41q14 7 40 13t48 6z" />
<glyph unicode="&#x1e84;" horiz-adv-x="1044" d="M673 815q0 -29 -16.5 -52t-43.5 -36t-58 -13q-39 0 -62 19.5t-23 52.5q0 28 17 50.5t44.5 36t57.5 13.5q39 0 61.5 -19t22.5 -52zM929 815q0 -29 -16.5 -52t-43.5 -36t-58 -13q-39 0 -62 19.5t-23 52.5q0 28 17 50.5t44.5 36t57.5 13.5q39 0 61.5 -19t22.5 -52zM1038 480 l-263 -480h-115l-46 418l-218 -418h-115l-81 572q-6 36 -35 49l-30 13l5 16h342l-1 -16l-62 -23l41 -402l145 290l-8 73q-2 19 -11 30.5t-24 18.5l-27 13l5 16h351l-1 -16l-73 -26l28 -400l196 400l-69 26l5 16h203l-1 -16q-16 -6 -28 -13t-25 -17q-22 -17 -42 -46t-46 -78z " />
<glyph unicode="&#x1e85;" horiz-adv-x="877" d="M531 665q0 -29 -16.5 -52t-43.5 -36t-58 -13q-39 0 -62 19.5t-23 52.5q0 28 17.5 50.5t44.5 36t57 13.5q39 0 61.5 -19t22.5 -52zM787 665q0 -29 -16.5 -52t-43.5 -36t-58 -13q-39 0 -62 19.5t-23 52.5q0 28 17 50.5t44.5 36t57.5 13.5q39 0 61.5 -19t22.5 -52zM516 510 q62 0 98 -34t36 -118q0 -65 -10.5 -138.5t-32.5 -165.5q45 61 70 121.5t34.5 116.5t9.5 104q0 30 -3 54t-8 41q14 7 41.5 13t50.5 6q59 0 94 -30.5t35 -91.5q0 -66 -43.5 -134.5t-125 -135t-194.5 -128.5l-135 9q1 50 1.5 90t0.5 77q-54 -91 -153 -176l-135 9q1 47 2 90 t1 80q0 79 -1.5 125.5t-4.5 69t-7.5 29t-10.5 6.5q-14 0 -36.5 -26t-42.5 -55l-10 5q15 46 44 88.5t71.5 70.5t97.5 28q51 0 82.5 -36.5t31.5 -125.5q0 -60 -9.5 -126.5t-29.5 -149.5q58 78 86 161t28 163q0 30 -3 54t-8 41q14 7 40 13t48 6z" />
<glyph unicode="&#x1e92;" d="M639 208q0 -33 -5.5 -71t-14.5 -74t-20 -63h-526l-10 85l415 525h-146l-173 -214h-10q-3 21 -3 47q0 50 11.5 107t27.5 100h521l10 -80l-410 -530h146l173 214h10q2 -10 3 -21.5t1 -24.5zM414 -131q0 -34 -19.5 -59.5t-50.5 -39.5t-67 -14q-44 0 -70.5 20.5t-26.5 55.5 q0 33 20 58.5t51.5 39.5t65.5 14q45 0 71 -20t26 -55z" />
<glyph unicode="&#x1e93;" horiz-adv-x="452" d="M135 25q-37 0 -66 -9t-51 -26l-16 20q70 70 138.5 139.5t131.5 140.5q-28 8 -58.5 14t-58.5 6q-31 0 -47.5 -10.5t-34.5 -44.5l-10 3q19 136 52.5 194t98.5 58q28 0 55.5 -17t52.5 -41.5t46 -48.5q21 26 41 53t39 54q35 -1 56.5 -17.5t21.5 -44.5q0 -29 -19.5 -52 t-57.5 -50q-45 -32 -107 -77t-144 -101q30 11 59 11q46 0 85.5 -6t67.5 -6q38 0 74 70l10 -4q-14 -63 -29.5 -118.5t-40 -90t-66.5 -34.5q-31 0 -67 9t-75 17.5t-81 8.5zM293 -131q0 -34 -19.5 -59.5t-50.5 -39.5t-67 -14q-44 0 -70.5 20.5t-26.5 55.5q0 33 20 58.5 t51.5 39.5t65.5 14q45 0 71 -20t26 -55z" />
<glyph unicode="&#x1e9e;" horiz-adv-x="734" d="M768 181q0 -88 -72.5 -139.5t-197.5 -51.5q-67 0 -109 12.5t-42 51.5q0 23 9 50.5t24.5 53.5t32.5 44l16 -1q1 -31 2.5 -61.5t9.5 -55.5q17 -54 56 -54q25 0 35.5 27.5t10.5 58.5q0 59 -28.5 110t-91.5 96l1 18l186 171q-9 50 -31 79.5t-60 29.5q-50 0 -87.5 -47.5 t-55.5 -129.5l-91 -427l-19 -16h-255v16l34 11q17 5 23.5 15.5t10.5 29.5l65 305q17 81 68.5 145t131 101t181.5 37q77 0 133.5 -19.5t82.5 -56.5v-9l-158 -137q83 -57 134 -122t51 -135z" />
<glyph unicode="&#x1ea0;" horiz-adv-x="698" d="M424 650h115l101 -572q5 -34 35 -49l26 -13l-5 -16h-353l1 16l68 25l-17 123l-207 -2l-71 -123l63 -23l-5 -16h-173l1 16l34 11q23 8 34.5 21t24.5 36zM212 203l178 -2l-34 250zM356 -131q0 -34 -19.5 -59.5t-50.5 -39.5t-67 -14q-44 0 -70.5 20.5t-26.5 55.5 q0 33 20 58.5t51.5 39.5t65.5 14q45 0 71 -20t26 -55z" />
<glyph unicode="&#x1ea1;" horiz-adv-x="624" d="M62 140q0 69 24.5 135t72.5 119t117 84.5t158 31.5q65 0 128.5 -12t109.5 -32l-26 -69l-48 -217q-6 -24 -9.5 -41t-3.5 -24q0 -14 10 -14t30 25t44 56l9 -5q-16 -48 -44.5 -91t-67.5 -69.5t-88 -26.5q-50 0 -75 30.5t-25 82.5q0 17 3 36.5t7 40.5l10 40h-3 q-46 -112 -100 -171t-112 -59q-60 0 -90.5 44t-30.5 106zM445 429l10 31q-18 15 -38 15q-22 0 -43.5 -25t-41 -64.5t-34.5 -84.5t-23.5 -87.5t-8.5 -71.5q0 -19 3.5 -30t14.5 -11t27 21t34 56.5t36.5 78.5t35 87.5t28.5 84.5zM402 -131q0 -34 -19.5 -59.5t-50.5 -39.5 t-67 -14q-44 0 -70.5 20.5t-26.5 55.5q0 33 20 58.5t51.5 39.5t65.5 14q45 0 71 -20t26 -55z" />
<glyph unicode="&#x1eb8;" horiz-adv-x="594" d="M556 0h-526l-1 16l40 13q13 5 19.5 16.5t8.5 26.5l107 506l7 31l-52 25l4 16h522q0 -32 -8.5 -71.5t-22.5 -77t-32 -65.5h-10l-87 174h-96l-7 -32l-50 -235l160 12l-14 -65l-154 13l-49 -231l-7 -32h103l164 181h10q2 -12 3.5 -25t1.5 -26q0 -43 -10 -88t-24 -82z M399 -131q0 -34 -19.5 -59.5t-50.5 -39.5t-67 -14q-44 0 -70.5 20.5t-26.5 55.5q0 33 20 58.5t51.5 39.5t65.5 14q45 0 71 -20t26 -55z" />
<glyph unicode="&#x1eb9;" horiz-adv-x="520" d="M538 171q-20 -56 -60 -96.5t-91.5 -62.5t-106.5 -22q-94 0 -151.5 54t-57.5 144q0 66 24.5 124.5t68.5 103t102.5 69.5t125.5 25q48 0 88 -14.5t64 -43.5t24 -73q0 -69 -67 -116.5t-208 -52.5q6 -49 31.5 -72t64.5 -23q38 0 73.5 17t67.5 45zM381 470q-16 0 -32 -20.5 t-29 -54.5t-21 -74t-8 -79q31 10 56.5 40.5t40.5 73t15 86.5q0 12 -5.5 20t-16.5 8zM373 -131q0 -34 -19.5 -59.5t-50.5 -39.5t-67 -14q-44 0 -70.5 20.5t-26.5 55.5q0 33 20 58.5t51.5 39.5t65.5 14q45 0 71 -20t26 -55z" />
<glyph unicode="&#x1ebc;" horiz-adv-x="594" d="M614 831q17 14 35 27t35 26l9 -3q-3 -44 -21.5 -82t-50.5 -61t-77 -23q-52 0 -96.5 18.5t-77.5 34.5q-17 -13 -35 -26t-35 -27l-9 3q5 71 44.5 118.5t104.5 47.5q50 0 92.5 -19.5t81.5 -33.5zM556 0h-526l-1 16l40 13q13 5 19.5 16.5t8.5 26.5l107 506l7 31l-52 25l4 16 h522q0 -32 -8.5 -71.5t-22.5 -77t-32 -65.5h-10l-87 174h-96l-7 -32l-50 -235l160 12l-14 -65l-154 13l-49 -231l-7 -32h103l164 181h10q2 -12 3.5 -25t1.5 -26q0 -43 -10 -88t-24 -82z" />
<glyph unicode="&#x1ebd;" horiz-adv-x="520" d="M537 681q17 14 35 27t35 26l9 -3q-3 -44 -21.5 -82t-50.5 -61t-77 -23q-52 0 -96.5 18.5t-77.5 34.5q-17 -13 -35 -26t-35 -27l-9 3q5 71 44.5 118.5t104.5 47.5q50 0 92.5 -19.5t81.5 -33.5zM538 171q-20 -56 -60 -96.5t-91.5 -62.5t-106.5 -22q-94 0 -151.5 54 t-57.5 144q0 66 24.5 124.5t68.5 103t102.5 69.5t125.5 25q48 0 88 -14.5t64 -43.5t24 -73q0 -69 -67 -116.5t-208 -52.5q6 -49 31.5 -72t64.5 -23q38 0 73.5 17t67.5 45zM381 470q-16 0 -32 -20.5t-29 -54.5t-21 -74t-8 -79q31 10 56.5 40.5t40.5 73t15 86.5q0 12 -5.5 20 t-16.5 8z" />
<glyph unicode="&#x1eca;" horiz-adv-x="381" d="M355 0h-326v16l34 11q17 5 23.5 15.5t10.5 29.5l107 506l7 31l-52 25l5 16h326v-16l-34 -11q-17 -5 -23.5 -15.5t-10.5 -29.5l-107 -506l-7 -31l52 -25zM274 -131q0 -34 -19.5 -59.5t-50.5 -39.5t-67 -14q-44 0 -70.5 20.5t-26.5 55.5q0 33 20 58.5t51.5 39.5t65.5 14 q45 0 71 -20t26 -55z" />
<glyph unicode="&#x1ecb;" horiz-adv-x="334" d="M416 669q0 -34 -19.5 -59.5t-50.5 -39.5t-67 -14q-44 0 -70.5 20.5t-26.5 55.5q0 33 20 58.5t51.5 39.5t65.5 14q45 0 71 -20t26 -55zM98 180q8 37 18 74t17 66q6 24 9.5 41t3.5 24q0 14 -10 14t-30 -24.5t-44 -56.5l-9 5q17 48 45 91t67 69.5t88 26.5q50 0 75 -30 t25 -83q0 -17 -2.5 -36.5t-7.5 -40.5q-7 -35 -17 -72t-18 -68q-6 -24 -9.5 -41t-3.5 -24q0 -14 10 -14t30 25t44 56l9 -5q-16 -48 -44.5 -91t-67.5 -69.5t-88 -26.5q-50 0 -75 30.5t-25 82.5q0 17 3 36.5t7 40.5zM300 -131q0 -34 -19.5 -59.5t-50.5 -39.5t-67 -14 q-44 0 -70.5 20.5t-26.5 55.5q0 33 20 58.5t51.5 39.5t65.5 14q45 0 71 -20t26 -55z" />
<glyph unicode="&#x1ecc;" horiz-adv-x="727" d="M778 400q0 -87 -31.5 -162t-88 -130.5t-130 -86.5t-157.5 -31q-91 0 -154.5 33t-97 90.5t-33.5 131.5q0 90 32.5 165.5t89.5 131.5t131 87t157 31q132 0 207 -70t75 -190zM321 124q0 -49 12 -71.5t38 -22.5q25 0 50 33t47 88t39 121.5t26.5 134.5t9.5 126q0 87 -49 87 q-26 0 -51 -32t-47 -86t-39 -119t-26.5 -132.5t-9.5 -126.5zM448 -131q0 -34 -19.5 -59.5t-50.5 -39.5t-67 -14q-44 0 -70.5 20.5t-26.5 55.5q0 33 20 58.5t51.5 39.5t65.5 14q45 0 71 -20t26 -55z" />
<glyph unicode="&#x1ecd;" horiz-adv-x="607" d="M640 302q0 -69 -26 -126.5t-71.5 -99t-105 -64.5t-125.5 -23q-112 0 -175.5 55t-63.5 155q0 66 26 123t72 99t105.5 65.5t126.5 23.5q76 0 129 -28t80.5 -75t27.5 -105zM291 131q0 -46 6.5 -73.5t22.5 -27.5q17 0 32 26.5t27.5 69t21.5 91t14 93t5 73.5q0 87 -29 87 q-17 0 -32 -24t-27.5 -62.5t-21.5 -84.5t-14 -90t-5 -78zM388 -131q0 -34 -19.5 -59.5t-50.5 -39.5t-67 -14q-44 0 -70.5 20.5t-26.5 55.5q0 33 20 58.5t51.5 39.5t65.5 14q45 0 71 -20t26 -55z" />
<glyph unicode="&#x1ee4;" horiz-adv-x="685" d="M164 650h326v-16l-34 -11q-17 -5 -23.5 -15.5t-10.5 -29.5l-72 -338q-4 -19 -6 -36t-2 -32q0 -59 28.5 -89t78.5 -30q61 0 101 45.5t60 141.5l72 338l7 32l-69 24l5 16h187v-16l-79 -24l-7 -32l-72 -338q-28 -131 -94 -190.5t-185 -59.5q-121 0 -184 57t-63 148 q0 27 6 55l70 328l7 31l-52 25zM451 -131q0 -34 -19.5 -59.5t-50.5 -39.5t-67 -14q-44 0 -70.5 20.5t-26.5 55.5q0 33 20 58.5t51.5 39.5t65.5 14q45 0 71 -20t26 -55z" />
<glyph unicode="&#x1ee5;" d="M423 219h-3q-47 -113 -106.5 -171t-124.5 -58q-46 0 -74.5 27.5t-28.5 73.5q0 27 8 67.5t19 83.5t20 78q6 24 9.5 41t3.5 24q0 14 -10 14t-30 -24.5t-44 -56.5l-9 5q17 48 45 91t67 69.5t88 26.5q50 0 75 -30t25 -83q0 -17 -2.5 -36.5t-7.5 -40.5q-7 -37 -17.5 -74 t-18 -67.5t-7.5 -48.5q0 -7 3 -12t10 -5q15 0 36 29t42.5 76t35.5 102l38 180q6 0 25.5 1t46 2t52.5 2t45 1.5t23 0.5q21 0 16 -17l-36 -170l-22 -101l-7 -33q-13 -64 -13 -72q0 -13 8 -13q11 0 31 25t44 56l10 -5q-14 -48 -40.5 -91t-64.5 -69.5t-87 -26.5q-43 0 -70 24.5 t-27 70.5q0 32 7.5 67.5t16.5 66.5zM412 -131q0 -34 -19.5 -59.5t-50.5 -39.5t-67 -14q-44 0 -70.5 20.5t-26.5 55.5q0 33 20 58.5t51.5 39.5t65.5 14q45 0 71 -20t26 -55z" />
<glyph unicode="&#x1ef2;" horiz-adv-x="605" d="M615 713l-10 -11q-115 14 -177 45.5t-62 74.5q0 41 34 58.5t83 17.5q13 0 23 -0.5t17 -1.5q14 -35 39.5 -86t52.5 -97zM465 0h-326v16l34 11q17 5 23.5 15.5t10.5 29.5l26 125q7 33 9 78t-1.5 93t-11.5 89t-21 66.5t-30 25.5q-18 0 -39.5 -26t-41.5 -55l-12 5 q15 46 42.5 88.5t67.5 70.5t90 28q65 0 102.5 -47t52 -127.5t9.5 -180.5q66 177 126 266t108 89q30 0 44 -26t18 -66.5t3 -83.5l-11 -6q-7 32 -17 54t-31 22q-22 0 -50.5 -26.5t-59 -71t-58.5 -99t-49.5 -111.5t-32.5 -108l-14 -66l-7 -31l52 -25z" />
<glyph unicode="&#x1ef3;" horiz-adv-x="604" d="M529 562l-10 -11q-115 14 -177 45.5t-62 74.5q0 41 34 58.5t83 17.5q13 0 23 -0.5t17 -1.5q14 -35 39.5 -86t52.5 -97zM373 341q0 -44 -9 -98.5t-26.5 -111.5t-43.5 -111q59 59 91.5 124.5t45.5 130.5t13 121q0 30 -3 54t-8 41q14 7 40 13t54 6q61 0 94 -35t33 -97 q0 -76 -44 -151t-128 -138t-206 -102q-29 -51 -66.5 -92t-83.5 -65t-100 -24q-51 0 -82 23t-31 56q0 28 25 47.5t62 22.5q3 -14 7.5 -34.5t12.5 -36t22 -15.5q16 0 32 32.5t30 85t25 114.5t17 122.5t6 107.5q0 28 -2.5 48t-14.5 20q-15 0 -36.5 -26t-41.5 -55l-10 5 q15 46 43 88.5t69.5 70.5t95.5 28q57 0 87.5 -38.5t30.5 -130.5z" />
<glyph unicode="&#x1ef8;" horiz-adv-x="605" d="M613 831q17 14 35 27t35 26l9 -3q-3 -44 -21.5 -82t-50.5 -61t-77 -23q-52 0 -96.5 18.5t-77.5 34.5q-17 -13 -35 -26t-35 -27l-9 3q5 71 44.5 118.5t104.5 47.5q50 0 92.5 -19.5t81.5 -33.5zM465 0h-326v16l34 11q17 5 23.5 15.5t10.5 29.5l26 125q7 33 9 78t-1.5 93 t-11.5 89t-21 66.5t-30 25.5q-18 0 -39.5 -26t-41.5 -55l-12 5q15 46 42.5 88.5t67.5 70.5t90 28q65 0 102.5 -47t52 -127.5t9.5 -180.5q66 177 126 266t108 89q30 0 44 -26t18 -66.5t3 -83.5l-11 -6q-7 32 -17 54t-31 22q-22 0 -50.5 -26.5t-59 -71t-58.5 -99t-49.5 -111.5 t-32.5 -108l-14 -66l-7 -31l52 -25z" />
<glyph unicode="&#x1ef9;" horiz-adv-x="604" d="M527 681q17 14 35 27t35 26l9 -3q-3 -44 -21.5 -82t-50.5 -61t-77 -23q-52 0 -96.5 18.5t-77.5 34.5q-17 -13 -35 -26t-35 -27l-9 3q5 71 44.5 118.5t104.5 47.5q50 0 92.5 -19.5t81.5 -33.5zM373 341q0 -44 -9 -98.5t-26.5 -111.5t-43.5 -111q59 59 91.5 124.5 t45.5 130.5t13 121q0 30 -3 54t-8 41q14 7 40 13t54 6q61 0 94 -35t33 -97q0 -76 -44 -151t-128 -138t-206 -102q-29 -51 -66.5 -92t-83.5 -65t-100 -24q-51 0 -82 23t-31 56q0 28 25 47.5t62 22.5q3 -14 7.5 -34.5t12.5 -36t22 -15.5q16 0 32 32.5t30 85t25 114.5t17 122.5 t6 107.5q0 28 -2.5 48t-14.5 20q-15 0 -36.5 -26t-41.5 -55l-10 5q15 46 43 88.5t69.5 70.5t95.5 28q57 0 87.5 -38.5t30.5 -130.5z" />
<glyph unicode="&#x2013;" horiz-adv-x="545" d="M78 250l9 45h496l-9 -45h-496z" />
<glyph unicode="&#x2014;" horiz-adv-x="849" d="M78 250l9 45h800l-9 -45h-800z" />
<glyph unicode="&#x2018;" horiz-adv-x="263" d="M139 453q0 45 28.5 91.5t78.5 86.5t112 64l10 -12q-25 -24 -53.5 -62t-44.5 -79q24 -6 37.5 -24t13.5 -44q0 -29 -15 -52t-38.5 -36.5t-51.5 -13.5q-34 0 -55.5 22t-21.5 59z" />
<glyph unicode="&#x2019;" horiz-adv-x="264" d="M351 614q0 -44 -28.5 -91t-78 -86.5t-112.5 -64.5l-10 12q25 24 53.5 62t44.5 79q-24 6 -37.5 24t-13.5 44q0 29 15 52t39 36.5t51 13.5q34 0 55.5 -22t21.5 -59z" />
<glyph unicode="&#x201a;" horiz-adv-x="263" d="M238 83q0 -44 -28.5 -91t-78 -86.5t-112.5 -64.5l-10 12q25 24 53.5 62t44.5 79q-24 6 -37.5 24t-13.5 44q0 29 15 52t39 36.5t51 13.5q34 0 55.5 -22t21.5 -59z" />
<glyph unicode="&#x201c;" horiz-adv-x="486" d="M139 453q0 45 28.5 91.5t78.5 86.5t112 64l10 -12q-25 -24 -53.5 -62t-44.5 -79q24 -6 37.5 -24t13.5 -44q0 -29 -15 -52t-38.5 -36.5t-51.5 -13.5q-34 0 -55.5 22t-21.5 59zM362 453q0 45 28.5 91.5t78.5 86.5t112 64l10 -12q-25 -24 -53.5 -62t-44.5 -79 q24 -6 37.5 -24t13.5 -44q0 -29 -15 -52t-38.5 -36.5t-51.5 -13.5q-34 0 -55.5 22t-21.5 59z" />
<glyph unicode="&#x201d;" horiz-adv-x="487" d="M574 614q0 -44 -28.5 -91t-78 -86.5t-112.5 -64.5l-10 12q25 24 53.5 62t44.5 79q-24 6 -37.5 24t-13.5 44q0 29 15 52t39 36.5t51 13.5q34 0 55.5 -22t21.5 -59zM351 614q0 -44 -28.5 -91t-78 -86.5t-112.5 -64.5l-10 12q25 24 53.5 62t44.5 79q-24 6 -37.5 24t-13.5 44 q0 29 15 52t39 36.5t51 13.5q34 0 55.5 -22t21.5 -59z" />
<glyph unicode="&#x201e;" horiz-adv-x="486" d="M461 83q0 -44 -28.5 -91t-78 -86.5t-112.5 -64.5l-10 12q25 24 53.5 62t44.5 79q-24 6 -37.5 24t-13.5 44q0 29 15 52t39 36.5t51 13.5q34 0 55.5 -22t21.5 -59zM238 83q0 -44 -28.5 -91t-78 -86.5t-112.5 -64.5l-10 12q25 24 53.5 62t44.5 79q-24 6 -37.5 24t-13.5 44 q0 29 15 52t39 36.5t51 13.5q34 0 55.5 -22t21.5 -59z" />
<glyph unicode="&#x2020;" horiz-adv-x="506" d="M262 -10h-22l-98 124l184 293l-205 -94l-4 3q5 44 15 102t20 107l12 6l167 -93l-67 202l4 4q53 5 114 7.5t127 2.5l6 -8l-155 -209l205 94l3 -3q-4 -43 -13.5 -99.5t-20.5 -109.5l-12 -6l-169 94l59 -293z" />
<glyph unicode="&#x2021;" horiz-adv-x="506" d="M103 295l12 6l170 -103q-11 21 -23 46.5t-19.5 47.5t-5.5 33q3 14 18.5 34t36 42.5t40.5 43.5l-204 -96l-3 3q4 44 14.5 104t21.5 115l12 6l171 -104l-90 167l4 4q53 5 124 7.5t137 2.5l6 -8l-164 -174l213 105l4 -3q-4 -43 -14.5 -103.5t-22.5 -115.5l-12 -6l-168 97 q17 -31 34 -65.5t12 -55.5q-2 -11 -19.5 -33t-41 -48t-43.5 -48l213 105l3 -3q-4 -43 -14.5 -103.5t-21.5 -115.5l-13 -6l-167 96l87 -159l-4 -4q-52 -5 -123.5 -7.5t-137.5 -2.5l-6 8l156 166l-206 -97l-3 3q4 44 14.5 104t22.5 115z" />
<glyph unicode="&#x2022;" horiz-adv-x="459" d="M277 181q-59 0 -94.5 35t-35.5 85q0 45 26 83.5t67 62t87 23.5q53 0 88 -31.5t35 -85.5q0 -47 -23.5 -86.5t-62.5 -62.5t-87 -23z" />
<glyph unicode="&#x2026;" horiz-adv-x="707" d="M598 -10q-36 0 -57.5 20t-21.5 52q0 29 15 52t39.5 36.5t52.5 13.5q33 0 54 -18.5t21 -50.5q0 -28 -14 -52t-37.5 -38.5t-51.5 -14.5zM358 -10q-36 0 -57.5 20t-21.5 52q0 29 15 52t39.5 36.5t52.5 13.5q33 0 54 -18.5t21 -50.5q0 -28 -14 -52t-37.5 -38.5t-51.5 -14.5z M118 -10q-36 0 -57.5 20t-21.5 52q0 29 15 52t39.5 36.5t52.5 13.5q33 0 54 -18.5t21 -50.5q0 -28 -14 -52t-37.5 -38.5t-51.5 -14.5z" />
<glyph unicode="&#x2030;" horiz-adv-x="1486" d="M821 660h101l-539 -670h-103zM541 506q0 -64 -32 -114.5t-85.5 -79.5t-119.5 -30q-79 -1 -123.5 41t-44.5 106q0 66 32 117t85 80.5t116 29.5q80 0 126 -40.5t46 -109.5zM289 342q0 -36 16 -36q13 0 26.5 27t25 70t18.5 94t7 99q0 37 -16 37q-13 0 -26.5 -27t-25 -70.5 t-18.5 -94.5t-7 -99zM1048 218q0 -64 -32 -114.5t-85.5 -79.5t-119.5 -30q-79 -1 -123.5 41t-44.5 106q0 66 32 117t85 80.5t116 29.5q80 0 126 -40.5t46 -109.5zM1487 218q0 -64 -32 -114.5t-85.5 -79.5t-119.5 -30q-79 -1 -123.5 41t-44.5 106q0 66 32 117t85 80.5 t116 29.5q80 0 126 -40.5t46 -109.5zM796 54q0 -36 16 -36q13 0 26.5 27t25 70t18.5 94t7 99q0 37 -16 37q-13 0 -26.5 -27t-25 -70.5t-18.5 -94.5t-7 -99zM1235 54q0 -36 16 -36q13 0 26.5 27t25 70t18.5 94t7 99q0 37 -16 37q-13 0 -26.5 -27t-25 -70.5t-18.5 -94.5 t-7 -99z" />
<glyph unicode="&#x2039;" horiz-adv-x="307" d="M275 52l-13 -8q-41 53 -85.5 103.5t-82.5 89.5l-2 6l10 50q72 48 139 92.5t113 78.5l10 -8q-28 -54 -61 -107t-64 -99q10 -43 19.5 -93.5t16.5 -104.5z" />
<glyph unicode="&#x203a;" horiz-adv-x="307" d="M313 215q-72 -48 -139 -92.5t-113 -78.5l-10 8q28 54 61 107t64 99q-10 43 -19.5 93.5t-16.5 104.5l13 8q41 -52 85.5 -103t82.5 -90l2 -6z" />
<glyph unicode="&#x2044;" horiz-adv-x="260" d="M419 660h101l-539 -670h-103z" />
<glyph unicode="&#x2070;" horiz-adv-x="447" d="M543 589q0 -64 -32 -114.5t-85.5 -79.5t-119.5 -30q-79 -1 -123.5 41t-44.5 106q0 66 32 117t85 80.5t116 29.5q80 0 126 -40.5t46 -109.5zM291 425q0 -36 16 -36q13 0 26.5 27t25 70t18.5 94t7 99q0 37 -16 37q-13 0 -26.5 -27t-25 -70.5t-18.5 -94.5t-7 -99z" />
<glyph unicode="&#x2071;" horiz-adv-x="279" d="M293 728q-34 0 -54.5 14.5t-20.5 39.5q0 24 15.5 42t39.5 28t50 10q35 0 55 -14t20 -39q0 -37 -32 -59t-73 -22zM126 558l-7 3q13 35 35 65.5t52 49.5t67 19q38 0 57 -21.5t19 -59.5q0 -19 -6.5 -49.5t-15.5 -62.5t-15.5 -57t-6.5 -33q0 -10 7 -10q8 0 23.5 18t33.5 40 l7 -3q-12 -34 -34 -65t-51.5 -50t-67.5 -19t-57.5 22t-19.5 59q0 19 7 46.5t15.5 57t15.5 55.5t7 43q0 10 -8 10q-7 0 -22.5 -17.5t-34.5 -40.5z" />
<glyph unicode="&#x2074;" horiz-adv-x="380" d="M113 494l260 245l89 -12l-46 -214l49 1l-17 -65l-45 1l-17 -79h-152l16 80l-142 2zM283 619l-114 -113l92 2z" />
<glyph unicode="&#x2075;" horiz-adv-x="340" d="M419 494q0 -57 -75 -93t-231 -36l-1 12q136 24 136 90q0 20 -14 30t-36 10q-12 0 -20 -2l-16 -4l-9 8l52 226q42 -1 96 -2.5t103 -1.5q17 0 27.5 6.5t22.5 28.5l7 -2q-10 -43 -19.5 -72t-24.5 -43.5t-44 -14.5q-32 0 -75 4t-79 7l-14 -66q15 4 30 5.5t31 1.5 q71 0 112 -25.5t41 -66.5z" />
<glyph unicode="&#x2076;" horiz-adv-x="386" d="M133 492q0 70 45.5 125t125.5 87.5t183 34.5v-14q-69 -22 -123.5 -67t-81.5 -109q34 53 106 53q40 0 65 -22t25 -60q0 -44 -28 -79.5t-73.5 -55.5t-98.5 -20q-69 0 -107 34.5t-38 92.5zM341 520q0 42 -18 42q-14 0 -28 -22t-22 -55.5t-6 -67.5q2 -29 20 -29 q13 0 25.5 18.5t20.5 49t8 64.5z" />
<glyph unicode="&#x2077;" horiz-adv-x="288" d="M303 388q-14 -23 -53 -23q-25 0 -45 14t-31 33q47 63 85.5 114t71.5 103q-35 4 -69.5 7t-60.5 3q-22 0 -33 -6.5t-24 -28.5l-7 2q14 60 28.5 96.5t53.5 36.5q34 0 60 -12.5t44.5 -29.5t29.5 -32q22 36 41 74q13 0 21.5 -6.5t8.5 -17.5q0 -7 -9.5 -38t-24.5 -74t-32 -87.5 t-31.5 -79.5t-23.5 -48z" />
<glyph unicode="&#x2078;" horiz-adv-x="399" d="M474 477q0 -52 -53 -82t-141 -30q-71 0 -115 23t-44 61q0 33 37.5 52t86.5 22q-28 22 -50.5 48t-22.5 61t24 58.5t65 36t90 12.5q64 0 103.5 -22.5t39.5 -59.5q0 -31 -28.5 -50.5t-71.5 -27.5q31 -21 55.5 -45t24.5 -57zM309 671q0 -20 15.5 -37t37.5 -33q13 42 13 69 q0 21 -6.5 33.5t-22.5 12.5q-17 0 -27 -12.5t-10 -32.5zM259 436q0 -21 8 -34.5t25 -13.5t27.5 11t10.5 30q0 20 -18.5 38.5t-42.5 37.5q-10 -38 -10 -69z" />
<glyph unicode="&#x2079;" horiz-adv-x="386" d="M488 612q0 -70 -45.5 -125t-125.5 -87.5t-183 -34.5v14q69 22 123.5 67t81.5 109q-34 -53 -106 -53q-40 0 -65 22t-25 60q0 45 28 80t74 55t98 20q69 0 107 -34t38 -93zM280 584q0 -42 18 -42q15 0 28.5 22t21.5 55.5t6 67.5q-2 29 -20 29q-13 0 -25.5 -18.5t-20.5 -48.5 t-8 -65z" />
<glyph unicode="&#x207f;" horiz-adv-x="509" d="M290 330q-6 0 -27.5 -1t-48 -2t-47 -1.5t-24.5 -0.5q-16 0 -13 12l28 122l17 72l5 24q10 44 10 51q0 10 -6 10q-8 0 -23.5 -17.5t-33.5 -40.5l-8 3q11 35 31 65.5t49.5 49.5t66.5 19q34 0 54 -17.5t20 -50.5q0 -22 -5.5 -48t-12.5 -48h2q74 164 177 164q36 0 57.5 -20 t21.5 -52q0 -19 -6 -48t-14 -60t-16 -56q-4 -17 -7 -29.5t-3 -17.5q0 -10 8 -10t23 18t34 40l7 -3q-13 -34 -35 -65t-51.5 -50t-67.5 -19t-57 22t-19 59q0 12 2 26t5 29q9 40 21 78.5t12 57.5q0 12 -10 12q-11 0 -27 -20.5t-32.5 -54t-27.5 -73.5z" />
<glyph unicode="&#x2080;" horiz-adv-x="447" d="M443 117q0 -64 -32 -114.5t-85.5 -79.5t-119.5 -30q-79 -1 -123.5 41t-44.5 106q0 66 32 117t85 80.5t116 29.5q80 0 126 -40.5t46 -109.5zM191 -47q0 -36 16 -36q13 0 26.5 27t25 70t18.5 94t7 99q0 37 -16 37q-13 0 -26.5 -27t-25 -70.5t-18.5 -94.5t-7 -99z" />
<glyph unicode="&#x2081;" horiz-adv-x="264" d="M217 -101h-205v9l13 6q11 3 15.5 9.5t6.5 16.5l62 269l-39 4l1 8l202 46l5 -5l-78 -322l-5 -18l25 -14z" />
<glyph unicode="&#x2082;" horiz-adv-x="344" d="M88 -96q-19 0 -37 -3t-35 -8l-13 60q77 43 118 86t41 89q0 22 -12 34.5t-33 12.5q-22 0 -39.5 -11t-34.5 -32l-6 4q22 58 66 94.5t114 36.5q53 0 87.5 -28t34.5 -72q0 -100 -200 -166q-7 -2 -14 -4.5t-14 -4.5q12 0 23 1t22 1q31 0 57.5 -3t52.5 -3q13 0 23 7.5t20 26.5 l7 -2q-6 -26 -12 -47.5t-13 -37.5q-18 -42 -48 -42q-34 0 -72 5.5t-83 5.5z" />
<glyph unicode="&#x2083;" horiz-adv-x="320" d="M295 4q0 -51 -81 -81t-233 -30l-1 12q74 13 109.5 39.5t35.5 62.5q0 20 -12 32t-35 12q-5 0 -10.5 -0.5t-10.5 -1.5l-4 22q47 11 72 31t25 45q0 33 -37 33q-20 0 -38 -10.5t-32 -29.5l-6 4q20 55 67.5 89t108.5 34q51 0 78.5 -22t27.5 -54q0 -46 -46.5 -74t-118.5 -39 q61 5 101 -15.5t40 -58.5z" />
<glyph unicode="&#x2084;" horiz-adv-x="380" d="M13 22l260 245l89 -12l-46 -214l49 1l-17 -65l-45 1l-17 -79h-152l16 80l-142 2zM183 147l-114 -113l92 2z" />
<glyph unicode="&#x2085;" horiz-adv-x="340" d="M319 22q0 -57 -75 -93t-231 -36l-1 12q136 24 136 90q0 20 -14 30t-36 10q-12 0 -20 -2l-16 -4l-9 8l52 226q42 -1 96 -2.5t103 -1.5q17 0 27.5 6.5t22.5 28.5l7 -2q-10 -43 -19.5 -72t-24.5 -43.5t-44 -14.5q-32 0 -75 4t-79 7l-14 -66q15 4 30 5.5t31 1.5 q71 0 112 -25.5t41 -66.5z" />
<glyph unicode="&#x2086;" horiz-adv-x="387" d="M33 20q0 70 45.5 125t125.5 87.5t183 34.5v-14q-69 -22 -123.5 -67t-81.5 -109q34 53 106 53q40 0 65 -22t25 -60q0 -44 -28 -79.5t-73.5 -55.5t-98.5 -20q-69 0 -107 34.5t-38 92.5zM241 48q0 42 -18 42q-14 0 -28 -22t-22 -55.5t-6 -67.5q2 -29 20 -29q13 0 25.5 18.5 t20.5 49t8 64.5z" />
<glyph unicode="&#x2087;" horiz-adv-x="288" d="M100 167q-22 0 -33 -6.5t-24 -28.5l-7 2q14 60 28.5 96.5t53.5 36.5q34 0 60 -12.5t44.5 -29.5t29.5 -32q22 36 41 74q13 0 21.5 -6.5t8.5 -17.5q0 -7 -9.5 -38t-24.5 -74t-32 -87.5t-31.5 -79.5t-23.5 -48q-14 -23 -53 -23q-25 0 -45 13.5t-31 33.5q47 63 85.5 114 t71.5 103q-35 4 -69.5 7t-60.5 3z" />
<glyph unicode="&#x2088;" horiz-adv-x="398" d="M373 5q0 -52 -53 -82t-141 -30q-71 0 -115 23t-44 61q0 33 37.5 52t86.5 22q-28 22 -50.5 48t-22.5 61t24 58.5t65 36t90 12.5q64 0 103.5 -22.5t39.5 -59.5q0 -31 -28.5 -50.5t-71.5 -27.5q31 -21 55.5 -45t24.5 -57zM208 199q0 -20 15.5 -37t37.5 -33q13 42 13 69 q0 21 -6.5 33.5t-22.5 12.5q-17 0 -27 -12.5t-10 -32.5zM158 -36q0 -21 8 -34.5t25 -13.5t27.5 11t10.5 30q0 20 -18.5 38.5t-42.5 37.5q-10 -38 -10 -69z" />
<glyph unicode="&#x2089;" horiz-adv-x="387" d="M388 140q0 -70 -45.5 -125t-125.5 -87.5t-183 -34.5v14q69 22 123.5 67t81.5 109q-34 -53 -106 -53q-40 0 -65 22t-25 60q0 45 28 80t74 55t98 20q69 0 107 -34t38 -93zM180 112q0 -42 18 -42q15 0 28.5 22t21.5 55.5t6 67.5q-2 29 -20 29q-13 0 -25.5 -18.5t-20.5 -48.5 t-8 -65z" />
<glyph unicode="&#x2090;" horiz-adv-x="496" d="M21 -42q0 50 19 97t55.5 85t89.5 60.5t121 22.5q50 0 99 -8.5t83 -23.5l-20 -49l-36 -155q-4 -17 -7 -29.5t-3 -17.5q0 -10 7 -10q8 0 23.5 18t33.5 40l7 -3q-12 -34 -34 -65t-51.5 -50t-67.5 -19q-39 0 -58 22t-19 59q0 23 8 55l7 28h-2q-36 -80 -77 -122t-85 -42 q-46 0 -69.5 31.5t-23.5 75.5zM314 165l8 22q-13 11 -29 11t-33 -17.5t-31.5 -46t-26.5 -61t-18.5 -62.5t-6.5 -51q0 -30 14 -30q11 0 27 23t34 59t34.5 77t27.5 76z" />
<glyph unicode="&#x2091;" horiz-adv-x="404" d="M384 -20q-15 -40 -45.5 -69t-70 -44.5t-81.5 -15.5q-73 0 -116.5 39t-43.5 103q0 63 33 115.5t88.5 83.5t124.5 31q55 0 94.5 -23.5t39.5 -70.5q0 -49 -51 -83.5t-160 -37.5q5 -35 24.5 -51.5t49.5 -16.5q29 0 56 12t52 33zM264 194q-16 0 -32 -25.5t-26.5 -63 t-10.5 -74.5q24 7 43.5 29t31 52t11.5 62q0 20 -17 20z" />
<glyph unicode="&#x2092;" horiz-adv-x="476" d="M463 74q0 -66 -34.5 -116.5t-91.5 -79t-125 -28.5q-85 0 -134 39.5t-49 110.5q0 64 34.5 114t92.5 79.5t126 29.5q87 0 134 -43.5t47 -105.5zM196 -48q0 -33 4.5 -53t17.5 -20t24.5 19t21 49.5t16.5 65.5t11 66.5t4 52.5q0 62 -22 62q-16 0 -30 -26t-24.5 -65t-16.5 -80 t-6 -71z" />
<glyph unicode="&#x2093;" horiz-adv-x="435" d="M151 -138q-31 -11 -69 -11q-34 0 -57 15t-23 45t19.5 52t52 38t70.5 27l-27 61q-12 28 -18.5 39.5t-14.5 11.5q-11 0 -27 -16.5t-31 -34.5l-6 4q25 59 63.5 94.5t87.5 35.5q33 0 50 -12.5t30 -39.5t32 -71l13 -28q6 50 6 101q0 13 -0.5 22.5t-2.5 16.5q14 5 30 8t36 3 q35 0 59 -15.5t24 -42.5q0 -30 -19.5 -52.5t-52 -38.5t-69.5 -27l27 -62q13 -28 19.5 -39.5t13.5 -11.5q11 0 27 16t31 35l6 -5q-23 -58 -62.5 -93.5t-87.5 -35.5q-33 0 -50.5 12.5t-30 39.5t-32.5 71l-14 31q-3 -24 -4.5 -51.5t-1.5 -52.5q0 -13 0.5 -22t2.5 -17z" />
<glyph unicode="&#x2095;" horiz-adv-x="489" d="M170 -142q-6 0 -27.5 -1t-48 -2t-47 -1.5t-24.5 -0.5q-16 0 -13 12l28 122l61 267l9 39l-54 25v9q31 7 71 12.5t80 9.5t71 6l6 -8l-22 -93q-4 -18 -13 -50.5t-20.5 -71t-24.5 -73.5h2q74 164 177 164q36 0 57.5 -20t21.5 -52q0 -19 -6 -48t-14 -60t-16 -56 q-4 -17 -7 -29.5t-3 -17.5q0 -10 8 -10t23 18t34 40l7 -3q-13 -34 -35 -65t-51.5 -50t-67.5 -19t-57 22t-19 59q0 12 2 26t5 29q9 40 21 78.5t12 57.5q0 12 -10 12q-11 0 -27 -20.5t-32.5 -54t-27.5 -73.5z" />
<glyph unicode="&#x2096;" horiz-adv-x="484" d="M170 -142q-6 0 -27.5 -1t-48 -2t-47 -1.5t-24.5 -0.5q-17 0 -12 12l27 122l62 267l8 39l-54 25v9q31 7 71 12.5t80 9.5t71 6l6 -8l-22 -93q-10 -43 -25.5 -96t-32.5 -99h3q40 88 86.5 126t103.5 38q39 0 61 -23t22 -53q0 -41 -32 -68.5t-70 -43.5q16 -41 31 -69.5 t32 -28.5q12 0 29.5 14.5t37.5 36.5l7 -3q-15 -34 -40 -64.5t-57 -50t-70 -19.5q-39 0 -59.5 19t-31.5 51t-24 69l1 4q39 23 62 57t23 61q0 24 -19 24q-13 0 -31.5 -20t-37 -53.5t-30.5 -75.5z" />
<glyph unicode="&#x2097;" horiz-adv-x="258" d="M33 -13l66 267l9 39l-54 25v9q31 7 71 12.5t79.5 9.5t70.5 6l6 -8l-21 -93l-66 -267q-4 -17 -7 -29.5t-3 -17.5q0 -10 8 -10t23 18t33 40l7 -3q-12 -34 -34 -65t-51.5 -50t-67.5 -19t-57.5 22t-19.5 59q0 23 8 55z" />
<glyph unicode="&#x2098;" horiz-adv-x="729" d="M222 59h3q35 81 81 122.5t96 41.5q30 0 48.5 -16.5t18.5 -44.5q0 -19 -5.5 -46.5t-12.5 -56.5h2q35 81 81 122.5t92 41.5q34 0 54 -20t20 -52q0 -19 -6 -48t-14 -60t-16 -56q-4 -17 -7 -29.5t-3 -17.5q0 -10 8 -10t23 18t34 40l7 -3q-13 -34 -34.5 -65t-51.5 -50t-68 -19 t-57 22t-19 59q0 12 2 26t5 29q9 41 21 79.5t12 58.5q0 10 -6 10q-9 0 -24.5 -20.5t-31.5 -54t-26 -73.5l-30 -129q-5 0 -27 -1t-48 -2t-47 -1.5t-25 -0.5q-15 0 -12 12l28 122q17 71 23 98.5t6 37.5q0 12 -9 12q-11 0 -27.5 -20.5t-32.5 -54t-28 -73.5l-29 -129 q-5 0 -27 -1t-48 -2t-47 -1.5t-25 -0.5q-17 0 -12 12l27 122l17 72l6 24q9 47 9 51q0 10 -6 10q-7 0 -23 -17.5t-34 -40.5l-8 3q11 35 31 65.5t49.5 49.5t66.5 19q34 0 54.5 -17.5t20.5 -50.5q0 -22 -6 -48t-13 -48z" />
<glyph unicode="&#x2099;" horiz-adv-x="509" d="M222 59h2q74 164 177 164q36 0 57.5 -20t21.5 -52q0 -19 -6 -48t-14 -60t-16 -56q-4 -17 -7 -29.5t-3 -17.5q0 -10 8 -10t23 18t34 40l7 -3q-13 -34 -35 -65t-51.5 -50t-67.5 -19t-57 22t-19 59q0 12 2 26t5 29q9 40 21 78.5t12 57.5q0 12 -10 12q-11 0 -27 -20.5 t-32.5 -54t-27.5 -73.5l-29 -129q-6 0 -27.5 -1t-48 -2t-47 -1.5t-24.5 -0.5q-16 0 -13 12l28 122l17 72l5 24q10 44 10 51q0 10 -6 10q-8 0 -23.5 -17.5t-33.5 -40.5l-8 3q11 35 31 65.5t49.5 49.5t66.5 19q34 0 54 -17.5t20 -50.5q0 -22 -5.5 -48t-12.5 -48z" />
<glyph unicode="&#x209a;" horiz-adv-x="487" d="M222 59h2q71 164 166 164q47 0 69 -33t22 -76q0 -49 -17.5 -95.5t-53 -84.5t-88 -60.5t-121.5 -22.5h-13l-29 -128q-5 0 -27 -1t-48 -1.5t-47 -1.5t-25 -1q-15 0 -12 13l28 121l47 207l5 24q10 44 10 51q0 10 -6 10q-7 0 -23 -17.5t-34 -40.5l-8 3q11 35 31 65.5 t49.5 49.5t66.5 19q34 0 54.5 -17.5t20.5 -50.5q0 -22 -6 -48t-13 -48zM313 144q-10 0 -27 -19t-34.5 -53t-30.5 -77l-27 -118q5 -1 12 -1q25 0 46.5 25.5t38 64t25.5 78.5t9 69q0 14 -2 22.5t-10 8.5z" />
<glyph unicode="&#x209b;" horiz-adv-x="384" d="M365 -40q0 -49 -48 -79t-149 -30q-44 0 -82.5 8t-62 24t-23.5 41q0 20 29.5 35t85.5 15l7 -3q2 -14 4.5 -27t6.5 -24q6 -19 16.5 -30t27.5 -11q14 0 22 8.5t8 20.5q0 18 -16.5 35.5t-41 35.5t-49.5 37.5t-41.5 42.5t-16.5 50q0 51 48.5 82.5t137.5 31.5q73 0 119.5 -21 t46.5 -53q0 -23 -29 -37.5t-78 -11.5l-7 3q-3 29 -9 52q-6 17 -15.5 28t-24.5 11q-16 0 -24 -8.5t-8 -21.5q0 -19 17 -36.5t41.5 -35.5t49 -38t41.5 -43t17 -51z" />
<glyph unicode="&#x209c;" horiz-adv-x="303" d="M300 -15q-13 -34 -36.5 -65t-55.5 -50t-72 -19q-44 0 -66 23.5t-22 60.5q0 15 2 27t5 25l43 189h-52l1 8l61 30l170 82l8 -1l-21 -94h65l-6 -25h-65l-43 -189q-4 -19 -6 -28t-2 -16q0 -13 13 -13q11 0 30.5 16.5t41.5 41.5z" />
<glyph unicode="&#x20ac;" horiz-adv-x="682" d="M558 255h-145q9 -124 136 -124q37 0 68.5 10.5t59.5 26.5l7 -7q-22 -47 -61.5 -86t-94.5 -62t-124 -23q-110 0 -174.5 62t-64.5 170q0 17 1 33h-72l15 45h63q4 23 10 45h-60l15 45h61q33 80 92 140.5t135 95t159 34.5q85 0 131.5 -32t46.5 -77q0 -43 -33 -67t-77 -24 q-14 0 -26 1.5t-24 2.5q6 41 6 72q0 35 -9.5 54.5t-33.5 19.5q-28 0 -55.5 -31t-49.5 -81t-35 -108h176l-15 -45h-169q-3 -23 -4 -45h160z" />
<glyph unicode="&#x2122;" horiz-adv-x="814" d="M178 650h276l-23 -109h-19l-3 79h-49l-46 -214l37 -8l-4 -17h-176l4 17l39 9l46 213h-43l-43 -79h-19zM423 381l4 17l40 9l48 221l-35 6l3 16h171l18 -124l73 124h167l-3 -16l-34 -5l-48 -223l30 -8l-4 -17h-177l4 17l37 9l44 200h-6l-129 -221h-38l-38 221h-5l-43 -201 l39 -8l-4 -17h-114z" />
<glyph unicode="&#x2212;" horiz-adv-x="539" d="M534 256h-430l28 132q37 2 94 3t121 1.5t122 1t96 0.5l6 -8z" />
</font>
</defs>
</svg>
