<?xml version="1.0" standalone="no"?>
<!DOCTYPE svg PUBLIC "-//W3C//DTD SVG 1.1//EN" "http://www.w3.org/Graphics/SVG/1.1/DTD/svg11.dtd" >
<svg xmlns="http://www.w3.org/2000/svg" xmlns:xlink="http://www.w3.org/1999/xlink" version="1.1">
<metadata></metadata>
<defs>
<font id="indivisa_display_serifthin" horiz-adv-x="702" >
<font-face units-per-em="1000" ascent="800" descent="-200" />
<missing-glyph horiz-adv-x="200" />
<glyph unicode="ff" horiz-adv-x="616" d="M255 0h-218l-1 10l69 12q10 2 13 6t3 11v424h-78l-1 10l79 12v0q1 62 22.5 109.5t60 74t89.5 26.5q45 0 79.5 -25.5t46.5 -63.5q21 41 54.5 65t78.5 24q32 0 56 -13.5t38 -35t14 -45.5t-17 -24q-7 0 -13 3q-3 42 -26.5 66.5t-58.5 24.5q-57 0 -89 -46t-32 -140h172v-22 h-172v-437l105 -16l-1 -10h-218l-1 10l69 12q10 2 13 6t3 11v424h-243v-437l105 -16zM288 671q-64 0 -100.5 -46t-36.5 -140h243q1 35 7 65q-2 56 -35 88.5t-78 32.5z" />
<glyph unicode="ffi" horiz-adv-x="807" d="M255 0h-218l-1 10l69 12q10 2 13 6t3 11v424h-78l-1 10l79 12v0q1 62 22.5 109.5t60 74t89.5 26.5q45 0 80 -26t47 -66q22 43 59 67.5t86 24.5q36 0 63 -14t42.5 -36t15.5 -46q0 -22 -17 -22q-7 0 -13 3q-4 42 -31 66.5t-67 24.5q-72 0 -107 -60q-27 -47 -27 -126h243 q5 7 10.5 14t12.5 11l7 -7v-477l105 -16l-1 -10h-218l-1 10l69 12q10 2 13 6t3 11v424h-243v-437l105 -16l-1 -10h-218l-1 10l69 12q10 2 13 6t3 11v424h-243v-437l105 -16zM288 671q-64 0 -100.5 -46t-36.5 -140h243q1 33 7 62q-1 58 -34.5 91t-78.5 33z" />
<glyph unicode="ffl" horiz-adv-x="807" d="M235 0h-198l-1 10l69 12q10 2 13 6t3 11v424h-78l-1 10l79 12v0q1 62 22.5 109.5t60 74t89.5 26.5q46 0 80.5 -26.5t47.5 -66.5q22 44 60 68.5t88 24.5q33 0 60 -11.5t43 -30.5q4 3 8.5 5.5t9.5 4.5l7 -7v-630l85 -16l-1 -10h-198l-1 10l69 12q10 2 13 6t3 11l-1 424 h-242v-437l85 -16l-1 -10h-198l-1 10l69 12q10 2 13 6t3 11v424h-243v-437l85 -16zM288 671q-64 0 -100.5 -46t-36.5 -140h243q1 33 7 62q-1 58 -34.5 91t-78.5 33zM562 671q-65 0 -101.5 -46t-36.5 -140h242v108q-5 36 -35 57t-69 21z" />
<glyph unicode="&#x2f;symbol&#x31;&#x2f;" horiz-adv-x="5534" d="M1865 412q-25 0 -40.5 14.5t-15.5 37.5q0 24 15.5 45t39 34.5t48.5 13.5q24 0 39 -13.5t15 -37.5t-14.5 -45.5t-37.5 -35t-49 -13.5zM1284 412q-26 0 -41.5 14.5t-15.5 37.5q0 24 15.5 45t39.5 34.5t49 13.5q24 0 38.5 -13.5t14.5 -37.5t-14.5 -45.5t-37 -35t-48.5 -13.5 zM959 0q0 21 2.5 46.5t8.5 61.5q-16 -49 -51 -82t-79 -33q-41 0 -63 30t-22 82q0 45 15.5 91t46.5 85.5t76.5 63.5t104.5 24h12.5t12.5 -1l16 73l6 102l136 7q0 -40 -9.5 -95t-23 -116.5t-27 -123.5t-23 -117.5t-9.5 -97.5h-130zM100 0l78 364q8 38 13.5 72.5t7.5 63.5 l128 7l11 -15l-104 -492h-134zM3503 492l-57 -492h-131l20 175q3 30 9 69t12.5 78t11.5 68h-3q-16 -53 -37 -107.5t-44 -107.5l-76 -175h-149l-2 175q-1 56 1 109t8 106h-2q-15 -61 -30 -115.5t-29 -99.5l-53 -175h-109l154 500l184 6l1 -137q1 -50 -2.5 -121.5 t-12.5 -137.5h2q20 65 36 111t30.5 81t27.5 67l56 131l169 7zM5316 300q-15 -74 -23 -110.5t-11 -51t-3 -21.5q0 -34 36 -34q13 0 28 5t31 13l-9 -79q-20 -11 -50 -20t-64 -9q-50 0 -77.5 25t-27.5 75q0 11 1.5 23.5t6 33.5t12.5 57.5t20 95.5l-47 1l9 44l54 14l53 95l81 6 l13 -15l-20 -86h99l6 -14l-17 -51zM336 0q0 28 4 62t13 82t24 116l6 102l137 7q0 -18 -2 -41t-5 -48h2q29 49 65.5 69t68.5 20q35 0 53.5 -19.5t18.5 -51.5q0 -23 -8 -62.5t-18 -84.5q-7 -33 -11 -57t-5.5 -45.5t-1.5 -48.5h-131q0 38 4.5 69.5t14.5 80.5q7 35 11 55.5 t4 31.5q0 24 -17 24t-34 -22.5t-30.5 -60.5t-22 -84t-9.5 -94h-131zM1170 0q0 39 7 87.5t20 105.5l14 67l6 102l137 7q0 -36 -8 -81.5t-19 -95.5t-19 -99t-8 -93h-130zM1399 362l140 7q6 -59 4.5 -137.5t-9.5 -151.5h2q23 45 42 95t32 99t17 90q17 4 28.5 4.5t21.5 0.5 q28 0 46.5 -7t18.5 -35q0 -22 -13.5 -60.5t-36.5 -85t-53.5 -94t-63.5 -87.5h-149q-2 111 -9.5 207.5t-17.5 154.5zM1752 0q0 39 7 87.5t19 105.5l15 67l6 102l137 7q0 -36 -8 -81.5t-19 -95.5t-19 -99t-8 -93h-130zM4716 0q0 28 4 62t13 82t24 116l6 102l137 7 q0 -18 -2.5 -41t-4.5 -48h2q29 49 65 69t69 20q35 0 53.5 -19.5t18.5 -51.5q0 -23 -8 -62.5t-18 -84.5q-7 -33 -11 -57t-6 -45.5t-2 -48.5h-130q0 38 4.5 69.5t14.5 80.5q7 35 11 55.5t4 31.5q0 24 -17 24q-18 0 -34.5 -22.5t-30.5 -60.5t-22.5 -84t-9.5 -94h-130zM2245 256 q-25 14 -51.5 22t-45.5 8q-17 0 -29.5 -7t-12.5 -19q0 -13 13 -22t32 -17.5t38 -20.5t32 -30.5t13 -47.5q0 -39 -25 -68t-66.5 -45t-89.5 -16q-33 0 -66.5 7.5t-51.5 20.5l27 93q27 -18 58.5 -28t52.5 -10q20 0 30 8t10 18q0 13 -13 22t-32 18t-38 21t-32 30t-13 46 q0 39 25.5 68t67.5 45.5t90 16.5q20 0 48.5 -3.5t55.5 -14.5zM2525 369q32 0 73.5 -7.5t72.5 -24.5l-29 -128q-20 -94 -25.5 -140.5t-5.5 -68.5h-130q0 20 2.5 45t9.5 67q-15 -50 -50.5 -84.5t-81.5 -34.5q-41 0 -62.5 30t-21.5 83q0 44 15.5 90.5t46.5 85.5t77.5 63 t108.5 24zM4653 51q-32 -28 -74 -43t-85 -15q-62 0 -102 33.5t-40 103.5q0 46 17.5 88.5t49.5 76.5t75 54t94 20q53 0 86 -23t33 -65q0 -56 -59 -95.5t-162 -44.5v-1q0 -29 15 -46.5t48 -17.5q22 0 45 7.5t45 20.5zM3936 0q0 28 4 62t13.5 82t24.5 116l5 102l137 7 q0 -18 -2 -41t-5 -48h2q29 49 65.5 69t68.5 20q35 0 53.5 -19.5t18.5 -51.5q0 -23 -8 -62.5t-18 -84.5q-7 -33 -11 -57t-5.5 -45.5t-1.5 -48.5h-131q0 38 4.5 69.5t14.5 80.5q8 35 11.5 55.5t3.5 31.5q0 24 -17 24t-34 -22.5t-30.5 -60.5t-22 -84t-9.5 -94h-131zM3768 369 q32 0 73 -7.5t72 -24.5l-28 -128q-20 -94 -25.5 -140.5t-5.5 -68.5h-130q0 20 2.5 45t9.5 67q-15 -50 -50.5 -84.5t-81.5 -34.5q-41 0 -63 30t-22 83q0 44 15.5 90.5t47 85.5t78 63t108.5 24zM4490 177q46 10 72.5 33.5t26.5 59.5q0 17 -5.5 24t-16.5 7q-20 0 -36 -20 t-26 -48.5t-15 -55.5zM3677 101q17 0 33 21t30 54t22 69q2 11 4.5 22t4.5 22q-16 8 -27 8q-18 0 -34.5 -16t-29 -40.5t-20 -51.5t-7.5 -48q0 -40 24 -40zM913 101q16 0 31 19.5t28.5 50t22.5 64.5l4 20l4 20l3 14q-14 8 -27 8q-18 0 -34 -16t-28.5 -40.5t-20 -51.5t-7.5 -48 q0 -40 24 -40zM2435 101q16 0 32.5 21t30 54t21.5 69q2 11 4.5 22t4.5 22q-14 8 -27 8q-18 0 -34 -16t-29 -40.5t-20 -51.5t-7 -48q0 -40 24 -40z" />
<glyph unicode="&#x2f;symbol&#x32;&#x2f;" horiz-adv-x="932" d="M494 570l52 -90l-137 -240h-103l137 240l-52 90h103zM357 570l52 -90l-138 -240h-103l138 240l-52 90h103zM752 120h-103l-137 240l51 90l137 -240h103zM683 0h-103l-137 240l51 90l138 -240h103zM100 120l51 90h275l51 -90h-274l-52 -90zM168 0l52 90h274l52 -90h-275 l-51 -90zM789 88q18 0 30.5 -13t12.5 -31t-12.5 -31t-30.5 -13t-30.5 13t-12.5 31t12.5 31t30.5 13zM829 44q0 17 -11.5 28.5t-28.5 11.5q-16 0 -28 -11.5t-12 -28.5q0 -16 12 -28t28 -12q17 0 28.5 12t11.5 28zM771 69h18h5t6 -2q5 -4 5 -11q0 -5 -3 -8q-1 -2 -2.5 -2.5 t-3.5 -1.5q7 -1 8 -9q0 -8 3 -16h-8q-1 2 -1 6t-1 7q-1 5 -2.5 7.5t-8.5 2.5h-8v-23h-7v50zM778 47h10h3.5t3.5 1q3 3 3 7q0 6 -4 7t-6 1h-10v-16z" />
<glyph unicode="&#x2f;symbol&#x33;&#x2f;" horiz-adv-x="957" d="M505 638l68 -270h270l-203 -135l136 -270l-271 135l-270 -270l135 405l-270 203l338 -68zM814 87q18 0 30.5 -12.5t12.5 -31.5q0 -18 -12.5 -30.5t-30.5 -12.5t-30.5 12.5t-12.5 30.5q0 19 12.5 31.5t30.5 12.5zM854 43q0 17 -11.5 29t-28.5 12q-16 0 -28 -12t-12 -29 q0 -16 12 -28t28 -12q17 0 28.5 12t11.5 28zM796 68h18h5.5t5.5 -2q6 -3 6 -10q0 -5 -4 -9q-3 -3 -6 -3q7 -3 8 -10q1 -4 1.5 -7.5t1.5 -8.5h-7q-1 3 -1.5 7t-1.5 7q0 9 -10 9h-9v-23h-7v50zM803 47h10h3.5t3.5 1l2 2t1 4q0 7 -4 8t-6 1h-10v-16z" />
<glyph unicode="&#x2f;symbol&#x34;&#x2f;" horiz-adv-x="2607" d="M1684 406q0 32 -2.5 63t-8.5 65l126 14l15 -15v-533h-130v406zM1889 406q0 62 -10 128l126 14l14 -15v-533h-130v406zM427 101v-101h-320v362q0 38 -1.5 72t-5.5 63l126 7l14 -14v-396zM925 21l7 109q31 -18 72 -27t72 -9q50 0 50 36q0 19 -20.5 34t-50 31t-59.5 37 t-50.5 51t-20.5 74q0 48 26 80.5t70 49.5t97 17q81 0 127 -18l-14 -111q-28 14 -55 21.5t-56 7.5q-28 0 -43 -11t-15 -29q0 -22 20.5 -38.5t50.5 -32.5t59.5 -36.5t50 -49.5t20.5 -73q0 -67 -54 -104t-139 -37q-40 0 -82.5 8t-62.5 20zM795 0l-106 -7q-7 11 -12 24t-9 25h-4 q-15 -22 -42.5 -35.5t-61.5 -13.5q-41 0 -69 22t-28 67q0 61 53.5 88.5t137.5 29.5v20q0 54 -58 54q-55 0 -108 -29l-8 97q27 10 68.5 18t81.5 8q154 0 154 -135q0 -38 -2 -69.5t-2 -69.5q0 -24 4.5 -50.5t10.5 -43.5zM1626 0l-107 -7q-7 11 -12 24t-9 25h-3 q-15 -22 -42.5 -35.5t-62.5 -13.5q-40 0 -68 22t-28 67q0 61 53 88.5t138 29.5v20q0 54 -58 54q-54 0 -109 -29l-7 97q27 10 68.5 18t81.5 8q153 0 153 -135q0 -38 -1.5 -69.5t-1.5 -69.5q0 -24 4.5 -50.5t10.5 -43.5zM2405 213v-17t-1 -19l-11 -11h-191q8 -45 33.5 -64 t64.5 -19q24 0 45.5 6t38.5 15l7 -81q-17 -11 -49.5 -20.5t-77.5 -9.5q-88 0 -143 47t-55 135q0 58 24 101t66 67.5t94 24.5q73 0 114 -43.5t41 -111.5zM2199 207l78 4q1 5 1.5 11t0.5 15q0 23 -7.5 41t-26.5 18q-23 0 -34 -25.5t-12 -63.5zM654 74v88q-27 -3 -46 -17 t-19 -40q0 -18 10.5 -29t26.5 -11t28 9zM1485 74v88q-27 -3 -46 -17t-19 -40q0 -18 10 -29t27 -11q16 0 28 9zM2464 85q18 0 30.5 -13t12.5 -31t-12.5 -31t-30.5 -13t-31 13t-13 31t13 31t31 13zM2504 41q0 17 -11.5 28.5t-28.5 11.5q-16 0 -28 -11.5t-12 -28.5 q0 -16 12 -28t28 -12q17 0 28.5 12t11.5 28zM2446 66h18q2 0 5 -0.5t6 -2.5q5 -2 5 -10q0 -4 -3 -9q-3 -3 -6 -3q7 -1 8 -10q0 -7 3 -15h-8q-1 2 -1 6t-1 7q-1 5 -2.5 7t-8.5 2h-8v-22h-7v50zM2453 44h10h3.5t3.5 1q3 3 3 7q0 6 -4 7t-6 1h-10v-16z" />
<glyph unicode="&#x2f;symbol&#x35;&#x2f;" horiz-adv-x="705" d="M232 -6l-132 136l124 234l129 -136zM474 -6l-121 234l128 136l124 -234z" />
<glyph unicode=" "  horiz-adv-x="200" />
<glyph unicode="&#x09;" horiz-adv-x="200" />
<glyph unicode="&#xa0;" horiz-adv-x="200" />
<glyph unicode="!" horiz-adv-x="268" d="M116 690l3 3q7 1 12.5 1.5t10.5 0.5q10 0 10 -10q0 -16 -0.5 -40.5t-1.5 -53.5l-7 -437h-18zM164 16q0 -16 -8.5 -28t-23.5 -12q-12 0 -20 9t-8 25t10 27t23 11q11 0 19 -8.5t8 -23.5z" />
<glyph unicode="&#x22;" horiz-adv-x="326" d="M64 690l3 3q7 1 13.5 1.5t13.5 0.5l6 -6l-11 -219h-14l-5 103zM226 690l3 3q7 1 13.5 1.5t13.5 0.5l6 -6l-11 -219h-14l-5 103z" />
<glyph unicode="#" horiz-adv-x="731" d="M621 193h-164l-50 -203l-22 1l-6 6l48 196h-180l-50 -203l-22 1l-6 6l48 196h-147l-6 5l2 20h157l53 215h-162l-6 5l2 20h172l50 202l22 -1l6 -6l-48 -195h180l50 202l22 -1l6 -6l-48 -195h139l6 -5l-2 -20h-149l-53 -215h154l6 -5zM253 218h180l53 215h-180z" />
<glyph unicode="$" horiz-adv-x="516" d="M271 -120l-25 -2l-5 5v107q-54 1 -97 15t-57 36q-5 8 -6 23t-1 41q0 18 1.5 41t4.5 44h8l20 -140q15 -14 50 -26t83 -12q69 0 112.5 35t43.5 98q0 46 -23 77.5t-59 54t-76 43.5t-76 45.5t-59 59.5t-23 86q0 63 47 103t119 45v111l25 2l5 -5v-107q45 -2 81 -13t46 -24 q8 -12 8 -65q0 -18 -1 -41.5t-5 -43.5h-8l-20 139q-20 12 -45.5 19t-67.5 7q-68 0 -109.5 -33.5t-41.5 -92.5q0 -46 23 -77t59 -54.5t76 -44t76 -45t59 -59t23 -85.5q0 -68 -47.5 -109t-117.5 -47v-111z" />
<glyph unicode="%" horiz-adv-x="909" d="M636 660h36l-401 -670h-35zM358 474q0 -88 -38.5 -138.5t-101.5 -50.5q-64 0 -102 48t-38 137q0 88 39.5 137.5t103.5 49.5q59 0 98 -47t39 -136zM220 303q49 0 78.5 45.5t29.5 125.5t-30 122.5t-78 42.5q-51 0 -81.5 -44.5t-30.5 -124.5t31 -123.5t81 -43.5zM831 182 q0 -88 -38.5 -138.5t-101.5 -50.5q-64 0 -102 48t-38 137q0 88 39.5 137.5t103.5 49.5q59 0 98 -47t39 -136zM693 11q49 0 78.5 45.5t29.5 125.5t-30 122.5t-78 42.5q-51 0 -81.5 -44.5t-30.5 -124.5t31 -123.5t81 -43.5z" />
<glyph unicode="&#x26;" horiz-adv-x="681" d="M292 -10q-98 0 -153 45t-55 119q0 63 38.5 107.5t93.5 72.5q-33 42 -54 82t-21 89q0 45 23 80t60 55t80 20q64 0 102.5 -41t38.5 -101q0 -22 -6.5 -30t-15.5 -8q-8 0 -13 4q3 18 3 30q0 53 -31 87t-81 34q-34 0 -63.5 -16.5t-47 -45.5t-17.5 -66q0 -49 23 -88.5t69 -94.5 l195 -234q3 -3 5 -6q28 32 42 76t14 96q0 59 -32 97q5 6 17 6q25 0 36 -29t11 -68q0 -119 -72 -195q22 -24 44.5 -38t44.5 -14q17 0 33 5.5t28 11.5l6 -8q-14 -13 -34 -23.5t-43 -10.5q-26 0 -50.5 15t-50.5 41q-32 -26 -74 -41t-93 -15zM116 158q0 -67 47.5 -105t129.5 -38 q48 0 85.5 12.5t65.5 35.5q-11 12 -24 27l-188 225q-54 -29 -85 -65.5t-31 -91.5z" />
<glyph unicode="'" horiz-adv-x="164" d="M64 690l3 3q7 1 13.5 1.5t13.5 0.5l6 -6l-11 -219h-14l-5 103z" />
<glyph unicode="(" horiz-adv-x="333" d="M289 -83l-14 -14q-44 40 -83.5 98t-63.5 133t-24 165q0 91 24 165.5t63.5 132.5t83.5 98l14 -14q-36 -37 -71 -94t-58 -130t-24 -158q1 -84 23.5 -157t57.5 -130t72 -95z" />
<glyph unicode=")" horiz-adv-x="333" d="M44 681l14 14q45 -40 84 -98t63 -132.5t24 -165.5q0 -90 -24 -165t-63 -133t-84 -98l-14 14q36 37 71 94t58.5 130.5t23.5 157.5q0 85 -23 157.5t-58 129.5t-72 95z" />
<glyph unicode="*" horiz-adv-x="426" d="M229 473q0 -24 -16 -24t-16 24q0 16 4 37.5t7 52.5q-34 -22 -54 -40.5t-35 -18.5q-7 0 -11 4.5t-4 9.5q0 7 4 11t10 8q14 8 34.5 15t50.5 20q-29 14 -49 21.5t-35 14.5q-15 8 -15 18q0 14 14 14q12 0 35.5 -18.5t54.5 -40.5q-3 32 -7 53.5t-4 36.5q0 24 16 24t16 -24 q0 -16 -4 -37t-7 -53q32 22 54 41t36 19q8 0 11 -5.5t3 -7.5q0 -10 -16 -19q-14 -7 -34 -15t-48 -22q28 -13 48.5 -20.5t34.5 -15.5q21 -11 13 -25q-3 -7 -13 -7q-15 0 -36.5 19t-52.5 40q3 -31 7 -52t4 -38z" />
<glyph unicode="+" horiz-adv-x="539" d="M459 312h-176v-182h-28v182h-180v23q31 1 79.5 1.5t100.5 0.5v183h28v-183q52 1 99 1h78l4 -5z" />
<glyph unicode="," horiz-adv-x="207" d="M143 16q0 -32 -18 -82.5t-55 -92.5l-6 5q23 38 34 74t14 70h-1q-29 3 -29 33q0 15 8.5 25t22.5 10t22 -11.5t8 -30.5z" />
<glyph unicode="-" horiz-adv-x="369" d="M48 250v23h272v-23h-272z" />
<glyph unicode="." horiz-adv-x="188" d="M93 -10q-13 0 -21 9.5t-8 22.5q0 14 9 25t23 11t21 -8.5t7 -22.5q0 -13 -7.5 -25t-23.5 -12z" />
<glyph unicode="/" horiz-adv-x="371" d="M113 -10l-27 7l-2 3l174 695l27 -7l2 -3z" />
<glyph unicode="0" horiz-adv-x="552" d="M496 328q0 -105 -27.5 -180.5t-76.5 -116.5t-116 -41q-101 0 -160.5 86t-59.5 246q0 105 28 180.5t78.5 116.5t118.5 41q63 0 111.5 -38.5t76 -112.5t27.5 -181zM279 15q83 0 133.5 83.5t50.5 229.5q0 148 -51 227.5t-133 79.5q-57 0 -99.5 -37.5t-66.5 -107.5t-24 -168 q0 -148 52.5 -227.5t137.5 -79.5z" />
<glyph unicode="1" horiz-adv-x="343" d="M299 0h-257v10l98 12q10 2 13 6t3 11v587l-114 4l-1 10l138 20l7 -7v-627l114 -16z" />
<glyph unicode="2" horiz-adv-x="485" d="M58 0l-7 23q70 78 129.5 140t103.5 115.5t68.5 104.5t24.5 106q0 65 -35.5 105t-97.5 40q-66 0 -113.5 -42t-72.5 -108l-10 4q17 74 69 123t128 49q80 0 122.5 -48.5t42.5 -120.5q0 -74 -42 -144.5t-116 -148t-169 -173.5h282q14 0 22 7.5t16 33t19 79.5l7 -1 q-1 -35 -5 -72t-12 -72h-354z" />
<glyph unicode="3" horiz-adv-x="457" d="M401 165q0 -48 -27 -87.5t-74 -63.5t-108 -24q-80 0 -128 31.5t-48 81.5q0 45 36 70l6 -5q-4 -7 -7.5 -19t-3.5 -26q0 -54 40 -81t107 -27q50 0 89 19t62 52.5t23 79.5q0 51 -29 83.5t-75 48t-97 15.5q-25 0 -51 -3l-2 16q115 19 176.5 66t61.5 123q0 53 -35 86.5 t-93 33.5q-61 0 -112 -38.5t-74 -103.5l-10 4q17 71 70.5 117t129.5 46q69 0 113 -39.5t44 -102.5q0 -68 -47 -116t-131 -71q85 -6 139.5 -50t54.5 -116z" />
<glyph unicode="4" horiz-adv-x="515" d="M24 172l329 488l22 -5v-480h100l-5 -25h-95v-150h-31v150h-308zM58 175h286v430z" />
<glyph unicode="5" horiz-adv-x="468" d="M420 170q0 -53 -27 -94t-73.5 -63.5t-103.5 -22.5q-77 0 -126.5 32.5t-49.5 84.5q0 48 36 76l6 -5q-5 -13 -8 -25t-3 -29q0 -52 40.5 -81t106.5 -29q76 0 122.5 41t46.5 114q0 94 -79.5 137.5t-228.5 41.5l-7 7l2 295h321q1 -36 -2.5 -76t-8.5 -69h-8q-3 53 -5.5 78 t-10.5 32.5t-26 7.5h-231l-2 -255q16 1 32 1q82 0 147 -22t102.5 -66t37.5 -111z" />
<glyph unicode="6" horiz-adv-x="511" d="M463 190q0 -60 -27.5 -105t-73 -70t-98.5 -25q-66 0 -112.5 32t-71 86.5t-24.5 121.5q0 124 49 213.5t131 144.5t182 72l4 -17q-83 -21 -153 -64.5t-116.5 -113t-59.5 -168.5q34 39 84.5 55t94.5 16q85 0 138 -48t53 -130zM89 228q0 -59 20 -107.5t59 -77.5t96 -29 q47 0 84.5 21.5t59.5 61t22 92.5q0 70 -43 112.5t-121 42.5q-47 0 -97.5 -19.5t-78.5 -61.5q-1 -17 -1 -35z" />
<glyph unicode="7" horiz-adv-x="467" d="M218 0h-32q5 83 25.5 169.5t51.5 169t70 155.5t80 129h-300q-21 0 -32 -8t-15 -35t-7 -85h-8q-5 32 -8.5 74.5t-2.5 80.5h398l5 -26q-43 -55 -81 -128.5t-69 -156.5t-50.5 -169.5t-24.5 -169.5z" />
<glyph unicode="8" horiz-adv-x="492" d="M444 145q0 -45 -28 -80t-74.5 -55t-102.5 -20q-57 0 -100 20t-67 55t-24 79q0 40 22.5 76t61 64.5t87.5 44.5q-36 19 -67 42.5t-50 56t-19 77.5q0 43 23 78t62.5 56t88.5 21q77 0 120.5 -41.5t43.5 -105.5q0 -43 -20 -78t-53 -61.5t-73 -44.5q42 -22 80.5 -46t63.5 -57 t25 -81zM115 506q0 -42 20 -72t52.5 -52.5t69.5 -42.5q32 18 63 43.5t51 58t20 71.5q0 53 -36 88t-97 35q-65 0 -104 -37t-39 -92zM78 146q0 -58 45 -94.5t119 -36.5q46 0 84.5 15.5t62 43.5t23.5 68q0 46 -25.5 77t-65.5 54t-83 45q-68 -31 -114 -75t-46 -97z" />
<glyph unicode="9" horiz-adv-x="511" d="M48 460q0 60 27.5 105t73 70t98.5 25q67 0 113 -32t70.5 -86.5t24.5 -121.5q0 -123 -49 -213t-131 -144.5t-182 -72.5l-4 17q83 21 153 64.5t116.5 113t59.5 168.5q-34 -39 -84.5 -55t-94.5 -16q-85 0 -138 48t-53 130zM81 461q0 -70 43 -112.5t121 -42.5q47 0 97.5 19.5 t78.5 61.5q1 17 1 35q0 59 -20 107.5t-59 77.5t-96 29q-46 0 -84 -21.5t-60 -60.5t-22 -93z" />
<glyph unicode=":" horiz-adv-x="188" d="M93 340q-13 0 -21 9.5t-8 22.5q0 14 9 25t23 11t21 -8.5t7 -22.5q0 -13 -7.5 -25t-23.5 -12zM93 -10q-13 0 -21 9.5t-8 22.5q0 14 9 25t23 11t21 -8.5t7 -22.5q0 -13 -7.5 -25t-23.5 -12z" />
<glyph unicode=";" horiz-adv-x="207" d="M112 340q-13 0 -21 9.5t-8 22.5q0 14 9 25t23 11t21 -8.5t7 -22.5q0 -13 -7.5 -25t-23.5 -12zM143 16q0 -32 -18 -82.5t-55 -92.5l-6 5q23 38 34 74t14 70h-1q-29 3 -29 33q0 15 8.5 25t22.5 10t22 -11.5t8 -30.5z" />
<glyph unicode="&#x3c;" horiz-adv-x="532" d="M442 518v-30l-335 -165l334 -160v-30q-34 15 -83.5 39t-104 50.5t-104 51t-83.5 41.5l-1 16z" />
<glyph unicode="=" horiz-adv-x="539" d="M459 413h-384v23q33 1 84 1.5t108 1t108.5 0.5h84.5l4 -5zM459 211h-384v23q33 1 84 1.5t108 1t108.5 0.5h84.5l4 -5z" />
<glyph unicode="&#x3e;" horiz-adv-x="532" d="M90 133v30l335 165l-334 160v30q34 -15 83.5 -39t104 -50.5t104 -51t83.5 -41.5l1 -16z" />
<glyph unicode="?" horiz-adv-x="406" d="M199 190l-13 -1q-7 31 -11 57t-4 45q0 14 6 21.5t19 16.5l42.5 27.5t51 40t43 55t17.5 73.5q0 65 -39 105t-109 40q-41 0 -74.5 -18.5t-52.5 -49.5t-19 -67q0 -30 10 -51q-4 -4 -13 -4q-13 0 -21 14.5t-8 34.5q0 46 24 83.5t65 60t93 22.5q50 0 90 -20.5t63 -58.5t23 -91 q0 -46 -18 -80.5t-46 -61t-58 -47t-54 -37.5zM221 30q0 -16 -8.5 -28t-23.5 -12q-12 0 -20 9t-8 25t10 27t23 11q11 0 19 -8.5t8 -23.5z" />
<glyph unicode="@" horiz-adv-x="1006" d="M707 15q36 0 72 22t65.5 63t47 97t17.5 123q0 91 -41 162t-116 112t-177 41q-69 0 -137.5 -21.5t-130 -62.5t-109 -99t-74.5 -130.5t-27 -157.5q0 -96 42.5 -171.5t120 -119t182.5 -43.5q89 0 155.5 26t115.5 58l9 -14q-51 -40 -119.5 -67.5t-163.5 -27.5 q-84 0 -153 26.5t-118.5 74.5t-76.5 112t-27 138q0 91 28.5 169t79 140t116.5 105.5t140.5 66.5t151.5 23q108 0 189.5 -44.5t127 -122t45.5 -176.5q0 -72 -20.5 -131.5t-55.5 -103.5t-77.5 -68t-87.5 -24q-51 0 -79.5 26t-36.5 70t0 97l15 95q-11 -30 -29 -67.5t-40 -76.5 t-47 -71.5t-51 -52.5t-51 -20q-32 0 -52.5 32.5t-20.5 93.5q0 76 23 146.5t62.5 126.5t92 88.5t110.5 32.5q26 0 48.5 -6.5t37.5 -13.5l-10 -39l-46 -191q-28 -115 -10.5 -180t90.5 -65zM342 117q0 -42 11.5 -71.5t33.5 -29.5q20 0 46.5 25.5t54.5 68.5t55.5 96t50 108.5 t37.5 105.5l16 54q-12 5 -26.5 8t-34.5 3q-47 0 -91 -30t-78.5 -81.5t-54.5 -117.5t-20 -139z" />
<glyph unicode="A" horiz-adv-x="635" d="M311 654h13l217 -590q10 -25 17.5 -32.5t29.5 -12.5l47 -9l-1 -10h-216l-1 10l104 15l-79 215h-255l-78 -216l95 -14l-1 -10h-202l-1 10l50 9q22 4 30 13.5t16 31.5zM195 263h239l-120 329z" />
<glyph unicode="B" horiz-adv-x="562" d="M273 627h-87v-283h99q76 0 116.5 42t40.5 105q0 64 -48.5 100t-120.5 36zM283 322h-97v-299h112q82 0 134.5 38t52.5 108q0 48 -26 82.5t-71.5 52.5t-104.5 18zM298 0h-233l-1 10l74 12q10 2 13 6t3 11v585l-92 16l1 10h218q54 0 98 -19t69.5 -54.5t25.5 -84.5 q0 -65 -37 -104.5t-85 -52.5q74 -12 120 -55.5t46 -109.5q0 -56 -28.5 -94t-78.5 -57t-113 -19z" />
<glyph unicode="C" horiz-adv-x="563" d="M494 22q-27 -16 -64.5 -24t-81.5 -8q-87 0 -153 40t-103 114t-37 176t36.5 178.5t102.5 119t155 42.5q45 0 78.5 -9t60.5 -23q2 -16 2.5 -29t0.5 -32q0 -66 -6 -111h-8l-21 157q-26 12 -53 17.5t-57 5.5q-77 0 -135.5 -39.5t-90.5 -110.5t-32 -166q0 -94 33.5 -163 t92 -106t131.5 -37q34 0 64 5.5t53 16.5l21 166h8q3 -23 4.5 -51t1.5 -64q0 -20 -0.5 -34t-2.5 -31z" />
<glyph unicode="D" horiz-adv-x="643" d="M272 0h-207l-1 10l74 12q10 2 13 6t3 11v585l-92 16l1 10h215q97 0 166 -39t106.5 -111t37.5 -172q0 -98 -38 -172t-109 -115t-169 -41zM274 628h-88v-606h90q87 0 149.5 38t96 107t33.5 161q0 93 -34 160t-97 103.5t-150 36.5z" />
<glyph unicode="E" horiz-adv-x="541" d="M482 0h-417l-1 10l74 12q10 2 13 6t3 11v585l-92 16l1 10h411q4 -29 4 -69q0 -33 -1.5 -58t-4.5 -48h-8l-20 150q-35 2 -70 2h-70h-118v-289l215 5l-1 -30l-214 4v-294h122h72t72 2l20 150h8q3 -22 4.5 -47.5t1.5 -58.5q0 -40 -4 -69z" />
<glyph unicode="F" horiz-adv-x="498" d="M295 0h-230l-1 10l74 12q10 2 13 6t3 11v585l-92 16l1 10h409q4 -31 4 -73q0 -34 -1.5 -60.5t-4.5 -49.5h-8l-20 158q-35 2 -70 2h-70h-116v-299l220 5l-1 -30l-219 4v-281l110 -16z" />
<glyph unicode="G" horiz-adv-x="596" d="M508 22q-58 -32 -150 -32q-90 0 -158 40.5t-106.5 115.5t-38.5 178q0 101 37.5 176.5t106.5 117.5t161 42q42 0 77.5 -8.5t61.5 -23.5q2 -16 2.5 -29t0.5 -32q0 -66 -6 -111h-8l-21 157q-47 23 -110 23q-81 0 -141.5 -39t-94 -109t-33.5 -164q0 -96 35 -165.5t95.5 -107 t136.5 -37.5q72 0 121 23v234l-97 16l1 8h202l1 -8l-59 -12q-10 -2 -13 -5.5t-3 -11.5v-236z" />
<glyph unicode="H" horiz-adv-x="728" d="M277 0h-212l-1 10l74 12q10 2 13 6t3 11v585l-92 16l1 10h212l1 -10l-74 -12q-10 -1 -13 -5t-3 -12v-268h356v281l-92 16l1 10h212l1 -10l-74 -12q-10 -1 -13 -5t-3 -12v-585l92 -16l-1 -10h-212l-1 10l74 12q10 2 13 6t3 11v281h-356v-294l92 -16z" />
<glyph unicode="I" horiz-adv-x="340" d="M277 0h-212l-1 10l74 12q10 2 13 6t3 11v585l-92 16l1 10h212l1 -10l-74 -12q-10 -1 -13 -5t-3 -12v-585l92 -16z" />
<glyph unicode="J" horiz-adv-x="318" d="M186 110q0 -56 -11.5 -94.5t-37 -68.5t-69.5 -62l-7 8q32 31 52.5 60.5t30.5 68.5t10 97v505l-92 16l1 10h212l1 -10l-74 -12q-10 -1 -13 -5t-3 -12v-501z" />
<glyph unicode="K" horiz-adv-x="633" d="M277 0h-212l-1 10l74 12q10 2 13 6t3 11v585l-92 16l1 10h212l1 -10l-74 -12q-10 -1 -13 -5t-3 -12v-267h154l170 283l-99 13l1 10h203l2 -10q-14 -3 -28 -5.5t-28 -5.5t-21.5 -8.5t-15.5 -18.5l-159 -262l167 -280q10 -16 22.5 -25t32.5 -14l46 -11l-1 -10h-39 q-37 0 -56 10.5t-33 34.5l-164 276h-154v-295l92 -16z" />
<glyph unicode="L" horiz-adv-x="522" d="M475 0h-410l-1 10l74 12q10 2 13 6t3 11v585l-92 16l1 10h212l1 -10l-74 -12q-10 -1 -13 -5t-3 -12v-588h107h75.5t75.5 2l20 151h8q3 -23 4.5 -50.5t1.5 -62.5q0 -19 -0.5 -32.5t-2.5 -30.5z" />
<glyph unicode="M" horiz-adv-x="885" d="M94 650h132l211 -587l221 587h123l1 -10l-83 -15l52 -561q2 -27 9.5 -34.5t37.5 -12.5l47 -7l-1 -10h-218l-1 10l97 15l-53 584l-219 -581l-11 -32h-13l-10 32l-208 579l-50 -585l83 -12l-1 -10h-199l-1 10l50 8q30 5 37 12.5t9 33.5l49 561l-92 15z" />
<glyph unicode="N" d="M271 0h-206l-1 10l74 12q10 2 13 6t3 11v585l-92 16l1 10h127l354 -608v582l-92 16l1 10h206l1 -10l-74 -12q-10 -1 -13 -5t-3 -12v-611h-36l-354 608v-582l92 -16z" />
<glyph unicode="O" horiz-adv-x="610" d="M555 328q0 -93 -30.5 -170t-87 -122.5t-134.5 -45.5q-77 0 -132.5 43t-85.5 118t-30 171q0 97 31.5 173t89 120.5t133.5 44.5q74 0 129.5 -44t86 -119t30.5 -169zM88 322q0 -89 27.5 -158.5t76.5 -109t112 -39.5q66 0 115 42t76 113t27 158t-27 156.5t-75 110t-112 40.5 q-66 0 -115.5 -41t-77 -112t-27.5 -160z" />
<glyph unicode="P" horiz-adv-x="533" d="M293 627h-107v-339h102q89 0 139.5 42.5t50.5 128.5q0 80 -49.5 124t-135.5 44zM295 0h-230l-1 10l74 12q10 2 13 6t3 11v585l-92 16l1 10h240q60 0 107 -22t74 -64.5t27 -104.5q0 -63 -29 -106.5t-77 -65.5t-107 -22h-112v-239l110 -16z" />
<glyph unicode="Q" horiz-adv-x="610" d="M555 328q0 -87 -27 -160t-76.5 -120t-117.5 -56q68 -51 146.5 -80t151.5 -29q11 0 18 0.5t14 0.5l1 -1q2 -4 2 -9q0 -24 -44 -24q-46 0 -104 17t-116.5 48.5t-108.5 74.5q-74 3 -127.5 46t-82.5 117t-29 169q0 97 31.5 173t89 120.5t133.5 44.5q74 0 129.5 -44t86 -119 t30.5 -169zM88 322q0 -89 27.5 -158.5t76.5 -109t112 -39.5q66 0 115 42t76 113t27 158t-27 156.5t-75 110t-112 40.5q-66 0 -115.5 -41t-77 -112t-27.5 -160z" />
<glyph unicode="R" horiz-adv-x="599" d="M277 0h-212l-1 10l74 12q10 2 13 6t3 11v585l-92 16l1 10h230q60 0 107 -20.5t74 -61t27 -99.5q0 -68 -41.5 -113t-101.5 -62l142 -236q10 -16 22 -25.5t29 -13.5l48 -10l-1 -9h-54q-29 0 -44.5 10.5t-28.5 32.5l-146 245q-20 -3 -37 -3h-102v-259l92 -16zM283 627h-97 v-319h92q54 0 97 18.5t68 54.5t25 88q0 75 -49.5 116.5t-135.5 41.5z" />
<glyph unicode="S" horiz-adv-x="444" d="M400 147q0 -49 -25.5 -84.5t-68 -54t-95.5 -18.5q-56 0 -101 14.5t-59 36.5q-5 8 -6 23t-1 41q0 18 1.5 41t4.5 44h8l20 -140q15 -14 50 -26t83 -12q69 0 112.5 35t43.5 98q0 46 -23 77.5t-59 54t-76 43.5t-76 45.5t-59 59.5t-23 86q0 45 24 78.5t66 52t95 18.5 q49 0 88.5 -11.5t49.5 -25.5q8 -12 8 -65q0 -18 -1 -41.5t-5 -43.5h-8l-20 139q-20 12 -45.5 19t-67.5 7q-68 0 -109.5 -33.5t-41.5 -92.5q0 -46 23 -77t59 -54.5t76 -44t76 -45t59 -59t23 -85.5z" />
<glyph unicode="T" horiz-adv-x="524" d="M369 0h-212l-1 10l74 12q10 2 13 6t3 11v588h-90h-50t-50 -1l-20 -153h-8q-2 21 -4 44.5t-2 54.5q0 45 4 78h472q4 -33 4 -78q0 -31 -2 -54.5t-4 -44.5h-8l-20 153q-25 1 -50 1h-50h-90v-601l92 -16z" />
<glyph unicode="U" d="M569 220q0 -76 -29 -127t-77.5 -77t-107.5 -26q-57 0 -105 25.5t-77 77t-29 127.5v404l-92 16l1 10h212l1 -10l-74 -12q-10 -1 -13 -5t-3 -12v-385q0 -69 25.5 -116t67.5 -71t90 -24q50 0 92 23t67 70.5t25 118.5v397l-93 16l1 10h207l1 -10l-90 -16v-404z" />
<glyph unicode="V" horiz-adv-x="636" d="M325 -4h-13l-219 590q-8 23 -16 32t-25 12l-52 10l1 10h202l1 -10l-92 -15l211 -565l202 564l-93 16l1 10h202l1 -10l-56 -10q-20 -4 -27 -14t-15 -30z" />
<glyph unicode="W" horiz-adv-x="969" d="M320 -4h-13l-214 590q-8 23 -16 32t-25 12l-52 10l1 10h202l1 -10l-92 -15l206 -565l156 445l-28 81q-7 23 -15.5 32t-25.5 12l-62 10l1 10h212l1 -10l-92 -15l196 -564l197 563l-93 16l1 10h202l1 -10l-56 -10q-20 -4 -27 -14t-15 -30l-208 -590h-13l-163 472z" />
<glyph unicode="X" horiz-adv-x="627" d="M124 58l171 267l-175 265q-13 20 -23 28t-27 12l-48 10l1 10h202l1 -10l-93 -15l183 -276l172 275l-92 16l1 10h202l1 -10q-16 -2 -30 -4.5t-29 -5.5q-14 -3 -23 -11.5t-20 -26.5l-168 -264l182 -275q12 -18 21.5 -24.5t21.5 -8.5l50 -10l-1 -10h-202l-1 10l93 15 l-185 279l-175 -278l92 -16l-1 -10h-202l-1 10q17 3 30.5 5.5t28.5 5.5q14 2 23 10.5t20 26.5z" />
<glyph unicode="Y" horiz-adv-x="598" d="M406 0h-212l-1 10l74 12q10 2 13 6t3 11v183l-192 373q-9 17 -16.5 24.5t-22.5 10.5l-52 10l1 10h202l1 -10l-93 -15l191 -378l191 378l-91 15l1 10h194l1 -10q-27 -4 -49 -10q-18 -4 -27 -12.5t-17 -25.5l-190 -372v-194l92 -16z" />
<glyph unicode="Z" horiz-adv-x="545" d="M476 77q0 -44 -4 -77h-402l-4 17l373 611h-339l-20 -163h-8q-3 23 -4.5 50t-1.5 61q0 42 4 74h405l4 -17l-373 -611h335l21 163h8q6 -43 6 -108z" />
<glyph unicode="[" horiz-adv-x="365" d="M301 -96h-157v791h157v-23h-127v-745h127v-23z" />
<glyph unicode="\" horiz-adv-x="371" d="M258 -10l-174 695l2 3l27 7l174 -695l-2 -3z" />
<glyph unicode="]" horiz-adv-x="365" d="M64 695h157v-791h-157v23h127v745h-127v23z" />
<glyph unicode="^" horiz-adv-x="525" d="M135 210h-35l142 335h36l147 -335h-34l-131 299z" />
<glyph unicode="_" horiz-adv-x="512" d="M48 -185v23h416v-23h-416z" />
<glyph unicode="`" horiz-adv-x="262" d="M202 584l-7 -7q-29 21 -60.5 45t-53 46t-21.5 37q0 18 20 18h3q17 -27 49.5 -64.5t69.5 -74.5z" />
<glyph unicode="a" horiz-adv-x="473" d="M445 15q-7 -10 -21 -17.5t-29 -7.5q-62 0 -62 86v10q-19 -36 -60.5 -66t-97.5 -30q-55 0 -87.5 30t-32.5 80q0 54 37.5 89.5t100.5 54.5t140 23v92q0 66 -24 96.5t-76 30.5q-37 0 -67.5 -17t-48 -42t-17.5 -51q0 -14 4 -26q-4 -6 -14 -6q-22 0 -22 30q0 33 23.5 64 t62 51.5t82.5 20.5q68 0 97.5 -36t29.5 -107v-286q0 -70 45 -70q17 0 35 8zM87 100q0 -41 26 -63.5t64 -22.5q50 0 92 31.5t64 85.5v114q-69 -5 -125 -21t-88.5 -46t-32.5 -78z" />
<glyph unicode="b" horiz-adv-x="512" d="M129 12l-27 -22l-3 2v674l-84 4l-1 10q26 5 55.5 9t52.5 6l7 -7v-274q25 45 65 70.5t87 25.5q55 0 94.5 -33t60.5 -93t21 -140t-26.5 -137t-73 -87t-107.5 -30q-34 0 -63.5 6.5t-57.5 16.5v-1zM281 486q-49 0 -90.5 -32t-61.5 -86v-327q30 -13 60 -20t62 -7 q84 0 129.5 62.5t44.5 165.5q0 70 -16.5 125t-48.5 87t-79 32z" />
<glyph unicode="c" horiz-adv-x="420" d="M55 242q0 87 27 146.5t72 90.5t98 31q59 0 97.5 -38.5t38.5 -99.5q0 -30 -22 -30q-8 0 -13 4q3 11 3 23q0 53 -28.5 85t-77.5 32q-45 0 -82 -28t-59 -81.5t-22 -131.5q0 -109 45 -170t118 -61q44 0 78.5 18t62.5 46l7 -8q-22 -31 -58.5 -55.5t-92.5 -24.5q-90 0 -141 67 t-51 185z" />
<glyph unicode="d" horiz-adv-x="526" d="M55 230q0 87 28.5 149.5t79.5 96.5t118 34q32 0 57.5 -6.5t47.5 -15.5v178l-84 4l-1 10q26 5 55.5 9t52.5 6l7 -7v-607q0 -70 45 -70q17 0 35 8l2 -4q-7 -10 -21 -17.5t-29 -7.5q-62 0 -62 86v11q-23 -43 -64 -70t-89 -27q-77 0 -127.5 62.5t-50.5 177.5zM87 231 q0 -101 42.5 -159t106.5 -58q28 0 57.5 14.5t54.5 41t38 61.5v329q-26 14 -53 20t-56 6q-58 0 -101 -31.5t-66 -89t-23 -134.5z" />
<glyph unicode="e" horiz-adv-x="431" d="M398 70q-28 -40 -64.5 -60t-88.5 -20q-90 0 -140 67t-50 185q0 87 27 146.5t71.5 90.5t95.5 31q71 0 108 -51t37 -134q0 -14 -1 -29.5t-3 -31.5l-7 -5h-296v-14q0 -109 45 -170t120 -61q43 0 74 15.5t65 48.5zM247 486q-62 0 -107 -53.5t-52 -153.5l271 5q3 21 3 41 q0 74 -26.5 117.5t-88.5 43.5z" />
<glyph unicode="f" horiz-adv-x="343" d="M255 0h-218l-1 10l69 12q10 2 13 6t3 11v424h-78l-1 10l79 12v0q1 94 44 152t114 58q32 0 56 -13.5t38 -35t14 -45.5t-17 -24q-7 0 -13 3q-3 42 -26.5 66.5t-58.5 24.5q-57 0 -89 -46t-32 -140h172v-22h-172v-437l105 -16z" />
<glyph unicode="g" horiz-adv-x="422" d="M417 -58q0 -34 -25 -65.5t-74.5 -51.5t-122.5 -20q-52 0 -93.5 15t-66 41t-24.5 60t20.5 58.5t52 40t63.5 20.5l-4 2q-21 8 -34.5 22.5t-13.5 35.5q0 23 14 39.5t33 28.5q-39 18 -63.5 58.5t-24.5 99.5q0 54 20 95.5t57 65t87 23.5q56 0 101 1.5t100 5.5q3 -6 3 -16 q0 -19 -25 -19q-16 0 -49 3.5t-71 6.5l-1 -3q37 -18 58.5 -57.5t21.5 -89.5q0 -87 -44 -136.5t-109 -49.5q-21 0 -41 5q-15 -10 -26 -25t-11 -31q0 -40 61 -48l74 -9q77 -9 117 -33t40 -73zM85 331q0 -65 33 -108t86 -43q55 0 88.5 43.5t33.5 114.5q0 61 -29.5 104.5 t-85.5 43.5q-37 0 -65.5 -20.5t-44.5 -55.5t-16 -79zM43 -77q0 -40 43 -67t117 -27q54 0 95 15t64 41t23 57q0 38 -34 56t-93 25l-73 8q-64 -12 -103 -40t-39 -68z" />
<glyph unicode="h" horiz-adv-x="551" d="M224 0h-198l-1 10l69 12q10 2 13 6t3 11v627l-84 4l-1 10q26 5 55.5 9t52.5 6l7 -7v-279q28 45 71.5 73t94.5 28q67 0 101 -40t34 -114v-330l85 -16l-1 -10h-198l-1 10l69 12q10 2 13 6t3 11v317q0 62 -26 96t-85 34q-44 0 -89 -29.5t-71 -81.5v-349l85 -16z" />
<glyph unicode="i" horiz-adv-x="261" d="M162 653q0 -16 -8.5 -28t-23.5 -12q-12 0 -20 9t-8 25t10 27t23 11q11 0 19 -8.5t8 -23.5zM235 0h-198l-1 10l69 12q10 2 13 6t3 11v442l-84 4l-1 10q26 5 55.5 9t52.5 6l7 -7v-477l85 -16z" />
<glyph unicode="j" horiz-adv-x="239" d="M148 654q0 -16 -8.5 -28t-23.5 -12q-12 0 -20 9t-8 25t10 27t23 11q11 0 19 -8.5t8 -23.5zM17 -187q32 31 52.5 60.5t30.5 68.5t10 97v442l-84 4l-1 10q26 5 55.5 9t52.5 6l7 -7v-473q0 -56 -11 -94.5t-36.5 -68.5t-68.5 -62z" />
<glyph unicode="k" horiz-adv-x="505" d="M224 0h-198l-1 10l69 12q10 2 13 6t3 11v627l-84 4l-1 10q26 5 55.5 9t52.5 6l7 -7v-410h122l129 200l-86 12l1 10h186l1 -10l-54 -12q-13 -3 -20 -8.5t-15 -16.5l-119 -180l117 -198q15 -25 30 -38t36 -18q9 -2 18.5 -4.5t18.5 -4.5l-1 -10h-42q-32 0 -50 15t-35 44 l-116 197h-121v-230l85 -16z" />
<glyph unicode="l" horiz-adv-x="250" d="M224 0h-198l-1 10l69 12q10 2 13 6t3 11v627l-84 4l-1 10q26 5 55.5 9t52.5 6l7 -7v-662l85 -16z" />
<glyph unicode="m" horiz-adv-x="841" d="M235 0h-198l-1 10l69 12q10 2 13 6t3 11v442l-84 4l-1 10q26 5 55.5 9t52.5 6l7 -7v-97q27 49 69.5 76.5t91.5 27.5q105 0 125 -106q27 49 70.5 77.5t93.5 28.5q64 0 97 -39.5t33 -114.5v-330l85 -16l-1 -10h-198l-1 10l69 12q10 2 13 6t3 11v317q0 130 -104 130 q-43 0 -87.5 -29.5t-69.5 -79.5q1 -10 1 -21v-330l85 -16l-1 -10h-198l-1 10l69 12q10 2 13 6t3 11v317q0 130 -103 130q-43 0 -87 -29.5t-70 -81.5v-349l85 -16z" />
<glyph unicode="n" horiz-adv-x="562" d="M235 0h-198l-1 10l69 12q10 2 13 6t3 11v442l-84 4l-1 10q26 5 55.5 9t52.5 6l7 -7v-97q28 49 72 76.5t95 27.5q66 0 100 -39.5t34 -114.5v-330l85 -16l-1 -10h-198l-1 10l69 12q10 2 13 6t3 11v317q0 130 -108 130q-44 0 -90.5 -29.5t-72.5 -81.5v-349l85 -16z" />
<glyph unicode="o" horiz-adv-x="484" d="M429 257q0 -76 -21 -136.5t-62.5 -95.5t-103.5 -35q-87 0 -137 65t-50 186q0 127 52.5 198t139.5 71q57 0 98 -31.5t62.5 -88.5t21.5 -133zM87 247q0 -112 40 -172.5t116 -60.5q51 0 85 31.5t51.5 86.5t17.5 125q0 105 -39 167t-112 62q-71 0 -115 -63t-44 -176z" />
<glyph unicode="p" horiz-adv-x="525" d="M244 -185h-218l-1 10l69 12q10 2 13 6t3 11v627l-84 4l-1 10q26 5 55.5 9t52.5 6l7 -7v-92q24 46 65 72.5t89 26.5q83 0 129.5 -67.5t46.5 -187.5q0 -80 -26.5 -139.5t-73 -92.5t-107.5 -33q-34 0 -64.5 6.5t-58.5 16.5v-172l105 -16zM140 41q31 -13 61.5 -20t62.5 -7 q56 0 95 31t59.5 85.5t19.5 122.5q-1 104 -37 168.5t-107 64.5q-49 0 -91 -32.5t-63 -88.5v-324z" />
<glyph unicode="q" horiz-adv-x="515" d="M500 -185h-198l-1 10l69 12q10 2 13 6t3 11v233q-23 -43 -64 -70t-89 -27q-77 0 -127.5 62.5t-50.5 177.5q0 87 28.5 149.5t79.5 96.5t118 34q32 0 57.5 -6.5t47.5 -15.5l27 22l3 -2v-667l85 -16zM87 231q0 -101 42.5 -159t106.5 -58q28 0 57.5 14.5t54.5 41t38 61.5v329 q-26 14 -53 20t-56 6q-58 0 -101 -31.5t-66 -89t-23 -134.5z" />
<glyph unicode="r" horiz-adv-x="386" d="M255 0h-218l-1 10l69 12q10 2 13 6t3 11v442l-84 4l-1 10q26 5 55.5 9t52.5 6l7 -7v-90q23 45 57.5 71t74.5 26q36 0 58.5 -19.5t22.5 -45.5q0 -11 -6 -17.5t-14 -6.5q-6 27 -23.5 44.5t-48.5 17.5q-37 0 -70 -31t-51 -70v-356l105 -16z" />
<glyph unicode="s" horiz-adv-x="395" d="M182 -10q-43 0 -76 7.5t-41 17.5q-10 10 -10 58q0 15 1.5 34.5t4.5 37.5h9q4 -40 6.5 -66.5t12.5 -41.5q7 -10 34 -16.5t64 -6.5q56 0 88.5 27t32.5 70q0 34 -17.5 57t-45.5 40.5t-59.5 33t-59.5 34t-45.5 44.5t-17.5 64q0 60 43.5 93t107.5 33q41 0 69.5 -8.5 t34.5 -16.5q8 -9 8 -58q0 -15 -1.5 -34t-4.5 -38h-9q-1 32 -3.5 56.5t-9.5 40.5q-7 17 -30 25.5t-55 8.5q-53 0 -85.5 -25.5t-32.5 -75.5q0 -33 17.5 -55.5t45.5 -39t59.5 -32.5t59.5 -34.5t45.5 -45t17.5 -65.5q0 -58 -45 -90.5t-113 -32.5z" />
<glyph unicode="t" horiz-adv-x="352" d="M309 482v-22h-180v-315q0 -67 21 -99t66 -32q30 0 60 14.5t58 41.5l7 -7q-23 -32 -58 -52.5t-73 -20.5q-54 0 -82.5 36t-28.5 104v330h-84l-1 10l85 12l20 158l10 -2v-156h180z" />
<glyph unicode="u" horiz-adv-x="562" d="M523 15q-7 -10 -21 -17.5t-29 -7.5q-62 0 -62 91v9q-25 -40 -65.5 -70t-97.5 -30q-68 0 -103 39.5t-35 114.5v337l-84 4l-1 10q26 5 55.5 9t52.5 6l7 -7v-359q0 -64 29.5 -97t80.5 -33q47 0 90 31t71 85v351l-84 4l-1 10q26 5 55.5 9t52.5 6l7 -7v-422q0 -70 45 -70 q17 0 35 8z" />
<glyph unicode="v" horiz-adv-x="519" d="M269 0h-19l-158 448q-5 16 -12 22.5t-24 9.5l-56 10l1 10h198l1 -10l-85 -16l148 -421l141 421l-85 16l1 10h198l1 -10l-63 -11q-16 -3 -24.5 -11.5t-13.5 -25.5z" />
<glyph unicode="w" horiz-adv-x="772" d="M381 500h10l140 -444l126 418l-85 16l1 10h198l1 -10l-63 -11q-16 -3 -24.5 -11t-13.5 -26l-134 -442h-19l-135 427l-129 -427h-19l-143 448q-5 16 -12 22.5t-24 9.5l-56 10l1 10h198l1 -10l-85 -16l133 -418z" />
<glyph unicode="x" horiz-adv-x="516" d="M110 440q-16 23 -26 30t-35 11l-49 9l1 10h208l1 -10l-89 -16l142 -206l141 206l-88 16l1 10h198l1 -10l-57 -10q-16 -3 -26 -11t-24 -27l-135 -191l136 -197q11 -16 19 -22.5t23 -9.5l64 -12l-1 -10h-208l-1 10l88 16l-141 206l-141 -206l88 -16l-1 -10h-198l-1 10 l62 13q14 3 23 9.5t22 25.5l134 191z" />
<glyph unicode="y" horiz-adv-x="519" d="M87 -195q-19 0 -31.5 7.5t-12.5 20.5q0 11 8 17q6 -4 17 -8.5t24 -4.5q46 0 88 42t68 126l-156 443q-5 16 -12 22.5t-24 9.5l-56 10l1 10h198l1 -10l-85 -16l148 -421l141 421l-85 16l1 10h198l1 -10l-63 -11q-16 -3 -24.5 -11.5t-13.5 -25.5l-149 -442 q-30 -91 -73.5 -143t-108.5 -52z" />
<glyph unicode="z" horiz-adv-x="422" d="M378 71q0 -40 -4 -71h-328l-2 10l290 468h-255l-20 -133h-9q-6 36 -6 87q0 39 4 68h328l2 -10l-292 -468h258l19 133h9q6 -34 6 -84z" />
<glyph unicode="{" horiz-adv-x="379" d="M104 308q86 0 86 93q0 31 -8.5 60t-17 58.5t-8.5 61.5q0 56 41.5 85t116.5 29l1 -20q-127 -5 -127 -92q-1 -32 7.5 -62t17.5 -59.5t9 -61.5q0 -34 -15 -63t-53 -39q38 -11 53 -40.5t15 -61.5q-1 -32 -9.5 -62t-16.5 -60t-7 -62q0 -86 126 -91l-1 -20q-74 0 -115.5 29 t-41.5 84q0 32 8 61.5t16.5 58.5t8.5 59q0 46 -21.5 70.5t-64.5 24.5v20z" />
<glyph unicode="|" horiz-adv-x="320" d="M176 -192l-28 -3l-4 5v882l28 3l4 -5v-882z" />
<glyph unicode="}" horiz-adv-x="379" d="M275 288q-86 0 -86 -93q0 -30 8.5 -59.5l17 -59t8.5 -61.5q0 -55 -41.5 -84.5t-116.5 -29.5l-1 20q127 5 127 92q1 32 -7.5 61.5t-17.5 59.5t-9 62q0 34 15 63t53 39q-38 11 -53 40.5t-15 61.5q1 33 9.5 62.5t16.5 59.5t7 62q0 86 -126 91l1 20q74 0 115.5 -29t41.5 -84 q0 -32 -8.5 -61.5t-16.5 -58t-8 -59.5q0 -46 21.5 -70.5t64.5 -24.5v-20z" />
<glyph unicode="~" horiz-adv-x="516" d="M130 279q-10 0 -28.5 -20t-38.5 -46l-14 8q10 18 22.5 38.5t27.5 34.5t32 14t51.5 -9t74.5 -21.5t75.5 -21.5t53.5 -9q10 0 28 19.5t39 46.5l14 -8q-9 -18 -21.5 -38t-27.5 -34.5t-33 -14.5q-13 0 -39 6t-58 15.5t-63.5 18.5t-57 15t-37.5 6z" />
<glyph unicode="&#xa1;" horiz-adv-x="268" d="M104 481q0 16 8.5 28t23.5 12q12 0 20 -9t8 -25t-9.5 -27t-23.5 -11q-11 0 -19 8.5t-8 23.5zM152 -193l-3 -3q-7 -1 -12.5 -1.5t-10.5 -0.5q-10 0 -10 10q0 16 0.5 40.5t1.5 53.5l7 437h18z" />
<glyph unicode="&#xa2;" horiz-adv-x="459" d="M80 242q0 82 24 139.5t64.5 90t89.5 37.5v111l25 2l5 -5v-107q54 -4 89.5 -42t35.5 -96q0 -30 -22 -30q-8 0 -13 4q3 11 3 23q0 53 -28.5 85t-77.5 32q-45 0 -82 -28t-59 -81.5t-22 -131.5q0 -109 45 -170t118 -61q44 0 78.5 18t62.5 46l7 -8q-20 -29 -53 -52.5 t-82 -26.5v-111l-25 -2l-5 5v107q-84 6 -131 72.5t-47 179.5z" />
<glyph unicode="&#xa3;" horiz-adv-x="538" d="M404 314h-174l-19 -134q-6 -46 -18.5 -89.5t-37.5 -70.5q47 -13 97 -37t99 -43.5t93 -19.5q22 0 34 3q3 -4 3 -10q0 -15 -13 -22t-33 -7q-36 0 -75.5 16t-79.5 37.5t-77.5 40.5t-69.5 25q-21 -13 -49 -13q-12 0 -20 5t-8 13q0 21 42 21q18 0 39 -4q15 22 25 58t19 101 l18 130h-122l4 23h121l18 135q15 111 63 164.5t112 53.5q33 0 58 -14.5t39 -36t14 -43.5q0 -11 -7.5 -16.5t-15.5 -6.5q-11 49 -35.5 71t-57.5 22q-54 0 -89 -46.5t-49 -144.5l-19 -138h175z" />
<glyph unicode="&#xa4;" horiz-adv-x="539" d="M456 117l-81 82q-21 -21 -50 -33.5t-64 -12.5q-31 0 -57 9.5t-47 25.5l-71 -72l-21 21l71 71q-39 47 -39 110q0 68 44 119l-77 77l21 21q20 -20 40 -40.5t37 -37.5q21 17 47.5 26.5t57.5 9.5q32 0 58.5 -10.5t47.5 -28.5l80 81l21 -21l-82 -82q37 -46 37 -106 q0 -59 -35 -106q23 -23 44.5 -43t36.5 -35v-8zM265 463q-42 0 -73 -20t-48 -52t-17 -70q0 -56 35.5 -97t100.5 -41q44 0 74.5 20.5t46 53t15.5 67.5q0 36 -16 67.5t-46 51.5t-72 20z" />
<glyph unicode="&#xa5;" horiz-adv-x="646" d="M430 0h-212l-1 10l74 12q10 2 13 6t3 11v97h-170v23h170v77h-170v23h170v1l-192 335q-10 17 -17 24.5t-22 10.5l-52 10l1 10h202l1 -10l-93 -15l191 -341l191 341l-91 15l1 10h194l1 -10q-27 -4 -49 -10q-18 -4 -26.5 -12.5t-17.5 -25.5l-189 -333h169v-23h-170v-77h170 v-23h-170v-110l92 -16z" />
<glyph unicode="&#xa6;" horiz-adv-x="320" d="M176 325l-28 -3l-4 5v365l28 3l4 -5v-365zM176 -192l-28 -3l-4 5v367l28 3l4 -5v-367z" />
<glyph unicode="&#xa7;" horiz-adv-x="521" d="M457 50q0 -49 -20.5 -87.5t-54 -66t-74.5 -42t-82 -14.5q-45 0 -82 11t-58.5 28t-21.5 36q0 18 19 31h7q30 -43 72 -63.5t94 -22.5q26 16 43 50t17 77q0 40 -18 77t-47 73t-61 72t-61 73.5t-47 79t-18 87.5q0 49 20 88t53.5 66.5t74.5 42t82 14.5q46 0 83 -12.5 t58.5 -31.5t21.5 -41q0 -18 -19 -31h-7q-32 47 -74 71.5t-95 24.5q-25 -16 -41 -49.5t-16 -76.5q0 -41 18 -78.5t47 -72.5t61 -70.5t61 -73t47 -79.5t18 -90zM309 -116l5 -4q50 26 81.5 69.5t31.5 95.5q0 46 -18 86.5t-47 77t-61 72t-61 71.5t-47 75t-18 83q0 28 7.5 56 t26.5 50l-5 4q-49 -25 -79.5 -68.5t-30.5 -96.5q0 -44 18 -84t47 -77t61 -73.5t61 -73t47 -75.5t18 -82q0 -28 -8.5 -56t-28.5 -50z" />
<glyph unicode="&#xa8;" horiz-adv-x="360" d="M121 654q0 -16 -8.5 -28t-23.5 -12q-12 0 -20 9t-8 25t10 27t23 11q11 0 19 -8.5t8 -23.5zM299 654q0 -16 -8.5 -28t-23.5 -12q-12 0 -20 9t-8 25t10 27t23 11q11 0 19 -8.5t8 -23.5z" />
<glyph unicode="&#xa9;" horiz-adv-x="650" d="M325 -12q-73 0 -132.5 34.5t-94 94t-34.5 133.5q0 72 35 131t94.5 94t131.5 35q74 0 133 -35t93.5 -94t34.5 -131q0 -54 -20.5 -101.5t-56 -83.5t-83 -56.5t-101.5 -20.5zM326 16q64 0 116 32t83 85t31 117t-31 116.5t-83.5 84t-116.5 31.5q-63 0 -115.5 -31.5t-84 -84 t-31.5 -116.5q0 -66 30.5 -119t83 -84t118.5 -31zM436 156q-14 -26 -39 -44t-63 -18q-55 0 -90 38t-35 113t37.5 118t88.5 43q41 0 68.5 -28t27.5 -72q0 -24 -19 -24q-6 0 -12 4q2 10 2 15q0 40 -18 63.5t-50 23.5q-40 0 -67.5 -37t-27.5 -100t29 -98t69 -35q29 0 50.5 11 t43.5 33z" />
<glyph unicode="&#xaa;" horiz-adv-x="387" d="M359 386q-6 -8 -17 -14.5t-24 -6.5q-50 0 -50 63v4q-15 -25 -46.5 -46t-73.5 -21q-43 0 -68 21.5t-25 57.5q0 39 28.5 64t77 38.5t107.5 16.5v69q0 87 -74 87q-42 0 -70.5 -24.5t-28.5 -52.5q0 -10 3 -21q-5 -5 -13 -5q-19 0 -19 24q0 23 18 45.5t48 37t65 14.5 q53 0 76.5 -26t23.5 -79v-199q0 -49 34 -49q13 0 26 5zM85 446q0 -28 20 -44t48 -16q37 0 68 21t47 57v83q-51 -3 -92.5 -14.5t-66 -32.5t-24.5 -54z" />
<glyph unicode="&#xab;" horiz-adv-x="487" d="M403 70l-12 -8q-27 37 -55.5 71.5t-53.5 62t-41 40.5l-2 4v17q31 31 71.5 80.5t80.5 101.5l12 -8q-25 -42 -59 -88t-68 -95q26 -30 61.5 -79t65.5 -99zM248 70l-12 -8q-27 37 -55.5 71.5t-53.5 62t-41 40.5l-2 4v17q31 31 71.5 80.5t80.5 101.5l12 -8q-25 -42 -59 -88 t-68 -95q26 -30 61.5 -79t65.5 -99z" />
<glyph unicode="&#xac;" horiz-adv-x="538" d="M453 325v-193h-29v171h-359v25q32 1 82.5 2t106.5 1.5t107 1t84 0.5z" />
<glyph unicode="&#xae;" horiz-adv-x="650" d="M325 -12q-73 0 -132.5 34.5t-94 94t-34.5 133.5q0 72 35 131t94.5 94t131.5 35q74 0 133 -35t93.5 -94t34.5 -131q0 -54 -20.5 -101.5t-56 -83.5t-83 -56.5t-101.5 -20.5zM326 16q64 0 116 32t83 85t31 117t-31 116.5t-83.5 84t-116.5 31.5q-63 0 -115.5 -31.5t-84 -84 t-31.5 -116.5q0 -66 30.5 -119t83 -84t118.5 -31zM315 378h-30v-134h41q32 0 53.5 16.5t21.5 50.5q0 35 -23.5 51t-62.5 16zM285 123l49 -12l-1 -7h-124l-1 7l31 8q9 2 13.5 4.5t4.5 12.5v226q0 8 -3 11.5t-13 6.5l-33 9l1 7h114q48 0 78 -22.5t30 -62.5q0 -31 -18 -51.5 t-47 -29.5l33 -50q23 -34 32.5 -46t25.5 -17l17 -6l-1 -7l-20 -1q-28 -1 -41 11t-27 34l-48 78h-52v-103z" />
<glyph unicode="&#xaf;" horiz-adv-x="356" d="M61 638v24h234v-24h-234z" />
<glyph unicode="&#xb0;" horiz-adv-x="377" d="M187 435q-45 0 -77 30t-32 81q0 32 15.5 58t41.5 41t56 15q46 0 77 -30t31 -80q0 -31 -15.5 -57.5t-41 -42t-55.5 -15.5zM189 635q-38 0 -60.5 -26.5t-22.5 -62.5q0 -37 23 -61.5t59 -24.5q38 0 60.5 26t22.5 64q0 37 -22 61t-60 24z" />
<glyph unicode="&#xb1;" horiz-adv-x="529" d="M455 374h-176v-182h-28v182h-180v23q31 1 79.5 1.5t100.5 0.5v183h28v-183q52 1 99 1h78l4 -5zM454 115h-384v23q33 1 84 1.5t108 1t108.5 0.5h84.5l4 -5z" />
<glyph unicode="&#xb2;" horiz-adv-x="353" d="M63 372l-5 18q57 55 101.5 96t70 76.5t25.5 74.5q0 35 -21.5 56.5t-59.5 21.5q-40 0 -68 -22t-44 -57l-6 2q11 43 44 71t81 28q50 0 77 -27t27 -68q0 -40 -26.5 -77.5t-72 -79t-104.5 -91.5h168q15 0 22.5 10.5t17.5 53.5l7 -1q-2 -43 -11 -85h-223z" />
<glyph unicode="&#xb3;" horiz-adv-x="357" d="M301 463q0 -40 -38 -69t-95 -29q-50 0 -81 17.5t-31 45.5q0 25 28 40l3 -3q-6 -10 -6 -23q0 -29 24 -44t64 -15q44 0 73 21.5t29 57.5q0 28 -17.5 45.5t-45 26t-58.5 8.5q-7 0 -15 -0.5t-16 -1.5l-1 9q67 11 103 36.5t36 65.5q0 29 -21.5 46.5t-56.5 17.5 q-37 0 -67.5 -20t-44.5 -55l-6 2q11 42 45 68.5t82 26.5q44 0 71.5 -22.5t27.5 -57.5q0 -39 -29.5 -65.5t-80.5 -38.5q54 -3 89 -26.5t35 -63.5z" />
<glyph unicode="&#xb4;" horiz-adv-x="254" d="M193 705q0 -11 -20 -32.5t-49 -46t-56 -45.5l-7 7q35 35 65.5 71t46.5 61h3q17 0 17 -15z" />
<glyph unicode="&#xb6;" horiz-adv-x="581" d="M320 190q-70 0 -128.5 26t-93 77t-34.5 126t33 126.5t89.5 78t128.5 26.5h201l1 -8l-54 -12q-10 -2 -13 -5.5t-3 -11.5v-549q0 -109 -49 -166.5t-128 -57.5q-71 0 -114.5 36.5t-43.5 96.5q0 33 15.5 58.5t42.5 41.5l7 -5q-16 -22 -24 -42.5t-8 -48.5q0 -53 34 -83t94 -30 q69 0 105.5 55.5t36.5 149.5v558h-80v-437h-15z" />
<glyph unicode="&#xb7;" horiz-adv-x="268" d="M133 216q-13 0 -21 9.5t-8 22.5q0 14 9 25t23 11t21 -8.5t7 -22.5q0 -13 -7.5 -25t-23.5 -12z" />
<glyph unicode="&#xb8;" horiz-adv-x="237" d="M82 -71l-3 5l11 66h24l-9 -55q71 -11 71 -52q0 -21 -17 -35.5t-43 -22.5t-54 -9l-1 15q39 5 61 17t22 30q0 15 -13.5 25.5t-48.5 15.5z" />
<glyph unicode="&#xb9;" horiz-adv-x="277" d="M221 372h-165v7l59 7q10 1 10 10v319l-69 2v6l92 14l5 -4v-345l68 -9v-7z" />
<glyph unicode="&#xba;" horiz-adv-x="401" d="M346 556q0 -55 -16.5 -98t-48.5 -68t-80 -25q-67 0 -106.5 46.5t-39.5 132.5q0 91 41 142t109 51q66 0 103.5 -49.5t37.5 -131.5zM85 550q0 -82 30 -124.5t86 -42.5q57 0 86 48t29 124q0 77 -29 120.5t-83 43.5q-53 0 -86 -44.5t-33 -124.5z" />
<glyph unicode="&#xbb;" horiz-adv-x="487" d="M248 251q-31 -31 -71 -80t-81 -102l-12 8q25 42 59 88t68 95q-26 30 -61.5 79t-65.5 99l12 8q27 -36 55.5 -71t53.5 -62t41 -41l2 -4v-17zM403 251q-31 -31 -71 -80t-81 -102l-12 8q25 42 59 88t68 95q-26 30 -61.5 79t-65.5 99l12 8q27 -36 55.5 -71t53.5 -62t41 -41 l2 -4v-17z" />
<glyph unicode="&#xbc;" horiz-adv-x="876" d="M608 660h36l-401 -670h-35zM245 292h-165v7l59 7q10 1 10 10v319l-69 2v6l92 14l5 -4v-345l68 -9v-7zM541 98l205 267l18 -3v-262h62l-4 -18h-58v-82h-28v82h-187zM565 100h171v227z" />
<glyph unicode="&#xbd;" horiz-adv-x="876" d="M600 660h36l-401 -670h-35zM237 292h-165v7l59 7q10 1 10 10v319l-69 2v6l92 14l5 -4v-345l68 -9v-7zM569 0l-5 18q57 55 101.5 96t70 76.5t25.5 74.5q0 35 -21.5 56.5t-59.5 21.5q-40 0 -68 -22t-44 -57l-6 2q11 43 44 71t81 28q50 0 77 -27t27 -68q0 -40 -26.5 -77.5 t-72 -79t-104.5 -91.5h168q15 0 22.5 10.5t17.5 53.5l7 -1q-2 -43 -11 -85h-223z" />
<glyph unicode="&#xbe;" horiz-adv-x="876" d="M648 660h36l-401 -670h-35zM315 383q0 -40 -38 -69t-95 -29q-50 0 -81 17.5t-31 45.5q0 25 28 40l3 -3q-6 -10 -6 -23q0 -29 24 -44t64 -15q44 0 73 21.5t29 57.5q0 28 -17.5 45.5t-45 26t-58.5 8.5q-7 0 -15 -0.5t-16 -1.5l-1 9q67 11 103 36.5t36 65.5q0 29 -21.5 46.5 t-56.5 17.5q-37 0 -67.5 -20t-44.5 -55l-6 2q11 42 45 68.5t82 26.5q44 0 71.5 -22.5t27.5 -57.5q0 -39 -29.5 -65.5t-80.5 -38.5q54 -3 89 -26.5t35 -63.5zM541 98l205 267l18 -3v-262h62l-4 -18h-58v-82h-28v82h-187zM565 100h171v227z" />
<glyph unicode="&#xbf;" horiz-adv-x="406" d="M185 470q0 16 8.5 28t23.5 12q12 0 20 -9t8 -25t-9.5 -27t-23.5 -11q-11 0 -19 8.5t-8 23.5zM207 310l13 1q7 -31 11 -57t4 -45q0 -14 -6 -21.5t-19 -16.5q-16 -11 -42 -27.5t-51.5 -40t-43 -55t-17.5 -73.5q0 -65 39 -105t109 -40q42 0 75 19t52 49.5t19 66.5 q0 30 -10 51q4 4 13 4q14 0 21.5 -14.5t7.5 -34.5q0 -45 -24 -83t-65 -60.5t-93 -22.5q-50 0 -90 20.5t-63 59t-23 90.5q0 46 18 80.5t46 61t58 47t54 37.5z" />
<glyph unicode="&#xc0;" horiz-adv-x="635" d="M389 734l-7 -7q-29 21 -60.5 45t-53 46t-21.5 37q0 18 20 18h3q17 -27 49.5 -64.5t69.5 -74.5zM311 654h13l217 -590q10 -25 17.5 -32.5t29.5 -12.5l47 -9l-1 -10h-216l-1 10l104 15l-79 215h-255l-78 -216l95 -14l-1 -10h-202l-1 10l50 9q22 4 30 13.5t16 31.5zM195 263 h239l-120 329z" />
<glyph unicode="&#xc1;" horiz-adv-x="635" d="M384 855q0 -11 -20 -32.5t-49 -46t-56 -45.5l-7 7q35 35 65.5 71t46.5 61h3q17 0 17 -15zM311 654h13l217 -590q10 -25 17.5 -32.5t29.5 -12.5l47 -9l-1 -10h-216l-1 10l104 15l-79 215h-255l-78 -216l95 -14l-1 -10h-202l-1 10l50 9q22 4 30 13.5t16 31.5zM195 263h239 l-120 329z" />
<glyph unicode="&#xc2;" horiz-adv-x="635" d="M429 736l-8 -6q-22 24 -50 52.5t-56 54.5q-12 -14 -30.5 -33.5t-38 -39t-35.5 -33.5l-7 7q18 20 38 45.5t37.5 48.5t24.5 35l4 3h18q20 -24 47.5 -60t55.5 -74zM311 654h13l217 -590q10 -25 17.5 -32.5t29.5 -12.5l47 -9l-1 -10h-216l-1 10l104 15l-79 215h-255l-78 -216 l95 -14l-1 -10h-202l-1 10l50 9q22 4 30 13.5t16 31.5zM195 263h239l-120 329z" />
<glyph unicode="&#xc3;" horiz-adv-x="635" d="M403 787q8 9 19 26t20 33l10 -4q-4 -16 -11.5 -34.5t-18.5 -31.5t-25 -13q-15 0 -38.5 7.5t-49 17t-46.5 17t-31 7.5q-7 -9 -18.5 -25.5t-20.5 -33.5l-10 4q4 17 11.5 35t18.5 31t25 13q16 0 39 -7.5t48 -17t46 -17t32 -7.5zM311 654h13l217 -590q10 -25 17.5 -32.5 t29.5 -12.5l47 -9l-1 -10h-216l-1 10l104 15l-79 215h-255l-78 -216l95 -14l-1 -10h-202l-1 10l50 9q22 4 30 13.5t16 31.5zM195 263h239l-120 329z" />
<glyph unicode="&#xc4;" horiz-adv-x="635" d="M259 804q0 -16 -8.5 -28t-23.5 -12q-12 0 -20 9t-8 25t10 27t23 11q11 0 19 -8.5t8 -23.5zM437 804q0 -16 -8.5 -28t-23.5 -12q-12 0 -20 9t-8 25t10 27t23 11q11 0 19 -8.5t8 -23.5zM311 654h13l217 -590q10 -25 17.5 -32.5t29.5 -12.5l47 -9l-1 -10h-216l-1 10l104 15 l-79 215h-255l-78 -216l95 -14l-1 -10h-202l-1 10l50 9q22 4 30 13.5t16 31.5zM195 263h239l-120 329z" />
<glyph unicode="&#xc5;" horiz-adv-x="635" d="M314 732q-28 0 -47 18.5t-19 45.5q0 29 21 48t52 19q29 0 47.5 -18.5t18.5 -45.5q0 -28 -21 -47.5t-52 -19.5zM318 843q-18 0 -29.5 -13.5t-11.5 -33.5q0 -19 11.5 -31.5t28.5 -12.5q18 0 29.5 14t11.5 33t-11.5 31.5t-28.5 12.5zM311 654h13l217 -590q10 -25 17.5 -32.5 t29.5 -12.5l47 -9l-1 -10h-216l-1 10l104 15l-79 215h-255l-78 -216l95 -14l-1 -10h-202l-1 10l50 9q22 4 30 13.5t16 31.5zM195 263h239l-120 329z" />
<glyph unicode="&#xc6;" horiz-adv-x="817" d="M430 627h-103l-103 -289h206v289zM1 0l-1 10l54 12q17 4 25 11t15 26l208 568l-88 13l1 10h535q4 -29 4 -69q0 -33 -1.5 -58t-4.5 -48h-8l-20 150q-35 2 -70 2h-70h-118v-289l215 5l-1 -30l-214 4v-294h122h72t72 2l20 150h8q3 -22 4.5 -47.5t1.5 -58.5q0 -40 -4 -69 h-417l-1 10l74 12q10 2 13 6t3 11v278l-215 -4l-104 -287l87 -16l-1 -10h-196z" />
<glyph unicode="&#xc7;" horiz-adv-x="563" d="M328 -71l-3 5l9 56q-83 3 -146 44t-98 113.5t-35 172.5q0 102 36.5 178.5t102.5 119t155 42.5q45 0 78.5 -9t60.5 -23q2 -16 2.5 -29t0.5 -32q0 -66 -6 -111h-8l-21 157q-26 12 -53 17.5t-57 5.5q-77 0 -135.5 -39.5t-90.5 -110.5t-32 -166q0 -94 33.5 -163t92 -106 t131.5 -37q34 0 64 5.5t53 16.5l21 166h8q3 -23 4.5 -51t1.5 -64q0 -20 -0.5 -34t-2.5 -31q-25 -16 -60 -23.5t-76 -8.5l-7 -45q71 -11 71 -52q0 -21 -17 -35.5t-43 -22.5t-54 -9l-1 15q39 5 61 17t22 30q0 15 -13.5 25.5t-48.5 15.5z" />
<glyph unicode="&#xc8;" horiz-adv-x="541" d="M384 734l-7 -7q-29 21 -60.5 45t-53 46t-21.5 37q0 18 20 18h3q17 -27 49.5 -64.5t69.5 -74.5zM482 0h-417l-1 10l74 12q10 2 13 6t3 11v585l-92 16l1 10h411q4 -29 4 -69q0 -33 -1.5 -58t-4.5 -48h-8l-20 150q-35 2 -70 2h-70h-118v-289l215 5l-1 -30l-214 4v-294h122 h72t72 2l20 150h8q3 -22 4.5 -47.5t1.5 -58.5q0 -40 -4 -69z" />
<glyph unicode="&#xc9;" horiz-adv-x="541" d="M389 855q0 -11 -20 -32.5t-49 -46t-56 -45.5l-7 7q35 35 65.5 71t46.5 61h3q17 0 17 -15zM482 0h-417l-1 10l74 12q10 2 13 6t3 11v586l-92 16l1 10h411q4 -30 4 -69q0 -33 -1.5 -58.5t-4.5 -48.5h-8l-20 151q-35 1 -70 1.5t-70 0.5h-118v-290l215 5l-1 -30l-214 4v-294 h122h72t72 2l20 150h8q3 -22 4.5 -47.5t1.5 -58.5q0 -40 -4 -69z" />
<glyph unicode="&#xca;" horiz-adv-x="541" d="M424 736l-8 -6q-22 24 -50 52.5t-56 54.5q-12 -14 -30.5 -33.5t-38 -39t-35.5 -33.5l-7 7q18 20 38 45.5t37.5 48.5t24.5 35l4 3h18q20 -24 47.5 -60t55.5 -74zM482 0h-417l-1 10l74 12q10 2 13 6t3 11v585l-92 16l1 10h411q4 -29 4 -69q0 -33 -1.5 -58t-4.5 -48h-8 l-20 150q-35 2 -70 2h-70h-118v-289l215 5l-1 -30l-214 4v-294h122h72t72 2l20 150h8q3 -22 4.5 -47.5t1.5 -58.5q0 -40 -4 -69z" />
<glyph unicode="&#xcb;" horiz-adv-x="541" d="M254 804q0 -16 -8.5 -28t-23.5 -12q-12 0 -20 9t-8 25t10 27t23 11q11 0 19 -8.5t8 -23.5zM432 804q0 -16 -8.5 -28t-23.5 -12q-12 0 -20 9t-8 25t10 27t23 11q11 0 19 -8.5t8 -23.5zM482 0h-417l-1 10l74 12q10 2 13 6t3 11v585l-92 16l1 10h411q4 -29 4 -69 q0 -33 -1.5 -58t-4.5 -48h-8l-20 150q-35 2 -70 2h-70h-118v-289l215 5l-1 -30l-214 4v-294h122h72t72 2l20 150h8q3 -22 4.5 -47.5t1.5 -58.5q0 -40 -4 -69z" />
<glyph unicode="&#xcc;" horiz-adv-x="340" d="M241 734l-7 -7q-29 21 -60.5 45t-53 46t-21.5 37q0 18 20 18h3q17 -27 49.5 -64.5t69.5 -74.5zM277 0h-212l-1 10l74 12q10 2 13 6t3 11v585l-92 16l1 10h212l1 -10l-74 -12q-10 -1 -13 -5t-3 -12v-585l92 -16z" />
<glyph unicode="&#xcd;" horiz-adv-x="340" d="M246 855q0 -11 -20 -32.5t-49 -46t-56 -45.5l-7 7q35 35 65.5 71t46.5 61h3q17 0 17 -15zM277 0h-212l-1 10l74 12q10 2 13 6t3 11v585l-92 16l1 10h212l1 -10l-74 -12q-10 -1 -13 -5t-3 -12v-585l92 -16z" />
<glyph unicode="&#xce;" horiz-adv-x="340" d="M281 736l-8 -6q-22 24 -50 52.5t-56 54.5q-12 -14 -30.5 -33.5t-38 -39t-35.5 -33.5l-7 7q18 20 38 45.5t37.5 48.5t24.5 35l4 3h18q20 -24 47.5 -60t55.5 -74zM277 0h-212l-1 10l74 12q10 2 13 6t3 11v585l-92 16l1 10h212l1 -10l-74 -12q-10 -1 -13 -5t-3 -12v-585 l92 -16z" />
<glyph unicode="&#xcf;" horiz-adv-x="340" d="M111 804q0 -16 -8.5 -28t-23.5 -12q-12 0 -20 9t-8 25t10 27t23 11q11 0 19 -8.5t8 -23.5zM289 804q0 -16 -8.5 -28t-23.5 -12q-12 0 -20 9t-8 25t10 27t23 11q11 0 19 -8.5t8 -23.5zM277 0h-212l-1 10l74 12q10 2 13 6t3 11v585l-92 16l1 10h212l1 -10l-74 -12 q-10 -1 -13 -5t-3 -12v-585l92 -16z" />
<glyph unicode="&#xd0;" horiz-adv-x="643" d="M272 0h-207l-1 10l74 12q10 2 13 6t3 11v273h-92v22h92v290l-92 16l1 10h215q97 0 166 -39t106.5 -111t37.5 -172q0 -98 -38 -172t-109 -115t-169 -41zM359 312h-173v-290h90q87 0 149.5 38t96 107t33.5 161q0 93 -34 160t-97 103.5t-150 36.5h-88v-294h173v-22z" />
<glyph unicode="&#xd1;" d="M451 787q8 9 19 26t20 33l10 -4q-4 -16 -11.5 -34.5t-18.5 -31.5t-25 -13q-15 0 -38.5 7.5t-49 17t-46.5 17t-31 7.5q-7 -9 -18.5 -25.5t-20.5 -33.5l-10 4q4 17 11.5 35t18.5 31t25 13q16 0 39 -7.5t48 -17t46 -17t32 -7.5zM271 0h-206l-1 10l74 12q10 2 13 6t3 11v585 l-92 16l1 10h127l354 -608v582l-92 16l1 10h206l1 -10l-74 -12q-10 -1 -13 -5t-3 -12v-611h-36l-354 608v-582l92 -16z" />
<glyph unicode="&#xd2;" horiz-adv-x="610" d="M376 734l-7 -7q-29 21 -60.5 45t-53 46t-21.5 37q0 18 20 18h3q17 -27 49.5 -64.5t69.5 -74.5zM555 328q0 -93 -30.5 -170t-87 -122.5t-134.5 -45.5q-77 0 -132.5 43t-85.5 118t-30 171q0 97 31.5 173t89 120.5t133.5 44.5q74 0 129.5 -44t86 -119t30.5 -169zM88 322 q0 -89 27.5 -158.5t76.5 -109t112 -39.5q66 0 115 42t76 113t27 158t-27 156.5t-75 110t-112 40.5q-66 0 -115.5 -41t-77 -112t-27.5 -160z" />
<glyph unicode="&#xd3;" horiz-adv-x="610" d="M381 855q0 -11 -20 -32.5t-49 -46t-56 -45.5l-7 7q35 35 65.5 71t46.5 61h3q17 0 17 -15zM555 328q0 -93 -30.5 -170t-87 -122.5t-134.5 -45.5q-77 0 -132.5 43t-85.5 118t-30 171q0 97 31.5 173t89 120.5t133.5 44.5q74 0 129.5 -44t86 -119t30.5 -169zM88 322 q0 -89 27.5 -158.5t76.5 -109t112 -39.5q66 0 115 42t76 113t27 158t-27 156.5t-75 110t-112 40.5q-66 0 -115.5 -41t-77 -112t-27.5 -160z" />
<glyph unicode="&#xd4;" horiz-adv-x="610" d="M416 736l-8 -6q-22 24 -50 52.5t-56 54.5q-12 -14 -30.5 -33.5t-38 -39t-35.5 -33.5l-7 7q18 20 38 45.5t37.5 48.5t24.5 35l4 3h18q20 -24 47.5 -60t55.5 -74zM555 328q0 -93 -30.5 -170t-87 -122.5t-134.5 -45.5q-77 0 -132.5 43t-85.5 118t-30 171q0 97 31.5 173 t89 120.5t133.5 44.5q74 0 129.5 -44t86 -119t30.5 -169zM88 322q0 -89 27.5 -158.5t76.5 -109t112 -39.5q66 0 115 42t76 113t27 158t-27 156.5t-75 110t-112 40.5q-66 0 -115.5 -41t-77 -112t-27.5 -160z" />
<glyph unicode="&#xd5;" horiz-adv-x="610" d="M390 787q8 9 19 26t20 33l10 -4q-4 -16 -11.5 -34.5t-18.5 -31.5t-25 -13q-15 0 -38.5 7.5t-49 17t-46.5 17t-31 7.5q-7 -9 -18.5 -25.5t-20.5 -33.5l-10 4q4 17 11.5 35t18.5 31t25 13q16 0 39 -7.5t48 -17t46 -17t32 -7.5zM555 328q0 -93 -30.5 -170t-87 -122.5 t-134.5 -45.5q-77 0 -132.5 43t-85.5 118t-30 171q0 97 31.5 173t89 120.5t133.5 44.5q74 0 129.5 -44t86 -119t30.5 -169zM88 322q0 -89 27.5 -158.5t76.5 -109t112 -39.5q66 0 115 42t76 113t27 158t-27 156.5t-75 110t-112 40.5q-66 0 -115.5 -41t-77 -112t-27.5 -160z " />
<glyph unicode="&#xd6;" horiz-adv-x="610" d="M246 804q0 -16 -8.5 -28t-23.5 -12q-12 0 -20 9t-8 25t10 27t23 11q11 0 19 -8.5t8 -23.5zM424 804q0 -16 -8.5 -28t-23.5 -12q-12 0 -20 9t-8 25t10 27t23 11q11 0 19 -8.5t8 -23.5zM555 328q0 -93 -30.5 -170t-87 -122.5t-134.5 -45.5q-77 0 -132.5 43t-85.5 118 t-30 171q0 97 31.5 173t89 120.5t133.5 44.5q74 0 129.5 -44t86 -119t30.5 -169zM88 322q0 -89 27.5 -158.5t76.5 -109t112 -39.5q66 0 115 42t76 113t27 158t-27 156.5t-75 110t-112 40.5q-66 0 -115.5 -41t-77 -112t-27.5 -160z" />
<glyph unicode="&#xd7;" horiz-adv-x="542" d="M435 140l-163 166l-159 -158l-19 19l159 159l-165 168l17 16q30 -28 74.5 -72.5t92.5 -93.5l159 159l19 -19l-159 -159q47 -47 90.5 -91.5t72.5 -73.5l-1 -6z" />
<glyph unicode="&#xd8;" horiz-adv-x="610" d="M555 328q0 -93 -30.5 -170t-87 -122.5t-134.5 -45.5q-54 0 -98 21.5t-75 61.5l-58 -77l-19 15l62 82q-60 90 -60 229q0 97 31.5 173t89 120.5t133.5 44.5q52 0 95 -22.5t75 -61.5l59 78l19 -15l-63 -84q29 -44 45 -102t16 -125zM88 322q0 -59 12.5 -110t35.5 -91l324 430 q-28 39 -66.5 61.5t-85.5 22.5q-66 0 -115.5 -41t-77 -112t-27.5 -160zM522 328q0 58 -12.5 109.5t-35.5 91.5l-324 -430q29 -39 68 -61.5t86 -22.5q66 0 115 42t76 113.5t27 157.5z" />
<glyph unicode="&#xd9;" d="M430 734l-7 -7q-29 21 -60.5 45t-53 46t-21.5 37q0 18 20 18h3q17 -27 49.5 -64.5t69.5 -74.5zM569 220q0 -76 -29 -127t-77.5 -77t-107.5 -26q-57 0 -105 25.5t-77 77t-29 127.5v404l-92 16l1 10h212l1 -10l-74 -12q-10 -1 -13 -5t-3 -12v-385q0 -69 25.5 -116t67.5 -71 t90 -24q50 0 92 23t67 70.5t25 118.5v397l-93 16l1 10h207l1 -10l-90 -16v-404z" />
<glyph unicode="&#xda;" d="M435 855q0 -11 -20 -32.5t-49 -46t-56 -45.5l-7 7q35 35 65.5 71t46.5 61h3q17 0 17 -15zM569 220q0 -76 -29 -127t-77.5 -77t-107.5 -26q-57 0 -105 25.5t-77 77t-29 127.5v404l-92 16l1 10h212l1 -10l-74 -12q-10 -1 -13 -5t-3 -12v-385q0 -69 25.5 -116t67.5 -71 t90 -24q50 0 92 23t67 70.5t25 118.5v397l-93 16l1 10h207l1 -10l-90 -16v-404z" />
<glyph unicode="&#xdb;" d="M470 736l-8 -6q-22 24 -50 52.5t-56 54.5q-12 -14 -30.5 -33.5t-38 -39t-35.5 -33.5l-7 7q18 20 38 45.5t37.5 48.5t24.5 35l4 3h18q20 -24 47.5 -60t55.5 -74zM569 220q0 -76 -29 -127t-77.5 -77t-107.5 -26q-57 0 -105 25.5t-77 77t-29 127.5v404l-92 16l1 10h212 l1 -10l-74 -12q-10 -1 -13 -5t-3 -12v-385q0 -69 25.5 -116t67.5 -71t90 -24q50 0 92 23t67 70.5t25 118.5v397l-93 16l1 10h207l1 -10l-90 -16v-404z" />
<glyph unicode="&#xdc;" d="M300 804q0 -16 -8.5 -28t-23.5 -12q-12 0 -20 9t-8 25t10 27t23 11q11 0 19 -8.5t8 -23.5zM478 804q0 -16 -8.5 -28t-23.5 -12q-12 0 -20 9t-8 25t10 27t23 11q11 0 19 -8.5t8 -23.5zM569 220q0 -76 -29 -127t-77.5 -77t-107.5 -26q-57 0 -105 25.5t-77 77t-29 127.5v404 l-92 16l1 10h212l1 -10l-74 -12q-10 -1 -13 -5t-3 -12v-385q0 -69 25.5 -116t67.5 -71t90 -24q50 0 92 23t67 70.5t25 118.5v397l-93 16l1 10h207l1 -10l-90 -16v-404z" />
<glyph unicode="&#xdd;" horiz-adv-x="598" d="M379 855q0 -11 -20 -32.5t-49 -46t-56 -45.5l-7 7q35 35 65.5 71t46.5 61h3q17 0 17 -15zM406 0h-212l-1 10l74 12q10 2 13 6t3 11v183l-192 373q-9 17 -16.5 24.5t-22.5 10.5l-52 10l1 10h202l1 -10l-93 -15l191 -378l191 378l-91 15l1 10h194l1 -10q-27 -4 -49 -10 q-18 -4 -27 -12.5t-17 -25.5l-190 -372v-194l92 -16z" />
<glyph unicode="&#xde;" horiz-adv-x="533" d="M295 0h-230l-1 10l74 12q10 2 13 6t3 11v585l-92 16l1 10h212l1 -10l-74 -12q-10 -1 -13 -5t-3 -12v-83h117q60 0 107 -22t74 -64.5t27 -104.5q0 -63 -29 -106.5t-77 -65.5t-107 -22h-112v-117l110 -16zM293 505h-107v-339h102q89 0 139.5 42.5t50.5 128.5 q0 80 -49.5 124t-135.5 44z" />
<glyph unicode="&#xdf;" horiz-adv-x="537" d="M144 0h-107l-1 10l58 10q20 3 23.5 8t3.5 26v384h-78l-1 10l79 12q0 112 47.5 173.5t123.5 61.5q39 0 71 -18t51.5 -51t19.5 -77q0 -58 -35.5 -98t-89.5 -58q44 -16 83.5 -48t64.5 -78t25 -105q0 -49 -19.5 -88t-53.5 -61.5t-77 -22.5q-49 0 -82 27t-33 59q0 25 20 25 q5 0 7 -1q5 -38 28 -62t63 -24q53 0 84.5 41.5t31.5 105.5q0 87 -53 143t-136 79v13q77 21 109 63.5t32 89.5q0 55 -32.5 88.5t-80.5 33.5q-64 0 -101.5 -50.5t-37.5 -150.5v-463z" />
<glyph unicode="&#xe0;" horiz-adv-x="473" d="M288 584l-7 -7q-29 21 -60.5 45t-53 46t-21.5 37q0 18 20 18h3q17 -27 49.5 -64.5t69.5 -74.5zM445 15q-7 -10 -21 -17.5t-29 -7.5q-62 0 -62 86v10q-19 -36 -60.5 -66t-97.5 -30q-55 0 -87.5 30t-32.5 80q0 54 37.5 89.5t100.5 54.5t140 23v92q0 66 -24 96.5t-76 30.5 q-37 0 -67.5 -17t-48 -42t-17.5 -51q0 -14 4 -26q-4 -6 -14 -6q-22 0 -22 30q0 33 23.5 64t62 51.5t82.5 20.5q68 0 97.5 -36t29.5 -107v-286q0 -70 45 -70q17 0 35 8zM87 100q0 -41 26 -63.5t64 -22.5q50 0 92 31.5t64 85.5v114q-69 -5 -125 -21t-88.5 -46t-32.5 -78z" />
<glyph unicode="&#xe1;" horiz-adv-x="473" d="M284 705q0 -11 -20 -32.5t-49 -46t-56 -45.5l-7 7q35 35 65.5 71t46.5 61h3q17 0 17 -15zM445 15q-7 -10 -21 -17.5t-29 -7.5q-62 0 -62 86v10q-19 -36 -60.5 -66t-97.5 -30q-55 0 -87.5 30t-32.5 80q0 54 37.5 89.5t100.5 54.5t140 23v92q0 66 -24 96.5t-76 30.5 q-37 0 -67.5 -17t-48 -42t-17.5 -51q0 -14 4 -26q-4 -6 -14 -6q-22 0 -22 30q0 33 23.5 64t62 51.5t82.5 20.5q68 0 97.5 -36t29.5 -107v-286q0 -70 45 -70q17 0 35 8zM87 100q0 -41 26 -63.5t64 -22.5q50 0 92 31.5t64 85.5v114q-69 -5 -125 -21t-88.5 -46t-32.5 -78z" />
<glyph unicode="&#xe2;" horiz-adv-x="473" d="M331 586l-8 -6q-22 24 -50 52.5t-56 54.5q-12 -14 -30.5 -33.5t-38 -39t-35.5 -33.5l-7 7q18 20 38 45.5t37.5 48.5t24.5 35l4 3h18q20 -24 47.5 -60t55.5 -74zM445 15q-7 -10 -21 -17.5t-29 -7.5q-62 0 -62 86v10q-19 -36 -60.5 -66t-97.5 -30q-55 0 -87.5 30t-32.5 80 q0 54 37.5 89.5t100.5 54.5t140 23v92q0 66 -24 96.5t-76 30.5q-37 0 -67.5 -17t-48 -42t-17.5 -51q0 -14 4 -26q-4 -6 -14 -6q-22 0 -22 30q0 33 23.5 64t62 51.5t82.5 20.5q68 0 97.5 -36t29.5 -107v-286q0 -70 45 -70q17 0 35 8zM87 100q0 -41 26 -63.5t64 -22.5 q50 0 92 31.5t64 85.5v114q-69 -5 -125 -21t-88.5 -46t-32.5 -78z" />
<glyph unicode="&#xe3;" horiz-adv-x="473" d="M300 637q8 9 19 26t20 33l10 -4q-4 -16 -11.5 -34.5t-18.5 -31.5t-25 -13q-15 0 -38.5 7.5t-49 17t-46.5 17t-31 7.5q-7 -9 -18.5 -25.5t-20.5 -33.5l-10 4q4 17 11.5 35t18.5 31t25 13q16 0 39 -7.5t48 -17t46 -17t32 -7.5zM445 15q-7 -10 -21 -17.5t-29 -7.5 q-62 0 -62 86v10q-19 -36 -60.5 -66t-97.5 -30q-55 0 -87.5 30t-32.5 80q0 54 37.5 89.5t100.5 54.5t140 23v92q0 66 -24 96.5t-76 30.5q-37 0 -67.5 -17t-48 -42t-17.5 -51q0 -14 4 -26q-4 -6 -14 -6q-22 0 -22 30q0 33 23.5 64t62 51.5t82.5 20.5q68 0 97.5 -36t29.5 -107 v-286q0 -70 45 -70q17 0 35 8zM87 100q0 -41 26 -63.5t64 -22.5q50 0 92 31.5t64 85.5v114q-69 -5 -125 -21t-88.5 -46t-32.5 -78z" />
<glyph unicode="&#xe4;" horiz-adv-x="473" d="M160 654q0 -16 -8.5 -28t-23.5 -12q-12 0 -20 9t-8 25t10 27t23 11q11 0 19 -8.5t8 -23.5zM338 654q0 -16 -8.5 -28t-23.5 -12q-12 0 -20 9t-8 25t10 27t23 11q11 0 19 -8.5t8 -23.5zM445 15q-7 -10 -21 -17.5t-29 -7.5q-62 0 -62 86v10q-19 -36 -60.5 -66t-97.5 -30 q-55 0 -87.5 30t-32.5 80q0 54 37.5 89.5t100.5 54.5t140 23v92q0 66 -24 96.5t-76 30.5q-37 0 -67.5 -17t-48 -42t-17.5 -51q0 -14 4 -26q-4 -6 -14 -6q-22 0 -22 30q0 33 23.5 64t62 51.5t82.5 20.5q68 0 97.5 -36t29.5 -107v-286q0 -70 45 -70q17 0 35 8zM87 100 q0 -41 26 -63.5t64 -22.5q50 0 92 31.5t64 85.5v114q-69 -5 -125 -21t-88.5 -46t-32.5 -78z" />
<glyph unicode="&#xe5;" horiz-adv-x="473" d="M214 585q-28 0 -47 18.5t-19 45.5q0 29 21 48t52 19q29 0 47.5 -18.5t18.5 -45.5q0 -28 -21 -47.5t-52 -19.5zM218 696q-18 0 -29.5 -13.5t-11.5 -33.5q0 -19 11.5 -31.5t28.5 -12.5q18 0 29.5 14t11.5 33t-11.5 31.5t-28.5 12.5zM445 15q-7 -10 -21 -17.5t-29 -7.5 q-62 0 -62 86v10q-19 -36 -60.5 -66t-97.5 -30q-55 0 -87.5 30t-32.5 80q0 54 37.5 89.5t100.5 54.5t140 23v92q0 66 -24 96.5t-76 30.5q-37 0 -67.5 -17t-48 -42t-17.5 -51q0 -14 4 -26q-4 -6 -14 -6q-22 0 -22 30q0 33 23.5 64t62 51.5t82.5 20.5q68 0 97.5 -36t29.5 -107 v-286q0 -70 45 -70q17 0 35 8zM87 100q0 -41 26 -63.5t64 -22.5q50 0 92 31.5t64 85.5v114q-69 -5 -125 -21t-88.5 -46t-32.5 -78z" />
<glyph unicode="&#xe6;" horiz-adv-x="709" d="M676 70q-28 -40 -64.5 -60t-88.5 -20q-64 0 -108 34.5t-65 97.5q-12 -31 -36 -61.5t-58.5 -50.5t-80.5 -20q-55 0 -87.5 29.5t-32.5 78.5q0 58 37.5 96t100.5 58.5t140 24.5v82q0 66 -24 96.5t-76 30.5q-37 0 -67.5 -17t-48 -42t-17.5 -51q0 -14 4 -26q-4 -6 -14 -6 q-22 0 -22 30q0 33 23.5 64t62 51.5t82.5 20.5q62 0 91.5 -30t34.5 -88q26 58 70 88t95 30q71 0 108 -51t37 -134q0 -14 -1 -29.5t-3 -31.5l-7 -5h-296v-14q0 -109 45 -170t120 -61q43 0 74 15.5t65 48.5zM525 486q-62 0 -107 -53.5t-52 -153.5l271 5q3 21 3 41 q0 74 -26.5 117.5t-88.5 43.5zM87 98q0 -40 26 -62t64 -22q53 0 98 40t67 99q-9 41 -9 89v12v0v1q-69 -5 -125 -22t-88.5 -50t-32.5 -85z" />
<glyph unicode="&#xe7;" horiz-adv-x="420" d="M229 -71l-3 5l9 56q-84 5 -132 71.5t-48 180.5q0 87 27 146.5t72 90.5t98 31q59 0 97.5 -38.5t38.5 -99.5q0 -30 -22 -30q-8 0 -13 4q3 11 3 23q0 53 -28.5 85t-77.5 32q-45 0 -82 -28t-59 -81.5t-22 -131.5q0 -109 45 -170t118 -61q44 0 78.5 18t62.5 46l7 -8 q-21 -30 -54.5 -53.5t-84.5 -26.5l-7 -45q71 -11 71 -52q0 -21 -17 -35.5t-43 -22.5t-54 -9l-1 15q39 5 61 17t22 30q0 15 -13.5 25.5t-48.5 15.5z" />
<glyph unicode="&#xe8;" horiz-adv-x="431" d="M309 584l-7 -7q-29 21 -60.5 45t-53 46t-21.5 37q0 18 20 18h3q17 -27 49.5 -64.5t69.5 -74.5zM398 70q-28 -40 -64.5 -60t-88.5 -20q-90 0 -140 67t-50 185q0 87 27 146.5t71.5 90.5t95.5 31q71 0 108 -51t37 -134q0 -14 -1 -29.5t-3 -31.5l-7 -5h-296v-14 q0 -109 45 -170t120 -61q43 0 74 15.5t65 48.5zM247 486q-62 0 -107 -53.5t-52 -153.5l271 5q3 21 3 41q0 74 -26.5 117.5t-88.5 43.5z" />
<glyph unicode="&#xe9;" horiz-adv-x="431" d="M305 705q0 -11 -20 -32.5t-49 -46t-56 -45.5l-7 7q35 35 65.5 71t46.5 61h3q17 0 17 -15zM398 70q-28 -40 -64.5 -60t-88.5 -20q-90 0 -140 67t-50 185q0 87 27 146.5t71.5 90.5t95.5 31q71 0 108 -51t37 -134q0 -14 -1 -29.5t-3 -31.5l-7 -5h-296v-14q0 -109 45 -170 t120 -61q43 0 74 15.5t65 48.5zM247 486q-62 0 -107 -53.5t-52 -153.5l271 5q3 21 3 41q0 74 -26.5 117.5t-88.5 43.5z" />
<glyph unicode="&#xea;" horiz-adv-x="431" d="M352 586l-8 -6q-22 24 -50 52.5t-56 54.5q-12 -14 -30.5 -33.5t-38 -39t-35.5 -33.5l-7 7q18 20 38 45.5t37.5 48.5t24.5 35l4 3h18q20 -24 47.5 -60t55.5 -74zM398 70q-28 -40 -64.5 -60t-88.5 -20q-90 0 -140 67t-50 185q0 87 27 146.5t71.5 90.5t95.5 31q71 0 108 -51 t37 -134q0 -14 -1 -29.5t-3 -31.5l-7 -5h-296v-14q0 -109 45 -170t120 -61q43 0 74 15.5t65 48.5zM247 486q-62 0 -107 -53.5t-52 -153.5l271 5q3 21 3 41q0 74 -26.5 117.5t-88.5 43.5z" />
<glyph unicode="&#xeb;" horiz-adv-x="431" d="M181 654q0 -16 -8.5 -28t-23.5 -12q-12 0 -20 9t-8 25t10 27t23 11q11 0 19 -8.5t8 -23.5zM359 654q0 -16 -8.5 -28t-23.5 -12q-12 0 -20 9t-8 25t10 27t23 11q11 0 19 -8.5t8 -23.5zM398 70q-28 -40 -64.5 -60t-88.5 -20q-90 0 -140 67t-50 185q0 87 27 146.5t71.5 90.5 t95.5 31q71 0 108 -51t37 -134q0 -14 -1 -29.5t-3 -31.5l-7 -5h-296v-14q0 -109 45 -170t120 -61q43 0 74 15.5t65 48.5zM247 486q-62 0 -107 -53.5t-52 -153.5l271 5q3 21 3 41q0 74 -26.5 117.5t-88.5 43.5z" />
<glyph unicode="&#xec;" horiz-adv-x="261" d="M186 584l-7 -7q-29 21 -60.5 45t-53 46t-21.5 37q0 18 20 18h3q17 -27 49.5 -64.5t69.5 -74.5zM235 0h-198l-1 10l69 12q10 2 13 6t3 11v442l-84 4l-1 10q26 5 55.5 9t52.5 6l7 -7v-477l85 -16z" />
<glyph unicode="&#xed;" horiz-adv-x="261" d="M187 705q0 -11 -20 -32.5t-49 -46t-56 -45.5l-7 7q35 35 65.5 71t46.5 61h3q17 0 17 -15zM235 0h-198l-1 10l69 12q10 2 13 6t3 11v442l-84 4l-1 10q26 5 55.5 9t52.5 6l7 -7v-477l85 -16z" />
<glyph unicode="&#xee;" horiz-adv-x="261" d="M213 586l-8 -6q-18 24 -40.5 52t-44.5 54q-16 -22 -41 -53t-44 -52l-7 7q14 20 30.5 45.5t30 48.5t19.5 35l4 3h18q16 -24 38.5 -60t44.5 -74zM235 0h-198l-1 10l69 12q10 2 13 6t3 11v442l-84 4l-1 10q26 5 55.5 9t52.5 6l7 -7v-477l85 -16z" />
<glyph unicode="&#xef;" horiz-adv-x="261" d="M78 654q0 -16 -8.5 -28t-23.5 -12q-12 0 -20 9t-8 25t10 27t23 11q11 0 19 -8.5t8 -23.5zM222 654q0 -16 -8.5 -28t-23.5 -12q-12 0 -20 9t-8 25t10 27t23 11q11 0 19 -8.5t8 -23.5zM235 0h-198l-1 10l69 12q10 2 13 6t3 11v442l-84 4l-1 10q26 5 55.5 9t52.5 6l7 -7 v-477l85 -16z" />
<glyph unicode="&#xf0;" horiz-adv-x="484" d="M429 257q0 -76 -21 -136.5t-62.5 -95.5t-103.5 -35q-87 0 -137 65t-50 186q0 127 52.5 198t139.5 71q66 0 106 -41q-39 75 -103 129l-145 -73l-10 21l135 68q-59 44 -130 69l5 12q83 -23 147 -69l119 60l11 -21l-109 -55q75 -61 115.5 -151t40.5 -202zM87 247 q0 -112 40 -172.5t116 -60.5q51 0 85 31.5t51.5 86.5t17.5 124q0 64 -16 116t-49 83t-86 31q-71 0 -115 -63t-44 -176z" />
<glyph unicode="&#xf1;" horiz-adv-x="562" d="M371 637q8 9 19 26t20 33l10 -4q-4 -16 -11.5 -34.5t-18.5 -31.5t-25 -13q-15 0 -38.5 7.5t-49 17t-46.5 17t-31 7.5q-7 -9 -18.5 -25.5t-20.5 -33.5l-10 4q4 17 11.5 35t18.5 31t25 13q16 0 39 -7.5t48 -17t46 -17t32 -7.5zM235 0h-198l-1 10l69 12q10 2 13 6t3 11v442 l-84 4l-1 10q26 5 55.5 9t52.5 6l7 -7v-97q28 49 72 76.5t95 27.5q66 0 100 -39.5t34 -114.5v-330l85 -16l-1 -10h-198l-1 10l69 12q10 2 13 6t3 11v317q0 130 -108 130q-44 0 -90.5 -29.5t-72.5 -81.5v-349l85 -16z" />
<glyph unicode="&#xf2;" horiz-adv-x="484" d="M313 584l-7 -7q-29 21 -60.5 45t-53 46t-21.5 37q0 18 20 18h3q17 -27 49.5 -64.5t69.5 -74.5zM429 257q0 -76 -21 -136.5t-62.5 -95.5t-103.5 -35q-87 0 -137 65t-50 186q0 127 52.5 198t139.5 71q57 0 98 -31.5t62.5 -88.5t21.5 -133zM87 247q0 -112 40 -172.5 t116 -60.5q51 0 85 31.5t51.5 86.5t17.5 125q0 105 -39 167t-112 62q-71 0 -115 -63t-44 -176z" />
<glyph unicode="&#xf3;" horiz-adv-x="484" d="M309 705q0 -11 -20 -32.5t-49 -46t-56 -45.5l-7 7q35 35 65.5 71t46.5 61h3q17 0 17 -15zM429 257q0 -76 -21 -136.5t-62.5 -95.5t-103.5 -35q-87 0 -137 65t-50 186q0 127 52.5 198t139.5 71q57 0 98 -31.5t62.5 -88.5t21.5 -133zM87 247q0 -112 40 -172.5t116 -60.5 q51 0 85 31.5t51.5 86.5t17.5 125q0 105 -39 167t-112 62q-71 0 -115 -63t-44 -176z" />
<glyph unicode="&#xf4;" horiz-adv-x="484" d="M356 586l-8 -6q-22 24 -50 52.5t-56 54.5q-12 -14 -30.5 -33.5t-38 -39t-35.5 -33.5l-7 7q18 20 38 45.5t37.5 48.5t24.5 35l4 3h18q20 -24 47.5 -60t55.5 -74zM429 257q0 -76 -21 -136.5t-62.5 -95.5t-103.5 -35q-87 0 -137 65t-50 186q0 127 52.5 198t139.5 71 q57 0 98 -31.5t62.5 -88.5t21.5 -133zM87 247q0 -112 40 -172.5t116 -60.5q51 0 85 31.5t51.5 86.5t17.5 125q0 105 -39 167t-112 62q-71 0 -115 -63t-44 -176z" />
<glyph unicode="&#xf5;" horiz-adv-x="484" d="M325 637q8 9 19 26t20 33l10 -4q-4 -16 -11.5 -34.5t-18.5 -31.5t-25 -13q-15 0 -38.5 7.5t-49 17t-46.5 17t-31 7.5q-7 -9 -18.5 -25.5t-20.5 -33.5l-10 4q4 17 11.5 35t18.5 31t25 13q16 0 39 -7.5t48 -17t46 -17t32 -7.5zM429 257q0 -76 -21 -136.5t-62.5 -95.5 t-103.5 -35q-87 0 -137 65t-50 186q0 127 52.5 198t139.5 71q57 0 98 -31.5t62.5 -88.5t21.5 -133zM87 247q0 -112 40 -172.5t116 -60.5q51 0 85 31.5t51.5 86.5t17.5 125q0 105 -39 167t-112 62q-71 0 -115 -63t-44 -176z" />
<glyph unicode="&#xf6;" horiz-adv-x="484" d="M185 654q0 -16 -8.5 -28t-23.5 -12q-12 0 -20 9t-8 25t10 27t23 11q11 0 19 -8.5t8 -23.5zM363 654q0 -16 -8.5 -28t-23.5 -12q-12 0 -20 9t-8 25t10 27t23 11q11 0 19 -8.5t8 -23.5zM429 257q0 -76 -21 -136.5t-62.5 -95.5t-103.5 -35q-87 0 -137 65t-50 186 q0 127 52.5 198t139.5 71q57 0 98 -31.5t62.5 -88.5t21.5 -133zM87 247q0 -112 40 -172.5t116 -60.5q51 0 85 31.5t51.5 86.5t17.5 125q0 105 -39 167t-112 62q-71 0 -115 -63t-44 -176z" />
<glyph unicode="&#xf7;" horiz-adv-x="539" d="M302 491q0 -16 -8 -29.5t-26 -13.5q-15 0 -23.5 11.5t-8.5 27.5q0 17 9.5 30t25.5 13q15 0 23 -11t8 -28zM459 312h-384v23q33 1 84 1.5t108 1t108.5 0.5h84.5l4 -5zM302 164q0 -16 -8 -29.5t-26 -13.5q-15 0 -23.5 11.5t-8.5 27.5q0 17 9.5 30t25.5 13q15 0 23 -11 t8 -28z" />
<glyph unicode="&#xf8;" horiz-adv-x="484" d="M429 257q0 -76 -21 -136.5t-62.5 -95.5t-103.5 -35q-101 0 -150 84l-53 -56l-16 17l58 62q-26 59 -26 144q0 127 52.5 198t139.5 71q47 0 83 -22t60 -61l51 55l19 -16l-58 -62q27 -62 27 -147zM87 247q0 -73 17 -125l265 283q-19 39 -50 60t-73 21q-71 0 -115 -63 t-44 -176zM397 257q0 71 -18 123l-265 -282q39 -84 129 -84q51 0 85 31.5t51.5 86.5t17.5 125z" />
<glyph unicode="&#xf9;" horiz-adv-x="562" d="M338 584l-7 -7q-29 21 -60.5 45t-53 46t-21.5 37q0 18 20 18h3q17 -27 49.5 -64.5t69.5 -74.5zM523 15q-7 -10 -21 -17.5t-29 -7.5q-62 0 -62 91v9q-25 -40 -65.5 -70t-97.5 -30q-68 0 -103 39.5t-35 114.5v337l-84 4l-1 10q26 5 55.5 9t52.5 6l7 -7v-359q0 -64 29.5 -97 t80.5 -33q47 0 90 31t71 85v351l-84 4l-1 10q26 5 55.5 9t52.5 6l7 -7v-422q0 -70 45 -70q17 0 35 8z" />
<glyph unicode="&#xfa;" horiz-adv-x="562" d="M339 705q0 -11 -20 -32.5t-49 -46t-56 -45.5l-7 7q35 35 65.5 71t46.5 61h3q17 0 17 -15zM523 15q-7 -10 -21 -17.5t-29 -7.5q-62 0 -62 91v9q-25 -40 -65.5 -70t-97.5 -30q-68 0 -103 39.5t-35 114.5v337l-84 4l-1 10q26 5 55.5 9t52.5 6l7 -7v-359q0 -64 29.5 -97 t80.5 -33q47 0 90 31t71 85v351l-84 4l-1 10q26 5 55.5 9t52.5 6l7 -7v-422q0 -70 45 -70q17 0 35 8z" />
<glyph unicode="&#xfb;" horiz-adv-x="562" d="M386 586l-8 -6q-22 24 -50 52.5t-56 54.5q-12 -14 -30.5 -33.5t-38 -39t-35.5 -33.5l-7 7q18 20 38 45.5t37.5 48.5t24.5 35l4 3h18q20 -24 47.5 -60t55.5 -74zM523 15q-7 -10 -21 -17.5t-29 -7.5q-62 0 -62 91v9q-25 -40 -65.5 -70t-97.5 -30q-68 0 -103 39.5t-35 114.5 v337l-84 4l-1 10q26 5 55.5 9t52.5 6l7 -7v-359q0 -64 29.5 -97t80.5 -33q47 0 90 31t71 85v351l-84 4l-1 10q26 5 55.5 9t52.5 6l7 -7v-422q0 -70 45 -70q17 0 35 8z" />
<glyph unicode="&#xfc;" horiz-adv-x="562" d="M215 654q0 -16 -8.5 -28t-23.5 -12q-12 0 -20 9t-8 25t10 27t23 11q11 0 19 -8.5t8 -23.5zM393 654q0 -16 -8.5 -28t-23.5 -12q-12 0 -20 9t-8 25t10 27t23 11q11 0 19 -8.5t8 -23.5zM523 15q-7 -10 -21 -17.5t-29 -7.5q-62 0 -62 91v9q-25 -40 -65.5 -70t-97.5 -30 q-68 0 -103 39.5t-35 114.5v337l-84 4l-1 10q26 5 55.5 9t52.5 6l7 -7v-359q0 -64 29.5 -97t80.5 -33q47 0 90 31t71 85v351l-84 4l-1 10q26 5 55.5 9t52.5 6l7 -7v-422q0 -70 45 -70q17 0 35 8z" />
<glyph unicode="&#xfd;" horiz-adv-x="519" d="M326 705q0 -11 -20 -32.5t-49 -46t-56 -45.5l-7 7q35 35 65.5 71t46.5 61h3q17 0 17 -15zM87 -195q-19 0 -31.5 7.5t-12.5 20.5q0 11 8 17q6 -4 17 -8.5t24 -4.5q46 0 88 42t68 126l-156 443q-5 16 -12 22.5t-24 9.5l-56 10l1 10h198l1 -10l-85 -16l148 -421l141 421 l-85 16l1 10h198l1 -10l-63 -11q-16 -3 -24.5 -11.5t-13.5 -25.5l-149 -442q-30 -91 -73.5 -143t-108.5 -52z" />
<glyph unicode="&#xfe;" horiz-adv-x="525" d="M244 -185h-218l-1 10l69 12q10 2 13 6t3 11v812l-84 4l-1 10q26 5 55.5 9t52.5 6l7 -7v-277q24 46 65 72.5t89 26.5q83 0 129.5 -67.5t46.5 -187.5q0 -80 -26.5 -139.5t-73 -92.5t-107.5 -33q-34 0 -64.5 6.5t-58.5 16.5v-172l105 -16zM140 41q31 -13 61.5 -20t62.5 -7 q56 0 95 31t59.5 85.5t19.5 122.5q-1 104 -37 168.5t-107 64.5q-49 0 -91 -32.5t-63 -88.5v-324z" />
<glyph unicode="&#xff;" horiz-adv-x="519" d="M202 654q0 -16 -8.5 -28t-23.5 -12q-12 0 -20 9t-8 25t10 27t23 11q11 0 19 -8.5t8 -23.5zM380 654q0 -16 -8.5 -28t-23.5 -12q-12 0 -20 9t-8 25t10 27t23 11q11 0 19 -8.5t8 -23.5zM87 -195q-19 0 -31.5 7.5t-12.5 20.5q0 11 8 17q6 -4 17 -8.5t24 -4.5q46 0 88 42 t68 126l-156 443q-5 16 -12 22.5t-24 9.5l-56 10l1 10h198l1 -10l-85 -16l148 -421l141 421l-85 16l1 10h198l1 -10l-63 -11q-16 -3 -24.5 -11.5t-13.5 -25.5l-149 -442q-30 -91 -73.5 -143t-108.5 -52z" />
<glyph unicode="&#x100;" horiz-adv-x="635" d="M201 788v24h234v-24h-234zM311 654h13l217 -590q10 -25 17.5 -32.5t29.5 -12.5l47 -9l-1 -10h-216l-1 10l104 15l-79 215h-255l-78 -216l95 -14l-1 -10h-202l-1 10l50 9q22 4 30 13.5t16 31.5zM195 263h239l-120 329z" />
<glyph unicode="&#x101;" horiz-adv-x="473" d="M92 638v24h234v-24h-234zM445 15q-7 -10 -21 -17.5t-29 -7.5q-62 0 -62 86v10q-19 -36 -60.5 -66t-97.5 -30q-55 0 -87.5 30t-32.5 80q0 54 37.5 89.5t100.5 54.5t140 23v92q0 66 -24 96.5t-76 30.5q-37 0 -67.5 -17t-48 -42t-17.5 -51q0 -14 4 -26q-4 -6 -14 -6 q-22 0 -22 30q0 33 23.5 64t62 51.5t82.5 20.5q68 0 97.5 -36t29.5 -107v-286q0 -70 45 -70q17 0 35 8zM87 100q0 -41 26 -63.5t64 -22.5q50 0 92 31.5t64 85.5v114q-69 -5 -125 -21t-88.5 -46t-32.5 -78z" />
<glyph unicode="&#x102;" horiz-adv-x="635" d="M402 850l4 2l11 -3q-10 -48 -36.5 -74.5t-64.5 -26.5t-64 26.5t-33 74.5l14 3q9 -37 32 -58t54 -21q29 0 51 20.5t32 56.5zM311 654h13l217 -590q10 -25 17.5 -32.5t29.5 -12.5l47 -9l-1 -10h-216l-1 10l104 15l-79 215h-255l-78 -216l95 -14l-1 -10h-202l-1 10l50 9 q22 4 30 13.5t16 31.5zM195 263h239l-120 329z" />
<glyph unicode="&#x103;" horiz-adv-x="473" d="M302 700l4 2l11 -3q-10 -48 -36.5 -74.5t-64.5 -26.5t-64 26.5t-33 74.5l14 3q9 -37 32 -58t54 -21q29 0 51 20.5t32 56.5zM445 15q-7 -10 -21 -17.5t-29 -7.5q-62 0 -62 86v10q-19 -36 -60.5 -66t-97.5 -30q-55 0 -87.5 30t-32.5 80q0 54 37.5 89.5t100.5 54.5t140 23 v92q0 66 -24 96.5t-76 30.5q-37 0 -67.5 -17t-48 -42t-17.5 -51q0 -14 4 -26q-4 -6 -14 -6q-22 0 -22 30q0 33 23.5 64t62 51.5t82.5 20.5q68 0 97.5 -36t29.5 -107v-286q0 -70 45 -70q17 0 35 8zM87 100q0 -41 26 -63.5t64 -22.5q50 0 92 31.5t64 85.5v114q-69 -5 -125 -21 t-88.5 -46t-32.5 -78z" />
<glyph unicode="&#x104;" horiz-adv-x="635" d="M630 -146q-10 -12 -29 -20t-39 -8q-31 0 -49 14.5t-18 43.5q0 31 29.5 63t74.5 53h-181l-1 10l104 15l-79 215h-255l-78 -216l95 -14l-1 -10h-202l-1 10l50 9q22 4 30 13.5t16 31.5l215 590h13l217 -590q10 -25 17.5 -32.5t29.5 -12.5l47 -9l-1 -10q-45 -17 -76 -48.5 t-31 -62.5q0 -21 13.5 -31.5t34.5 -10.5q15 0 27.5 3t25.5 8zM195 263h239l-120 329z" />
<glyph unicode="&#x105;" horiz-adv-x="473" d="M444 -146q-10 -11 -26 -19.5t-37 -8.5q-22 0 -38.5 13t-16.5 41q0 32 24.5 59.5t55.5 51.5q-5 -1 -11 -1q-62 0 -62 86v10q-19 -36 -60.5 -66t-97.5 -30q-55 0 -87.5 30t-32.5 80q0 54 37.5 89.5t100.5 54.5t140 23v92q0 66 -24 96.5t-76 30.5q-37 0 -67.5 -17t-48 -42 t-17.5 -51q0 -14 4 -26q-4 -6 -14 -6q-22 0 -22 30q0 33 23.5 64t62 51.5t82.5 20.5q68 0 97.5 -36t29.5 -107v-286q0 -70 45 -70q17 0 35 8l2 -4q-14 -19 -35 -39.5t-36.5 -43t-15.5 -47.5q0 -38 36 -38q14 0 25 3t23 8zM87 100q0 -41 26 -63.5t64 -22.5q50 0 92 31.5 t64 85.5v114q-69 -5 -125 -21t-88.5 -46t-32.5 -78z" />
<glyph unicode="&#x106;" horiz-adv-x="563" d="M395 855q0 -11 -20 -32.5t-49 -46t-56 -45.5l-7 7q35 35 65.5 71t46.5 61h3q17 0 17 -15zM494 22q-27 -16 -64.5 -24t-81.5 -8q-87 0 -153 40t-103 114t-37 176t36.5 178.5t102.5 119t155 42.5q45 0 78.5 -9t60.5 -23q2 -16 2.5 -29t0.5 -32q0 -66 -6 -111h-8l-21 157 q-26 12 -53 17.5t-57 5.5q-77 0 -135.5 -39.5t-90.5 -110.5t-32 -166q0 -94 33.5 -163t92 -106t131.5 -37q34 0 64 5.5t53 16.5l21 166h8q3 -23 4.5 -51t1.5 -64q0 -20 -0.5 -34t-2.5 -31z" />
<glyph unicode="&#x107;" horiz-adv-x="420" d="M306 705q0 -11 -20 -32.5t-49 -46t-56 -45.5l-7 7q35 35 65.5 71t46.5 61h3q17 0 17 -15zM55 242q0 87 27 146.5t72 90.5t98 31q59 0 97.5 -38.5t38.5 -99.5q0 -30 -22 -30q-8 0 -13 4q3 11 3 23q0 53 -28.5 85t-77.5 32q-45 0 -82 -28t-59 -81.5t-22 -131.5 q0 -109 45 -170t118 -61q44 0 78.5 18t62.5 46l7 -8q-22 -31 -58.5 -55.5t-92.5 -24.5q-90 0 -141 67t-51 185z" />
<glyph unicode="&#x108;" horiz-adv-x="563" d="M430 736l-8 -6q-22 24 -50 52.5t-56 54.5q-12 -14 -30.5 -33.5t-38 -39t-35.5 -33.5l-7 7q18 20 38 45.5t37.5 48.5t24.5 35l4 3h18q20 -24 47.5 -60t55.5 -74zM494 22q-27 -16 -64.5 -24t-81.5 -8q-87 0 -153 40t-103 114t-37 176t36.5 178.5t102.5 119t155 42.5 q45 0 78.5 -9t60.5 -23q2 -16 2.5 -29t0.5 -32q0 -66 -6 -111h-8l-21 157q-26 12 -53 17.5t-57 5.5q-77 0 -135.5 -39.5t-90.5 -110.5t-32 -166q0 -94 33.5 -163t92 -106t131.5 -37q34 0 64 5.5t53 16.5l21 166h8q3 -23 4.5 -51t1.5 -64q0 -20 -0.5 -34t-2.5 -31z" />
<glyph unicode="&#x109;" horiz-adv-x="420" d="M353 586l-8 -6q-22 24 -50 52.5t-56 54.5q-12 -14 -30.5 -33.5t-38 -39t-35.5 -33.5l-7 7q18 20 38 45.5t37.5 48.5t24.5 35l4 3h18q20 -24 47.5 -60t55.5 -74zM55 242q0 87 27 146.5t72 90.5t98 31q59 0 97.5 -38.5t38.5 -99.5q0 -30 -22 -30q-8 0 -13 4q3 11 3 23 q0 53 -28.5 85t-77.5 32q-45 0 -82 -28t-59 -81.5t-22 -131.5q0 -109 45 -170t118 -61q44 0 78.5 18t62.5 46l7 -8q-22 -31 -58.5 -55.5t-92.5 -24.5q-90 0 -141 67t-51 185z" />
<glyph unicode="&#x10a;" horiz-adv-x="563" d="M349 804q0 -16 -8.5 -28t-23.5 -12q-12 0 -20 9t-8 25t10 27t23 11q11 0 19 -8.5t8 -23.5zM494 22q-27 -16 -64.5 -24t-81.5 -8q-87 0 -153 40t-103 114t-37 176t36.5 178.5t102.5 119t155 42.5q45 0 78.5 -9t60.5 -23q2 -16 2.5 -29t0.5 -32q0 -66 -6 -111h-8l-21 157 q-26 12 -53 17.5t-57 5.5q-77 0 -135.5 -39.5t-90.5 -110.5t-32 -166q0 -94 33.5 -163t92 -106t131.5 -37q34 0 64 5.5t53 16.5l21 166h8q3 -23 4.5 -51t1.5 -64q0 -20 -0.5 -34t-2.5 -31z" />
<glyph unicode="&#x10b;" horiz-adv-x="420" d="M274 654q0 -16 -8.5 -28t-23.5 -12q-12 0 -20 9t-8 25t10 27t23 11q11 0 19 -8.5t8 -23.5zM55 242q0 87 27 146.5t72 90.5t98 31q59 0 97.5 -38.5t38.5 -99.5q0 -30 -22 -30q-8 0 -13 4q3 11 3 23q0 53 -28.5 85t-77.5 32q-45 0 -82 -28t-59 -81.5t-22 -131.5 q0 -109 45 -170t118 -61q44 0 78.5 18t62.5 46l7 -8q-22 -31 -58.5 -55.5t-92.5 -24.5q-90 0 -141 67t-51 185z" />
<glyph unicode="&#x10c;" horiz-adv-x="563" d="M332 733l-4 -3h-18q-19 24 -47 60.5t-56 73.5l8 6q22 -24 50 -52.5t56 -54.5q12 14 30.5 33.5t38 39t35.5 33.5l7 -7q-17 -20 -37.5 -45.5t-37.5 -48t-25 -35.5zM494 22q-27 -16 -64.5 -24t-81.5 -8q-87 0 -153 40t-103 114t-37 176t36.5 178.5t102.5 119t155 42.5 q45 0 78.5 -9t60.5 -23q2 -16 2.5 -29t0.5 -32q0 -66 -6 -111h-8l-21 157q-26 12 -53 17.5t-57 5.5q-77 0 -135.5 -39.5t-90.5 -110.5t-32 -166q0 -94 33.5 -163t92 -106t131.5 -37q34 0 64 5.5t53 16.5l21 166h8q3 -23 4.5 -51t1.5 -64q0 -20 -0.5 -34t-2.5 -31z" />
<glyph unicode="&#x10d;" horiz-adv-x="420" d="M252 583l-4 -3h-18q-19 24 -47 60.5t-56 73.5l8 6q22 -24 50 -52.5t56 -54.5q12 14 30.5 33.5t38 39t35.5 33.5l7 -7q-17 -20 -37.5 -45.5t-37.5 -48t-25 -35.5zM55 242q0 87 27 146.5t72 90.5t98 31q59 0 97.5 -38.5t38.5 -99.5q0 -30 -22 -30q-8 0 -13 4q3 11 3 23 q0 53 -28.5 85t-77.5 32q-45 0 -82 -28t-59 -81.5t-22 -131.5q0 -109 45 -170t118 -61q44 0 78.5 18t62.5 46l7 -8q-22 -31 -58.5 -55.5t-92.5 -24.5q-90 0 -141 67t-51 185z" />
<glyph unicode="&#x10e;" horiz-adv-x="643" d="M346 733l-4 -3h-18q-19 24 -47 60.5t-56 73.5l8 6q22 -24 50 -52.5t56 -54.5q12 14 30.5 33.5t38 39t35.5 33.5l7 -7q-17 -20 -37.5 -45.5t-37.5 -48t-25 -35.5zM272 0h-207l-1 10l74 12q10 2 13 6t3 11v585l-92 16l1 10h215q97 0 166 -39t106.5 -111t37.5 -172 q0 -98 -38 -172t-109 -115t-169 -41zM274 628h-88v-606h90q87 0 149.5 38t96 107t33.5 161q0 93 -34 160t-97 103.5t-150 36.5z" />
<glyph unicode="&#x10f;" horiz-adv-x="583" d="M55 230q0 87 28.5 149.5t79.5 96.5t118 34q32 0 57.5 -6.5t47.5 -15.5v178l-84 4l-1 10q26 5 55.5 9t52.5 6l7 -7v-607q0 -70 45 -70q17 0 35 8l2 -4q-7 -10 -21 -17.5t-29 -7.5q-62 0 -62 86v11q-23 -43 -64 -70t-89 -27q-77 0 -127.5 62.5t-50.5 177.5zM558 655 q0 -25 -12.5 -64t-38.5 -71l-6 5q12 28 18 54.5t8 51.5h-1q-29 6 -29 32q0 14 8.5 23t22.5 9t22 -11t8 -29zM87 231q0 -101 42.5 -159t106.5 -58q28 0 57.5 14.5t54.5 41t38 61.5v329q-26 14 -53 20t-56 6q-58 0 -101 -31.5t-66 -89t-23 -134.5z" />
<glyph unicode="&#x110;" horiz-adv-x="643" d="M272 0h-207l-1 10l74 12q10 2 13 6t3 11v273h-92v22h92v290l-92 16l1 10h215q97 0 166 -39t106.5 -111t37.5 -172q0 -98 -38 -172t-109 -115t-169 -41zM359 312h-173v-290h90q87 0 149.5 38t96 107t33.5 161q0 93 -34 160t-97 103.5t-150 36.5h-88v-294h173v-22z" />
<glyph unicode="&#x111;" horiz-adv-x="526" d="M55 230q0 87 28.5 149.5t79.5 96.5t118 34q32 0 57.5 -6.5t47.5 -15.5v86h-194v22h194v70l-84 4l-1 10q26 5 55.5 9t52.5 6l7 -7v-92h82v-22h-82v-493q0 -70 45 -70q17 0 35 8l2 -4q-7 -10 -21 -17.5t-29 -7.5q-62 0 -62 86v11q-23 -43 -64 -70t-89 -27 q-77 0 -127.5 62.5t-50.5 177.5zM87 231q0 -101 42.5 -159t106.5 -58q28 0 57.5 14.5t54.5 41t38 61.5v329q-26 14 -53 20t-56 6q-58 0 -101 -31.5t-66 -89t-23 -134.5z" />
<glyph unicode="&#x112;" horiz-adv-x="541" d="M196 788v24h234v-24h-234zM482 0h-417l-1 10l74 12q10 2 13 6t3 11v585l-92 16l1 10h411q4 -29 4 -69q0 -33 -1.5 -58t-4.5 -48h-8l-20 150q-35 2 -70 2h-70h-118v-289l215 5l-1 -30l-214 4v-294h122h72t72 2l20 150h8q3 -22 4.5 -47.5t1.5 -58.5q0 -40 -4 -69z" />
<glyph unicode="&#x113;" horiz-adv-x="431" d="M113 638v24h234v-24h-234zM398 70q-28 -40 -64.5 -60t-88.5 -20q-90 0 -140 67t-50 185q0 87 27 146.5t71.5 90.5t95.5 31q71 0 108 -51t37 -134q0 -14 -1 -29.5t-3 -31.5l-7 -5h-296v-14q0 -109 45 -170t120 -61q43 0 74 15.5t65 48.5zM247 486q-62 0 -107 -53.5 t-52 -153.5l271 5q3 21 3 41q0 74 -26.5 117.5t-88.5 43.5z" />
<glyph unicode="&#x114;" horiz-adv-x="541" d="M397 850l4 2l11 -3q-10 -48 -36.5 -74.5t-64.5 -26.5t-64 26.5t-33 74.5l14 3q9 -37 32 -58t54 -21q29 0 51 20.5t32 56.5zM482 0h-417l-1 10l74 12q10 2 13 6t3 11v585l-92 16l1 10h411q4 -29 4 -69q0 -33 -1.5 -58t-4.5 -48h-8l-20 150q-35 2 -70 2h-70h-118v-289 l215 5l-1 -30l-214 4v-294h122h72t72 2l20 150h8q3 -22 4.5 -47.5t1.5 -58.5q0 -40 -4 -69z" />
<glyph unicode="&#x115;" horiz-adv-x="431" d="M323 700l4 2l11 -3q-10 -48 -36.5 -74.5t-64.5 -26.5t-64 26.5t-33 74.5l14 3q9 -37 32 -58t54 -21q29 0 51 20.5t32 56.5zM398 70q-28 -40 -64.5 -60t-88.5 -20q-90 0 -140 67t-50 185q0 87 27 146.5t71.5 90.5t95.5 31q71 0 108 -51t37 -134q0 -14 -1 -29.5t-3 -31.5 l-7 -5h-296v-14q0 -109 45 -170t120 -61q43 0 74 15.5t65 48.5zM247 486q-62 0 -107 -53.5t-52 -153.5l271 5q3 21 3 41q0 74 -26.5 117.5t-88.5 43.5z" />
<glyph unicode="&#x116;" horiz-adv-x="541" d="M343 804q0 -16 -8.5 -28t-23.5 -12q-12 0 -20 9t-8 25t10 27t23 11q11 0 19 -8.5t8 -23.5zM482 0h-417l-1 10l74 12q10 2 13 6t3 11v585l-92 16l1 10h411q4 -29 4 -69q0 -33 -1.5 -58t-4.5 -48h-8l-20 150q-35 2 -70 2h-70h-118v-289l215 5l-1 -30l-214 4v-294h122h72 t72 2l20 150h8q3 -22 4.5 -47.5t1.5 -58.5q0 -40 -4 -69z" />
<glyph unicode="&#x117;" horiz-adv-x="431" d="M273 654q0 -16 -8.5 -28t-23.5 -12q-12 0 -20 9t-8 25t10 27t23 11q11 0 19 -8.5t8 -23.5zM398 70q-28 -40 -64.5 -60t-88.5 -20q-90 0 -140 67t-50 185q0 87 27 146.5t71.5 90.5t95.5 31q71 0 108 -51t37 -134q0 -14 -1 -29.5t-3 -31.5l-7 -5h-296v-14q0 -109 45 -170 t120 -61q43 0 74 15.5t65 48.5zM247 486q-62 0 -107 -53.5t-52 -153.5l271 5q3 21 3 41q0 74 -26.5 117.5t-88.5 43.5z" />
<glyph unicode="&#x118;" horiz-adv-x="541" d="M478 -146q-10 -12 -29 -20t-39 -8q-31 0 -49 14.5t-18 43.5q0 31 29.5 63t74.5 53h-382l-1 10l74 12q10 2 13 6t3 11v585l-92 16l1 10h411q4 -29 4 -69q0 -33 -1.5 -58t-4.5 -48h-8l-20 150q-35 2 -70 2h-70h-118v-289l215 5l-1 -30l-214 4v-294h122h72t72 2l20 150h8 q3 -22 4.5 -47.5t1.5 -58.5q0 -40 -4 -69q-45 -17 -76 -48.5t-31 -62.5q0 -21 13.5 -31.5t34.5 -10.5q15 0 27.5 3t25.5 8z" />
<glyph unicode="&#x119;" horiz-adv-x="431" d="M340 -146q-11 -11 -28 -19.5t-40 -8.5q-31 0 -47 15.5t-16 43.5q0 34 30.5 60.5t65.5 52.5q-27 -8 -60 -8q-90 0 -140 67t-50 185q0 87 27 146.5t71.5 90.5t95.5 31q71 0 108 -51t37 -134q0 -14 -1 -29.5t-3 -31.5l-7 -5h-296v-14q0 -109 45 -170t120 -61q43 0 74 15.5 t65 48.5l7 -8q-17 -28 -43 -50.5t-52.5 -43t-44 -41.5t-17.5 -47q0 -41 44 -41q15 0 27.5 3t25.5 8zM247 486q-62 0 -107 -53.5t-52 -153.5l271 5q3 21 3 41q0 74 -26.5 117.5t-88.5 43.5z" />
<glyph unicode="&#x11a;" horiz-adv-x="541" d="M326 733l-4 -3h-18q-19 24 -47 60.5t-56 73.5l8 6q22 -24 50 -52.5t56 -54.5q12 14 30.5 33.5t38 39t35.5 33.5l7 -7q-17 -20 -37.5 -45.5t-37.5 -48t-25 -35.5zM482 0h-417l-1 10l74 12q10 2 13 6t3 11v585l-92 16l1 10h411q4 -29 4 -69q0 -33 -1.5 -58t-4.5 -48h-8 l-20 150q-35 2 -70 2h-70h-118v-289l215 5l-1 -30l-214 4v-294h122h72t72 2l20 150h8q3 -22 4.5 -47.5t1.5 -58.5q0 -40 -4 -69z" />
<glyph unicode="&#x11b;" horiz-adv-x="431" d="M251 583l-4 -3h-18q-19 24 -47 60.5t-56 73.5l8 6q22 -24 50 -52.5t56 -54.5q12 14 30.5 33.5t38 39t35.5 33.5l7 -7q-17 -20 -37.5 -45.5t-37.5 -48t-25 -35.5zM398 70q-28 -40 -64.5 -60t-88.5 -20q-90 0 -140 67t-50 185q0 87 27 146.5t71.5 90.5t95.5 31 q71 0 108 -51t37 -134q0 -14 -1 -29.5t-3 -31.5l-7 -5h-296v-14q0 -109 45 -170t120 -61q43 0 74 15.5t65 48.5zM247 486q-62 0 -107 -53.5t-52 -153.5l271 5q3 21 3 41q0 74 -26.5 117.5t-88.5 43.5z" />
<glyph unicode="&#x11c;" horiz-adv-x="596" d="M443 736l-8 -6q-22 24 -50 52.5t-56 54.5q-12 -14 -30.5 -33.5t-38 -39t-35.5 -33.5l-7 7q18 20 38 45.5t37.5 48.5t24.5 35l4 3h18q20 -24 47.5 -60t55.5 -74zM508 22q-58 -32 -150 -32q-90 0 -158 40.5t-106.5 115.5t-38.5 178q0 101 37.5 176.5t106.5 117.5t161 42 q42 0 77.5 -8.5t61.5 -23.5q2 -16 2.5 -29t0.5 -32q0 -66 -6 -111h-8l-21 157q-47 23 -110 23q-81 0 -141.5 -39t-94 -109t-33.5 -164q0 -96 35 -165.5t95.5 -107t136.5 -37.5q72 0 121 23v234l-97 16l1 8h202l1 -8l-59 -12q-10 -2 -13 -5.5t-3 -11.5v-236z" />
<glyph unicode="&#x11d;" horiz-adv-x="422" d="M326 586l-8 -6q-22 24 -50 52.5t-56 54.5q-12 -14 -30.5 -33.5t-38 -39t-35.5 -33.5l-7 7q18 20 38 45.5t37.5 48.5t24.5 35l4 3h18q20 -24 47.5 -60t55.5 -74zM417 -58q0 -34 -25 -65.5t-74.5 -51.5t-122.5 -20q-52 0 -93.5 15t-66 41t-24.5 60t20.5 58.5t52 40 t63.5 20.5l-4 2q-21 8 -34.5 22.5t-13.5 35.5q0 23 14 39.5t33 28.5q-39 18 -63.5 58.5t-24.5 99.5q0 54 20 95.5t57 65t87 23.5q56 0 101 1.5t100 5.5q3 -6 3 -16q0 -19 -25 -19q-16 0 -49 3.5t-71 6.5l-1 -3q37 -18 58.5 -57.5t21.5 -89.5q0 -87 -44 -136.5t-109 -49.5 q-21 0 -41 5q-15 -10 -26 -25t-11 -31q0 -40 61 -48l74 -9q77 -9 117 -33t40 -73zM85 331q0 -65 33 -108t86 -43q55 0 88.5 43.5t33.5 114.5q0 61 -29.5 104.5t-85.5 43.5q-37 0 -65.5 -20.5t-44.5 -55.5t-16 -79zM43 -77q0 -40 43 -67t117 -27q54 0 95 15t64 41t23 57 q0 38 -34 56t-93 25l-73 8q-64 -12 -103 -40t-39 -68z" />
<glyph unicode="&#x11e;" horiz-adv-x="596" d="M416 850l4 2l11 -3q-10 -48 -36.5 -74.5t-64.5 -26.5t-64 26.5t-33 74.5l14 3q9 -37 32 -58t54 -21q29 0 51 20.5t32 56.5zM508 22q-58 -32 -150 -32q-90 0 -158 40.5t-106.5 115.5t-38.5 178q0 101 37.5 176.5t106.5 117.5t161 42q42 0 77.5 -8.5t61.5 -23.5 q2 -16 2.5 -29t0.5 -32q0 -66 -6 -111h-8l-21 157q-47 23 -110 23q-81 0 -141.5 -39t-94 -109t-33.5 -164q0 -96 35 -165.5t95.5 -107t136.5 -37.5q72 0 121 23v234l-97 16l1 8h202l1 -8l-59 -12q-10 -2 -13 -5.5t-3 -11.5v-236z" />
<glyph unicode="&#x11f;" horiz-adv-x="422" d="M298 700l4 2l11 -3q-10 -48 -36.5 -74.5t-64.5 -26.5t-64 26.5t-33 74.5l14 3q9 -37 32 -58t54 -21q29 0 51 20.5t32 56.5zM417 -58q0 -34 -25 -65.5t-74.5 -51.5t-122.5 -20q-52 0 -93.5 15t-66 41t-24.5 60t20.5 58.5t52 40t63.5 20.5l-4 2q-21 8 -34.5 22.5 t-13.5 35.5q0 23 14 39.5t33 28.5q-39 18 -63.5 58.5t-24.5 99.5q0 54 20 95.5t57 65t87 23.5q56 0 101 1.5t100 5.5q3 -6 3 -16q0 -19 -25 -19q-16 0 -49 3.5t-71 6.5l-1 -3q37 -18 58.5 -57.5t21.5 -89.5q0 -87 -44 -136.5t-109 -49.5q-21 0 -41 5q-15 -10 -26 -25 t-11 -31q0 -40 61 -48l74 -9q77 -9 117 -33t40 -73zM85 331q0 -65 33 -108t86 -43q55 0 88.5 43.5t33.5 114.5q0 61 -29.5 104.5t-85.5 43.5q-37 0 -65.5 -20.5t-44.5 -55.5t-16 -79zM43 -77q0 -40 43 -67t117 -27q54 0 95 15t64 41t23 57q0 38 -34 56t-93 25l-73 8 q-64 -12 -103 -40t-39 -68z" />
<glyph unicode="&#x120;" horiz-adv-x="596" d="M362 804q0 -16 -8.5 -28t-23.5 -12q-12 0 -20 9t-8 25t10 27t23 11q11 0 19 -8.5t8 -23.5zM508 22q-58 -32 -150 -32q-90 0 -158 40.5t-106.5 115.5t-38.5 178q0 101 37.5 176.5t106.5 117.5t161 42q42 0 77.5 -8.5t61.5 -23.5q2 -16 2.5 -29t0.5 -32q0 -66 -6 -111h-8 l-21 157q-47 23 -110 23q-81 0 -141.5 -39t-94 -109t-33.5 -164q0 -96 35 -165.5t95.5 -107t136.5 -37.5q72 0 121 23v234l-97 16l1 8h202l1 -8l-59 -12q-10 -2 -13 -5.5t-3 -11.5v-236z" />
<glyph unicode="&#x121;" horiz-adv-x="422" d="M248 654q0 -16 -8.5 -28t-23.5 -12q-12 0 -20 9t-8 25t10 27t23 11q11 0 19 -8.5t8 -23.5zM417 -58q0 -34 -25 -65.5t-74.5 -51.5t-122.5 -20q-52 0 -93.5 15t-66 41t-24.5 60t20.5 58.5t52 40t63.5 20.5l-4 2q-21 8 -34.5 22.5t-13.5 35.5q0 23 14 39.5t33 28.5 q-39 18 -63.5 58.5t-24.5 99.5q0 54 20 95.5t57 65t87 23.5q56 0 101 1.5t100 5.5q3 -6 3 -16q0 -19 -25 -19q-16 0 -49 3.5t-71 6.5l-1 -3q37 -18 58.5 -57.5t21.5 -89.5q0 -87 -44 -136.5t-109 -49.5q-21 0 -41 5q-15 -10 -26 -25t-11 -31q0 -40 61 -48l74 -9 q77 -9 117 -33t40 -73zM85 331q0 -65 33 -108t86 -43q55 0 88.5 43.5t33.5 114.5q0 61 -29.5 104.5t-85.5 43.5q-37 0 -65.5 -20.5t-44.5 -55.5t-16 -79zM43 -77q0 -40 43 -67t117 -27q54 0 95 15t64 41t23 57q0 38 -34 56t-93 25l-73 8q-64 -12 -103 -40t-39 -68z" />
<glyph unicode="&#x122;" horiz-adv-x="596" d="M508 22q-58 -32 -150 -32q-90 0 -158 40.5t-106.5 115.5t-38.5 178q0 101 37.5 176.5t106.5 117.5t161 42q42 0 77.5 -8.5t61.5 -23.5q2 -16 2.5 -29t0.5 -32q0 -66 -6 -111h-8l-21 157q-47 23 -110 23q-81 0 -141.5 -39t-94 -109t-33.5 -164q0 -96 35 -165.5t95.5 -107 t136.5 -37.5q72 0 121 23v234l-97 16l1 8h202l1 -8l-59 -12q-10 -2 -13 -5.5t-3 -11.5v-236zM357 -142q0 -25 -12.5 -64t-38.5 -71l-6 5q12 28 18 54.5t8 51.5h-1q-29 6 -29 32q0 14 8.5 23t22.5 9t22 -11t8 -29z" />
<glyph unicode="&#x123;" horiz-adv-x="422" d="M186 654q0 25 13 64t38 71l6 -5q-12 -28 -18 -54.5t-8 -51.5h1q29 -6 29 -32q0 -13 -8.5 -22.5t-22.5 -9.5t-22 11t-8 29zM417 -58q0 -34 -25 -65.5t-74.5 -51.5t-122.5 -20q-52 0 -93.5 15t-66 41t-24.5 60t20.5 58.5t52 40t63.5 20.5l-4 2q-21 8 -34.5 22.5t-13.5 35.5 q0 23 14 39.5t33 28.5q-39 18 -63.5 58.5t-24.5 99.5q0 54 20 95.5t57 65t87 23.5q56 0 101 1.5t100 5.5q3 -6 3 -16q0 -19 -25 -19q-16 0 -49 3.5t-71 6.5l-1 -3q37 -18 58.5 -57.5t21.5 -89.5q0 -87 -44 -136.5t-109 -49.5q-21 0 -41 5q-15 -10 -26 -25t-11 -31 q0 -40 61 -48l74 -9q77 -9 117 -33t40 -73zM85 331q0 -65 33 -108t86 -43q55 0 88.5 43.5t33.5 114.5q0 61 -29.5 104.5t-85.5 43.5q-37 0 -65.5 -20.5t-44.5 -55.5t-16 -79zM43 -77q0 -40 43 -67t117 -27q54 0 95 15t64 41t23 57q0 38 -34 56t-93 25l-73 8 q-64 -12 -103 -40t-39 -68z" />
<glyph unicode="&#x124;" horiz-adv-x="728" d="M475 736l-8 -6q-22 24 -50 52.5t-56 54.5q-12 -14 -30.5 -33.5t-38 -39t-35.5 -33.5l-7 7q18 20 38 45.5t37.5 48.5t24.5 35l4 3h18q20 -24 47.5 -60t55.5 -74zM277 0h-212l-1 10l74 12q10 2 13 6t3 11v585l-92 16l1 10h212l1 -10l-74 -12q-10 -1 -13 -5t-3 -12v-268h356 v281l-92 16l1 10h212l1 -10l-74 -12q-10 -1 -13 -5t-3 -12v-585l92 -16l-1 -10h-212l-1 10l74 12q10 2 13 6t3 11v281h-356v-294l92 -16z" />
<glyph unicode="&#x125;" horiz-adv-x="551" d="M213 736l-8 -6q-22 24 -50 52.5t-56 54.5q-12 -14 -30.5 -33.5t-38 -39t-35.5 -33.5l-7 7q18 20 38 45.5t37.5 48.5t24.5 35l4 3h18q20 -24 47.5 -60t55.5 -74zM224 0h-198l-1 10l69 12q10 2 13 6t3 11v627l-84 4l-1 10q26 5 55.5 9t52.5 6l7 -7v-279q28 45 71.5 73 t94.5 28q67 0 101 -40t34 -114v-330l85 -16l-1 -10h-198l-1 10l69 12q10 2 13 6t3 11v317q0 62 -26 96t-85 34q-44 0 -89 -29.5t-71 -81.5v-349l85 -16z" />
<glyph unicode="&#x126;" horiz-adv-x="728" d="M277 0h-212l-1 10l74 12q10 2 13 6t3 11v417h-91v23h91v145l-92 16l1 10h212l1 -10l-74 -12q-10 -1 -13 -5t-3 -12v-132h356v145l-92 16l1 10h212l1 -10l-74 -12q-10 -1 -13 -5t-3 -12v-132h89v-23h-89v-430l92 -16l-1 -10h-212l-1 10l74 12q10 2 13 6t3 11v281h-356 v-294l92 -16zM186 343h356v113h-356v-113z" />
<glyph unicode="&#x127;" horiz-adv-x="551" d="M224 0h-198l-1 10l69 12q10 2 13 6t3 11v535h-87v22h87v70l-84 4l-1 10q26 5 55.5 9t52.5 6l7 -7v-92h189v-22h-189v-165q28 45 71.5 73t94.5 28q67 0 101 -40t34 -114v-330l85 -16l-1 -10h-198l-1 10l69 12q10 2 13 6t3 11v317q0 62 -26 96t-85 34q-44 0 -89 -29.5 t-71 -81.5v-349l85 -16z" />
<glyph unicode="&#x128;" horiz-adv-x="340" d="M255 787q8 9 19 26t20 33l10 -4q-4 -16 -11.5 -34.5t-18.5 -31.5t-25 -13q-15 0 -38.5 7.5t-49 17t-46.5 17t-31 7.5q-7 -9 -18.5 -25.5t-20.5 -33.5l-10 4q4 17 11.5 35t18.5 31t25 13q16 0 39 -7.5t48 -17t46 -17t32 -7.5zM277 0h-212l-1 10l74 12q10 2 13 6t3 11v585 l-92 16l1 10h212l1 -10l-74 -12q-10 -1 -13 -5t-3 -12v-585l92 -16z" />
<glyph unicode="&#x129;" horiz-adv-x="261" d="M177 637q7 8 17 22t17 27l10 -4q-5 -22 -18 -45.5t-32 -23.5q-14 0 -37.5 9.5t-45.5 19.5t-32 10q-7 -7 -16.5 -21t-17.5 -28l-10 4q5 22 18 45.5t32 23.5q15 0 38 -9.5t45 -19t32 -10.5zM235 0h-198l-1 10l69 12q10 2 13 6t3 11v442l-84 4l-1 10q26 5 55.5 9t52.5 6 l7 -7v-477l85 -16z" />
<glyph unicode="&#x12a;" horiz-adv-x="340" d="M53 788v24h234v-24h-234zM277 0h-212l-1 10l74 12q10 2 13 6t3 11v585l-92 16l1 10h212l1 -10l-74 -12q-10 -1 -13 -5t-3 -12v-585l92 -16z" />
<glyph unicode="&#x12b;" horiz-adv-x="261" d="M29 638v24h174v-24h-174zM235 0h-198l-1 10l69 12q10 2 13 6t3 11v442l-84 4l-1 10q26 5 55.5 9t52.5 6l7 -7v-477l85 -16z" />
<glyph unicode="&#x12c;" horiz-adv-x="340" d="M254 850l4 2l11 -3q-10 -48 -36.5 -74.5t-64.5 -26.5t-64 26.5t-33 74.5l14 3q9 -37 32 -58t54 -21q29 0 51 20.5t32 56.5zM277 0h-212l-1 10l74 12q10 2 13 6t3 11v585l-92 16l1 10h212l1 -10l-74 -12q-10 -1 -13 -5t-3 -12v-585l92 -16z" />
<glyph unicode="&#x12d;" horiz-adv-x="261" d="M174 700l4 2l11 -3q-7 -48 -28 -74.5t-53 -26.5q-31 0 -52 26.5t-25 74.5l14 3q6 -37 23.5 -58t42.5 -21q23 0 39.5 20.5t23.5 56.5zM235 0h-198l-1 10l69 12q10 2 13 6t3 11v442l-84 4l-1 10q26 5 55.5 9t52.5 6l7 -7v-477l85 -16z" />
<glyph unicode="&#x12e;" horiz-adv-x="340" d="M273 -146q-10 -12 -29 -20t-39 -8q-31 0 -49 14.5t-18 43.5q0 31 29.5 63t74.5 53h-177l-1 10l74 12q10 2 13 6t3 11v585l-92 16l1 10h212l1 -10l-74 -12q-10 -1 -13 -5t-3 -12v-585l92 -16l-1 -10q-45 -17 -76 -48.5t-31 -62.5q0 -21 13.5 -31.5t34.5 -10.5q15 0 27.5 3 t25.5 8z" />
<glyph unicode="&#x12f;" horiz-adv-x="261" d="M162 653q0 -16 -8.5 -28t-23.5 -12q-12 0 -20 9t-8 25t10 27t23 11q11 0 19 -8.5t8 -23.5zM231 -146q-10 -12 -29 -20t-39 -8q-31 0 -49 14.5t-18 43.5q0 31 29.5 63t74.5 53h-163l-1 10l69 12q10 2 13 6t3 11v442l-84 4l-1 10q26 5 55.5 9t52.5 6l7 -7v-477l85 -16 l-1 -10q-45 -17 -76 -48.5t-31 -62.5q0 -21 13.5 -31.5t34.5 -10.5q15 0 27.5 3t25.5 8z" />
<glyph unicode="&#x130;" horiz-adv-x="340" d="M200 804q0 -16 -8.5 -28t-23.5 -12q-12 0 -20 9t-8 25t10 27t23 11q11 0 19 -8.5t8 -23.5zM277 0h-212l-1 10l74 12q10 2 13 6t3 11v585l-92 16l1 10h212l1 -10l-74 -12q-10 -1 -13 -5t-3 -12v-585l92 -16z" />
<glyph unicode="&#x131;" horiz-adv-x="261" d="M235 0h-198l-1 10l69 12q10 2 13 6t3 11v442l-84 4l-1 10q26 5 55.5 9t52.5 6l7 -7v-477l85 -16z" />
<glyph unicode="&#x132;" horiz-adv-x="658" d="M277 0h-212l-1 10l74 12q10 2 13 6t3 11v585l-92 16l1 10h212l1 -10l-74 -12q-10 -1 -13 -5t-3 -12v-585l92 -16zM526 110q0 -56 -11.5 -94.5t-37 -68.5t-69.5 -62l-7 8q32 31 52.5 60.5t30.5 68.5t10 97v505l-92 16l1 10h212l1 -10l-74 -12q-10 -1 -13 -5t-3 -12v-501z " />
<glyph unicode="&#x133;" horiz-adv-x="500" d="M409 654q0 -16 -8.5 -28t-23.5 -12q-12 0 -20 9t-8 25t10 27t23 11q11 0 19 -8.5t8 -23.5zM162 653q0 -16 -8.5 -28t-23.5 -12q-12 0 -20 9t-8 25t10 27t23 11q11 0 19 -8.5t8 -23.5zM235 0h-198l-1 10l69 12q10 2 13 6t3 11v442l-84 4l-1 10q26 5 55.5 9t52.5 6l7 -7 v-477l85 -16zM278 -187q32 31 52.5 60.5t30.5 68.5t10 97v442l-84 4l-1 10q26 5 55.5 9t52.5 6l7 -7v-473q0 -56 -11 -94.5t-36.5 -68.5t-68.5 -62z" />
<glyph unicode="&#x134;" horiz-adv-x="318" d="M280 736l-8 -6q-22 24 -50 52.5t-56 54.5q-12 -14 -30.5 -33.5t-38 -39t-35.5 -33.5l-7 7q18 20 38 45.5t37.5 48.5t24.5 35l4 3h18q20 -24 47.5 -60t55.5 -74zM186 110q0 -56 -11.5 -94.5t-37 -68.5t-69.5 -62l-7 8q32 31 52.5 60.5t30.5 68.5t10 97v505l-92 16l1 10 h212l1 -10l-74 -12q-10 -1 -13 -5t-3 -12v-501z" />
<glyph unicode="&#x135;" horiz-adv-x="239" d="M206 586l-8 -6q-18 24 -40.5 52t-44.5 54q-16 -22 -41 -53t-44 -52l-7 7q14 20 30.5 45.5t30 48.5t19.5 35l4 3h18q16 -24 38.5 -60t44.5 -74zM17 -187q32 31 52.5 60.5t30.5 68.5t10 97v442l-84 4l-1 10q26 5 55.5 9t52.5 6l7 -7v-473q0 -56 -11 -94.5t-36.5 -68.5 t-68.5 -62z" />
<glyph unicode="&#x136;" horiz-adv-x="633" d="M277 0h-212l-1 10l74 12q10 2 13 6t3 11v585l-92 16l1 10h212l1 -10l-74 -12q-10 -1 -13 -5t-3 -12v-267h154l170 283l-99 13l1 10h203l2 -10q-14 -3 -28 -5.5t-28 -5.5t-21.5 -8.5t-15.5 -18.5l-159 -262l167 -280q10 -16 22.5 -25t32.5 -14l46 -11l-1 -10h-39 q-37 0 -56 10.5t-33 34.5l-164 276h-154v-295l92 -16zM383 -142q0 -25 -12.5 -64t-38.5 -71l-6 5q12 28 18 54.5t8 51.5h-1q-29 6 -29 32q0 14 8.5 23t22.5 9t22 -11t8 -29z" />
<glyph unicode="&#x137;" horiz-adv-x="505" d="M224 0h-198l-1 10l69 12q10 2 13 6t3 11v627l-84 4l-1 10q26 5 55.5 9t52.5 6l7 -7v-410h122l129 200l-86 12l1 10h186l1 -10l-54 -12q-13 -3 -20 -8.5t-15 -16.5l-119 -180l117 -198q15 -25 30 -38t36 -18q9 -2 18.5 -4.5t18.5 -4.5l-1 -10h-42q-32 0 -50 15t-35 44 l-116 197h-121v-230l85 -16zM300 -142q0 -25 -12.5 -64t-38.5 -71l-6 5q12 28 18 54.5t8 51.5h-1q-29 6 -29 32q0 14 8.5 23t22.5 9t22 -11t8 -29z" />
<glyph unicode="&#x138;" horiz-adv-x="505" d="M224 0h-198l-1 10l69 12q10 2 13 6t3 11v442l-84 4l-1 10q26 5 55.5 9t52.5 6l7 -7v-225h122l129 200l-86 12l1 10h186l1 -10l-54 -12q-13 -3 -20 -8.5t-15 -16.5l-119 -180l117 -198q15 -25 30 -38t36 -18l37 -9l-1 -10h-42q-32 0 -50 15t-35 44l-116 197h-121v-230 l85 -16z" />
<glyph unicode="&#x139;" horiz-adv-x="522" d="M246 855q0 -11 -20 -32.5t-49 -46t-56 -45.5l-7 7q35 35 65.5 71t46.5 61h3q17 0 17 -15zM475 0h-410l-1 10l74 12q10 2 13 6t3 11v585l-92 16l1 10h212l1 -10l-74 -12q-10 -1 -13 -5t-3 -12v-588h107h75.5t75.5 2l20 151h8q3 -23 4.5 -50.5t1.5 -62.5q0 -19 -0.5 -32.5 t-2.5 -30.5z" />
<glyph unicode="&#x13a;" horiz-adv-x="250" d="M191 890q0 -11 -20 -32.5t-49 -46t-56 -45.5l-7 7q35 35 65.5 71t46.5 61h3q17 0 17 -15zM224 0h-198l-1 10l69 12q10 2 13 6t3 11v627l-84 4l-1 10q26 5 55.5 9t52.5 6l7 -7v-662l85 -16z" />
<glyph unicode="&#x13b;" horiz-adv-x="522" d="M475 0h-410l-1 10l74 12q10 2 13 6t3 11v585l-92 16l1 10h212l1 -10l-74 -12q-10 -1 -13 -5t-3 -12v-588h107h75.5t75.5 2l20 151h8q3 -23 4.5 -50.5t1.5 -62.5q0 -19 -0.5 -32.5t-2.5 -30.5zM333 -142q0 -25 -12.5 -64t-38.5 -71l-6 5q12 28 18 54.5t8 51.5h-1 q-29 6 -29 32q0 14 8.5 23t22.5 9t22 -11t8 -29z" />
<glyph unicode="&#x13c;" horiz-adv-x="250" d="M224 0h-198l-1 10l69 12q10 2 13 6t3 11v627l-84 4l-1 10q26 5 55.5 9t52.5 6l7 -7v-662l85 -16zM155 -142q0 -25 -12.5 -64t-38.5 -71l-6 5q12 28 18 54.5t8 51.5h-1q-29 6 -29 32q0 14 8.5 23t22.5 9t22 -11t8 -29z" />
<glyph unicode="&#x13d;" horiz-adv-x="522" d="M475 0h-410l-1 10l74 12q10 2 13 6t3 11v585l-92 16l1 10h212l1 -10l-74 -12q-10 -1 -13 -5t-3 -12v-588h107h75.5t75.5 2l20 151h8q3 -23 4.5 -50.5t1.5 -62.5q0 -19 -0.5 -32.5t-2.5 -30.5zM440 594q0 -25 -12.5 -64t-38.5 -71l-6 5q12 28 18 54.5t8 51.5h-1 q-29 6 -29 32q0 14 8.5 23t22.5 9t22 -11t8 -29z" />
<glyph unicode="&#x13e;" horiz-adv-x="307" d="M282 700q0 -25 -12.5 -64t-38.5 -71l-6 5q12 28 18 54.5t8 51.5h-1q-29 6 -29 32q0 14 8.5 23t22.5 9t22 -11t8 -29zM224 0h-198l-1 10l69 12q10 2 13 6t3 11v627l-84 4l-1 10q26 5 55.5 9t52.5 6l7 -7v-662l85 -16z" />
<glyph unicode="&#x13f;" horiz-adv-x="522" d="M475 0h-410l-1 10l74 12q10 2 13 6t3 11v585l-92 16l1 10h212l1 -10l-74 -12q-10 -1 -13 -5t-3 -12v-588h107h75.5t75.5 2l20 151h8q3 -23 4.5 -50.5t1.5 -62.5q0 -19 -0.5 -32.5t-2.5 -30.5zM445 366q-13 0 -21 9.5t-8 22.5q0 14 9 25t23 11t21 -8.5t7 -22.5 q0 -13 -7.5 -25t-23.5 -12z" />
<glyph unicode="&#x140;" horiz-adv-x="288" d="M224 0h-198l-1 10l69 12q10 2 13 6t3 11v627l-84 4l-1 10q26 5 55.5 9t52.5 6l7 -7v-662l85 -16zM288 357q0 -16 -7.5 -28t-21.5 -12q-10 0 -17.5 9t-7.5 25t9 27t21 11q10 0 17 -8.5t7 -23.5z" />
<glyph unicode="&#x141;" horiz-adv-x="522" d="M475 0h-410l-1 10l74 12q10 2 13 6t3 11v261l-102 -61l-11 20l113 68v297l-92 16l1 10h212l1 -10l-74 -12q-10 -1 -13 -5t-3 -12v-265l120 72l13 -20l-133 -79v-296h107h75.5t75.5 2l20 151h8q3 -23 4.5 -50.5t1.5 -62.5q0 -19 -0.5 -32.5t-2.5 -30.5z" />
<glyph unicode="&#x142;" horiz-adv-x="250" d="M224 0h-198l-1 10l69 12q10 2 13 6t3 11v290l-112 -67l-11 20l123 74v310l-84 4l-1 10q26 5 55.5 9t52.5 6l7 -7v-314l112 67l13 -20l-125 -74v-321l85 -16z" />
<glyph unicode="&#x143;" d="M442 855q0 -11 -20 -32.5t-49 -46t-56 -45.5l-7 7q35 35 65.5 71t46.5 61h3q17 0 17 -15zM271 0h-206l-1 10l74 12q10 2 13 6t3 11v585l-92 16l1 10h127l354 -608v582l-92 16l1 10h206l1 -10l-74 -12q-10 -1 -13 -5t-3 -12v-611h-36l-354 608v-582l92 -16z" />
<glyph unicode="&#x144;" horiz-adv-x="562" d="M355 705q0 -11 -20 -32.5t-49 -46t-56 -45.5l-7 7q35 35 65.5 71t46.5 61h3q17 0 17 -15zM235 0h-198l-1 10l69 12q10 2 13 6t3 11v442l-84 4l-1 10q26 5 55.5 9t52.5 6l7 -7v-97q28 49 72 76.5t95 27.5q66 0 100 -39.5t34 -114.5v-330l85 -16l-1 -10h-198l-1 10l69 12 q10 2 13 6t3 11v317q0 130 -108 130q-44 0 -90.5 -29.5t-72.5 -81.5v-349l85 -16z" />
<glyph unicode="&#x145;" d="M271 0h-206l-1 10l74 12q10 2 13 6t3 11v585l-92 16l1 10h127l354 -608v582l-92 16l1 10h206l1 -10l-74 -12q-10 -1 -13 -5t-3 -12v-611h-36l-354 608v-582l92 -16zM390 -142q0 -25 -12.5 -64t-38.5 -71l-6 5q12 28 18 54.5t8 51.5h-1q-29 6 -29 32q0 14 8.5 23t22.5 9 t22 -11t8 -29z" />
<glyph unicode="&#x146;" horiz-adv-x="562" d="M235 0h-198l-1 10l69 12q10 2 13 6t3 11v442l-84 4l-1 10q26 5 55.5 9t52.5 6l7 -7v-97q28 49 72 76.5t95 27.5q66 0 100 -39.5t34 -114.5v-330l85 -16l-1 -10h-198l-1 10l69 12q10 2 13 6t3 11v317q0 130 -108 130q-44 0 -90.5 -29.5t-72.5 -81.5v-349l85 -16zM316 -142 q0 -25 -12.5 -64t-38.5 -71l-6 5q12 28 18 54.5t8 51.5h-1q-29 6 -29 32q0 14 8.5 23t22.5 9t22 -11t8 -29z" />
<glyph unicode="&#x147;" d="M379 733l-4 -3h-18q-19 24 -47 60.5t-56 73.5l8 6q22 -24 50 -52.5t56 -54.5q12 14 30.5 33.5t38 39t35.5 33.5l7 -7q-17 -20 -37.5 -45.5t-37.5 -48t-25 -35.5zM271 0h-206l-1 10l74 12q10 2 13 6t3 11v585l-92 16l1 10h127l354 -608v582l-92 16l1 10h206l1 -10l-74 -12 q-10 -1 -13 -5t-3 -12v-611h-36l-354 608v-582l92 -16z" />
<glyph unicode="&#x148;" horiz-adv-x="562" d="M301 583l-4 -3h-18q-19 24 -47 60.5t-56 73.5l8 6q22 -24 50 -52.5t56 -54.5q12 14 30.5 33.5t38 39t35.5 33.5l7 -7q-17 -20 -37.5 -45.5t-37.5 -48t-25 -35.5zM235 0h-198l-1 10l69 12q10 2 13 6t3 11v442l-84 4l-1 10q26 5 55.5 9t52.5 6l7 -7v-97q28 49 72 76.5 t95 27.5q66 0 100 -39.5t34 -114.5v-330l85 -16l-1 -10h-198l-1 10l69 12q10 2 13 6t3 11v317q0 130 -108 130q-44 0 -90.5 -29.5t-72.5 -81.5v-349l85 -16z" />
<glyph unicode="&#x14a;" d="M291 0h-226l-1 10l74 12q10 2 13 6t3 11v585l-92 16l1 10h127l354 -608v582l-92 16l1 10h206l1 -10l-74 -12q-10 -1 -13 -5t-3 -12v-611q0 -48 -11.5 -81t-36 -59t-64.5 -55l-7 8q27 27 47 50t31.5 51.5t13.5 70.5l-363 623v-582l112 -16z" />
<glyph unicode="&#x14b;" horiz-adv-x="551" d="M235 0h-198l-1 10l69 12q10 2 13 6t3 11v442l-84 4l-1 10q26 5 55.5 9t52.5 6l7 -7v-97q28 49 72 76.5t95 27.5q66 0 100 -39.5t34 -114.5v-326q0 -56 -11 -94.5t-36.5 -68.5t-68.5 -62l-7 8q32 31 52.5 60.5t30.5 68.5t10 97v317q0 130 -108 130q-44 0 -90.5 -29.5 t-72.5 -81.5v-349l85 -16z" />
<glyph unicode="&#x14c;" horiz-adv-x="610" d="M188 788v24h234v-24h-234zM555 328q0 -93 -30.5 -170t-87 -122.5t-134.5 -45.5q-77 0 -132.5 43t-85.5 118t-30 171q0 97 31.5 173t89 120.5t133.5 44.5q74 0 129.5 -44t86 -119t30.5 -169zM88 322q0 -89 27.5 -158.5t76.5 -109t112 -39.5q66 0 115 42t76 113t27 158 t-27 156.5t-75 110t-112 40.5q-66 0 -115.5 -41t-77 -112t-27.5 -160z" />
<glyph unicode="&#x14d;" horiz-adv-x="484" d="M126 638v24h234v-24h-234zM429 257q0 -76 -21 -136.5t-62.5 -95.5t-103.5 -35q-87 0 -137 65t-50 186q0 127 52.5 198t139.5 71q57 0 98 -31.5t62.5 -88.5t21.5 -133zM87 247q0 -112 40 -172.5t116 -60.5q51 0 85 31.5t51.5 86.5t17.5 125q0 105 -39 167t-112 62 q-71 0 -115 -63t-44 -176z" />
<glyph unicode="&#x14e;" horiz-adv-x="610" d="M389 850l4 2l11 -3q-10 -48 -36.5 -74.5t-64.5 -26.5t-64 26.5t-33 74.5l14 3q9 -37 32 -58t54 -21q29 0 51 20.5t32 56.5zM555 328q0 -93 -30.5 -170t-87 -122.5t-134.5 -45.5q-77 0 -132.5 43t-85.5 118t-30 171q0 97 31.5 173t89 120.5t133.5 44.5q74 0 129.5 -44 t86 -119t30.5 -169zM88 322q0 -89 27.5 -158.5t76.5 -109t112 -39.5q66 0 115 42t76 113t27 158t-27 156.5t-75 110t-112 40.5q-66 0 -115.5 -41t-77 -112t-27.5 -160z" />
<glyph unicode="&#x14f;" horiz-adv-x="484" d="M327 700l4 2l11 -3q-10 -48 -36.5 -74.5t-64.5 -26.5t-64 26.5t-33 74.5l14 3q9 -37 32 -58t54 -21q29 0 51 20.5t32 56.5zM429 257q0 -76 -21 -136.5t-62.5 -95.5t-103.5 -35q-87 0 -137 65t-50 186q0 127 52.5 198t139.5 71q57 0 98 -31.5t62.5 -88.5t21.5 -133z M87 247q0 -112 40 -172.5t116 -60.5q51 0 85 31.5t51.5 86.5t17.5 125q0 105 -39 167t-112 62q-71 0 -115 -63t-44 -176z" />
<glyph unicode="&#x150;" horiz-adv-x="610" d="M300 855q0 -11 -19.5 -32.5t-48.5 -46t-56 -45.5l-7 7q35 35 65.5 71t46.5 61h3q16 0 16 -15zM440 855q0 -11 -19.5 -32.5t-48.5 -46t-56 -45.5l-7 7q35 35 65.5 71t46.5 61h3q16 0 16 -15zM555 328q0 -93 -30.5 -170t-87 -122.5t-134.5 -45.5q-77 0 -132.5 43t-85.5 118 t-30 171q0 97 31.5 173t89 120.5t133.5 44.5q74 0 129.5 -44t86 -119t30.5 -169zM88 322q0 -89 27.5 -158.5t76.5 -109t112 -39.5q66 0 115 42t76 113t27 158t-27 156.5t-75 110t-112 40.5q-66 0 -115.5 -41t-77 -112t-27.5 -160z" />
<glyph unicode="&#x151;" horiz-adv-x="484" d="M242 705q0 -11 -19.5 -32.5t-48.5 -46t-56 -45.5l-7 7q35 35 65.5 71t46.5 61h3q16 0 16 -15zM382 705q0 -11 -19.5 -32.5t-48.5 -46t-56 -45.5l-7 7q35 35 65.5 71t46.5 61h3q16 0 16 -15zM429 257q0 -76 -21 -136.5t-62.5 -95.5t-103.5 -35q-87 0 -137 65t-50 186 q0 127 52.5 198t139.5 71q57 0 98 -31.5t62.5 -88.5t21.5 -133zM87 247q0 -112 40 -172.5t116 -60.5q51 0 85 31.5t51.5 86.5t17.5 125q0 105 -39 167t-112 62q-71 0 -115 -63t-44 -176z" />
<glyph unicode="&#x152;" horiz-adv-x="804" d="M88 316q0 -87 30.5 -155t85.5 -107t126 -39q46 0 87 12v597q-30 11 -69 11q-77 0 -136 -42t-91.5 -114t-32.5 -163zM745 0h-327q-39 -10 -89 -10q-84 0 -145.5 42t-95 115.5t-33.5 168.5q0 98 36.5 176t103 123t154.5 45q37 0 72 -10h316q4 -29 4 -69q0 -33 -1.5 -58 t-4.5 -48h-8l-20 150q-35 2 -70 2h-70h-118v-289l215 5l-1 -30l-214 4v-294h122h72t72 2l20 150h8q3 -22 4.5 -47.5t1.5 -58.5q0 -40 -4 -69z" />
<glyph unicode="&#x153;" horiz-adv-x="773" d="M740 70q-28 -40 -64.5 -60t-88.5 -20q-69 0 -113 39t-62 110q-19 -68 -61 -108.5t-109 -40.5q-87 0 -137 65t-50 186q0 127 52.5 198t139.5 71q66 0 108.5 -41t59.5 -112q22 75 69.5 114t106.5 39q71 0 108 -51t37 -134q0 -14 -1 -29.5t-3 -31.5l-7 -5h-296v-14 q0 -109 45 -170t120 -61q43 0 74 15.5t65 48.5zM87 247q0 -112 40 -172.5t116 -60.5q51 0 85 31.5t51.5 86.5t17.5 125q0 105 -39 167t-112 62q-71 0 -115 -63t-44 -176zM589 486q-62 0 -107 -53.5t-52 -153.5l271 5q3 21 3 41q0 74 -26.5 117.5t-88.5 43.5z" />
<glyph unicode="&#x154;" horiz-adv-x="599" d="M379 855q0 -11 -20 -32.5t-49 -46t-56 -45.5l-7 7q35 35 65.5 71t46.5 61h3q17 0 17 -15zM277 0h-212l-1 10l74 12q10 2 13 6t3 11v585l-92 16l1 10h230q60 0 107 -20.5t74 -61t27 -99.5q0 -68 -41.5 -113t-101.5 -62l142 -236q10 -16 22 -25.5t29 -13.5l48 -10l-1 -9 h-54q-29 0 -44.5 10.5t-28.5 32.5l-146 245q-20 -3 -37 -3h-102v-259l92 -16zM283 627h-97v-319h92q54 0 97 18.5t68 54.5t25 88q0 75 -49.5 116.5t-135.5 41.5z" />
<glyph unicode="&#x155;" horiz-adv-x="386" d="M283 705q0 -11 -20 -32.5t-49 -46t-56 -45.5l-7 7q35 35 65.5 71t46.5 61h3q17 0 17 -15zM255 0h-218l-1 10l69 12q10 2 13 6t3 11v442l-84 4l-1 10q26 5 55.5 9t52.5 6l7 -7v-90q23 45 57.5 71t74.5 26q36 0 58.5 -19.5t22.5 -45.5q0 -11 -6 -17.5t-14 -6.5 q-6 27 -23.5 44.5t-48.5 17.5q-37 0 -70 -31t-51 -70v-356l105 -16z" />
<glyph unicode="&#x156;" horiz-adv-x="599" d="M277 0h-212l-1 10l74 12q10 2 13 6t3 11v585l-92 16l1 10h230q60 0 107 -20.5t74 -61t27 -99.5q0 -68 -41.5 -113t-101.5 -62l142 -236q10 -16 22 -25.5t29 -13.5l48 -10l-1 -9h-54q-29 0 -44.5 10.5t-28.5 32.5l-146 245q-20 -3 -37 -3h-102v-259l92 -16zM283 627h-97 v-319h92q54 0 97 18.5t68 54.5t25 88q0 75 -49.5 116.5t-135.5 41.5zM360 -142q0 -25 -12.5 -64t-38.5 -71l-6 5q12 28 18 54.5t8 51.5h-1q-29 6 -29 32q0 14 8.5 23t22.5 9t22 -11t8 -29z" />
<glyph unicode="&#x157;" horiz-adv-x="386" d="M255 0h-218l-1 10l69 12q10 2 13 6t3 11v442l-84 4l-1 10q26 5 55.5 9t52.5 6l7 -7v-90q23 45 57.5 71t74.5 26q36 0 58.5 -19.5t22.5 -45.5q0 -11 -6 -17.5t-14 -6.5q-6 27 -23.5 44.5t-48.5 17.5q-37 0 -70 -31t-51 -70v-356l105 -16zM166 -142q0 -25 -12.5 -64 t-38.5 -71l-6 5q12 28 18 54.5t8 51.5h-1q-29 6 -29 32q0 14 8.5 23t22.5 9t22 -11t8 -29z" />
<glyph unicode="&#x158;" horiz-adv-x="599" d="M316 733l-4 -3h-18q-19 24 -47 60.5t-56 73.5l8 6q22 -24 50 -52.5t56 -54.5q12 14 30.5 33.5t38 39t35.5 33.5l7 -7q-17 -20 -37.5 -45.5t-37.5 -48t-25 -35.5zM277 0h-212l-1 10l74 12q10 2 13 6t3 11v585l-92 16l1 10h230q60 0 107 -20.5t74 -61t27 -99.5 q0 -68 -41.5 -113t-101.5 -62l142 -236q10 -16 22 -25.5t29 -13.5l48 -10l-1 -9h-54q-29 0 -44.5 10.5t-28.5 32.5l-146 245q-20 -3 -37 -3h-102v-259l92 -16zM283 627h-97v-319h92q54 0 97 18.5t68 54.5t25 88q0 75 -49.5 116.5t-135.5 41.5z" />
<glyph unicode="&#x159;" horiz-adv-x="386" d="M229 583l-4 -3h-18q-19 24 -47 60.5t-56 73.5l8 6q22 -24 50 -52.5t56 -54.5q12 14 30.5 33.5t38 39t35.5 33.5l7 -7q-17 -20 -37.5 -45.5t-37.5 -48t-25 -35.5zM255 0h-218l-1 10l69 12q10 2 13 6t3 11v442l-84 4l-1 10q26 5 55.5 9t52.5 6l7 -7v-90q23 45 57.5 71 t74.5 26q36 0 58.5 -19.5t22.5 -45.5q0 -11 -6 -17.5t-14 -6.5q-6 27 -23.5 44.5t-48.5 17.5q-37 0 -70 -31t-51 -70v-356l105 -16z" />
<glyph unicode="&#x15a;" horiz-adv-x="444" d="M290 855q0 -11 -20 -32.5t-49 -46t-56 -45.5l-7 7q35 35 65.5 71t46.5 61h3q17 0 17 -15zM400 147q0 -49 -25.5 -84.5t-68 -54t-95.5 -18.5q-56 0 -101 14.5t-59 36.5q-5 8 -6 23t-1 41q0 18 1.5 41t4.5 44h8l20 -140q15 -14 50 -26t83 -12q69 0 112.5 35t43.5 98 q0 46 -23 77.5t-59 54t-76 43.5t-76 45.5t-59 59.5t-23 86q0 45 24 78.5t66 52t95 18.5q49 0 88.5 -11.5t49.5 -25.5q8 -12 8 -65q0 -18 -1 -41.5t-5 -43.5h-8l-20 139q-20 12 -45.5 19t-67.5 7q-68 0 -109.5 -33.5t-41.5 -92.5q0 -46 23 -77t59 -54.5t76 -44t76 -45t59 -59 t23 -85.5z" />
<glyph unicode="&#x15b;" horiz-adv-x="395" d="M272 705q0 -11 -20 -32.5t-49 -46t-56 -45.5l-7 7q35 35 65.5 71t46.5 61h3q17 0 17 -15zM182 -10q-43 0 -76 7.5t-41 17.5q-10 10 -10 58q0 15 1.5 34.5t4.5 37.5h9q4 -40 6.5 -66.5t12.5 -41.5q7 -10 34 -16.5t64 -6.5q56 0 88.5 27t32.5 70q0 34 -17.5 57t-45.5 40.5 t-59.5 33t-59.5 34t-45.5 44.5t-17.5 64q0 60 43.5 93t107.5 33q41 0 69.5 -8.5t34.5 -16.5q8 -9 8 -58q0 -15 -1.5 -34t-4.5 -38h-9q-1 32 -3.5 56.5t-9.5 40.5q-7 17 -30 25.5t-55 8.5q-53 0 -85.5 -25.5t-32.5 -75.5q0 -33 17.5 -55.5t45.5 -39t59.5 -32.5t59.5 -34.5 t45.5 -45t17.5 -65.5q0 -58 -45 -90.5t-113 -32.5z" />
<glyph unicode="&#x15c;" horiz-adv-x="444" d="M335 736l-8 -6q-22 24 -50 52.5t-56 54.5q-12 -14 -30.5 -33.5t-38 -39t-35.5 -33.5l-7 7q18 20 38 45.5t37.5 48.5t24.5 35l4 3h18q20 -24 47.5 -60t55.5 -74zM400 147q0 -49 -25.5 -84.5t-68 -54t-95.5 -18.5q-56 0 -101 14.5t-59 36.5q-5 8 -6 23t-1 41q0 18 1.5 41 t4.5 44h8l20 -140q15 -14 50 -26t83 -12q69 0 112.5 35t43.5 98q0 46 -23 77.5t-59 54t-76 43.5t-76 45.5t-59 59.5t-23 86q0 45 24 78.5t66 52t95 18.5q49 0 88.5 -11.5t49.5 -25.5q8 -12 8 -65q0 -18 -1 -41.5t-5 -43.5h-8l-20 139q-20 12 -45.5 19t-67.5 7 q-68 0 -109.5 -33.5t-41.5 -92.5q0 -46 23 -77t59 -54.5t76 -44t76 -45t59 -59t23 -85.5z" />
<glyph unicode="&#x15d;" horiz-adv-x="395" d="M319 586l-8 -6q-22 24 -50 52.5t-56 54.5q-12 -14 -30.5 -33.5t-38 -39t-35.5 -33.5l-7 7q18 20 38 45.5t37.5 48.5t24.5 35l4 3h18q20 -24 47.5 -60t55.5 -74zM182 -10q-43 0 -76 7.5t-41 17.5q-10 10 -10 58q0 15 1.5 34.5t4.5 37.5h9q4 -40 6.5 -66.5t12.5 -41.5 q7 -10 34 -16.5t64 -6.5q56 0 88.5 27t32.5 70q0 34 -17.5 57t-45.5 40.5t-59.5 33t-59.5 34t-45.5 44.5t-17.5 64q0 60 43.5 93t107.5 33q41 0 69.5 -8.5t34.5 -16.5q8 -9 8 -58q0 -15 -1.5 -34t-4.5 -38h-9q-1 32 -3.5 56.5t-9.5 40.5q-7 17 -30 25.5t-55 8.5 q-53 0 -85.5 -25.5t-32.5 -75.5q0 -33 17.5 -55.5t45.5 -39t59.5 -32.5t59.5 -34.5t45.5 -45t17.5 -65.5q0 -58 -45 -90.5t-113 -32.5z" />
<glyph unicode="&#x15e;" horiz-adv-x="444" d="M193 -71l-3 5l9 56q-52 2 -93 16t-55 35q-5 8 -6 23t-1 41q0 18 1.5 41t4.5 44h8l20 -140q15 -14 50 -26t83 -12q69 0 112.5 35t43.5 98q0 46 -23 77.5t-59 54t-76 43.5t-76 45.5t-59 59.5t-23 86q0 45 24 78.5t66 52t95 18.5q49 0 88.5 -11.5t49.5 -25.5q8 -12 8 -65 q0 -18 -1 -41.5t-5 -43.5h-8l-20 139q-20 12 -45.5 19t-67.5 7q-68 0 -109.5 -33.5t-41.5 -92.5q0 -46 23 -77t59 -54.5t76 -44t76 -45t59 -59t23 -85.5q0 -48 -23.5 -82t-63.5 -53.5t-90 -21.5l-7 -45q71 -11 71 -52q0 -21 -17 -35.5t-43 -22.5t-54 -9l-1 15q39 5 61 17 t22 30q0 15 -13.5 25.5t-48.5 15.5z" />
<glyph unicode="&#x15f;" horiz-adv-x="395" d="M167 -71l-3 5l9 56q-40 1 -70 8.5t-38 16.5q-10 10 -10 58q0 15 1.5 34.5t4.5 37.5h9q4 -40 6.5 -66.5t12.5 -41.5q7 -10 34 -16.5t64 -6.5q56 0 88.5 27t32.5 70q0 34 -17.5 57t-45.5 40.5t-59.5 33t-59.5 34t-45.5 44.5t-17.5 64q0 60 43.5 93t107.5 33q41 0 69.5 -8.5 t34.5 -16.5q8 -9 8 -58q0 -15 -1.5 -34t-4.5 -38h-9q-1 32 -3.5 56.5t-9.5 40.5q-7 17 -30 25.5t-55 8.5q-53 0 -85.5 -25.5t-32.5 -75.5q0 -33 17.5 -55.5t45.5 -39t59.5 -32.5t59.5 -34.5t45.5 -45t17.5 -65.5q0 -54 -40 -86.5t-103 -36.5l-7 -45q71 -11 71 -52 q0 -21 -17 -35.5t-43 -22.5t-54 -9l-1 15q39 5 61 17t22 30q0 15 -13.5 25.5t-48.5 15.5z" />
<glyph unicode="&#x160;" horiz-adv-x="444" d="M237 733l-4 -3h-18q-19 24 -47 60.5t-56 73.5l8 6q22 -24 50 -52.5t56 -54.5q12 14 30.5 33.5t38 39t35.5 33.5l7 -7q-17 -20 -37.5 -45.5t-37.5 -48t-25 -35.5zM400 147q0 -49 -25.5 -84.5t-68 -54t-95.5 -18.5q-56 0 -101 14.5t-59 36.5q-5 8 -6 23t-1 41q0 18 1.5 41 t4.5 44h8l20 -140q15 -14 50 -26t83 -12q69 0 112.5 35t43.5 98q0 46 -23 77.5t-59 54t-76 43.5t-76 45.5t-59 59.5t-23 86q0 45 24 78.5t66 52t95 18.5q49 0 88.5 -11.5t49.5 -25.5q8 -12 8 -65q0 -18 -1 -41.5t-5 -43.5h-8l-20 139q-20 12 -45.5 19t-67.5 7 q-68 0 -109.5 -33.5t-41.5 -92.5q0 -46 23 -77t59 -54.5t76 -44t76 -45t59 -59t23 -85.5z" />
<glyph unicode="&#x161;" horiz-adv-x="395" d="M218 583l-4 -3h-18q-19 24 -47 60.5t-56 73.5l8 6q22 -24 50 -52.5t56 -54.5q12 14 30.5 33.5t38 39t35.5 33.5l7 -7q-17 -20 -37.5 -45.5t-37.5 -48t-25 -35.5zM182 -10q-43 0 -76 7.5t-41 17.5q-10 10 -10 58q0 15 1.5 34.5t4.5 37.5h9q4 -40 6.5 -66.5t12.5 -41.5 q7 -10 34 -16.5t64 -6.5q56 0 88.5 27t32.5 70q0 34 -17.5 57t-45.5 40.5t-59.5 33t-59.5 34t-45.5 44.5t-17.5 64q0 60 43.5 93t107.5 33q41 0 69.5 -8.5t34.5 -16.5q8 -9 8 -58q0 -15 -1.5 -34t-4.5 -38h-9q-1 32 -3.5 56.5t-9.5 40.5q-7 17 -30 25.5t-55 8.5 q-53 0 -85.5 -25.5t-32.5 -75.5q0 -33 17.5 -55.5t45.5 -39t59.5 -32.5t59.5 -34.5t45.5 -45t17.5 -65.5q0 -58 -45 -90.5t-113 -32.5z" />
<glyph unicode="&#x162;" horiz-adv-x="524" d="M242 -71l-3 5l11 66h-93l-1 10l74 12q10 2 13 6t3 11v588h-90h-50t-50 -1l-20 -153h-8q-2 21 -4 44.5t-2 54.5q0 45 4 78h472q4 -33 4 -78q0 -31 -2 -54.5t-4 -44.5h-8l-20 153q-25 1 -50 1h-50h-90v-601l92 -16l-1 -10h-95l-9 -55q71 -11 71 -52q0 -21 -17 -35.5 t-43 -22.5t-54 -9l-1 15q39 5 61 17t22 30q0 15 -13.5 25.5t-48.5 15.5z" />
<glyph unicode="&#x163;" horiz-adv-x="352" d="M179 -71l-3 5l10 58q-87 16 -87 138v330h-84l-1 10l85 12l20 158l10 -2v-156h180v-22h-180v-315q0 -67 21 -99t66 -32q30 0 60 14.5t58 41.5l7 -7q-23 -32 -58 -52.5t-73 -20.5h-1l-7 -45q71 -11 71 -52q0 -21 -17 -35.5t-43 -22.5t-54 -9l-1 15q39 5 61 17t22 30 q0 15 -13.5 25.5t-48.5 15.5z" />
<glyph unicode="&#x164;" horiz-adv-x="524" d="M275 733l-4 -3h-18q-19 24 -47 60.5t-56 73.5l8 6q22 -24 50 -52.5t56 -54.5q12 14 30.5 33.5t38 39t35.5 33.5l7 -7q-17 -20 -37.5 -45.5t-37.5 -48t-25 -35.5zM369 0h-212l-1 10l74 12q10 2 13 6t3 11v588h-90h-50t-50 -1l-20 -153h-8q-2 21 -4 44.5t-2 54.5q0 45 4 78 h472q4 -33 4 -78q0 -31 -2 -54.5t-4 -44.5h-8l-20 153q-25 1 -50 1h-50h-90v-601l92 -16z" />
<glyph unicode="&#x165;" horiz-adv-x="352" d="M312 680q0 -25 -12.5 -64t-38.5 -71l-6 5q12 28 18 54.5t8 51.5h-1q-29 6 -29 32q0 14 8.5 23t22.5 9t22 -11t8 -29zM309 482v-22h-180v-315q0 -67 21 -99t66 -32q30 0 60 14.5t58 41.5l7 -7q-23 -32 -58 -52.5t-73 -20.5q-54 0 -82.5 36t-28.5 104v330h-84l-1 10l85 12 l20 158l10 -2v-156h180z" />
<glyph unicode="&#x166;" horiz-adv-x="524" d="M369 0h-212l-1 10l74 12q10 2 13 6t3 11v277h-164v23h164v288h-90h-50t-50 -1l-20 -153h-8q-2 21 -4 44.5t-2 54.5q0 45 4 78h472q4 -33 4 -78q0 -31 -2 -54.5t-4 -44.5h-8l-20 153q-25 1 -50 1h-50h-90v-288h164v-23h-164v-290l92 -16z" />
<glyph unicode="&#x167;" horiz-adv-x="352" d="M313 316h-184v-171q0 -67 21 -99t66 -32q30 0 60 14.5t58 41.5l7 -7q-23 -32 -58 -52.5t-73 -20.5q-54 0 -82.5 36t-28.5 104v186h-83v22h83v122h-84l-1 10l85 12l20 158l10 -2v-156h180v-22h-180v-122h184v-22z" />
<glyph unicode="&#x168;" d="M444 787q8 9 19 26t20 33l10 -4q-4 -16 -11.5 -34.5t-18.5 -31.5t-25 -13q-15 0 -38.5 7.5t-49 17t-46.5 17t-31 7.5q-7 -9 -18.5 -25.5t-20.5 -33.5l-10 4q4 17 11.5 35t18.5 31t25 13q16 0 39 -7.5t48 -17t46 -17t32 -7.5zM569 220q0 -76 -29 -127t-77.5 -77 t-107.5 -26q-57 0 -105 25.5t-77 77t-29 127.5v404l-92 16l1 10h212l1 -10l-74 -12q-10 -1 -13 -5t-3 -12v-385q0 -69 25.5 -116t67.5 -71t90 -24q50 0 92 23t67 70.5t25 118.5v397l-93 16l1 10h207l1 -10l-90 -16v-404z" />
<glyph unicode="&#x169;" horiz-adv-x="562" d="M355 637q8 9 19 26t20 33l10 -4q-4 -16 -11.5 -34.5t-18.5 -31.5t-25 -13q-15 0 -38.5 7.5t-49 17t-46.5 17t-31 7.5q-7 -9 -18.5 -25.5t-20.5 -33.5l-10 4q4 17 11.5 35t18.5 31t25 13q16 0 39 -7.5t48 -17t46 -17t32 -7.5zM523 15q-7 -10 -21 -17.5t-29 -7.5 q-62 0 -62 91v9q-25 -40 -65.5 -70t-97.5 -30q-68 0 -103 39.5t-35 114.5v337l-84 4l-1 10q26 5 55.5 9t52.5 6l7 -7v-359q0 -64 29.5 -97t80.5 -33q47 0 90 31t71 85v351l-84 4l-1 10q26 5 55.5 9t52.5 6l7 -7v-422q0 -70 45 -70q17 0 35 8z" />
<glyph unicode="&#x16a;" d="M242 788v24h234v-24h-234zM569 220q0 -76 -29 -127t-77.5 -77t-107.5 -26q-57 0 -105 25.5t-77 77t-29 127.5v404l-92 16l1 10h212l1 -10l-74 -12q-10 -1 -13 -5t-3 -12v-385q0 -69 25.5 -116t67.5 -71t90 -24q50 0 92 23t67 70.5t25 118.5v397l-93 16l1 10h207l1 -10 l-90 -16v-404z" />
<glyph unicode="&#x16b;" horiz-adv-x="562" d="M147 638v24h234v-24h-234zM523 15q-7 -10 -21 -17.5t-29 -7.5q-62 0 -62 91v9q-25 -40 -65.5 -70t-97.5 -30q-68 0 -103 39.5t-35 114.5v337l-84 4l-1 10q26 5 55.5 9t52.5 6l7 -7v-359q0 -64 29.5 -97t80.5 -33q47 0 90 31t71 85v351l-84 4l-1 10q26 5 55.5 9t52.5 6 l7 -7v-422q0 -70 45 -70q17 0 35 8z" />
<glyph unicode="&#x16c;" d="M443 850l4 2l11 -3q-10 -48 -36.5 -74.5t-64.5 -26.5t-64 26.5t-33 74.5l14 3q9 -37 32 -58t54 -21q29 0 51 20.5t32 56.5zM569 220q0 -76 -29 -127t-77.5 -77t-107.5 -26q-57 0 -105 25.5t-77 77t-29 127.5v404l-92 16l1 10h212l1 -10l-74 -12q-10 -1 -13 -5t-3 -12 v-385q0 -69 25.5 -116t67.5 -71t90 -24q50 0 92 23t67 70.5t25 118.5v397l-93 16l1 10h207l1 -10l-90 -16v-404z" />
<glyph unicode="&#x16d;" horiz-adv-x="562" d="M357 700l4 2l11 -3q-10 -48 -36.5 -74.5t-64.5 -26.5t-64 26.5t-33 74.5l14 3q9 -37 32 -58t54 -21q29 0 51 20.5t32 56.5zM523 15q-7 -10 -21 -17.5t-29 -7.5q-62 0 -62 91v9q-25 -40 -65.5 -70t-97.5 -30q-68 0 -103 39.5t-35 114.5v337l-84 4l-1 10q26 5 55.5 9 t52.5 6l7 -7v-359q0 -64 29.5 -97t80.5 -33q47 0 90 31t71 85v351l-84 4l-1 10q26 5 55.5 9t52.5 6l7 -7v-422q0 -70 45 -70q17 0 35 8z" />
<glyph unicode="&#x16e;" d="M355 732q-28 0 -47 18.5t-19 45.5q0 29 21 48t52 19q29 0 47.5 -18.5t18.5 -45.5q0 -28 -21 -47.5t-52 -19.5zM359 843q-18 0 -29.5 -13.5t-11.5 -33.5q0 -19 11.5 -31.5t28.5 -12.5q18 0 29.5 14t11.5 33t-11.5 31.5t-28.5 12.5zM569 220q0 -76 -29 -127t-77.5 -77 t-107.5 -26q-57 0 -105 25.5t-77 77t-29 127.5v404l-92 16l1 10h212l1 -10l-74 -12q-10 -1 -13 -5t-3 -12v-385q0 -69 25.5 -116t67.5 -71t90 -24q50 0 92 23t67 70.5t25 118.5v397l-93 16l1 10h207l1 -10l-90 -16v-404z" />
<glyph unicode="&#x16f;" horiz-adv-x="562" d="M269 585q-28 0 -47 18.5t-19 45.5q0 29 21 48t52 19q29 0 47.5 -18.5t18.5 -45.5q0 -28 -21 -47.5t-52 -19.5zM273 696q-18 0 -29.5 -13.5t-11.5 -33.5q0 -19 11.5 -31.5t28.5 -12.5q18 0 29.5 14t11.5 33t-11.5 31.5t-28.5 12.5zM523 15q-7 -10 -21 -17.5t-29 -7.5 q-62 0 -62 91v9q-25 -40 -65.5 -70t-97.5 -30q-68 0 -103 39.5t-35 114.5v337l-84 4l-1 10q26 5 55.5 9t52.5 6l7 -7v-359q0 -64 29.5 -97t80.5 -33q47 0 90 31t71 85v351l-84 4l-1 10q26 5 55.5 9t52.5 6l7 -7v-422q0 -70 45 -70q17 0 35 8z" />
<glyph unicode="&#x170;" d="M354 855q0 -11 -19.5 -32.5t-48.5 -46t-56 -45.5l-7 7q35 35 65.5 71t46.5 61h3q16 0 16 -15zM494 855q0 -11 -19.5 -32.5t-48.5 -46t-56 -45.5l-7 7q35 35 65.5 71t46.5 61h3q16 0 16 -15zM569 220q0 -76 -29 -127t-77.5 -77t-107.5 -26q-57 0 -105 25.5t-77 77 t-29 127.5v404l-92 16l1 10h212l1 -10l-74 -12q-10 -1 -13 -5t-3 -12v-385q0 -69 25.5 -116t67.5 -71t90 -24q50 0 92 23t67 70.5t25 118.5v397l-93 16l1 10h207l1 -10l-90 -16v-404z" />
<glyph unicode="&#x171;" horiz-adv-x="562" d="M272 705q0 -11 -19.5 -32.5t-48.5 -46t-56 -45.5l-7 7q35 35 65.5 71t46.5 61h3q16 0 16 -15zM412 705q0 -11 -19.5 -32.5t-48.5 -46t-56 -45.5l-7 7q35 35 65.5 71t46.5 61h3q16 0 16 -15zM523 15q-7 -10 -21 -17.5t-29 -7.5q-62 0 -62 91v9q-25 -40 -65.5 -70 t-97.5 -30q-68 0 -103 39.5t-35 114.5v337l-84 4l-1 10q26 5 55.5 9t52.5 6l7 -7v-359q0 -64 29.5 -97t80.5 -33q47 0 90 31t71 85v351l-84 4l-1 10q26 5 55.5 9t52.5 6l7 -7v-422q0 -70 45 -70q17 0 35 8z" />
<glyph unicode="&#x172;" d="M436 -146q-10 -12 -29 -20t-39 -8q-31 0 -49 15t-18 43q0 31 30 58t75 53q-25 -5 -51 -5q-57 0 -105 25.5t-77 77t-29 127.5v404l-92 16l1 10h212l1 -10l-74 -12q-10 -1 -13 -5t-3 -12v-385q0 -69 25.5 -116t67.5 -71t90 -24q50 0 92 23t67 70.5t25 118.5v397l-93 16 l1 10h207l1 -10l-90 -16v-404q0 -75 -29 -126t-75 -77q-50 -33 -78.5 -55t-41 -39t-12.5 -36q0 -40 45 -40q29 0 56 11z" />
<glyph unicode="&#x173;" horiz-adv-x="562" d="M522 -146q-10 -11 -26 -19.5t-37 -8.5q-22 0 -38.5 13t-16.5 41q0 32 24.5 59.5t55.5 51.5q-5 -1 -11 -1q-62 0 -62 91v9q-25 -40 -65.5 -70t-97.5 -30q-68 0 -103 39.5t-35 114.5v337l-84 4l-1 10q26 5 55.5 9t52.5 6l7 -7v-359q0 -64 29.5 -97t80.5 -33q47 0 90 31 t71 85v351l-84 4l-1 10q26 5 55.5 9t52.5 6l7 -7v-422q0 -70 45 -70q17 0 35 8l2 -4q-14 -19 -35 -39.5t-36.5 -43t-15.5 -47.5q0 -38 36 -38q14 0 25 3t23 8z" />
<glyph unicode="&#x174;" horiz-adv-x="969" d="M602 736l-8 -6q-22 24 -50 52.5t-56 54.5q-12 -14 -30.5 -33.5t-38 -39t-35.5 -33.5l-7 7q18 20 38 45.5t37.5 48.5t24.5 35l4 3h18q20 -24 47.5 -60t55.5 -74zM320 -4h-13l-214 590q-8 23 -16 32t-25 12l-52 10l1 10h202l1 -10l-92 -15l206 -565l156 445l-28 81 q-7 23 -15.5 32t-25.5 12l-62 10l1 10h212l1 -10l-92 -15l196 -564l197 563l-93 16l1 10h202l1 -10l-56 -10q-20 -4 -27 -14t-15 -30l-208 -590h-13l-163 472z" />
<glyph unicode="&#x175;" horiz-adv-x="772" d="M502 586l-8 -6q-22 24 -50 52.5t-56 54.5q-12 -14 -30.5 -33.5t-38 -39t-35.5 -33.5l-7 7q18 20 38 45.5t37.5 48.5t24.5 35l4 3h18q20 -24 47.5 -60t55.5 -74zM381 500h10l140 -444l126 418l-85 16l1 10h198l1 -10l-63 -11q-16 -3 -24.5 -11t-13.5 -26l-134 -442h-19 l-135 427l-129 -427h-19l-143 448q-5 16 -12 22.5t-24 9.5l-56 10l1 10h198l1 -10l-85 -16l133 -418z" />
<glyph unicode="&#x176;" horiz-adv-x="598" d="M414 736l-8 -6q-22 24 -50 52.5t-56 54.5q-12 -14 -30.5 -33.5t-38 -39t-35.5 -33.5l-7 7q18 20 38 45.5t37.5 48.5t24.5 35l4 3h18q20 -24 47.5 -60t55.5 -74zM406 0h-212l-1 10l74 12q10 2 13 6t3 11v183l-192 373q-9 17 -16.5 24.5t-22.5 10.5l-52 10l1 10h202l1 -10 l-93 -15l191 -378l191 378l-91 15l1 10h194l1 -10q-27 -4 -49 -10q-18 -4 -27 -12.5t-17 -25.5l-190 -372v-194l92 -16z" />
<glyph unicode="&#x177;" horiz-adv-x="519" d="M373 586l-8 -6q-22 24 -50 52.5t-56 54.5q-12 -14 -30.5 -33.5t-38 -39t-35.5 -33.5l-7 7q18 20 38 45.5t37.5 48.5t24.5 35l4 3h18q20 -24 47.5 -60t55.5 -74zM87 -195q-19 0 -31.5 7.5t-12.5 20.5q0 11 8 17q6 -4 17 -8.5t24 -4.5q46 0 88 42t68 126l-156 443 q-5 16 -12 22.5t-24 9.5l-56 10l1 10h198l1 -10l-85 -16l148 -421l141 421l-85 16l1 10h198l1 -10l-63 -11q-16 -3 -24.5 -11.5t-13.5 -25.5l-149 -442q-30 -91 -73.5 -143t-108.5 -52z" />
<glyph unicode="&#x178;" horiz-adv-x="598" d="M244 804q0 -16 -8.5 -28t-23.5 -12q-12 0 -20 9t-8 25t10 27t23 11q11 0 19 -8.5t8 -23.5zM422 804q0 -16 -8.5 -28t-23.5 -12q-12 0 -20 9t-8 25t10 27t23 11q11 0 19 -8.5t8 -23.5zM406 0h-212l-1 10l74 12q10 2 13 6t3 11v183l-192 373q-9 17 -16.5 24.5t-22.5 10.5 l-52 10l1 10h202l1 -10l-93 -15l191 -378l191 378l-91 15l1 10h194l1 -10q-27 -4 -49 -10q-18 -4 -27 -12.5t-17 -25.5l-190 -372v-194l92 -16z" />
<glyph unicode="&#x179;" horiz-adv-x="545" d="M347 855q0 -11 -20 -32.5t-49 -46t-56 -45.5l-7 7q35 35 65.5 71t46.5 61h3q17 0 17 -15zM476 77q0 -44 -4 -77h-402l-4 17l373 611h-339l-20 -163h-8q-3 23 -4.5 50t-1.5 61q0 42 4 74h405l4 -17l-373 -611h335l21 163h8q6 -43 6 -108z" />
<glyph unicode="&#x17a;" horiz-adv-x="422" d="M277 705q0 -11 -20 -32.5t-49 -46t-56 -45.5l-7 7q35 35 65.5 71t46.5 61h3q17 0 17 -15zM378 71q0 -40 -4 -71h-328l-2 10l290 468h-255l-20 -133h-9q-6 36 -6 87q0 39 4 68h328l2 -10l-292 -468h258l19 133h9q6 -34 6 -84z" />
<glyph unicode="&#x17b;" horiz-adv-x="545" d="M301 804q0 -16 -8.5 -28t-23.5 -12q-12 0 -20 9t-8 25t10 27t23 11q11 0 19 -8.5t8 -23.5zM476 77q0 -44 -4 -77h-402l-4 17l373 611h-339l-20 -163h-8q-3 23 -4.5 50t-1.5 61q0 42 4 74h405l4 -17l-373 -611h335l21 163h8q6 -43 6 -108z" />
<glyph unicode="&#x17c;" horiz-adv-x="422" d="M245 654q0 -16 -8.5 -28t-23.5 -12q-12 0 -20 9t-8 25t10 27t23 11q11 0 19 -8.5t8 -23.5zM378 71q0 -40 -4 -71h-328l-2 10l290 468h-255l-20 -133h-9q-6 36 -6 87q0 39 4 68h328l2 -10l-292 -468h258l19 133h9q6 -34 6 -84z" />
<glyph unicode="&#x17d;" horiz-adv-x="545" d="M284 733l-4 -3h-18q-19 24 -47 60.5t-56 73.5l8 6q22 -24 50 -52.5t56 -54.5q12 14 30.5 33.5t38 39t35.5 33.5l7 -7q-17 -20 -37.5 -45.5t-37.5 -48t-25 -35.5zM476 77q0 -44 -4 -77h-402l-4 17l373 611h-339l-20 -163h-8q-3 23 -4.5 50t-1.5 61q0 42 4 74h405l4 -17 l-373 -611h335l21 163h8q6 -43 6 -108z" />
<glyph unicode="&#x17e;" horiz-adv-x="422" d="M223 583l-4 -3h-18q-19 24 -47 60.5t-56 73.5l8 6q22 -24 50 -52.5t56 -54.5q12 14 30.5 33.5t38 39t35.5 33.5l7 -7q-17 -20 -37.5 -45.5t-37.5 -48t-25 -35.5zM378 71q0 -40 -4 -71h-328l-2 10l290 468h-255l-20 -133h-9q-6 36 -6 87q0 39 4 68h328l2 -10l-292 -468 h258l19 133h9q6 -34 6 -84z" />
<glyph unicode="&#x18f;" horiz-adv-x="559" d="M264 -10q-92 0 -148 70.5t-56 193.5q0 11 1 23t2 25l10 11h398v10q0 148 -51 230t-145 82q-50 0 -88.5 -22t-60 -59t-21.5 -81q0 -22 5 -40q-7 -4 -16 -4q-11 0 -16.5 12t-5.5 31q0 50 27.5 92.5t74 69t103.5 26.5q70 0 120.5 -41t78.5 -115t28 -173t-30 -176t-83.5 -121 t-126.5 -44zM92 258q0 -116 46 -179.5t131 -63.5q57 0 100.5 35t69.5 97t31 143l-377 -4q-1 -9 -1 -16.5v-11.5z" />
<glyph unicode="&#x192;" horiz-adv-x="494" d="M189 91q-13 -100 -51 -153.5t-97 -53.5q-36 0 -58.5 20.5t-22.5 41.5q0 23 23 23q5 -30 23 -45.5t44 -15.5q46 0 70.5 44.5t36.5 135.5l30 226h-121l4 23h120l22 165q12 92 56.5 140t104.5 48q32 0 56 -14.5t37.5 -36t13.5 -43.5q0 -11 -7.5 -16.5t-15.5 -6.5 q-11 49 -34 71t-55 22q-49 0 -81 -42t-43 -119l-22 -168h175l-4 -23h-174z" />
<glyph unicode="&#x19d;" d="M63 650h127l354 -608v582l-92 16l1 10h206l1 -10l-74 -12q-10 -1 -13 -5t-3 -12v-611h-36l-354 608v-498q0 -56 -10.5 -95t-35 -69t-66.5 -61l-7 8q32 31 52.5 60.5t30.5 68.5t10 97v505l-92 16z" />
<glyph unicode="&#x1cd;" horiz-adv-x="635" d="M331 733l-4 -3h-18q-19 24 -47 60.5t-56 73.5l8 6q22 -24 50 -52.5t56 -54.5q12 14 30.5 33.5t38 39t35.5 33.5l7 -7q-17 -20 -37.5 -45.5t-37.5 -48t-25 -35.5zM311 654h13l217 -590q10 -25 17.5 -32.5t29.5 -12.5l47 -9l-1 -10h-216l-1 10l104 15l-79 215h-255 l-78 -216l95 -14l-1 -10h-202l-1 10l50 9q22 4 30 13.5t16 31.5zM195 263h239l-120 329z" />
<glyph unicode="&#x1ce;" horiz-adv-x="473" d="M230 583l-4 -3h-18q-19 24 -47 60.5t-56 73.5l8 6q22 -24 50 -52.5t56 -54.5q12 14 30.5 33.5t38 39t35.5 33.5l7 -7q-17 -20 -37.5 -45.5t-37.5 -48t-25 -35.5zM445 15q-7 -10 -21 -17.5t-29 -7.5q-62 0 -62 86v10q-19 -36 -60.5 -66t-97.5 -30q-55 0 -87.5 30t-32.5 80 q0 54 37.5 89.5t100.5 54.5t140 23v92q0 66 -24 96.5t-76 30.5q-37 0 -67.5 -17t-48 -42t-17.5 -51q0 -14 4 -26q-4 -6 -14 -6q-22 0 -22 30q0 33 23.5 64t62 51.5t82.5 20.5q68 0 97.5 -36t29.5 -107v-286q0 -70 45 -70q17 0 35 8zM87 100q0 -41 26 -63.5t64 -22.5 q50 0 92 31.5t64 85.5v114q-69 -5 -125 -21t-88.5 -46t-32.5 -78z" />
<glyph unicode="&#x1cf;" horiz-adv-x="340" d="M183 733l-4 -3h-18q-19 24 -47 60.5t-56 73.5l8 6q22 -24 50 -52.5t56 -54.5q12 14 30.5 33.5t38 39t35.5 33.5l7 -7q-17 -20 -37.5 -45.5t-37.5 -48t-25 -35.5zM277 0h-212l-1 10l74 12q10 2 13 6t3 11v585l-92 16l1 10h212l1 -10l-74 -12q-10 -1 -13 -5t-3 -12v-585 l92 -16z" />
<glyph unicode="&#x1d0;" horiz-adv-x="261" d="M133 583l-4 -3h-18q-16 24 -38 60.5t-45 73.5l8 6q18 -24 40.5 -52t44.5 -54q16 22 41 53t44 52l7 -7q-14 -20 -30.5 -45.5t-30 -48t-19.5 -35.5zM235 0h-198l-1 10l69 12q10 2 13 6t3 11v442l-84 4l-1 10q26 5 55.5 9t52.5 6l7 -7v-477l85 -16z" />
<glyph unicode="&#x1d1;" horiz-adv-x="610" d="M318 733l-4 -3h-18q-19 24 -47 60.5t-56 73.5l8 6q22 -24 50 -52.5t56 -54.5q12 14 30.5 33.5t38 39t35.5 33.5l7 -7q-17 -20 -37.5 -45.5t-37.5 -48t-25 -35.5zM555 328q0 -93 -30.5 -170t-87 -122.5t-134.5 -45.5q-77 0 -132.5 43t-85.5 118t-30 171q0 97 31.5 173 t89 120.5t133.5 44.5q74 0 129.5 -44t86 -119t30.5 -169zM88 322q0 -89 27.5 -158.5t76.5 -109t112 -39.5q66 0 115 42t76 113t27 158t-27 156.5t-75 110t-112 40.5q-66 0 -115.5 -41t-77 -112t-27.5 -160z" />
<glyph unicode="&#x1d2;" horiz-adv-x="484" d="M255 583l-4 -3h-18q-19 24 -47 60.5t-56 73.5l8 6q22 -24 50 -52.5t56 -54.5q12 14 30.5 33.5t38 39t35.5 33.5l7 -7q-17 -20 -37.5 -45.5t-37.5 -48t-25 -35.5zM429 257q0 -76 -21 -136.5t-62.5 -95.5t-103.5 -35q-87 0 -137 65t-50 186q0 127 52.5 198t139.5 71 q57 0 98 -31.5t62.5 -88.5t21.5 -133zM87 247q0 -112 40 -172.5t116 -60.5q51 0 85 31.5t51.5 86.5t17.5 125q0 105 -39 167t-112 62q-71 0 -115 -63t-44 -176z" />
<glyph unicode="&#x1d3;" d="M372 733l-4 -3h-18q-19 24 -47 60.5t-56 73.5l8 6q22 -24 50 -52.5t56 -54.5q12 14 30.5 33.5t38 39t35.5 33.5l7 -7q-17 -20 -37.5 -45.5t-37.5 -48t-25 -35.5zM569 220q0 -76 -29 -127t-77.5 -77t-107.5 -26q-57 0 -105 25.5t-77 77t-29 127.5v404l-92 16l1 10h212 l1 -10l-74 -12q-10 -1 -13 -5t-3 -12v-385q0 -69 25.5 -116t67.5 -71t90 -24q50 0 92 23t67 70.5t25 118.5v397l-93 16l1 10h207l1 -10l-90 -16v-404z" />
<glyph unicode="&#x1d4;" horiz-adv-x="562" d="M285 583l-4 -3h-18q-19 24 -47 60.5t-56 73.5l8 6q22 -24 50 -52.5t56 -54.5q12 14 30.5 33.5t38 39t35.5 33.5l7 -7q-17 -20 -37.5 -45.5t-37.5 -48t-25 -35.5zM523 15q-7 -10 -21 -17.5t-29 -7.5q-62 0 -62 91v9q-25 -40 -65.5 -70t-97.5 -30q-68 0 -103 39.5 t-35 114.5v337l-84 4l-1 10q26 5 55.5 9t52.5 6l7 -7v-359q0 -64 29.5 -97t80.5 -33q47 0 90 31t71 85v351l-84 4l-1 10q26 5 55.5 9t52.5 6l7 -7v-422q0 -70 45 -70q17 0 35 8z" />
<glyph unicode="&#x1d5;" d="M242 989v24h234v-24h-234zM300 804q0 -16 -8.5 -28t-23.5 -12q-12 0 -20 9t-8 25t10 27t23 11q11 0 19 -8.5t8 -23.5zM478 804q0 -16 -8.5 -28t-23.5 -12q-12 0 -20 9t-8 25t10 27t23 11q11 0 19 -8.5t8 -23.5zM569 220q0 -76 -29 -127t-77.5 -77t-107.5 -26 q-57 0 -105 25.5t-77 77t-29 127.5v404l-92 16l1 10h212l1 -10l-74 -12q-10 -1 -13 -5t-3 -12v-385q0 -69 25.5 -116t67.5 -71t90 -24q50 0 92 23t67 70.5t25 118.5v397l-93 16l1 10h207l1 -10l-90 -16v-404z" />
<glyph unicode="&#x1d6;" horiz-adv-x="562" d="M156 823v24h234v-24h-234zM215 654q0 -16 -8.5 -28t-23.5 -12q-12 0 -20 9t-8 25t10 27t23 11q11 0 19 -8.5t8 -23.5zM393 654q0 -16 -8.5 -28t-23.5 -12q-12 0 -20 9t-8 25t10 27t23 11q11 0 19 -8.5t8 -23.5zM523 15q-7 -10 -21 -17.5t-29 -7.5q-62 0 -62 91v9 q-25 -40 -65.5 -70t-97.5 -30q-68 0 -103 39.5t-35 114.5v337l-84 4l-1 10q26 5 55.5 9t52.5 6l7 -7v-359q0 -64 29.5 -97t80.5 -33q47 0 90 31t71 85v351l-84 4l-1 10q26 5 55.5 9t52.5 6l7 -7v-422q0 -70 45 -70q17 0 35 8z" />
<glyph unicode="&#x1d7;" d="M435 1056q0 -11 -20 -32.5t-49 -46t-56 -45.5l-7 7q35 35 65.5 71t46.5 61h3q17 0 17 -15zM300 804q0 -16 -8.5 -28t-23.5 -12q-12 0 -20 9t-8 25t10 27t23 11q11 0 19 -8.5t8 -23.5zM478 804q0 -16 -8.5 -28t-23.5 -12q-12 0 -20 9t-8 25t10 27t23 11q11 0 19 -8.5 t8 -23.5zM569 220q0 -76 -29 -127t-77.5 -77t-107.5 -26q-57 0 -105 25.5t-77 77t-29 127.5v404l-92 16l1 10h212l1 -10l-74 -12q-10 -1 -13 -5t-3 -12v-385q0 -69 25.5 -116t67.5 -71t90 -24q50 0 92 23t67 70.5t25 118.5v397l-93 16l1 10h207l1 -10l-90 -16v-404z" />
<glyph unicode="&#x1d8;" horiz-adv-x="562" d="M339 890q0 -11 -20 -32.5t-49 -46t-56 -45.5l-7 7q35 35 65.5 71t46.5 61h3q17 0 17 -15zM215 654q0 -16 -8.5 -28t-23.5 -12q-12 0 -20 9t-8 25t10 27t23 11q11 0 19 -8.5t8 -23.5zM393 654q0 -16 -8.5 -28t-23.5 -12q-12 0 -20 9t-8 25t10 27t23 11q11 0 19 -8.5 t8 -23.5zM523 15q-7 -10 -21 -17.5t-29 -7.5q-62 0 -62 91v9q-25 -40 -65.5 -70t-97.5 -30q-68 0 -103 39.5t-35 114.5v337l-84 4l-1 10q26 5 55.5 9t52.5 6l7 -7v-359q0 -64 29.5 -97t80.5 -33q47 0 90 31t71 85v351l-84 4l-1 10q26 5 55.5 9t52.5 6l7 -7v-422 q0 -70 45 -70q17 0 35 8z" />
<glyph unicode="&#x1d9;" d="M377 934l-4 -3h-18q-19 24 -47 60.5t-56 73.5l8 6q22 -24 50 -52.5t56 -54.5q12 14 30.5 33.5t38 39t35.5 33.5l7 -7q-17 -20 -37.5 -45.5t-37.5 -48t-25 -35.5zM300 804q0 -16 -8.5 -28t-23.5 -12q-12 0 -20 9t-8 25t10 27t23 11q11 0 19 -8.5t8 -23.5zM478 804 q0 -16 -8.5 -28t-23.5 -12q-12 0 -20 9t-8 25t10 27t23 11q11 0 19 -8.5t8 -23.5zM569 220q0 -76 -29 -127t-77.5 -77t-107.5 -26q-57 0 -105 25.5t-77 77t-29 127.5v404l-92 16l1 10h212l1 -10l-74 -12q-10 -1 -13 -5t-3 -12v-385q0 -69 25.5 -116t67.5 -71t90 -24 q50 0 92 23t67 70.5t25 118.5v397l-93 16l1 10h207l1 -10l-90 -16v-404z" />
<glyph unicode="&#x1da;" horiz-adv-x="562" d="M287 768l-4 -3h-18q-19 24 -47 60.5t-56 73.5l8 6q22 -24 50 -52.5t56 -54.5q12 14 30.5 33.5t38 39t35.5 33.5l7 -7q-17 -20 -37.5 -45.5t-37.5 -48t-25 -35.5zM215 654q0 -16 -8.5 -28t-23.5 -12q-12 0 -20 9t-8 25t10 27t23 11q11 0 19 -8.5t8 -23.5zM393 654 q0 -16 -8.5 -28t-23.5 -12q-12 0 -20 9t-8 25t10 27t23 11q11 0 19 -8.5t8 -23.5zM523 15q-7 -10 -21 -17.5t-29 -7.5q-62 0 -62 91v9q-25 -40 -65.5 -70t-97.5 -30q-68 0 -103 39.5t-35 114.5v337l-84 4l-1 10q26 5 55.5 9t52.5 6l7 -7v-359q0 -64 29.5 -97t80.5 -33 q47 0 90 31t71 85v351l-84 4l-1 10q26 5 55.5 9t52.5 6l7 -7v-422q0 -70 45 -70q17 0 35 8z" />
<glyph unicode="&#x1db;" d="M422 935l-7 -7q-29 21 -60.5 45t-53 46t-21.5 37q0 18 20 18h3q17 -27 49.5 -64.5t69.5 -74.5zM300 804q0 -16 -8.5 -28t-23.5 -12q-12 0 -20 9t-8 25t10 27t23 11q11 0 19 -8.5t8 -23.5zM478 804q0 -16 -8.5 -28t-23.5 -12q-12 0 -20 9t-8 25t10 27t23 11q11 0 19 -8.5 t8 -23.5zM569 220q0 -76 -29 -127t-77.5 -77t-107.5 -26q-57 0 -105 25.5t-77 77t-29 127.5v404l-92 16l1 10h212l1 -10l-74 -12q-10 -1 -13 -5t-3 -12v-385q0 -69 25.5 -116t67.5 -71t90 -24q50 0 92 23t67 70.5t25 118.5v397l-93 16l1 10h207l1 -10l-90 -16v-404z" />
<glyph unicode="&#x1dc;" horiz-adv-x="562" d="M338 769l-7 -7q-29 21 -60.5 45t-53 46t-21.5 37q0 18 20 18h3q17 -27 49.5 -64.5t69.5 -74.5zM215 654q0 -16 -8.5 -28t-23.5 -12q-12 0 -20 9t-8 25t10 27t23 11q11 0 19 -8.5t8 -23.5zM393 654q0 -16 -8.5 -28t-23.5 -12q-12 0 -20 9t-8 25t10 27t23 11q11 0 19 -8.5 t8 -23.5zM523 15q-7 -10 -21 -17.5t-29 -7.5q-62 0 -62 91v9q-25 -40 -65.5 -70t-97.5 -30q-68 0 -103 39.5t-35 114.5v337l-84 4l-1 10q26 5 55.5 9t52.5 6l7 -7v-359q0 -64 29.5 -97t80.5 -33q47 0 90 31t71 85v351l-84 4l-1 10q26 5 55.5 9t52.5 6l7 -7v-422 q0 -70 45 -70q17 0 35 8z" />
<glyph unicode="&#x1e6;" horiz-adv-x="596" d="M345 733l-4 -3h-18q-19 24 -47 60.5t-56 73.5l8 6q22 -24 50 -52.5t56 -54.5q12 14 30.5 33.5t38 39t35.5 33.5l7 -7q-17 -20 -37.5 -45.5t-37.5 -48t-25 -35.5zM508 22q-58 -32 -150 -32q-90 0 -158 40.5t-106.5 115.5t-38.5 178q0 101 37.5 176.5t106.5 117.5t161 42 q42 0 77.5 -8.5t61.5 -23.5q2 -16 2.5 -29t0.5 -32q0 -66 -6 -111h-8l-21 157q-47 23 -110 23q-81 0 -141.5 -39t-94 -109t-33.5 -164q0 -96 35 -165.5t95.5 -107t136.5 -37.5q72 0 121 23v234l-97 16l1 8h202l1 -8l-59 -12q-10 -2 -13 -5.5t-3 -11.5v-236z" />
<glyph unicode="&#x1e7;" horiz-adv-x="422" d="M226 583l-4 -3h-18q-19 24 -47 60.5t-56 73.5l8 6q22 -24 50 -52.5t56 -54.5q12 14 30.5 33.5t38 39t35.5 33.5l7 -7q-17 -20 -37.5 -45.5t-37.5 -48t-25 -35.5zM417 -58q0 -34 -25 -65.5t-74.5 -51.5t-122.5 -20q-52 0 -93.5 15t-66 41t-24.5 60t20.5 58.5t52 40 t63.5 20.5l-4 2q-21 8 -34.5 22.5t-13.5 35.5q0 23 14 39.5t33 28.5q-39 18 -63.5 58.5t-24.5 99.5q0 54 20 95.5t57 65t87 23.5q56 0 101 1.5t100 5.5q3 -6 3 -16q0 -19 -25 -19q-16 0 -49 3.5t-71 6.5l-1 -3q37 -18 58.5 -57.5t21.5 -89.5q0 -87 -44 -136.5t-109 -49.5 q-21 0 -41 5q-15 -10 -26 -25t-11 -31q0 -40 61 -48l74 -9q77 -9 117 -33t40 -73zM85 331q0 -65 33 -108t86 -43q55 0 88.5 43.5t33.5 114.5q0 61 -29.5 104.5t-85.5 43.5q-37 0 -65.5 -20.5t-44.5 -55.5t-16 -79zM43 -77q0 -40 43 -67t117 -27q54 0 95 15t64 41t23 57 q0 38 -34 56t-93 25l-73 8q-64 -12 -103 -40t-39 -68z" />
<glyph unicode="&#x1ea;" horiz-adv-x="610" d="M381 -146q-10 -12 -29 -20t-39 -8q-31 0 -49 14.5t-18 43.5q0 31 29.5 58t74.5 53q-23 -5 -47 -5q-77 0 -132.5 43t-85.5 118t-30 171q0 97 31.5 173t89 120.5t133.5 44.5q74 0 129.5 -44t86 -119t30.5 -169q0 -102 -36.5 -184.5t-102.5 -122.5q-52 -34 -82 -56.5 t-43 -40t-13 -37.5q0 -21 13 -30.5t32 -9.5q29 0 56 11zM88 322q0 -89 27.5 -158.5t76.5 -109t112 -39.5q66 0 115 42t76 113t27 158t-27 156.5t-75 110t-112 40.5q-66 0 -115.5 -41t-77 -112t-27.5 -160z" />
<glyph unicode="&#x1eb;" horiz-adv-x="484" d="M326 -146q-11 -12 -27.5 -20t-39.5 -8q-28 0 -46.5 15.5t-18.5 43.5q0 33 27.5 59t63.5 51q-21 -5 -43 -5q-87 0 -137 65t-50 186q0 127 52.5 198t139.5 71q57 0 98 -31.5t62.5 -88.5t21.5 -133q0 -72 -19 -130.5t-56 -93.5q-26 -26 -56 -48.5t-51 -45.5t-21 -51 q0 -19 12.5 -30t33.5 -11q15 0 27.5 3t24.5 8zM87 247q0 -112 40 -172.5t116 -60.5q51 0 85 31.5t51.5 86.5t17.5 125q0 105 -39 167t-112 62q-71 0 -115 -63t-44 -176z" />
<glyph unicode="&#x1f4;" horiz-adv-x="596" d="M408 855q0 -11 -20 -32.5t-49 -46t-56 -45.5l-7 7q35 35 65.5 71t46.5 61h3q17 0 17 -15zM508 22q-58 -32 -150 -32q-90 0 -158 40.5t-106.5 115.5t-38.5 178q0 101 37.5 176.5t106.5 117.5t161 42q42 0 77.5 -8.5t61.5 -23.5q2 -16 2.5 -29t0.5 -32q0 -66 -6 -111h-8 l-21 157q-47 23 -110 23q-81 0 -141.5 -39t-94 -109t-33.5 -164q0 -96 35 -165.5t95.5 -107t136.5 -37.5q72 0 121 23v234l-97 16l1 8h202l1 -8l-59 -12q-10 -2 -13 -5.5t-3 -11.5v-236z" />
<glyph unicode="&#x1f5;" horiz-adv-x="422" d="M280 705q0 -11 -20 -32.5t-49 -46t-56 -45.5l-7 7q35 35 65.5 71t46.5 61h3q17 0 17 -15zM417 -58q0 -34 -25 -65.5t-74.5 -51.5t-122.5 -20q-52 0 -93.5 15t-66 41t-24.5 60t20.5 58.5t52 40t63.5 20.5l-4 2q-21 8 -34.5 22.5t-13.5 35.5q0 23 14 39.5t33 28.5 q-39 18 -63.5 58.5t-24.5 99.5q0 54 20 95.5t57 65t87 23.5q56 0 101 1.5t100 5.5q3 -6 3 -16q0 -19 -25 -19q-16 0 -49 3.5t-71 6.5l-1 -3q37 -18 58.5 -57.5t21.5 -89.5q0 -87 -44 -136.5t-109 -49.5q-21 0 -41 5q-15 -10 -26 -25t-11 -31q0 -40 61 -48l74 -9 q77 -9 117 -33t40 -73zM85 331q0 -65 33 -108t86 -43q55 0 88.5 43.5t33.5 114.5q0 61 -29.5 104.5t-85.5 43.5q-37 0 -65.5 -20.5t-44.5 -55.5t-16 -79zM43 -77q0 -40 43 -67t117 -27q54 0 95 15t64 41t23 57q0 38 -34 56t-93 25l-73 8q-64 -12 -103 -40t-39 -68z" />
<glyph unicode="&#x1fa;" horiz-adv-x="635" d="M384 1056q0 -11 -20 -32.5t-49 -46t-56 -45.5l-7 7q35 35 65.5 71t46.5 61h3q17 0 17 -15zM314 732q-28 0 -47 18.5t-19 45.5q0 29 21 48t52 19q29 0 47.5 -18.5t18.5 -45.5q0 -28 -21 -47.5t-52 -19.5zM318 843q-18 0 -29.5 -13.5t-11.5 -33.5q0 -19 11.5 -31.5 t28.5 -12.5q18 0 29.5 14t11.5 33t-11.5 31.5t-28.5 12.5zM311 654h13l217 -590q10 -25 17.5 -32.5t29.5 -12.5l47 -9l-1 -10h-216l-1 10l104 15l-79 215h-255l-78 -216l95 -14l-1 -10h-202l-1 10l50 9q22 4 30 13.5t16 31.5zM195 263h239l-120 329z" />
<glyph unicode="&#x1fb;" horiz-adv-x="473" d="M284 890q0 -11 -20 -32.5t-49 -46t-56 -45.5l-7 7q35 35 65.5 71t46.5 61h3q17 0 17 -15zM214 585q-28 0 -47 18.5t-19 45.5q0 29 21 48t52 19q29 0 47.5 -18.5t18.5 -45.5q0 -28 -21 -47.5t-52 -19.5zM218 696q-18 0 -29.5 -13.5t-11.5 -33.5q0 -19 11.5 -31.5 t28.5 -12.5q18 0 29.5 14t11.5 33t-11.5 31.5t-28.5 12.5zM445 15q-7 -10 -21 -17.5t-29 -7.5q-62 0 -62 86v10q-19 -36 -60.5 -66t-97.5 -30q-55 0 -87.5 30t-32.5 80q0 54 37.5 89.5t100.5 54.5t140 23v92q0 66 -24 96.5t-76 30.5q-37 0 -67.5 -17t-48 -42t-17.5 -51 q0 -14 4 -26q-4 -6 -14 -6q-22 0 -22 30q0 33 23.5 64t62 51.5t82.5 20.5q68 0 97.5 -36t29.5 -107v-286q0 -70 45 -70q17 0 35 8zM87 100q0 -41 26 -63.5t64 -22.5q50 0 92 31.5t64 85.5v114q-69 -5 -125 -21t-88.5 -46t-32.5 -78z" />
<glyph unicode="&#x1fc;" horiz-adv-x="817" d="M608 855q0 -11 -20 -32.5t-49 -46t-56 -45.5l-7 7q35 35 65.5 71t46.5 61h3q17 0 17 -15zM430 627h-103l-103 -289h206v289zM1 0l-1 10l54 12q17 4 25 11t15 26l208 568l-88 13l1 10h535q4 -29 4 -69q0 -33 -1.5 -58t-4.5 -48h-8l-20 150q-35 2 -70 2h-70h-118v-289 l215 5l-1 -30l-214 4v-294h122h72t72 2l20 150h8q3 -22 4.5 -47.5t1.5 -58.5q0 -40 -4 -69h-417l-1 10l74 12q10 2 13 6t3 11v278l-215 -4l-104 -287l87 -16l-1 -10h-196z" />
<glyph unicode="&#x1fd;" horiz-adv-x="709" d="M430 705q0 -11 -20 -32.5t-49 -46t-56 -45.5l-7 7q35 35 65.5 71t46.5 61h3q17 0 17 -15zM676 70q-28 -40 -64.5 -60t-88.5 -20q-64 0 -108 34.5t-65 97.5q-12 -31 -36 -61.5t-58.5 -50.5t-80.5 -20q-55 0 -87.5 29.5t-32.5 78.5q0 58 37.5 96t100.5 58.5t140 24.5v82 q0 66 -24 96.5t-76 30.5q-37 0 -67.5 -17t-48 -42t-17.5 -51q0 -14 4 -26q-4 -6 -14 -6q-22 0 -22 30q0 33 23.5 64t62 51.5t82.5 20.5q62 0 91.5 -30t34.5 -88q26 58 70 88t95 30q71 0 108 -51t37 -134q0 -14 -1 -29.5t-3 -31.5l-7 -5h-296v-14q0 -109 45 -170t120 -61 q43 0 74 15.5t65 48.5zM525 486q-62 0 -107 -53.5t-52 -153.5l271 5q3 21 3 41q0 74 -26.5 117.5t-88.5 43.5zM87 98q0 -40 26 -62t64 -22q53 0 98 40t67 99q-9 41 -9 89v12v0v1q-69 -5 -125 -22t-88.5 -50t-32.5 -85z" />
<glyph unicode="&#x1fe;" horiz-adv-x="610" d="M371 855q0 -11 -20 -32.5t-49 -46t-56 -45.5l-7 7q35 35 65.5 71t46.5 61h3q17 0 17 -15zM555 328q0 -93 -30.5 -170t-87 -122.5t-134.5 -45.5q-54 0 -98 21.5t-75 61.5l-58 -77l-19 15l62 82q-60 90 -60 229q0 97 31.5 173t89 120.5t133.5 44.5q52 0 95 -22.5t75 -61.5 l59 78l19 -15l-63 -84q29 -44 45 -102t16 -125zM88 322q0 -59 12.5 -110t35.5 -91l324 430q-28 39 -66.5 61.5t-85.5 22.5q-66 0 -115.5 -41t-77 -112t-27.5 -160zM522 328q0 58 -12.5 109.5t-35.5 91.5l-324 -430q29 -39 68 -61.5t86 -22.5q66 0 115 42t76 113.5t27 157.5z " />
<glyph unicode="&#x1ff;" horiz-adv-x="484" d="M309 705q0 -11 -20 -32.5t-49 -46t-56 -45.5l-7 7q35 35 65.5 71t46.5 61h3q17 0 17 -15zM429 257q0 -76 -21 -136.5t-62.5 -95.5t-103.5 -35q-101 0 -150 84l-53 -56l-16 17l58 62q-26 59 -26 144q0 127 52.5 198t139.5 71q47 0 83 -22t60 -61l51 55l19 -16l-58 -62 q27 -62 27 -147zM87 247q0 -73 17 -125l265 283q-19 39 -50 60t-73 21q-71 0 -115 -63t-44 -176zM397 257q0 71 -18 123l-265 -282q39 -84 129 -84q51 0 85 31.5t51.5 86.5t17.5 125z" />
<glyph unicode="&#x218;" horiz-adv-x="444" d="M400 147q0 -49 -25.5 -84.5t-68 -54t-95.5 -18.5q-56 0 -101 14.5t-59 36.5q-5 8 -6 23t-1 41q0 18 1.5 41t4.5 44h8l20 -140q15 -14 50 -26t83 -12q69 0 112.5 35t43.5 98q0 46 -23 77.5t-59 54t-76 43.5t-76 45.5t-59 59.5t-23 86q0 45 24 78.5t66 52t95 18.5 q49 0 88.5 -11.5t49.5 -25.5q8 -12 8 -65q0 -18 -1 -41.5t-5 -43.5h-8l-20 139q-20 12 -45.5 19t-67.5 7q-68 0 -109.5 -33.5t-41.5 -92.5q0 -46 23 -77t59 -54.5t76 -44t76 -45t59 -59t23 -85.5zM252 -142q0 -25 -12.5 -64t-38.5 -71l-6 5q12 28 18 54.5t8 51.5h-1 q-29 6 -29 32q0 14 8.5 23t22.5 9t22 -11t8 -29z" />
<glyph unicode="&#x219;" horiz-adv-x="395" d="M182 -10q-43 0 -76 7.5t-41 17.5q-10 10 -10 58q0 15 1.5 34.5t4.5 37.5h9q4 -40 6.5 -66.5t12.5 -41.5q7 -10 34 -16.5t64 -6.5q56 0 88.5 27t32.5 70q0 34 -17.5 57t-45.5 40.5t-59.5 33t-59.5 34t-45.5 44.5t-17.5 64q0 60 43.5 93t107.5 33q41 0 69.5 -8.5 t34.5 -16.5q8 -9 8 -58q0 -15 -1.5 -34t-4.5 -38h-9q-1 32 -3.5 56.5t-9.5 40.5q-7 17 -30 25.5t-55 8.5q-53 0 -85.5 -25.5t-32.5 -75.5q0 -33 17.5 -55.5t45.5 -39t59.5 -32.5t59.5 -34.5t45.5 -45t17.5 -65.5q0 -58 -45 -90.5t-113 -32.5zM217 -142q0 -25 -12.5 -64 t-38.5 -71l-6 5q12 28 18 54.5t8 51.5h-1q-29 6 -29 32q0 14 8.5 23t22.5 9t22 -11t8 -29z" />
<glyph unicode="&#x21a;" horiz-adv-x="524" d="M369 0h-212l-1 10l74 12q10 2 13 6t3 11v588h-90h-50t-50 -1l-20 -153h-8q-2 21 -4 44.5t-2 54.5q0 45 4 78h472q4 -33 4 -78q0 -31 -2 -54.5t-4 -44.5h-8l-20 153q-25 1 -50 1h-50h-90v-601l92 -16zM292 -142q0 -25 -12.5 -64t-38.5 -71l-6 5q12 28 18 54.5t8 51.5h-1 q-29 6 -29 32q0 14 8.5 23t22.5 9t22 -11t8 -29z" />
<glyph unicode="&#x21b;" horiz-adv-x="352" d="M309 482v-22h-180v-315q0 -67 21 -99t66 -32q30 0 60 14.5t58 41.5l7 -7q-23 -32 -58 -52.5t-73 -20.5q-54 0 -82.5 36t-28.5 104v330h-84l-1 10l85 12l20 158l10 -2v-156h180zM229 -142q0 -25 -12.5 -64t-38.5 -71l-6 5q12 28 18 54.5t8 51.5h-1q-29 6 -29 32 q0 14 8.5 23t22.5 9t22 -11t8 -29z" />
<glyph unicode="&#x232;" horiz-adv-x="598" d="M186 788v24h234v-24h-234zM406 0h-212l-1 10l74 12q10 2 13 6t3 11v183l-192 373q-9 17 -16.5 24.5t-22.5 10.5l-52 10l1 10h202l1 -10l-93 -15l191 -378l191 378l-91 15l1 10h194l1 -10q-27 -4 -49 -10q-18 -4 -27 -12.5t-17 -25.5l-190 -372v-194l92 -16z" />
<glyph unicode="&#x233;" horiz-adv-x="519" d="M134 638v24h234v-24h-234zM87 -195q-19 0 -31.5 7.5t-12.5 20.5q0 11 8 17q6 -4 17 -8.5t24 -4.5q46 0 88 42t68 126l-156 443q-5 16 -12 22.5t-24 9.5l-56 10l1 10h198l1 -10l-85 -16l148 -421l141 421l-85 16l1 10h198l1 -10l-63 -11q-16 -3 -24.5 -11.5t-13.5 -25.5 l-149 -442q-30 -91 -73.5 -143t-108.5 -52z" />
<glyph unicode="&#x237;" horiz-adv-x="239" d="M17 -187q32 31 52.5 60.5t30.5 68.5t10 97v442l-84 4l-1 10q26 5 55.5 9t52.5 6l7 -7v-473q0 -56 -11 -94.5t-36.5 -68.5t-68.5 -62z" />
<glyph unicode="&#x259;" horiz-adv-x="449" d="M66 237h296v22q0 107 -38 167t-109 60q-37 0 -64.5 -16t-42.5 -41.5t-15 -52.5q0 -14 4 -26q-4 -6 -14 -6q-22 0 -22 30q0 34 20.5 65t56 51t79.5 20q87 0 132 -66.5t45 -183.5q0 -88 -24.5 -148t-64.5 -91t-89 -31q-53 0 -89 25.5t-54 68t-18 94.5q0 27 4 54zM87 183 q0 -44 13 -82.5t42 -62.5t76 -24q56 0 95.5 52.5t46.5 150.5l-271 -5q-1 -7 -1.5 -14.5t-0.5 -14.5z" />
<glyph unicode="&#x272;" horiz-adv-x="551" d="M525 0h-198l-1 10l69 12q10 2 13 6t3 11v317q0 130 -108 130q-44 0 -90.5 -29.5t-72.5 -81.5v-345q0 -56 -11 -94.5t-36.5 -68.5t-68.5 -62l-7 8q32 31 52.5 60.5t30.5 68.5t10 97v442l-84 4l-1 10q26 5 55.5 9t52.5 6l7 -7v-97q28 49 72 76.5t95 27.5q66 0 100 -39.5 t34 -114.5v-330l85 -16z" />
<glyph unicode="&#x2c6;" horiz-adv-x="347" d="M286 586l-8 -6q-22 24 -50 52.5t-56 54.5q-12 -14 -30.5 -33.5t-38 -39t-35.5 -33.5l-7 7q18 20 38 45.5t37.5 48.5t24.5 35l4 3h18q20 -24 47.5 -60t55.5 -74z" />
<glyph unicode="&#x2c7;" horiz-adv-x="345" d="M185 583l-4 -3h-18q-19 24 -47 60.5t-56 73.5l8 6q22 -24 50 -52.5t56 -54.5q12 14 30.5 33.5t38 39t35.5 33.5l7 -7q-17 -20 -37.5 -45.5t-37.5 -48t-25 -35.5z" />
<glyph unicode="&#x2d8;" horiz-adv-x="318" d="M243 700l4 2l11 -3q-10 -48 -36.5 -74.5t-64.5 -26.5t-64 26.5t-33 74.5l14 3q9 -37 32 -58t54 -21q29 0 51 20.5t32 56.5z" />
<glyph unicode="&#x2d9;" horiz-adv-x="178" d="M119 654q0 -16 -8.5 -28t-23.5 -12q-12 0 -20 9t-8 25t10 27t23 11q11 0 19 -8.5t8 -23.5z" />
<glyph unicode="&#x2da;" horiz-adv-x="273" d="M133 585q-28 0 -47 18.5t-19 45.5q0 29 21 48t52 19q29 0 47.5 -18.5t18.5 -45.5q0 -28 -21 -47.5t-52 -19.5zM137 696q-18 0 -29.5 -13.5t-11.5 -33.5q0 -19 11.5 -31.5t28.5 -12.5q18 0 29.5 14t11.5 33t-11.5 31.5t-28.5 12.5z" />
<glyph unicode="&#x2db;" horiz-adv-x="249" d="M190 -146q-10 -12 -29 -20t-39 -8q-31 0 -49 14.5t-18 43.5q0 24 17.5 49t48 45.5t67.5 32.5l6 -11q-45 -17 -76 -48.5t-31 -62.5q0 -21 13.5 -31.5t34.5 -10.5q15 0 27.5 3t25.5 8z" />
<glyph unicode="&#x2dc;" horiz-adv-x="391" d="M281 637q8 9 19 26t20 33l10 -4q-4 -16 -11.5 -34.5t-18.5 -31.5t-25 -13q-15 0 -38.5 7.5t-49 17t-46.5 17t-31 7.5q-7 -9 -18.5 -25.5t-20.5 -33.5l-10 4q4 17 11.5 35t18.5 31t25 13q16 0 39 -7.5t48 -17t46 -17t32 -7.5z" />
<glyph unicode="&#x2dd;" horiz-adv-x="393" d="M192 705q0 -11 -19.5 -32.5t-48.5 -46t-56 -45.5l-7 7q35 35 65.5 71t46.5 61h3q16 0 16 -15zM332 705q0 -11 -19.5 -32.5t-48.5 -46t-56 -45.5l-7 7q35 35 65.5 71t46.5 61h3q16 0 16 -15z" />
<glyph unicode="&#x1e0c;" horiz-adv-x="643" d="M272 0h-207l-1 10l74 12q10 2 13 6t3 11v585l-92 16l1 10h215q97 0 166 -39t106.5 -111t37.5 -172q0 -98 -38 -172t-109 -115t-169 -41zM274 628h-88v-606h90q87 0 149.5 38t96 107t33.5 161q0 93 -34 160t-97 103.5t-150 36.5zM376 -134q0 -16 -8.5 -28t-23.5 -12 q-12 0 -20 9t-8 25t10 27t23 11q11 0 19 -8.5t8 -23.5z" />
<glyph unicode="&#x1e0d;" horiz-adv-x="526" d="M55 230q0 87 28.5 149.5t79.5 96.5t118 34q32 0 57.5 -6.5t47.5 -15.5v178l-84 4l-1 10q26 5 55.5 9t52.5 6l7 -7v-607q0 -70 45 -70q17 0 35 8l2 -4q-7 -10 -21 -17.5t-29 -7.5q-62 0 -62 86v11q-23 -43 -64 -70t-89 -27q-77 0 -127.5 62.5t-50.5 177.5zM87 231 q0 -101 42.5 -159t106.5 -58q28 0 57.5 14.5t54.5 41t38 61.5v329q-26 14 -53 20t-56 6q-58 0 -101 -31.5t-66 -89t-23 -134.5zM272 -134q0 -16 -8.5 -28t-23.5 -12q-12 0 -20 9t-8 25t10 27t23 11q11 0 19 -8.5t8 -23.5z" />
<glyph unicode="&#x1e24;" horiz-adv-x="728" d="M277 0h-212l-1 10l74 12q10 2 13 6t3 11v585l-92 16l1 10h212l1 -10l-74 -12q-10 -1 -13 -5t-3 -12v-268h356v281l-92 16l1 10h212l1 -10l-74 -12q-10 -1 -13 -5t-3 -12v-585l92 -16l-1 -10h-212l-1 10l74 12q10 2 13 6t3 11v281h-356v-294l92 -16zM393 -134 q0 -16 -8.5 -28t-23.5 -12q-12 0 -20 9t-8 25t10 27t23 11q11 0 19 -8.5t8 -23.5z" />
<glyph unicode="&#x1e25;" horiz-adv-x="551" d="M224 0h-198l-1 10l69 12q10 2 13 6t3 11v627l-84 4l-1 10q26 5 55.5 9t52.5 6l7 -7v-279q28 45 71.5 73t94.5 28q67 0 101 -40t34 -114v-330l85 -16l-1 -10h-198l-1 10l69 12q10 2 13 6t3 11v317q0 62 -26 96t-85 34q-44 0 -89 -29.5t-71 -81.5v-349l85 -16zM299 -134 q0 -16 -8.5 -28t-23.5 -12q-12 0 -20 9t-8 25t10 27t23 11q11 0 19 -8.5t8 -23.5z" />
<glyph unicode="&#x1e44;" d="M396 804q0 -16 -8.5 -28t-23.5 -12q-12 0 -20 9t-8 25t10 27t23 11q11 0 19 -8.5t8 -23.5zM271 0h-206l-1 10l74 12q10 2 13 6t3 11v585l-92 16l1 10h127l354 -608v582l-92 16l1 10h206l1 -10l-74 -12q-10 -1 -13 -5t-3 -12v-611h-36l-354 608v-582l92 -16z" />
<glyph unicode="&#x1e45;" horiz-adv-x="562" d="M323 654q0 -16 -8.5 -28t-23.5 -12q-12 0 -20 9t-8 25t10 27t23 11q11 0 19 -8.5t8 -23.5zM235 0h-198l-1 10l69 12q10 2 13 6t3 11v442l-84 4l-1 10q26 5 55.5 9t52.5 6l7 -7v-97q28 49 72 76.5t95 27.5q66 0 100 -39.5t34 -114.5v-330l85 -16l-1 -10h-198l-1 10l69 12 q10 2 13 6t3 11v317q0 130 -108 130q-44 0 -90.5 -29.5t-72.5 -81.5v-349l85 -16z" />
<glyph unicode="&#x1e5a;" horiz-adv-x="599" d="M277 0h-212l-1 10l74 12q10 2 13 6t3 11v585l-92 16l1 10h230q60 0 107 -20.5t74 -61t27 -99.5q0 -68 -41.5 -113t-101.5 -62l142 -236q10 -16 22 -25.5t29 -13.5l48 -10l-1 -9h-54q-29 0 -44.5 10.5t-28.5 32.5l-146 245q-20 -3 -37 -3h-102v-259l92 -16zM283 627h-97 v-319h92q54 0 97 18.5t68 54.5t25 88q0 75 -49.5 116.5t-135.5 41.5zM359 -134q0 -16 -8.5 -28t-23.5 -12q-12 0 -20 9t-8 25t10 27t23 11q11 0 19 -8.5t8 -23.5z" />
<glyph unicode="&#x1e5b;" horiz-adv-x="386" d="M255 0h-218l-1 10l69 12q10 2 13 6t3 11v442l-84 4l-1 10q26 5 55.5 9t52.5 6l7 -7v-90q23 45 57.5 71t74.5 26q36 0 58.5 -19.5t22.5 -45.5q0 -11 -6 -17.5t-14 -6.5q-6 27 -23.5 44.5t-48.5 17.5q-37 0 -70 -31t-51 -70v-356l105 -16zM165 -134q0 -16 -8.5 -28 t-23.5 -12q-12 0 -20 9t-8 25t10 27t23 11q11 0 19 -8.5t8 -23.5z" />
<glyph unicode="&#x1e62;" horiz-adv-x="444" d="M400 147q0 -49 -25.5 -84.5t-68 -54t-95.5 -18.5q-56 0 -101 14.5t-59 36.5q-5 8 -6 23t-1 41q0 18 1.5 41t4.5 44h8l20 -140q15 -14 50 -26t83 -12q69 0 112.5 35t43.5 98q0 46 -23 77.5t-59 54t-76 43.5t-76 45.5t-59 59.5t-23 86q0 45 24 78.5t66 52t95 18.5 q49 0 88.5 -11.5t49.5 -25.5q8 -12 8 -65q0 -18 -1 -41.5t-5 -43.5h-8l-20 139q-20 12 -45.5 19t-67.5 7q-68 0 -109.5 -33.5t-41.5 -92.5q0 -46 23 -77t59 -54.5t76 -44t76 -45t59 -59t23 -85.5zM251 -134q0 -16 -8.5 -28t-23.5 -12q-12 0 -20 9t-8 25t10 27t23 11 q11 0 19 -8.5t8 -23.5z" />
<glyph unicode="&#x1e63;" horiz-adv-x="395" d="M182 -10q-43 0 -76 7.5t-41 17.5q-10 10 -10 58q0 15 1.5 34.5t4.5 37.5h9q4 -40 6.5 -66.5t12.5 -41.5q7 -10 34 -16.5t64 -6.5q56 0 88.5 27t32.5 70q0 34 -17.5 57t-45.5 40.5t-59.5 33t-59.5 34t-45.5 44.5t-17.5 64q0 60 43.5 93t107.5 33q41 0 69.5 -8.5 t34.5 -16.5q8 -9 8 -58q0 -15 -1.5 -34t-4.5 -38h-9q-1 32 -3.5 56.5t-9.5 40.5q-7 17 -30 25.5t-55 8.5q-53 0 -85.5 -25.5t-32.5 -75.5q0 -33 17.5 -55.5t45.5 -39t59.5 -32.5t59.5 -34.5t45.5 -45t17.5 -65.5q0 -58 -45 -90.5t-113 -32.5zM216 -134q0 -16 -8.5 -28 t-23.5 -12q-12 0 -20 9t-8 25t10 27t23 11q11 0 19 -8.5t8 -23.5z" />
<glyph unicode="&#x1e6c;" horiz-adv-x="524" d="M369 0h-212l-1 10l74 12q10 2 13 6t3 11v588h-90h-50t-50 -1l-20 -153h-8q-2 21 -4 44.5t-2 54.5q0 45 4 78h472q4 -33 4 -78q0 -31 -2 -54.5t-4 -44.5h-8l-20 153q-25 1 -50 1h-50h-90v-601l92 -16zM291 -134q0 -16 -8.5 -28t-23.5 -12q-12 0 -20 9t-8 25t10 27t23 11 q11 0 19 -8.5t8 -23.5z" />
<glyph unicode="&#x1e6d;" horiz-adv-x="352" d="M309 482v-22h-180v-315q0 -67 21 -99t66 -32q30 0 60 14.5t58 41.5l7 -7q-23 -32 -58 -52.5t-73 -20.5q-54 0 -82.5 36t-28.5 104v330h-84l-1 10l85 12l20 158l10 -2v-156h180zM228 -134q0 -16 -8.5 -28t-23.5 -12q-12 0 -20 9t-8 25t10 27t23 11q11 0 19 -8.5t8 -23.5z " />
<glyph unicode="&#x1e80;" horiz-adv-x="969" d="M562 734l-7 -7q-29 21 -60.5 45t-53 46t-21.5 37q0 18 20 18h3q17 -27 49.5 -64.5t69.5 -74.5zM320 -4h-13l-214 590q-8 23 -16 32t-25 12l-52 10l1 10h202l1 -10l-92 -15l206 -565l156 445l-28 81q-7 23 -15.5 32t-25.5 12l-62 10l1 10h212l1 -10l-92 -15l196 -564 l197 563l-93 16l1 10h202l1 -10l-56 -10q-20 -4 -27 -14t-15 -30l-208 -590h-13l-163 472z" />
<glyph unicode="&#x1e81;" horiz-adv-x="772" d="M459 584l-7 -7q-29 21 -60.5 45t-53 46t-21.5 37q0 18 20 18h3q17 -27 49.5 -64.5t69.5 -74.5zM381 500h10l140 -444l126 418l-85 16l1 10h198l1 -10l-63 -11q-16 -3 -24.5 -11t-13.5 -26l-134 -442h-19l-135 427l-129 -427h-19l-143 448q-5 16 -12 22.5t-24 9.5l-56 10 l1 10h198l1 -10l-85 -16l133 -418z" />
<glyph unicode="&#x1e82;" horiz-adv-x="969" d="M557 855q0 -11 -20 -32.5t-49 -46t-56 -45.5l-7 7q35 35 65.5 71t46.5 61h3q17 0 17 -15zM320 -4h-13l-214 590q-8 23 -16 32t-25 12l-52 10l1 10h202l1 -10l-92 -15l206 -565l156 445l-28 81q-7 23 -15.5 32t-25.5 12l-62 10l1 10h212l1 -10l-92 -15l196 -564l197 563 l-93 16l1 10h202l1 -10l-56 -10q-20 -4 -27 -14t-15 -30l-208 -590h-13l-163 472z" />
<glyph unicode="&#x1e83;" horiz-adv-x="772" d="M455 705q0 -11 -20 -32.5t-49 -46t-56 -45.5l-7 7q35 35 65.5 71t46.5 61h3q17 0 17 -15zM381 500h10l140 -444l126 418l-85 16l1 10h198l1 -10l-63 -11q-16 -3 -24.5 -11t-13.5 -26l-134 -442h-19l-135 427l-129 -427h-19l-143 448q-5 16 -12 22.5t-24 9.5l-56 10l1 10 h198l1 -10l-85 -16l133 -418z" />
<glyph unicode="&#x1e84;" horiz-adv-x="969" d="M432 804q0 -16 -8.5 -28t-23.5 -12q-12 0 -20 9t-8 25t10 27t23 11q11 0 19 -8.5t8 -23.5zM610 804q0 -16 -8.5 -28t-23.5 -12q-12 0 -20 9t-8 25t10 27t23 11q11 0 19 -8.5t8 -23.5zM320 -4h-13l-214 590q-8 23 -16 32t-25 12l-52 10l1 10h202l1 -10l-92 -15l206 -565 l156 445l-28 81q-7 23 -15.5 32t-25.5 12l-62 10l1 10h212l1 -10l-92 -15l196 -564l197 563l-93 16l1 10h202l1 -10l-56 -10q-20 -4 -27 -14t-15 -30l-208 -590h-13l-163 472z" />
<glyph unicode="&#x1e85;" horiz-adv-x="772" d="M331 654q0 -16 -8.5 -28t-23.5 -12q-12 0 -20 9t-8 25t10 27t23 11q11 0 19 -8.5t8 -23.5zM509 654q0 -16 -8.5 -28t-23.5 -12q-12 0 -20 9t-8 25t10 27t23 11q11 0 19 -8.5t8 -23.5zM381 500h10l140 -444l126 418l-85 16l1 10h198l1 -10l-63 -11q-16 -3 -24.5 -11 t-13.5 -26l-134 -442h-19l-135 427l-129 -427h-19l-143 448q-5 16 -12 22.5t-24 9.5l-56 10l1 10h198l1 -10l-85 -16l133 -418z" />
<glyph unicode="&#x1e92;" horiz-adv-x="545" d="M476 77q0 -44 -4 -77h-402l-4 17l373 611h-339l-20 -163h-8q-3 23 -4.5 50t-1.5 61q0 42 4 74h405l4 -17l-373 -611h335l21 163h8q6 -43 6 -108zM303 -134q0 -16 -8.5 -28t-23.5 -12q-12 0 -20 9t-8 25t10 27t23 11q11 0 19 -8.5t8 -23.5z" />
<glyph unicode="&#x1e93;" horiz-adv-x="422" d="M378 71q0 -40 -4 -71h-328l-2 10l290 468h-255l-20 -133h-9q-6 36 -6 87q0 39 4 68h328l2 -10l-292 -468h258l19 133h9q6 -34 6 -84zM239 -134q0 -16 -8.5 -28t-23.5 -12q-12 0 -20 9t-8 25t10 27t23 11q11 0 19 -8.5t8 -23.5z" />
<glyph unicode="&#x1e9e;" horiz-adv-x="641" d="M357 660q53 0 98 -22t74 -54v-12l-174 -186q41 -21 83.5 -43t78.5 -49.5t58 -63t22 -80.5q0 -70 -48.5 -115t-133.5 -45q-48 0 -85.5 17t-48.5 31q-6 10 -7.5 22t-1.5 34q0 17 1 44t5 52h8q8 -55 14.5 -90t25.5 -55q17 -16 41.5 -24.5t53.5 -8.5q66 0 104.5 37t38.5 97 q0 42 -20.5 74t-54.5 57t-76 46t-86 42l-3 22l175 185q-29 31 -66 48.5t-80 17.5q-50 0 -90 -25.5t-63.5 -69t-23.5 -98.5v-438l-7 -7h-114l-1 10l63 10q20 3 23.5 7.5t3.5 24.5v381q0 65 27 116t75.5 81t110.5 30z" />
<glyph unicode="&#x1ea0;" horiz-adv-x="635" d="M311 654h13l217 -590q10 -25 17.5 -32.5t29.5 -12.5l47 -9l-1 -10h-216l-1 10l104 15l-79 215h-255l-78 -216l95 -14l-1 -10h-202l-1 10l50 9q22 4 30 13.5t16 31.5zM195 263h239l-120 329zM344 -134q0 -16 -8.5 -28t-23.5 -12q-12 0 -20 9t-8 25t10 27t23 11 q11 0 19 -8.5t8 -23.5z" />
<glyph unicode="&#x1ea1;" horiz-adv-x="473" d="M445 15q-7 -10 -21 -17.5t-29 -7.5q-62 0 -62 86v10q-19 -36 -60.5 -66t-97.5 -30q-55 0 -87.5 30t-32.5 80q0 54 37.5 89.5t100.5 54.5t140 23v92q0 66 -24 96.5t-76 30.5q-37 0 -67.5 -17t-48 -42t-17.5 -51q0 -14 4 -26q-4 -6 -14 -6q-22 0 -22 30q0 33 23.5 64 t62 51.5t82.5 20.5q68 0 97.5 -36t29.5 -107v-286q0 -70 45 -70q17 0 35 8zM87 100q0 -41 26 -63.5t64 -22.5q50 0 92 31.5t64 85.5v114q-69 -5 -125 -21t-88.5 -46t-32.5 -78zM246 -134q0 -16 -8.5 -28t-23.5 -12q-12 0 -20 9t-8 25t10 27t23 11q11 0 19 -8.5t8 -23.5z" />
<glyph unicode="&#x1eb8;" horiz-adv-x="541" d="M482 0h-417l-1 10l74 12q10 2 13 6t3 11v585l-92 16l1 10h411q4 -29 4 -69q0 -33 -1.5 -58t-4.5 -48h-8l-20 150q-35 2 -70 2h-70h-118v-289l215 5l-1 -30l-214 4v-294h122h72t72 2l20 150h8q3 -22 4.5 -47.5t1.5 -58.5q0 -40 -4 -69zM335 -134q0 -16 -8.5 -28t-23.5 -12 q-12 0 -20 9t-8 25t10 27t23 11q11 0 19 -8.5t8 -23.5z" />
<glyph unicode="&#x1eb9;" horiz-adv-x="431" d="M398 70q-28 -40 -64.5 -60t-88.5 -20q-90 0 -140 67t-50 185q0 87 27 146.5t71.5 90.5t95.5 31q71 0 108 -51t37 -134q0 -14 -1 -29.5t-3 -31.5l-7 -5h-296v-14q0 -109 45 -170t120 -61q43 0 74 15.5t65 48.5zM247 486q-62 0 -107 -53.5t-52 -153.5l271 5q3 21 3 41 q0 74 -26.5 117.5t-88.5 43.5zM280 -134q0 -16 -8.5 -28t-23.5 -12q-12 0 -20 9t-8 25t10 27t23 11q11 0 19 -8.5t8 -23.5z" />
<glyph unicode="&#x1ebc;" horiz-adv-x="541" d="M398 787q8 9 19 26t20 33l10 -4q-4 -16 -11.5 -34.5t-18.5 -31.5t-25 -13q-15 0 -38.5 7.5t-49 17t-46.5 17t-31 7.5q-7 -9 -18.5 -25.5t-20.5 -33.5l-10 4q4 17 11.5 35t18.5 31t25 13q16 0 39 -7.5t48 -17t46 -17t32 -7.5zM482 0h-417l-1 10l74 12q10 2 13 6t3 11v585 l-92 16l1 10h411q4 -29 4 -69q0 -33 -1.5 -58t-4.5 -48h-8l-20 150q-35 2 -70 2h-70h-118v-289l215 5l-1 -30l-214 4v-294h122h72t72 2l20 150h8q3 -22 4.5 -47.5t1.5 -58.5q0 -40 -4 -69z" />
<glyph unicode="&#x1ebd;" horiz-adv-x="431" d="M321 637q8 9 19 26t20 33l10 -4q-4 -16 -11.5 -34.5t-18.5 -31.5t-25 -13q-15 0 -38.5 7.5t-49 17t-46.5 17t-31 7.5q-7 -9 -18.5 -25.5t-20.5 -33.5l-10 4q4 17 11.5 35t18.5 31t25 13q16 0 39 -7.5t48 -17t46 -17t32 -7.5zM398 70q-28 -40 -64.5 -60t-88.5 -20 q-90 0 -140 67t-50 185q0 87 27 146.5t71.5 90.5t95.5 31q71 0 108 -51t37 -134q0 -14 -1 -29.5t-3 -31.5l-7 -5h-296v-14q0 -109 45 -170t120 -61q43 0 74 15.5t65 48.5zM247 486q-62 0 -107 -53.5t-52 -153.5l271 5q3 21 3 41q0 74 -26.5 117.5t-88.5 43.5z" />
<glyph unicode="&#x1eca;" horiz-adv-x="340" d="M277 0h-212l-1 10l74 12q10 2 13 6t3 11v585l-92 16l1 10h212l1 -10l-74 -12q-10 -1 -13 -5t-3 -12v-585l92 -16zM202 -134q0 -16 -8.5 -28t-23.5 -12q-12 0 -20 9t-8 25t10 27t23 11q11 0 19 -8.5t8 -23.5z" />
<glyph unicode="&#x1ecb;" horiz-adv-x="261" d="M162 653q0 -16 -8.5 -28t-23.5 -12q-12 0 -20 9t-8 25t10 27t23 11q11 0 19 -8.5t8 -23.5zM235 0h-198l-1 10l69 12q10 2 13 6t3 11v442l-84 4l-1 10q26 5 55.5 9t52.5 6l7 -7v-477l85 -16zM165 -134q0 -16 -8.5 -28t-23.5 -12q-12 0 -20 9t-8 25t10 27t23 11 q11 0 19 -8.5t8 -23.5z" />
<glyph unicode="&#x1ecc;" horiz-adv-x="610" d="M555 328q0 -93 -30.5 -170t-87 -122.5t-134.5 -45.5q-77 0 -132.5 43t-85.5 118t-30 171q0 97 31.5 173t89 120.5t133.5 44.5q74 0 129.5 -44t86 -119t30.5 -169zM88 322q0 -89 27.5 -158.5t76.5 -109t112 -39.5q66 0 115 42t76 113t27 158t-27 156.5t-75 110t-112 40.5 q-66 0 -115.5 -41t-77 -112t-27.5 -160zM334 -134q0 -16 -8.5 -28t-23.5 -12q-12 0 -20 9t-8 25t10 27t23 11q11 0 19 -8.5t8 -23.5z" />
<glyph unicode="&#x1ecd;" horiz-adv-x="484" d="M429 257q0 -76 -21 -136.5t-62.5 -95.5t-103.5 -35q-87 0 -137 65t-50 186q0 127 52.5 198t139.5 71q57 0 98 -31.5t62.5 -88.5t21.5 -133zM87 247q0 -112 40 -172.5t116 -60.5q51 0 85 31.5t51.5 86.5t17.5 125q0 105 -39 167t-112 62q-71 0 -115 -63t-44 -176z M271 -134q0 -16 -8.5 -28t-23.5 -12q-12 0 -20 9t-8 25t10 27t23 11q11 0 19 -8.5t8 -23.5z" />
<glyph unicode="&#x1ee4;" d="M569 220q0 -76 -29 -127t-77.5 -77t-107.5 -26q-57 0 -105 25.5t-77 77t-29 127.5v404l-92 16l1 10h212l1 -10l-74 -12q-10 -1 -13 -5t-3 -12v-385q0 -69 25.5 -116t67.5 -71t90 -24q50 0 92 23t67 70.5t25 118.5v397l-93 16l1 10h207l1 -10l-90 -16v-404zM384 -134 q0 -16 -8.5 -28t-23.5 -12q-12 0 -20 9t-8 25t10 27t23 11q11 0 19 -8.5t8 -23.5z" />
<glyph unicode="&#x1ee5;" horiz-adv-x="562" d="M523 15q-7 -10 -21 -17.5t-29 -7.5q-62 0 -62 91v9q-25 -40 -65.5 -70t-97.5 -30q-68 0 -103 39.5t-35 114.5v337l-84 4l-1 10q26 5 55.5 9t52.5 6l7 -7v-359q0 -64 29.5 -97t80.5 -33q47 0 90 31t71 85v351l-84 4l-1 10q26 5 55.5 9t52.5 6l7 -7v-422q0 -70 45 -70 q17 0 35 8zM292 -134q0 -16 -8.5 -28t-23.5 -12q-12 0 -20 9t-8 25t10 27t23 11q11 0 19 -8.5t8 -23.5z" />
<glyph unicode="&#x1ef2;" horiz-adv-x="598" d="M374 734l-7 -7q-29 21 -60.5 45t-53 46t-21.5 37q0 18 20 18h3q17 -27 49.5 -64.5t69.5 -74.5zM406 0h-212l-1 10l74 12q10 2 13 6t3 11v183l-192 373q-9 17 -16.5 24.5t-22.5 10.5l-52 10l1 10h202l1 -10l-93 -15l191 -378l191 378l-91 15l1 10h194l1 -10 q-27 -4 -49 -10q-18 -4 -27 -12.5t-17 -25.5l-190 -372v-194l92 -16z" />
<glyph unicode="&#x1ef3;" horiz-adv-x="519" d="M330 584l-7 -7q-29 21 -60.5 45t-53 46t-21.5 37q0 18 20 18h3q17 -27 49.5 -64.5t69.5 -74.5zM87 -195q-19 0 -31.5 7.5t-12.5 20.5q0 11 8 17q6 -4 17 -8.5t24 -4.5q46 0 88 42t68 126l-156 443q-5 16 -12 22.5t-24 9.5l-56 10l1 10h198l1 -10l-85 -16l148 -421 l141 421l-85 16l1 10h198l1 -10l-63 -11q-16 -3 -24.5 -11.5t-13.5 -25.5l-149 -442q-30 -91 -73.5 -143t-108.5 -52z" />
<glyph unicode="&#x1ef8;" horiz-adv-x="598" d="M388 787q8 9 19 26t20 33l10 -4q-4 -16 -11.5 -34.5t-18.5 -31.5t-25 -13q-15 0 -38.5 7.5t-49 17t-46.5 17t-31 7.5q-7 -9 -18.5 -25.5t-20.5 -33.5l-10 4q4 17 11.5 35t18.5 31t25 13q16 0 39 -7.5t48 -17t46 -17t32 -7.5zM406 0h-212l-1 10l74 12q10 2 13 6t3 11v183 l-192 373q-9 17 -16.5 24.5t-22.5 10.5l-52 10l1 10h202l1 -10l-93 -15l191 -378l191 378l-91 15l1 10h194l1 -10q-27 -4 -49 -10q-18 -4 -27 -12.5t-17 -25.5l-190 -372v-194l92 -16z" />
<glyph unicode="&#x1ef9;" horiz-adv-x="519" d="M342 637q8 9 19 26t20 33l10 -4q-4 -16 -11.5 -34.5t-18.5 -31.5t-25 -13q-15 0 -38.5 7.5t-49 17t-46.5 17t-31 7.5q-7 -9 -18.5 -25.5t-20.5 -33.5l-10 4q4 17 11.5 35t18.5 31t25 13q16 0 39 -7.5t48 -17t46 -17t32 -7.5zM87 -195q-19 0 -31.5 7.5t-12.5 20.5 q0 11 8 17q6 -4 17 -8.5t24 -4.5q46 0 88 42t68 126l-156 443q-5 16 -12 22.5t-24 9.5l-56 10l1 10h198l1 -10l-85 -16l148 -421l141 421l-85 16l1 10h198l1 -10l-63 -11q-16 -3 -24.5 -11.5t-13.5 -25.5l-149 -442q-30 -91 -73.5 -143t-108.5 -52z" />
<glyph unicode="&#x2013;" horiz-adv-x="507" d="M48 250v23h411v-23h-411z" />
<glyph unicode="&#x2014;" horiz-adv-x="760" d="M48 250v23h664v-23h-664z" />
<glyph unicode="&#x2018;" horiz-adv-x="207" d="M64 520q0 32 18 82.5t55 92.5l6 -5q-23 -38 -34 -74t-14 -70h1q29 -3 29 -33q0 -15 -8.5 -25t-22.5 -10t-22 11.5t-8 30.5z" />
<glyph unicode="&#x2019;" horiz-adv-x="207" d="M143 653q0 -32 -18 -82.5t-55 -92.5l-6 5q23 38 34 74t14 70h-1q-29 3 -29 33q0 15 8.5 25t22.5 10t22 -11.5t8 -30.5z" />
<glyph unicode="&#x201a;" horiz-adv-x="207" d="M143 16q0 -32 -18 -82.5t-55 -92.5l-6 5q23 38 34 74t14 70h-1q-29 3 -29 33q0 15 8.5 25t22.5 10t22 -11.5t8 -30.5z" />
<glyph unicode="&#x201c;" horiz-adv-x="314" d="M64 520q0 32 18 82.5t55 92.5l6 -5q-23 -38 -34 -74t-14 -70h1q29 -3 29 -33q0 -15 -8.5 -25t-22.5 -10t-22 11.5t-8 30.5zM171 520q0 32 18 82.5t55 92.5l6 -5q-23 -38 -34 -74t-14 -70h1q29 -3 29 -33q0 -15 -8.5 -25t-22.5 -10t-22 11.5t-8 30.5z" />
<glyph unicode="&#x201d;" horiz-adv-x="314" d="M250 653q0 -32 -18 -82.5t-55 -92.5l-6 5q23 38 34 74t14 70h-1q-29 3 -29 33q0 15 8.5 25t22.5 10t22 -11.5t8 -30.5zM143 653q0 -32 -18 -82.5t-55 -92.5l-6 5q23 38 34 74t14 70h-1q-29 3 -29 33q0 15 8.5 25t22.5 10t22 -11.5t8 -30.5z" />
<glyph unicode="&#x201e;" horiz-adv-x="314" d="M250 16q0 -32 -18 -82.5t-55 -92.5l-6 5q23 38 34 74t14 70h-1q-29 3 -29 33q0 15 8.5 25t22.5 10t22 -11.5t8 -30.5zM143 16q0 -32 -18 -82.5t-55 -92.5l-6 5q23 38 34 74t14 70h-1q-29 3 -29 33q0 15 8.5 25t22.5 10t22 -11.5t8 -30.5z" />
<glyph unicode="&#x2020;" horiz-adv-x="498" d="M254 -10h-10l-14 125l7 317l-166 -7l-2 1q-1 5 -2.5 13t-2.5 14l5 5l168 -7l-7 199l1 2q6 2 15.5 3t16.5 2l5 -5l-7 -201l166 7l2 -1q2 -5 3 -13t2 -14l-5 -5l-168 7l7 -317z" />
<glyph unicode="&#x2021;" horiz-adv-x="498" d="M64 210l5 5l170 -7q-1 24 -3 52t-3 48l-1 20l1 19t2.5 45.5t3.5 49.5l-168 -7l-2 1q-1 5 -2.5 13t-2.5 14l5 5l170 -7l-9 189l1 2q6 2 15.5 3t16.5 2l5 -5l-9 -191l168 7l2 -1q2 -5 3 -13t2 -14l-5 -5l-170 7q2 -23 3.5 -49.5t2.5 -45.5l1 -19l-1 -20t-3 -48t-3 -52 l168 7l2 -1q2 -5 3 -13t2 -14l-5 -5l-170 7l9 -189l-1 -2q-6 -1 -15.5 -2.5t-16.5 -2.5l-5 5l9 191l-168 -7l-2 1q-1 5 -2.5 13t-2.5 14z" />
<glyph unicode="&#x2022;" horiz-adv-x="394" d="M194 147q-42 0 -66 28.5t-24 66.5q0 29 12 54t34.5 41t51.5 16q42 0 65 -26.5t23 -66.5q0 -28 -10.5 -54t-31.5 -42.5t-54 -16.5z" />
<glyph unicode="&#x2026;" horiz-adv-x="448" d="M353 -10q-13 0 -21 9.5t-8 22.5q0 14 9 25t23 11t21 -8.5t7 -22.5q0 -13 -7.5 -25t-23.5 -12zM223 -10q-13 0 -21 9.5t-8 22.5q0 14 9 25t23 11t21 -8.5t7 -22.5q0 -13 -7.5 -25t-23.5 -12zM93 -10q-13 0 -21 9.5t-8 22.5q0 14 9 25t23 11t21 -8.5t7 -22.5 q0 -13 -7.5 -25t-23.5 -12z" />
<glyph unicode="&#x2030;" horiz-adv-x="1254" d="M636 660h36l-401 -670h-35zM358 474q0 -88 -38.5 -138.5t-101.5 -50.5q-64 0 -102 48t-38 137q0 88 39.5 137.5t103.5 49.5q59 0 98 -47t39 -136zM220 303q49 0 78.5 45.5t29.5 125.5t-30 122.5t-78 42.5q-51 0 -81.5 -44.5t-30.5 -124.5t31 -123.5t81 -43.5zM831 182 q0 -88 -38.5 -138.5t-101.5 -50.5q-64 0 -102 48t-38 137q0 88 39.5 137.5t103.5 49.5q59 0 98 -47t39 -136zM1176 171q0 -88 -38.5 -138.5t-101.5 -50.5q-64 0 -102 48t-38 137q0 88 39.5 137.5t103.5 49.5q59 0 98 -47t39 -136zM693 11q49 0 78.5 45.5t29.5 125.5 t-30 122.5t-78 42.5q-51 0 -81.5 -44.5t-30.5 -124.5t31 -123.5t81 -43.5zM1038 0q49 0 78.5 45.5t29.5 125.5t-30 122.5t-78 42.5q-51 0 -81.5 -44.5t-30.5 -124.5t31 -123.5t81 -43.5z" />
<glyph unicode="&#x2039;" horiz-adv-x="332" d="M248 70l-12 -8q-27 37 -55.5 71.5t-53.5 62t-41 40.5l-2 4v17q31 31 71.5 80.5t80.5 101.5l12 -8q-25 -42 -59 -88t-68 -95q26 -30 61.5 -79t65.5 -99z" />
<glyph unicode="&#x203a;" horiz-adv-x="332" d="M248 251q-31 -31 -71 -80t-81 -102l-12 8q25 42 59 88t68 95q-26 30 -61.5 79t-65.5 99l12 8q27 -36 55.5 -71t53.5 -62t41 -41l2 -4v-17z" />
<glyph unicode="&#x2044;" horiz-adv-x="236" d="M300 660h36l-401 -670h-35z" />
<glyph unicode="&#x2070;" horiz-adv-x="392" d="M336 554q0 -88 -38.5 -138.5t-101.5 -50.5q-64 0 -102 48t-38 137q0 88 39.5 137.5t103.5 49.5q59 0 98 -47t39 -136zM198 383q49 0 78.5 45.5t29.5 125.5t-30 122.5t-78 42.5q-51 0 -81.5 -44.5t-30.5 -124.5t31 -123.5t81 -43.5z" />
<glyph unicode="&#x2071;" horiz-adv-x="217" d="M108 819q-24 0 -24 29q0 13 8.5 22.5t20.5 9.5q24 0 24 -28q0 -13 -7.5 -23t-21.5 -10zM191 372h-154l-1 7l51 9q13 3 13 14v312l-63 4l-1 7q20 4 44 7.5t43 4.5l5 -5v-341l64 -12z" />
<glyph unicode="&#x2074;" horiz-adv-x="397" d="M56 470l205 267l18 -3v-262h62l-4 -18h-58v-82h-28v82h-187zM80 472h171v227z" />
<glyph unicode="&#x2075;" horiz-adv-x="354" d="M298 465q0 -45 -38 -72.5t-93 -27.5q-49 0 -80 18.5t-31 46.5t28 43l3 -3q-6 -13 -6 -27q0 -28 24 -44t63 -16q45 0 72.5 21.5t27.5 58.5q0 50 -49 72.5t-138 21.5l-5 4l2 169h204q0 -21 -2 -44.5t-6 -40.5h-5q-3 42 -6.5 52.5t-20.5 10.5h-142l-1 -139q10 1 19 1 q77 0 128.5 -26t51.5 -79z" />
<glyph unicode="&#x2076;" horiz-adv-x="372" d="M316 478q0 -51 -37.5 -82t-89.5 -31q-64 0 -98.5 38t-34.5 98q0 65 30.5 115t83 81t117.5 40l2 -10q-75 -17 -130.5 -63.5t-68.5 -122.5q21 18 50.5 27.5t56.5 9.5q53 0 86 -27t33 -73zM86 498q0 -49 26.5 -82t75.5 -33q41 0 69.5 25t28.5 67q0 38 -25 61.5t-71 23.5 q-27 0 -56 -11t-47 -31q-1 -10 -1 -20z" />
<glyph unicode="&#x2077;" horiz-adv-x="358" d="M167 372h-28q4 61 24.5 123t51.5 117t67 96h-179q-19 0 -25.5 -11t-9.5 -57h-7q-3 18 -4.5 43t-0.5 47h243l3 -21q-35 -39 -64.5 -94.5t-48 -118.5t-22.5 -124z" />
<glyph unicode="&#x2078;" horiz-adv-x="363" d="M307 453q0 -38 -38 -63t-92 -25t-87.5 24t-33.5 61q0 34 28 61.5t71 40.5q-31 16 -54.5 37.5t-23.5 57.5q0 38 33.5 64t79.5 26q48 0 75.5 -24t27.5 -61q0 -35 -25.5 -60.5t-56.5 -40.5q36 -18 66 -39.5t30 -58.5zM105 648q0 -34 27 -53.5t62 -36.5q27 15 50.5 38.5 t23.5 55.5q0 29 -21 48t-56 19q-39 0 -62.5 -20.5t-23.5 -50.5zM81 452q0 -31 27 -50t71 -19q42 0 71 17.5t29 48.5q0 25 -15.5 41.5t-39.5 28.5t-50 24q-41 -13 -67 -37.5t-26 -53.5z" />
<glyph unicode="&#x2079;" horiz-adv-x="372" d="M56 624q0 51 37.5 82t89.5 31q64 0 98.5 -38t34.5 -98q0 -65 -30.5 -115t-83 -81t-117.5 -40l-2 10q75 17 130.5 63.5t68.5 122.5q-21 -18 -50.5 -27.5t-56.5 -9.5q-52 0 -85.5 27t-33.5 73zM86 627q0 -38 25 -61.5t71 -23.5q27 0 56 11t47 31q1 10 1 20q0 49 -26.5 82 t-75.5 33q-41 0 -69.5 -25t-28.5 -67z" />
<glyph unicode="&#x207f;" horiz-adv-x="448" d="M191 372h-154l-1 7l51 9q13 3 13 14v312l-63 4l-1 7q20 4 44 7.5t43 4.5l5 -5v-69q21 34 55 54t73 20q51 0 77 -28.5t26 -81.5v-236l64 -12l-1 -7h-155l-1 7l52 9q12 2 12 14v223q0 89 -81 89q-33 0 -67 -19.5t-54 -54.5v-249l64 -12z" />
<glyph unicode="&#x2080;" horiz-adv-x="392" d="M336 82q0 -88 -38.5 -138.5t-101.5 -50.5q-64 0 -102 48t-38 137q0 88 39.5 137.5t103.5 49.5q59 0 98 -47t39 -136zM198 -89q49 0 78.5 45.5t29.5 125.5t-30 122.5t-78 42.5q-51 0 -81.5 -44.5t-30.5 -124.5t31 -123.5t81 -43.5z" />
<glyph unicode="&#x2081;" horiz-adv-x="277" d="M221 -100h-165v7l59 7q10 1 10 10v319l-69 2v6l92 14l5 -4v-345l68 -9v-7z" />
<glyph unicode="&#x2082;" horiz-adv-x="353" d="M63 -100l-5 18q57 55 101.5 96t70 76.5t25.5 74.5q0 35 -21.5 56.5t-59.5 21.5q-40 0 -68 -22t-44 -57l-6 2q11 43 44 71t81 28q50 0 77 -27t27 -68q0 -40 -26.5 -77.5t-72 -79t-104.5 -91.5h168q15 0 22.5 10.5t17.5 53.5l7 -1q-2 -43 -11 -85h-223z" />
<glyph unicode="&#x2083;" horiz-adv-x="357" d="M301 -9q0 -40 -38 -69t-95 -29q-50 0 -81 17.5t-31 45.5q0 25 28 40l3 -3q-6 -10 -6 -23q0 -29 24 -44t64 -15q44 0 73 21.5t29 57.5q0 28 -17.5 45.5t-45 26t-58.5 8.5q-7 0 -15 -0.5t-16 -1.5l-1 9q67 11 103 36.5t36 65.5q0 29 -21.5 46.5t-56.5 17.5q-37 0 -67.5 -20 t-44.5 -55l-6 2q11 42 45 68.5t82 26.5q44 0 71.5 -22.5t27.5 -57.5q0 -39 -29.5 -65.5t-80.5 -38.5q54 -3 89 -26.5t35 -63.5z" />
<glyph unicode="&#x2084;" horiz-adv-x="397" d="M56 -2l205 267l18 -3v-262h62l-4 -18h-58v-82h-28v82h-187zM80 0h171v227z" />
<glyph unicode="&#x2085;" horiz-adv-x="354" d="M298 -7q0 -45 -38 -72.5t-93 -27.5q-49 0 -80 18.5t-31 46.5t28 43l3 -3q-6 -13 -6 -27q0 -28 24 -44t63 -16q45 0 72.5 21.5t27.5 58.5q0 50 -49 72.5t-138 21.5l-5 4l2 169h204q0 -21 -2 -44.5t-6 -40.5h-5q-3 42 -6.5 52.5t-20.5 10.5h-142l-1 -139q10 1 19 1 q77 0 128.5 -26t51.5 -79z" />
<glyph unicode="&#x2086;" horiz-adv-x="372" d="M316 6q0 -51 -37.5 -82t-89.5 -31q-64 0 -98.5 38t-34.5 98q0 65 30.5 115t83 81t117.5 40l2 -10q-75 -17 -130.5 -63.5t-68.5 -122.5q21 18 50.5 27.5t56.5 9.5q53 0 86 -27t33 -73zM86 26q0 -49 26.5 -82t75.5 -33q41 0 69.5 25t28.5 67q0 38 -25 61.5t-71 23.5 q-27 0 -56 -11t-47 -31q-1 -10 -1 -20z" />
<glyph unicode="&#x2087;" horiz-adv-x="358" d="M167 -100h-28q4 61 24.5 123t51.5 117t67 96h-179q-19 0 -25.5 -11t-9.5 -57h-7q-3 18 -4.5 43t-0.5 47h243l3 -21q-35 -39 -64.5 -94.5t-48 -118.5t-22.5 -124z" />
<glyph unicode="&#x2088;" horiz-adv-x="363" d="M307 -19q0 -38 -38 -63t-92 -25t-87.5 24t-33.5 61q0 34 28 61.5t71 40.5q-31 16 -54.5 37.5t-23.5 57.5q0 38 33.5 64t79.5 26q48 0 75.5 -24t27.5 -61q0 -35 -25.5 -60.5t-56.5 -40.5q36 -18 66 -39.5t30 -58.5zM105 176q0 -34 27 -53.5t62 -36.5q27 15 50.5 38.5 t23.5 55.5q0 29 -21 48t-56 19q-39 0 -62.5 -20.5t-23.5 -50.5zM81 -20q0 -31 27 -50t71 -19q42 0 71 17.5t29 48.5q0 25 -15.5 41.5t-39.5 28.5t-50 24q-41 -13 -67 -37.5t-26 -53.5z" />
<glyph unicode="&#x2089;" horiz-adv-x="372" d="M56 152q0 51 37.5 82t89.5 31q64 0 98.5 -38t34.5 -98q0 -65 -30.5 -115t-83 -81t-117.5 -40l-2 10q75 17 130.5 63.5t68.5 122.5q-21 -18 -50.5 -27.5t-56.5 -9.5q-52 0 -85.5 27t-33.5 73zM86 155q0 -38 25 -61.5t71 -23.5q27 0 56 11t47 31q1 10 1 20q0 49 -26.5 82 t-75.5 33q-41 0 -69.5 -25t-28.5 -67z" />
<glyph unicode="&#x2090;" horiz-adv-x="387" d="M359 -86q-6 -8 -17 -14.5t-24 -6.5q-50 0 -50 63v4q-15 -25 -46.5 -46t-73.5 -21q-43 0 -68 21.5t-25 57.5q0 39 28.5 64t77 38.5t107.5 16.5v69q0 87 -74 87q-42 0 -70.5 -24.5t-28.5 -52.5q0 -10 3 -21q-5 -5 -13 -5q-19 0 -19 24q0 23 18 45.5t48 37t65 14.5 q53 0 76.5 -26t23.5 -79v-199q0 -49 34 -49q13 0 26 5zM85 -26q0 -28 20 -44t48 -16q37 0 68 21t47 57v83q-51 -3 -92.5 -14.5t-66 -32.5t-24.5 -54z" />
<glyph unicode="&#x2091;" horiz-adv-x="355" d="M311 85h-226v-5q0 -78 34.5 -120.5t91.5 -42.5q33 0 57 11t49 33l5 -6q-21 -30 -50 -46t-70 -16q-69 0 -108 48t-39 132q0 62 21 105t55.5 65t74.5 22q56 0 85 -37t29 -97q0 -21 -3 -42zM204 247q-47 0 -80.5 -38t-37.5 -109l201 4q3 15 3 29q0 53 -19.5 83.5t-66.5 30.5 z" />
<glyph unicode="&#x2092;" horiz-adv-x="401" d="M346 84q0 -54 -16.5 -97.5t-48.5 -68.5t-80 -25q-67 0 -106.5 46.5t-39.5 132.5q0 91 41 142t109 51q66 0 103.5 -49.5t37.5 -131.5zM85 78q0 -82 30 -124.5t86 -42.5q57 0 86 48t29 124q0 77 -29 120.5t-83 43.5q-53 0 -86 -44.5t-33 -124.5z" />
<glyph unicode="&#x2093;" horiz-adv-x="397" d="M83 214q-13 17 -20.5 22t-26.5 9l-36 6l1 7h162l1 -7l-67 -12l107 -146l105 146l-66 12l1 7h152l1 -7l-10.5 -2l-21 -4t-11.5 -2q-12 -2 -19.5 -8t-18.5 -20q0 -1 -12.5 -17t-30.5 -39t-34.5 -44.5t-25.5 -33.5l104 -141q8 -11 15 -16.5t18 -8.5l47 -8l-1 -7h-162l-1 7 l66 12l-106 146l-105 -146l66 -12l-1 -7h-152l-1 7q0 1 11.5 3t23 4.5l11.5 2.5q11 2 18 7t17 19q0 1 12.5 17t30.5 39t34.5 45t25.5 33z" />
<glyph unicode="&#x2095;" horiz-adv-x="436" d="M181 -93l-1 -7h-155v7l51 9q12 2 12 14v445l-63 3v7q20 5 44 8.5t43 4.5l5 -5v-201q21 32 54.5 52.5t72.5 20.5q51 0 77 -28.5t26 -81.5v-236l64 -12v-7h-155l-1 7l51 9q8 2 10.5 5t2.5 9v223q0 43 -19.5 66t-63.5 23q-33 0 -66 -19.5t-53 -54.5v-249z" />
<glyph unicode="&#x2096;" horiz-adv-x="397" d="M180 -100h-155v7l51 9q12 2 12 14v445l-63 3v7q20 5 44 8.5t43 4.5l5 -5v-294h91l97 143l-64 9l1 7h144l1 -7l-41 -10q-10 -2 -16.5 -7t-13.5 -14l-86 -119l89 -147q21 -33 50 -41l28 -6l-1 -7h-37q-25 0 -38 10.5t-27 32.5l-87 139h-90v-163l64 -12z" />
<glyph unicode="&#x2097;" horiz-adv-x="206" d="M180 -100h-155v7l51 9q12 2 12 14v445l-63 3v7q20 5 44 8.5t43 4.5l5 -5v-474l64 -12z" />
<glyph unicode="&#x2098;" horiz-adv-x="662" d="M191 -100h-154l-1 7l51 9q13 3 13 14v312l-63 4l-1 7q20 4 44 7.5t43 4.5l5 -5v-69q21 34 53 54t71 20q80 0 95 -76q21 35 54.5 55.5t71.5 20.5q49 0 74.5 -28.5t25.5 -81.5v-236l64 -12l-1 -7h-155l-1 7l52 9q12 2 12 14v223q0 89 -78 89q-32 0 -65 -19.5t-51 -53.5v-14 v-236l64 -12v-7h-155l-1 7l51 9q8 2 10.5 5t2.5 9v223q0 89 -77 89q-32 0 -65 -19.5t-52 -54.5v-249l64 -12z" />
<glyph unicode="&#x2099;" horiz-adv-x="448" d="M191 -100h-154l-1 7l51 9q13 3 13 14v312l-63 4l-1 7q20 4 44 7.5t43 4.5l5 -5v-69q21 34 55 54t73 20q51 0 77 -28.5t26 -81.5v-236l64 -12l-1 -7h-155l-1 7l52 9q12 2 12 14v223q0 89 -81 89q-33 0 -67 -19.5t-54 -54.5v-249l64 -12z" />
<glyph unicode="&#x209a;" horiz-adv-x="424" d="M195 -236h-170v8l51 8q12 2 12 14v448l-63 4v7q20 5 44 8.5t43 4.5l5 -5v-65q19 32 50 50.5t68 18.5q63 0 98.5 -48t35.5 -134q0 -88 -44.5 -139t-114.5 -51q-26 0 -49 4.5t-44 11.5v-125l79 -12zM117 162v-231q23 -9 45.5 -14t46.5 -5q63 0 97 48t33 120 q-1 74 -28 118.5t-80 44.5q-36 0 -67 -21.5t-47 -59.5z" />
<glyph unicode="&#x209b;" horiz-adv-x="333" d="M154 -107q-34 0 -59 5.5t-32 12.5q-8 8 -8 41q0 12 2 26.5t5 27.5h7q3 -28 5.5 -47.5t9.5 -30.5q5 -7 25.5 -12t48.5 -5q41 0 65.5 18.5t24.5 48.5q0 28 -19 46.5t-46.5 32t-55.5 28t-47 35t-19 53.5q0 44 34 68t85 24q32 0 54.5 -6.5t27.5 -12.5q6 -7 6 -40 q0 -12 -2 -26t-5 -28l-7 1q-1 23 -3.5 40.5t-7.5 29.5t-22.5 18t-41.5 6q-40 0 -64 -17t-24 -52q0 -28 19 -45.5t47 -31t55.5 -28t46.5 -36t19 -54.5q0 -43 -35 -66.5t-89 -23.5z" />
<glyph unicode="&#x209c;" horiz-adv-x="278" d="M242 244v-16h-135v-220q0 -47 16 -69t50 -22q23 0 45 10t43 28l6 -5q-18 -25 -45 -41t-58 -16q-41 0 -63.5 26t-22.5 76v233h-63l-1 7l64 10l21 112l8 -1v-112h135z" />
<glyph unicode="&#x20ac;" horiz-adv-x="601" d="M441 263h-272q11 -116 70.5 -182.5t148.5 -66.5q50 0 85.5 13.5t64.5 38.5l7 -8q-25 -30 -65 -49t-95 -19q-104 0 -171 71.5t-77 201.5h-73l3 23h68v21q0 29 3 56h-66l3 23h66q12 84 49 145.5t90 95t116 33.5q41 0 73 -13t51 -33.5t19 -43.5q0 -10 -7.5 -15.5t-15.5 -5.5 q-9 38 -40.5 62.5t-81.5 24.5q-56 0 -102 -31t-77.5 -87t-42.5 -132h280l-3 -23h-279q-3 -26 -3 -53q0 -12 1 -24h276z" />
<glyph unicode="&#x2122;" horiz-adv-x="663" d="M314 650h64l64 -197l65 197h63v-7l-32 -9l32 -194l29 -8v-7h-86l-2 7l33 8l-31 174l-61 -189h-28l-63 189l-29 -174l31 -8v-7h-79l-1 7l31 8l31 194l-33 9zM178 440l32 -8l-1 -7h-90l-1 7l32 8v192h-63l-13 -50h-7v68h194v-68h-7l-11 50h-65v-192z" />
<glyph unicode="&#x2212;" horiz-adv-x="539" d="M459 312h-384v23q33 1 84 1.5t108 1t108.5 0.5h84.5l4 -5z" />
<glyph unicode="&#x221e;" horiz-adv-x="862" d="M762 267q0 -48 -19.5 -86t-54 -60.5t-81.5 -22.5q-42 0 -73.5 19.5t-55.5 50t-44 64.5q-35 -60 -80 -97t-104 -37q-45 0 -78.5 22t-52.5 59.5t-19 85.5t19.5 86t54.5 60.5t83 22.5q45 0 76.5 -20.5t55.5 -52.5t44 -66q38 63 83.5 101t100.5 38q71 0 108 -47.5t37 -119.5z M130 268q0 -66 35 -105t90 -39q49 0 90.5 40t74.5 94q-2 2 -3 5q-35 65 -73 105t-90 40t-88 -36.5t-36 -103.5zM616 408q-54 0 -95 -41.5t-73 -97.5q37 -65 74 -105t88 -40t86.5 36.5t35.5 105.5q0 66 -33 104t-83 38z" />
<glyph unicode="&#x2248;" horiz-adv-x="552" d="M148 453q-10 0 -28.5 -20t-38.5 -46l-14 8q10 18 22.5 38.5t27.5 34.5t32 14t51.5 -9t74.5 -21.5t75.5 -21.5t53.5 -9q10 0 28 19.5t39 46.5l14 -8q-9 -18 -21.5 -38t-27.5 -34.5t-33 -14.5q-13 0 -39 6t-58 15.5t-63.5 18.5t-57 15t-37.5 6zM148 229q-10 0 -28.5 -20 t-38.5 -46l-14 8q10 18 22.5 38t27.5 34.5t32 14.5t51.5 -9t74.5 -21.5t75.5 -21.5t53.5 -9q10 0 28 19.5t39 46.5l14 -8q-9 -18 -21.5 -38.5t-27.5 -34.5t-33 -14q-13 0 -39 6t-58 15.5t-63.5 18.5t-57 15t-37.5 6z" />
<glyph unicode="&#x2260;" horiz-adv-x="539" d="M164 116l-18 13l45 82h-116v23q24 1 57.5 1t72.5 1l98 177h-228v23q27 1 67 1.5t85.5 0.5t89.5 1l52 93l5 3l18 -13l-46 -83h63.5h50.5l4 -5l-5 -21h-127l-98 -177q63 1 125.5 1h100.5l4 -5l-5 -21h-239l-51 -92z" />
<glyph unicode="&#x2264;" horiz-adv-x="529" d="M448 536v-29l-334 -121l335 -126v-29l-380 147l1 16q34 14 84 33t105 39.5t105 39t84 30.5zM444 115h-384v23q33 1 84 1.5t108 1t108.5 0.5h84.5l4 -5z" />
<glyph unicode="&#x2265;" horiz-adv-x="529" d="M80 231v29l335 126l-334 121v29q34 -12 84 -30.5t105 -39t105 -39.5t84 -33l1 -16zM464 115h-384v23q33 1 84 1.5t108 1t108.5 0.5h84.5l4 -5z" />
<glyph unicode="&#x25fc;" horiz-adv-x="500" d="M0 500h500v-500h-500v500z" />
<glyph unicode="&#x2c7c;" horiz-adv-x="213" d="M94 348q-25 0 -25 28q0 14 8.5 23t20.5 9q24 0 24 -27q0 -13 -7 -23t-21 -10zM87 242h1l-63 4l-1 7q20 4 44 7.5t43 4.5l5 -5v-335q0 -62 -20.5 -97.5t-72.5 -67.5l-6 6q24 23 39.5 44.5t23 50.5t7.5 71v310z" />
<glyph unicode="&#xfb01;" horiz-adv-x="534" d="M255 0h-218l-1 10l69 12q10 2 13 6t3 11v424h-78l-1 10l79 12v0q1 62 22.5 109.5t59.5 74t89 26.5q36 0 63 -14t42.5 -36t15.5 -46q0 -22 -17 -22q-7 0 -13 3q-4 42 -31 66.5t-67 24.5q-72 0 -107 -60q-27 -47 -27 -126h242q5 4 11 8t13 7l7 -7v-467l85 -16l-1 -10h-198 l-1 10l69 12q10 2 13 6t3 11v424h-243v-437l105 -16z" />
<glyph unicode="&#xfb02;" horiz-adv-x="534" d="M255 0h-218l-1 10l69 12q10 2 13 6t3 11v424h-78l-1 10l79 12v0q1 62 23 109.5t61 74t91 26.5q33 0 60 -11.5t43 -30.5q4 3 8.5 5.5t9.5 4.5l7 -7v-630l85 -16l-1 -10h-198l-1 10l69 12q10 2 13 6t3 11v424h-243v-437l105 -16zM289 671q-65 0 -101.5 -46t-36.5 -140h243 v95q0 42 -31 66.5t-74 24.5z" />
<glyph unicode="&#xfb06;" horiz-adv-x="721" d="M536 588q0 -42 -23 -69t-48 -37h213v-22h-180v-315q0 -67 21 -99t66 -32q30 0 60 14.5t58 41.5l7 -7q-23 -32 -58 -52.5t-73 -20.5q-54 0 -82.5 36t-28.5 104v330h-64l-1 10q48 11 76 42.5t28 75.5q0 39 -24 62.5t-64 23.5q-33 0 -64.5 -20t-51 -60t-17.5 -101 q21 -10 33 -26.5t12 -35.5q0 -21 -19 -21q-15 0 -26.5 18.5t-15.5 47.5q-11 6 -26.5 10t-33.5 4q-48 0 -81.5 -25.5t-33.5 -74.5q0 -34 17.5 -57.5t45.5 -41t59.5 -33.5t59.5 -35t45.5 -45t17.5 -65q0 -58 -45 -90.5t-113 -32.5q-43 0 -75.5 8t-41.5 17q-10 10 -10 58 q0 15 1.5 34.5t4.5 37.5h9q4 -40 6.5 -66.5t12.5 -41.5q7 -10 34 -16.5t64 -6.5q56 0 88.5 27t32.5 70q0 34 -17.5 57t-45.5 40.5t-59.5 33.5t-59.5 35t-45.5 45t-17.5 65t20 66.5t53.5 42t71.5 14.5q33 0 60 -9q-3 62 18.5 105.5t57.5 66t77 22.5q49 0 82 -29.5t33 -77.5z " />
<glyph horiz-adv-x="971" d="M644 0h-198l-1 10l69 12q10 2 13 6t3 11v630q-52 -3 -93 -27t-66.5 -63t-30.5 -87q20 -11 31.5 -26.5t11.5 -34.5q0 -21 -19 -21q-16 0 -29 19.5t-13 47.5q-24 13 -64 13q-48 0 -86.5 -28.5t-61.5 -83t-23 -133.5q0 -109 45 -170t118 -61q44 0 78.5 18t62.5 46l7 -8 q-22 -31 -58.5 -55.5t-92.5 -24.5q-90 0 -141 67t-51 185q0 87 28 146.5t74 90.5t101 31q36 0 65 -11q5 52 35 96.5t80 72t115 27.5l7 -7v-279q28 45 71.5 73t94.5 28q67 0 101 -40t34 -114v-330l85 -16l-1 -10h-198l-1 10l69 12q10 2 13 6t3 11v317q0 62 -26 96t-85 34 q-44 0 -89 -29.5t-71 -81.5v-349l85 -16z" />
<glyph horiz-adv-x="773" d="M473 674q-35 0 -67 -21.5t-51.5 -62t-17.5 -97.5q21 -11 33.5 -27t12.5 -35q0 -21 -19 -21q-15 0 -26.5 18.5t-15.5 47.5q-25 14 -63 14q-48 0 -87 -28.5t-62 -83t-23 -133.5q0 -109 45 -170t118 -61q44 0 78.5 18t62.5 46l7 -8q-22 -31 -58.5 -55.5t-92.5 -24.5 q-90 0 -141 67t-51 185q0 87 28 146.5t74 90.5t100 31q34 0 63 -10q-3 62 19 105.5t59 66.5t78 23q52 0 82 -31t30 -76q0 -39 -21.5 -65.5t-44.5 -40.5h208v-22h-180v-315q0 -67 21 -99t66 -32q30 0 60 14.5t58 41.5l7 -7q-23 -32 -58 -52.5t-73 -20.5q-54 0 -82.5 36 t-28.5 104v330h-64l-1 10q48 11 76 42.5t28 72.5q0 39 -22 64t-64 25z" />
<glyph horiz-adv-x="923" d="M312 410q-15 0 -28.5 18.5t-13.5 47.5v1q-23 13 -62 13q-46 0 -79.5 -26t-33.5 -77q0 -33 17.5 -56t45.5 -40.5t59.5 -33.5t59.5 -35t45.5 -45t17.5 -64q0 -58 -45 -90.5t-113 -32.5q-43 0 -75.5 8t-41.5 17q-10 10 -10 58q0 15 1.5 34.5t4.5 37.5h9q4 -40 6.5 -66.5 t12.5 -41.5q7 -10 34 -16.5t64 -6.5q56 0 88.5 27t32.5 70q0 34 -17.5 57t-45.5 40.5t-59.5 33.5t-59.5 35t-45.5 45.5t-17.5 65.5q0 38 20.5 65.5t54 42t72.5 14.5q34 0 61 -10q6 56 38 100t82.5 69.5t113.5 25.5l7 -7v-279q28 45 71.5 73t94.5 28q67 0 101 -40t34 -114 v-330l85 -16l-1 -10h-198l-1 10l69 12q10 2 13 6t3 11v317q0 62 -26 96t-85 34q-44 0 -89 -29.5t-71 -81.5v-349l85 -16l-1 -10h-198l-1 10l69 12q10 2 13 6t3 11v630q-52 -3 -94 -26.5t-68.5 -62.5t-32.5 -87q20 -10 32 -26t12 -36q0 -21 -19 -21z" />
<glyph horiz-adv-x="387" d="M359 386q-6 -8 -17 -14.5t-24 -6.5q-50 0 -50 63v4q-15 -25 -46.5 -46t-73.5 -21q-43 0 -68 21.5t-25 57.5q0 39 28.5 64t77 38.5t107.5 16.5v69q0 87 -74 87q-42 0 -70.5 -24.5t-28.5 -52.5q0 -10 3 -21q-5 -5 -13 -5q-19 0 -19 24q0 23 18 45.5t48 37t65 14.5 q53 0 76.5 -26t23.5 -79v-199q0 -49 34 -49q13 0 26 5zM85 446q0 -28 20 -44t48 -16q37 0 68 21t47 57v83q-51 -3 -92.5 -14.5t-66 -32.5t-24.5 -54z" />
<glyph horiz-adv-x="412" d="M357 548q0 -88 -44.5 -135.5t-114.5 -47.5q-26 0 -48.5 4.5t-43.5 11.5l-25 -16l-3 2v480l-63 3l-1 7q20 5 44 8.5t43 4.5l6 -5v-195q19 31 49.5 49t66.5 18q63 0 98.5 -51.5t35.5 -137.5zM219 715q-36 0 -66.5 -21.5t-45.5 -57.5v-234q23 -8 45 -13t45 -5q63 0 97 44 t33 117q-1 74 -28 122t-80 48z" />
<glyph horiz-adv-x="344" d="M55 545q0 62 21 105t56 65t76 22q47 0 77 -28t30 -72q0 -24 -19 -24q-6 0 -12 4q2 10 2 15q0 40 -21 63.5t-58 23.5q-51 0 -86.5 -43.5t-35.5 -124.5q0 -77 34.5 -119.5t90.5 -42.5q33 0 59 12t48 32l5 -6q-16 -25 -45 -43.5t-73 -18.5q-70 0 -109.5 48t-39.5 132z" />
<glyph horiz-adv-x="427" d="M55 537q0 94 48.5 147t125.5 53q23 0 42.5 -4t36.5 -10v124l-63 3l-1 7q20 5 44 8.5t43 4.5l5 -5v-432q0 -49 35 -49q13 0 26 5l2 -3q-7 -9 -18 -15t-24 -6q-49 0 -49 63v6q-17 -30 -48 -49.5t-69 -19.5q-59 0 -97.5 45t-38.5 127zM85 540q0 -72 31.5 -113t80.5 -41 q31 0 63.5 21.5t47.5 56.5v235q-35 19 -81 19q-65 0 -103.5 -49t-38.5 -129z" />
<glyph horiz-adv-x="355" d="M322 427q-21 -30 -50 -46t-70 -16q-69 0 -108 48t-39 132q0 62 21 105t55.5 65t74.5 22q56 0 85 -37t29 -97q0 -21 -3 -42l-6 -4h-226v-5q0 -78 34.5 -120.5t91.5 -42.5q33 0 57 11t49 33zM204 719q-47 0 -80.5 -38t-37.5 -109l201 4q3 15 3 29q0 53 -19.5 83.5 t-66.5 30.5z" />
<glyph horiz-adv-x="264" d="M207 372h-170l-1 7l51 9q13 3 13 14v283h-60v8l60 9v5q0 72 33.5 117.5t89.5 45.5q38 0 61.5 -21t23.5 -47q0 -19 -16 -19q-7 0 -11 2q-1 31 -19 49t-44 18q-43 0 -66.5 -33.5t-23.5 -102.5v-14h130v-17h-130v-294l79 -12v-7z" />
<glyph horiz-adv-x="330" d="M326 333q0 -39 -43.5 -70t-128.5 -31q-60 0 -101.5 22.5t-41.5 59.5q0 24 16 41t40 27.5t49 14.5l-4 1q-16 5 -26.5 16t-10.5 27q0 18 11 31t27 21q-31 12 -50.5 41t-19.5 72q0 57 35.5 94t93.5 37q44 0 78.5 1t76.5 5q3 -6 3 -14q0 -15 -20 -15q-12 0 -37 3t-54 5l-1 -2 q29 -13 45.5 -41t16.5 -63q0 -61 -34.5 -96.5t-85.5 -35.5q-16 0 -31 4q-12 -7 -20 -17t-8 -21q0 -28 47 -33l57 -6q59 -6 90 -24t31 -54zM72 609q0 -46 24.5 -76.5t64.5 -30.5q41 0 66 30.5t25 81.5q0 43 -22 73.5t-64 30.5t-68 -31.5t-26 -77.5zM40 317q0 -29 32.5 -48 t88.5 -19q60 0 98.5 23t38.5 55q0 26 -25.5 39t-69.5 17l-61 6v0q-46 -9 -74 -28t-28 -45z" />
<glyph horiz-adv-x="436" d="M181 379l-1 -7h-155v7l51 9q12 2 12 14v445l-63 3v7q20 5 44 8.5t43 4.5l5 -5v-201q21 32 54.5 52.5t72.5 20.5q51 0 77 -28.5t26 -81.5v-236l64 -12v-7h-155l-1 7l51 9q8 2 10.5 5t2.5 9v223q0 43 -19.5 66t-63.5 23q-33 0 -66 -19.5t-53 -54.5v-249z" />
<glyph horiz-adv-x="213" d="M94 820q-25 0 -25 28q0 14 8.5 23t20.5 9q24 0 24 -27q0 -13 -7 -23t-21 -10zM87 714h1l-63 4l-1 7q20 4 44 7.5t43 4.5l5 -5v-335q0 -62 -20.5 -97.5t-72.5 -67.5l-6 6q24 23 39.5 44.5t23 50.5t7.5 71v310z" />
<glyph horiz-adv-x="397" d="M180 372h-155v7l51 9q12 2 12 14v445l-63 3v7q20 5 44 8.5t43 4.5l5 -5v-294h91l97 143l-64 9l1 7h144l1 -7l-41 -10q-10 -2 -16.5 -7t-13.5 -14l-86 -119l89 -147q21 -33 50 -41l28 -6l-1 -7h-37q-25 0 -38 10.5t-27 32.5l-87 139h-90v-163l64 -12z" />
<glyph horiz-adv-x="206" d="M180 372h-155v7l51 9q12 2 12 14v445l-63 3v7q20 5 44 8.5t43 4.5l5 -5v-474l64 -12z" />
<glyph horiz-adv-x="662" d="M191 372h-154l-1 7l51 9q13 3 13 14v312l-63 4l-1 7q20 4 44 7.5t43 4.5l5 -5v-69q21 34 53 54t71 20q80 0 95 -76q21 35 54.5 55.5t71.5 20.5q49 0 74.5 -28.5t25.5 -81.5v-236l64 -12l-1 -7h-155l-1 7l52 9q12 2 12 14v223q0 89 -78 89q-32 0 -65 -19.5t-51 -53.5v-14 v-236l64 -12v-7h-155l-1 7l51 9q8 2 10.5 5t2.5 9v223q0 89 -77 89q-32 0 -65 -19.5t-52 -54.5v-249l64 -12z" />
<glyph horiz-adv-x="401" d="M346 556q0 -55 -16.5 -98t-48.5 -68t-80 -25q-67 0 -106.5 46.5t-39.5 132.5q0 91 41 142t109 51q66 0 103.5 -49.5t37.5 -131.5zM85 550q0 -82 30 -124.5t86 -42.5q57 0 86 48t29 124q0 77 -29 120.5t-83 43.5q-53 0 -86 -44.5t-33 -124.5z" />
<glyph horiz-adv-x="424" d="M195 236h-170v8l51 8q12 2 12 14v448l-63 4v7q20 5 44 8.5t43 4.5l5 -5v-65q19 32 50 50.5t68 18.5q63 0 98.5 -48t35.5 -134q0 -88 -44.5 -139t-114.5 -51q-26 0 -49 4.5t-44 11.5v-125l79 -12zM117 634v-231q23 -9 45.5 -14t46.5 -5q63 0 97 48t33 120q-1 74 -28 118.5 t-80 44.5q-36 0 -67 -21.5t-47 -59.5z" />
<glyph horiz-adv-x="414" d="M400 240h-155l-1 7l51 8q8 2 10.5 5t2.5 9v165q-17 -30 -48 -49.5t-69 -19.5q-59 0 -97.5 45t-38.5 127q0 94 48.5 147t125.5 53q24 0 44 -4t37 -11l24 15l2 -2v-476l64 -12v-7zM85 540q0 -72 31.5 -113t80.5 -41q31 0 63.5 21.5t47.5 56.5v235q-35 19 -81 19 q-65 0 -103.5 -49t-38.5 -129z" />
<glyph horiz-adv-x="313" d="M207 372h-170l-1 7l51 9q13 3 13 14v312l-63 4l-1 7q20 4 44 7.5t43 4.5l5 -5v-68q18 33 44.5 53t56.5 20q28 0 45 -14t17 -34q0 -9 -5 -15t-11 -7q-5 18 -18.5 29.5t-36.5 12.5q-29 0 -55 -22t-37 -46v-250l79 -12v-7z" />
<glyph horiz-adv-x="333" d="M154 365q-34 0 -59 5.5t-32 12.5q-8 8 -8 41q0 12 2 26.5t5 27.5h7q3 -28 5.5 -47.5t9.5 -30.5q5 -7 25.5 -12t48.5 -5q41 0 65.5 18.5t24.5 48.5q0 28 -19 46.5t-46.5 32t-55.5 28t-47 35t-19 53.5q0 44 34 68t85 24q32 0 54.5 -6.5t27.5 -12.5q6 -7 6 -40q0 -12 -2 -26 t-5 -28l-7 1q-1 23 -3.5 40.5t-7.5 29.5t-22.5 18t-41.5 6q-40 0 -64 -17t-24 -52q0 -28 19 -45.5t47 -31t55.5 -28t46.5 -36t19 -54.5q0 -43 -35 -66.5t-89 -23.5z" />
<glyph horiz-adv-x="278" d="M242 716v-16h-135v-220q0 -47 16 -69t50 -22q23 0 45 10t43 28l6 -5q-18 -25 -45 -41t-58 -16q-41 0 -63.5 26t-22.5 76v233h-63l-1 7l64 10l21 112l8 -1v-112h135z" />
<glyph horiz-adv-x="449" d="M410 386q-14 -21 -42 -21q-49 0 -49 66v6q-19 -28 -50 -50t-75 -22q-52 0 -79 28.5t-27 81.5v239l-63 4v7q20 4 44 7.5t43 4.5l5 -5v-255q0 -43 22 -66t60 -23q35 0 67.5 20.5t52.5 57.5v248l-63 4l-1 7q20 4 44 7.5t43 4.5l5 -5v-299q0 -49 35 -49q13 0 26 5z" />
<glyph horiz-adv-x="398" d="M208 372h-18l-121 318q-4 13 -9 18t-19 8l-41 7l1 7h155l1 -7l-64 -12l111 -297l107 297l-64 12l1 7h149l1 -7l-11.5 -2.5t-23.5 -4.5l-12 -2q-13 -2 -18.5 -9t-10.5 -19z" />
<glyph horiz-adv-x="593" d="M293 730h11l106 -314l95 295l-63 12v7h150l1 -7l-11.5 -2.5t-23.5 -4.5l-12 -2q-13 -3 -19 -8.5t-10 -19.5l-103 -314h-18l-101 295l-98 -295h-18l-110 318q-4 13 -9 18t-19 8l-41 7l1 7h155l1 -7l-65 -12l101 -295z" />
<glyph horiz-adv-x="397" d="M83 686q-13 17 -20.5 22t-26.5 9l-36 6l1 7h162l1 -7l-67 -12l107 -146l105 146l-66 12l1 7h152l1 -7l-10.5 -2l-21 -4t-11.5 -2q-12 -2 -19.5 -8t-18.5 -20q0 -1 -12.5 -17t-30.5 -39t-34.5 -44.5t-25.5 -33.5l104 -141q8 -11 15 -16.5t18 -8.5l47 -8l-1 -7h-162l-1 7 l66 12l-106 146l-105 -146l66 -12l-1 -7h-152l-1 7q0 1 11.5 3t23 4.5l11.5 2.5q11 2 18 7.5t17 18.5q0 1 12.5 17t30.5 39t34.5 45t25.5 33z" />
<glyph horiz-adv-x="398" d="M69 232q-16 0 -26 6.5t-10 17.5q0 9 6 15q5 -4 13.5 -7t19.5 -3q35 0 66.5 27.5t51.5 81.5l-121 320q-4 13 -9 18t-19 8l-41 7l1 7h155l1 -7l-64 -13l111 -296l107 297l-64 12l1 7h149l1 -7l-46 -8q-13 -2 -19 -9t-11 -20l-113 -311q-23 -65 -56.5 -104t-83.5 -39z" />
<glyph horiz-adv-x="348" d="M304 423q0 -28 -4 -51h-254l-2 11l221 331h-191l-18 -98h-7q-2 14 -3.5 29.5t-1.5 35.5q0 15 1 26t2 23h255l2 -11l-223 -331h193l18 98h6q6 -25 6 -63z" />
<glyph horiz-adv-x="412" d="M357 76q0 -88 -44.5 -135.5t-114.5 -47.5q-26 0 -48.5 4.5t-43.5 11.5l-25 -16l-3 2v480l-63 3l-1 7q20 5 44 8.5t43 4.5l6 -5v-195q19 31 49.5 49t66.5 18q63 0 98.5 -51.5t35.5 -137.5zM219 243q-36 0 -66.5 -21.5t-45.5 -57.5v-234q23 -8 45 -13t45 -5q63 0 97 44 t33 117q-1 74 -28 122t-80 48z" />
<glyph horiz-adv-x="344" d="M55 73q0 62 21 105t56 65t76 22q47 0 77 -28t30 -72q0 -24 -19 -24q-6 0 -12 4q2 10 2 15q0 40 -21 63.5t-58 23.5q-51 0 -86.5 -43.5t-35.5 -124.5q0 -77 34.5 -119.5t90.5 -42.5q33 0 59 12t48 32l5 -6q-16 -25 -45 -43.5t-73 -18.5q-70 0 -109.5 48t-39.5 132z" />
<glyph horiz-adv-x="427" d="M55 65q0 94 48.5 147t125.5 53q23 0 42.5 -4t36.5 -10v124l-63 3l-1 7q20 5 44 8.5t43 4.5l5 -5v-432q0 -49 35 -49q13 0 26 5l2 -3q-7 -9 -18 -15t-24 -6q-49 0 -49 63v6q-17 -30 -48 -49.5t-69 -19.5q-59 0 -97.5 45t-38.5 127zM85 68q0 -72 31.5 -113t80.5 -41 q31 0 63.5 21.5t47.5 56.5v235q-35 19 -81 19q-65 0 -103.5 -49t-38.5 -129z" />
<glyph horiz-adv-x="264" d="M207 -100h-170l-1 7l51 9q13 3 13 14v283h-60v8l60 9v5q0 72 33.5 117.5t89.5 45.5q38 0 61.5 -21t23.5 -47q0 -19 -16 -19q-7 0 -11 2q-1 31 -19 49t-44 18q-43 0 -66.5 -33.5t-23.5 -102.5v-14h130v-17h-130v-294l79 -12v-7z" />
<glyph horiz-adv-x="330" d="M280 144q0 -61 -34.5 -96.5t-85.5 -35.5q-16 0 -31 4q-12 -7 -20 -17t-8 -21q0 -28 47 -33l57 -6q59 -6 90 -24t31 -54q0 -39 -43.5 -70t-128.5 -31q-60 0 -101.5 22.5t-41.5 59.5q0 24 16 41t40 27.5t49 14.5l-4 1q-16 5 -26.5 16t-10.5 27q0 18 11 31t27 21 q-31 12 -50.5 41t-19.5 72q0 57 35.5 94t93.5 37q44 0 78.5 1t76.5 5q3 -6 3 -14q0 -15 -20 -15q-12 0 -37 3t-54 5l-1 -2q29 -13 45.5 -41t16.5 -63zM72 137q0 -46 24.5 -76.5t64.5 -30.5q41 0 66 30.5t25 81.5q0 43 -22 73.5t-64 30.5t-68 -31.5t-26 -77.5zM40 -155 q0 -29 32.5 -48t88.5 -19q60 0 98.5 23t38.5 55q0 26 -25.5 39t-69.5 17l-61 6v0q-46 -9 -74 -28t-28 -45z" />
<glyph horiz-adv-x="217" d="M108 347q-24 0 -24 29q0 13 8.5 22.5t20.5 9.5q24 0 24 -28q0 -13 -7.5 -23t-21.5 -10zM191 -100h-154l-1 7l51 9q13 3 13 14v312l-63 4l-1 7q20 4 44 7.5t43 4.5l5 -5v-341l64 -12z" />
<glyph horiz-adv-x="414" d="M55 65q0 94 48.5 147t125.5 53q24 0 44 -4t37 -11l24 15l2 -2v-476l64 -12v-7h-155l-1 7l51 8q8 2 10.5 5t2.5 9v165q-17 -30 -48 -49.5t-69 -19.5q-59 0 -97.5 45t-38.5 127zM85 68q0 -72 31.5 -113t80.5 -41q31 0 63.5 21.5t47.5 56.5v235q-35 19 -81 19 q-65 0 -103.5 -49t-38.5 -129z" />
<glyph horiz-adv-x="313" d="M207 -100h-170l-1 7l51 9q13 3 13 14v312l-63 4l-1 7q20 4 44 7.5t43 4.5l5 -5v-68q18 33 44.5 53t56.5 20q28 0 45 -14t17 -34q0 -9 -5 -15t-11 -7q-5 18 -18.5 29.5t-36.5 12.5q-29 0 -55 -22t-37 -46v-250l79 -12v-7z" />
<glyph horiz-adv-x="449" d="M410 -86q-14 -21 -42 -21q-49 0 -49 66v6q-19 -28 -50 -50t-75 -22q-52 0 -79 28.5t-27 81.5v239l-63 4v7q20 4 44 7.5t43 4.5l5 -5v-255q0 -43 22 -66t60 -23q35 0 67.5 20.5t52.5 57.5v248l-63 4l-1 7q20 4 44 7.5t43 4.5l5 -5v-299q0 -49 35 -49q13 0 26 5z" />
<glyph horiz-adv-x="398" d="M208 -100h-18l-121 318q-4 13 -9 18t-19 8l-41 7l1 7h155l1 -7l-64 -12l111 -297l107 297l-64 12l1 7h149l1 -7l-11.5 -2.5t-23.5 -4.5l-12 -2q-13 -2 -18.5 -9t-10.5 -19z" />
<glyph horiz-adv-x="593" d="M293 258h11l106 -314l95 295l-63 12v7h150l1 -7l-11.5 -2.5t-23.5 -4.5l-12 -2q-13 -3 -19 -8.5t-10 -19.5l-103 -314h-18l-101 295l-98 -295h-18l-110 318q-4 13 -9 18t-19 8l-41 7l1 7h155l1 -7l-65 -12l101 -295z" />
<glyph horiz-adv-x="398" d="M69 -240q-16 0 -26 6.5t-10 17.5q0 9 6 15q5 -4 13.5 -7t19.5 -3q35 0 66.5 27.5t51.5 81.5l-121 320q-4 13 -9 18t-19 8l-41 7l1 7h155l1 -7l-64 -13l111 -296l107 297l-64 12l1 7h149l1 -7l-46 -8q-13 -2 -19 -9t-11 -20l-113 -311q-23 -65 -56.5 -104t-83.5 -39z" />
<glyph horiz-adv-x="348" d="M304 -49q0 -28 -4 -51h-254l-2 11l221 331h-191l-18 -98h-7q-2 14 -3.5 29.5t-1.5 35.5q0 15 1 26t2 23h255l2 -11l-223 -331h193l18 98h6q6 -25 6 -63z" />
<glyph horiz-adv-x="552" d="M496 328q0 -105 -27.5 -180.5t-76.5 -116.5t-116 -41q-101 0 -160.5 86t-59.5 246q0 105 28 180.5t78.5 116.5t118.5 41q63 0 111.5 -38.5t76 -112.5t27.5 -181zM279 15q83 0 133.5 83.5t50.5 229.5q0 148 -51 227.5t-133 79.5q-57 0 -99.5 -37.5t-66.5 -107.5t-24 -168 q0 -148 52.5 -227.5t137.5 -79.5z" />
<glyph horiz-adv-x="343" d="M299 0h-257v10l98 12q10 2 13 6t3 11v587l-114 4l-1 10l138 20l7 -7v-627l114 -16z" />
<glyph horiz-adv-x="485" d="M58 0l-7 23q70 78 129.5 140t103.5 115.5t68.5 104.5t24.5 106q0 65 -35.5 105t-97.5 40q-66 0 -113.5 -42t-72.5 -108l-10 4q17 74 69 123t128 49q80 0 122.5 -48.5t42.5 -120.5q0 -74 -42 -144.5t-116 -148t-169 -173.5h282q14 0 22 7.5t16 33t19 79.5l7 -1 q-1 -35 -5 -72t-12 -72h-354z" />
<glyph horiz-adv-x="457" d="M401 165q0 -48 -27 -87.5t-74 -63.5t-108 -24q-80 0 -128 31.5t-48 81.5q0 45 36 70l6 -5q-4 -7 -7.5 -19t-3.5 -26q0 -54 40 -81t107 -27q50 0 89 19t62 52.5t23 79.5q0 51 -29 83.5t-75 48t-97 15.5q-25 0 -51 -3l-2 16q115 19 176.5 66t61.5 123q0 53 -35 86.5 t-93 33.5q-61 0 -112 -38.5t-74 -103.5l-10 4q17 71 70.5 117t129.5 46q69 0 113 -39.5t44 -102.5q0 -68 -47 -116t-131 -71q85 -6 139.5 -50t54.5 -116z" />
<glyph horiz-adv-x="515" d="M24 172l329 488l22 -5v-480h100l-5 -25h-95v-150h-31v150h-308zM58 175h286v430z" />
<glyph horiz-adv-x="468" d="M420 170q0 -53 -27 -94t-73.5 -63.5t-103.5 -22.5q-77 0 -126.5 32.5t-49.5 84.5q0 48 36 76l6 -5q-5 -13 -8 -25t-3 -29q0 -52 40.5 -81t106.5 -29q76 0 122.5 41t46.5 114q0 94 -79.5 137.5t-228.5 41.5l-7 7l2 295h321q1 -36 -2.5 -76t-8.5 -69h-8q-3 53 -5.5 78 t-10.5 32.5t-26 7.5h-231l-2 -255q16 1 32 1q82 0 147 -22t102.5 -66t37.5 -111z" />
<glyph horiz-adv-x="511" d="M463 190q0 -60 -27.5 -105t-73 -70t-98.5 -25q-66 0 -112.5 32t-71 86.5t-24.5 121.5q0 124 49 213.5t131 144.5t182 72l4 -17q-83 -21 -153 -64.5t-116.5 -113t-59.5 -168.5q34 39 84.5 55t94.5 16q85 0 138 -48t53 -130zM89 228q0 -59 20 -107.5t59 -77.5t96 -29 q47 0 84.5 21.5t59.5 61t22 92.5q0 70 -43 112.5t-121 42.5q-47 0 -97.5 -19.5t-78.5 -61.5q-1 -17 -1 -35z" />
<glyph horiz-adv-x="467" d="M218 0h-32q5 83 25.5 169.5t51.5 169t70 155.5t80 129h-300q-21 0 -32 -8t-15 -35t-7 -85h-8q-5 32 -8.5 74.5t-2.5 80.5h398l5 -26q-43 -55 -81 -128.5t-69 -156.5t-50.5 -169.5t-24.5 -169.5z" />
<glyph horiz-adv-x="492" d="M444 145q0 -45 -28 -80t-74.5 -55t-102.5 -20q-57 0 -100 20t-67 55t-24 79q0 40 22.5 76t61 64.5t87.5 44.5q-36 19 -67 42.5t-50 56t-19 77.5q0 43 23 78t62.5 56t88.5 21q77 0 120.5 -41.5t43.5 -105.5q0 -43 -20 -78t-53 -61.5t-73 -44.5q42 -22 80.5 -46t63.5 -57 t25 -81zM115 506q0 -42 20 -72t52.5 -52.5t69.5 -42.5q32 18 63 43.5t51 58t20 71.5q0 53 -36 88t-97 35q-65 0 -104 -37t-39 -92zM78 146q0 -58 45 -94.5t119 -36.5q46 0 84.5 15.5t62 43.5t23.5 68q0 46 -25.5 77t-65.5 54t-83 45q-68 -31 -114 -75t-46 -97z" />
<glyph horiz-adv-x="511" d="M48 460q0 60 27.5 105t73 70t98.5 25q67 0 113 -32t70.5 -86.5t24.5 -121.5q0 -123 -49 -213t-131 -144.5t-182 -72.5l-4 17q83 21 153 64.5t116.5 113t59.5 168.5q-34 -39 -84.5 -55t-94.5 -16q-85 0 -138 48t-53 130zM81 461q0 -70 43 -112.5t121 -42.5q47 0 97.5 19.5 t78.5 61.5q1 17 1 35q0 59 -20 107.5t-59 77.5t-96 29q-46 0 -84 -21.5t-60 -60.5t-22 -93z" />
<glyph horiz-adv-x="496" d="M440 257q0 -76 -23 -136.5t-66 -95.5t-103 -35q-89 0 -140.5 65t-51.5 186q0 85 25.5 145t70.5 92t101 32q57 0 99 -31.5t65 -88.5t23 -133zM88 247q0 -112 44 -172.5t117 -60.5q49 0 84.5 31.5t55 86.5t19.5 125q0 105 -43.5 167t-112.5 62q-46 0 -83 -28.5t-59 -82 t-22 -128.5z" />
<glyph horiz-adv-x="367" d="M324 10l-1 -10h-282v10l111 12q10 1 13 5.5t3 11.5v437l-114 4l-1 10l138 20l7 -7v-477z" />
<glyph horiz-adv-x="459" d="M56 0l-7 23q57 47 110.5 89.5t95.5 83t66.5 81.5t24.5 86q0 54 -32 87.5t-88 33.5q-55 0 -97.5 -33.5t-70.5 -97.5l-10 4q21 71 70 112t110 41q72 0 111 -41.5t39 -102.5q0 -58 -39.5 -112.5t-106.5 -110.5t-151 -118h257q14 0 22 7.5t16 33t19 79.5l8 -1q-1 -35 -5 -72 t-12 -72h-330z" />
<glyph horiz-adv-x="457" d="M401 15q0 -48 -27 -87.5t-74 -63.5t-108 -24q-80 0 -128 31.5t-48 81.5q0 45 36 70l6 -5q-4 -7 -7.5 -19t-3.5 -26q0 -54 40 -81t107 -27q50 0 89 19t62 53t23 79q0 51 -29 83.5t-75 48t-97 15.5q-25 0 -51 -3l-2 16q115 19 176.5 66t61.5 123q0 53 -35 86.5t-93 33.5 q-61 0 -112 -38.5t-74 -103.5l-10 4q17 71 70.5 117t129.5 46q69 0 113 -39.5t44 -102.5q0 -68 -47 -116t-131 -71q85 -6 139.5 -50t54.5 -116z" />
<glyph horiz-adv-x="515" d="M24 22l329 488l22 -5v-480h100l-5 -25h-95v-150h-31v150h-308zM58 25h286v430z" />
<glyph horiz-adv-x="468" d="M420 20q0 -53 -27 -94t-73.5 -63.5t-103.5 -22.5q-77 0 -126.5 32.5t-49.5 84.5q0 48 36 76l6 -5q-5 -13 -8 -25t-3 -29q0 -52 40.5 -81t106.5 -29q76 0 122.5 41t46.5 114q0 94 -79.5 137.5t-228.5 41.5l-7 7l2 295h321q1 -36 -2.5 -76t-8.5 -69h-8q-3 53 -5.5 78 t-10.5 32.5t-26 7.5h-231l-2 -255q16 1 32 1q82 0 147 -22t102.5 -66t37.5 -111z" />
<glyph horiz-adv-x="511" d="M463 190q0 -60 -27.5 -105t-73 -70t-98.5 -25q-66 0 -112.5 32t-71 86.5t-24.5 121.5q0 124 49 213.5t131 144.5t182 72l4 -17q-83 -21 -153 -64.5t-116.5 -113t-59.5 -168.5q34 39 84.5 55t94.5 16q85 0 138 -48t53 -130zM89 228q0 -59 20 -107.5t59 -77.5t96 -29 q47 0 84.5 21.5t59.5 61t22 92.5q0 70 -43 112.5t-121 42.5q-47 0 -97.5 -19.5t-78.5 -61.5q-1 -17 -1 -35z" />
<glyph horiz-adv-x="467" d="M218 -150h-32q5 83 25.5 169.5t51.5 169t70 155.5t80 129h-300q-21 0 -32 -8t-15 -35t-7 -85h-8q-5 32 -8.5 74.5t-2.5 80.5h398l5 -26q-43 -55 -81 -128.5t-69 -156.5t-50.5 -169.5t-24.5 -169.5z" />
<glyph horiz-adv-x="492" d="M444 145q0 -45 -28 -80t-74.5 -55t-102.5 -20q-57 0 -100 20t-67 55t-24 79q0 40 22.5 76t61 64.5t87.5 44.5q-36 19 -67 42.5t-50 56t-19 77.5q0 43 23 78t62.5 56t88.5 21q77 0 120.5 -41.5t43.5 -105.5q0 -43 -20 -78t-53 -61.5t-73 -44.5q42 -22 80.5 -46t63.5 -57 t25 -81zM115 506q0 -42 20 -72t52.5 -52.5t69.5 -42.5q32 18 63 43.5t51 58t20 71.5q0 53 -36 88t-97 35q-65 0 -104 -37t-39 -92zM78 146q0 -58 45 -94.5t119 -36.5q46 0 84.5 15.5t62 43.5t23.5 68q0 46 -25.5 77t-65.5 54t-83 45q-68 -31 -114 -75t-46 -97z" />
<glyph horiz-adv-x="511" d="M48 310q0 60 27.5 105t73 70t98.5 25q67 0 113 -32t70.5 -86.5t24.5 -121.5q0 -123 -49 -213t-131 -144.5t-182 -72.5l-4 17q83 21 153 64.5t116.5 113t59.5 168.5q-34 -39 -84.5 -55t-94.5 -16q-85 0 -138 48t-53 130zM81 311q0 -70 43 -112.5t121 -42.5q47 0 97.5 19.5 t78.5 61.5q1 17 1 35q0 59 -20 107.5t-59 77.5t-96 29q-46 0 -84 -21.5t-60 -60.5t-22 -93z" />
<glyph horiz-adv-x="392" d="M336 474q0 -88 -38.5 -138.5t-101.5 -50.5q-64 0 -102 48t-38 137q0 88 39.5 137.5t103.5 49.5q59 0 98 -47t39 -136zM198 303q49 0 78.5 45.5t29.5 125.5t-30 122.5t-78 42.5q-51 0 -81.5 -44.5t-30.5 -124.5t31 -123.5t81 -43.5z" />
<glyph horiz-adv-x="277" d="M221 292h-165v7l59 7q10 1 10 10v319l-69 2v6l92 14l5 -4v-345l68 -9v-7z" />
<glyph horiz-adv-x="353" d="M63 292l-5 18q57 55 101.5 96t70 76.5t25.5 74.5q0 35 -21.5 56.5t-59.5 21.5q-40 0 -68 -22t-44 -57l-6 2q11 43 44 71t81 28q50 0 77 -27t27 -68q0 -40 -26.5 -77.5t-72 -79t-104.5 -91.5h168q15 0 22.5 10.5t17.5 53.5l7 -1q-2 -43 -11 -85h-223z" />
<glyph horiz-adv-x="357" d="M301 383q0 -40 -38 -69t-95 -29q-50 0 -81 17.5t-31 45.5q0 25 28 40l3 -3q-6 -10 -6 -23q0 -29 24 -44t64 -15q44 0 73 21.5t29 57.5q0 28 -17.5 45.5t-45 26t-58.5 8.5q-7 0 -15 -0.5t-16 -1.5l-1 9q67 11 103 36.5t36 65.5q0 29 -21.5 46.5t-56.5 17.5 q-37 0 -67.5 -20t-44.5 -55l-6 2q11 42 45 68.5t82 26.5q44 0 71.5 -22.5t27.5 -57.5q0 -39 -29.5 -65.5t-80.5 -38.5q54 -3 89 -26.5t35 -63.5z" />
<glyph horiz-adv-x="397" d="M56 390l205 267l18 -3v-262h62l-4 -18h-58v-82h-28v82h-187zM80 392h171v227z" />
<glyph horiz-adv-x="354" d="M298 385q0 -45 -38 -72.5t-93 -27.5q-49 0 -80 18.5t-31 46.5t28 43l3 -3q-6 -13 -6 -27q0 -28 24 -44t63 -16q45 0 72.5 21.5t27.5 58.5q0 50 -49 72.5t-138 21.5l-5 4l2 169h204q0 -21 -2 -44.5t-6 -40.5h-5q-3 42 -6.5 52.5t-20.5 10.5h-142l-1 -139q10 1 19 1 q77 0 128.5 -26t51.5 -79z" />
<glyph horiz-adv-x="372" d="M316 398q0 -51 -37.5 -82t-89.5 -31q-64 0 -98.5 38t-34.5 98q0 65 30.5 115t83 81t117.5 40l2 -10q-75 -17 -130.5 -63.5t-68.5 -122.5q21 18 50.5 27.5t56.5 9.5q53 0 86 -27t33 -73zM86 418q0 -49 26.5 -82t75.5 -33q41 0 69.5 25t28.5 67q0 38 -25 61.5t-71 23.5 q-27 0 -56 -11t-47 -31q-1 -10 -1 -20z" />
<glyph horiz-adv-x="358" d="M167 292h-28q4 61 24.5 123t51.5 117t67 96h-179q-19 0 -25.5 -11t-9.5 -57h-7q-3 18 -4.5 43t-0.5 47h243l3 -21q-35 -39 -64.5 -94.5t-48 -118.5t-22.5 -124z" />
<glyph horiz-adv-x="363" d="M307 373q0 -38 -38 -63t-92 -25t-87.5 24t-33.5 61q0 34 28 61.5t71 40.5q-31 16 -54.5 37.5t-23.5 57.5q0 38 33.5 64t79.5 26q48 0 75.5 -24t27.5 -61q0 -35 -25.5 -60.5t-56.5 -40.5q36 -18 66 -39.5t30 -58.5zM105 568q0 -34 27 -53.5t62 -36.5q27 15 50.5 38.5 t23.5 55.5q0 29 -21 48t-56 19q-39 0 -62.5 -20.5t-23.5 -50.5zM81 372q0 -31 27 -50t71 -19q42 0 71 17.5t29 48.5q0 25 -15.5 41.5t-39.5 28.5t-50 24q-41 -13 -67 -37.5t-26 -53.5z" />
<glyph horiz-adv-x="372" d="M56 544q0 51 37.5 82t89.5 31q64 0 98.5 -38t34.5 -98q0 -65 -30.5 -115t-83 -81t-117.5 -40l-2 10q75 17 130.5 63.5t68.5 122.5q-21 -18 -50.5 -27.5t-56.5 -9.5q-52 0 -85.5 27t-33.5 73zM86 547q0 -38 25 -61.5t71 -23.5q27 0 56 11t47 31q1 10 1 20q0 49 -26.5 82 t-75.5 33q-41 0 -69.5 -25t-28.5 -67z" />
<glyph horiz-adv-x="392" d="M336 182q0 -88 -38.5 -138.5t-101.5 -50.5q-64 0 -102 48t-38 137q0 88 39.5 137.5t103.5 49.5q59 0 98 -47t39 -136zM198 11q49 0 78.5 45.5t29.5 125.5t-30 122.5t-78 42.5q-51 0 -81.5 -44.5t-30.5 -124.5t31 -123.5t81 -43.5z" />
<glyph horiz-adv-x="277" d="M221 0h-165v7l59 7q10 1 10 10v319l-69 2v6l92 14l5 -4v-345l68 -9v-7z" />
<glyph horiz-adv-x="353" d="M63 0l-5 18q57 55 101.5 96t70 76.5t25.5 74.5q0 35 -21.5 56.5t-59.5 21.5q-40 0 -68 -22t-44 -57l-6 2q11 43 44 71t81 28q50 0 77 -27t27 -68q0 -40 -26.5 -77.5t-72 -79t-104.5 -91.5h168q15 0 22.5 10.5t17.5 53.5l7 -1q-2 -43 -11 -85h-223z" />
<glyph horiz-adv-x="357" d="M301 91q0 -40 -38 -69t-95 -29q-50 0 -81 17.5t-31 45.5q0 25 28 40l3 -3q-6 -10 -6 -23q0 -29 24 -44t64 -15q44 0 73 21.5t29 57.5q0 28 -17.5 45.5t-45 26t-58.5 8.5q-7 0 -15 -0.5t-16 -1.5l-1 9q67 11 103 36.5t36 65.5q0 29 -21.5 46.5t-56.5 17.5q-37 0 -67.5 -20 t-44.5 -55l-6 2q11 42 45 68.5t82 26.5q44 0 71.5 -22.5t27.5 -57.5q0 -39 -29.5 -65.5t-80.5 -38.5q54 -3 89 -26.5t35 -63.5z" />
<glyph horiz-adv-x="397" d="M56 98l205 267l18 -3v-262h62l-4 -18h-58v-82h-28v82h-187zM80 100h171v227z" />
<glyph horiz-adv-x="354" d="M298 93q0 -45 -38 -72.5t-93 -27.5q-49 0 -80 18.5t-31 46.5t28 43l3 -3q-6 -13 -6 -27q0 -28 24 -44t63 -16q45 0 72.5 21.5t27.5 58.5q0 50 -49 72.5t-138 21.5l-5 4l2 169h204q0 -21 -2 -44.5t-6 -40.5h-5q-3 42 -6.5 52.5t-20.5 10.5h-142l-1 -139q10 1 19 1 q77 0 128.5 -26t51.5 -79z" />
<glyph horiz-adv-x="372" d="M316 106q0 -51 -37.5 -82t-89.5 -31q-64 0 -98.5 38t-34.5 98q0 65 30.5 115t83 81t117.5 40l2 -10q-75 -17 -130.5 -63.5t-68.5 -122.5q21 18 50.5 27.5t56.5 9.5q53 0 86 -27t33 -73zM86 126q0 -49 26.5 -82t75.5 -33q41 0 69.5 25t28.5 67q0 38 -25 61.5t-71 23.5 q-27 0 -56 -11t-47 -31q-1 -10 -1 -20z" />
<glyph horiz-adv-x="358" d="M167 0h-28q4 61 24.5 123t51.5 117t67 96h-179q-19 0 -25.5 -11t-9.5 -57h-7q-3 18 -4.5 43t-0.5 47h243l3 -21q-35 -39 -64.5 -94.5t-48 -118.5t-22.5 -124z" />
<glyph horiz-adv-x="363" d="M307 81q0 -38 -38 -63t-92 -25t-87.5 24t-33.5 61q0 34 28 61.5t71 40.5q-31 16 -54.5 37.5t-23.5 57.5q0 38 33.5 64t79.5 26q48 0 75.5 -24t27.5 -61q0 -35 -25.5 -60.5t-56.5 -40.5q36 -18 66 -39.5t30 -58.5zM105 276q0 -34 27 -53.5t62 -36.5q27 15 50.5 38.5 t23.5 55.5q0 29 -21 48t-56 19q-39 0 -62.5 -20.5t-23.5 -50.5zM81 80q0 -31 27 -50t71 -19q42 0 71 17.5t29 48.5q0 25 -15.5 41.5t-39.5 28.5t-50 24q-41 -13 -67 -37.5t-26 -53.5z" />
</font>
</defs>
</svg>
