<?xml version="1.0" standalone="no"?>
<!DOCTYPE svg PUBLIC "-//W3C//DTD SVG 1.1//EN" "http://www.w3.org/Graphics/SVG/1.1/DTD/svg11.dtd" >
<svg xmlns="http://www.w3.org/2000/svg" xmlns:xlink="http://www.w3.org/1999/xlink" version="1.1">
<metadata></metadata>
<defs>
<font id="indivisa_text_sansBlkIt" horiz-adv-x="620" >
<font-face units-per-em="1000" ascent="750" descent="-250" />
<missing-glyph horiz-adv-x="250" />
<glyph unicode="&#x2f;symbol&#x31;&#x2f;" horiz-adv-x="5534" d="M1865 412q-25 0 -40.5 14.5t-15.5 37.5q0 24 15.5 45t39 34.5t48.5 13.5q24 0 39 -13.5t15 -37.5t-14.5 -45.5t-37.5 -35t-49 -13.5zM1284 412q-26 0 -41.5 14.5t-15.5 37.5q0 24 15.5 45t39.5 34.5t49 13.5q24 0 38.5 -13.5t14.5 -37.5t-14.5 -45.5t-37 -35t-48.5 -13.5 zM959 0q0 21 2.5 46.5t8.5 61.5q-16 -49 -51 -82t-79 -33q-41 0 -63 30t-22 82q0 45 15.5 91t46.5 85.5t76.5 63.5t104.5 24h12.5t12.5 -1l16 73l6 102l136 7q0 -40 -9.5 -95t-23 -116.5t-27 -123.5t-23 -117.5t-9.5 -97.5h-130zM100 0l78 364q8 38 13.5 72.5t7.5 63.5 l128 7l11 -15l-104 -492h-134zM3503 492l-57 -492h-131l20 175q3 30 9 69t12.5 78t11.5 68h-3q-16 -53 -37 -107.5t-44 -107.5l-76 -175h-149l-2 175q-1 56 1 109t8 106h-2q-15 -61 -30 -115.5t-29 -99.5l-53 -175h-109l154 500l184 6l1 -137q1 -50 -2.5 -121.5 t-12.5 -137.5h2q20 65 36 111t30.5 81t27.5 67l56 131l169 7zM5316 300q-15 -74 -23 -110.5t-11 -51t-3 -21.5q0 -34 36 -34q13 0 28 5t31 13l-9 -79q-20 -11 -50 -20t-64 -9q-50 0 -77.5 25t-27.5 75q0 11 1.5 23.5t6 33.5t12.5 57.5t20 95.5l-47 1l9 44l54 14l53 95l81 6 l13 -15l-20 -86h99l6 -14l-17 -51zM336 0q0 28 4 62t13 82t24 116l6 102l137 7q0 -18 -2 -41t-5 -48h2q29 49 65.5 69t68.5 20q35 0 53.5 -19.5t18.5 -51.5q0 -23 -8 -62.5t-18 -84.5q-7 -33 -11 -57t-5.5 -45.5t-1.5 -48.5h-131q0 38 4.5 69.5t14.5 80.5q7 35 11 55.5 t4 31.5q0 24 -17 24t-34 -22.5t-30.5 -60.5t-22 -84t-9.5 -94h-131zM1170 0q0 39 7 87.5t20 105.5l14 67l6 102l137 7q0 -36 -8 -81.5t-19 -95.5t-19 -99t-8 -93h-130zM1399 362l140 7q6 -59 4.5 -137.5t-9.5 -151.5h2q23 45 42 95t32 99t17 90q17 4 28.5 4.5t21.5 0.5 q28 0 46.5 -7t18.5 -35q0 -22 -13.5 -60.5t-36.5 -85t-53.5 -94t-63.5 -87.5h-149q-2 111 -9.5 207.5t-17.5 154.5zM1752 0q0 39 7 87.5t19 105.5l15 67l6 102l137 7q0 -36 -8 -81.5t-19 -95.5t-19 -99t-8 -93h-130zM4716 0q0 28 4 62t13 82t24 116l6 102l137 7 q0 -18 -2.5 -41t-4.5 -48h2q29 49 65 69t69 20q35 0 53.5 -19.5t18.5 -51.5q0 -23 -8 -62.5t-18 -84.5q-7 -33 -11 -57t-6 -45.5t-2 -48.5h-130q0 38 4.5 69.5t14.5 80.5q7 35 11 55.5t4 31.5q0 24 -17 24q-18 0 -34.5 -22.5t-30.5 -60.5t-22.5 -84t-9.5 -94h-130zM2245 256 q-25 14 -51.5 22t-45.5 8q-17 0 -29.5 -7t-12.5 -19q0 -13 13 -22t32 -17.5t38 -20.5t32 -30.5t13 -47.5q0 -39 -25 -68t-66.5 -45t-89.5 -16q-33 0 -66.5 7.5t-51.5 20.5l27 93q27 -18 58.5 -28t52.5 -10q20 0 30 8t10 18q0 13 -13 22t-32 18t-38 21t-32 30t-13 46 q0 39 25.5 68t67.5 45.5t90 16.5q20 0 48.5 -3.5t55.5 -14.5zM2525 369q32 0 73.5 -7.5t72.5 -24.5l-29 -128q-20 -94 -25.5 -140.5t-5.5 -68.5h-130q0 20 2.5 45t9.5 67q-15 -50 -50.5 -84.5t-81.5 -34.5q-41 0 -62.5 30t-21.5 83q0 44 15.5 90.5t46.5 85.5t77.5 63 t108.5 24zM4653 51q-32 -28 -74 -43t-85 -15q-62 0 -102 33.5t-40 103.5q0 46 17.5 88.5t49.5 76.5t75 54t94 20q53 0 86 -23t33 -65q0 -56 -59 -95.5t-162 -44.5v-1q0 -29 15 -46.5t48 -17.5q22 0 45 7.5t45 20.5zM3936 0q0 28 4 62t13.5 82t24.5 116l5 102l137 7 q0 -18 -2 -41t-5 -48h2q29 49 65.5 69t68.5 20q35 0 53.5 -19.5t18.5 -51.5q0 -23 -8 -62.5t-18 -84.5q-7 -33 -11 -57t-5.5 -45.5t-1.5 -48.5h-131q0 38 4.5 69.5t14.5 80.5q8 35 11.5 55.5t3.5 31.5q0 24 -17 24t-34 -22.5t-30.5 -60.5t-22 -84t-9.5 -94h-131zM3768 369 q32 0 73 -7.5t72 -24.5l-28 -128q-20 -94 -25.5 -140.5t-5.5 -68.5h-130q0 20 2.5 45t9.5 67q-15 -50 -50.5 -84.5t-81.5 -34.5q-41 0 -63 30t-22 83q0 44 15.5 90.5t47 85.5t78 63t108.5 24zM4490 177q46 10 72.5 33.5t26.5 59.5q0 17 -5.5 24t-16.5 7q-20 0 -36 -20 t-26 -48.5t-15 -55.5zM3677 101q17 0 33 21t30 54t22 69q2 11 4.5 22t4.5 22q-16 8 -27 8q-18 0 -34.5 -16t-29 -40.5t-20 -51.5t-7.5 -48q0 -40 24 -40zM913 101q16 0 31 19.5t28.5 50t22.5 64.5l4 20l4 20l3 14q-14 8 -27 8q-18 0 -34 -16t-28.5 -40.5t-20 -51.5t-7.5 -48 q0 -40 24 -40zM2435 101q16 0 32.5 21t30 54t21.5 69q2 11 4.5 22t4.5 22q-14 8 -27 8q-18 0 -34 -16t-29 -40.5t-20 -51.5t-7 -48q0 -40 24 -40z" />
<glyph unicode="&#x2f;symbol&#x32;&#x2f;" horiz-adv-x="932" d="M494 570l52 -90l-137 -240h-103l137 240l-52 90h103zM357 570l52 -90l-138 -240h-103l138 240l-52 90h103zM752 120h-103l-137 240l51 90l137 -240h103zM683 0h-103l-137 240l51 90l138 -240h103zM100 120l51 90h275l51 -90h-274l-52 -90zM168 0l52 90h274l52 -90h-275 l-51 -90zM789 88q18 0 30.5 -13t12.5 -31t-12.5 -31t-30.5 -13t-30.5 13t-12.5 31t12.5 31t30.5 13zM829 44q0 17 -11.5 28.5t-28.5 11.5q-16 0 -28 -11.5t-12 -28.5q0 -16 12 -28t28 -12q17 0 28.5 12t11.5 28zM771 69h18h5t6 -2q5 -4 5 -11q0 -5 -3 -8q-1 -2 -2.5 -2.5 t-3.5 -1.5q7 -1 8 -9q0 -8 3 -16h-8q-1 2 -1 6t-1 7q-1 5 -2.5 7.5t-8.5 2.5h-8v-23h-7v50zM778 47h10h3.5t3.5 1q3 3 3 7q0 6 -4 7t-6 1h-10v-16z" />
<glyph unicode="&#x2f;symbol&#x33;&#x2f;" horiz-adv-x="957" d="M505 638l68 -270h270l-203 -135l136 -270l-271 135l-270 -270l135 405l-270 203l338 -68zM814 87q18 0 30.5 -12.5t12.5 -31.5q0 -18 -12.5 -30.5t-30.5 -12.5t-30.5 12.5t-12.5 30.5q0 19 12.5 31.5t30.5 12.5zM854 43q0 17 -11.5 29t-28.5 12q-16 0 -28 -12t-12 -29 q0 -16 12 -28t28 -12q17 0 28.5 12t11.5 28zM796 68h18h5.5t5.5 -2q6 -3 6 -10q0 -5 -4 -9q-3 -3 -6 -3q7 -3 8 -10q1 -4 1.5 -7.5t1.5 -8.5h-7q-1 3 -1.5 7t-1.5 7q0 9 -10 9h-9v-23h-7v50zM803 47h10h3.5t3.5 1l2 2t1 4q0 7 -4 8t-6 1h-10v-16z" />
<glyph unicode="&#x2f;symbol&#x34;&#x2f;" horiz-adv-x="2607" d="M1684 406q0 32 -2.5 63t-8.5 65l126 14l15 -15v-533h-130v406zM1889 406q0 62 -10 128l126 14l14 -15v-533h-130v406zM427 101v-101h-320v362q0 38 -1.5 72t-5.5 63l126 7l14 -14v-396zM925 21l7 109q31 -18 72 -27t72 -9q50 0 50 36q0 19 -20.5 34t-50 31t-59.5 37 t-50.5 51t-20.5 74q0 48 26 80.5t70 49.5t97 17q81 0 127 -18l-14 -111q-28 14 -55 21.5t-56 7.5q-28 0 -43 -11t-15 -29q0 -22 20.5 -38.5t50.5 -32.5t59.5 -36.5t50 -49.5t20.5 -73q0 -67 -54 -104t-139 -37q-40 0 -82.5 8t-62.5 20zM795 0l-106 -7q-7 11 -12 24t-9 25h-4 q-15 -22 -42.5 -35.5t-61.5 -13.5q-41 0 -69 22t-28 67q0 61 53.5 88.5t137.5 29.5v20q0 54 -58 54q-55 0 -108 -29l-8 97q27 10 68.5 18t81.5 8q154 0 154 -135q0 -38 -2 -69.5t-2 -69.5q0 -24 4.5 -50.5t10.5 -43.5zM1626 0l-107 -7q-7 11 -12 24t-9 25h-3 q-15 -22 -42.5 -35.5t-62.5 -13.5q-40 0 -68 22t-28 67q0 61 53 88.5t138 29.5v20q0 54 -58 54q-54 0 -109 -29l-7 97q27 10 68.5 18t81.5 8q153 0 153 -135q0 -38 -1.5 -69.5t-1.5 -69.5q0 -24 4.5 -50.5t10.5 -43.5zM2405 213v-17t-1 -19l-11 -11h-191q8 -45 33.5 -64 t64.5 -19q24 0 45.5 6t38.5 15l7 -81q-17 -11 -49.5 -20.5t-77.5 -9.5q-88 0 -143 47t-55 135q0 58 24 101t66 67.5t94 24.5q73 0 114 -43.5t41 -111.5zM2199 207l78 4q1 5 1.5 11t0.5 15q0 23 -7.5 41t-26.5 18q-23 0 -34 -25.5t-12 -63.5zM654 74v88q-27 -3 -46 -17 t-19 -40q0 -18 10.5 -29t26.5 -11t28 9zM1485 74v88q-27 -3 -46 -17t-19 -40q0 -18 10 -29t27 -11q16 0 28 9zM2464 85q18 0 30.5 -13t12.5 -31t-12.5 -31t-30.5 -13t-31 13t-13 31t13 31t31 13zM2504 41q0 17 -11.5 28.5t-28.5 11.5q-16 0 -28 -11.5t-12 -28.5 q0 -16 12 -28t28 -12q17 0 28.5 12t11.5 28zM2446 66h18q2 0 5 -0.5t6 -2.5q5 -2 5 -10q0 -4 -3 -9q-3 -3 -6 -3q7 -1 8 -10q0 -7 3 -15h-8q-1 2 -1 6t-1 7q-1 5 -2.5 7t-8.5 2h-8v-22h-7v50zM2453 44h10h3.5t3.5 1q3 3 3 7q0 6 -4 7t-6 1h-10v-16z" />
<glyph unicode="&#x2f;symbol&#x35;&#x2f;" horiz-adv-x="705" d="M232 -6l-132 136l124 234l129 -136zM474 -6l-121 234l128 136l124 -234z" />
<glyph unicode=" "  horiz-adv-x="250" />
<glyph unicode="&#x09;" horiz-adv-x="250" />
<glyph unicode="&#xa0;" horiz-adv-x="250" />
<glyph unicode="!" horiz-adv-x="351" d="M229 232h-109q9 73 18 144t16 133t12.5 109t8.5 72l172 10l15 -20q-25 -112 -59 -224t-74 -224zM238 111q0 -30 -18 -57.5t-47 -44.5t-61 -17q-33 0 -52 18.5t-19 46.5t18.5 54.5t47.5 43.5t62 17q32 0 50.5 -16t18.5 -45z" />
<glyph unicode="&#x22;" horiz-adv-x="427" d="M290 760l4 -30l-107 -287h-59l25 317h137zM480 760l4 -30l-107 -287h-59l25 317h137z" />
<glyph unicode="#" horiz-adv-x="716" d="M167 -10l-79 15l-7 8l52 112h-112l-6 8l29 82h131l51 110h-119l-6 8l29 82h137l63 135l78 -15l7 -8l-52 -112h135l63 135l78 -15l7 -8l-52 -112h109l6 -8l-29 -82h-127l-51 -110h120l7 -8l-30 -82h-139l-62 -135l-79 15l-7 8l52 112h-135zM271 215h135l51 110h-135z" />
<glyph unicode="$" horiz-adv-x="524" d="M145 -140l-6 8l26 122q-34 1 -68.5 6t-62 13.5t-41.5 19.5l42 151q23 -17 53.5 -28t60 -16.5t50.5 -5.5q42 0 59.5 18t17.5 40q0 25 -18 47t-44.5 44.5t-53 50t-44.5 62.5t-18 82q0 58 30 104t83 76.5t123 40.5l29 132l62 3l7 -8l-27 -122q41 0 80.5 -6.5t63.5 -18.5 l-53 -155q-26 19 -59 29.5t-61 10.5q-43 0 -62.5 -19t-19.5 -46q0 -29 18 -52t44 -45.5t52 -48.5t44 -60.5t18 -81.5q0 -61 -31.5 -106t-85 -72t-117.5 -35l-28 -131z" />
<glyph unicode="%" horiz-adv-x="1033" d="M507 547q0 -66 -34 -123.5t-92.5 -92.5t-132.5 -35q-70 0 -116 37t-46 114q0 51 20.5 96.5t56 81.5t83 56.5t101.5 20.5q73 0 116.5 -40t43.5 -115zM793 700l-425 -710h-65l424 710h66zM240 434q0 -55 30 -55q21 0 36.5 20t26 50.5t15.5 62.5t5 56q0 52 -30 52 q-21 0 -37 -20t-26 -50t-15 -61.5t-5 -54.5zM977 175q0 -67 -34 -124t-92.5 -92t-132.5 -35q-70 0 -116 37t-46 114q0 51 20.5 96.5t56 81.5t83 56.5t101.5 20.5q73 0 116.5 -40t43.5 -115zM710 62q0 -55 30 -55q21 0 36.5 20t26 50.5t15.5 62.5t5 56q0 52 -30 52 q-21 0 -37 -20t-26 -50t-15 -61.5t-5 -54.5z" />
<glyph unicode="&#x26;" horiz-adv-x="800" d="M750 123q0 -49 -32 -84t-92 -49l-7 7q5 10 5 24q0 28 -23.5 51.5t-61.5 46.5q-48 -58 -116.5 -93.5t-156.5 -35.5q-63 0 -116 20t-84.5 58t-31.5 91q0 43 21.5 86t60 80t89.5 63q-16 41 -16 88q0 74 36.5 124t97.5 75t135 25q78 0 125.5 -27.5t47.5 -78.5q0 -33 -20 -59 t-51 -31q29 0 76.5 1t100 2t95.5 3l10 -5q0 -18 -3.5 -42.5t-8.5 -48.5t-10 -40q-89 8 -175 21q-4 -55 -19 -107q51 -32 87.5 -71t36.5 -94zM373 518q0 -42 24 -74t63 -58t83 -51q7 36 9 75q-50 9 -100 20v39q11 15 18.5 32t7.5 37q0 19 -9.5 35t-34.5 16t-43 -17t-18 -54z M219 212q0 -52 33 -77t79 -25q36 0 68.5 14t58.5 41q-54 29 -109.5 63.5t-96.5 81.5q-16 -24 -24.5 -50t-8.5 -48z" />
<glyph unicode="'" horiz-adv-x="237" d="M290 760l4 -30l-107 -287h-59l25 317h137z" />
<glyph unicode="(" horiz-adv-x="461" d="M75 168q0 127 52.5 240.5t145.5 203.5t212 148l45 -90q-86 -63 -146.5 -144.5t-92 -173t-31.5 -187.5q0 -82 25.5 -148t78.5 -125l-83 -90q-100 64 -153 153t-53 213z" />
<glyph unicode=")" horiz-adv-x="461" d="M399 394q0 -127 -52.5 -240t-145 -203.5t-212.5 -148.5l-45 90q86 63 146.5 144.5t92 173.5t31.5 187q0 83 -25.5 149t-78.5 124l83 90q101 -64 153.5 -153t52.5 -213z" />
<glyph unicode="*" horiz-adv-x="504" d="M220 337l-2 24l66 149l-156 -117l-35 94l22 18l158 44l-158 56l74 94l23 -6l90 -106l1 174h108l2 -24l-69 -153l159 121l35 -94l-21 -18l-158 -45l157 -55l-74 -94l-22 6l-92 107v-175h-108z" />
<glyph unicode="+" d="M541 303h-175l-38 -178h-88l37 178h-186l18 85q33 1 82.5 2t104.5 1l36 174h90l-37 -173q52 1 98.5 1h78.5l6 -8z" />
<glyph unicode="," horiz-adv-x="298" d="M-50 -148q29 27 61.5 63.5t52.5 76.5q-25 5 -41 24t-16 47q0 33 19.5 63t50 48.5t63.5 18.5q34 0 57.5 -19t23.5 -59q0 -41 -22.5 -85t-58 -86.5t-75.5 -78.5t-74 -60z" />
<glyph unicode="-" horiz-adv-x="416" d="M37 251l4 50h350l-5 -50h-349z" />
<glyph unicode="." horiz-adv-x="302" d="M227 124q0 -34 -20 -64.5t-52 -50t-68 -19.5q-37 0 -58 20.5t-21 50.5q0 33 21 63t54 49.5t69 19.5q34 0 54.5 -18.5t20.5 -50.5z" />
<glyph unicode="/" horiz-adv-x="366" d="M436 745l6 -8l-346 -747l-79 15l-6 8l346 747z" />
<glyph unicode="0" horiz-adv-x="687" d="M664 448q0 -90 -30.5 -172.5t-84 -147t-123 -101.5t-148.5 -37q-96 0 -156 61.5t-60 186.5q0 90 31 172.5t85 148t124.5 103.5t148.5 38q99 0 156 -65t57 -187zM243 218q0 -118 64 -118q31 0 58.5 24t49.5 64.5t37.5 89.5t24 100t8.5 96q0 60 -15.5 88t-47.5 28 t-59.5 -24t-49.5 -64t-37.5 -89t-24 -99.5t-8.5 -95.5z" />
<glyph unicode="1" horiz-adv-x="404" d="M194 519h-3l-97 -10l-1 110l297 80l15 -20l-144 -679h-180l82 384q8 35 15.5 71t15.5 64z" />
<glyph unicode="2" horiz-adv-x="532" d="M1 0l7 125q30 17 74 46.5t91.5 68t89.5 82t68 88t26 85.5q0 33 -19 54t-56 21q-34 0 -81.5 -18.5t-94.5 -48.5l13 142q28 13 66.5 25.5t82 21t85.5 8.5q91 0 145 -41.5t54 -109.5q0 -46 -23 -93.5t-61.5 -92.5t-86.5 -86.5t-100 -76.5t-100 -60h118q41 0 81.5 2.5 t80.5 7.5l-42 -150h-418z" />
<glyph unicode="3" horiz-adv-x="537" d="M126 647q29 14 67 26t79.5 19.5t79.5 7.5q82 0 131 -35.5t49 -91.5q0 -42 -24.5 -82t-65.5 -70.5t-90 -45.5q68 -11 105 -49t37 -96q0 -49 -26 -92.5t-73 -77t-109.5 -52t-134.5 -18.5q-39 0 -84.5 6t-81.5 17l42 120q18 -7 44 -12t53 -8t46 -3q60 0 98 27.5t38 67.5 q0 38 -35 52t-91 14q-19 0 -42 -1.5t-47 -5.5l26 120q66 6 115.5 25.5t77 48t27.5 60.5q0 52 -67 52q-33 0 -77.5 -12.5t-85.5 -32.5z" />
<glyph unicode="4" horiz-adv-x="597" d="M7 264l361 424l200 11l16 -20l-84 -397q42 3 81 8l-40 -139h-69l-32 -151h-170l32 151h-299zM156 281v-3q20 0 41.5 0.5t52.5 1t80 0.5l20 95q11 49 22 98.5t26 94.5h-3z" />
<glyph unicode="5" horiz-adv-x="581" d="M16 13l43 125q22 -8 58 -15.5t72 -7.5q71 0 111 31.5t40 79.5q0 44 -31 61.5t-73 17.5q-34 0 -65.5 -8.5t-55.5 -19.5l-22 15l85 398h259q40 0 81.5 2.5t80.5 7.5l-42 -150h-264l-27 -129q19 4 43 6.5t45 2.5q77 0 126.5 -38.5t49.5 -120.5q0 -77 -45 -141t-126 -102 t-189 -38q-85 0 -154 23z" />
<glyph unicode="6" horiz-adv-x="607" d="M254 -10q-60 0 -107.5 22.5t-75 71.5t-27.5 128q0 75 25 146.5t70 133.5t105 108.5t131.5 73t148.5 26.5q25 0 48 -2.5t33 -7.5l-43 -131q-13 5 -32 8t-37 3q-41 0 -86 -19.5t-83 -59.5t-61 -100h3q25 11 58.5 17.5t67.5 6.5q77 0 121 -37.5t44 -113.5 q0 -55 -23.5 -104.5t-65 -88t-96.5 -60t-118 -21.5zM312 305q-19 0 -40 -6.5t-35 -17.5q-8 -39 -12.5 -68t-4.5 -51q0 -33 11.5 -47.5t35.5 -14.5q30 0 53 19.5t35.5 50.5t12.5 66q0 69 -56 69z" />
<glyph unicode="7" horiz-adv-x="525" d="M87 530l47 160h455l17 -20l-21 -100q-148 -124 -236.5 -263t-129.5 -307h-185q30 108 88.5 210t135.5 189t159 148l1 3h-116q-58 0 -112.5 -4.5t-102.5 -15.5z" />
<glyph unicode="8" horiz-adv-x="622" d="M237 -10q-104 0 -162.5 43.5t-58.5 110.5q0 47 26 89.5t70.5 74.5t99.5 47l1 3q-34 23 -63 55t-29 82q0 56 38.5 102.5t104 74.5t144.5 28q69 0 112 -20.5t63 -52.5t20 -67q0 -56 -45 -107t-113 -83l-1 -3q29 -14 56 -34t44 -48t17 -68q0 -47 -25.5 -88t-70.5 -72.5 t-103.5 -49t-124.5 -17.5zM379 600q-37 0 -63.5 -25t-26.5 -60q0 -28 19 -50t49 -38q36 26 58 59.5t22 61.5q0 24 -16 38t-42 14zM295 284q-48 -19 -77.5 -55t-29.5 -73q0 -29 21 -47.5t58 -18.5q50 0 84 29t34 69q0 30 -23.5 54t-66.5 42z" />
<glyph unicode="9" horiz-adv-x="600" d="M252 258q-79 0 -125.5 39t-46.5 112q0 60 24 113t66 93t98 62.5t119 22.5q60 0 107 -22t74.5 -67.5t27.5 -117.5q0 -80 -25 -154t-69 -137.5t-103.5 -111t-129 -74t-143.5 -26.5q-19 0 -39 2t-37 6l25 128q35 -6 67 -6q89 0 144.5 42.5t88.5 122.5h-3 q-22 -12 -53.5 -19.5t-66.5 -7.5zM362 580q-24 0 -45.5 -20t-34.5 -53t-13 -72q0 -68 61 -68q32 0 67 15q15 75 15 118t-12.5 61.5t-37.5 18.5z" />
<glyph unicode=":" horiz-adv-x="303" d="M295 441q0 -34 -20 -64.5t-52 -50t-68 -19.5q-37 0 -58 20.5t-21 50.5q0 33 21 63.5t54 49.5t69 19q34 0 54.5 -18.5t20.5 -50.5zM227 124q0 -34 -20 -64.5t-52 -50t-68 -19.5q-37 0 -58 20.5t-21 50.5q0 33 21 63t54 49.5t69 19.5q34 0 54.5 -18.5t20.5 -50.5z" />
<glyph unicode=";" horiz-adv-x="298" d="M291 441q0 -34 -20 -64.5t-52 -50t-68 -19.5q-37 0 -58 20.5t-21 50.5q0 33 21 63.5t54 49.5t69 19q34 0 54.5 -18.5t20.5 -50.5zM-50 -148q29 27 61.5 63.5t52.5 76.5q-25 5 -41 24t-16 47q0 33 19.5 63t50 48.5t63.5 18.5q34 0 57.5 -19t23.5 -59q0 -41 -22.5 -85 t-58 -86.5t-75.5 -78.5t-74 -60z" />
<glyph unicode="&#x3c;" d="M563 593l-20 -95l-353 -156l286 -152l-20 -95q-28 12 -69 32.5t-88.5 44.5t-94.5 49t-87 47t-66 37l-2 11l15 69z" />
<glyph unicode="=" d="M563 404h-450l18 85q31 1 76 1.5t97 1.5t104.5 1.5t98 0.5h77.5l6 -8zM520 204h-450l18 85q31 1 76 1.5t97 1.5t104.5 1.5t98 0.5h77.5l6 -8z" />
<glyph unicode="&#x3e;" d="M57 95l20 95l353 156l-286 152l20 95q28 -12 69 -32.5t88.5 -44.5t94.5 -49t87 -47t66 -37l2 -11l-15 -69z" />
<glyph unicode="?" horiz-adv-x="527" d="M262 226l-102 -5q-3 9 -5 19.5t-2 21.5q0 39 20 67t50 50.5t59.5 43.5t49.5 44t20 54q0 23 -17 37t-48 14q-32 0 -74 -17.5t-76 -49.5l-42 96q44 40 108 69.5t149 29.5q94 0 143.5 -38.5t49.5 -97.5q0 -52 -25.5 -91t-63 -68t-76 -51t-66.5 -41t-33 -37q-2 -8 -4.5 -20.5 t-4.5 -21.5zM287 111q0 -30 -18 -57.5t-47 -44.5t-61 -17q-33 0 -52 18.5t-19 46.5t18.5 54.5t47.5 43.5t62 17q32 0 50.5 -16t18.5 -45z" />
<glyph unicode="@" horiz-adv-x="1122" d="M800 -160q-51 -41 -129.5 -70.5t-174.5 -29.5t-176.5 32t-139 90t-91 138.5t-32.5 177.5t32 185t88.5 160.5t131.5 125.5t162 82t178 29q96 0 174 -31t134.5 -86.5t87 -129t30.5 -157.5q0 -76 -24 -142t-66.5 -116.5t-98 -79t-119.5 -28.5q-52 0 -86.5 18t-52.5 46.5 t-22 61t3 60.5h-5q-8 -30 -26 -62.5t-43 -60.5t-55.5 -45.5t-65.5 -17.5q-55 0 -86.5 45.5t-31.5 115.5q0 58 22.5 120.5t66 116.5t108.5 88t150 34q50 0 103 -12t94 -32l-39 -178q-9 -39 -16 -78t-6.5 -71t13 -51t42.5 -19t62.5 20.5t60.5 58t45.5 89.5t17.5 116 q0 79 -28 144.5t-78.5 113t-117.5 73.5t-146 26q-76 0 -152.5 -24.5t-146 -70.5t-123.5 -110.5t-85 -145t-31 -174.5q0 -85 28 -157t80 -125.5t125 -83t163 -29.5q91 0 156 26t117 56zM514 140q23 0 46 30t42.5 77.5t29.5 97.5l12 59q-13 6 -27 6q-28 0 -52.5 -22t-43.5 -56 t-29.5 -71t-10.5 -66q0 -55 33 -55z" />
<glyph unicode="A" horiz-adv-x="690" d="M147 0h-175l289 580q16 31 29 59.5t21 50.5l226 9l25 -25l50 -674h-185l-8 130h-209zM294 305l-22 -45h140l-3 44q-4 85 -4.5 144.5t0.5 93.5h-5q-9 -22 -25 -59.5t-37 -83.5t-44 -94z" />
<glyph unicode="B" horiz-adv-x="651" d="M305 0h-278l109 511q10 45 17.5 88.5t10.5 90.5h293q95 0 145 -41.5t50 -109.5q0 -60 -37.5 -107t-100.5 -72q48 -18 73 -49.5t25 -81.5q0 -52 -25.5 -94.5t-69 -72.5t-98.5 -46t-114 -16zM398 565h-70l-34 -162h70q50 0 76.5 31t26.5 69q0 62 -69 62zM349 291h-79 l-35 -166h79q52 0 83.5 29.5t31.5 71.5q0 65 -80 65z" />
<glyph unicode="C" horiz-adv-x="587" d="M526 178l-11 -148q-45 -20 -95 -30t-100 -10q-131 0 -200.5 66.5t-69.5 196.5q0 88 30 168.5t85 143t129 99t161 36.5q50 0 97.5 -11.5t72.5 -28.5l-68 -155q-28 21 -64.5 33t-67.5 12q-43 0 -77 -23.5t-56.5 -62.5t-34.5 -84.5t-12 -90.5q0 -149 130 -149q38 0 78.5 11 t72.5 27z" />
<glyph unicode="D" horiz-adv-x="724" d="M712 427q0 -84 -28.5 -160.5t-84.5 -136.5t-139.5 -95t-193.5 -35h-238l108 511q12 56 19 94.5t9 84.5h268q136 0 208 -64t72 -199zM386 560h-55l-90 -430h68q57 0 97 25.5t65 67t36.5 90t11.5 94.5q0 57 -14.5 88.5t-36 45t-44 16.5t-38.5 3z" />
<glyph unicode="E" horiz-adv-x="581" d="M522 140l-29 -140h-465l108 511q10 45 18 88.5t10 90.5h449l16 -20l-29 -120l-269 10l-34 -161l222 5l-32 -127l-214 7l-33 -154z" />
<glyph unicode="F" horiz-adv-x="540" d="M213 0h-185l108 511q10 45 18 88.5t10 90.5h429l16 -20l-29 -120l-249 10l-38 -181l201 5l-32 -127l-193 7z" />
<glyph unicode="G" horiz-adv-x="668" d="M610 333l16 -20l-63 -283q-49 -17 -107.5 -28.5t-120.5 -11.5q-143 0 -215.5 65t-72.5 189q0 89 35 171t97 146t145 101.5t179 37.5q54 0 103.5 -11.5t81.5 -28.5l-63 -155q-29 23 -65.5 36.5t-78.5 13.5q-55 0 -99.5 -24t-75.5 -64t-47.5 -90t-16.5 -101 q0 -146 140 -146q14 0 31 1q8 41 12.5 68t7.5 54.5t6 69.5z" />
<glyph unicode="H" horiz-adv-x="736" d="M213 0h-185l107 503q11 52 18.5 99.5t10.5 87.5l177 10l16 -20l-58 -273h216l20 96q11 52 18.5 99.5t10.5 87.5l177 10l16 -20l-144 -680h-185l59 277h-215z" />
<glyph unicode="I" horiz-adv-x="336" d="M213 0h-185l107 503q11 52 18.5 99.5t10.5 87.5l177 10l16 -20z" />
<glyph unicode="J" horiz-adv-x="335" d="M-37 -202l-38 62q51 57 82 124.5t50 155.5l77 363q8 37 14.5 80.5t8.5 97.5l185 19l15 -19l-115 -541q-14 -65 -33.5 -115.5t-50.5 -90t-78.5 -73t-116.5 -63.5z" />
<glyph unicode="K" horiz-adv-x="670" d="M134 503q10 47 18 92t12 95l177 10l16 -20l-63 -297h60q30 45 64.5 98.5t70.5 110t68 108.5l173 -10l6 -19l-238 -308l119 -363l-215 -5q-21 59 -40.5 126t-35.5 132h-60l-54 -253h-185z" />
<glyph unicode="L" horiz-adv-x="531" d="M502 140l-29 -140h-445l107 503q11 52 18.5 99.5t10.5 87.5l177 10l16 -20l-116 -550z" />
<glyph unicode="M" horiz-adv-x="932" d="M887 700l21 -20l-79 -680h-181l28 242q5 42 13 95.5t17 107t15 94.5h-3q-23 -74 -51.5 -148.5t-60.5 -148.5l-105 -242h-206l-3 242q-1 77 1.5 150t11.5 147h-3q-21 -85 -41.5 -160t-39.5 -137l-74 -242h-150l212 690l254 8l2 -188q1 -46 -1 -106.5t-7 -125.5t-13 -126h3 q28 90 50 153.5t41.5 111.5t38.5 93l77 180z" />
<glyph unicode="N" horiz-adv-x="731" d="M441 441q34 -98 53 -208h3q4 43 7.5 75.5t9.5 65t14 72.5q14 67 24.5 128t16.5 116l167 8l16 -20l-144 -678h-175q-29 75 -50 138t-41 115q-18 50 -32 98.5t-25 97.5h-3q-3 -62 -10.5 -111t-17.5 -95l-51 -243h-175l108 511q10 45 17.5 92t10.5 87l187 7 q27 -79 48.5 -140.5t41.5 -115.5z" />
<glyph unicode="O" horiz-adv-x="705" d="M695 437q0 -85 -29 -164.5t-82.5 -143.5t-127 -101.5t-162.5 -37.5q-115 0 -179.5 68t-64.5 195q0 85 29 165t81.5 143.5t126 101t161.5 37.5q116 0 181.5 -68t65.5 -195zM240 250q0 -58 19 -91.5t64 -33.5t79 30.5t57 78.5t34.5 102.5t11.5 103.5q0 59 -19 92t-64 33 t-79 -30.5t-57 -78.5t-34.5 -102.5t-11.5 -103.5z" />
<glyph unicode="P" horiz-adv-x="617" d="M213 0h-185l108 511q12 56 19 94.5t9 84.5h262q106 0 162.5 -48.5t56.5 -138.5q0 -63 -26.5 -116.5t-73.5 -94t-108.5 -63t-131.5 -22.5h-48zM360 565h-27l-50 -233h23q74 0 111 43t37 104q0 41 -20 63.5t-74 22.5z" />
<glyph unicode="Q" horiz-adv-x="700" d="M793 -89q0 -60 -51.5 -93t-129.5 -33q-45 0 -98 12t-105.5 37.5t-97 65.5t-71.5 96q-84 18 -137 85.5t-53 180.5q0 84 30.5 162.5t84 140.5t125.5 98.5t154 36.5q117 0 181 -75t64 -203q0 -82 -25 -153.5t-69.5 -127.5t-102.5 -93.5t-123 -50.5q54 -28 117.5 -45.5 t122.5 -17.5q56 0 101.5 12.5t64.5 20.5q8 -10 13 -23t5 -33zM317 125q45 0 79 30.5t57 78.5t34.5 102.5t11.5 103.5q0 59 -19 92t-64 33t-79 -30.5t-57 -78.5t-34.5 -102.5t-11.5 -103.5q0 -58 19 -91.5t64 -33.5z" />
<glyph unicode="R" horiz-adv-x="650" d="M212 0h-185l109 511q10 45 17.5 88.5t10.5 90.5h234q249 0 249 -176q0 -72 -41.5 -135.5t-119.5 -98.5l91 -280l-214 -11q-15 56 -27 116.5t-20 121.5h-56zM362 565h-30l-46 -218h24q72 0 109 40t37 98q0 39 -20.5 59.5t-73.5 20.5z" />
<glyph unicode="S" horiz-adv-x="559" d="M508 219q0 -65 -40 -117t-111 -82t-166 -30q-38 0 -77 5t-70.5 14t-46.5 20l42 151q22 -15 55 -26.5t67 -17.5t59 -6q44 0 68 18t24 48q0 29 -19.5 48.5t-46.5 35t-52 29.5q-40 24 -71.5 61t-31.5 98q0 68 42.5 120t117 82t169.5 30q48 0 91 -7t68 -18l-53 -155 q-30 19 -67 29.5t-72 10.5q-45 0 -72.5 -18.5t-27.5 -50.5q0 -25 16.5 -42t43 -31.5t55.5 -33.5q26 -16 50 -38t40 -53t16 -74z" />
<glyph unicode="T" horiz-adv-x="575" d="M327 0h-185l117 554q-47 -1 -95 -3t-96 -5l40 144h545l-20 -144q-47 3 -94.5 5t-94.5 3z" />
<glyph unicode="U" horiz-adv-x="711" d="M67 170q0 37 11.5 95t27.5 129t31 147t22 149l177 10l16 -20q-26 -123 -43.5 -203.5t-27.5 -128.5t-15.5 -74t-7 -38.5t-1.5 -21.5q0 -85 84 -85q103 0 131 127q23 109 38 179.5t23.5 113.5t12.5 67.5t5.5 40.5t2.5 33l187 8l-97 -458q-17 -82 -68 -138t-122 -84 t-150 -28q-70 0 -123.5 21.5t-83.5 62t-30 96.5z" />
<glyph unicode="V" horiz-adv-x="646" d="M168 0l-71 681l202 19l21 -332q2 -35 3 -72.5t1 -70.5t-2 -53q13 32 31 72t36 76l189 380l146 -10l6 -19l-357 -671h-205z" />
<glyph unicode="W" horiz-adv-x="965" d="M124 0l-27 681l202 19l-4 -344q0 -46 -3 -96.5t-4 -82.5q12 30 32 78t37 89l149 346l180 10l-1 -344q0 -46 -0.5 -96.5t-0.5 -82.5q14 38 24 65t20 51.5t22 54.5l147 352l146 -10l6 -19l-313 -671h-205l-6 223q-1 54 0.5 108.5t0.5 108.5h-3q-20 -50 -35 -85t-28.5 -66 t-31.5 -69l-99 -220h-205z" />
<glyph unicode="X" horiz-adv-x="610" d="M-37 0l-7 20l250 305l-109 360l202 15l64 -258h3l165 258l156 -12l7 -20l-252 -332l110 -336h-206l-61 219h-2l-159 -219h-161z" />
<glyph unicode="Y" horiz-adv-x="589" d="M195 216l-98 465l202 19l21 -202q4 -38 7.5 -82t4.5 -70h3q10 18 24 44.5t29.5 55t27.5 51.5l105 203l146 -10l6 -19l-293 -455l-46 -216h-185z" />
<glyph unicode="Z" horiz-adv-x="539" d="M-13 0l-5 120l389 418l-287 -8l44 160h447l22 -120l-385 -418l291 8l-44 -160h-472z" />
<glyph unicode="[" horiz-adv-x="445" d="M53 -64h1l146 690v0l29 134h274l-29 -134h-104l-146 -690h103l-28 -134h-274z" />
<glyph unicode="\" horiz-adv-x="397" d="M192 -10l-28 747l10 8l85 15l28 -747l-10 -8z" />
<glyph unicode="]" horiz-adv-x="445" d="M229 -198h-274l29 134h104l146 690h-103l28 134h274l-28 -134h-1l-146 -690v0z" />
<glyph unicode="^" horiz-adv-x="466" d="M136 210h-95l222 340h66l78 -340h-95l-45 208z" />
<glyph unicode="_" horiz-adv-x="470" d="M-104 -240l10 50h470l-10 -50h-470z" />
<glyph unicode="`" horiz-adv-x="276" d="M268 566q-39 37 -69 79t-51 91l16 30l162 8q0 -51 3.5 -100t10.5 -98z" />
<glyph unicode="a" horiz-adv-x="580" d="M25 146q0 61 21.5 125t64.5 118t107.5 87.5t149.5 33.5q29 0 65 -4.5t71.5 -14t64.5 -25.5l-39 -178q-19 -87 -28 -143.5t-12 -90.5t-3 -54h-180q0 28 3.5 62.5t13.5 92.5q-14 -47 -41 -84t-63 -59t-78 -22q-57 0 -87 41.5t-30 114.5zM210 195q0 -55 33 -55q23 0 45.5 29 t41 74t30.5 95q5 29 12 61q-21 11 -37 11q-25 0 -47.5 -22t-40 -56t-27.5 -71t-10 -66z" />
<glyph unicode="b" horiz-adv-x="582" d="M138 609l8 141l189 10q0 -49 -10.5 -114.5t-26 -139t-32.5 -149.5q23 65 70.5 109t107.5 44q57 0 87 -41t30 -114q0 -61 -22 -125.5t-64.5 -118.5t-105 -87.5t-144.5 -33.5q-46 0 -99 9.5t-97 33.5q0 20 5 58t18 107.5t37 181.5zM225 156v0q-5 -30 -9 -56q20 -10 35 -10 q25 0 47.5 22t40 56t27.5 71t10 66q0 55 -33 55q-23 0 -46.5 -29.5t-42.5 -76t-29 -98.5z" />
<glyph unicode="c" horiz-adv-x="487" d="M430 143l19 -73q-44 -38 -103 -59t-122 -21q-85 0 -139 47t-54 144q0 62 23.5 121t67.5 106t104.5 74.5t135.5 27.5q38 0 75.5 -8t67.5 -25l-45 -144q-31 32 -63.5 47t-59.5 15q-38 0 -65.5 -27.5t-41.5 -69.5t-14 -87q0 -50 20.5 -78t68.5 -28q30 0 62 10.5t63 27.5z " />
<glyph unicode="d" horiz-adv-x="580" d="M487 0h-180q0 29 3.5 64t11.5 85q-14 -45 -41 -81t-62.5 -57t-76.5 -21q-57 0 -87 41t-30 114q0 62 22 126t64.5 118t105 87.5t144.5 33.5q17 0 34 -2l22 101l8 141l189 10q0 -56 -13 -131.5t-31.5 -161t-37.5 -171t-32 -162t-13 -134.5zM210 195q0 -55 33 -55 q21 0 43 26.5t40 68.5t30 90q6 25 12 55l4 19q-21 11 -37 11q-25 0 -47.5 -22t-40 -56t-27.5 -71t-10 -66z" />
<glyph unicode="e" horiz-adv-x="515" d="M427 143l19 -73q-44 -38 -102.5 -59t-117.5 -21q-85 0 -140 46.5t-55 143.5q0 63 24 122t68 106t103.5 74.5t129.5 27.5q74 0 119.5 -32t45.5 -90q0 -52 -37 -94t-105.5 -68.5t-162.5 -30.5v-1q0 -40 20.5 -64.5t65.5 -24.5q30 0 62 10.5t63 27.5zM327 415 q-29 0 -50.5 -27.5t-35.5 -67t-20 -76.5q63 15 100 47t37 82q0 23 -8.5 32.5t-22.5 9.5z" />
<glyph unicode="f" horiz-adv-x="403" d="M-15 -260l-57 60q41 62 63 119.5t37 130.5l73 345v0l-69 5l13 60l74 20q3 19 5.5 35.5t5.5 31.5q23 104 98.5 158.5t185.5 54.5q44 0 81.5 -10t58.5 -24l-63 -131q-22 14 -47 24.5t-53 10.5q-65 0 -81 -69q-5 -27 -8 -46.5t-6 -34.5h123l8 -18l-20 -72l-126 4l-61 -286 q-19 -91 -44.5 -158.5t-70 -118t-120.5 -91.5z" />
<glyph unicode="g" horiz-adv-x="533" d="M154 -260q-107 0 -167.5 36.5t-60.5 87.5q0 41 38 69.5t90 43.5l34 -31q-1 -6 -1.5 -11.5t-0.5 -12.5q0 -46 27.5 -74t74.5 -28q36 0 61 16t25 40q0 27 -29 44t-64 34t-60.5 36t-25.5 48q0 23 15 40.5t37.5 30t47 18.5t43.5 6v3h-15t-15 1q-68 6 -115 47.5t-47 116.5 q0 51 22.5 90t60.5 65.5t84.5 40t94.5 13.5q67 0 109.5 0.5t73 3.5t60.5 9q16 -15 16 -38q0 -12 -5 -27t-18.5 -26.5t-37.5 -11.5q-25 0 -46 11t-43 18l-1 -3q34 -18 55.5 -46.5t21.5 -75.5q0 -50 -23.5 -85t-57.5 -58.5t-68.5 -39t-58 -27.5t-23.5 -24q0 -8 13 -16.5 t41 -22.5q18 -9 41.5 -22t45.5 -30.5t36.5 -40.5t14.5 -53q0 -49 -41 -86t-109 -58t-150 -21zM326 358q0 29 -7.5 48t-27.5 19q-23 0 -40.5 -24t-27.5 -58t-10 -65t9.5 -52.5t30.5 -21.5q23 0 39.5 24.5t25 60.5t8.5 69z" />
<glyph unicode="h" horiz-adv-x="591" d="M208 0h-180q0 36 5.5 82.5t19 117.5t36.5 180l49 229l8 141l189 10q0 -74 -19.5 -172t-43.5 -202h3q40 66 91 95t96 29q47 0 72 -27.5t25 -77.5q0 -12 -2 -27.5t-7 -41t-14.5 -70t-24.5 -115.5q-13 -59 -13 -151h-180q0 47 6.5 94t15 89.5t14.5 73.5q7 33 9 46.5t2 21.5 q0 16 -5.5 25.5t-18.5 9.5q-24 0 -47 -31t-42 -83t-31 -116t-13 -130z" />
<glyph unicode="i" horiz-adv-x="301" d="M335 696q0 -33 -20 -63.5t-52 -49.5t-68 -19q-37 0 -58 20.5t-21 51.5t20.5 60.5t53 48.5t69.5 19q35 0 55.5 -18t20.5 -50zM208 0h-180q0 54 10 121t27 146l20 92l8 141l189 10q0 -50 -11 -113t-26 -132t-26 -137t-11 -128z" />
<glyph unicode="j" horiz-adv-x="288" d="M319 696q0 -33 -20 -63.5t-52 -49.5t-68 -19q-37 0 -58 20.5t-21 51.5t20.5 60.5t53 48.5t69.5 19q35 0 55.5 -18t20.5 -50zM-31 -260l-57 60q41 62 63 119.5t37 130.5l65 309l8 141l189 10q0 -31 -7 -79t-17.5 -103.5t-22.5 -112.5t-23 -107q-19 -91 -44.5 -158.5 t-70 -118t-120.5 -91.5z" />
<glyph unicode="k" horiz-adv-x="586" d="M582 411q0 -39 -21.5 -74.5t-53.5 -63t-64 -44.5q23 -57 50.5 -115t64.5 -114h-223q-18 41 -33.5 89.5t-23.5 99.5q70 61 97 104t27 71q0 31 -26 31t-54.5 -34t-54 -91t-41.5 -127t-18 -143h-180q0 36 5.5 82.5t19 117.5t36.5 180l49 229l8 141l189 10q0 -47 -9.5 -108 t-24 -130.5t-30.5 -140.5h3q41 65 92 97t105 32q53 0 82 -28t29 -71z" />
<glyph unicode="l" horiz-adv-x="298" d="M208 0h-180q0 36 5.5 82.5t19 117.5t36.5 180l49 229l8 141l189 10q0 -56 -13 -131.5t-31.5 -161t-37.5 -171t-32 -162t-13 -134.5z" />
<glyph unicode="m" horiz-adv-x="881" d="M275 386q40 68 90 96t95 28q52 0 77.5 -33t20.5 -91h3q41 68 92 96t96 28q61 0 85.5 -43t8.5 -117l-42 -199q-13 -59 -13 -151h-180q0 38 4.5 77t14 89t23.5 121q6 29 3.5 51t-22.5 22q-21 0 -43 -24t-40.5 -66.5t-31.5 -98t-17 -118.5q-1 -24 -1 -53h-180q0 38 4.5 77 t14 89t23.5 121q6 29 3.5 51t-22.5 22q-24 0 -47 -31t-42 -83t-31 -116t-13 -130h-180q0 38 5.5 85t18 113.5t33.5 160.5l8 141l189 10q0 -25 -3 -57t-7 -67h3z" />
<glyph unicode="n" horiz-adv-x="591" d="M208 0h-180q0 38 5.5 85t18 113.5t33.5 160.5l8 141l189 10q0 -25 -3 -57t-7 -67h3q40 68 90 96t95 28q48 0 73.5 -27t25.5 -71q0 -33 -11 -87t-25 -117q-9 -45 -14.5 -78t-8 -63t-2.5 -67h-180q0 35 3 65t8.5 63.5t14.5 78.5q10 49 15.5 76.5t5.5 43.5q0 14 -5.5 23.5 t-18.5 9.5q-24 0 -47 -31t-42 -83t-31 -116t-13 -130z" />
<glyph unicode="o" horiz-adv-x="571" d="M543 316q0 -64 -24 -122.5t-67 -104.5t-101 -72.5t-126 -26.5q-85 0 -139.5 46.5t-54.5 143.5q0 63 24.5 122t68 106t101.5 74.5t126 27.5q89 0 140.5 -50t51.5 -144zM216 161q0 -34 8.5 -52.5t28.5 -18.5q26 0 46 26.5t33 67t19.5 83t6.5 73.5q0 70 -37 70 q-27 0 -46.5 -26t-32.5 -66t-19.5 -82.5t-6.5 -74.5z" />
<glyph unicode="p" horiz-adv-x="577" d="M213 -10q-15 0 -30 1q-14 -69 -23.5 -131t-9.5 -110h-180q0 30 3.5 67t12.5 89t25 128h-1l1 1q9 42 20 95l49 229l8 141l189 10q0 -30 -4 -67t-11 -78q15 40 41.5 73t60 52.5t71.5 19.5q57 0 88 -45.5t31 -121.5q0 -62 -21.5 -124.5t-64.5 -114t-106.5 -83t-148.5 -31.5z M336 360q-20 0 -40.5 -23.5t-38.5 -61.5t-30 -83q-5 -23 -10 -45.5t-10 -45.5q20 -11 37 -11q25 0 47.5 22t40 56t27.5 71t10 66q0 55 -33 55z" />
<glyph unicode="q" horiz-adv-x="580" d="M146 -10q-57 0 -88 45.5t-31 121.5q0 62 21.5 124.5t64.5 114t106.5 83t148.5 31.5q45 0 102.5 -10.5t100.5 -33.5l-92 -418q-19 -90 -28 -148.5t-12 -93.5t-3 -56h-180q0 45 9 105.5t23 130.5t29 143q-24 -58 -70 -98.5t-101 -40.5zM212 195q0 -55 33 -55q22 0 43.5 27 t40 70t30.5 91l15 71q-21 11 -37 11q-25 0 -47.5 -22t-40 -56t-27.5 -71t-10 -66z" />
<glyph unicode="r" horiz-adv-x="430" d="M208 0h-180q0 54 10 121t27 146l20 92l8 141l189 10q0 -38 -7 -84.5t-17 -96.5h3q35 103 75 142t75 39q23 0 42.5 -11.5t28.5 -25.5l-85 -166q-16 6 -31.5 8.5t-26.5 2.5q-65 0 -94.5 -83t-36.5 -235z" />
<glyph unicode="s" horiz-adv-x="447" d="M449 485l-38 -132q-34 20 -70.5 31t-62.5 11q-25 0 -41.5 -9.5t-16.5 -26.5q0 -18 18 -30t44 -24t52 -28.5t44 -42t18 -65.5q0 -55 -35 -95t-91.5 -62t-123.5 -22q-46 0 -92 10.5t-71 28.5l37 129q38 -25 81.5 -39t72.5 -14q27 0 41 10.5t14 25.5q0 17 -18 29.5t-44 25 t-52 29t-44 41.5t-18 64q0 53 35.5 93.5t93 63.5t123.5 23q29 0 68 -5.5t76 -19.5z" />
<glyph unicode="t" horiz-adv-x="400" d="M415 410l-140 4q-16 -77 -26 -123.5t-15.5 -72t-7.5 -37.5t-2 -20q0 -23 13.5 -34.5t36.5 -11.5q18 0 39 6.5t43 17.5l-13 -108q-28 -16 -69 -28.5t-88 -12.5q-70 0 -107.5 34.5t-37.5 104.5q0 15 2 32t8 46t17 79.5t28 131.5l-65 2l13 60l74 20l73 131l112 8l18 -21 l-28 -118h137l8 -20z" />
<glyph unicode="u" horiz-adv-x="577" d="M36 150l44 209l8 141l189 10q0 -46 -9 -99t-20.5 -104.5t-18.5 -93.5q-4 -28 -3 -50.5t21 -22.5q21 0 41 26.5t37 71.5t28 100q5 31 9 56.5t6 48.5q3 29 3 57l190 10q-4 -36 -8.5 -67t-11.5 -68.5t-17.5 -90.5t-26.5 -133q-7 -32 -10 -66.5t-3 -84.5h-180q0 34 1.5 60.5 t5.5 53.5h-3q-38 -67 -87 -95.5t-93 -28.5q-61 0 -84 45t-8 115z" />
<glyph unicode="v" horiz-adv-x="522" d="M90 0q-2 102 -7.5 196t-13 172t-16.5 132l194 10q6 -55 6.5 -122.5t-3 -139t-11.5 -138.5h3q31 62 57.5 131t44.5 137t24 124q23 5 39.5 6.5t29.5 1.5q38 0 64 -10t26 -48q0 -31 -18.5 -84t-51 -117.5t-74 -129.5t-87.5 -121h-206z" />
<glyph unicode="w" horiz-adv-x="868" d="M784 510q38 0 63.5 -10t25.5 -48q0 -31 -18.5 -84t-51 -117.5t-74 -129.5t-87.5 -121h-206q9 80 15.5 161t10.5 163h-3q-34 -91 -75 -172t-88 -152h-206q-2 102 -7.5 196t-13 172t-16.5 132l194 10q6 -55 6.5 -122.5t-3 -139t-11.5 -138.5h3q32 60 59.5 128t46.5 135.5 t25 126.5h221q5 -50 5.5 -115.5t-3 -136.5t-11.5 -138h3q31 62 57.5 131t44.5 137t24 124q23 5 39.5 6.5t30.5 1.5z" />
<glyph unicode="x" horiz-adv-x="508" d="M-23 0q4 44 27 93t64 95.5t99 82.5q-23 57 -54.5 115.5t-77.5 113.5l185 10q28 -32 50 -74.5t42 -91.5q20 27 34 66t14 80q15 9 35.5 14.5t43.5 5.5q30 0 57.5 -12t27.5 -44q0 -25 -19.5 -62t-57.5 -78t-93 -78q21 -57 47 -117t60 -119h-185q-20 37 -36.5 79.5 t-33.5 88.5q-14 -16 -28 -43.5t-22.5 -60t-8.5 -64.5h-170z" />
<glyph unicode="y" horiz-adv-x="522" d="M437 510q38 0 64 -10t26 -47q0 -30 -18.5 -83t-52 -119.5t-77 -137t-94.5 -137t-104.5 -120t-106 -85t-99.5 -31.5q-42 0 -66.5 25.5t-24.5 70.5q0 22 5.5 38t13.5 29q18 -5 38 -7.5t39 -2.5q42 0 83.5 12t75.5 35.5t54 59.5h-103q-2 102 -7.5 196t-13 172t-16.5 132 l194 10q6 -55 6.5 -122.5t-3 -139t-11.5 -138.5h3q31 62 57.5 131t44.5 137t24 124q23 5 39.5 6.5t29.5 1.5z" />
<glyph unicode="z" horiz-adv-x="493" d="M47 -10l-56 85q84 80 158 152.5t136 135.5q-37 7 -66 7q-40 0 -74.5 -13.5t-57.5 -42.5l-47 30q23 67 51 103t61 49.5t70 13.5q42 0 81.5 -13t79.5 -34q24 24 45 47q11 0 26 -4.5t26 -17t11 -35.5q0 -21 -13.5 -45.5t-46.5 -59t-90 -85t-143 -122.5q10 2 24 2 q29 0 46 -5.5t38 -5.5q35 0 62.5 18.5t44.5 49.5l57 -36q-20 -69 -46 -107t-59 -52.5t-75 -14.5q-37 0 -65 8t-51 15.5t-44 7.5q-17 0 -37.5 -7t-45.5 -24z" />
<glyph unicode="{" horiz-adv-x="469" d="M159 160q0 30 -19.5 47.5t-63.5 22.5l24 113q56 8 91.5 41t35.5 109q0 15 -1 35t-1 36q0 80 36 122t103 58t161 16l-19 -100q-52 0 -82 -33.5t-30 -104.5q0 -11 0.5 -25t0.5 -25q0 -58 -23 -96.5t-59.5 -60t-78.5 -29.5q45 -12 72.5 -40t27.5 -72q0 -28 -9.5 -55 t-22.5 -53t-22.5 -51.5t-9.5 -49.5q0 -65 75 -65l-24 -100q-118 0 -178.5 26.5t-60.5 96.5q0 34 11.5 65t27 60t27 57t11.5 55z" />
<glyph unicode="|" horiz-adv-x="286" d="M0 -260l-6 8l214 1009l78 3l6 -8l-214 -1009z" />
<glyph unicode="}" horiz-adv-x="469" d="M323 400q0 -30 19.5 -47.5t63.5 -22.5l-24 -113q-56 -7 -91.5 -40.5t-35.5 -109.5q0 -15 1 -35t1 -36q0 -79 -36 -121.5t-103 -58.5t-161 -16l19 100q52 0 82 33.5t30 104.5q0 11 -0.5 25t-0.5 25q0 58 23 96.5t59.5 60t78.5 29.5q-45 12 -72.5 40t-27.5 72q0 28 9.5 55 t22.5 53t22.5 51.5t9.5 49.5q0 65 -75 65l24 100q118 0 178.5 -26.5t60.5 -96.5q0 -34 -11.5 -65t-27 -60t-27 -57t-11.5 -55z" />
<glyph unicode="~" d="M432 212q-14 0 -41 5t-60 12.5t-65 15t-56.5 12.5t-34.5 5q-8 0 -27 -17t-42 -40l-44 34q19 25 42.5 52.5t48.5 47t48 19.5q14 0 41 -5t60 -12.5t65.5 -15t57 -12.5t34.5 -5q8 0 26.5 17.5t42.5 39.5l44 -34q-19 -24 -42.5 -52t-48.5 -47.5t-49 -19.5z" />
<glyph unicode="&#xa1;" horiz-adv-x="351" d="M113 389q0 30 18 57t47 44.5t61 17.5q33 0 52 -18.5t19 -46.5t-18 -54.5t-47.5 -43.5t-62.5 -17q-31 0 -50 16.5t-19 44.5zM122 268h109q-9 -73 -18 -144t-16 -133t-12.5 -109t-8.5 -72l-172 -10l-15 20q26 112 59.5 224t73.5 224z" />
<glyph unicode="&#xa2;" horiz-adv-x="490" d="M170 -140l-6 8l26 124q-76 11 -116 61t-40 135q0 65 22.5 124.5t62.5 108.5t93.5 81.5t115.5 42.5l28 132l62 3l7 -8l-26 -124q37 -2 68 -12t50 -23l-49 -155q-28 32 -58 48.5t-56 16.5q-38 0 -69 -29.5t-48.5 -76t-17.5 -97.5q0 -110 88 -110q29 0 59.5 9.5t61.5 24.5 l24 -74q-38 -31 -87 -52t-105 -27l-27 -128z" />
<glyph unicode="&#xa3;" horiz-adv-x="618" d="M455 570q-47 0 -78.5 -47t-51.5 -160h178l7 -18l-25 -67h-179q-19 -73 -48.5 -131.5t-69.5 -97.5q35 -21 76 -41.5t91.5 -34.5t112.5 -14q19 0 48 2t62 9l-53 -149q-16 -4 -36.5 -6t-37.5 -2q-61 0 -111.5 18.5t-91.5 48t-74 62t-59 61.5q-34 -13 -71 -13q-45 0 -66.5 17 t-19.5 45t24 44.5t55 16.5q18 0 35.5 -5t35.5 -13q10 34 16 67.5t11 69.5l6 46l-116 5l19 60l108 20q14 102 52 178t103 117.5t158 41.5q60 0 104 -15.5t68 -38.5l-67 -131q-26 23 -56 39t-59 16z" />
<glyph unicode="&#xa4;" horiz-adv-x="555" d="M406 30l-54 73q-28 -16 -58.5 -24.5t-63.5 -8.5q-56 0 -95 25l-79 -65l-50 64l78 64q-13 30 -13 66q0 44 17.5 85t47.5 74l-50 67l72 60q12 -13 29 -34.5t26 -33.5q26 13 54.5 20.5t58.5 7.5q31 0 56 -8t44 -22l84 70l51 -64l-87 -72q9 -27 9 -59q0 -41 -15 -79t-41 -70 q20 -25 37 -46.5t22 -27.5l-3 -11zM303 380q-36 0 -66 -19t-48.5 -49.5t-18.5 -66.5q0 -34 21 -59.5t64 -25.5q36 0 65.5 18.5t47 49t17.5 65.5q0 38 -20.5 62.5t-61.5 24.5z" />
<glyph unicode="&#xa5;" horiz-adv-x="560" d="M28 92l13 60h130l15 70h-130l13 60h130l-102 399l192 19l22 -140q3 -17 6 -45.5t6 -59.5t5 -58h2q19 40 42.5 82.5t40.5 70.5l89 150l136 -10l6 -19l-269 -389h130l-13 -60h-130l-15 -70h130l-13 -60h-129l-20 -92h-176l20 92h-131z" />
<glyph unicode="&#xa6;" horiz-adv-x="286" d="M207 348l-78 -3l-6 8l85 404l78 3l6 -8zM78 -257l-78 -3l-6 8l85 400l78 3l6 -8z" />
<glyph unicode="&#xa7;" horiz-adv-x="583" d="M432 560q-31 0 -51 -17.5t-20 -43.5q0 -23 15 -53t37.5 -65.5t44.5 -76.5t37 -86.5t15 -94.5q0 -62 -27 -115.5t-75 -93.5t-112.5 -62.5t-139.5 -22.5q-44 0 -88 7.5t-69 17.5l53 155q51 -40 105 -40q30 0 51 17t21 44q0 23 -15 53t-37.5 65.5t-45 76.5t-37.5 86.5 t-15 94.5q0 62 27 115.5t75.5 93.5t113 62.5t139.5 22.5q41 0 85.5 -7t71.5 -18l-53 -155q-24 19 -53.5 29.5t-52.5 10.5zM264 -78q72 20 114.5 70.5t42.5 113.5q0 40 -15 78.5t-37.5 76.5t-45 75t-37.5 73t-15 72q0 35 16 67t43 48l-5 11q-71 -20 -113.5 -70t-42.5 -114 q0 -40 15 -78.5t37.5 -76.5t44.5 -75t37 -73.5t15 -72.5q0 -35 -16 -66t-42 -48z" />
<glyph unicode="&#xa8;" horiz-adv-x="519" d="M328 696q0 -31 -18 -59t-47 -45.5t-62 -17.5q-34 0 -52.5 18.5t-18.5 46.5q0 30 19 57.5t49.5 45t62.5 17.5q31 0 49 -17t18 -46zM567 696q0 -31 -18 -59t-47 -45.5t-62 -17.5q-34 0 -52.5 18.5t-18.5 46.5q0 30 19 57.5t49.5 45t62.5 17.5q31 0 49 -17t18 -46z" />
<glyph unicode="&#xa9;" horiz-adv-x="680" d="M276 -50q-73 0 -127.5 30t-85 83t-30.5 121q0 71 30.5 136.5t83 117t119 82t138.5 30.5q74 0 128.5 -31t84.5 -84.5t30 -120.5q0 -70 -30.5 -135t-83 -116.5t-119 -82t-138.5 -30.5zM287 0q59 0 114.5 25t99.5 68t69.5 97t25.5 112q0 57 -26 101.5t-71.5 70.5t-105.5 26 t-115 -25.5t-99 -69t-69.5 -98t-25.5 -113.5q0 -56 25.5 -100t71 -69t106.5 -25zM489 400l-31 -98q-17 17 -35.5 25t-34.5 8q-36 0 -58.5 -31t-22.5 -70q0 -64 57 -64q17 0 35 6.5t33 14.5l15 -58q-22 -20 -57.5 -33t-76.5 -13q-64 0 -99.5 33.5t-35.5 93.5q0 57 30.5 104 t81 75t110.5 28q28 0 50.5 -6t38.5 -15z" />
<glyph unicode="&#xaa;" horiz-adv-x="486" d="M79 415q0 48 17.5 96.5t53 89t88.5 65t123 24.5q39 0 86.5 -8.5t81.5 -25.5l-31 -143q-23 -106 -28.5 -159t-5.5 -70h-150q0 21 2.5 48t9.5 69q-17 -49 -57 -83t-90 -34q-47 0 -73.5 35.5t-26.5 95.5zM233 445q0 -44 28 -44q19 0 37.5 22t34 57t22.5 73q5 22 10 48 q-17 8 -30 8q-20 0 -38.5 -15.5t-33 -41t-22.5 -53.5t-8 -54z" />
<glyph unicode="&#xab;" horiz-adv-x="518" d="M44 269l10 48q106 74 212 183l42 -18q-23 -52 -56 -100t-70 -89q19 -41 32 -89t14 -100l-50 -18q-29 53 -62.5 99.5t-71.5 83.5zM263 269l10 48q106 74 212 183l42 -18q-23 -52 -56 -100t-70 -89q19 -41 32 -89t14 -100l-50 -18q-29 53 -62.5 99.5t-71.5 83.5z" />
<glyph unicode="&#xac;" d="M558 339l-53 -253h-90l36 171h-370l18 85q31 1 76 1.5t97 1.5t104.5 1.5t98 0.5h77.5z" />
<glyph unicode="&#xae;" horiz-adv-x="680" d="M274 -50q-72 0 -126 30t-84.5 83t-30.5 121q0 70 30.5 135.5t83 117.5t119.5 82.5t140 30.5t127 -31t84 -84.5t30 -120.5q0 -68 -30 -133t-82.5 -117t-119.5 -83t-141 -31zM285 0q62 0 117.5 25.5t99.5 69t69 97.5t25 110q0 57 -26 101.5t-71.5 70.5t-105.5 26 t-115.5 -25.5t-99 -69t-69 -98t-25.5 -112.5q0 -57 25.5 -101t70.5 -69t105 -25zM281 92h-98l44 210q5 26 10 49.5t6 69.5h143q56 0 88 -25t32 -71q0 -39 -23 -71.5t-63 -48.5l44 -113l-103 -5q-7 20 -13.5 43t-12.5 45h-36zM360 346h-25l-20 -96h23q32 0 49.5 15.5 t17.5 39.5q0 41 -45 41z" />
<glyph unicode="&#xaf;" horiz-adv-x="410" d="M124 618l20 96h298l-20 -96h-298z" />
<glyph unicode="&#xb0;" horiz-adv-x="347" d="M177 295q-46 0 -72.5 25.5t-26.5 70.5q0 42 22.5 78.5t60 58.5t81.5 22q46 0 73 -25.5t27 -70.5q0 -41 -22.5 -77.5t-60 -59t-82.5 -22.5zM228 500q-25 0 -46 -13.5t-34 -35.5t-13 -47q0 -27 16 -43t41 -16t46 14t34 36t13 47q0 26 -15 42t-42 16z" />
<glyph unicode="&#xb1;" d="M517 323h-155l-30 -143h-88l29 143h-166l18 85q29 1 73 2t93 1l29 139h90l-29 -138q95 1 157 1l6 -8zM477 0h-450l18 85q31 1 76 1.5t97 1.5t104.5 1.5t98 0.5h77.5l6 -8z" />
<glyph unicode="&#xb2;" horiz-adv-x="389" d="M130 352l3 83q32 17 67.5 39t67.5 48.5t52 55.5t20 59q0 18 -11 29.5t-33 11.5t-50 -11t-57 -30l8 96q29 13 70 23t83 10q62 0 98.5 -27.5t36.5 -74.5q0 -46 -33 -87.5t-84.5 -75t-105.5 -55.5h62q54 0 106 6l-28 -100h-272z" />
<glyph unicode="&#xb3;" horiz-adv-x="391" d="M199 734q27 12 70 22t80 10q56 0 90 -22t34 -57q0 -36 -32.5 -68t-76.5 -45q42 -8 65.5 -31t23.5 -55q0 -40 -30 -73t-81 -52t-114 -19q-25 0 -56 3.5t-56 10.5l29 80q14 -6 38 -10t43 -4q36 0 62 13.5t26 35.5q0 18 -19 25t-48 7q-15 0 -32.5 -1t-37.5 -3l17 80 q59 2 97 21t38 47q0 13 -9.5 21t-30.5 8q-19 0 -48 -7t-54 -18z" />
<glyph unicode="&#xb4;" horiz-adv-x="276" d="M370 766l4 -30q-42 -50 -90 -92t-102 -78l-68 10q28 50 53 99.5t45 98.5z" />
<glyph unicode="&#xb6;" horiz-adv-x="602" d="M160 -80q72 0 123 46t73 150l102 477l9 42h-70l-91 -425h-22q-101 0 -163.5 50t-62.5 142q0 60 26 112t73.5 91.5t110.5 62t137 22.5h183l-20 -97l-104 -488q-17 -82 -63 -144t-112.5 -96.5t-148.5 -34.5q-37 0 -69.5 7t-61.5 19l28 95q33 -15 62 -23t61 -8z" />
<glyph unicode="&#xb7;" horiz-adv-x="333" d="M280 301q0 -34 -20 -64.5t-52 -50t-68 -19.5q-37 0 -58 20.5t-21 50.5q0 33 21 63.5t54 49.5t69 19q34 0 54.5 -18.5t20.5 -50.5z" />
<glyph unicode="&#xb8;" horiz-adv-x="305" d="M183 -125q0 -63 -69.5 -99t-191.5 -36l18 60q54 3 85.5 20t31.5 40q0 30 -69 30l-13 30l62 123h93l-49 -92q25 -3 48.5 -11.5t38.5 -24t15 -40.5z" />
<glyph unicode="&#xb9;" horiz-adv-x="306" d="M246 646h-2l-59 -4l-2 75l206 49l12 -14l-85 -400h-134l46 215q5 20 8.5 39t9.5 40z" />
<glyph unicode="&#xba;" horiz-adv-x="459" d="M491 535q0 -66 -34 -123.5t-92.5 -92.5t-132.5 -35q-70 0 -116 37t-46 114q0 51 20.5 96.5t56 81.5t83 56.5t101.5 20.5q73 0 116.5 -40t43.5 -115zM224 422q0 -55 30 -55q21 0 36.5 20t26 50.5t15.5 62.5t5 56q0 52 -30 52q-21 0 -37 -20t-26 -50t-15 -61.5t-5 -54.5z " />
<glyph unicode="&#xbb;" horiz-adv-x="518" d="M492 317l-10 -48q-106 -74 -212 -183l-42 18q23 52 56 100t70 89q-19 41 -32 89t-14 100l50 18q29 -53 62.5 -99.5t71.5 -83.5zM273 317l-10 -48q-106 -74 -212 -183l-42 18q23 52 56 100t70 89q-19 41 -32 89t-14 100l50 18q29 -53 62.5 -99.5t71.5 -83.5z" />
<glyph unicode="&#xbc;" horiz-adv-x="892" d="M263 586h-2l-59 -4l-2 75l206 49l12 -14l-85 -400h-134l46 215q5 20 8.5 39t9.5 40zM799 700l-576 -710h-65l575 710h66zM492 150l204 248l149 6l12 -13l-48 -229q28 2 54 5l-27 -93h-46l-18 -84h-126l18 84h-174zM602 162v-2q5 0 23 0.5t57 0.5l8 40q5 23 13 55t18 64 h-2z" />
<glyph unicode="&#xbd;" horiz-adv-x="919" d="M263 586h-2l-59 -4l-2 75l206 49l12 -14l-85 -400h-134l46 215q5 20 8.5 39t9.5 40zM801 700l-576 -710h-65l575 710h66zM553 -10l3 83q32 17 67.5 39t67.5 48.5t52 55.5t20 59q0 18 -11 29.5t-33 11.5t-50 -11t-57 -30l8 96q29 13 70 23t83 10q62 0 98.5 -27.5 t36.5 -74.5q0 -46 -33 -87.5t-84.5 -75t-105.5 -55.5h62q54 0 106 6l-28 -100h-272z" />
<glyph unicode="&#xbe;" horiz-adv-x="1010" d="M216 672q27 12 70 22t80 10q56 0 90 -22t34 -57q0 -36 -32.5 -68t-76.5 -45q42 -8 65.5 -31t23.5 -55q0 -40 -30 -73t-81 -52t-114 -19q-25 0 -56 3.5t-56 10.5l29 80q14 -6 38 -10t43 -4q36 0 62 13.5t26 35.5q0 18 -19 25t-48 7q-15 0 -32.5 -1t-37.5 -3l17 80 q59 2 97 21t38 47q0 13 -9.5 21t-30.5 8q-19 0 -48 -7t-54 -18zM894 700l-576 -710h-65l575 710h66zM609 150l204 248l149 6l12 -13l-48 -229q28 2 54 5l-27 -93h-46l-18 -84h-126l18 84h-174zM719 162v-2q5 0 23 0.5t57 0.5l8 40q5 23 13 55t18 64h-2z" />
<glyph unicode="&#xbf;" horiz-adv-x="527" d="M240 389q0 30 18 57t47 44.5t61 17.5q33 0 52 -18.5t19 -46.5t-18 -54.5t-47.5 -43.5t-62.5 -17q-31 0 -50 16.5t-19 44.5zM265 274l102 5q3 -9 5 -19.5t2 -21.5q0 -39 -20 -67t-50 -50.5t-59.5 -43.5t-49.5 -44t-20 -54q0 -23 17 -37t48 -14q32 0 74 18t76 49l42 -96 q-44 -40 -108 -69.5t-149 -29.5q-94 0 -143.5 38.5t-49.5 97.5q0 52 25.5 91t63 68t76 51t66.5 41t33 37q2 8 5 20.5t4 21.5z" />
<glyph unicode="&#xc0;" horiz-adv-x="690" d="M590 771q-76 1 -148 15t-134 48l-4 29l126 91q41 -37 87 -73.5t94 -68.5zM147 0h-175l289 580q16 31 29 59.5t21 50.5l226 9l25 -25l50 -674h-185l-8 130h-209zM294 305l-22 -45h140l-3 44q-4 85 -4.5 144.5t0.5 93.5h-5q-9 -22 -25 -59.5t-37 -83.5t-44 -94z" />
<glyph unicode="&#xc1;" horiz-adv-x="690" d="M622 863l-16 -29q-76 -33 -153 -47.5t-157 -15.5l-3 41q64 33 124.5 68.5t116.5 73.5zM147 0h-175l289 580q16 31 29 59.5t21 50.5l226 9l25 -25l50 -674h-185l-8 130h-209zM294 305l-22 -45h140l-3 44q-4 85 -4.5 144.5t0.5 93.5h-5q-9 -22 -25 -59.5t-37 -83.5t-44 -94 z" />
<glyph unicode="&#xc2;" horiz-adv-x="690" d="M314 772l-38 40q46 35 80 63.5t68 57.5l119 10q20 -32 43.5 -65.5t50.5 -65.5l-56 -40q-34 13 -63.5 29t-56.5 31q-37 -17 -73.5 -32.5t-73.5 -27.5zM147 0h-175l289 580q16 31 29 59.5t21 50.5l226 9l25 -25l50 -674h-185l-8 130h-209zM294 305l-22 -45h140l-3 44 q-4 85 -4.5 144.5t0.5 93.5h-5q-9 -22 -25 -59.5t-37 -83.5t-44 -94z" />
<glyph unicode="&#xc3;" horiz-adv-x="690" d="M401 943q25 0 43.5 -8.5t34 -20t31.5 -20t35 -8.5q21 0 35 11.5t31 31.5l43 -7q-8 -37 -26.5 -71.5t-46.5 -57t-65 -22.5q-30 0 -55.5 14t-48.5 28.5t-46 14.5q-16 0 -31 -10t-33 -33l-43 7q8 36 25.5 71t46.5 57.5t70 22.5zM147 0h-175l289 580q16 31 29 59.5t21 50.5 l226 9l25 -25l50 -674h-185l-8 130h-209zM294 305l-22 -45h140l-3 44q-4 85 -4.5 144.5t0.5 93.5h-5q-9 -22 -25 -59.5t-37 -83.5t-44 -94z" />
<glyph unicode="&#xc4;" horiz-adv-x="690" d="M671 883q0 -27 -17 -51.5t-44.5 -39.5t-59.5 -15q-31 0 -49 16.5t-18 40.5q0 27 18 51t46 39t59 15q29 0 47 -15t18 -41zM430 883q0 -27 -17 -51.5t-44.5 -39.5t-59.5 -15q-31 0 -49 16.5t-18 40.5q0 27 18 51t46 39t59 15q29 0 47 -15t18 -41zM147 0h-175l289 580 q16 31 29 59.5t21 50.5l226 9l25 -25l50 -674h-185l-8 130h-209zM294 305l-22 -45h140l-3 44q-4 85 -4.5 144.5t0.5 93.5h-5q-9 -22 -25 -59.5t-37 -83.5t-44 -94z" />
<glyph unicode="&#xc5;" horiz-adv-x="690" d="M589 898q0 -37 -23.5 -70.5t-61.5 -54.5t-80 -21q-46 0 -72 23.5t-26 57.5q0 36 25 69t64 54t82 21q42 0 67 -21.5t25 -57.5zM399 847q0 -16 11 -27.5t31 -11.5q29 0 52 24t23 52q0 37 -37 37q-20 0 -38.5 -11t-30 -27.5t-11.5 -35.5zM147 0h-175l289 580q16 31 29 59.5 t21 50.5l226 9l25 -25l50 -674h-185l-8 130h-209zM294 305l-22 -45h140l-3 44q-4 85 -4.5 144.5t0.5 93.5h-5q-9 -22 -25 -59.5t-37 -83.5t-44 -94z" />
<glyph unicode="&#xc6;" horiz-adv-x="939" d="M147 0h-175l381 580q15 23 29.5 46t25 40.5t13.5 23.5h511l15 -20l-29 -120l-264 9l-19 -160l222 5l-32 -127l-204 6l-18 -153l278 10l-30 -140h-449l20 130h-192zM342 305l-29 -45h128l7 44q13 85 24.5 145.5t17.5 92.5h-5q-13 -24 -35 -61.5t-50 -83t-58 -92.5z" />
<glyph unicode="&#xc7;" horiz-adv-x="587" d="M416 -125q0 -63 -69.5 -99t-191.5 -36l18 60q54 3 85.5 20t31.5 40q0 30 -69 30l-13 30l38 76q-96 17 -146 81.5t-50 175.5q0 88 30 168.5t85 143t129 99t161 36.5q50 0 97.5 -11.5t72.5 -28.5l-68 -155q-28 21 -64.5 33t-67.5 12q-43 0 -77 -23.5t-56.5 -62.5 t-34.5 -84.5t-12 -90.5q0 -149 130 -149q38 0 78.5 11t72.5 27l-11 -148q-42 -19 -88 -28.5t-92 -11.5l-21 -39q25 -3 48.5 -11.5t38.5 -24t15 -40.5z" />
<glyph unicode="&#xc8;" horiz-adv-x="581" d="M562 771q-76 1 -148 15t-134 48l-4 29l126 91q41 -37 87 -73.5t94 -68.5zM522 140l-29 -140h-465l108 511q10 45 18 88.5t10 90.5h449l16 -20l-29 -120l-269 10l-34 -161l222 5l-32 -127l-214 7l-33 -154z" />
<glyph unicode="&#xc9;" horiz-adv-x="581" d="M594 863l-16 -29q-76 -33 -153 -47.5t-157 -15.5l-3 41q64 33 124.5 68.5t116.5 73.5zM522 140l-29 -140h-465l108 511q10 45 18 88.5t10 90.5h449l16 -20l-29 -120l-269 10l-34 -161l222 5l-32 -127l-214 7l-33 -154z" />
<glyph unicode="&#xca;" horiz-adv-x="581" d="M286 772l-38 40q46 35 80 63.5t68 57.5l119 10q20 -32 43.5 -65.5t50.5 -65.5l-56 -40q-34 13 -63.5 29t-56.5 31q-37 -17 -73.5 -32.5t-73.5 -27.5zM522 140l-29 -140h-465l108 511q10 45 18 88.5t10 90.5h449l16 -20l-29 -120l-269 10l-34 -161l222 5l-32 -127l-214 7 l-33 -154z" />
<glyph unicode="&#xcb;" horiz-adv-x="581" d="M643 883q0 -27 -17 -51.5t-44.5 -39.5t-59.5 -15q-31 0 -49 16.5t-18 40.5q0 27 18 51t46 39t59 15q29 0 47 -15t18 -41zM402 883q0 -27 -17 -51.5t-44.5 -39.5t-59.5 -15q-31 0 -49 16.5t-18 40.5q0 27 18 51t46 39t59 15q29 0 47 -15t18 -41zM522 140l-29 -140h-465 l108 511q10 45 18 88.5t10 90.5h449l16 -20l-29 -120l-269 10l-34 -161l222 5l-32 -127l-214 7l-33 -154z" />
<glyph unicode="&#xcc;" horiz-adv-x="336" d="M435 771q-76 1 -148 15t-134 48l-4 29l126 91q41 -37 87 -73.5t94 -68.5zM213 0h-185l107 503q11 52 18.5 99.5t10.5 87.5l177 10l16 -20z" />
<glyph unicode="&#xcd;" horiz-adv-x="336" d="M467 863l-16 -29q-76 -33 -153 -47.5t-157 -15.5l-3 41q64 33 124.5 68.5t116.5 73.5zM213 0h-185l107 503q11 52 18.5 99.5t10.5 87.5l177 10l16 -20z" />
<glyph unicode="&#xce;" horiz-adv-x="336" d="M159 772l-38 40q46 35 80 63.5t68 57.5l119 10q20 -32 43.5 -65.5t50.5 -65.5l-56 -40q-34 13 -63.5 29t-56.5 31q-37 -17 -73.5 -32.5t-73.5 -27.5zM213 0h-185l107 503q11 52 18.5 99.5t10.5 87.5l177 10l16 -20z" />
<glyph unicode="&#xcf;" horiz-adv-x="336" d="M516 883q0 -27 -17 -51.5t-44.5 -39.5t-59.5 -15q-31 0 -49 16.5t-18 40.5q0 27 18 51t46 39t59 15q29 0 47 -15t18 -41zM275 883q0 -27 -17 -51.5t-44.5 -39.5t-59.5 -15q-31 0 -49 16.5t-18 40.5q0 27 18 51t46 39t59 15q29 0 47 -15t18 -41zM213 0h-185l107 503 q11 52 18.5 99.5t10.5 87.5l177 10l16 -20z" />
<glyph unicode="&#xd0;" horiz-adv-x="724" d="M712 427q0 -84 -28.5 -160.5t-84.5 -136.5t-139.5 -95t-193.5 -35h-238l63 300h-45l19 90h45l26 121q12 56 19 94.5t9 84.5h268q136 0 208 -64t72 -199zM432 300h-156l-35 -170h68q57 0 97 25.5t65 67t36.5 90t11.5 94.5q0 57 -14.5 88.5t-36 45t-44 16.5t-38.5 3h-55 l-35 -170h155z" />
<glyph unicode="&#xd1;" horiz-adv-x="731" d="M431 943q25 0 43.5 -8.5t34 -20t31.5 -20t35 -8.5q21 0 35 11.5t31 31.5l43 -7q-8 -37 -26.5 -71.5t-46.5 -57t-65 -22.5q-30 0 -55.5 14t-48.5 28.5t-46 14.5q-16 0 -31 -10t-33 -33l-43 7q8 36 25.5 71t46.5 57.5t70 22.5zM441 441q34 -98 53 -208h3q4 43 7.5 75.5 t9.5 65t14 72.5q14 67 24.5 128t16.5 116l167 8l16 -20l-144 -678h-175q-29 75 -50 138t-41 115q-18 50 -32 98.5t-25 97.5h-3q-3 -62 -10.5 -111t-17.5 -95l-51 -243h-175l108 511q10 45 17.5 92t10.5 87l187 7q27 -79 48.5 -140.5t41.5 -115.5z" />
<glyph unicode="&#xd2;" horiz-adv-x="705" d="M605 771q-76 1 -148 15t-134 48l-4 29l126 91q41 -37 87 -73.5t94 -68.5zM695 437q0 -85 -29 -164.5t-82.5 -143.5t-127 -101.5t-162.5 -37.5q-115 0 -179.5 68t-64.5 195q0 85 29 165t81.5 143.5t126 101t161.5 37.5q116 0 181.5 -68t65.5 -195zM240 250q0 -58 19 -91.5 t64 -33.5t79 30.5t57 78.5t34.5 102.5t11.5 103.5q0 59 -19 92t-64 33t-79 -30.5t-57 -78.5t-34.5 -102.5t-11.5 -103.5z" />
<glyph unicode="&#xd3;" horiz-adv-x="705" d="M637 863l-16 -29q-76 -33 -153 -47.5t-157 -15.5l-3 41q64 33 124.5 68.5t116.5 73.5zM695 437q0 -85 -29 -164.5t-82.5 -143.5t-127 -101.5t-162.5 -37.5q-115 0 -179.5 68t-64.5 195q0 85 29 165t81.5 143.5t126 101t161.5 37.5q116 0 181.5 -68t65.5 -195zM240 250 q0 -58 19 -91.5t64 -33.5t79 30.5t57 78.5t34.5 102.5t11.5 103.5q0 59 -19 92t-64 33t-79 -30.5t-57 -78.5t-34.5 -102.5t-11.5 -103.5z" />
<glyph unicode="&#xd4;" horiz-adv-x="705" d="M329 772l-38 40q46 35 80 63.5t68 57.5l119 10q20 -32 43.5 -65.5t50.5 -65.5l-56 -40q-34 13 -63.5 29t-56.5 31q-37 -17 -73.5 -32.5t-73.5 -27.5zM695 437q0 -85 -29 -164.5t-82.5 -143.5t-127 -101.5t-162.5 -37.5q-115 0 -179.5 68t-64.5 195q0 85 29 165 t81.5 143.5t126 101t161.5 37.5q116 0 181.5 -68t65.5 -195zM240 250q0 -58 19 -91.5t64 -33.5t79 30.5t57 78.5t34.5 102.5t11.5 103.5q0 59 -19 92t-64 33t-79 -30.5t-57 -78.5t-34.5 -102.5t-11.5 -103.5z" />
<glyph unicode="&#xd5;" horiz-adv-x="705" d="M416 943q25 0 43.5 -8.5t34 -20t31.5 -20t35 -8.5q21 0 35 11.5t31 31.5l43 -7q-8 -37 -26.5 -71.5t-46.5 -57t-65 -22.5q-30 0 -55.5 14t-48.5 28.5t-46 14.5q-16 0 -31 -10t-33 -33l-43 7q8 36 25.5 71t46.5 57.5t70 22.5zM695 437q0 -85 -29 -164.5t-82.5 -143.5 t-127 -101.5t-162.5 -37.5q-115 0 -179.5 68t-64.5 195q0 85 29 165t81.5 143.5t126 101t161.5 37.5q116 0 181.5 -68t65.5 -195zM240 250q0 -58 19 -91.5t64 -33.5t79 30.5t57 78.5t34.5 102.5t11.5 103.5q0 59 -19 92t-64 33t-79 -30.5t-57 -78.5t-34.5 -102.5 t-11.5 -103.5z" />
<glyph unicode="&#xd6;" horiz-adv-x="705" d="M686 883q0 -27 -17 -51.5t-44.5 -39.5t-59.5 -15q-31 0 -49 16.5t-18 40.5q0 27 18 51t46 39t59 15q29 0 47 -15t18 -41zM445 883q0 -27 -17 -51.5t-44.5 -39.5t-59.5 -15q-31 0 -49 16.5t-18 40.5q0 27 18 51t46 39t59 15q29 0 47 -15t18 -41zM695 437q0 -85 -29 -164.5 t-82.5 -143.5t-127 -101.5t-162.5 -37.5q-115 0 -179.5 68t-64.5 195q0 85 29 165t81.5 143.5t126 101t161.5 37.5q116 0 181.5 -68t65.5 -195zM240 250q0 -58 19 -91.5t64 -33.5t79 30.5t57 78.5t34.5 102.5t11.5 103.5q0 59 -19 92t-64 33t-79 -30.5t-57 -78.5 t-34.5 -102.5t-11.5 -103.5z" />
<glyph unicode="&#xd7;" d="M434 132l-116 152l-184 -152l-50 64l185 153l-116 153l73 60q21 -26 52.5 -66t66.5 -85l183 151l50 -64l-183 -151q35 -44 66 -84.5t53 -68.5l-3 -11z" />
<glyph unicode="&#xd8;" horiz-adv-x="705" d="M695 437q0 -85 -29 -164.5t-82.5 -143.5t-127 -101.5t-162.5 -37.5q-120 0 -183 72l-84 -77l-53 56l96 89q-20 53 -20 123q0 85 29 165t81.5 143.5t126 101t161.5 37.5q110 0 174 -60l70 65l54 -55l-79 -73q28 -59 28 -140zM422 565q-40 0 -72 -25t-54.5 -66t-36 -89.5 t-17.5 -95.5l250 231q-20 45 -70 45zM323 125q43 0 76.5 28.5t56 74t35 98t14.5 101.5l-258 -239q8 -30 26.5 -46.5t49.5 -16.5z" />
<glyph unicode="&#xd9;" horiz-adv-x="711" d="M621 771q-76 1 -148 15t-134 48l-4 29l126 91q41 -37 87 -73.5t94 -68.5zM67 170q0 37 11.5 95t27.5 129t31 147t22 149l177 10l16 -20q-26 -123 -43.5 -203.5t-27.5 -128.5t-15.5 -74t-7 -38.5t-1.5 -21.5q0 -85 84 -85q103 0 131 127q23 109 38 179.5t23.5 113.5 t12.5 67.5t5.5 40.5t2.5 33l187 8l-97 -458q-17 -82 -68 -138t-122 -84t-150 -28q-70 0 -123.5 21.5t-83.5 62t-30 96.5z" />
<glyph unicode="&#xda;" horiz-adv-x="711" d="M653 863l-16 -29q-76 -33 -153 -47.5t-157 -15.5l-3 41q64 33 124.5 68.5t116.5 73.5zM67 170q0 37 11.5 95t27.5 129t31 147t22 149l177 10l16 -20q-26 -123 -43.5 -203.5t-27.5 -128.5t-15.5 -74t-7 -38.5t-1.5 -21.5q0 -85 84 -85q103 0 131 127q23 109 38 179.5 t23.5 113.5t12.5 67.5t5.5 40.5t2.5 33l187 8l-97 -458q-17 -82 -68 -138t-122 -84t-150 -28q-70 0 -123.5 21.5t-83.5 62t-30 96.5z" />
<glyph unicode="&#xdb;" horiz-adv-x="711" d="M345 772l-38 40q46 35 80 63.5t68 57.5l119 10q20 -32 43.5 -65.5t50.5 -65.5l-56 -40q-34 13 -63.5 29t-56.5 31q-37 -17 -73.5 -32.5t-73.5 -27.5zM67 170q0 37 11.5 95t27.5 129t31 147t22 149l177 10l16 -20q-26 -123 -43.5 -203.5t-27.5 -128.5t-15.5 -74t-7 -38.5 t-1.5 -21.5q0 -85 84 -85q103 0 131 127q23 109 38 179.5t23.5 113.5t12.5 67.5t5.5 40.5t2.5 33l187 8l-97 -458q-17 -82 -68 -138t-122 -84t-150 -28q-70 0 -123.5 21.5t-83.5 62t-30 96.5z" />
<glyph unicode="&#xdc;" horiz-adv-x="711" d="M702 883q0 -27 -17 -51.5t-44.5 -39.5t-59.5 -15q-31 0 -49 16.5t-18 40.5q0 27 18 51t46 39t59 15q29 0 47 -15t18 -41zM461 883q0 -27 -17 -51.5t-44.5 -39.5t-59.5 -15q-31 0 -49 16.5t-18 40.5q0 27 18 51t46 39t59 15q29 0 47 -15t18 -41zM67 170q0 37 11.5 95 t27.5 129t31 147t22 149l177 10l16 -20q-26 -123 -43.5 -203.5t-27.5 -128.5t-15.5 -74t-7 -38.5t-1.5 -21.5q0 -85 84 -85q103 0 131 127q23 109 38 179.5t23.5 113.5t12.5 67.5t5.5 40.5t2.5 33l187 8l-97 -458q-17 -82 -68 -138t-122 -84t-150 -28q-70 0 -123.5 21.5 t-83.5 62t-30 96.5z" />
<glyph unicode="&#xdd;" horiz-adv-x="589" d="M610 863l-16 -29q-76 -33 -153 -47.5t-157 -15.5l-3 41q64 33 124.5 68.5t116.5 73.5zM195 216l-98 465l202 19l21 -202q4 -38 7.5 -82t4.5 -70h3q10 18 24 44.5t29.5 55t27.5 51.5l105 203l146 -10l6 -19l-293 -455l-46 -216h-185z" />
<glyph unicode="&#xde;" horiz-adv-x="627" d="M212 0h-185l109 511q8 37 16.5 81t11.5 98h195l-20 -93h77q104 0 161.5 -48.5t57.5 -137.5q0 -61 -26 -114.5t-72.5 -94.5t-108.5 -64.5t-134 -23.5h-58zM347 467h-36l-47 -223h36q66 0 103.5 39.5t37.5 97.5q0 32 -10.5 50t-26 25.5t-31 9t-26.5 1.5z" />
<glyph unicode="&#xdf;" horiz-adv-x="664" d="M-13 -250l-57 60q41 62 63 119.5t37 130.5l71 335l-69 5l13 60l74 20v0q30 141 113.5 210.5t201.5 69.5q95 0 144.5 -39.5t49.5 -103.5q0 -56 -38.5 -103.5t-112.5 -76.5q64 -31 101.5 -85.5t37.5 -133.5q0 -62 -25.5 -114t-77 -83t-131.5 -31q-22 0 -46.5 2.5t-44 6.5 t-28.5 8l24 110q13 -7 35.5 -12t38.5 -5q41 0 62.5 33t21.5 80q0 60 -32 103.5t-81 76.5l12 64q57 21 90.5 57t33.5 87q0 27 -12 43t-41 16q-28 0 -47 -13.5t-30.5 -33.5t-17 -40t-8.5 -32l-90 -423q-19 -91 -44.5 -158.5t-70 -118t-120.5 -91.5z" />
<glyph unicode="&#xe0;" horiz-adv-x="580" d="M405 566q-39 37 -69 79t-51 91l16 30l162 8q0 -51 3.5 -100t10.5 -98zM25 146q0 61 21.5 125t64.5 118t107.5 87.5t149.5 33.5q29 0 65 -4.5t71.5 -14t64.5 -25.5l-39 -178q-19 -87 -28 -143.5t-12 -90.5t-3 -54h-180q0 28 3.5 62.5t13.5 92.5q-14 -47 -41 -84t-63 -59 t-78 -22q-57 0 -87 41.5t-30 114.5zM210 195q0 -55 33 -55q23 0 45.5 29t41 74t30.5 95q5 29 12 61q-21 11 -37 11q-25 0 -47.5 -22t-40 -56t-27.5 -71t-10 -66z" />
<glyph unicode="&#xe1;" horiz-adv-x="580" d="M507 766l4 -30q-42 -50 -90 -92t-102 -78l-68 10q28 50 53 99.5t45 98.5zM25 146q0 61 21.5 125t64.5 118t107.5 87.5t149.5 33.5q29 0 65 -4.5t71.5 -14t64.5 -25.5l-39 -178q-19 -87 -28 -143.5t-12 -90.5t-3 -54h-180q0 28 3.5 62.5t13.5 92.5q-14 -47 -41 -84 t-63 -59t-78 -22q-57 0 -87 41.5t-30 114.5zM210 195q0 -55 33 -55q23 0 45.5 29t41 74t30.5 95q5 29 12 61q-21 11 -37 11q-25 0 -47.5 -22t-40 -56t-27.5 -71t-10 -66z" />
<glyph unicode="&#xe2;" horiz-adv-x="580" d="M253 552l-48 40q38 39 77 81.5t73 82.5l119 10q17 -43 35.5 -85.5t42.5 -88.5l-66 -40q-29 21 -52 45t-44 48q-34 -25 -67 -49t-70 -44zM25 146q0 61 21.5 125t64.5 118t107.5 87.5t149.5 33.5q29 0 65 -4.5t71.5 -14t64.5 -25.5l-39 -178q-19 -87 -28 -143.5t-12 -90.5 t-3 -54h-180q0 28 3.5 62.5t13.5 92.5q-14 -47 -41 -84t-63 -59t-78 -22q-57 0 -87 41.5t-30 114.5zM210 195q0 -55 33 -55q23 0 45.5 29t41 74t30.5 95q5 29 12 61q-21 11 -37 11q-25 0 -47.5 -22t-40 -56t-27.5 -71t-10 -66z" />
<glyph unicode="&#xe3;" horiz-adv-x="580" d="M333 762q34 0 57.5 -14.5t44.5 -28.5t46 -14q20 0 33 11.5t28 31.5l48 -7q-9 -42 -28 -81t-47.5 -64.5t-66.5 -25.5q-30 0 -57 14t-51 28.5t-46 14.5q-14 0 -28 -10t-31 -33l-47 7q9 41 27 80.5t47.5 65t70.5 25.5zM25 146q0 61 21.5 125t64.5 118t107.5 87.5t149.5 33.5 q29 0 65 -4.5t71.5 -14t64.5 -25.5l-39 -178q-19 -87 -28 -143.5t-12 -90.5t-3 -54h-180q0 28 3.5 62.5t13.5 92.5q-14 -47 -41 -84t-63 -59t-78 -22q-57 0 -87 41.5t-30 114.5zM210 195q0 -55 33 -55q23 0 45.5 29t41 74t30.5 95q5 29 12 61q-21 11 -37 11q-25 0 -47.5 -22 t-40 -56t-27.5 -71t-10 -66z" />
<glyph unicode="&#xe4;" horiz-adv-x="580" d="M360 696q0 -31 -18 -59t-47 -45.5t-62 -17.5q-34 0 -52.5 18.5t-18.5 46.5q0 30 19 57.5t49.5 45t62.5 17.5q31 0 49 -17t18 -46zM599 696q0 -31 -18 -59t-47 -45.5t-62 -17.5q-34 0 -52.5 18.5t-18.5 46.5q0 30 19 57.5t49.5 45t62.5 17.5q31 0 49 -17t18 -46zM25 146 q0 61 21.5 125t64.5 118t107.5 87.5t149.5 33.5q29 0 65 -4.5t71.5 -14t64.5 -25.5l-39 -178q-19 -87 -28 -143.5t-12 -90.5t-3 -54h-180q0 28 3.5 62.5t13.5 92.5q-14 -47 -41 -84t-63 -59t-78 -22q-57 0 -87 41.5t-30 114.5zM210 195q0 -55 33 -55q23 0 45.5 29t41 74 t30.5 95q5 29 12 61q-21 11 -37 11q-25 0 -47.5 -22t-40 -56t-27.5 -71t-10 -66z" />
<glyph unicode="&#xe5;" horiz-adv-x="580" d="M515 713q0 -37 -23.5 -70.5t-61.5 -54.5t-80 -21q-46 0 -72 23.5t-26 57.5q0 36 25 69t64 54t82 21q42 0 67 -21.5t25 -57.5zM325 662q0 -16 11 -27.5t31 -11.5q29 0 52 24t23 52q0 37 -37 37q-20 0 -38.5 -11t-30 -27.5t-11.5 -35.5zM25 146q0 61 21.5 125t64.5 118 t107.5 87.5t149.5 33.5q29 0 65 -4.5t71.5 -14t64.5 -25.5l-39 -178q-19 -87 -28 -143.5t-12 -90.5t-3 -54h-180q0 28 3.5 62.5t13.5 92.5q-14 -47 -41 -84t-63 -59t-78 -22q-57 0 -87 41.5t-30 114.5zM210 195q0 -55 33 -55q23 0 45.5 29t41 74t30.5 95q5 29 12 61 q-21 11 -37 11q-25 0 -47.5 -22t-40 -56t-27.5 -71t-10 -66z" />
<glyph unicode="&#xe6;" horiz-adv-x="816" d="M27 157q0 62 21.5 124.5t64.5 114t106.5 83t148.5 31.5q35 0 78 -6t83 -20q28 13 58.5 19.5t63.5 6.5q77 0 123 -36t46 -95q0 -78 -81 -125t-224 -59v-1q0 -40 20.5 -64.5t65.5 -24.5q30 0 62 10.5t63 27.5l19 -73q-44 -38 -102.5 -59t-117.5 -21q-83 0 -137 44t-58 135 q-12 -47 -39 -88t-64.5 -66t-80.5 -25q-57 0 -88 45.5t-31 121.5zM626 415q-29 0 -50.5 -27.5t-35.5 -67t-20 -76.5q63 15 100 47t37 82q0 23 -8.5 32.5t-22.5 9.5zM212 195q0 -55 33 -55q18 0 36.5 19.5t35.5 51t29 69.5q18 55 54 102q-36 28 -63 28q-25 0 -47.5 -22 t-40 -56t-27.5 -71t-10 -66z" />
<glyph unicode="&#xe7;" horiz-adv-x="487" d="M349 -125q0 -63 -69.5 -99t-191.5 -36l18 60q54 3 85.5 20t31.5 40q0 30 -69 30l-13 30l37 74q-66 11 -106.5 57t-40.5 130q0 62 23.5 121t67.5 106t104.5 74.5t135.5 27.5q38 0 75.5 -8t67.5 -25l-45 -144q-31 32 -63.5 47t-59.5 15q-38 0 -65.5 -27.5t-41.5 -69.5 t-14 -87q0 -50 20.5 -78t68.5 -28q30 0 62 10.5t63 27.5l19 -73q-36 -31 -82.5 -51t-97.5 -26l-22 -42q25 -3 48.5 -11.5t38.5 -24t15 -40.5z" />
<glyph unicode="&#xe8;" horiz-adv-x="515" d="M381 566q-39 37 -69 79t-51 91l16 30l162 8q0 -51 3.5 -100t10.5 -98zM427 143l19 -73q-44 -38 -102.5 -59t-117.5 -21q-85 0 -140 46.5t-55 143.5q0 63 24 122t68 106t103.5 74.5t129.5 27.5q74 0 119.5 -32t45.5 -90q0 -52 -37 -94t-105.5 -68.5t-162.5 -30.5v-1 q0 -40 20.5 -64.5t65.5 -24.5q30 0 62 10.5t63 27.5zM327 415q-29 0 -50.5 -27.5t-35.5 -67t-20 -76.5q63 15 100 47t37 82q0 23 -8.5 32.5t-22.5 9.5z" />
<glyph unicode="&#xe9;" horiz-adv-x="515" d="M483 766l4 -30q-42 -50 -90 -92t-102 -78l-68 10q28 50 53 99.5t45 98.5zM427 143l19 -73q-44 -38 -102.5 -59t-117.5 -21q-85 0 -140 46.5t-55 143.5q0 63 24 122t68 106t103.5 74.5t129.5 27.5q74 0 119.5 -32t45.5 -90q0 -52 -37 -94t-105.5 -68.5t-162.5 -30.5v-1 q0 -40 20.5 -64.5t65.5 -24.5q30 0 62 10.5t63 27.5zM327 415q-29 0 -50.5 -27.5t-35.5 -67t-20 -76.5q63 15 100 47t37 82q0 23 -8.5 32.5t-22.5 9.5z" />
<glyph unicode="&#xea;" horiz-adv-x="515" d="M229 552l-48 40q38 39 77 81.5t73 82.5l119 10q17 -43 35.5 -85.5t42.5 -88.5l-66 -40q-29 21 -52 45t-44 48q-34 -25 -67 -49t-70 -44zM427 143l19 -73q-44 -38 -102.5 -59t-117.5 -21q-85 0 -140 46.5t-55 143.5q0 63 24 122t68 106t103.5 74.5t129.5 27.5 q74 0 119.5 -32t45.5 -90q0 -52 -37 -94t-105.5 -68.5t-162.5 -30.5v-1q0 -40 20.5 -64.5t65.5 -24.5q30 0 62 10.5t63 27.5zM327 415q-29 0 -50.5 -27.5t-35.5 -67t-20 -76.5q63 15 100 47t37 82q0 23 -8.5 32.5t-22.5 9.5z" />
<glyph unicode="&#xeb;" horiz-adv-x="515" d="M336 696q0 -31 -18 -59t-47 -45.5t-62 -17.5q-34 0 -52.5 18.5t-18.5 46.5q0 30 19 57.5t49.5 45t62.5 17.5q31 0 49 -17t18 -46zM575 696q0 -31 -18 -59t-47 -45.5t-62 -17.5q-34 0 -52.5 18.5t-18.5 46.5q0 30 19 57.5t49.5 45t62.5 17.5q31 0 49 -17t18 -46zM427 143 l19 -73q-44 -38 -102.5 -59t-117.5 -21q-85 0 -140 46.5t-55 143.5q0 63 24 122t68 106t103.5 74.5t129.5 27.5q74 0 119.5 -32t45.5 -90q0 -52 -37 -94t-105.5 -68.5t-162.5 -30.5v-1q0 -40 20.5 -64.5t65.5 -24.5q30 0 62 10.5t63 27.5zM327 415q-29 0 -50.5 -27.5 t-35.5 -67t-20 -76.5q63 15 100 47t37 82q0 23 -8.5 32.5t-22.5 9.5z" />
<glyph unicode="&#xec;" horiz-adv-x="301" d="M251 566q-39 37 -69 79t-51 91l16 30l162 8q0 -51 3.5 -100t10.5 -98zM208 0h-180q0 54 10 121t27 146l20 92l8 141l189 10q0 -50 -11 -113t-26 -132t-26 -137t-11 -128z" />
<glyph unicode="&#xed;" horiz-adv-x="301" d="M353 766l4 -30q-42 -50 -90 -92t-102 -78l-68 10q28 50 53 99.5t45 98.5zM208 0h-180q0 54 10 121t27 146l20 92l8 141l189 10q0 -50 -11 -113t-26 -132t-26 -137t-11 -128z" />
<glyph unicode="&#xee;" horiz-adv-x="301" d="M125 561l-59 24q26 42 49.5 87t44.5 89l170 10q2 -43 6 -91t11 -95l-69 -24q-18 22 -31 47t-24 54q-22 -27 -46.5 -53t-51.5 -48zM208 0h-180q0 54 10 121t27 146l20 92l8 141l189 10q0 -50 -11 -113t-26 -132t-26 -137t-11 -128z" />
<glyph unicode="&#xef;" horiz-adv-x="301" d="M221 699q0 -31 -17 -59.5t-43.5 -46.5t-56.5 -18t-47 18.5t-17 45.5q0 30 18 57.5t46.5 45.5t57.5 18q26 0 42.5 -16.5t16.5 -44.5zM414 699q0 -31 -17 -59.5t-44 -46.5t-57 -18q-29 0 -45 18t-16 45q0 30 17.5 58t45 46t56.5 18q27 0 43.5 -16.5t16.5 -44.5zM208 0h-180 q0 54 10 121t27 146l20 92l8 141l189 10q0 -50 -11 -113t-26 -132t-26 -137t-11 -128z" />
<glyph unicode="&#xf0;" horiz-adv-x="586" d="M229 -10q-85 0 -140 48t-55 143q0 59 21.5 111.5t59 93t87 63.5t105.5 23q48 0 81 -20q-6 33 -18.5 62t-30.5 54l-96 -56l-38 67l82 47q-21 20 -46 37l65 97q59 -25 105 -61l106 61l39 -67l-88 -51q42 -50 64.5 -114.5t22.5 -142.5q0 -81 -24 -152.5t-68 -126 t-103.5 -85.5t-130.5 -31zM322 372q-28 0 -52 -27t-38.5 -71.5t-14.5 -95.5q0 -41 11 -64.5t36 -23.5q29 0 52.5 29.5t37.5 75.5t14 95q0 45 -12.5 63.5t-33.5 18.5z" />
<glyph unicode="&#xf1;" horiz-adv-x="591" d="M317 762q34 0 57.5 -14.5t44.5 -28.5t46 -14q20 0 33 11.5t28 31.5l48 -7q-9 -42 -28 -81t-47.5 -64.5t-66.5 -25.5q-30 0 -57 14t-51 28.5t-46 14.5q-14 0 -28 -10t-31 -33l-47 7q9 41 27 80.5t47.5 65t70.5 25.5zM208 0h-180q0 38 5.5 85t18 113.5t33.5 160.5l8 141 l189 10q0 -25 -3 -57t-7 -67h3q40 68 90 96t95 28q48 0 73.5 -27t25.5 -71q0 -33 -11 -87t-25 -117q-9 -45 -14.5 -78t-8 -63t-2.5 -67h-180q0 35 3 65t8.5 63.5t14.5 78.5q10 49 15.5 76.5t5.5 43.5q0 14 -5.5 23.5t-18.5 9.5q-24 0 -47 -31t-42 -83t-31 -116t-13 -130z " />
<glyph unicode="&#xf2;" horiz-adv-x="571" d="M386 566q-39 37 -69 79t-51 91l16 30l162 8q0 -51 3.5 -100t10.5 -98zM543 316q0 -64 -24 -122.5t-67 -104.5t-101 -72.5t-126 -26.5q-85 0 -139.5 46.5t-54.5 143.5q0 63 24.5 122t68 106t101.5 74.5t126 27.5q89 0 140.5 -50t51.5 -144zM216 161q0 -34 8.5 -52.5 t28.5 -18.5q26 0 46 26.5t33 67t19.5 83t6.5 73.5q0 70 -37 70q-27 0 -46.5 -26t-32.5 -66t-19.5 -82.5t-6.5 -74.5z" />
<glyph unicode="&#xf3;" horiz-adv-x="571" d="M488 766l4 -30q-42 -50 -90 -92t-102 -78l-68 10q28 50 53 99.5t45 98.5zM543 316q0 -64 -24 -122.5t-67 -104.5t-101 -72.5t-126 -26.5q-85 0 -139.5 46.5t-54.5 143.5q0 63 24.5 122t68 106t101.5 74.5t126 27.5q89 0 140.5 -50t51.5 -144zM216 161q0 -34 8.5 -52.5 t28.5 -18.5q26 0 46 26.5t33 67t19.5 83t6.5 73.5q0 70 -37 70q-27 0 -46.5 -26t-32.5 -66t-19.5 -82.5t-6.5 -74.5z" />
<glyph unicode="&#xf4;" horiz-adv-x="571" d="M234 552l-48 40q38 39 77 81.5t73 82.5l119 10q17 -43 35.5 -85.5t42.5 -88.5l-66 -40q-29 21 -52 45t-44 48q-34 -25 -67 -49t-70 -44zM543 316q0 -64 -24 -122.5t-67 -104.5t-101 -72.5t-126 -26.5q-85 0 -139.5 46.5t-54.5 143.5q0 63 24.5 122t68 106t101.5 74.5 t126 27.5q89 0 140.5 -50t51.5 -144zM216 161q0 -34 8.5 -52.5t28.5 -18.5q26 0 46 26.5t33 67t19.5 83t6.5 73.5q0 70 -37 70q-27 0 -46.5 -26t-32.5 -66t-19.5 -82.5t-6.5 -74.5z" />
<glyph unicode="&#xf5;" horiz-adv-x="571" d="M314 762q34 0 57.5 -14.5t44.5 -28.5t46 -14q20 0 33 11.5t28 31.5l48 -7q-9 -42 -28 -81t-47.5 -64.5t-66.5 -25.5q-30 0 -57 14t-51 28.5t-46 14.5q-14 0 -28 -10t-31 -33l-47 7q9 41 27 80.5t47.5 65t70.5 25.5zM543 316q0 -64 -24 -122.5t-67 -104.5t-101 -72.5 t-126 -26.5q-85 0 -139.5 46.5t-54.5 143.5q0 63 24.5 122t68 106t101.5 74.5t126 27.5q89 0 140.5 -50t51.5 -144zM216 161q0 -34 8.5 -52.5t28.5 -18.5q26 0 46 26.5t33 67t19.5 83t6.5 73.5q0 70 -37 70q-27 0 -46.5 -26t-32.5 -66t-19.5 -82.5t-6.5 -74.5z" />
<glyph unicode="&#xf6;" horiz-adv-x="571" d="M341 696q0 -31 -18 -59t-47 -45.5t-62 -17.5q-34 0 -52.5 18.5t-18.5 46.5q0 30 19 57.5t49.5 45t62.5 17.5q31 0 49 -17t18 -46zM580 696q0 -31 -18 -59t-47 -45.5t-62 -17.5q-34 0 -52.5 18.5t-18.5 46.5q0 30 19 57.5t49.5 45t62.5 17.5q31 0 49 -17t18 -46zM543 316 q0 -64 -24 -122.5t-67 -104.5t-101 -72.5t-126 -26.5q-85 0 -139.5 46.5t-54.5 143.5q0 63 24.5 122t68 106t101.5 74.5t126 27.5q89 0 140.5 -50t51.5 -144zM216 161q0 -34 8.5 -52.5t28.5 -18.5q26 0 46 26.5t33 67t19.5 83t6.5 73.5q0 70 -37 70q-27 0 -46.5 -26 t-32.5 -66t-19.5 -82.5t-6.5 -74.5z" />
<glyph unicode="&#xf7;" d="M452 558q0 -25 -15 -48.5t-39 -38.5t-52 -15t-43 16t-15 39q0 25 15.5 48t40.5 38t51 15t41.5 -14t15.5 -40zM541 303h-450l18 85q31 1 76 1.5t97 1.5t104.5 1.5t98 0.5h77.5l6 -8zM374 186q0 -26 -15.5 -49.5t-40 -38t-51.5 -14.5q-28 0 -43 16t-15 39q0 25 16 48 t41.5 38t51.5 15q25 0 40.5 -14t15.5 -40z" />
<glyph unicode="&#xf8;" horiz-adv-x="571" d="M543 316q0 -64 -24 -122.5t-67 -104.5t-101 -72.5t-126 -26.5q-83 0 -134 42l-69 -61l-47 56l73 63q-17 39 -17 90q0 63 24.5 122t68 106t101.5 74.5t126 27.5q81 0 130 -41l69 60l48 -55l-73 -64q18 -40 18 -94zM321 410q-26 0 -45 -25t-32 -63t-20 -78l133 117 q-4 49 -36 49zM253 90q25 0 44.5 25t32.5 63.5t20 79.5l-133 -117q4 -51 36 -51z" />
<glyph unicode="&#xf9;" horiz-adv-x="577" d="M369 566q-39 37 -69 79t-51 91l16 30l162 8q0 -51 3.5 -100t10.5 -98zM36 150l44 209l8 141l189 10q0 -46 -9 -99t-20.5 -104.5t-18.5 -93.5q-4 -28 -3 -50.5t21 -22.5q21 0 41 26.5t37 71.5t28 100q5 31 9 56.5t6 48.5q3 29 3 57l190 10q-4 -36 -8.5 -67t-11.5 -68.5 t-17.5 -90.5t-26.5 -133q-7 -32 -10 -66.5t-3 -84.5h-180q0 34 1.5 60.5t5.5 53.5h-3q-38 -67 -87 -95.5t-93 -28.5q-61 0 -84 45t-8 115z" />
<glyph unicode="&#xfa;" horiz-adv-x="577" d="M471 766l4 -30q-42 -50 -90 -92t-102 -78l-68 10q28 50 53 99.5t45 98.5zM36 150l44 209l8 141l189 10q0 -46 -9 -99t-20.5 -104.5t-18.5 -93.5q-4 -28 -3 -50.5t21 -22.5q21 0 41 26.5t37 71.5t28 100q5 31 9 56.5t6 48.5q3 29 3 57l190 10q-4 -36 -8.5 -67t-11.5 -68.5 t-17.5 -90.5t-26.5 -133q-7 -32 -10 -66.5t-3 -84.5h-180q0 34 1.5 60.5t5.5 53.5h-3q-38 -67 -87 -95.5t-93 -28.5q-61 0 -84 45t-8 115z" />
<glyph unicode="&#xfb;" horiz-adv-x="577" d="M217 552l-48 40q38 39 77 81.5t73 82.5l119 10q17 -43 35.5 -85.5t42.5 -88.5l-66 -40q-29 21 -52 45t-44 48q-34 -25 -67 -49t-70 -44zM36 150l44 209l8 141l189 10q0 -46 -9 -99t-20.5 -104.5t-18.5 -93.5q-4 -28 -3 -50.5t21 -22.5q21 0 41 26.5t37 71.5t28 100 q5 31 9 56.5t6 48.5q3 29 3 57l190 10q-4 -36 -8.5 -67t-11.5 -68.5t-17.5 -90.5t-26.5 -133q-7 -32 -10 -66.5t-3 -84.5h-180q0 34 1.5 60.5t5.5 53.5h-3q-38 -67 -87 -95.5t-93 -28.5q-61 0 -84 45t-8 115z" />
<glyph unicode="&#xfc;" horiz-adv-x="577" d="M324 696q0 -31 -18 -59t-47 -45.5t-62 -17.5q-34 0 -52.5 18.5t-18.5 46.5q0 30 19 57.5t49.5 45t62.5 17.5q31 0 49 -17t18 -46zM563 696q0 -31 -18 -59t-47 -45.5t-62 -17.5q-34 0 -52.5 18.5t-18.5 46.5q0 30 19 57.5t49.5 45t62.5 17.5q31 0 49 -17t18 -46zM36 150 l44 209l8 141l189 10q0 -46 -9 -99t-20.5 -104.5t-18.5 -93.5q-4 -28 -3 -50.5t21 -22.5q21 0 41 26.5t37 71.5t28 100q5 31 9 56.5t6 48.5q3 29 3 57l190 10q-4 -36 -8.5 -67t-11.5 -68.5t-17.5 -90.5t-26.5 -133q-7 -32 -10 -66.5t-3 -84.5h-180q0 34 1.5 60.5t5.5 53.5 h-3q-38 -67 -87 -95.5t-93 -28.5q-61 0 -84 45t-8 115z" />
<glyph unicode="&#xfd;" horiz-adv-x="522" d="M459 766l4 -30q-42 -50 -90 -92t-102 -78l-68 10q28 50 53 99.5t45 98.5zM437 510q38 0 64 -10t26 -47q0 -30 -18.5 -83t-52 -119.5t-77 -137t-94.5 -137t-104.5 -120t-106 -85t-99.5 -31.5q-42 0 -66.5 25.5t-24.5 70.5q0 22 5.5 38t13.5 29q18 -5 38 -7.5t39 -2.5 q42 0 83.5 12t75.5 35.5t54 59.5h-103q-2 102 -7.5 196t-13 172t-16.5 132l194 10q6 -55 6.5 -122.5t-3 -139t-11.5 -138.5h3q31 62 57.5 131t44.5 137t24 124q23 5 39.5 6.5t29.5 1.5z" />
<glyph unicode="&#xfe;" horiz-adv-x="574" d="M150 -240h-180q0 35 5.5 80t19 114.5t36.5 175.5l102 479l8 141l189 10q0 -47 -9 -107.5t-23.5 -129t-30.5 -139.5q25 53 69 89.5t96 36.5q57 0 88 -45.5t31 -121.5q0 -62 -21.5 -124.5t-64.5 -114t-106.5 -83t-148.5 -31.5q-13 0 -28 1q-13 -71 -22.5 -133t-9.5 -98z M333 360q-31 0 -64 -57t-54 -153q-5 -26 -10 -50q20 -10 36 -10q25 0 47.5 22t40 56t27.5 71t10 66q0 55 -33 55z" />
<glyph unicode="&#xff;" horiz-adv-x="522" d="M312 696q0 -31 -18 -59t-47 -45.5t-62 -17.5q-34 0 -52.5 18.5t-18.5 46.5q0 30 19 57.5t49.5 45t62.5 17.5q31 0 49 -17t18 -46zM551 696q0 -31 -18 -59t-47 -45.5t-62 -17.5q-34 0 -52.5 18.5t-18.5 46.5q0 30 19 57.5t49.5 45t62.5 17.5q31 0 49 -17t18 -46zM437 510 q38 0 64 -10t26 -47q0 -30 -18.5 -83t-52 -119.5t-77 -137t-94.5 -137t-104.5 -120t-106 -85t-99.5 -31.5q-42 0 -66.5 25.5t-24.5 70.5q0 22 5.5 38t13.5 29q18 -5 38 -7.5t39 -2.5q42 0 83.5 12t75.5 35.5t54 59.5h-103q-2 102 -7.5 196t-13 172t-16.5 132l194 10 q6 -55 6.5 -122.5t-3 -139t-11.5 -138.5h3q31 62 57.5 131t44.5 137t24 124q23 5 39.5 6.5t29.5 1.5z" />
<glyph unicode="&#x100;" horiz-adv-x="690" d="M297 809l20 96h298l-20 -96h-298zM147 0h-175l289 580q16 31 29 59.5t21 50.5l226 9l25 -25l50 -674h-185l-8 130h-209zM294 305l-22 -45h140l-3 44q-4 85 -4.5 144.5t0.5 93.5h-5q-9 -22 -25 -59.5t-37 -83.5t-44 -94z" />
<glyph unicode="&#x101;" horiz-adv-x="580" d="M221 618l20 96h298l-20 -96h-298zM25 146q0 61 21.5 125t64.5 118t107.5 87.5t149.5 33.5q29 0 65 -4.5t71.5 -14t64.5 -25.5l-39 -178q-19 -87 -28 -143.5t-12 -90.5t-3 -54h-180q0 28 3.5 62.5t13.5 92.5q-14 -47 -41 -84t-63 -59t-78 -22q-57 0 -87 41.5t-30 114.5z M210 195q0 -55 33 -55q23 0 45.5 29t41 74t30.5 95q5 29 12 61q-21 11 -37 11q-25 0 -47.5 -22t-40 -56t-27.5 -71t-10 -66z" />
<glyph unicode="&#x102;" horiz-adv-x="690" d="M546 933l71 9q-19 -72 -72 -119.5t-127 -47.5q-64 0 -97 40.5t-23 108.5l72 10q3 -22 24.5 -35.5t53.5 -13.5q33 0 60 14t38 34zM147 0h-175l289 580q16 31 29 59.5t21 50.5l226 9l25 -25l50 -674h-185l-8 130h-209zM294 305l-22 -45h140l-3 44q-4 85 -4.5 144.5 t0.5 93.5h-5q-9 -22 -25 -59.5t-37 -83.5t-44 -94z" />
<glyph unicode="&#x103;" horiz-adv-x="580" d="M495 765l71 9q-14 -56 -44 -101t-71 -70.5t-90 -25.5q-64 0 -95.5 48.5t-18.5 130.5l72 10q0 -37 20 -58t51 -21q33 0 62.5 22.5t42.5 55.5zM25 146q0 61 21.5 125t64.5 118t107.5 87.5t149.5 33.5q29 0 65 -4.5t71.5 -14t64.5 -25.5l-39 -178q-19 -87 -28 -143.5 t-12 -90.5t-3 -54h-180q0 28 3.5 62.5t13.5 92.5q-14 -47 -41 -84t-63 -59t-78 -22q-57 0 -87 41.5t-30 114.5zM210 195q0 -55 33 -55q23 0 45.5 29t41 74t30.5 95q5 29 12 61q-21 11 -37 11q-25 0 -47.5 -22t-40 -56t-27.5 -71t-10 -66z" />
<glyph unicode="&#x104;" horiz-adv-x="690" d="M147 0h-175l289 580q16 31 29 59.5t21 50.5l226 9l25 -25l50 -674q-66 -28 -104 -64t-38 -69q0 -13 8 -21t27 -8q10 0 24.5 3t32.5 10l12 -59q-33 -25 -74.5 -41.5t-82.5 -16.5q-44 0 -72 22.5t-28 60.5q0 52 48.5 101t129.5 82h-68l-8 130h-209zM294 305l-22 -45h140 l-3 44q-4 85 -4.5 144.5t0.5 93.5h-5q-9 -22 -25 -59.5t-37 -83.5t-44 -94z" />
<glyph unicode="&#x105;" horiz-adv-x="580" d="M25 146q0 61 21.5 125t64.5 118t107.5 87.5t149.5 33.5q29 0 65 -4.5t71.5 -14t64.5 -25.5l-39 -178q-19 -87 -28 -143.5t-12 -90.5t-3 -54q-66 -28 -104 -64t-38 -69q0 -13 8 -21t27 -8q10 0 24.5 3t32.5 10l12 -59q-33 -25 -74.5 -41.5t-82.5 -16.5q-44 0 -72 22.5 t-28 60.5q0 52 48.5 101t129.5 82h-63q0 28 3.5 62.5t13.5 92.5q-14 -47 -41 -84t-63 -59t-78 -22q-57 0 -87 41.5t-30 114.5zM210 195q0 -55 33 -55q23 0 45.5 29t41 74t30.5 95q5 29 12 61q-21 11 -37 11q-25 0 -47.5 -22t-40 -56t-27.5 -71t-10 -66z" />
<glyph unicode="&#x106;" horiz-adv-x="587" d="M617 863l-16 -29q-76 -33 -153 -47.5t-157 -15.5l-3 41q64 33 124.5 68.5t116.5 73.5zM526 178l-11 -148q-45 -20 -95 -30t-100 -10q-131 0 -200.5 66.5t-69.5 196.5q0 88 30 168.5t85 143t129 99t161 36.5q50 0 97.5 -11.5t72.5 -28.5l-68 -155q-28 21 -64.5 33 t-67.5 12q-43 0 -77 -23.5t-56.5 -62.5t-34.5 -84.5t-12 -90.5q0 -149 130 -149q38 0 78.5 11t72.5 27z" />
<glyph unicode="&#x107;" horiz-adv-x="487" d="M489 766l4 -30q-42 -50 -90 -92t-102 -78l-68 10q28 50 53 99.5t45 98.5zM430 143l19 -73q-44 -38 -103 -59t-122 -21q-85 0 -139 47t-54 144q0 62 23.5 121t67.5 106t104.5 74.5t135.5 27.5q38 0 75.5 -8t67.5 -25l-45 -144q-31 32 -63.5 47t-59.5 15q-38 0 -65.5 -27.5 t-41.5 -69.5t-14 -87q0 -50 20.5 -78t68.5 -28q30 0 62 10.5t63 27.5z" />
<glyph unicode="&#x108;" horiz-adv-x="587" d="M309 772l-38 40q46 35 80 63.5t68 57.5l119 10q20 -32 43.5 -65.5t50.5 -65.5l-56 -40q-34 13 -63.5 29t-56.5 31q-37 -17 -73.5 -32.5t-73.5 -27.5zM526 178l-11 -148q-45 -20 -95 -30t-100 -10q-131 0 -200.5 66.5t-69.5 196.5q0 88 30 168.5t85 143t129 99t161 36.5 q50 0 97.5 -11.5t72.5 -28.5l-68 -155q-28 21 -64.5 33t-67.5 12q-43 0 -77 -23.5t-56.5 -62.5t-34.5 -84.5t-12 -90.5q0 -149 130 -149q38 0 78.5 11t72.5 27z" />
<glyph unicode="&#x109;" horiz-adv-x="487" d="M235 552l-48 40q38 39 77 81.5t73 82.5l119 10q17 -43 35.5 -85.5t42.5 -88.5l-66 -40q-29 21 -52 45t-44 48q-34 -25 -67 -49t-70 -44zM430 143l19 -73q-44 -38 -103 -59t-122 -21q-85 0 -139 47t-54 144q0 62 23.5 121t67.5 106t104.5 74.5t135.5 27.5q38 0 75.5 -8 t67.5 -25l-45 -144q-31 32 -63.5 47t-59.5 15q-38 0 -65.5 -27.5t-41.5 -69.5t-14 -87q0 -50 20.5 -78t68.5 -28q30 0 62 10.5t63 27.5z" />
<glyph unicode="&#x10a;" horiz-adv-x="587" d="M558 887q0 -31 -19.5 -59t-50.5 -45t-66 -17t-56.5 19t-21.5 47q0 30 20.5 56.5t52.5 43.5t67 17q32 0 53 -16.5t21 -45.5zM526 178l-11 -148q-45 -20 -95 -30t-100 -10q-131 0 -200.5 66.5t-69.5 196.5q0 88 30 168.5t85 143t129 99t161 36.5q50 0 97.5 -11.5 t72.5 -28.5l-68 -155q-28 21 -64.5 33t-67.5 12q-43 0 -77 -23.5t-56.5 -62.5t-34.5 -84.5t-12 -90.5q0 -149 130 -149q38 0 78.5 11t72.5 27z" />
<glyph unicode="&#x10b;" horiz-adv-x="487" d="M471 696q0 -33 -20 -63.5t-52 -49.5t-68 -19q-37 0 -58 20.5t-21 51.5t20.5 60.5t53 48.5t69.5 19q35 0 55.5 -18t20.5 -50zM430 143l19 -73q-44 -38 -103 -59t-122 -21q-85 0 -139 47t-54 144q0 62 23.5 121t67.5 106t104.5 74.5t135.5 27.5q38 0 75.5 -8t67.5 -25 l-45 -144q-31 32 -63.5 47t-59.5 15q-38 0 -65.5 -27.5t-41.5 -69.5t-14 -87q0 -50 20.5 -78t68.5 -28q30 0 62 10.5t63 27.5z" />
<glyph unicode="&#x10c;" horiz-adv-x="587" d="M595 947l38 -40q-46 -34 -80 -63l-68 -58l-119 -10q-20 32 -43.5 65.5t-50.5 65.5l56 40q34 -13 63.5 -29t56.5 -31q37 17 73.5 32.5t73.5 27.5zM526 178l-11 -148q-45 -20 -95 -30t-100 -10q-131 0 -200.5 66.5t-69.5 196.5q0 88 30 168.5t85 143t129 99t161 36.5 q50 0 97.5 -11.5t72.5 -28.5l-68 -155q-28 21 -64.5 33t-67.5 12q-43 0 -77 -23.5t-56.5 -62.5t-34.5 -84.5t-12 -90.5q0 -149 130 -149q38 0 78.5 11t72.5 27z" />
<glyph unicode="&#x10d;" horiz-adv-x="487" d="M510 784l48 -40q-38 -39 -77 -81.5t-73 -82.5l-119 -10q-17 43 -35.5 85.5t-42.5 88.5l66 40q29 -21 52 -45t44 -48q34 25 67 49t70 44zM430 143l19 -73q-44 -38 -103 -59t-122 -21q-85 0 -139 47t-54 144q0 62 23.5 121t67.5 106t104.5 74.5t135.5 27.5q38 0 75.5 -8 t67.5 -25l-45 -144q-31 32 -63.5 47t-59.5 15q-38 0 -65.5 -27.5t-41.5 -69.5t-14 -87q0 -50 20.5 -78t68.5 -28q30 0 62 10.5t63 27.5z" />
<glyph unicode="&#x10e;" horiz-adv-x="724" d="M640 947l38 -40q-46 -34 -80 -63l-68 -58l-119 -10q-20 32 -43.5 65.5t-50.5 65.5l56 40q34 -13 63.5 -29t56.5 -31q37 17 73.5 32.5t73.5 27.5zM712 427q0 -84 -28.5 -160.5t-84.5 -136.5t-139.5 -95t-193.5 -35h-238l108 511q12 56 19 94.5t9 84.5h268q136 0 208 -64 t72 -199zM386 560h-55l-90 -430h68q57 0 97 25.5t65 67t36.5 90t11.5 94.5q0 57 -14.5 88.5t-36 45t-44 16.5t-38.5 3z" />
<glyph unicode="&#x10f;" horiz-adv-x="580" d="M861 771l4 -30q-42 -66 -83.5 -116.5t-81.5 -93.5h-59q22 60 43 120t40 120h137zM487 0h-180q0 29 3.5 64t11.5 85q-14 -45 -41 -81t-62.5 -57t-76.5 -21q-57 0 -87 41t-30 114q0 62 22 126t64.5 118t105 87.5t144.5 33.5q17 0 34 -2l22 101l8 141l189 10 q0 -56 -13 -131.5t-31.5 -161t-37.5 -171t-32 -162t-13 -134.5zM210 195q0 -55 33 -55q21 0 43 26.5t40 68.5t30 90q6 25 12 55l4 19q-21 11 -37 11q-25 0 -47.5 -22t-40 -56t-27.5 -71t-10 -66z" />
<glyph unicode="&#x110;" horiz-adv-x="724" d="M712 427q0 -84 -28.5 -160.5t-84.5 -136.5t-139.5 -95t-193.5 -35h-238l63 300h-45l19 90h45l26 121q12 56 19 94.5t9 84.5h268q136 0 208 -64t72 -199zM432 300h-156l-35 -170h68q57 0 97 25.5t65 67t36.5 90t11.5 94.5q0 57 -14.5 88.5t-36 45t-44 16.5t-38.5 3h-55 l-35 -170h155z" />
<glyph unicode="&#x111;" horiz-adv-x="580" d="M487 0h-180q0 29 3.5 64t11.5 85q-14 -45 -41 -81t-62.5 -57t-76.5 -21q-57 0 -87 41t-30 114q0 62 22 126t64.5 118t105 87.5t144.5 33.5q17 0 34 -2l14 62h-121l19 90h113l5 90l189 10q0 -22 -2 -47t-6 -53h87l-19 -90h-84q-13 -72 -31 -150t-34 -154.5t-27 -145 t-11 -120.5zM210 195q0 -55 33 -55q21 0 43 26.5t40 68.5t30 90q6 25 12 55l4 19q-21 11 -37 11q-25 0 -47.5 -22t-40 -56t-27.5 -71t-10 -66z" />
<glyph unicode="&#x112;" horiz-adv-x="581" d="M269 809l20 96h298l-20 -96h-298zM522 140l-29 -140h-465l108 511q10 45 18 88.5t10 90.5h449l16 -20l-29 -120l-269 10l-34 -161l222 5l-32 -127l-214 7l-33 -154z" />
<glyph unicode="&#x113;" horiz-adv-x="515" d="M197 618l20 96h298l-20 -96h-298zM427 143l19 -73q-44 -38 -102.5 -59t-117.5 -21q-85 0 -140 46.5t-55 143.5q0 63 24 122t68 106t103.5 74.5t129.5 27.5q74 0 119.5 -32t45.5 -90q0 -52 -37 -94t-105.5 -68.5t-162.5 -30.5v-1q0 -40 20.5 -64.5t65.5 -24.5 q30 0 62 10.5t63 27.5zM327 415q-29 0 -50.5 -27.5t-35.5 -67t-20 -76.5q63 15 100 47t37 82q0 23 -8.5 32.5t-22.5 9.5z" />
<glyph unicode="&#x114;" horiz-adv-x="581" d="M518 933l71 9q-19 -72 -72 -119.5t-127 -47.5q-64 0 -97 40.5t-23 108.5l72 10q3 -22 24.5 -35.5t53.5 -13.5q33 0 60 14t38 34zM522 140l-29 -140h-465l108 511q10 45 18 88.5t10 90.5h449l16 -20l-29 -120l-269 10l-34 -161l222 5l-32 -127l-214 7l-33 -154z" />
<glyph unicode="&#x115;" horiz-adv-x="515" d="M471 765l71 9q-14 -56 -44 -101t-71 -70.5t-90 -25.5q-64 0 -95.5 48.5t-18.5 130.5l72 10q0 -37 20 -58t51 -21q33 0 62.5 22.5t42.5 55.5zM427 143l19 -73q-44 -38 -102.5 -59t-117.5 -21q-85 0 -140 46.5t-55 143.5q0 63 24 122t68 106t103.5 74.5t129.5 27.5 q74 0 119.5 -32t45.5 -90q0 -52 -37 -94t-105.5 -68.5t-162.5 -30.5v-1q0 -40 20.5 -64.5t65.5 -24.5q30 0 62 10.5t63 27.5zM327 415q-29 0 -50.5 -27.5t-35.5 -67t-20 -76.5q63 15 100 47t37 82q0 23 -8.5 32.5t-22.5 9.5z" />
<glyph unicode="&#x116;" horiz-adv-x="581" d="M535 887q0 -31 -19.5 -59t-50.5 -45t-66 -17t-56.5 19t-21.5 47q0 30 20.5 56.5t52.5 43.5t67 17q32 0 53 -16.5t21 -45.5zM522 140l-29 -140h-465l108 511q10 45 18 88.5t10 90.5h449l16 -20l-29 -120l-269 10l-34 -161l222 5l-32 -127l-214 7l-33 -154z" />
<glyph unicode="&#x117;" horiz-adv-x="515" d="M465 696q0 -33 -20 -63.5t-52 -49.5t-68 -19q-37 0 -58 20.5t-21 51.5t20.5 60.5t53 48.5t69.5 19q35 0 55.5 -18t20.5 -50zM427 143l19 -73q-44 -38 -102.5 -59t-117.5 -21q-85 0 -140 46.5t-55 143.5q0 63 24 122t68 106t103.5 74.5t129.5 27.5q74 0 119.5 -32 t45.5 -90q0 -52 -37 -94t-105.5 -68.5t-162.5 -30.5v-1q0 -40 20.5 -64.5t65.5 -24.5q30 0 62 10.5t63 27.5zM327 415q-29 0 -50.5 -27.5t-35.5 -67t-20 -76.5q63 15 100 47t37 82q0 23 -8.5 32.5t-22.5 9.5z" />
<glyph unicode="&#x118;" horiz-adv-x="581" d="M493 0q-66 -28 -104 -64t-38 -69q0 -13 8 -21t27 -8q10 0 24.5 3t32.5 10l12 -59q-33 -25 -74.5 -41.5t-82.5 -16.5q-44 0 -72 22.5t-28 60.5q0 52 48.5 101t129.5 82h-348l108 511q10 45 18 88.5t10 90.5h449l16 -20l-29 -120l-269 10l-34 -161l222 5l-32 -127l-214 7 l-33 -154l282 10z" />
<glyph unicode="&#x119;" horiz-adv-x="515" d="M427 143l19 -73q-7 -6 -15 -12q-73 -60 -115 -105.5t-42 -82.5q0 -14 8 -23t27 -9q10 0 24.5 3t32.5 10l12 -59q-33 -25 -74.5 -41.5t-82.5 -16.5q-44 0 -72 22.5t-28 64.5q0 48 36.5 89t99.5 81q-16 -1 -31 -1q-85 0 -140 46.5t-55 143.5q0 63 24 122t68 106t103.5 74.5 t129.5 27.5q74 0 119.5 -32t45.5 -90q0 -52 -37 -94t-105.5 -68.5t-162.5 -30.5v-1q0 -40 20.5 -64.5t65.5 -24.5q30 0 62 10.5t63 27.5zM327 415q-29 0 -50.5 -27.5t-35.5 -67t-20 -76.5q63 15 100 47t37 82q0 23 -8.5 32.5t-22.5 9.5z" />
<glyph unicode="&#x11a;" horiz-adv-x="581" d="M572 947l38 -40q-46 -34 -80 -63l-68 -58l-119 -10q-20 32 -43.5 65.5t-50.5 65.5l56 40q34 -13 63.5 -29t56.5 -31q37 17 73.5 32.5t73.5 27.5zM522 140l-29 -140h-465l108 511q10 45 18 88.5t10 90.5h449l16 -20l-29 -120l-269 10l-34 -161l222 5l-32 -127l-214 7 l-33 -154z" />
<glyph unicode="&#x11b;" horiz-adv-x="515" d="M504 784l48 -40q-38 -39 -77 -81.5t-73 -82.5l-119 -10q-17 43 -35.5 85.5t-42.5 88.5l66 40q29 -21 52 -45t44 -48q34 25 67 49t70 44zM427 143l19 -73q-44 -38 -102.5 -59t-117.5 -21q-85 0 -140 46.5t-55 143.5q0 63 24 122t68 106t103.5 74.5t129.5 27.5 q74 0 119.5 -32t45.5 -90q0 -52 -37 -94t-105.5 -68.5t-162.5 -30.5v-1q0 -40 20.5 -64.5t65.5 -24.5q30 0 62 10.5t63 27.5zM327 415q-29 0 -50.5 -27.5t-35.5 -67t-20 -76.5q63 15 100 47t37 82q0 23 -8.5 32.5t-22.5 9.5z" />
<glyph unicode="&#x11c;" horiz-adv-x="668" d="M349 772l-38 40q46 35 80 63.5t68 57.5l119 10q20 -32 43.5 -65.5t50.5 -65.5l-56 -40q-34 13 -63.5 29t-56.5 31q-37 -17 -73.5 -32.5t-73.5 -27.5zM610 333l16 -20l-63 -283q-49 -17 -107.5 -28.5t-120.5 -11.5q-143 0 -215.5 65t-72.5 189q0 89 35 171t97 146 t145 101.5t179 37.5q54 0 103.5 -11.5t81.5 -28.5l-63 -155q-29 23 -65.5 36.5t-78.5 13.5q-55 0 -99.5 -24t-75.5 -64t-47.5 -90t-16.5 -101q0 -146 140 -146q14 0 31 1q8 41 12.5 68t7.5 54.5t6 69.5z" />
<glyph unicode="&#x11d;" horiz-adv-x="533" d="M225 552l-48 40q38 39 77 81.5t73 82.5l119 10q17 -43 35.5 -85.5t42.5 -88.5l-66 -40q-29 21 -52 45t-44 48q-34 -25 -67 -49t-70 -44zM154 -260q-107 0 -167.5 36.5t-60.5 87.5q0 41 38 69.5t90 43.5l34 -31q-1 -6 -1.5 -11.5t-0.5 -12.5q0 -46 27.5 -74t74.5 -28 q36 0 61 16t25 40q0 27 -29 44t-64 34t-60.5 36t-25.5 48q0 23 15 40.5t37.5 30t47 18.5t43.5 6v3h-15t-15 1q-68 6 -115 47.5t-47 116.5q0 51 22.5 90t60.5 65.5t84.5 40t94.5 13.5q67 0 109.5 0.5t73 3.5t60.5 9q16 -15 16 -38q0 -12 -5 -27t-18.5 -26.5t-37.5 -11.5 q-25 0 -46 11t-43 18l-1 -3q34 -18 55.5 -46.5t21.5 -75.5q0 -50 -23.5 -85t-57.5 -58.5t-68.5 -39t-58 -27.5t-23.5 -24q0 -8 13 -16.5t41 -22.5q18 -9 41.5 -22t45.5 -30.5t36.5 -40.5t14.5 -53q0 -49 -41 -86t-109 -58t-150 -21zM326 358q0 29 -7.5 48t-27.5 19 q-23 0 -40.5 -24t-27.5 -58t-10 -65t9.5 -52.5t30.5 -21.5q23 0 39.5 24.5t25 60.5t8.5 69z" />
<glyph unicode="&#x11e;" horiz-adv-x="668" d="M581 933l71 9q-19 -72 -72 -119.5t-127 -47.5q-64 0 -97 40.5t-23 108.5l72 10q3 -22 24.5 -35.5t53.5 -13.5q33 0 60 14t38 34zM610 333l16 -20l-63 -283q-49 -17 -107.5 -28.5t-120.5 -11.5q-143 0 -215.5 65t-72.5 189q0 89 35 171t97 146t145 101.5t179 37.5 q54 0 103.5 -11.5t81.5 -28.5l-63 -155q-29 23 -65.5 36.5t-78.5 13.5q-55 0 -99.5 -24t-75.5 -64t-47.5 -90t-16.5 -101q0 -146 140 -146q14 0 31 1q8 41 12.5 68t7.5 54.5t6 69.5z" />
<glyph unicode="&#x11f;" horiz-adv-x="533" d="M467 765l71 9q-14 -56 -44 -101t-71 -70.5t-90 -25.5q-64 0 -95.5 48.5t-18.5 130.5l72 10q0 -37 20 -58t51 -21q33 0 62.5 22.5t42.5 55.5zM154 -260q-107 0 -167.5 36.5t-60.5 87.5q0 41 38 69.5t90 43.5l34 -31q-1 -6 -1.5 -11.5t-0.5 -12.5q0 -46 27.5 -74t74.5 -28 q36 0 61 16t25 40q0 27 -29 44t-64 34t-60.5 36t-25.5 48q0 23 15 40.5t37.5 30t47 18.5t43.5 6v3h-15t-15 1q-68 6 -115 47.5t-47 116.5q0 51 22.5 90t60.5 65.5t84.5 40t94.5 13.5q67 0 109.5 0.5t73 3.5t60.5 9q16 -15 16 -38q0 -12 -5 -27t-18.5 -26.5t-37.5 -11.5 q-25 0 -46 11t-43 18l-1 -3q34 -18 55.5 -46.5t21.5 -75.5q0 -50 -23.5 -85t-57.5 -58.5t-68.5 -39t-58 -27.5t-23.5 -24q0 -8 13 -16.5t41 -22.5q18 -9 41.5 -22t45.5 -30.5t36.5 -40.5t14.5 -53q0 -49 -41 -86t-109 -58t-150 -21zM326 358q0 29 -7.5 48t-27.5 19 q-23 0 -40.5 -24t-27.5 -58t-10 -65t9.5 -52.5t30.5 -21.5q23 0 39.5 24.5t25 60.5t8.5 69z" />
<glyph unicode="&#x120;" horiz-adv-x="668" d="M598 887q0 -31 -19.5 -59t-50.5 -45t-66 -17t-56.5 19t-21.5 47q0 30 20.5 56.5t52.5 43.5t67 17q32 0 53 -16.5t21 -45.5zM610 333l16 -20l-63 -283q-49 -17 -107.5 -28.5t-120.5 -11.5q-143 0 -215.5 65t-72.5 189q0 89 35 171t97 146t145 101.5t179 37.5 q54 0 103.5 -11.5t81.5 -28.5l-63 -155q-29 23 -65.5 36.5t-78.5 13.5q-55 0 -99.5 -24t-75.5 -64t-47.5 -90t-16.5 -101q0 -146 140 -146q14 0 31 1q8 41 12.5 68t7.5 54.5t6 69.5z" />
<glyph unicode="&#x121;" horiz-adv-x="533" d="M461 696q0 -33 -20 -63.5t-52 -49.5t-68 -19q-37 0 -58 20.5t-21 51.5t20.5 60.5t53 48.5t69.5 19q35 0 55.5 -18t20.5 -50zM154 -260q-107 0 -167.5 36.5t-60.5 87.5q0 41 38 69.5t90 43.5l34 -31q-1 -6 -1.5 -11.5t-0.5 -12.5q0 -46 27.5 -74t74.5 -28q36 0 61 16 t25 40q0 27 -29 44t-64 34t-60.5 36t-25.5 48q0 23 15 40.5t37.5 30t47 18.5t43.5 6v3h-15t-15 1q-68 6 -115 47.5t-47 116.5q0 51 22.5 90t60.5 65.5t84.5 40t94.5 13.5q67 0 109.5 0.5t73 3.5t60.5 9q16 -15 16 -38q0 -12 -5 -27t-18.5 -26.5t-37.5 -11.5q-25 0 -46 11 t-43 18l-1 -3q34 -18 55.5 -46.5t21.5 -75.5q0 -50 -23.5 -85t-57.5 -58.5t-68.5 -39t-58 -27.5t-23.5 -24q0 -8 13 -16.5t41 -22.5q18 -9 41.5 -22t45.5 -30.5t36.5 -40.5t14.5 -53q0 -49 -41 -86t-109 -58t-150 -21zM326 358q0 29 -7.5 48t-27.5 19q-23 0 -40.5 -24 t-27.5 -58t-10 -65t9.5 -52.5t30.5 -21.5q23 0 39.5 24.5t25 60.5t8.5 69z" />
<glyph unicode="&#x122;" horiz-adv-x="668" d="M610 333l16 -20l-63 -283q-49 -17 -107.5 -28.5t-120.5 -11.5q-143 0 -215.5 65t-72.5 189q0 89 35 171t97 146t145 101.5t179 37.5q54 0 103.5 -11.5t81.5 -28.5l-63 -155q-29 23 -65.5 36.5t-78.5 13.5q-55 0 -99.5 -24t-75.5 -64t-47.5 -90t-16.5 -101 q0 -146 140 -146q14 0 31 1q8 41 12.5 68t7.5 54.5t6 69.5zM191 -325q22 18 44.5 43.5t36.5 51.5q-24 5 -37.5 25.5t-7.5 50.5q7 35 38.5 61t69.5 26q33 0 54 -23.5t11 -71.5q-9 -43 -38 -83t-64.5 -72t-64.5 -53z" />
<glyph unicode="&#x123;" horiz-adv-x="533" d="M524 829q-22 -18 -44.5 -43.5t-36.5 -51.5q24 -5 37.5 -25.5t7.5 -50.5q-7 -34 -38.5 -60.5t-69.5 -26.5q-33 0 -54 23.5t-11 71.5q9 44 38 83.5t65 71.5t64 53zM154 -260q-107 0 -167.5 36.5t-60.5 87.5q0 41 38 69.5t90 43.5l34 -31q-1 -6 -1.5 -11.5t-0.5 -12.5 q0 -46 27.5 -74t74.5 -28q36 0 61 16t25 40q0 27 -29 44t-64 34t-60.5 36t-25.5 48q0 23 15 40.5t37.5 30t47 18.5t43.5 6v3h-15t-15 1q-68 6 -115 47.5t-47 116.5q0 51 22.5 90t60.5 65.5t84.5 40t94.5 13.5q67 0 109.5 0.5t73 3.5t60.5 9q16 -15 16 -38q0 -12 -5 -27 t-18.5 -26.5t-37.5 -11.5q-25 0 -46 11t-43 18l-1 -3q34 -18 55.5 -46.5t21.5 -75.5q0 -50 -23.5 -85t-57.5 -58.5t-68.5 -39t-58 -27.5t-23.5 -24q0 -8 13 -16.5t41 -22.5q18 -9 41.5 -22t45.5 -30.5t36.5 -40.5t14.5 -53q0 -49 -41 -86t-109 -58t-150 -21zM326 358 q0 29 -7.5 48t-27.5 19q-23 0 -40.5 -24t-27.5 -58t-10 -65t9.5 -52.5t30.5 -21.5q23 0 39.5 24.5t25 60.5t8.5 69z" />
<glyph unicode="&#x124;" horiz-adv-x="736" d="M342 772l-38 40q46 35 80 63.5t68 57.5l119 10q20 -32 43.5 -65.5t50.5 -65.5l-56 -40q-34 13 -63.5 29t-56.5 31q-37 -17 -73.5 -32.5t-73.5 -27.5zM213 0h-185l107 503q11 52 18.5 99.5t10.5 87.5l177 10l16 -20l-58 -273h216l20 96q11 52 18.5 99.5t10.5 87.5l177 10 l16 -20l-144 -680h-185l59 277h-215z" />
<glyph unicode="&#x125;" horiz-adv-x="591" d="M115 817l-38 40q46 35 80 63.5t68 57.5l119 10q20 -32 43.5 -65.5t50.5 -65.5l-56 -40q-34 13 -63.5 29t-56.5 31q-37 -17 -73.5 -32.5t-73.5 -27.5zM208 0h-180q0 36 5.5 82.5t19 117.5t36.5 180l49 229l8 141l189 10q0 -74 -19.5 -172t-43.5 -202h3q40 66 91 95t96 29 q47 0 72 -27.5t25 -77.5q0 -12 -2 -27.5t-7 -41t-14.5 -70t-24.5 -115.5q-13 -59 -13 -151h-180q0 47 6.5 94t15 89.5t14.5 73.5q7 33 9 46.5t2 21.5q0 16 -5.5 25.5t-18.5 9.5q-24 0 -47 -31t-42 -83t-31 -116t-13 -130z" />
<glyph unicode="&#x126;" horiz-adv-x="736" d="M213 0h-185l104 490h-65l19 90h64q5 30 8.5 57.5t5.5 52.5l177 10l16 -20l-21 -100h214q5 30 8.5 57.5t5.5 52.5l177 10l16 -20l-21 -100h70l-19 -90h-70l-104 -490h-185l59 277h-215zM299 407h216l17 83h-215z" />
<glyph unicode="&#x127;" horiz-adv-x="591" d="M208 0h-180q0 36 5.5 82.5t19 117.5t36.5 180l39 182h-55l19 90h48l6 98l189 10q0 -24 -2.5 -51.5t-6.5 -56.5h152l-19 -90h-148q-9 -42 -19 -86.5t-20 -89.5h3q40 66 91 95t96 29q47 0 72 -27.5t25 -77.5q0 -12 -2 -27.5t-7 -41t-14.5 -70t-24.5 -115.5 q-13 -59 -13 -151h-180q0 47 6.5 94t15 89.5t14.5 73.5q7 33 9 46.5t2 21.5q0 16 -5.5 25.5t-18.5 9.5q-24 0 -47 -31t-42 -83t-31 -116t-13 -130z" />
<glyph unicode="&#x128;" horiz-adv-x="336" d="M246 943q25 0 43.5 -8.5t34 -20t31.5 -20t35 -8.5q21 0 35 11.5t31 31.5l43 -7q-8 -37 -26.5 -71.5t-46.5 -57t-65 -22.5q-30 0 -55.5 14t-48.5 28.5t-46 14.5q-16 0 -31 -10t-33 -33l-43 7q8 36 25.5 71t46.5 57.5t70 22.5zM213 0h-185l107 503q11 52 18.5 99.5 t10.5 87.5l177 10l16 -20z" />
<glyph unicode="&#x129;" horiz-adv-x="301" d="M184 763q26 0 46 -14.5t37 -28.5t34 -14q13 0 25.5 10t25.5 33l43 -7q-8 -40 -25 -79.5t-42 -65.5t-59 -26q-23 0 -45.5 14t-41 28.5t-30.5 14.5q-14 0 -26 -10t-25 -33l-43 7q9 41 25.5 80.5t42 65t58.5 25.5zM208 0h-180q0 54 10 121t27 146l20 92l8 141l189 10 q0 -50 -11 -113t-26 -132t-26 -137t-11 -128z" />
<glyph unicode="&#x12a;" horiz-adv-x="336" d="M142 809l20 96h298l-20 -96h-298zM213 0h-185l107 503q11 52 18.5 99.5t10.5 87.5l177 10l16 -20z" />
<glyph unicode="&#x12b;" horiz-adv-x="301" d="M80 618l18 96h268l-18 -96h-268zM208 0h-180q0 54 10 121t27 146l20 92l8 141l189 10q0 -50 -11 -113t-26 -132t-26 -137t-11 -128z" />
<glyph unicode="&#x12c;" horiz-adv-x="336" d="M391 933l71 9q-19 -72 -72 -119.5t-127 -47.5q-64 0 -97 40.5t-23 108.5l72 10q3 -22 24.5 -35.5t53.5 -13.5q33 0 60 14t38 34zM213 0h-185l107 503q11 52 18.5 99.5t10.5 87.5l177 10l16 -20z" />
<glyph unicode="&#x12d;" horiz-adv-x="301" d="M299 753l71 9q-14 -56 -41.5 -101t-65 -70.5t-80.5 -25.5q-55 0 -82.5 48.5t-13.5 130.5l72 10q-4 -37 10.5 -58t42.5 -21q29 0 53.5 22.5t33.5 55.5zM208 0h-180q0 54 10 121t27 146l20 92l8 141l189 10q0 -50 -11 -113t-26 -132t-26 -137t-11 -128z" />
<glyph unicode="&#x12e;" horiz-adv-x="336" d="M213 0q-50 -28 -79 -64t-29 -67q0 -14 8 -22.5t27 -8.5q10 0 24.5 3t32.5 10l12 -59q-33 -25 -74.5 -41.5t-82.5 -16.5q-44 0 -72 22.5t-28 63.5q0 49 41 98t109 82h-74l107 503q11 52 18.5 99.5t10.5 87.5l177 10l16 -20z" />
<glyph unicode="&#x12f;" horiz-adv-x="301" d="M335 696q0 -33 -20 -63.5t-52 -49.5t-68 -19q-37 0 -58 20.5t-21 51.5t20.5 60.5t53 48.5t69.5 19q35 0 55.5 -18t20.5 -50zM208 0q-44 -34 -69.5 -70.5t-25.5 -62.5q0 -13 8 -21t27 -8q10 0 24.5 3t32.5 10l12 -59q-33 -25 -74.5 -41.5t-82.5 -16.5q-44 0 -72 22.5 t-28 60.5q0 47 39.5 96t104.5 87h-76q0 54 10 121t27 146l20 92l8 141l189 10q0 -50 -11 -113t-26 -132t-26 -137t-11 -128z" />
<glyph unicode="&#x130;" horiz-adv-x="336" d="M408 887q0 -31 -19.5 -59t-50.5 -45t-66 -17t-56.5 19t-21.5 47q0 30 20.5 56.5t52.5 43.5t67 17q32 0 53 -16.5t21 -45.5zM213 0h-185l107 503q11 52 18.5 99.5t10.5 87.5l177 10l16 -20z" />
<glyph unicode="&#x131;" horiz-adv-x="301" d="M208 0h-180q0 54 10 121t27 146l20 92l8 141l189 10q0 -50 -11 -113t-26 -132t-26 -137t-11 -128z" />
<glyph unicode="&#x132;" horiz-adv-x="671" d="M213 0h-185l107 503q11 52 18.5 99.5t10.5 87.5l177 10l16 -20zM299 -202l-38 62q51 57 82 124.5t50 155.5l77 363q8 37 14.5 80.5t8.5 97.5l185 19l15 -19l-115 -541q-14 -65 -33.5 -115.5t-50.5 -90t-78.5 -73t-116.5 -63.5z" />
<glyph unicode="&#x133;" horiz-adv-x="589" d="M335 696q0 -33 -20 -63.5t-52 -49.5t-68 -19q-37 0 -58 20.5t-21 51.5t20.5 60.5t53 48.5t69.5 19q35 0 55.5 -18t20.5 -50zM620 696q0 -33 -20 -63.5t-52 -49.5t-68 -19q-37 0 -58 20.5t-21 51.5t20.5 60.5t53 48.5t69.5 19q35 0 55.5 -18t20.5 -50zM208 0h-180 q0 54 10 121t27 146l20 92l8 141l189 10q0 -50 -11 -113t-26 -132t-26 -137t-11 -128zM270 -260l-57 60q41 62 63 119.5t37 130.5l65 309l8 141l189 10q0 -31 -7 -79t-17.5 -103.5t-22.5 -112.5t-23 -107q-19 -91 -44.5 -158.5t-70 -118t-120.5 -91.5z" />
<glyph unicode="&#x134;" horiz-adv-x="335" d="M153 762l-38 40q46 35 80 63.5t68 57.5l119 10q20 -32 43.5 -65.5t50.5 -65.5l-56 -40q-34 13 -63.5 29t-56.5 31q-37 -17 -73.5 -32.5t-73.5 -27.5zM-37 -202l-38 62q51 57 82 124.5t50 155.5l77 363q8 37 14.5 80.5t8.5 97.5l185 19l15 -19l-115 -541 q-14 -65 -33.5 -115.5t-50.5 -90t-78.5 -73t-116.5 -63.5z" />
<glyph unicode="&#x135;" horiz-adv-x="288" d="M109 561l-59 24q26 42 49.5 87t44.5 89l170 10q2 -43 6 -91t11 -95l-69 -24q-18 22 -31 47t-24 54q-22 -27 -46.5 -53t-51.5 -48zM-31 -260l-57 60q41 62 63 119.5t37 130.5l65 309l8 141l189 10q0 -31 -7 -79t-17.5 -103.5t-22.5 -112.5t-23 -107q-19 -91 -44.5 -158.5 t-70 -118t-120.5 -91.5z" />
<glyph unicode="&#x136;" horiz-adv-x="670" d="M134 503q10 47 18 92t12 95l177 10l16 -20l-63 -297h60q30 45 64.5 98.5t70.5 110t68 108.5l173 -10l6 -19l-238 -308l119 -363l-215 -5q-21 59 -40.5 126t-35.5 132h-60l-54 -253h-185zM151 -325q22 18 44.5 43.5t36.5 51.5q-24 5 -37.5 25.5t-7.5 50.5q7 35 38.5 61 t69.5 26q33 0 54 -23.5t11 -71.5q-9 -43 -38 -83t-64.5 -72t-64.5 -53z" />
<glyph unicode="&#x137;" horiz-adv-x="586" d="M582 411q0 -39 -21.5 -74.5t-53.5 -63t-64 -44.5q23 -57 50.5 -115t64.5 -114h-223q-18 41 -33.5 89.5t-23.5 99.5q70 61 97 104t27 71q0 31 -26 31t-54.5 -34t-54 -91t-41.5 -127t-18 -143h-180q0 36 5.5 82.5t19 117.5t36.5 180l49 229l8 141l189 10q0 -47 -9.5 -108 t-24 -130.5t-30.5 -140.5h3q41 65 92 97t105 32q53 0 82 -28t29 -71zM111 -325q22 18 44.5 43.5t36.5 51.5q-24 5 -37.5 25.5t-7.5 50.5q7 35 38.5 61t69.5 26q33 0 54 -23.5t11 -71.5q-9 -43 -38 -83t-64.5 -72t-64.5 -53z" />
<glyph unicode="&#x138;" horiz-adv-x="586" d="M335 0q-23 42 -44 91.5t-34 102.5q-22 -38 -35.5 -86.5t-13.5 -107.5h-180q0 54 10 121t27 146l20 92l8 141l189 10q0 -54 -13 -122t-28 -141h4q59 130 121.5 196.5t134.5 66.5q41 0 78 -10.5t53 -24.5l-105 -168q-25 12 -48 17t-39 5q-22 0 -48 -10q34 -80 74 -160.5 t92 -158.5h-223z" />
<glyph unicode="&#x139;" horiz-adv-x="531" d="M559 863l-16 -29q-76 -33 -153 -47.5t-157 -15.5l-3 41q64 33 124.5 68.5t116.5 73.5zM502 140l-29 -140h-445l107 503q11 52 18.5 99.5t10.5 87.5l177 10l16 -20l-116 -550z" />
<glyph unicode="&#x13a;" horiz-adv-x="298" d="M445 911l-16 -29q-76 -33 -153 -47.5t-157 -15.5l-3 41q64 33 124.5 68.5t116.5 73.5zM208 0h-180q0 36 5.5 82.5t19 117.5t36.5 180l49 229l8 141l189 10q0 -56 -13 -131.5t-31.5 -161t-37.5 -171t-32 -162t-13 -134.5z" />
<glyph unicode="&#x13b;" horiz-adv-x="531" d="M502 140l-29 -140h-445l107 503q11 52 18.5 99.5t10.5 87.5l177 10l16 -20l-116 -550zM84 -325q22 18 44.5 43.5t36.5 51.5q-24 5 -37.5 25.5t-7.5 50.5q7 35 38.5 61t69.5 26q33 0 54 -23.5t11 -71.5q-9 -43 -38 -83t-64.5 -72t-64.5 -53z" />
<glyph unicode="&#x13c;" horiz-adv-x="298" d="M208 0h-180q0 36 5.5 82.5t19 117.5t36.5 180l49 229l8 141l189 10q0 -56 -13 -131.5t-31.5 -161t-37.5 -171t-32 -162t-13 -134.5zM-24 -325q22 18 44.5 43.5t36.5 51.5q-24 5 -37.5 25.5t-7.5 50.5q7 35 38.5 61t69.5 26q33 0 54 -23.5t11 -71.5q-9 -43 -38 -83 t-64.5 -72t-64.5 -53z" />
<glyph unicode="&#x13d;" horiz-adv-x="531" d="M638 786l4 -30q-42 -66 -83.5 -116.5t-81.5 -93.5h-59q22 60 43 120t40 120h137zM502 140l-29 -140h-445l107 503q11 52 18.5 99.5t10.5 87.5l177 10l16 -20l-116 -550z" />
<glyph unicode="&#x13e;" horiz-adv-x="298" d="M598 786l4 -30q-42 -66 -83.5 -116.5t-81.5 -93.5h-59q22 60 43 120t40 120h137zM208 0h-180q0 36 5.5 82.5t19 117.5t36.5 180l49 229l8 141l189 10q0 -56 -13 -131.5t-31.5 -161t-37.5 -171t-32 -162t-13 -134.5z" />
<glyph unicode="&#x13f;" horiz-adv-x="600" d="M502 140l-29 -140h-445l107 503q11 52 18.5 99.5t10.5 87.5l177 10l16 -20l-116 -550zM589 411q0 -34 -20 -64.5t-52 -50t-68 -19.5q-37 0 -58 20.5t-21 50.5q0 33 21 63.5t54 49.5t69 19q34 0 54.5 -18.5t20.5 -50.5z" />
<glyph unicode="&#x140;" horiz-adv-x="520" d="M208 0h-180q0 36 5.5 82.5t19 117.5t36.5 180l49 229l8 141l189 10q0 -56 -13 -131.5t-31.5 -161t-37.5 -171t-32 -162t-13 -134.5zM503 355q0 -34 -20 -64.5t-52 -50t-68 -19.5q-37 0 -58 20.5t-21 50.5q0 33 21 63.5t54 49.5t69 19q34 0 54.5 -18.5t20.5 -50.5z" />
<glyph unicode="&#x141;" horiz-adv-x="531" d="M502 140l-29 -140h-445l53 247l-90 -44l-24 74l134 66l34 160q11 52 18.5 99.5t10.5 87.5l177 10l16 -20l-50 -234l106 52l25 -74l-151 -75l-46 -219z" />
<glyph unicode="&#x142;" horiz-adv-x="298" d="M208 0h-180q0 33 4.5 74.5t15.5 102t30 151.5l-101 -50l-24 74l145 72l40 185l8 141l189 10q0 -46 -9 -106.5t-23 -128.5l96 48l25 -74l-142 -70q-18 -79 -35 -157.5t-28 -148t-11 -123.5z" />
<glyph unicode="&#x143;" horiz-adv-x="731" d="M652 863l-16 -29q-76 -33 -153 -47.5t-157 -15.5l-3 41q64 33 124.5 68.5t116.5 73.5zM441 441q34 -98 53 -208h3q4 43 7.5 75.5t9.5 65t14 72.5q14 67 24.5 128t16.5 116l167 8l16 -20l-144 -678h-175q-29 75 -50 138t-41 115q-18 50 -32 98.5t-25 97.5h-3 q-3 -62 -10.5 -111t-17.5 -95l-51 -243h-175l108 511q10 45 17.5 92t10.5 87l187 7q27 -79 48.5 -140.5t41.5 -115.5z" />
<glyph unicode="&#x144;" horiz-adv-x="591" d="M491 766l4 -30q-42 -50 -90 -92t-102 -78l-68 10q28 50 53 99.5t45 98.5zM208 0h-180q0 38 5.5 85t18 113.5t33.5 160.5l8 141l189 10q0 -25 -3 -57t-7 -67h3q40 68 90 96t95 28q48 0 73.5 -27t25.5 -71q0 -33 -11 -87t-25 -117q-9 -45 -14.5 -78t-8 -63t-2.5 -67h-180 q0 35 3 65t8.5 63.5t14.5 78.5q10 49 15.5 76.5t5.5 43.5q0 14 -5.5 23.5t-18.5 9.5q-24 0 -47 -31t-42 -83t-31 -116t-13 -130z" />
<glyph unicode="&#x145;" horiz-adv-x="731" d="M441 441q34 -98 53 -208h3q4 43 7.5 75.5t9.5 65t14 72.5q14 67 24.5 128t16.5 116l167 8l16 -20l-144 -678h-175q-29 75 -50 138t-41 115q-18 50 -32 98.5t-25 97.5h-3q-3 -62 -10.5 -111t-17.5 -95l-51 -243h-175l108 511q10 45 17.5 92t10.5 87l187 7 q27 -79 48.5 -140.5t41.5 -115.5zM167 -325q22 18 44.5 43.5t36.5 51.5q-24 5 -37.5 25.5t-7.5 50.5q7 35 38.5 61t69.5 26q33 0 54 -23.5t11 -71.5q-9 -43 -38 -83t-64.5 -72t-64.5 -53z" />
<glyph unicode="&#x146;" horiz-adv-x="591" d="M208 0h-180q0 38 5.5 85t18 113.5t33.5 160.5l8 141l189 10q0 -25 -3 -57t-7 -67h3q40 68 90 96t95 28q48 0 73.5 -27t25.5 -71q0 -33 -11 -87t-25 -117q-9 -45 -14.5 -78t-8 -63t-2.5 -67h-180q0 35 3 65t8.5 63.5t14.5 78.5q10 49 15.5 76.5t5.5 43.5q0 14 -5.5 23.5 t-18.5 9.5q-24 0 -47 -31t-42 -83t-31 -116t-13 -130zM114 -325q22 18 44.5 43.5t36.5 51.5q-24 5 -37.5 25.5t-7.5 50.5q7 35 38.5 61t69.5 26q33 0 54 -23.5t11 -71.5q-9 -43 -38 -83t-64.5 -72t-64.5 -53z" />
<glyph unicode="&#x147;" horiz-adv-x="731" d="M630 947l38 -40q-46 -34 -80 -63l-68 -58l-119 -10q-20 32 -43.5 65.5t-50.5 65.5l56 40q34 -13 63.5 -29t56.5 -31q37 17 73.5 32.5t73.5 27.5zM441 441q34 -98 53 -208h3q4 43 7.5 75.5t9.5 65t14 72.5q14 67 24.5 128t16.5 116l167 8l16 -20l-144 -678h-175 q-29 75 -50 138t-41 115q-18 50 -32 98.5t-25 97.5h-3q-3 -62 -10.5 -111t-17.5 -95l-51 -243h-175l108 511q10 45 17.5 92t10.5 87l187 7q27 -79 48.5 -140.5t41.5 -115.5z" />
<glyph unicode="&#x148;" horiz-adv-x="591" d="M512 784l48 -40q-38 -39 -77 -81.5t-73 -82.5l-119 -10q-17 43 -35.5 85.5t-42.5 88.5l66 40q29 -21 52 -45t44 -48q34 25 67 49t70 44zM208 0h-180q0 38 5.5 85t18 113.5t33.5 160.5l8 141l189 10q0 -25 -3 -57t-7 -67h3q40 68 90 96t95 28q48 0 73.5 -27t25.5 -71 q0 -33 -11 -87t-25 -117q-9 -45 -14.5 -78t-8 -63t-2.5 -67h-180q0 35 3 65t8.5 63.5t14.5 78.5q10 49 15.5 76.5t5.5 43.5q0 14 -5.5 23.5t-18.5 9.5q-24 0 -47 -31t-42 -83t-31 -116t-13 -130z" />
<glyph unicode="&#x14a;" horiz-adv-x="730" d="M358 -202l-38 62q40 41 64.5 75.5t39.5 84.5q-26 68 -45 126t-38 107q-16 41 -29.5 82.5t-27.5 99.5h-3q-3 -58 -10 -103t-17 -89l-52 -243h-175l109 511q10 48 17 93.5t11 85.5l186 7q23 -66 38 -109.5t27 -77t25 -69.5q16 -43 30 -93t24 -102h3q4 39 7.5 69t9 61 t13.5 71q15 70 25 129t17 114l166 8l16 -20l-114 -538q-14 -65 -34 -115.5t-50.5 -90t-78 -73t-116.5 -63.5z" />
<glyph unicode="&#x14b;" horiz-adv-x="586" d="M208 0h-180q0 38 5.5 85t18 113.5t33.5 160.5l8 141l189 10q0 -25 -3 -57t-7 -67h3q40 68 90 96t95 28q60 0 84.5 -43t8.5 -117l-42 -199q-18 -90 -38 -153.5t-46.5 -108t-64.5 -77.5t-92 -62l-57 60q41 62 63 119.5t37 130.5l31 149q4 17 8 36.5t8 41.5q6 29 3.5 51 t-22.5 22q-24 0 -47 -31t-42 -83t-31 -116t-13 -130z" />
<glyph unicode="&#x14c;" horiz-adv-x="705" d="M312 809l20 96h298l-20 -96h-298zM695 437q0 -85 -29 -164.5t-82.5 -143.5t-127 -101.5t-162.5 -37.5q-115 0 -179.5 68t-64.5 195q0 85 29 165t81.5 143.5t126 101t161.5 37.5q116 0 181.5 -68t65.5 -195zM240 250q0 -58 19 -91.5t64 -33.5t79 30.5t57 78.5t34.5 102.5 t11.5 103.5q0 59 -19 92t-64 33t-79 -30.5t-57 -78.5t-34.5 -102.5t-11.5 -103.5z" />
<glyph unicode="&#x14d;" horiz-adv-x="571" d="M202 618l20 96h298l-20 -96h-298zM543 316q0 -64 -24 -122.5t-67 -104.5t-101 -72.5t-126 -26.5q-85 0 -139.5 46.5t-54.5 143.5q0 63 24.5 122t68 106t101.5 74.5t126 27.5q89 0 140.5 -50t51.5 -144zM216 161q0 -34 8.5 -52.5t28.5 -18.5q26 0 46 26.5t33 67t19.5 83 t6.5 73.5q0 70 -37 70q-27 0 -46.5 -26t-32.5 -66t-19.5 -82.5t-6.5 -74.5z" />
<glyph unicode="&#x14e;" horiz-adv-x="705" d="M561 933l71 9q-19 -72 -72 -119.5t-127 -47.5q-64 0 -97 40.5t-23 108.5l72 10q3 -22 24.5 -35.5t53.5 -13.5q33 0 60 14t38 34zM695 437q0 -85 -29 -164.5t-82.5 -143.5t-127 -101.5t-162.5 -37.5q-115 0 -179.5 68t-64.5 195q0 85 29 165t81.5 143.5t126 101 t161.5 37.5q116 0 181.5 -68t65.5 -195zM240 250q0 -58 19 -91.5t64 -33.5t79 30.5t57 78.5t34.5 102.5t11.5 103.5q0 59 -19 92t-64 33t-79 -30.5t-57 -78.5t-34.5 -102.5t-11.5 -103.5z" />
<glyph unicode="&#x14f;" horiz-adv-x="571" d="M476 765l71 9q-14 -56 -44 -101t-71 -70.5t-90 -25.5q-64 0 -95.5 48.5t-18.5 130.5l72 10q0 -37 20 -58t51 -21q33 0 62.5 22.5t42.5 55.5zM543 316q0 -64 -24 -122.5t-67 -104.5t-101 -72.5t-126 -26.5q-85 0 -139.5 46.5t-54.5 143.5q0 63 24.5 122t68 106t101.5 74.5 t126 27.5q89 0 140.5 -50t51.5 -144zM216 161q0 -34 8.5 -52.5t28.5 -18.5q26 0 46 26.5t33 67t19.5 83t6.5 73.5q0 70 -37 70q-27 0 -46.5 -26t-32.5 -66t-19.5 -82.5t-6.5 -74.5z" />
<glyph unicode="&#x150;" horiz-adv-x="705" d="M479 866l-16 -29q-64 -36 -127.5 -50.5t-125.5 -15.5l-3 41q56 34 108 69t101 73zM739 866l-16 -29q-64 -36 -127.5 -50.5t-125.5 -15.5l-3 41q56 34 108 69t101 73zM695 437q0 -85 -29 -164.5t-82.5 -143.5t-127 -101.5t-162.5 -37.5q-115 0 -179.5 68t-64.5 195 q0 85 29 165t81.5 143.5t126 101t161.5 37.5q116 0 181.5 -68t65.5 -195zM240 250q0 -58 19 -91.5t64 -33.5t79 30.5t57 78.5t34.5 102.5t11.5 103.5q0 59 -19 92t-64 33t-79 -30.5t-57 -78.5t-34.5 -102.5t-11.5 -103.5z" />
<glyph unicode="&#x151;" horiz-adv-x="571" d="M402 766l4 -30q-71 -98 -160 -170l-68 10q28 50 53 99.5t45 98.5zM595 766l4 -30q-71 -98 -160 -170l-68 10q28 50 53 99.5t45 98.5zM543 316q0 -64 -24 -122.5t-67 -104.5t-101 -72.5t-126 -26.5q-85 0 -139.5 46.5t-54.5 143.5q0 63 24.5 122t68 106t101.5 74.5 t126 27.5q89 0 140.5 -50t51.5 -144zM216 161q0 -34 8.5 -52.5t28.5 -18.5q26 0 46 26.5t33 67t19.5 83t6.5 73.5q0 70 -37 70q-27 0 -46.5 -26t-32.5 -66t-19.5 -82.5t-6.5 -74.5z" />
<glyph unicode="&#x152;" horiz-adv-x="971" d="M688 453q0 -27 -3 -54l224 5l-32 -127l-217 7q-30 -86 -85 -152l338 8l-30 -140h-516q-41 -10 -83 -10q-109 0 -173 64t-64 179q0 95 32 179t88.5 149t130 102t155.5 37q43 0 79 -10h472l16 -20l-30 -120l-318 8q16 -47 16 -105zM240 248q0 -54 19.5 -88.5t63.5 -34.5 q35 0 66.5 26.5t56 72.5t39 105t14.5 123q0 50 -18.5 81.5t-62.5 31.5q-35 0 -67 -26t-57 -70.5t-39.5 -101.5t-14.5 -119z" />
<glyph unicode="&#x153;" horiz-adv-x="827" d="M737 143l19 -73q-44 -38 -102.5 -59t-117.5 -21q-45 0 -82 12.5t-63 38.5q-35 -24 -77.5 -37.5t-88.5 -13.5q-85 0 -139.5 46.5t-54.5 143.5q0 63 24.5 122t68 106t101.5 74.5t126 27.5q90 0 139 -54q37 25 80.5 39.5t91.5 14.5q77 0 123 -36t46 -95q0 -78 -81 -125 t-224 -59v-1q0 -40 20.5 -64.5t65.5 -24.5q30 0 62 10.5t63 27.5zM637 415q-29 0 -50.5 -27.5t-35.5 -67t-20 -76.5q63 15 100 47t37 82q0 23 -8.5 32.5t-22.5 9.5zM216 161q0 -34 8.5 -52.5t28.5 -18.5q26 0 46 26.5t33 67t19.5 83t6.5 73.5q0 70 -37 70q-27 0 -46.5 -26 t-32.5 -66t-19.5 -82.5t-6.5 -74.5z" />
<glyph unicode="&#x154;" horiz-adv-x="650" d="M618 863l-16 -29q-76 -33 -153 -47.5t-157 -15.5l-3 41q64 33 124.5 68.5t116.5 73.5zM212 0h-185l109 511q10 45 17.5 88.5t10.5 90.5h234q249 0 249 -176q0 -72 -41.5 -135.5t-119.5 -98.5l91 -280l-214 -11q-15 56 -27 116.5t-20 121.5h-56zM362 565h-30l-46 -218h24 q72 0 109 40t37 98q0 39 -20.5 59.5t-73.5 20.5z" />
<glyph unicode="&#x155;" horiz-adv-x="430" d="M433 766l4 -30q-42 -50 -90 -92t-102 -78l-68 10q28 50 53 99.5t45 98.5zM208 0h-180q0 54 10 121t27 146l20 92l8 141l189 10q0 -38 -7 -84.5t-17 -96.5h3q35 103 75 142t75 39q23 0 42.5 -11.5t28.5 -25.5l-85 -166q-16 6 -31.5 8.5t-26.5 2.5q-65 0 -94.5 -83 t-36.5 -235z" />
<glyph unicode="&#x156;" horiz-adv-x="650" d="M212 0h-185l109 511q10 45 17.5 88.5t10.5 90.5h234q249 0 249 -176q0 -72 -41.5 -135.5t-119.5 -98.5l91 -280l-214 -11q-15 56 -27 116.5t-20 121.5h-56zM362 565h-30l-46 -218h24q72 0 109 40t37 98q0 39 -20.5 59.5t-73.5 20.5zM120 -325q22 18 44.5 43.5t36.5 51.5 q-24 5 -37.5 25.5t-7.5 50.5q7 35 38.5 61t69.5 26q33 0 54 -23.5t11 -71.5q-9 -43 -38 -83t-64.5 -72t-64.5 -53z" />
<glyph unicode="&#x157;" horiz-adv-x="430" d="M208 0h-180q0 54 10 121t27 146l20 92l8 141l189 10q0 -38 -7 -84.5t-17 -96.5h3q35 103 75 142t75 39q23 0 42.5 -11.5t28.5 -25.5l-85 -166q-16 6 -31.5 8.5t-26.5 2.5q-65 0 -94.5 -83t-36.5 -235zM-32 -325q22 18 44.5 43.5t36.5 51.5q-24 5 -37.5 25.5t-7.5 50.5 q7 35 38.5 61t69.5 26q33 0 54 -23.5t11 -71.5q-9 -43 -38 -83t-64.5 -72t-64.5 -53z" />
<glyph unicode="&#x158;" horiz-adv-x="650" d="M596 947l38 -40q-46 -34 -80 -63l-68 -58l-119 -10q-20 32 -43.5 65.5t-50.5 65.5l56 40q34 -13 63.5 -29t56.5 -31q37 17 73.5 32.5t73.5 27.5zM212 0h-185l109 511q10 45 17.5 88.5t10.5 90.5h234q249 0 249 -176q0 -72 -41.5 -135.5t-119.5 -98.5l91 -280l-214 -11 q-15 56 -27 116.5t-20 121.5h-56zM362 565h-30l-46 -218h24q72 0 109 40t37 98q0 39 -20.5 59.5t-73.5 20.5z" />
<glyph unicode="&#x159;" horiz-adv-x="430" d="M454 784l48 -40q-38 -39 -77 -81.5t-73 -82.5l-119 -10q-17 43 -35.5 85.5t-42.5 88.5l66 40q29 -21 52 -45t44 -48q34 25 67 49t70 44zM208 0h-180q0 54 10 121t27 146l20 92l8 141l189 10q0 -38 -7 -84.5t-17 -96.5h3q35 103 75 142t75 39q23 0 42.5 -11.5t28.5 -25.5 l-85 -166q-16 6 -31.5 8.5t-26.5 2.5q-65 0 -94.5 -83t-36.5 -235z" />
<glyph unicode="&#x15a;" horiz-adv-x="559" d="M573 863l-16 -29q-76 -33 -153 -47.5t-157 -15.5l-3 41q64 33 124.5 68.5t116.5 73.5zM508 219q0 -65 -40 -117t-111 -82t-166 -30q-38 0 -77 5t-70.5 14t-46.5 20l42 151q22 -15 55 -26.5t67 -17.5t59 -6q44 0 68 18t24 48q0 29 -19.5 48.5t-46.5 35t-52 29.5 q-40 24 -71.5 61t-31.5 98q0 68 42.5 120t117 82t169.5 30q48 0 91 -7t68 -18l-53 -155q-30 19 -67 29.5t-72 10.5q-45 0 -72.5 -18.5t-27.5 -50.5q0 -25 16.5 -42t43 -31.5t55.5 -33.5q26 -16 50 -38t40 -53t16 -74z" />
<glyph unicode="&#x15b;" horiz-adv-x="447" d="M429 766l4 -30q-42 -50 -90 -92t-102 -78l-68 10q28 50 53 99.5t45 98.5zM449 485l-38 -132q-34 20 -70.5 31t-62.5 11q-25 0 -41.5 -9.5t-16.5 -26.5q0 -18 18 -30t44 -24t52 -28.5t44 -42t18 -65.5q0 -55 -35 -95t-91.5 -62t-123.5 -22q-46 0 -92 10.5t-71 28.5l37 129 q38 -25 81.5 -39t72.5 -14q27 0 41 10.5t14 25.5q0 17 -18 29.5t-44 25t-52 29t-44 41.5t-18 64q0 53 35.5 93.5t93 63.5t123.5 23q29 0 68 -5.5t76 -19.5z" />
<glyph unicode="&#x15c;" horiz-adv-x="559" d="M265 772l-38 40q46 35 80 63.5t68 57.5l119 10q20 -32 43.5 -65.5t50.5 -65.5l-56 -40q-34 13 -63.5 29t-56.5 31q-37 -17 -73.5 -32.5t-73.5 -27.5zM508 219q0 -65 -40 -117t-111 -82t-166 -30q-38 0 -77 5t-70.5 14t-46.5 20l42 151q22 -15 55 -26.5t67 -17.5t59 -6 q44 0 68 18t24 48q0 29 -19.5 48.5t-46.5 35t-52 29.5q-40 24 -71.5 61t-31.5 98q0 68 42.5 120t117 82t169.5 30q48 0 91 -7t68 -18l-53 -155q-30 19 -67 29.5t-72 10.5q-45 0 -72.5 -18.5t-27.5 -50.5q0 -25 16.5 -42t43 -31.5t55.5 -33.5q26 -16 50 -38t40 -53t16 -74z " />
<glyph unicode="&#x15d;" horiz-adv-x="447" d="M175 552l-48 40q38 39 77 81.5t73 82.5l119 10q17 -43 35.5 -85.5t42.5 -88.5l-66 -40q-29 21 -52 45t-44 48q-34 -25 -67 -49t-70 -44zM449 485l-38 -132q-34 20 -70.5 31t-62.5 11q-25 0 -41.5 -9.5t-16.5 -26.5q0 -18 18 -30t44 -24t52 -28.5t44 -42t18 -65.5 q0 -55 -35 -95t-91.5 -62t-123.5 -22q-46 0 -92 10.5t-71 28.5l37 129q38 -25 81.5 -39t72.5 -14q27 0 41 10.5t14 25.5q0 17 -18 29.5t-44 25t-52 29t-44 41.5t-18 64q0 53 35.5 93.5t93 63.5t123.5 23q29 0 68 -5.5t76 -19.5z" />
<glyph unicode="&#x15e;" horiz-adv-x="559" d="M334 -125q0 -63 -69.5 -99t-191.5 -36l18 60q54 3 85.5 20t31.5 40q0 30 -69 30l-13 30l36 71q-51 2 -98 12.5t-67 25.5l42 151q22 -15 55 -26.5t67 -17.5t59 -6q44 0 68 18t24 48q0 29 -19.5 48.5t-46.5 35t-52 29.5q-40 24 -71.5 61t-31.5 98q0 68 42.5 120t117 82 t169.5 30q48 0 91 -7t68 -18l-53 -155q-30 19 -67 29.5t-72 10.5q-45 0 -72.5 -18.5t-27.5 -50.5q0 -25 16.5 -42t43 -31.5t55.5 -33.5q26 -16 50 -38t40 -53t16 -74q0 -58 -31.5 -105.5t-88 -78.5t-133.5 -41l-23 -43q25 -3 48.5 -11.5t38.5 -24t15 -40.5z" />
<glyph unicode="&#x15f;" horiz-adv-x="447" d="M275 -125q0 -63 -69.5 -99t-191.5 -36l18 60q54 3 85.5 20t31.5 40q0 30 -69 30l-13 30l36 72q-36 4 -68.5 13.5t-51.5 23.5l37 129q38 -25 81.5 -39t72.5 -14q27 0 41 10.5t14 25.5q0 17 -18 29.5t-44 25t-52 29t-44 41.5t-18 64q0 53 35.5 93.5t93 63.5t123.5 23 q29 0 68 -5.5t76 -19.5l-38 -132q-34 20 -70.5 31t-62.5 11q-25 0 -41.5 -9.5t-16.5 -26.5q0 -18 18 -30t44 -24t52 -28.5t44 -42t18 -65.5q0 -48 -27 -84.5t-72.5 -60t-101.5 -31.5l-22 -42q25 -3 48.5 -11.5t38.5 -24t15 -40.5z" />
<glyph unicode="&#x160;" horiz-adv-x="559" d="M551 947l38 -40q-46 -34 -80 -63l-68 -58l-119 -10q-20 32 -43.5 65.5t-50.5 65.5l56 40q34 -13 63.5 -29t56.5 -31q37 17 73.5 32.5t73.5 27.5zM508 219q0 -65 -40 -117t-111 -82t-166 -30q-38 0 -77 5t-70.5 14t-46.5 20l42 151q22 -15 55 -26.5t67 -17.5t59 -6 q44 0 68 18t24 48q0 29 -19.5 48.5t-46.5 35t-52 29.5q-40 24 -71.5 61t-31.5 98q0 68 42.5 120t117 82t169.5 30q48 0 91 -7t68 -18l-53 -155q-30 19 -67 29.5t-72 10.5q-45 0 -72.5 -18.5t-27.5 -50.5q0 -25 16.5 -42t43 -31.5t55.5 -33.5q26 -16 50 -38t40 -53t16 -74z " />
<glyph unicode="&#x161;" horiz-adv-x="447" d="M450 784l48 -40q-38 -39 -77 -81.5t-73 -82.5l-119 -10q-17 43 -35.5 85.5t-42.5 88.5l66 40q29 -21 52 -45t44 -48q34 25 67 49t70 44zM449 485l-38 -132q-34 20 -70.5 31t-62.5 11q-25 0 -41.5 -9.5t-16.5 -26.5q0 -18 18 -30t44 -24t52 -28.5t44 -42t18 -65.5 q0 -55 -35 -95t-91.5 -62t-123.5 -22q-46 0 -92 10.5t-71 28.5l37 129q38 -25 81.5 -39t72.5 -14q27 0 41 10.5t14 25.5q0 17 -18 29.5t-44 25t-52 29t-44 41.5t-18 64q0 53 35.5 93.5t93 63.5t123.5 23q29 0 68 -5.5t76 -19.5z" />
<glyph unicode="&#x162;" horiz-adv-x="575" d="M327 0h-61l-26 -49q25 -3 48.5 -11.5t38.5 -24t15 -40.5q0 -63 -69.5 -99t-191.5 -36l18 60q54 3 85.5 20t31.5 40q0 30 -69 30l-13 30l40 80h-32l117 554q-47 -1 -95 -3t-96 -5l40 144h545l-20 -144q-47 3 -94.5 5t-94.5 3z" />
<glyph unicode="&#x163;" horiz-adv-x="400" d="M282 -125q0 -63 -69.5 -99t-191.5 -36l18 60q54 3 85.5 20t31.5 40q0 30 -69 30l-13 30l41 82q-74 29 -74 127q0 15 2 32t8 46t17 79.5t28 131.5l-65 2l13 60l74 20l73 131l112 8l18 -21l-28 -118h137l8 -20l-23 -70l-140 4q-16 -77 -26 -123.5t-15.5 -72t-7.5 -37.5 t-2 -20q0 -23 13.5 -34.5t36.5 -11.5q18 0 39 6.5t43 17.5l-13 -108q-26 -14 -63 -26t-79 -15l-21 -39q25 -3 48.5 -11.5t38.5 -24t15 -40.5z" />
<glyph unicode="&#x164;" horiz-adv-x="575" d="M559 947l38 -40q-46 -34 -80 -63l-68 -58l-119 -10q-20 32 -43.5 65.5t-50.5 65.5l56 40q34 -13 63.5 -29t56.5 -31q37 17 73.5 32.5t73.5 27.5zM327 0h-185l117 554q-47 -1 -95 -3t-96 -5l40 144h545l-20 -144q-47 3 -94.5 5t-94.5 3z" />
<glyph unicode="&#x165;" horiz-adv-x="400" d="M565 786l4 -30q-42 -66 -83.5 -116.5t-81.5 -93.5h-59q22 60 43 120t40 120h137zM415 410l-140 4q-16 -77 -26 -123.5t-15.5 -72t-7.5 -37.5t-2 -20q0 -23 13.5 -34.5t36.5 -11.5q18 0 39 6.5t43 17.5l-13 -108q-28 -16 -69 -28.5t-88 -12.5q-70 0 -107.5 34.5 t-37.5 104.5q0 15 2 32t8 46t17 79.5t28 131.5l-65 2l13 60l74 20l73 131l112 8l18 -21l-28 -118h137l8 -20z" />
<glyph unicode="&#x166;" horiz-adv-x="575" d="M327 0h-185l63 300h-100l19 90h101l34 164q-47 -1 -95 -3t-96 -5l40 144h545l-20 -144q-47 3 -94.5 5t-94.5 3l-34 -164h100l-19 -90h-101z" />
<glyph unicode="&#x167;" horiz-adv-x="400" d="M381 248h-141q-10 -44 -13 -61t-3 -26q0 -23 13.5 -34.5t36.5 -11.5q18 0 39 6.5t43 17.5l-13 -108q-28 -16 -69 -28.5t-88 -12.5q-70 0 -107.5 34.5t-37.5 104.5q0 19 3.5 42.5t15.5 76.5h-65l19 90h65q4 18 8 38t9 42l-65 2l13 60l74 20l73 131l112 8l18 -21l-28 -118 h137l8 -20l-23 -70l-140 4q-5 -22 -9 -40.5t-7 -35.5h141z" />
<glyph unicode="&#x168;" horiz-adv-x="711" d="M432 943q25 0 43.5 -8.5t34 -20t31.5 -20t35 -8.5q21 0 35 11.5t31 31.5l43 -7q-8 -37 -26.5 -71.5t-46.5 -57t-65 -22.5q-30 0 -55.5 14t-48.5 28.5t-46 14.5q-16 0 -31 -10t-33 -33l-43 7q8 36 25.5 71t46.5 57.5t70 22.5zM67 170q0 37 11.5 95t27.5 129t31 147t22 149 l177 10l16 -20q-26 -123 -43.5 -203.5t-27.5 -128.5t-15.5 -74t-7 -38.5t-1.5 -21.5q0 -85 84 -85q103 0 131 127q23 109 38 179.5t23.5 113.5t12.5 67.5t5.5 40.5t2.5 33l187 8l-97 -458q-17 -82 -68 -138t-122 -84t-150 -28q-70 0 -123.5 21.5t-83.5 62t-30 96.5z" />
<glyph unicode="&#x169;" horiz-adv-x="577" d="M297 762q34 0 57.5 -14.5t44.5 -28.5t46 -14q20 0 33 11.5t28 31.5l48 -7q-9 -42 -28 -81t-47.5 -64.5t-66.5 -25.5q-30 0 -57 14t-51 28.5t-46 14.5q-14 0 -28 -10t-31 -33l-47 7q9 41 27 80.5t47 65t71 25.5zM36 150l44 209l8 141l189 10q0 -46 -9 -99t-20.5 -104.5 t-18.5 -93.5q-4 -28 -3 -50.5t21 -22.5q21 0 41 26.5t37 71.5t28 100q5 31 9 56.5t6 48.5q3 29 3 57l190 10q-4 -36 -8.5 -67t-11.5 -68.5t-17.5 -90.5t-26.5 -133q-7 -32 -10 -66.5t-3 -84.5h-180q0 34 1.5 60.5t5.5 53.5h-3q-38 -67 -87 -95.5t-93 -28.5q-61 0 -84 45 t-8 115z" />
<glyph unicode="&#x16a;" horiz-adv-x="711" d="M328 809l20 96h298l-20 -96h-298zM67 170q0 37 11.5 95t27.5 129t31 147t22 149l177 10l16 -20q-26 -123 -43.5 -203.5t-27.5 -128.5t-15.5 -74t-7 -38.5t-1.5 -21.5q0 -85 84 -85q103 0 131 127q23 109 38 179.5t23.5 113.5t12.5 67.5t5.5 40.5t2.5 33l187 8l-97 -458 q-17 -82 -68 -138t-122 -84t-150 -28q-70 0 -123.5 21.5t-83.5 62t-30 96.5z" />
<glyph unicode="&#x16b;" horiz-adv-x="577" d="M185 618l20 96h298l-20 -96h-298zM36 150l44 209l8 141l189 10q0 -46 -9 -99t-20.5 -104.5t-18.5 -93.5q-4 -28 -3 -50.5t21 -22.5q21 0 41 26.5t37 71.5t28 100q5 31 9 56.5t6 48.5q3 29 3 57l190 10q-4 -36 -8.5 -67t-11.5 -68.5t-17.5 -90.5t-26.5 -133 q-7 -32 -10 -66.5t-3 -84.5h-180q0 34 1.5 60.5t5.5 53.5h-3q-38 -67 -87 -95.5t-93 -28.5q-61 0 -84 45t-8 115z" />
<glyph unicode="&#x16c;" horiz-adv-x="711" d="M577 933l71 9q-19 -72 -72 -119.5t-127 -47.5q-64 0 -97 40.5t-23 108.5l72 10q3 -22 24.5 -35.5t53.5 -13.5q33 0 60 14t38 34zM67 170q0 37 11.5 95t27.5 129t31 147t22 149l177 10l16 -20q-26 -123 -43.5 -203.5t-27.5 -128.5t-15.5 -74t-7 -38.5t-1.5 -21.5 q0 -85 84 -85q103 0 131 127q23 109 38 179.5t23.5 113.5t12.5 67.5t5.5 40.5t2.5 33l187 8l-97 -458q-17 -82 -68 -138t-122 -84t-150 -28q-70 0 -123.5 21.5t-83.5 62t-30 96.5z" />
<glyph unicode="&#x16d;" horiz-adv-x="577" d="M459 765l71 9q-14 -56 -44 -101t-71 -70.5t-90 -25.5q-64 0 -95.5 48.5t-18.5 130.5l72 10q0 -37 20 -58t51 -21q33 0 62.5 22.5t42.5 55.5zM36 150l44 209l8 141l189 10q0 -46 -9 -99t-20.5 -104.5t-18.5 -93.5q-4 -28 -3 -50.5t21 -22.5q21 0 41 26.5t37 71.5t28 100 q5 31 9 56.5t6 48.5q3 29 3 57l190 10q-4 -36 -8.5 -67t-11.5 -68.5t-17.5 -90.5t-26.5 -133q-7 -32 -10 -66.5t-3 -84.5h-180q0 34 1.5 60.5t5.5 53.5h-3q-38 -67 -87 -95.5t-93 -28.5q-61 0 -84 45t-8 115z" />
<glyph unicode="&#x16e;" horiz-adv-x="711" d="M620 898q0 -37 -23.5 -70.5t-61.5 -54.5t-80 -21q-46 0 -72 23.5t-26 57.5q0 36 25 69t64 54t82 21q42 0 67 -21.5t25 -57.5zM430 847q0 -16 11 -27.5t31 -11.5q29 0 52 24t23 52q0 37 -37 37q-20 0 -38.5 -11t-30 -27.5t-11.5 -35.5zM67 170q0 37 11.5 95t27.5 129 t31 147t22 149l177 10l16 -20q-26 -123 -43.5 -203.5t-27.5 -128.5t-15.5 -74t-7 -38.5t-1.5 -21.5q0 -85 84 -85q103 0 131 127q23 109 38 179.5t23.5 113.5t12.5 67.5t5.5 40.5t2.5 33l187 8l-97 -458q-17 -82 -68 -138t-122 -84t-150 -28q-70 0 -123.5 21.5t-83.5 62 t-30 96.5z" />
<glyph unicode="&#x16f;" horiz-adv-x="577" d="M479 713q0 -37 -23.5 -70.5t-61.5 -54.5t-80 -21q-46 0 -72 23.5t-26 57.5q0 36 25 69t64 54t82 21q42 0 67 -21.5t25 -57.5zM289 662q0 -16 11 -27.5t31 -11.5q29 0 52 24t23 52q0 37 -37 37q-20 0 -38.5 -11t-30 -27.5t-11.5 -35.5zM36 150l44 209l8 141l189 10 q0 -46 -9 -99t-20.5 -104.5t-18.5 -93.5q-4 -28 -3 -50.5t21 -22.5q21 0 41 26.5t37 71.5t28 100q5 31 9 56.5t6 48.5q3 29 3 57l190 10q-4 -36 -8.5 -67t-11.5 -68.5t-17.5 -90.5t-26.5 -133q-7 -32 -10 -66.5t-3 -84.5h-180q0 34 1.5 60.5t5.5 53.5h-3q-38 -67 -87 -95.5 t-93 -28.5q-61 0 -84 45t-8 115z" />
<glyph unicode="&#x170;" horiz-adv-x="711" d="M495 866l-16 -29q-64 -36 -127.5 -50.5t-125.5 -15.5l-3 41q56 34 108 69t101 73zM755 866l-16 -29q-64 -36 -127.5 -50.5t-125.5 -15.5l-3 41q56 34 108 69t101 73zM67 170q0 37 11.5 95t27.5 129t31 147t22 149l177 10l16 -20q-26 -123 -43.5 -203.5t-27.5 -128.5 t-15.5 -74t-7 -38.5t-1.5 -21.5q0 -85 84 -85q103 0 131 127q23 109 38 179.5t23.5 113.5t12.5 67.5t5.5 40.5t2.5 33l187 8l-97 -458q-17 -82 -68 -138t-122 -84t-150 -28q-70 0 -123.5 21.5t-83.5 62t-30 96.5z" />
<glyph unicode="&#x171;" horiz-adv-x="577" d="M385 766l4 -30q-71 -98 -160 -170l-68 10q28 50 53 99.5t45 98.5zM578 766l4 -30q-71 -98 -160 -170l-68 10q28 50 53 99.5t45 98.5zM36 150l44 209l8 141l189 10q0 -46 -9 -99t-20.5 -104.5t-18.5 -93.5q-4 -28 -3 -50.5t21 -22.5q21 0 41 26.5t37 71.5t28 100 q5 31 9 56.5t6 48.5q3 29 3 57l190 10q-4 -36 -8.5 -67t-11.5 -68.5t-17.5 -90.5t-26.5 -133q-7 -32 -10 -66.5t-3 -84.5h-180q0 34 1.5 60.5t5.5 53.5h-3q-38 -67 -87 -95.5t-93 -28.5q-61 0 -84 45t-8 115z" />
<glyph unicode="&#x172;" horiz-adv-x="711" d="M67 170q0 37 11.5 95t27.5 129t31 147t22 149l177 10l16 -20q-26 -123 -43.5 -203.5t-27.5 -128.5t-15.5 -74t-7 -38.5t-1.5 -21.5q0 -85 84 -85q103 0 131 127q23 109 38 179.5t23.5 113.5t12.5 67.5t5.5 40.5t2.5 33l187 8l-97 -458q-15 -70 -55 -121t-95 -82v0 q-72 -46 -113 -89t-41 -81q0 -13 8 -21t27 -8q10 0 24.5 3t32.5 10l12 -59q-33 -25 -74.5 -41.5t-82.5 -16.5q-44 0 -72 22.5t-28 60.5q0 45 37 89.5t101 84.5q-10 -1 -21 -1q-70 0 -123.5 21.5t-83.5 62t-30 96.5z" />
<glyph unicode="&#x173;" horiz-adv-x="577" d="M36 150l44 209l8 141l189 10q0 -46 -9 -99t-20.5 -104.5t-18.5 -93.5q-4 -28 -3 -50.5t21 -22.5q21 0 41 26.5t37 71.5t28 100q5 31 9 56.5t6 48.5q3 29 3 57l190 10q-4 -36 -8.5 -67t-11.5 -68.5t-17.5 -90.5t-26.5 -133q-7 -32 -10 -66.5t-3 -84.5q-66 -28 -104 -64 t-38 -69q0 -13 8 -21t27 -8q10 0 24.5 3t32.5 10l12 -59q-33 -25 -74.5 -41.5t-82.5 -16.5q-44 0 -72 22.5t-28 60.5q0 52 48.5 101t129.5 82h-63q0 34 1.5 60.5t5.5 53.5h-3q-38 -67 -87 -95.5t-93 -28.5q-61 0 -84 45t-8 115z" />
<glyph unicode="&#x174;" horiz-adv-x="965" d="M468 772l-38 40q46 35 80 63.5t68 57.5l119 10q20 -32 43.5 -65.5t50.5 -65.5l-56 -40q-34 13 -63.5 29t-56.5 31q-37 -17 -73.5 -32.5t-73.5 -27.5zM124 0l-27 681l202 19l-4 -344q0 -46 -3 -96.5t-4 -82.5q12 30 32 78t37 89l149 346l180 10l-1 -344q0 -46 -0.5 -96.5 t-0.5 -82.5q14 38 24 65t20 51.5t22 54.5l147 352l146 -10l6 -19l-313 -671h-205l-6 223q-1 54 0.5 108.5t0.5 108.5h-3q-20 -50 -35 -85t-28.5 -66t-31.5 -69l-99 -220h-205z" />
<glyph unicode="&#x175;" horiz-adv-x="868" d="M377 552l-48 40q38 39 77 81.5t73 82.5l119 10q17 -43 35.5 -85.5t42.5 -88.5l-66 -40q-29 21 -52 45t-44 48q-34 -25 -67 -49t-70 -44zM784 510q38 0 63.5 -10t25.5 -48q0 -31 -18.5 -84t-51 -117.5t-74 -129.5t-87.5 -121h-206q9 80 15.5 161t10.5 163h-3 q-34 -91 -75 -172t-88 -152h-206q-2 102 -7.5 196t-13 172t-16.5 132l194 10q6 -55 6.5 -122.5t-3 -139t-11.5 -138.5h3q32 60 59.5 128t46.5 135.5t25 126.5h221q5 -50 5.5 -115.5t-3 -136.5t-11.5 -138h3q31 62 57.5 131t44.5 137t24 124q23 5 39.5 6.5t30.5 1.5z" />
<glyph unicode="&#x176;" horiz-adv-x="589" d="M302 772l-38 40q46 35 80 63.5t68 57.5l119 10q20 -32 43.5 -65.5t50.5 -65.5l-56 -40q-34 13 -63.5 29t-56.5 31q-37 -17 -73.5 -32.5t-73.5 -27.5zM195 216l-98 465l202 19l21 -202q4 -38 7.5 -82t4.5 -70h3q10 18 24 44.5t29.5 55t27.5 51.5l105 203l146 -10l6 -19 l-293 -455l-46 -216h-185z" />
<glyph unicode="&#x177;" horiz-adv-x="522" d="M205 552l-48 40q38 39 77 81.5t73 82.5l119 10q17 -43 35.5 -85.5t42.5 -88.5l-66 -40q-29 21 -52 45t-44 48q-34 -25 -67 -49t-70 -44zM437 510q38 0 64 -10t26 -47q0 -30 -18.5 -83t-52 -119.5t-77 -137t-94.5 -137t-104.5 -120t-106 -85t-99.5 -31.5q-42 0 -66.5 25.5 t-24.5 70.5q0 22 5.5 38t13.5 29q18 -5 38 -7.5t39 -2.5q42 0 83.5 12t75.5 35.5t54 59.5h-103q-2 102 -7.5 196t-13 172t-16.5 132l194 10q6 -55 6.5 -122.5t-3 -139t-11.5 -138.5h3q31 62 57.5 131t44.5 137t24 124q23 5 39.5 6.5t29.5 1.5z" />
<glyph unicode="&#x178;" horiz-adv-x="589" d="M659 883q0 -27 -17 -51.5t-44.5 -39.5t-59.5 -15q-31 0 -49 16.5t-18 40.5q0 27 18 51t46 39t59 15q29 0 47 -15t18 -41zM418 883q0 -27 -17 -51.5t-44.5 -39.5t-59.5 -15q-31 0 -49 16.5t-18 40.5q0 27 18 51t46 39t59 15q29 0 47 -15t18 -41zM195 216l-98 465l202 19 l21 -202q4 -38 7.5 -82t4.5 -70h3q10 18 24 44.5t29.5 55t27.5 51.5l105 203l146 -10l6 -19l-293 -455l-46 -216h-185z" />
<glyph unicode="&#x179;" horiz-adv-x="539" d="M563 863l-16 -29q-76 -33 -153 -47.5t-157 -15.5l-3 41q64 33 124.5 68.5t116.5 73.5zM-13 0l-5 120l389 418l-287 -8l44 160h447l22 -120l-385 -418l291 8l-44 -160h-472z" />
<glyph unicode="&#x17a;" horiz-adv-x="493" d="M451 766l4 -30q-42 -50 -90 -92t-102 -78l-68 10q28 50 53 99.5t45 98.5zM47 -10l-56 85q84 80 158 152.5t136 135.5q-37 7 -66 7q-40 0 -74.5 -13.5t-57.5 -42.5l-47 30q23 67 51 103t61 49.5t70 13.5q42 0 81.5 -13t79.5 -34q24 24 45 47q11 0 26 -4.5t26 -17t11 -35.5 q0 -21 -13.5 -45.5t-46.5 -59t-90 -85t-143 -122.5q10 2 24 2q29 0 46 -5.5t38 -5.5q35 0 62.5 18.5t44.5 49.5l57 -36q-20 -69 -46 -107t-59 -52.5t-75 -14.5q-37 0 -65 8t-51 15.5t-44 7.5q-17 0 -37.5 -7t-45.5 -24z" />
<glyph unicode="&#x17b;" horiz-adv-x="539" d="M504 887q0 -31 -19.5 -59t-50.5 -45t-66 -17t-56.5 19t-21.5 47q0 30 20.5 56.5t52.5 43.5t67 17q32 0 53 -16.5t21 -45.5zM-13 0l-5 120l389 418l-287 -8l44 160h447l22 -120l-385 -418l291 8l-44 -160h-472z" />
<glyph unicode="&#x17c;" horiz-adv-x="493" d="M433 696q0 -33 -20 -63.5t-52 -49.5t-68 -19q-37 0 -58 20.5t-21 51.5t20.5 60.5t53 48.5t69.5 19q35 0 55.5 -18t20.5 -50zM47 -10l-56 85q84 80 158 152.5t136 135.5q-37 7 -66 7q-40 0 -74.5 -13.5t-57.5 -42.5l-47 30q23 67 51 103t61 49.5t70 13.5q42 0 81.5 -13 t79.5 -34q24 24 45 47q11 0 26 -4.5t26 -17t11 -35.5q0 -21 -13.5 -45.5t-46.5 -59t-90 -85t-143 -122.5q10 2 24 2q29 0 46 -5.5t38 -5.5q35 0 62.5 18.5t44.5 49.5l57 -36q-20 -69 -46 -107t-59 -52.5t-75 -14.5q-37 0 -65 8t-51 15.5t-44 7.5q-17 0 -37.5 -7t-45.5 -24z " />
<glyph unicode="&#x17d;" horiz-adv-x="539" d="M541 947l38 -40q-46 -34 -80 -63l-68 -58l-119 -10q-20 32 -43.5 65.5t-50.5 65.5l56 40q34 -13 63.5 -29t56.5 -31q37 17 73.5 32.5t73.5 27.5zM-13 0l-5 120l389 418l-287 -8l44 160h447l22 -120l-385 -418l291 8l-44 -160h-472z" />
<glyph unicode="&#x17e;" horiz-adv-x="493" d="M472 784l48 -40q-38 -39 -77 -81.5t-73 -82.5l-119 -10q-17 43 -35.5 85.5t-42.5 88.5l66 40q29 -21 52 -45t44 -48q34 25 67 49t70 44zM47 -10l-56 85q84 80 158 152.5t136 135.5q-37 7 -66 7q-40 0 -74.5 -13.5t-57.5 -42.5l-47 30q23 67 51 103t61 49.5t70 13.5 q42 0 81.5 -13t79.5 -34q24 24 45 47q11 0 26 -4.5t26 -17t11 -35.5q0 -21 -13.5 -45.5t-46.5 -59t-90 -85t-143 -122.5q10 2 24 2q29 0 46 -5.5t38 -5.5q35 0 62.5 18.5t44.5 49.5l57 -36q-20 -69 -46 -107t-59 -52.5t-75 -14.5q-37 0 -65 8t-51 15.5t-44 7.5 q-17 0 -37.5 -7t-45.5 -24z" />
<glyph unicode="&#x18f;" horiz-adv-x="687" d="M75 384l32 25h367q-7 81 -49 118t-113 37q-46 0 -91 -12.5t-84 -32.5l26 135q16 9 50.5 19.5t81 18.5t95.5 8q135 0 209.5 -71t74.5 -206q0 -88 -31.5 -166.5t-87.5 -138.5t-131 -94t-162 -34q-103 0 -163 53.5t-60 165.5q0 45 8.5 83t17.5 62.5t10 29.5zM222 227 q0 -55 19 -83t62 -28q45 0 79.5 26.5t57.5 72t31 102.5l-239 -18q-5 -18 -7.5 -34.5t-2.5 -37.5z" />
<glyph unicode="&#x192;" horiz-adv-x="595" d="M175 293l-115 5l23 60l111 20h4l11 42q34 128 111 204t206 76q50 0 86.5 -10t55.5 -24l-80 -136q-19 17 -43 28.5t-47 11.5q-34 0 -55 -25t-33 -59.5t-21 -65.5l-12 -42h168l4 -18l-30 -67h-165l-69 -247q-8 -26 -21 -64.5t-35 -80.5t-56.5 -78.5t-84 -59.5t-118.5 -23 q-51 0 -105 16l47 137q49 -23 81 -23q43 0 66 32.5t34 75.5l83 315h-1z" />
<glyph unicode="&#x19d;" horiz-adv-x="730" d="M-37 -202l-38 62q51 57 82 126t50 154l78 371q9 44 17 91.5t11 87.5l187 7q23 -66 39 -113t28.5 -81t22.5 -63q16 -42 30 -92t24 -102h3q4 38 7 67t8.5 60t14.5 75q13 62 24 124.5t17 117.5l167 8l16 -20l-144 -678h-175q-29 75 -50 137.5t-41 114.5q-18 47 -32 92 t-25 91h-3q-4 -59 -11 -104t-16 -88l-22 -103q-14 -65 -33.5 -115.5t-49 -90t-75 -73t-111.5 -63.5z" />
<glyph unicode="&#x1cd;" horiz-adv-x="690" d="M600 947l38 -40q-46 -34 -80 -63l-68 -58l-119 -10q-20 32 -43.5 65.5t-50.5 65.5l56 40q34 -13 63.5 -29t56.5 -31q37 17 73.5 32.5t73.5 27.5zM147 0h-175l289 580q16 31 29 59.5t21 50.5l226 9l25 -25l50 -674h-185l-8 130h-209zM294 305l-22 -45h140l-3 44 q-4 85 -4.5 144.5t0.5 93.5h-5q-9 -22 -25 -59.5t-37 -83.5t-44 -94z" />
<glyph unicode="&#x1ce;" horiz-adv-x="580" d="M528 784l48 -40q-38 -39 -77 -81.5t-73 -82.5l-119 -10q-17 43 -35.5 85.5t-42.5 88.5l66 40q29 -21 52 -45t44 -48q34 25 67 49t70 44zM25 146q0 61 21.5 125t64.5 118t107.5 87.5t149.5 33.5q29 0 65 -4.5t71.5 -14t64.5 -25.5l-39 -178q-19 -87 -28 -143.5t-12 -90.5 t-3 -54h-180q0 28 3.5 62.5t13.5 92.5q-14 -47 -41 -84t-63 -59t-78 -22q-57 0 -87 41.5t-30 114.5zM210 195q0 -55 33 -55q23 0 45.5 29t41 74t30.5 95q5 29 12 61q-21 11 -37 11q-25 0 -47.5 -22t-40 -56t-27.5 -71t-10 -66z" />
<glyph unicode="&#x1cf;" horiz-adv-x="336" d="M445 947l38 -40q-46 -34 -80 -63l-68 -58l-119 -10q-20 32 -43.5 65.5t-50.5 65.5l56 40q34 -13 63.5 -29t56.5 -31q37 17 73.5 32.5t73.5 27.5zM213 0h-185l107 503q11 52 18.5 99.5t10.5 87.5l177 10l16 -20z" />
<glyph unicode="&#x1d0;" horiz-adv-x="301" d="M320 776l59 -24q-25 -42 -49 -87t-45 -89l-170 -10q-2 44 -5.5 92t-11.5 94l69 24q18 -22 31 -47t24 -54q22 27 46.5 53t51.5 48zM208 0h-180q0 54 10 121t27 146l20 92l8 141l189 10q0 -50 -11 -113t-26 -132t-26 -137t-11 -128z" />
<glyph unicode="&#x1d1;" horiz-adv-x="705" d="M615 947l38 -40q-46 -34 -80 -63l-68 -58l-119 -10q-20 32 -43.5 65.5t-50.5 65.5l56 40q34 -13 63.5 -29t56.5 -31q37 17 73.5 32.5t73.5 27.5zM695 437q0 -85 -29 -164.5t-82.5 -143.5t-127 -101.5t-162.5 -37.5q-115 0 -179.5 68t-64.5 195q0 85 29 165t81.5 143.5 t126 101t161.5 37.5q116 0 181.5 -68t65.5 -195zM240 250q0 -58 19 -91.5t64 -33.5t79 30.5t57 78.5t34.5 102.5t11.5 103.5q0 59 -19 92t-64 33t-79 -30.5t-57 -78.5t-34.5 -102.5t-11.5 -103.5z" />
<glyph unicode="&#x1d2;" horiz-adv-x="571" d="M509 784l48 -40q-38 -39 -77 -81.5t-73 -82.5l-119 -10q-17 43 -35.5 85.5t-42.5 88.5l66 40q29 -21 52 -45t44 -48q34 25 67 49t70 44zM543 316q0 -64 -24 -122.5t-67 -104.5t-101 -72.5t-126 -26.5q-85 0 -139.5 46.5t-54.5 143.5q0 63 24.5 122t68 106t101.5 74.5 t126 27.5q89 0 140.5 -50t51.5 -144zM216 161q0 -34 8.5 -52.5t28.5 -18.5q26 0 46 26.5t33 67t19.5 83t6.5 73.5q0 70 -37 70q-27 0 -46.5 -26t-32.5 -66t-19.5 -82.5t-6.5 -74.5z" />
<glyph unicode="&#x1d3;" horiz-adv-x="711" d="M631 947l38 -40q-46 -34 -80 -63l-68 -58l-119 -10q-20 32 -43.5 65.5t-50.5 65.5l56 40q34 -13 63.5 -29t56.5 -31q37 17 73.5 32.5t73.5 27.5zM67 170q0 37 11.5 95t27.5 129t31 147t22 149l177 10l16 -20q-26 -123 -43.5 -203.5t-27.5 -128.5t-15.5 -74t-7 -38.5 t-1.5 -21.5q0 -85 84 -85q103 0 131 127q23 109 38 179.5t23.5 113.5t12.5 67.5t5.5 40.5t2.5 33l187 8l-97 -458q-17 -82 -68 -138t-122 -84t-150 -28q-70 0 -123.5 21.5t-83.5 62t-30 96.5z" />
<glyph unicode="&#x1d4;" horiz-adv-x="577" d="M492 784l48 -40q-38 -39 -77 -81.5t-73 -82.5l-119 -10q-17 43 -35.5 85.5t-42.5 88.5l66 40q29 -21 52 -45t44 -48q34 25 67 49t70 44zM36 150l44 209l8 141l189 10q0 -46 -9 -99t-20.5 -104.5t-18.5 -93.5q-4 -28 -3 -50.5t21 -22.5q21 0 41 26.5t37 71.5t28 100 q5 31 9 56.5t6 48.5q3 29 3 57l190 10q-4 -36 -8.5 -67t-11.5 -68.5t-17.5 -90.5t-26.5 -133q-7 -32 -10 -66.5t-3 -84.5h-180q0 34 1.5 60.5t5.5 53.5h-3q-38 -67 -87 -95.5t-93 -28.5q-61 0 -84 45t-8 115z" />
<glyph unicode="&#x1d5;" horiz-adv-x="711" d="M379 1048l20 96h298l-20 -96h-298zM702 883q0 -27 -17 -51.5t-44.5 -39.5t-59.5 -15q-31 0 -49 16.5t-18 40.5q0 27 18 51t46 39t59 15q29 0 47 -15t18 -41zM461 883q0 -27 -17 -51.5t-44.5 -39.5t-59.5 -15q-31 0 -49 16.5t-18 40.5q0 27 18 51t46 39t59 15q29 0 47 -15 t18 -41zM67 170q0 37 11.5 95t27.5 129t31 147t22 149l177 10l16 -20q-26 -123 -43.5 -203.5t-27.5 -128.5t-15.5 -74t-7 -38.5t-1.5 -21.5q0 -85 84 -85q103 0 131 127q23 109 38 179.5t23.5 113.5t12.5 67.5t5.5 40.5t2.5 33l187 8l-97 -458q-17 -82 -68 -138t-122 -84 t-150 -28q-70 0 -123.5 21.5t-83.5 62t-30 96.5z" />
<glyph unicode="&#x1d6;" horiz-adv-x="577" d="M240 877l20 96h298l-20 -96h-298zM324 696q0 -31 -18 -59t-47 -45.5t-62 -17.5q-34 0 -52.5 18.5t-18.5 46.5q0 30 19 57.5t49.5 45t62.5 17.5q31 0 49 -17t18 -46zM563 696q0 -31 -18 -59t-47 -45.5t-62 -17.5q-34 0 -52.5 18.5t-18.5 46.5q0 30 19 57.5t49.5 45 t62.5 17.5q31 0 49 -17t18 -46zM36 150l44 209l8 141l189 10q0 -46 -9 -99t-20.5 -104.5t-18.5 -93.5q-4 -28 -3 -50.5t21 -22.5q21 0 41 26.5t37 71.5t28 100q5 31 9 56.5t6 48.5q3 29 3 57l190 10q-4 -36 -8.5 -67t-11.5 -68.5t-17.5 -90.5t-26.5 -133q-7 -32 -10 -66.5 t-3 -84.5h-180q0 34 1.5 60.5t5.5 53.5h-3q-38 -67 -87 -95.5t-93 -28.5q-61 0 -84 45t-8 115z" />
<glyph unicode="&#x1d7;" horiz-adv-x="711" d="M704 1102l-16 -29q-76 -33 -153 -47.5t-157 -15.5l-3 41q64 33 124.5 68.5t116.5 73.5zM702 883q0 -27 -17 -51.5t-44.5 -39.5t-59.5 -15q-31 0 -49 16.5t-18 40.5q0 27 18 51t46 39t59 15q29 0 47 -15t18 -41zM461 883q0 -27 -17 -51.5t-44.5 -39.5t-59.5 -15 q-31 0 -49 16.5t-18 40.5q0 27 18 51t46 39t59 15q29 0 47 -15t18 -41zM67 170q0 37 11.5 95t27.5 129t31 147t22 149l177 10l16 -20q-26 -123 -43.5 -203.5t-27.5 -128.5t-15.5 -74t-7 -38.5t-1.5 -21.5q0 -85 84 -85q103 0 131 127q23 109 38 179.5t23.5 113.5t12.5 67.5 t5.5 40.5t2.5 33l187 8l-97 -458q-17 -82 -68 -138t-122 -84t-150 -28q-70 0 -123.5 21.5t-83.5 62t-30 96.5z" />
<glyph unicode="&#x1d8;" horiz-adv-x="577" d="M526 1025l4 -30q-42 -50 -90 -92t-102 -78l-68 10q28 50 53 99.5t45 98.5zM324 696q0 -31 -18 -59t-47 -45.5t-62 -17.5q-34 0 -52.5 18.5t-18.5 46.5q0 30 19 57.5t49.5 45t62.5 17.5q31 0 49 -17t18 -46zM563 696q0 -31 -18 -59t-47 -45.5t-62 -17.5q-34 0 -52.5 18.5 t-18.5 46.5q0 30 19 57.5t49.5 45t62.5 17.5q31 0 49 -17t18 -46zM36 150l44 209l8 141l189 10q0 -46 -9 -99t-20.5 -104.5t-18.5 -93.5q-4 -28 -3 -50.5t21 -22.5q21 0 41 26.5t37 71.5t28 100q5 31 9 56.5t6 48.5q3 29 3 57l190 10q-4 -36 -8.5 -67t-11.5 -68.5 t-17.5 -90.5t-26.5 -133q-7 -32 -10 -66.5t-3 -84.5h-180q0 34 1.5 60.5t5.5 53.5h-3q-38 -67 -87 -95.5t-93 -28.5q-61 0 -84 45t-8 115z" />
<glyph unicode="&#x1d9;" horiz-adv-x="711" d="M688 1223l48 -40q-38 -39 -77 -81.5t-73 -82.5l-119 -10q-17 43 -35.5 85.5t-42.5 88.5l66 40q29 -21 52 -45t44 -48q34 25 67 49t70 44zM702 883q0 -27 -17 -51.5t-44.5 -39.5t-59.5 -15q-31 0 -49 16.5t-18 40.5q0 27 18 51t46 39t59 15q29 0 47 -15t18 -41zM461 883 q0 -27 -17 -51.5t-44.5 -39.5t-59.5 -15q-31 0 -49 16.5t-18 40.5q0 27 18 51t46 39t59 15q29 0 47 -15t18 -41zM67 170q0 37 11.5 95t27.5 129t31 147t22 149l177 10l16 -20q-26 -123 -43.5 -203.5t-27.5 -128.5t-15.5 -74t-7 -38.5t-1.5 -21.5q0 -85 84 -85q103 0 131 127 q23 109 38 179.5t23.5 113.5t12.5 67.5t5.5 40.5t2.5 33l187 8l-97 -458q-17 -82 -68 -138t-122 -84t-150 -28q-70 0 -123.5 21.5t-83.5 62t-30 96.5z" />
<glyph unicode="&#x1da;" horiz-adv-x="577" d="M547 1043l48 -40q-38 -39 -77 -81.5t-73 -82.5l-119 -10q-17 43 -35.5 85.5t-42.5 88.5l66 40q29 -21 52 -45t44 -48q34 25 67 49t70 44zM324 696q0 -31 -18 -59t-47 -45.5t-62 -17.5q-34 0 -52.5 18.5t-18.5 46.5q0 30 19 57.5t49.5 45t62.5 17.5q31 0 49 -17t18 -46z M563 696q0 -31 -18 -59t-47 -45.5t-62 -17.5q-34 0 -52.5 18.5t-18.5 46.5q0 30 19 57.5t49.5 45t62.5 17.5q31 0 49 -17t18 -46zM36 150l44 209l8 141l189 10q0 -46 -9 -99t-20.5 -104.5t-18.5 -93.5q-4 -28 -3 -50.5t21 -22.5q21 0 41 26.5t37 71.5t28 100q5 31 9 56.5 t6 48.5q3 29 3 57l190 10q-4 -36 -8.5 -67t-11.5 -68.5t-17.5 -90.5t-26.5 -133q-7 -32 -10 -66.5t-3 -84.5h-180q0 34 1.5 60.5t5.5 53.5h-3q-38 -67 -87 -95.5t-93 -28.5q-61 0 -84 45t-8 115z" />
<glyph unicode="&#x1db;" horiz-adv-x="711" d="M672 1010q-76 1 -148 15t-134 48l-4 29l126 91q41 -37 87 -73.5t94 -68.5zM702 883q0 -27 -17 -51.5t-44.5 -39.5t-59.5 -15q-31 0 -49 16.5t-18 40.5q0 27 18 51t46 39t59 15q29 0 47 -15t18 -41zM461 883q0 -27 -17 -51.5t-44.5 -39.5t-59.5 -15q-31 0 -49 16.5 t-18 40.5q0 27 18 51t46 39t59 15q29 0 47 -15t18 -41zM67 170q0 37 11.5 95t27.5 129t31 147t22 149l177 10l16 -20q-26 -123 -43.5 -203.5t-27.5 -128.5t-15.5 -74t-7 -38.5t-1.5 -21.5q0 -85 84 -85q103 0 131 127q23 109 38 179.5t23.5 113.5t12.5 67.5t5.5 40.5t2.5 33 l187 8l-97 -458q-17 -82 -68 -138t-122 -84t-150 -28q-70 0 -123.5 21.5t-83.5 62t-30 96.5z" />
<glyph unicode="&#x1dc;" horiz-adv-x="577" d="M424 825q-39 37 -69 79t-51 91l16 30l162 8q0 -51 3.5 -100t10.5 -98zM324 696q0 -31 -18 -59t-47 -45.5t-62 -17.5q-34 0 -52.5 18.5t-18.5 46.5q0 30 19 57.5t49.5 45t62.5 17.5q31 0 49 -17t18 -46zM563 696q0 -31 -18 -59t-47 -45.5t-62 -17.5q-34 0 -52.5 18.5 t-18.5 46.5q0 30 19 57.5t49.5 45t62.5 17.5q31 0 49 -17t18 -46zM36 150l44 209l8 141l189 10q0 -46 -9 -99t-20.5 -104.5t-18.5 -93.5q-4 -28 -3 -50.5t21 -22.5q21 0 41 26.5t37 71.5t28 100q5 31 9 56.5t6 48.5q3 29 3 57l190 10q-4 -36 -8.5 -67t-11.5 -68.5 t-17.5 -90.5t-26.5 -133q-7 -32 -10 -66.5t-3 -84.5h-180q0 34 1.5 60.5t5.5 53.5h-3q-38 -67 -87 -95.5t-93 -28.5q-61 0 -84 45t-8 115z" />
<glyph unicode="&#x1e6;" horiz-adv-x="668" d="M635 947l38 -40q-46 -34 -80 -63l-68 -58l-119 -10q-20 32 -43.5 65.5t-50.5 65.5l56 40q34 -13 63.5 -29t56.5 -31q37 17 73.5 32.5t73.5 27.5zM610 333l16 -20l-63 -283q-49 -17 -107.5 -28.5t-120.5 -11.5q-143 0 -215.5 65t-72.5 189q0 89 35 171t97 146t145 101.5 t179 37.5q54 0 103.5 -11.5t81.5 -28.5l-63 -155q-29 23 -65.5 36.5t-78.5 13.5q-55 0 -99.5 -24t-75.5 -64t-47.5 -90t-16.5 -101q0 -146 140 -146q14 0 31 1q8 41 12.5 68t7.5 54.5t6 69.5z" />
<glyph unicode="&#x1e7;" horiz-adv-x="533" d="M500 784l48 -40q-38 -39 -77 -81.5t-73 -82.5l-119 -10q-17 43 -35.5 85.5t-42.5 88.5l66 40q29 -21 52 -45t44 -48q34 25 67 49t70 44zM154 -260q-107 0 -167.5 36.5t-60.5 87.5q0 41 38 69.5t90 43.5l34 -31q-1 -6 -1.5 -11.5t-0.5 -12.5q0 -46 27.5 -74t74.5 -28 q36 0 61 16t25 40q0 27 -29 44t-64 34t-60.5 36t-25.5 48q0 23 15 40.5t37.5 30t47 18.5t43.5 6v3h-15t-15 1q-68 6 -115 47.5t-47 116.5q0 51 22.5 90t60.5 65.5t84.5 40t94.5 13.5q67 0 109.5 0.5t73 3.5t60.5 9q16 -15 16 -38q0 -12 -5 -27t-18.5 -26.5t-37.5 -11.5 q-25 0 -46 11t-43 18l-1 -3q34 -18 55.5 -46.5t21.5 -75.5q0 -50 -23.5 -85t-57.5 -58.5t-68.5 -39t-58 -27.5t-23.5 -24q0 -8 13 -16.5t41 -22.5q18 -9 41.5 -22t45.5 -30.5t36.5 -40.5t14.5 -53q0 -49 -41 -86t-109 -58t-150 -21zM326 358q0 29 -7.5 48t-27.5 19 q-23 0 -40.5 -24t-27.5 -58t-10 -65t9.5 -52.5t30.5 -21.5q23 0 39.5 24.5t25 60.5t8.5 69z" />
<glyph unicode="&#x1ea;" horiz-adv-x="705" d="M695 437q0 -83 -27.5 -161t-78.5 -141t-121 -101q-62 -36 -101 -81t-39 -83q0 -15 8 -23.5t27 -8.5q10 0 24.5 3t32.5 10l12 -59q-33 -25 -74.5 -41.5t-82.5 -16.5q-44 0 -72 22.5t-28 63.5q0 44 33.5 88.5t92.5 81.5h-7q-115 0 -179.5 68t-64.5 195q0 85 29 165 t81.5 143.5t126 101t161.5 37.5q116 0 181.5 -68t65.5 -195zM240 250q0 -58 19 -91.5t64 -33.5t79 30.5t57 78.5t34.5 102.5t11.5 103.5q0 59 -19 92t-64 33t-79 -30.5t-57 -78.5t-34.5 -102.5t-11.5 -103.5z" />
<glyph unicode="&#x1eb;" horiz-adv-x="571" d="M543 316q0 -85 -42 -160t-112 -119q-76 -57 -111.5 -97t-35.5 -73q0 -13 8 -21t27 -8q10 0 24.5 3t32.5 10l12 -59q-33 -25 -74.5 -41.5t-82.5 -16.5q-44 0 -72 22.5t-28 62.5q0 87 136 171q-85 0 -139.5 46.5t-54.5 143.5q0 63 24.5 122t68 106t101.5 74.5t126 27.5 q89 0 140.5 -50t51.5 -144zM216 161q0 -34 8.5 -52.5t28.5 -18.5q26 0 46 26.5t33 67t19.5 83t6.5 73.5q0 70 -37 70q-27 0 -46.5 -26t-32.5 -66t-19.5 -82.5t-6.5 -74.5z" />
<glyph unicode="&#x1f4;" horiz-adv-x="668" d="M657 863l-16 -29q-76 -33 -153 -47.5t-157 -15.5l-3 41q64 33 124.5 68.5t116.5 73.5zM610 333l16 -20l-63 -283q-49 -17 -107.5 -28.5t-120.5 -11.5q-143 0 -215.5 65t-72.5 189q0 89 35 171t97 146t145 101.5t179 37.5q54 0 103.5 -11.5t81.5 -28.5l-63 -155 q-29 23 -65.5 36.5t-78.5 13.5q-55 0 -99.5 -24t-75.5 -64t-47.5 -90t-16.5 -101q0 -146 140 -146q14 0 31 1q8 41 12.5 68t7.5 54.5t6 69.5z" />
<glyph unicode="&#x1f5;" horiz-adv-x="533" d="M479 766l4 -30q-42 -50 -90 -92t-102 -78l-68 10q28 50 53 99.5t45 98.5zM154 -260q-107 0 -167.5 36.5t-60.5 87.5q0 41 38 69.5t90 43.5l34 -31q-1 -6 -1.5 -11.5t-0.5 -12.5q0 -46 27.5 -74t74.5 -28q36 0 61 16t25 40q0 27 -29 44t-64 34t-60.5 36t-25.5 48 q0 23 15 40.5t37.5 30t47 18.5t43.5 6v3h-15t-15 1q-68 6 -115 47.5t-47 116.5q0 51 22.5 90t60.5 65.5t84.5 40t94.5 13.5q67 0 109.5 0.5t73 3.5t60.5 9q16 -15 16 -38q0 -12 -5 -27t-18.5 -26.5t-37.5 -11.5q-25 0 -46 11t-43 18l-1 -3q34 -18 55.5 -46.5t21.5 -75.5 q0 -50 -23.5 -85t-57.5 -58.5t-68.5 -39t-58 -27.5t-23.5 -24q0 -8 13 -16.5t41 -22.5q18 -9 41.5 -22t45.5 -30.5t36.5 -40.5t14.5 -53q0 -49 -41 -86t-109 -58t-150 -21zM326 358q0 29 -7.5 48t-27.5 19q-23 0 -40.5 -24t-27.5 -58t-10 -65t9.5 -52.5t30.5 -21.5 q23 0 39.5 24.5t25 60.5t8.5 69z" />
<glyph unicode="&#x1fa;" horiz-adv-x="690" d="M680 1140l-16 -29q-76 -33 -153 -47.5t-157 -15.5l-3 41q64 33 124.5 68.5t116.5 73.5zM589 898q0 -37 -23.5 -70.5t-61.5 -54.5t-80 -21q-46 0 -72 23.5t-26 57.5q0 36 25 69t64 54t82 21q42 0 67 -21.5t25 -57.5zM399 847q0 -16 11 -27.5t31 -11.5q29 0 52 24t23 52 q0 37 -37 37q-20 0 -38.5 -11t-30 -27.5t-11.5 -35.5zM147 0h-175l289 580q16 31 29 59.5t21 50.5l226 9l25 -25l50 -674h-185l-8 130h-209zM294 305l-22 -45h140l-3 44q-4 85 -4.5 144.5t0.5 93.5h-5q-9 -22 -25 -59.5t-37 -83.5t-44 -94z" />
<glyph unicode="&#x1fb;" horiz-adv-x="580" d="M569 1058l4 -30q-42 -50 -90 -92t-102 -78l-68 10q28 50 53 99.5t45 98.5zM515 713q0 -37 -23.5 -70.5t-61.5 -54.5t-80 -21q-46 0 -72 23.5t-26 57.5q0 36 25 69t64 54t82 21q42 0 67 -21.5t25 -57.5zM325 662q0 -16 11 -27.5t31 -11.5q29 0 52 24t23 52q0 37 -37 37 q-20 0 -38.5 -11t-30 -27.5t-11.5 -35.5zM25 146q0 61 21.5 125t64.5 118t107.5 87.5t149.5 33.5q29 0 65 -4.5t71.5 -14t64.5 -25.5l-39 -178q-19 -87 -28 -143.5t-12 -90.5t-3 -54h-180q0 28 3.5 62.5t13.5 92.5q-14 -47 -41 -84t-63 -59t-78 -22q-57 0 -87 41.5 t-30 114.5zM210 195q0 -55 33 -55q23 0 45.5 29t41 74t30.5 95q5 29 12 61q-21 11 -37 11q-25 0 -47.5 -22t-40 -56t-27.5 -71t-10 -66z" />
<glyph unicode="&#x1fc;" horiz-adv-x="939" d="M808 863l-16 -29q-76 -33 -153 -47.5t-157 -15.5l-3 41q64 33 124.5 68.5t116.5 73.5zM147 0h-175l381 580q15 23 29.5 46t25 40.5t13.5 23.5h511l15 -20l-29 -120l-264 9l-19 -160l222 5l-32 -127l-204 6l-18 -153l278 10l-30 -140h-449l20 130h-192zM342 305l-29 -45 h128l7 44q13 85 24.5 145.5t17.5 92.5h-5q-13 -24 -35 -61.5t-50 -83t-58 -92.5z" />
<glyph unicode="&#x1fd;" horiz-adv-x="816" d="M626 766l4 -30q-42 -50 -90 -92t-102 -78l-68 10q28 50 53 99.5t45 98.5zM27 157q0 62 21.5 124.5t64.5 114t106.5 83t148.5 31.5q35 0 78 -6t83 -20q28 13 58.5 19.5t63.5 6.5q77 0 123 -36t46 -95q0 -78 -81 -125t-224 -59v-1q0 -40 20.5 -64.5t65.5 -24.5 q30 0 62 10.5t63 27.5l19 -73q-44 -38 -102.5 -59t-117.5 -21q-83 0 -137 44t-58 135q-12 -47 -39 -88t-64.5 -66t-80.5 -25q-57 0 -88 45.5t-31 121.5zM626 415q-29 0 -50.5 -27.5t-35.5 -67t-20 -76.5q63 15 100 47t37 82q0 23 -8.5 32.5t-22.5 9.5zM212 195q0 -55 33 -55 q18 0 36.5 19.5t35.5 51t29 69.5q18 55 54 102q-36 28 -63 28q-25 0 -47.5 -22t-40 -56t-27.5 -71t-10 -66z" />
<glyph unicode="&#x1fe;" horiz-adv-x="705" d="M637 863l-16 -29q-76 -33 -153 -47.5t-157 -15.5l-3 41q64 33 124.5 68.5t116.5 73.5zM695 437q0 -85 -29 -164.5t-82.5 -143.5t-127 -101.5t-162.5 -37.5q-120 0 -183 72l-84 -77l-53 56l96 89q-20 53 -20 123q0 85 29 165t81.5 143.5t126 101t161.5 37.5q110 0 174 -60 l70 65l54 -55l-79 -73q28 -59 28 -140zM422 565q-40 0 -72 -25t-54.5 -66t-36 -89.5t-17.5 -95.5l250 231q-20 45 -70 45zM323 125q43 0 76.5 28.5t56 74t35 98t14.5 101.5l-258 -239q8 -30 26.5 -46.5t49.5 -16.5z" />
<glyph unicode="&#x1ff;" horiz-adv-x="571" d="M488 766l4 -30q-42 -50 -90 -92t-102 -78l-68 10q28 50 53 99.5t45 98.5zM543 316q0 -64 -24 -122.5t-67 -104.5t-101 -72.5t-126 -26.5q-83 0 -134 42l-69 -61l-47 56l73 63q-17 39 -17 90q0 63 24.5 122t68 106t101.5 74.5t126 27.5q81 0 130 -41l69 60l48 -55l-73 -64 q18 -40 18 -94zM321 410q-26 0 -45 -25t-32 -63t-20 -78l133 117q-4 49 -36 49zM253 90q25 0 44.5 25t32.5 63.5t20 79.5l-133 -117q4 -51 36 -51z" />
<glyph unicode="&#x218;" horiz-adv-x="559" d="M508 219q0 -65 -40 -117t-111 -82t-166 -30q-38 0 -77 5t-70.5 14t-46.5 20l42 151q22 -15 55 -26.5t67 -17.5t59 -6q44 0 68 18t24 48q0 29 -19.5 48.5t-46.5 35t-52 29.5q-40 24 -71.5 61t-31.5 98q0 68 42.5 120t117 82t169.5 30q48 0 91 -7t68 -18l-53 -155 q-30 19 -67 29.5t-72 10.5q-45 0 -72.5 -18.5t-27.5 -50.5q0 -25 16.5 -42t43 -31.5t55.5 -33.5q26 -16 50 -38t40 -53t16 -74zM75 -325q22 18 44.5 43.5t36.5 51.5q-24 5 -37.5 25.5t-7.5 50.5q7 35 38.5 61t69.5 26q33 0 54 -23.5t11 -71.5q-9 -43 -38 -83t-64.5 -72 t-64.5 -53z" />
<glyph unicode="&#x219;" horiz-adv-x="447" d="M449 485l-38 -132q-34 20 -70.5 31t-62.5 11q-25 0 -41.5 -9.5t-16.5 -26.5q0 -18 18 -30t44 -24t52 -28.5t44 -42t18 -65.5q0 -55 -35 -95t-91.5 -62t-123.5 -22q-46 0 -92 10.5t-71 28.5l37 129q38 -25 81.5 -39t72.5 -14q27 0 41 10.5t14 25.5q0 17 -18 29.5t-44 25 t-52 29t-44 41.5t-18 64q0 53 35.5 93.5t93 63.5t123.5 23q29 0 68 -5.5t76 -19.5zM16 -325q22 18 44.5 43.5t36.5 51.5q-24 5 -37.5 25.5t-7.5 50.5q7 35 38.5 61t69.5 26q33 0 54 -23.5t11 -71.5q-9 -43 -38 -83t-64.5 -72t-64.5 -53z" />
<glyph unicode="&#x21a;" horiz-adv-x="575" d="M327 0h-185l117 554q-47 -1 -95 -3t-96 -5l40 144h545l-20 -144q-47 3 -94.5 5t-94.5 3zM83 -325q22 18 44.5 43.5t36.5 51.5q-24 5 -37.5 25.5t-7.5 50.5q7 35 38.5 61t69.5 26q33 0 54 -23.5t11 -71.5q-9 -43 -38 -83t-64.5 -72t-64.5 -53z" />
<glyph unicode="&#x21b;" horiz-adv-x="400" d="M415 410l-140 4q-16 -77 -26 -123.5t-15.5 -72t-7.5 -37.5t-2 -20q0 -23 13.5 -34.5t36.5 -11.5q18 0 39 6.5t43 17.5l-13 -108q-28 -16 -69 -28.5t-88 -12.5q-70 0 -107.5 34.5t-37.5 104.5q0 15 2 32t8 46t17 79.5t28 131.5l-65 2l13 60l74 20l73 131l112 8l18 -21 l-28 -118h137l8 -20zM23 -325q22 18 44.5 43.5t36.5 51.5q-24 5 -37.5 25.5t-7.5 50.5q7 35 38.5 61t69.5 26q33 0 54 -23.5t11 -71.5q-9 -43 -38 -83t-64.5 -72t-64.5 -53z" />
<glyph unicode="&#x232;" horiz-adv-x="589" d="M285 809l20 96h298l-20 -96h-298zM195 216l-98 465l202 19l21 -202q4 -38 7.5 -82t4.5 -70h3q10 18 24 44.5t29.5 55t27.5 51.5l105 203l146 -10l6 -19l-293 -455l-46 -216h-185z" />
<glyph unicode="&#x233;" horiz-adv-x="522" d="M173 618l20 96h298l-20 -96h-298zM437 510q38 0 64 -10t26 -47q0 -30 -18.5 -83t-52 -119.5t-77 -137t-94.5 -137t-104.5 -120t-106 -85t-99.5 -31.5q-42 0 -66.5 25.5t-24.5 70.5q0 22 5.5 38t13.5 29q18 -5 38 -7.5t39 -2.5q42 0 83.5 12t75.5 35.5t54 59.5h-103 q-2 102 -7.5 196t-13 172t-16.5 132l194 10q6 -55 6.5 -122.5t-3 -139t-11.5 -138.5h3q31 62 57.5 131t44.5 137t24 124q23 5 39.5 6.5t29.5 1.5z" />
<glyph unicode="&#x237;" horiz-adv-x="288" d="M-31 -260l-57 60q41 62 63 119.5t37 130.5l65 309l8 141l189 10q0 -31 -7 -79t-17.5 -103.5t-22.5 -112.5t-23 -107q-19 -91 -44.5 -158.5t-70 -118t-120.5 -91.5z" />
<glyph unicode="&#x259;" horiz-adv-x="513" d="M83 357l10 116q34 15 82 26t97 11q94 0 153 -46.5t59 -139.5q0 -64 -28.5 -124t-77 -107.5t-108.5 -75t-123 -27.5q-64 0 -108.5 31t-44.5 90q0 48 33 91t100.5 71.5t171.5 32.5v0q0 41 -20.5 65t-65.5 24q-31 0 -64.5 -10.5t-65.5 -27.5zM157 127q0 -23 8.5 -32.5 t22.5 -9.5q29 0 50.5 27.5t35.5 67t20 76.5q-63 -15 -100 -47t-37 -82z" />
<glyph unicode="&#x272;" horiz-adv-x="629" d="M3 -250l-57 60q27 42 45.5 80t31.5 79t23 91l63 299l8 141l189 10q0 -25 -3 -57t-7 -67h3q40 68 90 96t95 28q59 0 84 -43t9 -117l-42 -199q-13 -59 -13 -151h-180q0 38 4.5 77t14 89t23.5 121q6 29 3.5 51t-22.5 22q-23 0 -46 -30.5t-42 -81t-31 -112.5q-2 -12 -2.5 -14 t-0.5 -4q-15 -91 -41.5 -158.5t-73.5 -118t-125 -91.5z" />
<glyph unicode="&#x2c6;" horiz-adv-x="437" d="M166 553l-48 40q38 39 77 81.5t73 82.5l119 10q17 -43 35.5 -85.5t42.5 -88.5l-66 -40q-29 21 -52 45t-44 48q-34 -25 -67 -49t-70 -44z" />
<glyph unicode="&#x2c7;" horiz-adv-x="437" d="M448 779l48 -40q-38 -39 -77 -81.5t-73 -82.5l-119 -10q-17 43 -35.5 85.5t-42.5 88.5l66 40q29 -21 52 -45t44 -48q34 25 67 49t70 44z" />
<glyph unicode="&#x2d8;" horiz-adv-x="406" d="M401 765l71 9q-14 -56 -44 -101t-71 -70.5t-90 -25.5q-64 0 -95.5 48.5t-18.5 130.5l72 10q0 -37 20 -58t51 -21q33 0 62.5 22.5t42.5 55.5z" />
<glyph unicode="&#x2d9;" horiz-adv-x="300" d="M348 698q0 -33 -20 -63.5t-52 -49.5t-68 -19q-37 0 -58 20.5t-21 51.5t20.5 60.5t53 48.5t69.5 19q35 0 55.5 -18t20.5 -50z" />
<glyph unicode="&#x2da;" horiz-adv-x="344" d="M392 700q0 -37 -23.5 -70.5t-61.5 -54.5t-80 -21q-46 0 -72 23.5t-26 57.5q0 36 25 69t64 54t82 21q42 0 67 -21.5t25 -57.5zM202 649q0 -16 11 -27.5t31 -11.5q29 0 52 24t23 52q0 37 -37 37q-20 0 -38.5 -11t-30 -27.5t-11.5 -35.5z" />
<glyph unicode="&#x2db;" horiz-adv-x="364" d="M255 0q-66 -28 -104 -64t-38 -69q0 -13 8 -21t27 -8q10 0 24.5 3t32.5 10l12 -59q-33 -25 -74.5 -41.5t-82.5 -16.5q-44 0 -72 22.5t-28 60.5q0 39 27.5 76.5t77 69t114.5 52.5z" />
<glyph unicode="&#x2dc;" horiz-adv-x="427" d="M260 762q34 0 57.5 -14.5t44.5 -28.5t46 -14q20 0 33 11.5t28 31.5l48 -7q-9 -42 -28 -81t-47.5 -64.5t-66.5 -25.5q-30 0 -57 14t-51 28.5t-46 14.5q-14 0 -28 -10t-31 -33l-47 7q9 41 27 80.5t47.5 65t70.5 25.5z" />
<glyph unicode="&#x2dd;" horiz-adv-x="443" d="M337 766l4 -30q-71 -98 -160 -170l-68 10q28 50 53 99.5t45 98.5zM530 766l4 -30q-71 -98 -160 -170l-68 10q28 50 53 99.5t45 98.5z" />
<glyph unicode="&#x394;" horiz-adv-x="690" d="M336 690h210l70 -670l-6 -20h-636l2 20zM199 134h207l-25 364z" />
<glyph unicode="&#x3a9;" horiz-adv-x="825" d="M298 0h-292l2 125l24 20l202 -58q-57 34 -88 99t-31 142q0 78 31 145.5t85 118.5t125 79.5t151 28.5q87 0 144.5 -32.5t86 -86.5t28.5 -121q0 -77 -33.5 -149t-88.5 -130t-118 -92l221 56l16 -20l-52 -125h-292l-4 77q46 48 81 111t55.5 129.5t20.5 124.5q0 53 -21 88 t-74 35t-94 -37.5t-64 -104t-23 -154.5q0 -67 12.5 -112t25.5 -80z" />
<glyph unicode="&#x3bc;" horiz-adv-x="577" d="M304 0q0 34 1.5 60.5t5.5 53.5h-3q-35 -63 -80 -91.5t-87 -31.5q12 -35 13 -74.5t-2.5 -77.5t-2.5 -70l-179 -9q0 35 5.5 80t19 114.5t36.5 175.5l49 229l8 141l189 10q0 -46 -9 -99t-20.5 -104.5t-18.5 -93.5q-4 -28 -3 -50.5t21 -22.5q21 0 41 26.5t37 71.5t28 100 q5 31 9 56.5t6 48.5q3 29 3 57l190 10q-4 -36 -8 -67t-11 -68.5t-17.5 -90.5t-27.5 -133q-7 -32 -10 -66.5t-3 -84.5h-180z" />
<glyph unicode="&#x3c0;" horiz-adv-x="636" d="M21 370l51 130l599 10l6 -20l-57 -110l-53 -1q-19 -80 -29.5 -134.5t-10.5 -77.5q0 -27 23 -27q17 0 39 10l-42 -150q-19 -4 -45 -7t-46 -3q-58 0 -89 26t-31 85q0 42 14 109t36 166l-98 -2q-23 -104 -42.5 -203.5t-19.5 -170.5h-180q0 39 6 88t19 117.5t34 165.5z" />
<glyph unicode="&#x1e0c;" horiz-adv-x="724" d="M712 427q0 -84 -28.5 -160.5t-84.5 -136.5t-139.5 -95t-193.5 -35h-238l108 511q12 56 19 94.5t9 84.5h268q136 0 208 -64t72 -199zM386 560h-55l-90 -430h68q57 0 97 25.5t65 67t36.5 90t11.5 94.5q0 57 -14.5 88.5t-36 45t-44 16.5t-38.5 3zM380 -131q0 -33 -20 -63.5 t-52 -49.5t-68 -19q-37 0 -58 20.5t-21 51.5t20.5 60.5t53 48.5t69.5 19q35 0 55.5 -18t20.5 -50z" />
<glyph unicode="&#x1e0d;" horiz-adv-x="580" d="M487 0h-180q0 29 3.5 64t11.5 85q-14 -45 -41 -81t-62.5 -57t-76.5 -21q-57 0 -87 41t-30 114q0 62 22 126t64.5 118t105 87.5t144.5 33.5q17 0 34 -2l22 101l8 141l189 10q0 -56 -13 -131.5t-31.5 -161t-37.5 -171t-32 -162t-13 -134.5zM210 195q0 -55 33 -55 q21 0 43 26.5t40 68.5t30 90q6 25 12 55l4 19q-21 11 -37 11q-25 0 -47.5 -22t-40 -56t-27.5 -71t-10 -66zM338 -131q0 -33 -20 -63.5t-52 -49.5t-68 -19q-37 0 -58 20.5t-21 51.5t20.5 60.5t53 48.5t69.5 19q35 0 55.5 -18t20.5 -50z" />
<glyph unicode="&#x1e24;" horiz-adv-x="736" d="M213 0h-185l107 503q11 52 18.5 99.5t10.5 87.5l177 10l16 -20l-58 -273h216l20 96q11 52 18.5 99.5t10.5 87.5l177 10l16 -20l-144 -680h-185l59 277h-215zM390 -131q0 -33 -20 -63.5t-52 -49.5t-68 -19q-37 0 -58 20.5t-21 51.5t20.5 60.5t53 48.5t69.5 19 q35 0 55.5 -18t20.5 -50z" />
<glyph unicode="&#x1e25;" horiz-adv-x="591" d="M208 0h-180q0 36 5.5 82.5t19 117.5t36.5 180l49 229l8 141l189 10q0 -74 -19.5 -172t-43.5 -202h3q40 66 91 95t96 29q47 0 72 -27.5t25 -77.5q0 -12 -2 -27.5t-7 -41t-14.5 -70t-24.5 -115.5q-13 -59 -13 -151h-180q0 47 6.5 94t15 89.5t14.5 73.5q7 33 9 46.5t2 21.5 q0 16 -5.5 25.5t-18.5 9.5q-24 0 -47 -31t-42 -83t-31 -116t-13 -130zM318 -131q0 -33 -20 -63.5t-52 -49.5t-68 -19q-37 0 -58 20.5t-21 51.5t20.5 60.5t53 48.5t69.5 19q35 0 55.5 -18t20.5 -50z" />
<glyph unicode="&#x1e44;" horiz-adv-x="731" d="M593 887q0 -31 -19.5 -59t-50.5 -45t-66 -17t-56.5 19t-21.5 47q0 30 20.5 56.5t52.5 43.5t67 17q32 0 53 -16.5t21 -45.5zM441 441q34 -98 53 -208h3q4 43 7.5 75.5t9.5 65t14 72.5q14 67 24.5 128t16.5 116l167 8l16 -20l-144 -678h-175q-29 75 -50 138t-41 115 q-18 50 -32 98.5t-25 97.5h-3q-3 -62 -10.5 -111t-17.5 -95l-51 -243h-175l108 511q10 45 17.5 92t10.5 87l187 7q27 -79 48.5 -140.5t41.5 -115.5z" />
<glyph unicode="&#x1e45;" horiz-adv-x="591" d="M473 696q0 -33 -20 -63.5t-52 -49.5t-68 -19q-37 0 -58 20.5t-21 51.5t20.5 60.5t53 48.5t69.5 19q35 0 55.5 -18t20.5 -50zM208 0h-180q0 38 5.5 85t18 113.5t33.5 160.5l8 141l189 10q0 -25 -3 -57t-7 -67h3q40 68 90 96t95 28q48 0 73.5 -27t25.5 -71q0 -33 -11 -87 t-25 -117q-9 -45 -14.5 -78t-8 -63t-2.5 -67h-180q0 35 3 65t8.5 63.5t14.5 78.5q10 49 15.5 76.5t5.5 43.5q0 14 -5.5 23.5t-18.5 9.5q-24 0 -47 -31t-42 -83t-31 -116t-13 -130z" />
<glyph unicode="&#x1e5a;" horiz-adv-x="650" d="M212 0h-185l109 511q10 45 17.5 88.5t10.5 90.5h234q249 0 249 -176q0 -72 -41.5 -135.5t-119.5 -98.5l91 -280l-214 -11q-15 56 -27 116.5t-20 121.5h-56zM362 565h-30l-46 -218h24q72 0 109 40t37 98q0 39 -20.5 59.5t-73.5 20.5zM347 -131q0 -33 -20 -63.5t-52 -49.5 t-68 -19q-37 0 -58 20.5t-21 51.5t20.5 60.5t53 48.5t69.5 19q35 0 55.5 -18t20.5 -50z" />
<glyph unicode="&#x1e5b;" horiz-adv-x="430" d="M208 0h-180q0 54 10 121t27 146l20 92l8 141l189 10q0 -38 -7 -84.5t-17 -96.5h3q35 103 75 142t75 39q23 0 42.5 -11.5t28.5 -25.5l-85 -166q-16 6 -31.5 8.5t-26.5 2.5q-65 0 -94.5 -83t-36.5 -235zM195 -131q0 -33 -20 -63.5t-52 -49.5t-68 -19q-37 0 -58 20.5 t-21 51.5t20.5 60.5t53 48.5t69.5 19q35 0 55.5 -18t20.5 -50z" />
<glyph unicode="&#x1e62;" horiz-adv-x="559" d="M508 219q0 -65 -40 -117t-111 -82t-166 -30q-38 0 -77 5t-70.5 14t-46.5 20l42 151q22 -15 55 -26.5t67 -17.5t59 -6q44 0 68 18t24 48q0 29 -19.5 48.5t-46.5 35t-52 29.5q-40 24 -71.5 61t-31.5 98q0 68 42.5 120t117 82t169.5 30q48 0 91 -7t68 -18l-53 -155 q-30 19 -67 29.5t-72 10.5q-45 0 -72.5 -18.5t-27.5 -50.5q0 -25 16.5 -42t43 -31.5t55.5 -33.5q26 -16 50 -38t40 -53t16 -74zM302 -131q0 -33 -20 -63.5t-52 -49.5t-68 -19q-37 0 -58 20.5t-21 51.5t20.5 60.5t53 48.5t69.5 19q35 0 55.5 -18t20.5 -50z" />
<glyph unicode="&#x1e63;" horiz-adv-x="447" d="M449 485l-38 -132q-34 20 -70.5 31t-62.5 11q-25 0 -41.5 -9.5t-16.5 -26.5q0 -18 18 -30t44 -24t52 -28.5t44 -42t18 -65.5q0 -55 -35 -95t-91.5 -62t-123.5 -22q-46 0 -92 10.5t-71 28.5l37 129q38 -25 81.5 -39t72.5 -14q27 0 41 10.5t14 25.5q0 17 -18 29.5t-44 25 t-52 29t-44 41.5t-18 64q0 53 35.5 93.5t93 63.5t123.5 23q29 0 68 -5.5t76 -19.5zM243 -131q0 -33 -20 -63.5t-52 -49.5t-68 -19q-37 0 -58 20.5t-21 51.5t20.5 60.5t53 48.5t69.5 19q35 0 55.5 -18t20.5 -50z" />
<glyph unicode="&#x1e6c;" horiz-adv-x="575" d="M327 0h-185l117 554q-47 -1 -95 -3t-96 -5l40 144h545l-20 -144q-47 3 -94.5 5t-94.5 3zM310 -131q0 -33 -20 -63.5t-52 -49.5t-68 -19q-37 0 -58 20.5t-21 51.5t20.5 60.5t53 48.5t69.5 19q35 0 55.5 -18t20.5 -50z" />
<glyph unicode="&#x1e6d;" horiz-adv-x="400" d="M415 410l-140 4q-16 -77 -26 -123.5t-15.5 -72t-7.5 -37.5t-2 -20q0 -23 13.5 -34.5t36.5 -11.5q18 0 39 6.5t43 17.5l-13 -108q-28 -16 -69 -28.5t-88 -12.5q-70 0 -107.5 34.5t-37.5 104.5q0 15 2 32t8 46t17 79.5t28 131.5l-65 2l13 60l74 20l73 131l112 8l18 -21 l-28 -118h137l8 -20zM250 -131q0 -33 -20 -63.5t-52 -49.5t-68 -19q-37 0 -58 20.5t-21 51.5t20.5 60.5t53 48.5t69.5 19q35 0 55.5 -18t20.5 -50z" />
<glyph unicode="&#x1e80;" horiz-adv-x="965" d="M744 771q-76 1 -148 15t-134 48l-4 29l126 91q41 -37 87 -73.5t94 -68.5zM124 0l-27 681l202 19l-4 -344q0 -46 -3 -96.5t-4 -82.5q12 30 32 78t37 89l149 346l180 10l-1 -344q0 -46 -0.5 -96.5t-0.5 -82.5q14 38 24 65t20 51.5t22 54.5l147 352l146 -10l6 -19l-313 -671 h-205l-6 223q-1 54 0.5 108.5t0.5 108.5h-3q-20 -50 -35 -85t-28.5 -66t-31.5 -69l-99 -220h-205z" />
<glyph unicode="&#x1e81;" horiz-adv-x="868" d="M529 566q-39 37 -69 79t-51 91l16 30l162 8q0 -51 3.5 -100t10.5 -98zM784 510q38 0 63.5 -10t25.5 -48q0 -31 -18.5 -84t-51 -117.5t-74 -129.5t-87.5 -121h-206q9 80 15.5 161t10.5 163h-3q-34 -91 -75 -172t-88 -152h-206q-2 102 -7.5 196t-13 172t-16.5 132l194 10 q6 -55 6.5 -122.5t-3 -139t-11.5 -138.5h3q32 60 59.5 128t46.5 135.5t25 126.5h221q5 -50 5.5 -115.5t-3 -136.5t-11.5 -138h3q31 62 57.5 131t44.5 137t24 124q23 5 39.5 6.5t30.5 1.5z" />
<glyph unicode="&#x1e82;" horiz-adv-x="965" d="M776 863l-16 -29q-76 -33 -153 -47.5t-157 -15.5l-3 41q64 33 124.5 68.5t116.5 73.5zM124 0l-27 681l202 19l-4 -344q0 -46 -3 -96.5t-4 -82.5q12 30 32 78t37 89l149 346l180 10l-1 -344q0 -46 -0.5 -96.5t-0.5 -82.5q14 38 24 65t20 51.5t22 54.5l147 352l146 -10 l6 -19l-313 -671h-205l-6 223q-1 54 0.5 108.5t0.5 108.5h-3q-20 -50 -35 -85t-28.5 -66t-31.5 -69l-99 -220h-205z" />
<glyph unicode="&#x1e83;" horiz-adv-x="868" d="M631 766l4 -30q-42 -50 -90 -92t-102 -78l-68 10q28 50 53 99.5t45 98.5zM784 510q38 0 63.5 -10t25.5 -48q0 -31 -18.5 -84t-51 -117.5t-74 -129.5t-87.5 -121h-206q9 80 15.5 161t10.5 163h-3q-34 -91 -75 -172t-88 -152h-206q-2 102 -7.5 196t-13 172t-16.5 132 l194 10q6 -55 6.5 -122.5t-3 -139t-11.5 -138.5h3q32 60 59.5 128t46.5 135.5t25 126.5h221q5 -50 5.5 -115.5t-3 -136.5t-11.5 -138h3q31 62 57.5 131t44.5 137t24 124q23 5 39.5 6.5t30.5 1.5z" />
<glyph unicode="&#x1e84;" horiz-adv-x="965" d="M825 883q0 -27 -17 -51.5t-44.5 -39.5t-59.5 -15q-31 0 -49 16.5t-18 40.5q0 27 18 51t46 39t59 15q29 0 47 -15t18 -41zM584 883q0 -27 -17 -51.5t-44.5 -39.5t-59.5 -15q-31 0 -49 16.5t-18 40.5q0 27 18 51t46 39t59 15q29 0 47 -15t18 -41zM124 0l-27 681l202 19 l-4 -344q0 -46 -3 -96.5t-4 -82.5q12 30 32 78t37 89l149 346l180 10l-1 -344q0 -46 -0.5 -96.5t-0.5 -82.5q14 38 24 65t20 51.5t22 54.5l147 352l146 -10l6 -19l-313 -671h-205l-6 223q-1 54 0.5 108.5t0.5 108.5h-3q-20 -50 -35 -85t-28.5 -66t-31.5 -69l-99 -220h-205z " />
<glyph unicode="&#x1e85;" horiz-adv-x="868" d="M484 696q0 -31 -18 -59t-47 -45.5t-62 -17.5q-34 0 -52.5 18.5t-18.5 46.5q0 30 19 57.5t49.5 45t62.5 17.5q31 0 49 -17t18 -46zM723 696q0 -31 -18 -59t-47 -45.5t-62 -17.5q-34 0 -52.5 18.5t-18.5 46.5q0 30 19 57.5t49.5 45t62.5 17.5q31 0 49 -17t18 -46zM784 510 q38 0 63.5 -10t25.5 -48q0 -31 -18.5 -84t-51 -117.5t-74 -129.5t-87.5 -121h-206q9 80 15.5 161t10.5 163h-3q-34 -91 -75 -172t-88 -152h-206q-2 102 -7.5 196t-13 172t-16.5 132l194 10q6 -55 6.5 -122.5t-3 -139t-11.5 -138.5h3q32 60 59.5 128t46.5 135.5t25 126.5h221 q5 -50 5.5 -115.5t-3 -136.5t-11.5 -138h3q31 62 57.5 131t44.5 137t24 124q23 5 39.5 6.5t30.5 1.5z" />
<glyph unicode="&#x1e92;" horiz-adv-x="539" d="M-13 0l-5 120l389 418l-287 -8l44 160h447l22 -120l-385 -418l291 8l-44 -160h-472zM292 -131q0 -33 -20 -63.5t-52 -49.5t-68 -19q-37 0 -58 20.5t-21 51.5t20.5 60.5t53 48.5t69.5 19q35 0 55.5 -18t20.5 -50z" />
<glyph unicode="&#x1e93;" horiz-adv-x="493" d="M47 -10l-56 85q84 80 158 152.5t136 135.5q-37 7 -66 7q-40 0 -74.5 -13.5t-57.5 -42.5l-47 30q23 67 51 103t61 49.5t70 13.5q42 0 81.5 -13t79.5 -34q24 24 45 47q11 0 26 -4.5t26 -17t11 -35.5q0 -21 -13.5 -45.5t-46.5 -59t-90 -85t-143 -122.5q10 2 24 2 q29 0 46 -5.5t38 -5.5q35 0 62.5 18.5t44.5 49.5l57 -36q-20 -69 -46 -107t-59 -52.5t-75 -14.5q-37 0 -65 8t-51 15.5t-44 7.5q-17 0 -37.5 -7t-45.5 -24zM258 -131q0 -33 -20 -63.5t-52 -49.5t-68 -19q-37 0 -58 20.5t-21 51.5t20.5 60.5t53 48.5t69.5 19q35 0 55.5 -18 t20.5 -50z" />
<glyph unicode="&#x1e9e;" horiz-adv-x="735" d="M74 187l56 263q17 79 64 135t116 85.5t153 29.5q69 0 121.5 -20.5t82 -61t27.5 -100.5l-154 -139q60 -30 99 -73.5t39 -115.5q0 -55 -31.5 -100.5t-86.5 -72.5t-126 -27q-43 0 -86 8t-68 21l32 151q20 -16 48 -28t57 -12q33 0 51 16t18 41q0 18 -12 35t-43 39t-88 55 l8 39l150 153q-5 25 -24.5 39t-48.5 14q-40 0 -71.5 -32t-45.5 -95l-67 -316q-4 -21 -13.5 -47t-22 -48t-29.5 -33l-167 10q12 22 23.5 54t22 67t16.5 66z" />
<glyph unicode="&#x1ea0;" horiz-adv-x="690" d="M147 0h-175l289 580q16 31 29 59.5t21 50.5l226 9l25 -25l50 -674h-185l-8 130h-209zM294 305l-22 -45h140l-3 44q-4 85 -4.5 144.5t0.5 93.5h-5q-9 -22 -25 -59.5t-37 -83.5t-44 -94zM365 -131q0 -33 -20 -63.5t-52 -49.5t-68 -19q-37 0 -58 20.5t-21 51.5t20.5 60.5 t53 48.5t69.5 19q35 0 55.5 -18t20.5 -50z" />
<glyph unicode="&#x1ea1;" horiz-adv-x="580" d="M25 146q0 61 21.5 125t64.5 118t107.5 87.5t149.5 33.5q29 0 65 -4.5t71.5 -14t64.5 -25.5l-39 -178q-19 -87 -28 -143.5t-12 -90.5t-3 -54h-180q0 28 3.5 62.5t13.5 92.5q-14 -47 -41 -84t-63 -59t-78 -22q-57 0 -87 41.5t-30 114.5zM210 195q0 -55 33 -55q23 0 45.5 29 t41 74t30.5 95q5 29 12 61q-21 11 -37 11q-25 0 -47.5 -22t-40 -56t-27.5 -71t-10 -66zM348 -131q0 -33 -20 -63.5t-52 -49.5t-68 -19q-37 0 -58 20.5t-21 51.5t20.5 60.5t53 48.5t69.5 19q35 0 55.5 -18t20.5 -50z" />
<glyph unicode="&#x1eb8;" horiz-adv-x="581" d="M522 140l-29 -140h-465l108 511q10 45 18 88.5t10 90.5h449l16 -20l-29 -120l-269 10l-34 -161l222 5l-32 -127l-214 7l-33 -154zM334 -131q0 -33 -20 -63.5t-52 -49.5t-68 -19q-37 0 -58 20.5t-21 51.5t20.5 60.5t53 48.5t69.5 19q35 0 55.5 -18t20.5 -50z" />
<glyph unicode="&#x1eb9;" horiz-adv-x="515" d="M427 143l19 -73q-44 -38 -102.5 -59t-117.5 -21q-85 0 -140 46.5t-55 143.5q0 63 24 122t68 106t103.5 74.5t129.5 27.5q74 0 119.5 -32t45.5 -90q0 -52 -37 -94t-105.5 -68.5t-162.5 -30.5v-1q0 -40 20.5 -64.5t65.5 -24.5q30 0 62 10.5t63 27.5zM327 415 q-29 0 -50.5 -27.5t-35.5 -67t-20 -76.5q63 15 100 47t37 82q0 23 -8.5 32.5t-22.5 9.5zM334 -131q0 -33 -20 -63.5t-52 -49.5t-68 -19q-37 0 -58 20.5t-21 51.5t20.5 60.5t53 48.5t69.5 19q35 0 55.5 -18t20.5 -50z" />
<glyph unicode="&#x1ebc;" horiz-adv-x="581" d="M373 943q25 0 43.5 -8.5t34 -20t31.5 -20t35 -8.5q21 0 35 11.5t31 31.5l43 -7q-8 -37 -26.5 -71.5t-46.5 -57t-65 -22.5q-30 0 -55.5 14t-48.5 28.5t-46 14.5q-16 0 -31 -10t-33 -33l-43 7q8 36 25.5 71t46.5 57.5t70 22.5zM522 140l-29 -140h-465l108 511 q10 45 18 88.5t10 90.5h449l16 -20l-29 -120l-269 10l-34 -161l222 5l-32 -127l-214 7l-33 -154z" />
<glyph unicode="&#x1ebd;" horiz-adv-x="515" d="M309 762q34 0 57.5 -14.5t44.5 -28.5t46 -14q20 0 33 11.5t28 31.5l48 -7q-9 -42 -28 -81t-47.5 -64.5t-66.5 -25.5q-30 0 -57 14t-51 28.5t-46 14.5q-14 0 -28 -10t-31 -33l-47 7q9 41 27 80.5t47.5 65t70.5 25.5zM427 143l19 -73q-44 -38 -102.5 -59t-117.5 -21 q-85 0 -140 46.5t-55 143.5q0 63 24 122t68 106t103.5 74.5t129.5 27.5q74 0 119.5 -32t45.5 -90q0 -52 -37 -94t-105.5 -68.5t-162.5 -30.5v-1q0 -40 20.5 -64.5t65.5 -24.5q30 0 62 10.5t63 27.5zM327 415q-29 0 -50.5 -27.5t-35.5 -67t-20 -76.5q63 15 100 47t37 82 q0 23 -8.5 32.5t-22.5 9.5z" />
<glyph unicode="&#x1eca;" horiz-adv-x="336" d="M213 0h-185l107 503q11 52 18.5 99.5t10.5 87.5l177 10l16 -20zM188 -131q0 -33 -20 -63.5t-52 -49.5t-68 -19q-37 0 -58 20.5t-21 51.5t20.5 60.5t53 48.5t69.5 19q35 0 55.5 -18t20.5 -50z" />
<glyph unicode="&#x1ecb;" horiz-adv-x="301" d="M335 696q0 -33 -20 -63.5t-52 -49.5t-68 -19q-37 0 -58 20.5t-21 51.5t20.5 60.5t53 48.5t69.5 19q35 0 55.5 -18t20.5 -50zM208 0h-180q0 54 10 121t27 146l20 92l8 141l189 10q0 -50 -11 -113t-26 -132t-26 -137t-11 -128zM187 -131q0 -33 -20 -63.5t-52 -49.5t-68 -19 q-37 0 -58 20.5t-21 51.5t20.5 60.5t53 48.5t69.5 19q35 0 55.5 -18t20.5 -50z" />
<glyph unicode="&#x1ecc;" horiz-adv-x="705" d="M695 437q0 -85 -29 -164.5t-82.5 -143.5t-127 -101.5t-162.5 -37.5q-115 0 -179.5 68t-64.5 195q0 85 29 165t81.5 143.5t126 101t161.5 37.5q116 0 181.5 -68t65.5 -195zM240 250q0 -58 19 -91.5t64 -33.5t79 30.5t57 78.5t34.5 102.5t11.5 103.5q0 59 -19 92t-64 33 t-79 -30.5t-57 -78.5t-34.5 -102.5t-11.5 -103.5zM383 -131q0 -33 -20 -63.5t-52 -49.5t-68 -19q-37 0 -58 20.5t-21 51.5t20.5 60.5t53 48.5t69.5 19q35 0 55.5 -18t20.5 -50z" />
<glyph unicode="&#x1ecd;" horiz-adv-x="571" d="M543 316q0 -64 -24 -122.5t-67 -104.5t-101 -72.5t-126 -26.5q-85 0 -139.5 46.5t-54.5 143.5q0 63 24.5 122t68 106t101.5 74.5t126 27.5q89 0 140.5 -50t51.5 -144zM216 161q0 -34 8.5 -52.5t28.5 -18.5q26 0 46 26.5t33 67t19.5 83t6.5 73.5q0 70 -37 70 q-27 0 -46.5 -26t-32.5 -66t-19.5 -82.5t-6.5 -74.5zM327 -131q0 -33 -20 -63.5t-52 -49.5t-68 -19q-37 0 -58 20.5t-21 51.5t20.5 60.5t53 48.5t69.5 19q35 0 55.5 -18t20.5 -50z" />
<glyph unicode="&#x1ee4;" horiz-adv-x="711" d="M67 170q0 37 11.5 95t27.5 129t31 147t22 149l177 10l16 -20q-26 -123 -43.5 -203.5t-27.5 -128.5t-15.5 -74t-7 -38.5t-1.5 -21.5q0 -85 84 -85q103 0 131 127q23 109 38 179.5t23.5 113.5t12.5 67.5t5.5 40.5t2.5 33l187 8l-97 -458q-17 -82 -68 -138t-122 -84 t-150 -28q-70 0 -123.5 21.5t-83.5 62t-30 96.5zM383 -131q0 -33 -20 -63.5t-52 -49.5t-68 -19q-37 0 -58 20.5t-21 51.5t20.5 60.5t53 48.5t69.5 19q35 0 55.5 -18t20.5 -50z" />
<glyph unicode="&#x1ee5;" horiz-adv-x="577" d="M36 150l44 209l8 141l189 10q0 -46 -9 -99t-20.5 -104.5t-18.5 -93.5q-4 -28 -3 -50.5t21 -22.5q21 0 41 26.5t37 71.5t28 100q5 31 9 56.5t6 48.5q3 29 3 57l190 10q-4 -36 -8.5 -67t-11.5 -68.5t-17.5 -90.5t-26.5 -133q-7 -32 -10 -66.5t-3 -84.5h-180q0 34 1.5 60.5 t5.5 53.5h-3q-38 -67 -87 -95.5t-93 -28.5q-61 0 -84 45t-8 115zM330 -131q0 -33 -20 -63.5t-52 -49.5t-68 -19q-37 0 -58 20.5t-21 51.5t20.5 60.5t53 48.5t69.5 19q35 0 55.5 -18t20.5 -50z" />
<glyph unicode="&#x1ef2;" horiz-adv-x="589" d="M578 771q-76 1 -148 15t-134 48l-4 29l126 91q41 -37 87 -73.5t94 -68.5zM195 216l-98 465l202 19l21 -202q4 -38 7.5 -82t4.5 -70h3q10 18 24 44.5t29.5 55t27.5 51.5l105 203l146 -10l6 -19l-293 -455l-46 -216h-185z" />
<glyph unicode="&#x1ef3;" horiz-adv-x="522" d="M357 566q-39 37 -69 79t-51 91l16 30l162 8q0 -51 3.5 -100t10.5 -98zM437 510q38 0 64 -10t26 -47q0 -30 -18.5 -83t-52 -119.5t-77 -137t-94.5 -137t-104.5 -120t-106 -85t-99.5 -31.5q-42 0 -66.5 25.5t-24.5 70.5q0 22 5.5 38t13.5 29q18 -5 38 -7.5t39 -2.5 q42 0 83.5 12t75.5 35.5t54 59.5h-103q-2 102 -7.5 196t-13 172t-16.5 132l194 10q6 -55 6.5 -122.5t-3 -139t-11.5 -138.5h3q31 62 57.5 131t44.5 137t24 124q23 5 39.5 6.5t29.5 1.5z" />
<glyph unicode="&#x1ef8;" horiz-adv-x="589" d="M389 943q25 0 43.5 -8.5t34 -20t31.5 -20t35 -8.5q21 0 35 11.5t31 31.5l43 -7q-8 -37 -26.5 -71.5t-46.5 -57t-65 -22.5q-30 0 -55.5 14t-48.5 28.5t-46 14.5q-16 0 -31 -10t-33 -33l-43 7q8 36 25.5 71t46.5 57.5t70 22.5zM195 216l-98 465l202 19l21 -202 q4 -38 7.5 -82t4.5 -70h3q10 18 24 44.5t29.5 55t27.5 51.5l105 203l146 -10l6 -19l-293 -455l-46 -216h-185z" />
<glyph unicode="&#x1ef9;" horiz-adv-x="522" d="M285 762q34 0 57.5 -14.5t44.5 -28.5t46 -14q20 0 33 11.5t28 31.5l48 -7q-9 -42 -28 -81t-47.5 -64.5t-66.5 -25.5q-30 0 -57 14t-51 28.5t-46 14.5q-14 0 -28 -10t-31 -33l-47 7q9 41 27 80.5t47 65t71 25.5zM437 510q38 0 64 -10t26 -47q0 -30 -18.5 -83t-52 -119.5 t-77 -137t-94.5 -137t-104.5 -120t-106 -85t-99.5 -31.5q-42 0 -66.5 25.5t-24.5 70.5q0 22 5.5 38t13.5 29q18 -5 38 -7.5t39 -2.5q42 0 83.5 12t75.5 35.5t54 59.5h-103q-2 102 -7.5 196t-13 172t-16.5 132l194 10q6 -55 6.5 -122.5t-3 -139t-11.5 -138.5h3 q31 62 57.5 131t44.5 137t24 124q23 5 39.5 6.5t29.5 1.5z" />
<glyph unicode="&#x2007;" />
<glyph unicode="&#x2013;" horiz-adv-x="593" d="M34 251l6 50h530l-7 -50h-529z" />
<glyph unicode="&#x2014;" horiz-adv-x="914" d="M31 251l10 50h854l-11 -50h-853z" />
<glyph unicode="&#x2018;" horiz-adv-x="298" d="M365 731q-29 -27 -61.5 -63.5t-52.5 -76.5q25 -5 41 -24t16 -47q0 -33 -19.5 -62.5t-49.5 -48.5t-64 -19t-57.5 19t-23.5 59q0 41 22.5 85t58 86.5t75.5 78.5t74 60z" />
<glyph unicode="&#x2019;" horiz-adv-x="298" d="M71 419q29 27 61.5 63.5t52.5 76.5q-25 5 -41 24t-16 47q0 33 19.5 62.5t50 48.5t63.5 19q34 0 57.5 -19t23.5 -59q0 -41 -22.5 -85t-58 -86.5t-75.5 -78.5t-74 -60z" />
<glyph unicode="&#x201a;" horiz-adv-x="298" d="M-50 -148q29 27 61.5 63.5t52.5 76.5q-25 5 -41 24t-16 47q0 33 19.5 63t50 48.5t63.5 18.5q34 0 57.5 -19t23.5 -59q0 -41 -22.5 -85t-58 -86.5t-75.5 -78.5t-74 -60z" />
<glyph unicode="&#x201c;" horiz-adv-x="568" d="M365 731q-29 -27 -61.5 -63.5t-52.5 -76.5q25 -5 41 -24t16 -47q0 -33 -19.5 -62.5t-49.5 -48.5t-64 -19t-57.5 19t-23.5 59q0 41 22.5 85t58 86.5t75.5 78.5t74 60zM635 731q-29 -27 -61.5 -63.5t-52.5 -76.5q25 -5 41 -24t16 -47q0 -33 -19.5 -62.5t-49.5 -48.5 t-64 -19t-57.5 19t-23.5 59q0 41 22.5 85t58 86.5t75.5 78.5t74 60z" />
<glyph unicode="&#x201d;" horiz-adv-x="568" d="M341 419q29 27 61.5 63.5t52.5 76.5q-25 5 -41 24t-16 47q0 33 19.5 62.5t50 48.5t63.5 19q34 0 57.5 -19t23.5 -59q0 -41 -22.5 -85t-58 -86.5t-75.5 -78.5t-74 -60zM71 419q29 27 61.5 63.5t52.5 76.5q-25 5 -41 24t-16 47q0 33 19.5 62.5t50 48.5t63.5 19 q34 0 57.5 -19t23.5 -59q0 -41 -22.5 -85t-58 -86.5t-75.5 -78.5t-74 -60z" />
<glyph unicode="&#x201e;" horiz-adv-x="562" d="M-50 -148q29 27 61.5 63.5t52.5 76.5q-25 5 -41 24t-16 47q0 33 19.5 63t50 48.5t63.5 18.5q34 0 57.5 -19t23.5 -59q0 -41 -22.5 -85t-58 -86.5t-75.5 -78.5t-74 -60zM214 -148q29 27 61.5 63.5t52.5 76.5q-25 5 -41 24t-16 47q0 33 19.5 63t50 48.5t63.5 18.5 q34 0 57.5 -19t23.5 -59q0 -41 -22.5 -85t-58 -86.5t-75.5 -78.5t-74 -60z" />
<glyph unicode="&#x2020;" horiz-adv-x="507" d="M259 14l-11 -14h-94l-5 14l-15 134l118 294l-164 -22l-3 3q2 23 6.5 55.5t10.5 61.5l16 8l149 -22l-8 163l4 4q34 3 79 5t87 2l7 -8l-78 -166l161 22l3 -3q-2 -23 -6.5 -55.5t-10.5 -61.5l-16 -8l-151 22l-8 -294z" />
<glyph unicode="&#x2021;" horiz-adv-x="507" d="M113 -10l-7 8l87 169l-163 -35l-13 8l11.5 46t13.5 51t12 40l4 3l154 -35q-2 27 -2.5 53t3.5 47q4 20 16.5 46.5t25.5 53.5l-169 -35l-4 3q2 16 5.5 40.5t8.5 51t9 45.5l15 8l149 -35l-16 166l4 4q36 3 84.5 5t93.5 2l7 -8l-87 -169l166 35l4 -3q-2 -15 -5.5 -40t-8 -51 t-8.5 -46l-16 -8l-151 35q2 -27 2.5 -53.5t-3.5 -46.5t-16.5 -46.5t-25.5 -53.5l166 35l12 -8q-4 -19 -10.5 -45.5t-13.5 -51t-12 -40.5l-4 -3l-152 35l16 -166l-4 -4q-36 -3 -84.5 -5t-93.5 -2z" />
<glyph unicode="&#x2022;" horiz-adv-x="525" d="M221 88q-58 0 -93 32.5t-35 83.5q0 37 18.5 72t49 63.5t69.5 45t79 16.5q54 0 87 -31t33 -84q0 -38 -17 -73.5t-46.5 -63.5t-66.5 -44.5t-78 -16.5z" />
<glyph unicode="&#x2026;" horiz-adv-x="850" d="M227 124q0 -34 -20 -64.5t-52 -50t-68 -19.5q-37 0 -58 20.5t-21 50.5q0 33 21 63t54 49.5t69 19.5q34 0 54.5 -18.5t20.5 -50.5zM501 124q0 -34 -20 -64.5t-52 -50t-68 -19.5q-37 0 -58 20.5t-21 50.5q0 33 21 63t54 49.5t69 19.5q34 0 54.5 -18.5t20.5 -50.5zM775 124 q0 -34 -20 -64.5t-52 -50t-68 -19.5q-37 0 -58 20.5t-21 50.5q0 33 21 63t54 49.5t69 19.5q34 0 54.5 -18.5t20.5 -50.5z" />
<glyph unicode="&#x2030;" horiz-adv-x="1495" d="M507 547q0 -66 -34 -123.5t-92.5 -92.5t-132.5 -35q-70 0 -116 37t-46 114q0 51 20.5 96.5t56 81.5t83 56.5t101.5 20.5q73 0 116.5 -40t43.5 -115zM793 700l-425 -710h-65l424 710h66zM240 434q0 -55 30 -55q21 0 36.5 20t26 50.5t15.5 62.5t5 56q0 52 -30 52 q-21 0 -37 -20t-26 -50t-15 -61.5t-5 -54.5zM977 175q0 -67 -34 -124t-92.5 -92t-132.5 -35q-70 0 -116 37t-46 114q0 51 20.5 96.5t56 81.5t83 56.5t101.5 20.5q73 0 116.5 -40t43.5 -115zM1439 175q0 -67 -34 -124t-92.5 -92t-132.5 -35q-70 0 -116 37t-46 114 q0 51 20.5 96.5t56 81.5t83 56.5t101.5 20.5q73 0 116.5 -40t43.5 -115zM710 62q0 -55 30 -55q21 0 36.5 20t26 50.5t15.5 62.5t5 56q0 52 -30 52q-21 0 -37 -20t-26 -50t-15 -61.5t-5 -54.5zM1172 62q0 -55 30 -55q21 0 36.5 20t26 50.5t15.5 62.5t5 56q0 52 -30 52 q-21 0 -37 -20t-26 -50t-15 -61.5t-5 -54.5z" />
<glyph unicode="&#x2039;" horiz-adv-x="299" d="M44 269l10 48q106 74 212 183l42 -18q-23 -52 -56 -100t-70 -89q19 -41 32 -89t14 -100l-50 -18q-29 53 -62.5 99.5t-71.5 83.5z" />
<glyph unicode="&#x203a;" horiz-adv-x="299" d="M273 317l-10 -48q-106 -74 -212 -183l-42 18q23 52 56 100t70 89q-19 41 -32 89t-14 100l50 18q29 -53 62.5 -99.5t71.5 -83.5z" />
<glyph unicode="&#x2044;" horiz-adv-x="479" d="M654 700l-576 -710h-65l575 710h66z" />
<glyph unicode="&#x2070;" horiz-adv-x="454" d="M544 610q0 -53 -19.5 -101t-54 -85t-79.5 -58.5t-97 -21.5q-66 0 -107.5 38t-41.5 115q0 53 20 101.5t55 86t80.5 59.5t96.5 22q68 0 107.5 -40.5t39.5 -115.5zM279 478q0 -61 33 -61q23 0 41 22t31 56.5t20 71t7 64.5q0 32 -8.5 46.5t-25.5 14.5q-22 0 -40.5 -22 t-31 -55.5t-19.5 -70t-7 -66.5z" />
<glyph unicode="&#x2074;" horiz-adv-x="437" d="M144 512l204 248l149 6l12 -13l-48 -229q28 2 54 5l-27 -93h-46l-18 -84h-126l18 84h-174zM254 524v-2q5 0 23 0.5t57 0.5l8 40q5 23 13 55t18 64h-2z" />
<glyph unicode="&#x2075;" horiz-adv-x="414" d="M136 358l29 84q14 -6 37.5 -10t42.5 -4q36 0 63 14.5t27 42.5q0 21 -14.5 30t-37.5 9q-22 0 -45.5 -5.5t-42.5 -12.5l-15 10l51 242h177q26 0 53 1t52 5l-28 -101h-167l-13 -60q26 5 53 5q53 0 85.5 -26.5t32.5 -76.5q0 -47 -29 -83.5t-80.5 -57t-119.5 -20.5 q-25 0 -55 3.5t-56 10.5z" />
<glyph unicode="&#x2076;" horiz-adv-x="419" d="M290 344q-41 0 -75 13.5t-54 44t-20 79.5q0 54 24.5 105t67.5 91.5t99.5 64.5t119.5 24q19 0 35 -2t23 -4l-30 -88q-9 2 -21.5 4t-23.5 2q-33 0 -73 -21t-61 -66h2q11 2 27 4.5t35 2.5q54 0 87 -24t33 -73q0 -43 -25.5 -78.5t-69.5 -57t-100 -21.5zM315 525q-7 0 -16 -2 t-16 -4q-12 -33 -12 -63q0 -39 24 -39q23 0 36.5 22t13.5 49q0 37 -30 37z" />
<glyph unicode="&#x2077;" horiz-adv-x="369" d="M169 651l31 107h304l13 -14l-14 -67q-99 -75 -148.5 -152.5t-71.5 -172.5h-138q26 93 89.5 175t145.5 134v2h-66q-39 0 -76 -2.5t-69 -9.5z" />
<glyph unicode="&#x2078;" horiz-adv-x="441" d="M285 344q-71 0 -110.5 25.5t-39.5 67.5q0 43 37 76t87 49v2q-22 15 -40.5 34.5t-18.5 48.5q0 34 25.5 60.5t68.5 42.5t95 16q49 0 78 -13t42.5 -33t13.5 -40q0 -29 -25.5 -59t-70.5 -49v-2q27 -13 51 -34t24 -59q0 -36 -28 -66.5t-76.5 -48.5t-112.5 -18zM370 699 q-19 0 -32.5 -12.5t-13.5 -29.5q0 -29 38 -47q17 14 28 32t11 31q0 12 -8.5 19t-22.5 7zM320 514q-26 -10 -42 -29t-16 -39q0 -16 11.5 -26t33.5 -10q28 0 47 15t19 37q0 16 -14 29.5t-39 22.5z" />
<glyph unicode="&#x2079;" horiz-adv-x="419" d="M289 502q-55 0 -87.5 26.5t-32.5 77.5q0 45 25 81.5t67.5 57.5t94.5 21q42 0 78 -15.5t58.5 -49.5t22.5 -89q0 -51 -21 -99t-61 -86t-96 -60.5t-125 -22.5q-12 0 -27 1t-28 4l16 86q13 -1 23 -2.5t24 -1.5q52 0 83 19.5t50 59.5q-35 -8 -64 -8zM351 685q-20 0 -31 -23 t-11 -48q0 -40 34 -40q13 0 26 3q4 18 6.5 34.5t2.5 28.5q0 45 -27 45z" />
<glyph unicode="&#x207f;" horiz-adv-x="488" d="M278 596q31 48 71.5 71t80.5 23t60 -21.5t20 -58.5q0 -27 -8.5 -67t-16.5 -76q-9 -41 -14 -68t-6 -51t-1 -56h-150q0 50 5.5 88.5t13.5 75.5q8 34 12 52.5t4 30.5q0 11 -4 18.5t-15 7.5q-19 0 -37 -23.5t-33 -62.5t-24.5 -87.5t-9.5 -99.5h-150q0 30 4 66.5t13.5 88.5 t26.5 125l5 110l157 8q0 -18 -2 -43t-5 -51h3z" />
<glyph unicode="&#x2080;" horiz-adv-x="454" d="M454 186q0 -53 -19.5 -101t-54 -85t-79.5 -58.5t-97 -21.5q-66 0 -107.5 38t-41.5 115q0 53 20 101.5t55 86t80.5 59.5t96.5 22q68 0 107.5 -40.5t39.5 -115.5zM189 54q0 -61 33 -61q23 0 41 22t31 56.5t20 71t7 64.5q0 32 -8.5 46.5t-25.5 14.5q-22 0 -40.5 -22 t-31 -55.5t-19.5 -70t-7 -66.5z" />
<glyph unicode="&#x2081;" horiz-adv-x="306" d="M156 224h-2l-59 -4l-2 75l206 49l12 -14l-85 -400h-134l46 215q5 20 8.5 39t9.5 40z" />
<glyph unicode="&#x2082;" horiz-adv-x="389" d="M40 -70l3 83q32 17 67.5 39t67.5 48.5t52 55.5t20 59q0 18 -11 29.5t-33 11.5t-50 -11t-57 -30l8 96q29 13 70 23t83 10q62 0 98.5 -27.5t36.5 -74.5q0 -46 -33 -87.5t-84.5 -75t-105.5 -55.5h62q54 0 106 6l-28 -100h-272z" />
<glyph unicode="&#x2083;" horiz-adv-x="391" d="M109 310q27 12 70 22t80 10q56 0 90 -22t34 -57q0 -36 -32.5 -68t-76.5 -45q42 -8 65.5 -31t23.5 -55q0 -40 -30 -73t-81 -52t-114 -19q-25 0 -56 3.5t-56 10.5l29 80q14 -6 38 -10t43 -4q36 0 62 13.5t26 35.5q0 18 -19 25t-48 7q-15 0 -32.5 -1t-37.5 -3l17 80 q59 2 97 21t38 47q0 13 -9.5 21t-30.5 8q-19 0 -48 -7t-54 -18z" />
<glyph unicode="&#x2084;" horiz-adv-x="437" d="M54 90l204 248l149 6l12 -13l-48 -229q28 2 54 5l-27 -93h-46l-18 -84h-126l18 84h-174zM164 102v-2q5 0 23 0.5t57 0.5l8 40q5 23 13 55t18 64h-2z" />
<glyph unicode="&#x2085;" horiz-adv-x="414" d="M46 -66l29 84q14 -6 37.5 -10t42.5 -4q36 0 63 14.5t27 42.5q0 21 -14.5 30t-37.5 9q-22 0 -45.5 -5.5t-42.5 -12.5l-15 10l51 242h177q26 0 53 1t52 5l-28 -101h-167l-13 -60q26 5 53 5q53 0 85.5 -26.5t32.5 -76.5q0 -47 -29 -83.5t-80.5 -57t-119.5 -20.5 q-25 0 -55 3.5t-56 10.5z" />
<glyph unicode="&#x2086;" horiz-adv-x="419" d="M200 -80q-41 0 -75 13.5t-54 44t-20 79.5q0 54 24.5 105t67.5 91.5t99.5 64.5t119.5 24q19 0 35 -2t23 -4l-30 -88q-9 2 -21.5 4t-23.5 2q-33 0 -73 -21t-61 -66h2q11 2 27 4.5t35 2.5q54 0 87 -24t33 -73q0 -43 -25.5 -78.5t-69.5 -57t-100 -21.5zM225 101q-7 0 -16 -2 t-16 -4q-12 -33 -12 -63q0 -39 24 -39q23 0 36.5 22t13.5 49q0 37 -30 37z" />
<glyph unicode="&#x2087;" horiz-adv-x="369" d="M79 229l31 107h304l13 -14l-14 -67q-99 -75 -148.5 -152.5t-71.5 -172.5h-138q26 93 89.5 175t145.5 134v2h-66q-39 0 -76 -2.5t-69 -9.5z" />
<glyph unicode="&#x2088;" horiz-adv-x="441" d="M195 -80q-71 0 -110.5 25.5t-39.5 67.5q0 43 37 76t87 49v2q-22 15 -40.5 34.5t-18.5 48.5q0 34 25.5 60.5t68.5 42.5t95 16q49 0 78 -13t42.5 -33t13.5 -40q0 -29 -25.5 -59t-70.5 -49v-2q27 -13 51 -34t24 -59q0 -36 -28 -66.5t-76.5 -48.5t-112.5 -18zM280 275 q-19 0 -32.5 -12.5t-13.5 -29.5q0 -29 38 -47q17 14 28 32t11 31q0 12 -8.5 19t-22.5 7zM230 90q-26 -10 -42 -29t-16 -39q0 -16 11.5 -26t33.5 -10q28 0 47 15t19 37q0 16 -14 29.5t-39 22.5z" />
<glyph unicode="&#x2089;" horiz-adv-x="419" d="M199 78q-55 0 -87.5 26.5t-32.5 77.5q0 45 25 81.5t67.5 57.5t94.5 21q42 0 78 -15.5t58.5 -49.5t22.5 -89q0 -51 -21 -99t-61 -86t-96 -60.5t-125 -22.5q-12 0 -27 1t-28 4l16 86q13 -1 23 -2.5t24 -1.5q52 0 83 19.5t50 59.5q-35 -8 -64 -8zM261 261q-20 0 -31 -23 t-11 -48q0 -40 34 -40q13 0 26 3q4 18 6.5 34.5t2.5 28.5q0 45 -27 45z" />
<glyph unicode="&#x20ac;" horiz-adv-x="586" d="M18 247l18 60h54q5 35 15 70h-48l18 60h53q34 76 90.5 135.5t128.5 93.5t153 34q46 0 84.5 -11t63.5 -29l-67 -155q-31 22 -59 33.5t-54 11.5q-44 0 -83 -31.5t-65 -81.5h172l-18 -60h-178q-11 -34 -14 -70h171l-18 -60h-154q10 -107 104 -107q32 0 67.5 11t63.5 27 l-11 -148q-83 -40 -176 -40q-119 0 -181.5 63.5t-62.5 185.5v8h-67z" />
<glyph unicode="&#x2122;" horiz-adv-x="568" d="M611 692l8 -7l-26 -225h-72l9 78q2 18 5 33.5t10 54.5h-2q-8 -25 -15.5 -45t-18.5 -43l-35 -78h-81l-1 78q0 18 0.5 42t3.5 47h-1q-4 -15 -6.5 -26t-6 -24.5t-11.5 -38.5l-25 -78h-60l72 229l104 3v-42q0 -28 -1.5 -56t-6.5 -67h1q14 42 27 77t18 46l18 39zM205 460h-74 l38 175q-18 0 -34.5 -1t-33.5 -1l16 56h201l-8 -56q-18 0 -34.5 1t-32.5 1z" />
<glyph unicode="&#x2202;" horiz-adv-x="715" d="M466 760q90 0 145.5 -33.5t81 -95t25.5 -144.5q0 -99 -32 -188.5t-90.5 -159t-138 -109.5t-174.5 -40q-103 0 -158.5 48t-55.5 133q0 61 28 116t78 98t116 67.5t142 24.5q28 0 50.5 -3.5t41.5 -9.5v6q0 80 -32 117.5t-95 37.5q-49 0 -96 -19t-81 -44l-33 113 q49 33 122 59t156 26zM263 196q0 -37 17.5 -53.5t48.5 -16.5q44 0 78 28.5t58.5 74.5t38.5 98q-16 7 -34.5 10.5t-40.5 3.5q-49 0 -86.5 -19t-58.5 -52t-21 -74z" />
<glyph unicode="&#x220f;" horiz-adv-x="769" d="M871 670l-29 -114h-70l-148 -696h-180l148 696h-179l-148 -696h-180l148 696h-70l23 134h669z" />
<glyph unicode="&#x2211;" horiz-adv-x="600" d="M31 -20l282 295l-157 295l56 120h495l16 -20l-30 -120l-344 9l139 -262l-9 -44l-249 -262l350 9l-30 -140h-515z" />
<glyph unicode="&#x2212;" d="M541 303h-450l18 85q31 1 76 1.5t97 1.5t104.5 1.5t98 0.5h77.5l6 -8z" />
<glyph unicode="&#x221a;" horiz-adv-x="656" d="M792 731l-364 -731h-189l-48 366h-108l28 134h237l23 -370l269 630l146 -10z" />
<glyph unicode="&#x221e;" horiz-adv-x="795" d="M786 397q0 -50 -18.5 -94.5t-50.5 -79t-74 -54t-89 -19.5q-61 0 -95 30t-56 72q-44 -47 -97 -74.5t-111 -27.5q-66 0 -103.5 39.5t-37.5 103.5q0 50 18.5 94.5t50.5 79t74 54t88 19.5q61 0 96.5 -29.5t56.5 -70.5q46 48 97 74t109 26q67 0 104.5 -39.5t37.5 -103.5z M609 450q-38 0 -76 -25.5t-65 -59.5l1 -4q17 -52 40.5 -86.5t66.5 -34.5q30 0 55.5 18.5t41 49t15.5 65.5t-21.5 56t-57.5 21zM152 318q0 -36 21 -56.5t58 -20.5q24 0 50.5 12.5t50.5 32t40 39.5q-1 3 -2 5q-13 34 -26.5 61t-32 43t-48.5 16t-55.5 -18t-40.5 -48t-15 -66z " />
<glyph unicode="&#x222b;" horiz-adv-x="501" d="M69 -260q-28 0 -63 5.5t-69 19.5l38 132q27 -20 57 -31t48 -11q38 0 53 69q11 48 16 126.5t10 185.5q6 119 15 215.5t34 165.5t77 106t143 37q32 0 67 -5.5t69 -19.5l-38 -132q-62 42 -107 42q-38 0 -51 -40.5t-15.5 -124.5t-9.5 -216q-4 -85 -7.5 -143.5t-7.5 -97 t-10 -65.5q-24 -112 -89 -165t-160 -53z" />
<glyph unicode="&#x2248;" d="M462 353q-14 0 -41 5t-60 12.5t-65 15t-56.5 12.5t-34.5 5q-8 0 -27 -17t-42 -40l-44 34q19 25 42.5 52.5t48.5 47t48 19.5q14 0 41 -5t60 -12.5t65.5 -15t57 -12.5t34.5 -5q8 0 26.5 17.5t42.5 39.5l44 -34q-19 -24 -42.5 -52t-48.5 -47.5t-49 -19.5zM415 129 q-14 0 -41 5t-60 12.5t-65 15t-56.5 12.5t-34.5 5q-8 0 -27 -17t-42 -40l-44 34q19 25 42.5 52.5t48.5 47t48 19.5q14 0 41 -5t60 -12.5t65.5 -15t57 -12.5t34.5 -5q8 0 26.5 17.5t42.5 39.5l44 -34q-19 -24 -42.5 -52t-48.5 -47.5t-49 -19.5z" />
<glyph unicode="&#x2260;" d="M122 132l54 78h-104l18 85q27 1 65 1.5t82 1.5l77 112h-199l18 85q41 1 107 2t136 2l76 110l11 3l65 -40l-50 -72h108l6 -8l-27 -82h-149l-77 -111q59 0 113.5 0.5t90.5 0.5l6 -8l-27 -82h-244l-80 -115l-11 -3z" />
<glyph unicode="&#x2264;" d="M245 357l287 -118l-20 -90l-427 177l12 55l8 11q29 10 77.5 27t106.5 37t117 40t109.5 37t83.5 27l-19 -90zM472 0h-450l18 85q31 1 76 1.5t97 1.5t104.5 1.5t98 0.5h77.5l6 -8z" />
<glyph unicode="&#x2265;" d="M63 145l20 93l342 116l-292 115l19 90q39 -15 93.5 -36t114.5 -45t116.5 -46.5t98.5 -40.5l3 -11l-13 -64zM483 0h-450l18 85q31 1 76 1.5t97 1.5t104.5 1.5t98 0.5h77.5l6 -8z" />
<glyph unicode="&#x25ca;" horiz-adv-x="600" d="M53 319l10 46l278 325l99 10l146 -336l-10 -45l-281 -319l-98 -10zM258 62h1l234 280l-114 287h-1l-232 -288z" />
<glyph unicode="&#x25fc;" horiz-adv-x="510" d="M0 510h510v-510h-510v510z" />
<glyph unicode="&#xfb00;" horiz-adv-x="716" d="M305 536q-3 -14 -5 -27.5t-4 -28.5h136q3 19 5.5 35.5t5.5 31.5q6 30 18 56q-13 10 -29.5 16t-37.5 6q-30 0 -54.5 -21t-34.5 -68zM-13 -250l-57 60q41 62 63 119.5t37 130.5l71 335l-69 5l13 60l74 20q2 20 4.5 32.5t4.5 23.5q14 67 54 112t99 68.5t129 23.5 q46 0 80 -8.5t59 -20.5q73 49 178 49q44 0 81.5 -10t58.5 -24l-63 -131q-22 14 -47 24.5t-53 10.5q-65 0 -81 -69q-5 -27 -8 -46.5t-6 -34.5h123l8 -18l-20 -72l-126 4l-61 -286q-19 -91 -44.5 -158.5t-70 -118t-120.5 -91.5l-57 60q41 62 63 119.5t37 130.5l73 345h-133 l-59 -277q-19 -91 -44.5 -158.5t-70 -118t-120.5 -91.5z" />
<glyph unicode="&#xfb01;" horiz-adv-x="623" d="M-13 -250l-57 60q41 62 63 119.5t37 130.5l71 335l-69 5l13 60l74 20q2 15 5.5 35t4.5 27q21 105 96 161.5t184 56.5q73 0 127.5 -20.5t83.5 -49.5l-105 -106q-27 21 -57.5 33.5t-65.5 12.5q-68 0 -84 -79q-2 -11 -6 -33.5t-6 -37.5h119l189 30q0 -50 -11 -113t-26 -132 t-26 -137t-11 -128h-180q0 54 10 121t27 146l20 92l2 31l-128 4l-59 -276q-19 -91 -44.5 -158.5t-70 -118t-120.5 -91.5z" />
<glyph unicode="&#xfb02;" horiz-adv-x="619" d="M308 551q-2 -11 -6 -33.5t-6 -37.5h135l28 129v6q-33 15 -67 15q-68 0 -84 -79zM-13 -250l-57 60q41 62 63 119.5t37 130.5l71 335l-69 5l13 60l74 20q2 15 5.5 35t4.5 27q21 105 96 161.5t184 56.5q44 0 83 -9l164 9q0 -56 -13 -131.5t-31.5 -161t-37.5 -171t-32 -162 t-13 -134.5h-180q0 36 5.5 82.5t19 117.5t36.5 180l2 10l-131 4l-59 -276q-19 -91 -44.5 -158.5t-70 -118t-120.5 -91.5z" />
<glyph unicode="&#xfb03;" horiz-adv-x="936" d="M305 536q-3 -14 -5 -27.5t-4 -28.5h136q2 15 5.5 35t4.5 27q7 35 20 65q-28 18 -65 18q-32 0 -56.5 -20t-35.5 -69zM-13 -250l-57 60q41 62 63 119.5t37 130.5l71 335l-69 5l13 60l74 20l4.5 33t4.5 23q24 102 99.5 153t182.5 51q46 0 81 -7.5t61 -18.5q70 46 170 46 q73 0 127.5 -20.5t83.5 -49.5l-105 -106q-27 21 -57.5 33.5t-65.5 12.5q-68 0 -84 -79q-2 -11 -6 -33.5t-6 -37.5h119l189 30q0 -50 -11 -113t-26 -132t-26 -137t-11 -128h-180q0 54 10 121t27 146l20 92l2 31l-128 4l-59 -276q-19 -91 -44.5 -158.5t-70 -118t-120.5 -91.5 l-57 60q41 62 63 119.5t37 130.5l71 335h-133l-59 -277q-19 -91 -44.5 -158.5t-70 -118t-120.5 -91.5z" />
<glyph unicode="&#xfb04;" horiz-adv-x="932" d="M621 551q-2 -11 -6 -33.5t-6 -37.5h135l28 129v6q-33 15 -67 15q-68 0 -84 -79zM305 536q-3 -14 -5 -27.5t-4 -28.5h136q2 15 5.5 35t4.5 27q6 32 19 61q-27 22 -64 22q-32 0 -56.5 -20t-35.5 -69zM-13 -250l-57 60q41 62 63 119.5t37 130.5l71 335l-69 5l13 60l74 20 l4.5 33t4.5 23q24 102 99.5 153t182.5 51q46 0 80 -8t59 -21q71 49 173 49q44 0 83 -9l164 9q0 -56 -13 -131.5t-31.5 -161t-37.5 -171t-32 -162t-13 -134.5h-180q0 36 5.5 82.5t19 117.5t36.5 180l2 10l-131 4l-59 -276q-19 -91 -44.5 -158.5t-70 -118t-120.5 -91.5l-57 60 q41 62 63 119.5t37 130.5l71 335h-133l-59 -277q-19 -91 -44.5 -158.5t-70 -118t-120.5 -91.5z" />
<glyph unicode="&#xfb06;" horiz-adv-x="837" d="M449 485l-38 -132q-34 20 -70.5 31t-62.5 11q-25 0 -41.5 -9.5t-16.5 -26.5q0 -18 18 -30t44 -24t52 -28.5t44 -42t18 -65.5q0 -55 -35 -95t-91.5 -62t-123.5 -22q-46 0 -92 10.5t-71 28.5l37 129q38 -25 81.5 -39t72.5 -14q27 0 41 10.5t14 25.5q0 17 -18 29.5t-44 25 t-52 29t-44 41.5t-18 64q0 53 35.5 93.5t93 63.5t123.5 23q22 0 46 -3q-2 14 -2 28q0 58 33 107t91 78.5t132 29.5t116.5 -30.5t42.5 -83.5q0 -39 -24 -74t-66 -62h193l8 -20l-23 -70l-140 4q-16 -76 -26 -123t-15.5 -72.5t-7.5 -37.5t-2 -20q0 -23 13.5 -34.5t36.5 -11.5 q18 0 39 6.5t43 17.5l-13 -108q-28 -16 -69 -28.5t-88 -12.5q-70 0 -107.5 34.5t-37.5 104.5q0 15 2 32t8 46t17 79.5t28 131.5l-55 2l13 60q47 15 70 48.5t23 63.5q0 23 -12.5 37t-38.5 14t-49 -15.5t-37.5 -41t-14.5 -56.5q0 -23 17 -45z" />
<glyph horiz-adv-x="486" d="M3 55q0 48 17.5 96.5t53 89t88.5 65t123 24.5q39 0 86.5 -8.5t81.5 -25.5l-31 -143q-23 -106 -28.5 -159t-5.5 -70h-150q0 21 2.5 48t9.5 69q-17 -49 -57 -83t-90 -34q-47 0 -73.5 35.5t-26.5 95.5zM157 85q0 -44 28 -44q19 0 37.5 22t34 57t22.5 73q5 22 10 48 q-17 8 -30 8q-20 0 -38.5 -15.5t-33 -41t-22.5 -53.5t-8 -54z" />
<glyph horiz-adv-x="482" d="M76 407l5 110l158 8q0 -55 -15.5 -133t-33.5 -161q22 43 58.5 71t79.5 28q47 0 73.5 -34.5t26.5 -94.5q0 -47 -17.5 -96t-52 -90t-86.5 -66t-121 -25q-25 0 -54.5 4t-57.5 12t-47 20q-3 39 46 268zM245 213q-19 0 -38.5 -26.5t-35.5 -72t-23 -103.5q13 -6 26 -6 q27 0 50 24.5t36.5 60t13.5 69.5q0 24 -7.5 39t-21.5 15zM148 11l2 18q-2 -9 -3 -18h1z" />
<glyph horiz-adv-x="400" d="M323 45l16 -61q-35 -28 -83 -44t-96 -16q-73 0 -119.5 39.5t-46.5 116.5q0 66 33.5 123t92.5 92t135 35q21 0 54.5 -4t64.5 -15l-31 -110q-22 15 -46.5 24.5t-46.5 9.5q-44 0 -73 -38t-29 -96q0 -40 17 -61t56 -21q25 0 51.5 7.5t50.5 18.5z" />
<glyph horiz-adv-x="477" d="M373 -68h-150q-1 21 0.5 44.5t6.5 54.5q-18 -46 -56 -76.5t-83 -30.5q-48 0 -74.5 36.5t-26.5 96.5q0 49 18 97t53.5 88t87.5 64t119 24q11 0 23 -1l17 78l5 110l157 8q1 -44 -9.5 -104t-24.5 -127v0v0q-15 -66 -29.5 -132.5t-24.5 -126t-9 -103.5zM144 90q0 -49 27 -49 q19 0 36 21.5t31.5 56t22.5 74.5q4 16 8 35l3 12q-16 9 -30 9q-26 0 -48.5 -24.5t-36 -61.5t-13.5 -73z" />
<glyph horiz-adv-x="432" d="M320 45l16 -61q-31 -28 -79.5 -44t-98.5 -16q-72 0 -118.5 37t-46.5 114q0 49 19.5 94.5t55 82t83.5 57.5t105 21q62 0 101 -26.5t39 -73.5q0 -41 -31.5 -73.5t-88 -52t-129.5 -22.5q1 -29 18.5 -46t52.5 -17q23 0 50 7t52 19zM233 252q-22 0 -39 -21t-28 -51.5 t-15 -57.5q46 11 77.5 38t31.5 61q0 17 -8 24t-19 7z" />
<glyph horiz-adv-x="355" d="M-14 -266l-48 49q32 50 50 95.5t30 104.5l54 252l-56 5l11 49l60 16q2 14 4.5 28t4.5 24q17 82 79.5 125t152.5 43q37 0 68 -8t48 -19l-51 -108q-18 11 -39.5 19t-42.5 8q-54 0 -65 -49q-4 -22 -6.5 -37t-4.5 -26h100l7 -15l-16 -59l-104 3l-44 -202q-15 -73 -35.5 -128 t-57 -96t-99.5 -74z" />
<glyph horiz-adv-x="443" d="M113 -263q-90 0 -141.5 28t-51.5 66q0 32 32 52.5t73 30.5l28 -25v-13q0 -33 23.5 -53t61.5 -20q30 0 49 10.5t19 26.5q0 18 -22.5 29t-54.5 26q-29 14 -50.5 28.5t-21.5 37.5q0 25 21 42t49 25t48 7v2q-22 0 -43 3q-50 8 -83.5 41t-33.5 88q0 54 32 90t81 53.5t101 17.5 q55 0 90.5 0.5t60.5 2.5t50 7q7 -5 10 -14t3 -17q0 -14 -10 -33.5t-39 -19.5q-21 0 -38.5 9t-35.5 15l-1 -2q28 -14 46.5 -36.5t18.5 -60.5q0 -39 -19 -65.5t-47 -44t-56 -29t-47 -20t-19 -17.5q0 -7 12 -14t34 -17q20 -9 46.5 -23.5t46.5 -36t20 -52.5q0 -38 -33 -66 t-88 -43.5t-121 -15.5zM245 207q0 24 -7 38.5t-22 14.5q-18 0 -32 -18t-22 -43.5t-8 -48.5t8 -40.5t25 -17.5q19 0 31.5 19t19.5 45.5t7 50.5z" />
<glyph horiz-adv-x="489" d="M150 -68h-150q0 21 2 44.5t7 55.5t14 79.5t24 116.5l38 179l5 110l158 8q0 -58 -15 -133.5t-34 -155.5h3q32 52 72.5 73t77.5 21q39 0 61 -22t22 -63q0 -8 -1.5 -18t-5.5 -29.5t-11.5 -54.5t-19.5 -93q-11 -44 -9 -118h-150q0 31 3 61t10.5 68.5t18.5 93.5q3 14 3 25 t-4 18t-15 7q-19 0 -37.5 -23.5t-33.5 -63.5t-24 -88t-9 -98z" />
<glyph horiz-adv-x="252" d="M239 474q0 -26 -16.5 -50.5t-42.5 -39.5t-55 -15q-30 0 -48 16.5t-18 42.5q0 28 18 51.5t45 38.5t54 15q28 0 45.5 -15.5t17.5 -43.5zM150 -68h-150q0 50 7.5 98.5t20.5 109.5l16 72l5 110l157 8q1 -39 -7.5 -88t-20 -102.5t-20 -107t-8.5 -100.5z" />
<glyph horiz-adv-x="249" d="M236 474q0 -26 -16.5 -50.5t-42.5 -39.5t-55 -15q-30 0 -48 16.5t-18 42.5q0 28 18 51.5t45 38.5t54 15q28 0 45.5 -15.5t17.5 -43.5zM-40 -266l-48 49q33 52 50 97t30 103l49 229l5 110l158 8q0 -25 -5.5 -61.5t-13.5 -79t-17 -83.5t-16 -75q-15 -73 -35.5 -127.5 t-57 -95.5t-99.5 -74z" />
<glyph horiz-adv-x="490" d="M454 250q0 -38 -29.5 -75t-82.5 -63q20 -43 42.5 -89t53.5 -91h-186q-13 29 -26 64.5t-21 80.5q57 49 78 82.5t21 51.5q0 24 -21 24t-43.5 -25.5t-42.5 -69t-33 -97.5t-14 -111h-150q0 21 2 44.5t7 55.5t14 79.5t24 116.5l38 179l5 110l158 8q0 -53 -15 -130t-33 -159h1 q29 40 74.5 67t90.5 27q42 0 65 -22.5t23 -57.5z" />
<glyph horiz-adv-x="253" d="M150 -68h-150q0 21 2 44.5t7 55.5t14 79.5t24 116.5l38 179l5 110l158 8q0 -43 -10 -102.5t-24.5 -126t-29.5 -133.5t-25 -126.5t-9 -104.5z" />
<glyph horiz-adv-x="726" d="M201 236q31 48 71.5 71t79.5 23q41 0 61 -23t20 -64v-7h2q31 48 73.5 71t81.5 23q41 0 61 -22t20 -60q0 -25 -7 -59.5t-18 -81.5q-6 -29 -11 -53.5t-7.5 -52.5t-2.5 -69h-150q0 52 6.5 91t15.5 82q5 23 9 43t4 33q0 10 -4 17t-16 7q-23 0 -46.5 -33t-39.5 -89.5 t-17 -128.5v-22h-150q0 50 5.5 88.5t13.5 75.5q8 34 12 52.5t4 30.5q0 11 -4 18.5t-15 7.5q-19 0 -37 -23.5t-33 -62.5t-24.5 -87.5t-9.5 -99.5h-150q0 30 4 66.5t13.5 88.5t26.5 125l5 110l157 8q0 -18 -2 -43t-5 -51h3z" />
<glyph horiz-adv-x="488" d="M201 236q31 48 71.5 71t80.5 23t60 -21.5t20 -58.5q0 -27 -8.5 -67t-16.5 -76q-9 -41 -14 -68t-6 -51t-1 -56h-150q0 50 5.5 88.5t13.5 75.5q8 34 12 52.5t4 30.5q0 11 -4 18.5t-15 7.5q-19 0 -37 -23.5t-33 -62.5t-24.5 -87.5t-9.5 -99.5h-150q0 30 4 66.5t13.5 88.5 t26.5 125l5 110l157 8q0 -18 -2 -43t-5 -51h3z" />
<glyph horiz-adv-x="458" d="M414 175q0 -67 -34 -124t-92.5 -92t-132.5 -35q-70 0 -116 37t-46 114q0 51 20.5 96.5t56 81.5t83 56.5t101.5 20.5q73 0 116.5 -40t43.5 -115zM147 62q0 -55 30 -55q21 0 36.5 20t26 50.5t15.5 62.5t5 56q0 52 -30 52q-21 0 -37 -20t-26 -50t-15 -61.5t-5 -54.5z" />
<glyph horiz-adv-x="488" d="M156 -76q-12 0 -25 1q-11 -52 -17.5 -98t-6.5 -82h-150q0 30 4.5 68t15 91.5t26.5 128.5l39 179l5 110l158 8q0 -22 -3 -48.5t-8 -56.5q19 45 57 75t84 30q47 0 73 -33.5t26 -93.5q0 -47 -17.5 -96t-52 -90.5t-86.5 -67t-122 -25.5zM253 213q-18 0 -36 -20.5t-32.5 -55 t-23.5 -74.5q-3 -13 -5.5 -25t-5.5 -25q16 -8 29 -8q21 0 39 16.5t32 42t22 53.5t8 50q0 21 -7 33.5t-20 12.5z" />
<glyph horiz-adv-x="468" d="M104 -76q-49 0 -75.5 36.5t-26.5 94.5q0 49 19 98t56 89t89 64t118 24q38 0 84.5 -9t79.5 -27l-71 -325q-14 -64 -21.5 -107t-10 -70.5t-2.5 -46.5h-150q0 32 6.5 77t16.5 95.5t21 100.5q-19 -41 -55 -67.5t-78 -26.5zM156 86q0 -20 7 -32.5t20 -12.5q26 0 51 42t39 106 l11 53q-12 7 -25 7q-22 0 -40.5 -17t-32.5 -43t-22 -53.5t-8 -49.5z" />
<glyph horiz-adv-x="359" d="M149 -68h-150q0 47 7.5 97t20.5 111l16 72l5 110l157 8q0 -27 -5 -64t-13 -77h3q27 80 60 110.5t61 30.5q18 0 34.5 -9.5t23.5 -20.5l-69 -139q-12 5 -25.5 7t-22.5 2q-52 0 -75 -59.5t-28 -178.5z" />
<glyph horiz-adv-x="381" d="M350 311l-30 -110q-29 17 -59.5 25.5t-50.5 8.5q-19 0 -32.5 -6.5t-13.5 -17.5q0 -13 14.5 -22t36 -17.5t43.5 -21.5t36.5 -33t14.5 -52q0 -43 -28.5 -74.5t-74.5 -49t-101 -17.5q-37 0 -76 8.5t-59 22.5l30 107q31 -20 67 -31.5t60 -11.5q21 0 32 7t11 17q0 13 -14.5 22 t-36 18.5t-43.5 22.5t-36.5 32.5t-14.5 50.5q0 42 29 73.5t76.5 49.5t100.5 18q23 0 55.5 -4t63.5 -15z" />
<glyph horiz-adv-x="352" d="M320 248l-115 3q-17 -75 -25 -113t-11 -53t-3 -22q0 -17 11 -26t30 -9q16 0 32.5 5t34.5 14l-10 -90q-23 -13 -57 -23t-72 -10q-121 0 -121 114q0 14 3 34t12 62t27 121l-53 2l10 49l61 16l59 104l93 6l16 -17l-22 -93h112l7 -16z" />
<glyph horiz-adv-x="480" d="M4 11q0 14 3.5 32.5t11.5 57.5t23 111l6 110l157 8q1 -35 -6.5 -78t-16.5 -83.5t-14 -69.5q-1 -7 -2 -13.5t-1 -12.5q0 -10 4 -17t14 -7q17 0 33 21t29.5 56.5t22.5 79.5q4 25 7 45.5t4 39.5q1 16 1 31l158 8q-3 -26 -6.5 -50.5t-9 -54.5t-14 -72.5t-20.5 -105.5 q-4 -23 -6.5 -48.5t-2.5 -66.5h-150q0 25 1 45t4 42h-3q-31 -52 -70.5 -73.5t-75.5 -21.5q-40 0 -60.5 23.5t-20.5 63.5z" />
<glyph horiz-adv-x="440" d="M54 -68q-2 81 -7.5 155.5t-12 135t-14.5 99.5l162 8q4 -39 5 -92t-1 -109t-9 -108h3q25 47 45.5 99.5t35 104t18.5 93.5q24 12 59 12q15 0 32.5 -3.5t29.5 -14.5t12 -35q0 -23 -14 -62t-39 -87t-59 -98.5t-74 -97.5h-172z" />
<glyph horiz-adv-x="727" d="M624 330q15 0 32 -3.5t29.5 -14.5t12.5 -35t-15 -65t-40.5 -89.5t-59 -98.5t-71.5 -92h-172q7 59 12 122t7 124h-2q-28 -71 -60.5 -131.5t-70.5 -114.5h-171q-3 75 -8 149t-12 137t-15 104l162 8q5 -42 6 -94.5t-1.5 -107.5t-8.5 -106h2q25 45 47 97.5t37.5 105 t19.5 97.5h184q5 -39 5.5 -90t-2 -105t-8.5 -105h3q24 46 45 98.5t35.5 104t18.5 93.5q24 12 59 12z" />
<glyph horiz-adv-x="429" d="M-38 -68q4 51 43 110.5t111 101.5q-20 45 -46.5 90t-64.5 88l154 8q23 -24 41.5 -56.5t35.5 -71.5q16 23 27 53t10 61q11 6 26.5 10t35.5 4q32 0 53 -12t21 -37q0 -19 -16 -47.5t-46.5 -59.5t-74.5 -58q18 -44 39.5 -90.5t50.5 -93.5h-154q-17 28 -30.5 61t-27.5 69 q-18 -19 -32.5 -56.5t-13.5 -73.5h-142z" />
<glyph horiz-adv-x="441" d="M339 330q14 0 31 -3.5t29.5 -14t12.5 -33.5q0 -27 -19.5 -77t-54 -111t-79 -123.5t-94.5 -114.5t-100.5 -84t-97.5 -32q-36 0 -57 22t-21 59q0 20 4.5 32t10.5 22q29 -8 67 -8q49 0 97 15.5t71 52.5h-85q-2 81 -7.5 155.5t-12 135.5t-14.5 99l162 8q4 -40 5 -92.5 t-1 -108.5t-9 -108h3q24 46 45 98.5t35.5 104.5t18.5 94q24 12 60 12z" />
<glyph horiz-adv-x="425" d="M13 -76l-47 71q69 58 129 111t111 99q-17 3 -32.5 6t-31.5 3q-28 0 -54.5 -11t-44.5 -34l-39 25q18 55 40 84.5t49 40.5t58 11q41 0 82 -10.5t83 -13.5q7 6 13.5 12t12.5 12q48 0 48 -42q0 -17 -11 -36.5t-38.5 -46.5t-76.5 -65t-125 -93q11 3 22 3q15 0 40.5 -4t41.5 -4 q29 0 49.5 16t31.5 38l48 -30q-15 -57 -35 -87.5t-46.5 -42.5t-60.5 -12q-48 0 -86 12.5t-66 12.5q-13 0 -29 -5.5t-36 -19.5z" />
<glyph horiz-adv-x="486" d="M79 415q0 48 17.5 96.5t53 89t88.5 65t123 24.5q39 0 86.5 -8.5t81.5 -25.5l-31 -143q-23 -106 -28.5 -159t-5.5 -70h-150q0 21 2.5 48t9.5 69q-17 -49 -57 -83t-90 -34q-47 0 -73.5 35.5t-26.5 95.5zM233 445q0 -44 28 -44q19 0 37.5 22t34 57t22.5 73q5 22 10 48 q-17 8 -30 8q-20 0 -38.5 -15.5t-33 -41t-22.5 -53.5t-8 -54z" />
<glyph horiz-adv-x="482" d="M152 767l5 110l158 8q0 -55 -15.5 -133t-33.5 -161q22 43 58.5 71t79.5 28q47 0 73.5 -34.5t26.5 -94.5q0 -47 -17.5 -96t-52 -90t-86.5 -66t-121 -25q-25 0 -54.5 4t-57.5 12t-47 20q-3 39 46 268zM321 573q-19 0 -38.5 -26.5t-35.5 -72t-23 -103.5q13 -6 26 -6 q27 0 50 24.5t36.5 60t13.5 69.5q0 24 -7.5 39t-21.5 15zM224 371l2 18q-2 -9 -3 -18h1z" />
<glyph horiz-adv-x="400" d="M400 405l16 -61q-35 -28 -83 -44t-96 -16q-73 0 -119.5 39.5t-46.5 116.5q0 66 33.5 123t92.5 92t135 35q21 0 54.5 -4t64.5 -15l-31 -110q-22 15 -46.5 24.5t-46.5 9.5q-44 0 -73 -38t-29 -96q0 -40 17 -61t56 -21q25 0 51.5 7.5t50.5 18.5z" />
<glyph horiz-adv-x="476" d="M449 292h-150q-1 21 0.5 44.5t6.5 54.5q-18 -46 -56 -76.5t-83 -30.5q-48 0 -74.5 36.5t-26.5 96.5q0 49 18 97t53.5 88t87.5 64t119 24q11 0 23 -1l17 78l5 110l157 8q1 -44 -9.5 -104t-24.5 -127v0v0q-15 -66 -29.5 -132.5t-24.5 -126t-9 -103.5zM220 450q0 -49 27 -49 q19 0 36 21.5t31.5 56t22.5 74.5q4 16 8 35l3 12q-16 9 -30 9q-26 0 -48.5 -25t-36 -61.5t-13.5 -72.5z" />
<glyph horiz-adv-x="433" d="M397 405l16 -61q-31 -28 -79.5 -44t-98.5 -16q-72 0 -118.5 37t-46.5 114q0 49 19.5 94.5t55 82t83.5 57.5t105 21q62 0 101 -26.5t39 -73.5q0 -41 -31.5 -73.5t-88 -52t-129.5 -22.5q1 -29 18.5 -46t52.5 -17q23 0 50 7t52 19zM310 612q-22 0 -39 -21t-28 -51.5 t-15 -57.5q46 11 77.5 38t31.5 61q0 17 -8 24t-19 7z" />
<glyph horiz-adv-x="355" d="M62 94l-48 49q32 50 50 95.5t30 104.5l54 252l-56 5l11 49l60 16q2 14 4.5 28t4.5 24q17 82 79.5 125t152.5 43q37 0 68 -8t48 -19l-51 -108q-18 11 -39.5 19t-42.5 8q-54 0 -65 -49q-4 -22 -6.5 -37t-4.5 -26h100l7 -15l-16 -59l-104 3l-44 -202q-15 -73 -35.5 -128 t-57 -96t-99.5 -74z" />
<glyph horiz-adv-x="444" d="M190 97q-90 0 -141.5 28t-51.5 66q0 32 32 52.5t73 30.5l28 -25v-13q0 -33 23.5 -53t61.5 -20q30 0 49 10.5t19 26.5q0 18 -22.5 29t-54.5 26q-29 14 -50.5 28.5t-21.5 37.5q0 25 21 42t49 25t48 7v2q-22 0 -43 3q-50 8 -83.5 41t-33.5 88q0 54 32 90t81 53.5t101 17.5 q55 0 90.5 0.5t60.5 2.5t50 7q7 -5 10 -14t3 -17q0 -14 -10 -33.5t-39 -19.5q-21 0 -38.5 9t-35.5 15l-1 -2q28 -14 46.5 -36.5t18.5 -60.5q0 -39 -19 -65.5t-47 -44t-56 -29t-47 -20t-19 -17.5q0 -7 12 -14t34 -17q20 -9 46.5 -23.5t46.5 -36t20 -52.5q0 -38 -33 -66 t-88 -43.5t-121 -15.5zM322 567q0 24 -7 38.5t-22 14.5q-18 0 -32 -18t-22 -43.5t-8 -48.5t8 -40.5t25 -17.5q19 0 31.5 19t19.5 45.5t7 50.5z" />
<glyph horiz-adv-x="488" d="M226 292h-150q0 21 2 44.5t7 55.5t14 79.5t24 116.5l38 179l5 110l158 8q0 -58 -15 -133.5t-34 -155.5h3q32 52 72.5 73t77.5 21q39 0 61 -22t22 -63q0 -8 -1.5 -18t-5.5 -29.5t-11.5 -54.5t-19.5 -93q-11 -44 -9 -118h-150q0 31 3 61t10.5 68.5t18.5 93.5q3 14 3 25 t-4 18t-15 7q-19 0 -37.5 -23.5t-33.5 -63.5t-24 -88t-9 -98z" />
<glyph horiz-adv-x="251" d="M315 834q0 -26 -16.5 -50.5t-42.5 -39.5t-55 -15q-30 0 -48 16.5t-18 42.5q0 28 18 51.5t45 38.5t54 15q28 0 45.5 -15.5t17.5 -43.5zM226 292h-150q0 50 7.5 98.5t20.5 109.5l16 72l5 110l157 8q1 -39 -7.5 -88t-20 -102.5t-20 -107t-8.5 -100.5z" />
<glyph horiz-adv-x="248" d="M312 834q0 -26 -16.5 -50.5t-42.5 -39.5t-55 -15q-30 0 -48 16.5t-18 42.5q0 28 18 51.5t45 38.5t54 15q28 0 45.5 -15.5t17.5 -43.5zM36 94l-48 49q33 52 50 97t30 103l49 229l5 110l158 8q0 -25 -5.5 -61.5t-13.5 -79t-17 -83.5t-16 -75q-15 -73 -35.5 -127.5 t-57 -95.5t-99.5 -74z" />
<glyph horiz-adv-x="489" d="M530 610q0 -38 -29.5 -75t-82.5 -63q20 -43 42.5 -89t53.5 -91h-186q-13 29 -26 64.5t-21 80.5q57 49 78 82.5t21 51.5q0 24 -21 24t-43.5 -25.5t-42.5 -69t-33 -97.5t-14 -111h-150q0 21 2 44.5t7 55.5t14 79.5t24 116.5l38 179l5 110l158 8q0 -53 -15 -130t-33 -159h1 q29 40 74.5 67t90.5 27q42 0 65 -22.5t23 -57.5z" />
<glyph horiz-adv-x="252" d="M226 292h-150q0 21 2 44.5t7 55.5t14 79.5t24 116.5l38 179l5 110l158 8q0 -43 -10 -102.5t-24.5 -126t-29.5 -133.5t-25 -126.5t-9 -104.5z" />
<glyph horiz-adv-x="726" d="M278 596q31 48 71.5 71t79.5 23q41 0 61 -23t20 -64v-7h2q31 48 73.5 71t81.5 23q41 0 61 -22t20 -60q0 -25 -7 -59.5t-18 -81.5q-6 -29 -11 -53t-7.5 -52.5t-2.5 -69.5h-150q0 52 6.5 91t15.5 82q5 23 9 43t4 33q0 10 -4 17t-16 7q-23 0 -46.5 -33t-39.5 -89.5 t-17 -128.5v-22h-150q0 50 5.5 88.5t13.5 75.5q8 34 12 52.5t4 30.5q0 11 -4 18.5t-15 7.5q-19 0 -37 -23.5t-33 -62.5t-24.5 -87.5t-9.5 -99.5h-150q0 30 4 66.5t13.5 88.5t26.5 125l5 110l157 8q0 -18 -2 -43t-5 -51h3z" />
<glyph horiz-adv-x="459" d="M491 535q0 -66 -34 -123.5t-92.5 -92.5t-132.5 -35q-70 0 -116 37t-46 114q0 51 20.5 96.5t56 81.5t83 56.5t101.5 20.5q73 0 116.5 -40t43.5 -115zM224 422q0 -55 30 -55q21 0 36.5 20t26 50.5t15.5 62.5t5 56q0 52 -30 52q-21 0 -37 -20t-26 -50t-15 -61.5t-5 -54.5z " />
<glyph horiz-adv-x="488" d="M184 105h-150q0 30 4.5 68t15 91.5t26.5 128.5l39 179l5 110l158 8q0 -22 -3 -48.5t-8 -56.5q19 45 57 75t84 30q47 0 73 -33.5t26 -93.5q0 -47 -17.5 -96t-52 -90.5t-86.5 -67t-122 -25.5q-12 0 -25 1q-11 -52 -17.5 -98t-6.5 -82zM330 573q-18 0 -36 -20.5t-32.5 -55 t-23.5 -74.5q-3 -13 -5.5 -25t-5.5 -25q16 -8 29 -8q21 0 39 16.5t32 42t22 53.5t8 50q0 21 -7 33.5t-20 12.5z" />
<glyph horiz-adv-x="469" d="M181 284q-49 0 -75.5 36.5t-26.5 94.5q0 49 19 98t56 89t89 64t118 24q38 0 84.5 -9t79.5 -27l-71 -325q-14 -64 -21.5 -107t-10 -70.5t-2.5 -46.5h-150q0 32 6.5 77t16.5 95.5t21 100.5q-19 -41 -55 -67.5t-78 -26.5zM233 446q0 -20 7 -32.5t20 -12.5q26 0 51 42t39 106 l11 53q-12 7 -25 7q-22 0 -40.5 -17t-32.5 -43t-22 -53.5t-8 -49.5z" />
<glyph horiz-adv-x="360" d="M226 292h-150q0 47 7.5 97t20.5 111l16 72l5 110l157 8q0 -27 -5 -64t-13 -77h3q27 80 60 110.5t61 30.5q18 0 34.5 -9.5t23.5 -20.5l-69 -139q-12 5 -25.5 7t-22.5 2q-52 0 -75 -59.5t-28 -178.5z" />
<glyph horiz-adv-x="381" d="M427 671l-30 -110q-29 17 -59.5 25.5t-50.5 8.5q-19 0 -32.5 -6.5t-13.5 -17.5q0 -13 14.5 -22t36 -17.5t43.5 -21.5t36.5 -33t14.5 -52q0 -43 -28.5 -74.5t-74.5 -49t-101 -17.5q-37 0 -76 8.5t-59 22.5l30 107q31 -20 67 -31.5t60 -11.5q21 0 32 7t11 17q0 13 -14.5 22 t-36 18.5t-43.5 22.5t-36.5 32.5t-14.5 50.5q0 42 29 73.5t76 49.5t101 18q23 0 55.5 -4t63.5 -15z" />
<glyph horiz-adv-x="352" d="M396 608l-115 3q-17 -75 -25 -113t-11 -53t-3 -22q0 -17 11 -26t30 -9q16 0 32.5 5t34.5 14l-10 -90q-23 -13 -57 -23t-72 -10q-121 0 -121 114q0 14 3 34t12 62t27 121l-53 2l10 49l61 16l59 104l93 6l16 -17l-22 -93h112l7 -16z" />
<glyph horiz-adv-x="480" d="M81 371q0 14 3 32.5t11.5 57t23.5 111.5l6 110l157 8q1 -35 -6.5 -78t-16.5 -83.5t-14 -69.5q-1 -7 -2 -13.5t-1 -12.5q0 -10 4 -17t14 -7q17 0 33 21t29.5 56.5t22.5 79.5q4 25 7 45.5t4 39.5q1 16 1 31l158 8q-3 -26 -6.5 -50.5t-9 -54.5t-14 -72.5t-20.5 -105.5 q-4 -23 -6.5 -48.5t-2.5 -66.5h-150q0 25 1 45t4 42h-3q-31 -52 -70.5 -73.5t-75.5 -21.5q-40 0 -60.5 23.5t-20.5 63.5z" />
<glyph horiz-adv-x="441" d="M131 292q-2 81 -7.5 155.5t-12 135t-14.5 99.5l162 8q4 -39 5 -92t-1 -109t-9 -108h3q25 47 45.5 99.5t35 104t18.5 93.5q24 12 59 12q15 0 32.5 -3.5t29.5 -14.5t12 -35q0 -23 -14 -62t-39 -87t-59 -98.5t-74 -97.5h-172z" />
<glyph horiz-adv-x="727" d="M701 690q15 0 32 -3.5t29.5 -14.5t12.5 -35t-15 -65t-40.5 -89.5t-59 -98.5t-71.5 -92h-172q7 59 12 122t7 124h-2q-28 -71 -60.5 -131.5t-70.5 -114.5h-171q-3 75 -8 149t-12 137t-15 104l162 8q5 -42 6 -94.5t-1.5 -107.5t-8.5 -106h2q25 45 47 97.5t37.5 105 t19.5 97.5h184q5 -39 5.5 -90t-2 -105t-8.5 -105h3q24 46 45 98.5t35.5 104t18.5 93.5q24 12 59 12z" />
<glyph horiz-adv-x="429" d="M39 292q4 51 43 110.5t111 101.5q-20 45 -46.5 90t-64.5 88l154 8q23 -24 41.5 -56.5t35.5 -71.5q16 23 27 53t10 61q11 6 26.5 10t35.5 4q32 0 53 -12t21 -37q0 -19 -16 -47.5t-46.5 -59.5t-74.5 -58q18 -44 39.5 -90.5t50.5 -93.5h-154q-17 28 -30.5 61t-27.5 69 q-18 -19 -32.5 -56.5t-13.5 -73.5h-142z" />
<glyph horiz-adv-x="440" d="M415 690q14 0 31 -3.5t29.5 -14t12.5 -33.5q0 -27 -19.5 -77t-54 -111t-79 -123.5t-94.5 -114.5t-100.5 -84t-97.5 -32q-36 0 -57 22t-21 59q0 20 4.5 32t10.5 22q29 -8 67 -8q49 0 97 15.5t71 52.5h-85q-2 81 -7.5 155.5t-12 135.5t-14.5 99l162 8q4 -40 5 -92.5 t-1 -108.5t-9 -108h3q24 46 45 98.5t35.5 104.5t18.5 94q24 12 60 12z" />
<glyph horiz-adv-x="426" d="M90 284l-47 71q69 58 129 111t111 99q-17 3 -32.5 6t-31.5 3q-28 0 -54.5 -11t-44.5 -34l-39 25q18 55 40 84.5t49 40.5t58 11q41 0 82 -10.5t83 -13.5q7 6 13.5 12t12.5 12q48 0 48 -42q0 -17 -11 -36.5t-38.5 -46.5t-76.5 -65t-125 -93q11 3 22 3q15 0 40.5 -4t41.5 -4 q29 0 49.5 16t31.5 38l48 -30q-15 -56 -35 -87t-46.5 -43t-60.5 -12q-48 0 -86 12.5t-66 12.5q-13 0 -29 -5.5t-36 -19.5z" />
<glyph horiz-adv-x="1073" d="M430 143l19 -73q-44 -38 -102.5 -59t-118.5 -21q-88 0 -142.5 46.5t-54.5 143.5q0 63 23.5 122t67 106t103.5 74.5t133 27.5q15 0 30 -1q-9 26 -9 52q0 57 38 102t103.5 71t147.5 26q67 0 149 -20q0 -29 -9 -86.5t-23.5 -128t-30.5 -139.5h3q40 66 91 95t96 29 q47 0 72 -27.5t25 -77.5q0 -12 -2 -27.5t-7 -41t-14.5 -70t-24.5 -115.5q-13 -59 -13 -151h-180q0 47 6.5 94t15 89.5t14.5 73.5q7 33 9 46.5t2 21.5q0 16 -5.5 25.5t-18.5 9.5q-24 0 -47 -31t-42 -83t-31 -116t-13 -130h-180q0 36 5.5 82.5t18.5 117.5t37 180l29 133 q9 43 17 94q-22 8 -46 8q-38 0 -61.5 -20.5t-23.5 -58.5q0 -13 4 -30.5t14 -37.5v0l1 -1l-51 -134q-30 32 -61 47t-57 15q-36 0 -59.5 -23.5t-36.5 -58t-18.5 -67.5t-5.5 -52q0 -40 20.5 -64.5t67.5 -24.5q31 0 63 10.5t63 27.5z" />
<glyph horiz-adv-x="895" d="M430 143l19 -73q-44 -38 -103 -59t-122 -21q-85 0 -139 47t-54 144q0 62 23.5 121t67.5 106t104.5 74.5t135.5 27.5q24 0 47 -3q-2 14 -2 28q0 58 33 107t91 78.5t132 29.5t116.5 -30.5t42.5 -83.5q0 -39 -24 -74t-66 -62h193l8 -20l-23 -70l-140 4q-16 -76 -26 -123 t-15.5 -72.5t-7.5 -37.5t-2 -20q0 -23 13.5 -34.5t36.5 -11.5q18 0 39 6.5t43 17.5l-13 -108q-28 -16 -69 -28.5t-88 -12.5q-70 0 -107.5 34.5t-37.5 104.5q0 15 2 32t8 46t17 79.5t28 131.5l-55 2l13 60q47 15 70 48.5t23 63.5q0 23 -12.5 37t-38.5 14t-49 -15.5t-37.5 -41 t-14.5 -56.5q0 -27 15 -53l-45 -144q-31 32 -63.5 47t-59.5 15q-38 0 -65.5 -27.5t-41.5 -69.5t-14 -87q0 -50 20.5 -78t68.5 -28q30 0 62 10.5t63 27.5z" />
<glyph horiz-adv-x="1020" d="M637 0h-180q0 36 5.5 82.5t18.5 117.5t37 180l29 133q9 44 17 94q-22 8 -46 8q-38 0 -61.5 -18.5t-23.5 -52.5q0 -11 3.5 -26.5t12.5 -32.5l-38 -132q-34 20 -70.5 31t-62.5 11q-25 0 -41.5 -9.5t-16.5 -26.5q0 -18 18 -30t44 -24t52 -28.5t44 -42t18 -65.5 q0 -55 -35 -95t-91.5 -62t-123.5 -22q-46 0 -92 10.5t-71 28.5l37 129q38 -25 81.5 -39t72.5 -14q27 0 41 10.5t14 25.5q0 17 -18 29.5t-44 25t-52 29t-44 41.5t-18 64q0 53 35.5 93.5t93 63.5t123.5 23q17 0 34 -1q-13 30 -13 61q0 54 38 97t103 68t146 25q69 0 151 -20 q0 -29 -9 -86.5t-23.5 -128t-30.5 -139.5h3q40 66 91 95t96 29q47 0 72 -27.5t25 -77.5q0 -12 -2 -27.5t-7 -41t-14.5 -70t-24.5 -115.5q-13 -59 -13 -151h-180q0 47 6.5 94t15 89.5t14.5 73.5q7 33 9 46.5t2 21.5q0 16 -5.5 25.5t-18.5 9.5q-24 0 -47 -31t-42 -83t-31 -116 t-13 -130z" />
<glyph horiz-adv-x="570" d="M122 0h-170l229 451q13 26 23 47.5t17 39.5l224 9l24 -24l43 -523h-179l-5 83h-166zM224 212l-4 -9h101v8q-4 82 -4.5 128t-0.5 66h-5q-8 -19 -30 -70t-57 -123z" />
<glyph horiz-adv-x="570" d="M506 786l4 -30q-42 -50 -90 -92t-102 -78l-68 10q28 50 53 99.5t45 98.5zM122 0h-170l229 451q13 26 23 47.5t17 39.5l224 9l24 -24l43 -523h-179l-5 83h-166zM224 212l-4 -9h101v8q-4 82 -4.5 128t-0.5 66h-5q-8 -19 -30 -70t-57 -123z" />
<glyph horiz-adv-x="570" d="M494 785l71 9q-14 -56 -44 -101t-71 -70.5t-90 -25.5q-64 0 -95.5 48.5t-18.5 130.5l72 10q0 -37 20 -58t51 -21q33 0 62.5 22.5t42.5 55.5zM122 0h-170l229 451q13 26 23 47.5t17 39.5l224 9l24 -24l43 -523h-179l-5 83h-166zM224 212l-4 -9h101v8q-4 82 -4.5 128 t-0.5 66h-5q-8 -19 -30 -70t-57 -123z" />
<glyph horiz-adv-x="600" d="M500 790l48 -40q-38 -39 -77 -81.5t-73 -82.5l-119 -10q-17 43 -35.5 85.5t-42.5 88.5l66 40q29 -21 52 -45t44 -48q34 25 67 49t70 44zM122 0h-170l229 451q13 26 23 47.5t17 39.5l224 9l24 -24l43 -523h-179l-5 83h-166zM224 212l-4 -9h101v8q-4 82 -4.5 128t-0.5 66 h-5q-8 -19 -30 -70t-57 -123z" />
<glyph horiz-adv-x="570" d="M252 572l-48 40q38 39 77 81.5t73 82.5l119 10q17 -43 35.5 -85.5t42.5 -88.5l-66 -40q-29 21 -52 45t-44 48q-34 -25 -67 -49t-70 -44zM122 0h-170l229 451q13 26 23 47.5t17 39.5l224 9l24 -24l43 -523h-179l-5 83h-166zM224 212l-4 -9h101v8q-4 82 -4.5 128t-0.5 66 h-5q-8 -19 -30 -70t-57 -123z" />
<glyph horiz-adv-x="570" d="M359 716q0 -31 -18 -59t-47 -45.5t-62 -17.5q-34 0 -52.5 18.5t-18.5 46.5q0 30 19 57.5t49.5 45t62.5 17.5q31 0 49 -17t18 -46zM598 716q0 -31 -18 -59t-47 -45.5t-62 -17.5q-34 0 -52.5 18.5t-18.5 46.5q0 30 19 57.5t49.5 45t62.5 17.5q31 0 49 -17t18 -46zM122 0 h-170l229 451q13 26 23 47.5t17 39.5l224 9l24 -24l43 -523h-179l-5 83h-166zM224 212l-4 -9h101v8q-4 82 -4.5 128t-0.5 66h-5q-8 -19 -30 -70t-57 -123z" />
<glyph horiz-adv-x="570" d="M122 0h-170l229 451q13 26 23 47.5t17 39.5l224 9l24 -24l43 -523h-179l-5 83h-166zM224 212l-4 -9h101v8q-4 82 -4.5 128t-0.5 66h-5q-8 -19 -30 -70t-57 -123zM308 -131q0 -33 -20 -63.5t-52 -49.5t-68 -19q-37 0 -58 20.5t-21 51.5t20.5 60.5t53 48.5t69.5 19 q35 0 55.5 -18t20.5 -50z" />
<glyph horiz-adv-x="570" d="M404 586q-39 37 -69 79t-51 91l16 30l162 8q0 -51 3.5 -100t10.5 -98zM122 0h-170l229 451q13 26 23 47.5t17 39.5l224 9l24 -24l43 -523h-179l-5 83h-166zM224 212l-4 -9h101v8q-4 82 -4.5 128t-0.5 66h-5q-8 -19 -30 -70t-57 -123z" />
</font>
</defs>
</svg>
