<?xml version="1.0" standalone="no"?>
<!DOCTYPE svg PUBLIC "-//W3C//DTD SVG 1.1//EN" "http://www.w3.org/Graphics/SVG/1.1/DTD/svg11.dtd" >
<svg xmlns="http://www.w3.org/2000/svg" xmlns:xlink="http://www.w3.org/1999/xlink" version="1.1">
<metadata></metadata>
<defs>
<font id="indivisa_text_sansbold" horiz-adv-x="596" >
<font-face units-per-em="1000" ascent="800" descent="-200" />
<missing-glyph horiz-adv-x="254" />
<glyph unicode="&#x2f;symbol&#x31;&#x2f;" horiz-adv-x="5534" d="M1865 412q-25 0 -40.5 14.5t-15.5 37.5q0 24 15.5 45t39 34.5t48.5 13.5q24 0 39 -13.5t15 -37.5t-14.5 -45.5t-37.5 -35t-49 -13.5zM1284 412q-26 0 -41.5 14.5t-15.5 37.5q0 24 15.5 45t39.5 34.5t49 13.5q24 0 38.5 -13.5t14.5 -37.5t-14.5 -45.5t-37 -35t-48.5 -13.5 zM959 0q0 21 2.5 46.5t8.5 61.5q-16 -49 -51 -82t-79 -33q-41 0 -63 30t-22 82q0 45 15.5 91t46.5 85.5t76.5 63.5t104.5 24h12.5t12.5 -1l16 73l6 102l136 7q0 -40 -9.5 -95t-23 -116.5t-27 -123.5t-23 -117.5t-9.5 -97.5h-130zM100 0l78 364q8 38 13.5 72.5t7.5 63.5 l128 7l11 -15l-104 -492h-134zM3503 492l-57 -492h-131l20 175q3 30 9 69t12.5 78t11.5 68h-3q-16 -53 -37 -107.5t-44 -107.5l-76 -175h-149l-2 175q-1 56 1 109t8 106h-2q-15 -61 -30 -115.5t-29 -99.5l-53 -175h-109l154 500l184 6l1 -137q1 -50 -2.5 -121.5 t-12.5 -137.5h2q20 65 36 111t30.5 81t27.5 67l56 131l169 7zM5316 300q-15 -74 -23 -110.5t-11 -51t-3 -21.5q0 -34 36 -34q13 0 28 5t31 13l-9 -79q-20 -11 -50 -20t-64 -9q-50 0 -77.5 25t-27.5 75q0 11 1.5 23.5t6 33.5t12.5 57.5t20 95.5l-47 1l9 44l54 14l53 95l81 6 l13 -15l-20 -86h99l6 -14l-17 -51zM336 0q0 28 4 62t13 82t24 116l6 102l137 7q0 -18 -2 -41t-5 -48h2q29 49 65.5 69t68.5 20q35 0 53.5 -19.5t18.5 -51.5q0 -23 -8 -62.5t-18 -84.5q-7 -33 -11 -57t-5.5 -45.5t-1.5 -48.5h-131q0 38 4.5 69.5t14.5 80.5q7 35 11 55.5 t4 31.5q0 24 -17 24t-34 -22.5t-30.5 -60.5t-22 -84t-9.5 -94h-131zM1170 0q0 39 7 87.5t20 105.5l14 67l6 102l137 7q0 -36 -8 -81.5t-19 -95.5t-19 -99t-8 -93h-130zM1399 362l140 7q6 -59 4.5 -137.5t-9.5 -151.5h2q23 45 42 95t32 99t17 90q17 4 28.5 4.5t21.5 0.5 q28 0 46.5 -7t18.5 -35q0 -22 -13.5 -60.5t-36.5 -85t-53.5 -94t-63.5 -87.5h-149q-2 111 -9.5 207.5t-17.5 154.5zM1752 0q0 39 7 87.5t19 105.5l15 67l6 102l137 7q0 -36 -8 -81.5t-19 -95.5t-19 -99t-8 -93h-130zM4716 0q0 28 4 62t13 82t24 116l6 102l137 7 q0 -18 -2.5 -41t-4.5 -48h2q29 49 65 69t69 20q35 0 53.5 -19.5t18.5 -51.5q0 -23 -8 -62.5t-18 -84.5q-7 -33 -11 -57t-6 -45.5t-2 -48.5h-130q0 38 4.5 69.5t14.5 80.5q7 35 11 55.5t4 31.5q0 24 -17 24q-18 0 -34.5 -22.5t-30.5 -60.5t-22.5 -84t-9.5 -94h-130zM2245 256 q-25 14 -51.5 22t-45.5 8q-17 0 -29.5 -7t-12.5 -19q0 -13 13 -22t32 -17.5t38 -20.5t32 -30.5t13 -47.5q0 -39 -25 -68t-66.5 -45t-89.5 -16q-33 0 -66.5 7.5t-51.5 20.5l27 93q27 -18 58.5 -28t52.5 -10q20 0 30 8t10 18q0 13 -13 22t-32 18t-38 21t-32 30t-13 46 q0 39 25.5 68t67.5 45.5t90 16.5q20 0 48.5 -3.5t55.5 -14.5zM2525 369q32 0 73.5 -7.5t72.5 -24.5l-29 -128q-20 -94 -25.5 -140.5t-5.5 -68.5h-130q0 20 2.5 45t9.5 67q-15 -50 -50.5 -84.5t-81.5 -34.5q-41 0 -62.5 30t-21.5 83q0 44 15.5 90.5t46.5 85.5t77.5 63 t108.5 24zM4653 51q-32 -28 -74 -43t-85 -15q-62 0 -102 33.5t-40 103.5q0 46 17.5 88.5t49.5 76.5t75 54t94 20q53 0 86 -23t33 -65q0 -56 -59 -95.5t-162 -44.5v-1q0 -29 15 -46.5t48 -17.5q22 0 45 7.5t45 20.5zM3936 0q0 28 4 62t13.5 82t24.5 116l5 102l137 7 q0 -18 -2 -41t-5 -48h2q29 49 65.5 69t68.5 20q35 0 53.5 -19.5t18.5 -51.5q0 -23 -8 -62.5t-18 -84.5q-7 -33 -11 -57t-5.5 -45.5t-1.5 -48.5h-131q0 38 4.5 69.5t14.5 80.5q8 35 11.5 55.5t3.5 31.5q0 24 -17 24t-34 -22.5t-30.5 -60.5t-22 -84t-9.5 -94h-131zM3768 369 q32 0 73 -7.5t72 -24.5l-28 -128q-20 -94 -25.5 -140.5t-5.5 -68.5h-130q0 20 2.5 45t9.5 67q-15 -50 -50.5 -84.5t-81.5 -34.5q-41 0 -63 30t-22 83q0 44 15.5 90.5t47 85.5t78 63t108.5 24zM4490 177q46 10 72.5 33.5t26.5 59.5q0 17 -5.5 24t-16.5 7q-20 0 -36 -20 t-26 -48.5t-15 -55.5zM3677 101q17 0 33 21t30 54t22 69q2 11 4.5 22t4.5 22q-16 8 -27 8q-18 0 -34.5 -16t-29 -40.5t-20 -51.5t-7.5 -48q0 -40 24 -40zM913 101q16 0 31 19.5t28.5 50t22.5 64.5l4 20l4 20l3 14q-14 8 -27 8q-18 0 -34 -16t-28.5 -40.5t-20 -51.5t-7.5 -48 q0 -40 24 -40zM2435 101q16 0 32.5 21t30 54t21.5 69q2 11 4.5 22t4.5 22q-14 8 -27 8q-18 0 -34 -16t-29 -40.5t-20 -51.5t-7 -48q0 -40 24 -40z" />
<glyph unicode="&#x2f;symbol&#x32;&#x2f;" horiz-adv-x="932" d="M494 570l52 -90l-137 -240h-103l137 240l-52 90h103zM357 570l52 -90l-138 -240h-103l138 240l-52 90h103zM752 120h-103l-137 240l51 90l137 -240h103zM683 0h-103l-137 240l51 90l138 -240h103zM100 120l51 90h275l51 -90h-274l-52 -90zM168 0l52 90h274l52 -90h-275 l-51 -90zM789 88q18 0 30.5 -13t12.5 -31t-12.5 -31t-30.5 -13t-30.5 13t-12.5 31t12.5 31t30.5 13zM829 44q0 17 -11.5 28.5t-28.5 11.5q-16 0 -28 -11.5t-12 -28.5q0 -16 12 -28t28 -12q17 0 28.5 12t11.5 28zM771 69h18h5t6 -2q5 -4 5 -11q0 -5 -3 -8q-1 -2 -2.5 -2.5 t-3.5 -1.5q7 -1 8 -9q0 -8 3 -16h-8q-1 2 -1 6t-1 7q-1 5 -2.5 7.5t-8.5 2.5h-8v-23h-7v50zM778 47h10h3.5t3.5 1q3 3 3 7q0 6 -4 7t-6 1h-10v-16z" />
<glyph unicode="&#x2f;symbol&#x33;&#x2f;" horiz-adv-x="957" d="M505 638l68 -270h270l-203 -135l136 -270l-271 135l-270 -270l135 405l-270 203l338 -68zM814 87q18 0 30.5 -12.5t12.5 -31.5q0 -18 -12.5 -30.5t-30.5 -12.5t-30.5 12.5t-12.5 30.5q0 19 12.5 31.5t30.5 12.5zM854 43q0 17 -11.5 29t-28.5 12q-16 0 -28 -12t-12 -29 q0 -16 12 -28t28 -12q17 0 28.5 12t11.5 28zM796 68h18h5.5t5.5 -2q6 -3 6 -10q0 -5 -4 -9q-3 -3 -6 -3q7 -3 8 -10q1 -4 1.5 -7.5t1.5 -8.5h-7q-1 3 -1.5 7t-1.5 7q0 9 -10 9h-9v-23h-7v50zM803 47h10h3.5t3.5 1l2 2t1 4q0 7 -4 8t-6 1h-10v-16z" />
<glyph unicode="&#x2f;symbol&#x34;&#x2f;" horiz-adv-x="2607" d="M1684 406q0 32 -2.5 63t-8.5 65l126 14l15 -15v-533h-130v406zM1889 406q0 62 -10 128l126 14l14 -15v-533h-130v406zM427 101v-101h-320v362q0 38 -1.5 72t-5.5 63l126 7l14 -14v-396zM925 21l7 109q31 -18 72 -27t72 -9q50 0 50 36q0 19 -20.5 34t-50 31t-59.5 37 t-50.5 51t-20.5 74q0 48 26 80.5t70 49.5t97 17q81 0 127 -18l-14 -111q-28 14 -55 21.5t-56 7.5q-28 0 -43 -11t-15 -29q0 -22 20.5 -38.5t50.5 -32.5t59.5 -36.5t50 -49.5t20.5 -73q0 -67 -54 -104t-139 -37q-40 0 -82.5 8t-62.5 20zM795 0l-106 -7q-7 11 -12 24t-9 25h-4 q-15 -22 -42.5 -35.5t-61.5 -13.5q-41 0 -69 22t-28 67q0 61 53.5 88.5t137.5 29.5v20q0 54 -58 54q-55 0 -108 -29l-8 97q27 10 68.5 18t81.5 8q154 0 154 -135q0 -38 -2 -69.5t-2 -69.5q0 -24 4.5 -50.5t10.5 -43.5zM1626 0l-107 -7q-7 11 -12 24t-9 25h-3 q-15 -22 -42.5 -35.5t-62.5 -13.5q-40 0 -68 22t-28 67q0 61 53 88.5t138 29.5v20q0 54 -58 54q-54 0 -109 -29l-7 97q27 10 68.5 18t81.5 8q153 0 153 -135q0 -38 -1.5 -69.5t-1.5 -69.5q0 -24 4.5 -50.5t10.5 -43.5zM2405 213v-17t-1 -19l-11 -11h-191q8 -45 33.5 -64 t64.5 -19q24 0 45.5 6t38.5 15l7 -81q-17 -11 -49.5 -20.5t-77.5 -9.5q-88 0 -143 47t-55 135q0 58 24 101t66 67.5t94 24.5q73 0 114 -43.5t41 -111.5zM2199 207l78 4q1 5 1.5 11t0.5 15q0 23 -7.5 41t-26.5 18q-23 0 -34 -25.5t-12 -63.5zM654 74v88q-27 -3 -46 -17 t-19 -40q0 -18 10.5 -29t26.5 -11t28 9zM1485 74v88q-27 -3 -46 -17t-19 -40q0 -18 10 -29t27 -11q16 0 28 9zM2464 85q18 0 30.5 -13t12.5 -31t-12.5 -31t-30.5 -13t-31 13t-13 31t13 31t31 13zM2504 41q0 17 -11.5 28.5t-28.5 11.5q-16 0 -28 -11.5t-12 -28.5 q0 -16 12 -28t28 -12q17 0 28.5 12t11.5 28zM2446 66h18q2 0 5 -0.5t6 -2.5q5 -2 5 -10q0 -4 -3 -9q-3 -3 -6 -3q7 -1 8 -10q0 -7 3 -15h-8q-1 2 -1 6t-1 7q-1 5 -2.5 7t-8.5 2h-8v-22h-7v50zM2453 44h10h3.5t3.5 1q3 3 3 7q0 6 -4 7t-6 1h-10v-16z" />
<glyph unicode="&#x2f;symbol&#x35;&#x2f;" horiz-adv-x="705" d="M232 -6l-132 136l124 234l129 -136zM474 -6l-121 234l128 136l124 -234z" />
<glyph unicode=" "  horiz-adv-x="254" />
<glyph unicode="&#x09;" horiz-adv-x="254" />
<glyph unicode="&#xa0;" horiz-adv-x="254" />
<glyph unicode="!" horiz-adv-x="313" d="M196 216h-78q-6 107 -12 201l-10.5 164.5t-7.5 106.5l120 10l14 -14q-2 -114 -9 -232.5t-17 -235.5zM227 69q0 -32 -21.5 -55.5t-55.5 -23.5q-30 0 -48 19.5t-18 46.5q0 32 23.5 55.5t55.5 23.5q28 0 46 -18.5t18 -47.5z" />
<glyph unicode="&#x22;" horiz-adv-x="349" d="M146 758l8 -20l-34 -264h-43l-31 284h100zM301 758l8 -20l-34 -264h-44l-30 284h100z" />
<glyph unicode="#" horiz-adv-x="705" d="M208 -10l-61 10l-8 8l33 129h-124l-8 8l9 61h140l32 128h-130l-8 8l9 61h146l36 145l61 -10l8 -8l-32 -127h153l36 145l61 -10l8 -8l-32 -127h120l8 -8l-9 -61h-136l-32 -128h131l8 -8l-9 -61h-147l-37 -147l-61 10l-8 8l32 129h-152zM262 206h153l32 128h-153z" />
<glyph unicode="$" horiz-adv-x="497" d="M221 -140l-8 8v122q-43 1 -89.5 10.5t-73.5 26.5l8 109q24 -15 54 -25.5t59.5 -15.5t51.5 -5q44 0 68 22.5t24 61.5q0 36 -19 60t-49 42.5t-63 37.5q-32 19 -62.5 42.5t-50 58.5t-19.5 88q0 80 49 129t128 62v131l47 3l8 -8v-122v0q41 0 80.5 -8t64.5 -20l-15 -111 q-31 20 -67 29.5t-65 9.5q-47 0 -72.5 -23t-25.5 -62q0 -34 19.5 -57t49 -41t61.5 -37q33 -18 63 -42.5t50 -61t20 -91.5q0 -82 -49.5 -130.5t-129.5 -59.5v-130z" />
<glyph unicode="%" horiz-adv-x="963" d="M431 499q0 -68 -27.5 -113.5t-72 -68.5t-95.5 -23q-53 0 -95 23t-66 67t-24 106q0 66 26 113t70.5 71t99.5 24q81 0 132.5 -53.5t51.5 -145.5zM737 698l-424 -708h-55l423 708h56zM158 499q0 -66 20 -105.5t63 -39.5q41 0 61.5 37.5t20.5 101.5q0 66 -19.5 105.5 t-62.5 39.5q-39 0 -61 -34.5t-22 -104.5zM912 127q0 -68 -27 -113.5t-71.5 -68.5t-96.5 -23q-53 0 -95 23t-66 67t-24 106q0 66 26.5 113t70.5 71t99 24q81 0 132.5 -53.5t51.5 -145.5zM639 127q0 -66 20 -105.5t63 -39.5q42 0 62 37.5t20 101.5q0 66 -19.5 105.5 t-62.5 39.5q-39 0 -61 -34.5t-22 -104.5z" />
<glyph unicode="&#x26;" horiz-adv-x="775" d="M352 604q-33 0 -56.5 -18.5t-23.5 -52.5q0 -28 15 -57.5t36 -56.5t38 -47l154 -184q12 26 18.5 58t6.5 69q0 19 -2 40.5t-5 41.5l122 15l17 -16q-4 -84 -30.5 -152.5t-69.5 -119.5q21 -20 43 -32t46 -12q17 0 32 4.5t24 9.5l10 -78q-13 -9 -40.5 -17.5t-59.5 -8.5 q-41 0 -75.5 15.5t-65.5 42.5q-91 -58 -199 -58q-101 0 -158 51t-57 129q0 67 40 116.5t101 73.5q-15 18 -32 43.5t-28.5 56t-11.5 65.5q0 47 25 86.5t72 63t114 23.5q66 0 116 -25.5t77 -67.5l-61 -97q-60 96 -132 96zM198 199q0 -35 16.5 -65.5t48 -49t75.5 -18.5 q55 0 100 29q-14 15 -28 31.5t-29 33.5l-130 155q-28 -22 -40.5 -54t-12.5 -62z" />
<glyph unicode="'" horiz-adv-x="194" d="M143 758l8 -20l-34 -264h-43l-31 284h100z" />
<glyph unicode="(" horiz-adv-x="417" d="M343 -197q-119 77 -185 199t-66 279q0 156 66 278t185 199l46 -62q-90 -88 -128.5 -192t-38.5 -223t38.5 -223.5t128.5 -192.5z" />
<glyph unicode=")" horiz-adv-x="417" d="M325 281q0 -157 -66.5 -279t-184.5 -199l-46 62q89 88 127.5 192.5t38.5 223.5t-38.5 223t-127.5 192l46 62q118 -77 184.5 -199t66.5 -278z" />
<glyph unicode="*" horiz-adv-x="496" d="M212 352l-6 16l25 152l-132 -106l-40 68l11 13l147 54l-161 62l39 67l17 -2l120 -99l-26 169h77l7 -16l-27 -155l134 109l39 -68l-11 -13l-144 -54l158 -62l-39 -67l-17 2l-120 100l27 -170h-78z" />
<glyph unicode="+" d="M519 313h-184v-188h-69l-1 188h-196v65q34 1 86 2t110 2l-1 183h71v-183q54 1 103 1h82l7 -7z" />
<glyph unicode="," horiz-adv-x="263" d="M41 -159q21 30 41.5 70t29.5 80q-26 4 -43.5 24t-17.5 49q0 34 24 59.5t59 25.5q32 0 54 -22t22 -65q0 -34 -13 -70t-33 -70.5t-43 -64t-42 -49.5z" />
<glyph unicode="-" horiz-adv-x="388" d="M30 262v44h328v-44h-328z" />
<glyph unicode="." horiz-adv-x="265" d="M212 71q0 -34 -23.5 -57.5t-57.5 -23.5t-56 22.5t-22 54.5q0 34 25 58t59 24q32 0 53.5 -21.5t21.5 -56.5z" />
<glyph unicode="/" horiz-adv-x="359" d="M311 748l8 -8l-187 -747l-62 11l-8 8l187 747z" />
<glyph unicode="0" horiz-adv-x="661" d="M603 347q0 -118 -39 -197.5t-102.5 -119.5t-137.5 -40q-76 0 -136 40.5t-94.5 118t-34.5 188.5q0 115 37.5 195.5t101 123t140.5 42.5q78 0 138 -42.5t93.5 -121t33.5 -187.5zM188 347q0 -83 14.5 -145t46.5 -96.5t82 -34.5q72 0 107 72t35 198t-33 201t-109 75 q-69 0 -106 -67t-37 -203z" />
<glyph unicode="1" horiz-adv-x="364" d="M139 566h-2l-106 -19l-18 76l235 74l14 -14v-683h-125v426q0 41 0.5 75.5t1.5 64.5z" />
<glyph unicode="2" horiz-adv-x="603" d="M91 0l-15 93q50 39 104 88t100.5 102.5t75.5 106.5t29 101q0 49 -31.5 81.5t-89.5 32.5q-41 0 -87 -17.5t-88 -44.5l-13 100q37 20 96.5 37.5t120.5 17.5q66 0 115.5 -23t77.5 -63.5t28 -93.5q0 -55 -29 -112t-76 -112.5t-103 -105t-111 -88.5h162q41 0 81.5 2.5 t78.5 7.5l-10 -110h-416z" />
<glyph unicode="3" horiz-adv-x="522" d="M51 644q35 21 92 37.5t113 16.5q55 0 98.5 -18.5t68.5 -52t25 -77.5q0 -57 -42.5 -107.5t-118.5 -74.5q87 -9 140.5 -54t53.5 -121q0 -60 -34 -105.5t-95.5 -71.5t-142.5 -26q-41 0 -87 6.5t-81 16.5l12 87q30 -10 74.5 -16.5t76.5 -6.5q64 0 106 29t42 82q0 39 -23 62 t-61 33t-83 10q-19 0 -38.5 -2t-39.5 -5v86q94 16 153 55.5t59 95.5q0 36 -24.5 59t-74.5 23q-39 0 -82 -14t-81 -35z" />
<glyph unicode="4" horiz-adv-x="618" d="M29 253l288 433l136 11l14 -14v-420q30 1 59.5 3t57.5 6l-10 -103h-107v-169h-119l1 169h-305zM133 263v-3q39 1 86.5 1.5t122.5 0.5h7v155q0 54 0.5 95.5t4.5 81.5h-3z" />
<glyph unicode="5" horiz-adv-x="555" d="M69 13l12 90q30 -10 72.5 -16.5t72.5 -6.5q65 0 106.5 33.5t41.5 96.5t-39 91.5t-95 28.5q-32 0 -69 -7.5t-61 -17.5l-20 13v370h232q40 0 80.5 2.5t79.5 7.5l-8 -110h-281v-180q21 5 47 8t47 3q60 0 109 -22t78.5 -66.5t29.5 -111.5q0 -73 -36 -124t-98 -78t-142 -27 q-40 0 -82.5 6.5t-76.5 16.5z" />
<glyph unicode="6" horiz-adv-x="597" d="M312 -10q-72 0 -127.5 34t-87 102t-31.5 169q0 119 43.5 209.5t122.5 142t184 51.5q25 0 49 -3t36 -9l-11 -94q-14 6 -33 9.5t-40 3.5q-52 0 -100 -26.5t-80.5 -81.5t-39.5 -139h2q28 24 68 36.5t80 12.5q89 0 143.5 -52.5t54.5 -143.5q0 -71 -32 -120t-85 -75t-116 -26z M311 326q-33 0 -66.5 -15t-48.5 -40q2 -99 27 -149.5t84 -50.5q51 0 80 35t29 93q0 57 -26.5 92t-78.5 35z" />
<glyph unicode="7" horiz-adv-x="536" d="M37 572l12 116h432l16 -14v-72q-114 -124 -184.5 -279t-78.5 -323h-129q5 83 30.5 166.5t64 161t85.5 143.5t94 115v2h-151q-52 0 -100 -4t-91 -12z" />
<glyph unicode="8" horiz-adv-x="600" d="M294 -10q-71 0 -125 22t-84 61.5t-30 90.5q0 47 23 83.5t59.5 63t76.5 39.5v3q-33 18 -63.5 42.5t-50.5 56.5t-20 73q0 49 29.5 88t80.5 62t116 23q69 0 116.5 -24t72.5 -62t25 -80q0 -53 -37.5 -98.5t-95.5 -72.5v-3q40 -17 76 -42t59.5 -59t23.5 -80q0 -50 -30 -92.5 t-86.5 -68.5t-135.5 -26zM302 623q-42 0 -73.5 -25t-31.5 -66q0 -40 32.5 -73.5t83.5 -56.5q39 24 64.5 58.5t25.5 71.5q0 41 -29 66t-72 25zM287 300q-44 -19 -78 -54.5t-34 -79.5q0 -45 34.5 -73t88.5 -28t90.5 27.5t37.5 73.5q0 45 -37.5 77t-101.5 57z" />
<glyph unicode="9" horiz-adv-x="597" d="M257 263q-91 0 -148 53.5t-57 149.5q0 72 32 124t85.5 80t117.5 28q68 0 123.5 -33.5t88 -100t32.5 -166.5q0 -83 -23.5 -156.5t-68.5 -130.5t-109.5 -89t-144.5 -32q-19 0 -40 2t-37 6l-1 92q32 -7 68 -7q97 0 155.5 61.5t71.5 171.5h-2q-23 -26 -61 -39.5t-82 -13.5z M285 611q-47 0 -75.5 -38.5t-28.5 -99.5q0 -59 28.5 -94.5t83.5 -35.5q29 0 59.5 12.5t48.5 39.5q-1 108 -31.5 162t-84.5 54z" />
<glyph unicode=":" horiz-adv-x="265" d="M212 392q0 -34 -23.5 -57.5t-57.5 -23.5t-56 22.5t-22 54.5q0 34 25 58t59 24q32 0 53.5 -21.5t21.5 -56.5zM212 71q0 -34 -23.5 -57.5t-57.5 -23.5t-56 22.5t-22 54.5q0 34 25 58t59 24q32 0 53.5 -21.5t21.5 -56.5z" />
<glyph unicode=";" horiz-adv-x="268" d="M216 392q0 -34 -24 -57.5t-58 -23.5t-56 22.5t-22 54.5q0 34 25 58t59 24q33 0 54.5 -21.5t21.5 -56.5zM41 -159q21 30 41.5 70t29.5 80q-26 4 -43.5 24t-17.5 49q0 34 24 59.5t59 25.5q32 0 54 -22t22 -65q0 -34 -13 -70t-33 -70.5t-43 -64t-42 -49.5z" />
<glyph unicode="&#x3c;" d="M509 108l-440 216v43l4 9q29 15 72 36t93.5 44.5l101 47t94.5 43t74 31.5v-73l-330 -156l331 -168v-73z" />
<glyph unicode="=" d="M519 410h-450v65q31 1 76 2t96.5 1.5t103.5 1t97.5 0.5h77.5l7 -6zM519 216h-450v66q31 1 76 1.5t96.5 1t103.5 1t97.5 1t77.5 0.5l7 -7z" />
<glyph unicode="&#x3e;" d="M87 108v73l332 168l-331 156v73q30 -12 74 -31.5t94.5 -43l101 -47t94 -44.5t71.5 -36l4 -9v-43z" />
<glyph unicode="?" horiz-adv-x="477" d="M235 219l-73 -3q-13 27 -13 56q0 31 16.5 54.5t40.5 44t48 41.5t40.5 45.5t16.5 57.5q0 40 -27 65.5t-72 25.5q-35 0 -76 -19t-70 -57l-48 66q34 44 89.5 73t129.5 29q94 0 148.5 -46.5t54.5 -119.5q0 -47 -20 -82t-50 -61.5t-59.5 -47.5t-49.5 -39.5t-20 -37.5 q0 -7 0.5 -18t1.5 -19zM277 69q0 -32 -21.5 -55.5t-54.5 -23.5q-30 0 -48.5 19.5t-18.5 46.5q0 32 23.5 55.5t56.5 23.5q28 0 45.5 -18.5t17.5 -47.5z" />
<glyph unicode="@" horiz-adv-x="1138" d="M803 -161q-51 -39 -129.5 -68t-174.5 -29t-175.5 31.5t-138.5 89.5t-91 138t-32 177t31.5 184t88 159.5t131.5 125.5t162 82t178 29q95 0 172.5 -31t133.5 -86t86.5 -128t30.5 -157q0 -75 -24 -141.5t-67 -117t-100 -79t-123 -28.5q-55 0 -85.5 19t-43 49.5t-11 67 t11.5 72.5h-5q-12 -34 -32.5 -70t-46.5 -67.5t-57.5 -51t-65.5 -19.5q-48 0 -77.5 40.5t-29.5 116.5q0 64 22 128t64.5 117t103.5 84.5t138 31.5q35 0 80.5 -7.5t83.5 -25.5l-46 -197q-8 -37 -15.5 -76t-6.5 -73t16.5 -55.5t53.5 -21.5q35 0 72 21.5t68.5 61.5t51.5 95.5 t20 122.5q0 79 -28 145t-78.5 114t-118.5 75t-149 27q-76 0 -153 -25t-146.5 -71t-123.5 -111t-85.5 -146t-31.5 -175q0 -87 28.5 -159.5t81 -126.5t125.5 -84t164 -30t156.5 26t118.5 56zM493 95q25 0 51 27.5t49.5 70.5t41.5 89.5t26 85.5l12 52q-30 13 -53 13 q-34 0 -64.5 -24.5t-54.5 -64.5t-38 -85t-14 -87q0 -36 11.5 -56.5t32.5 -20.5z" />
<glyph unicode="A" horiz-adv-x="630" d="M137 0h-122l186 585q10 29 18 57t12 49l147 6l20 -17l217 -680h-129l-53 166h-243zM250 357l-31 -98h184l-30 97q-21 71 -36 127t-23 96h-4q-9 -39 -25 -99t-35 -123z" />
<glyph unicode="B" horiz-adv-x="615" d="M309 0h-224v522q0 44 -1.5 83.5t-7.5 82.5h238q70 0 121.5 -23t79.5 -63.5t28 -93.5q0 -56 -29.5 -93t-80.5 -57q66 -18 102 -61t36 -108q0 -59 -33.5 -101t-93 -65t-135.5 -23zM293 595h-80v-203h79q61 0 91 27.5t30 72.5q0 47 -30 75t-90 28zM299 306h-86v-213h88 q67 0 102 28t35 77q0 48 -33 78t-106 30z" />
<glyph unicode="C" horiz-adv-x="583" d="M536 142l15 -105q-39 -23 -88 -35t-103 -12q-95 0 -164.5 41t-107.5 118t-38 186q0 110 41 191.5t113 126.5t165 45q51 0 97.5 -11t79.5 -31l-25 -111q-34 22 -71 34.5t-79 12.5q-55 0 -97.5 -30t-66.5 -86.5t-24 -135.5q0 -110 51 -177t144 -67q46 0 86.5 13t71.5 33z " />
<glyph unicode="D" horiz-adv-x="686" d="M636 348q0 -111 -46 -189t-125.5 -118.5t-179.5 -40.5h-200v522q0 44 -1.5 83.5t-7.5 82.5h225q100 0 175.5 -41t117.5 -117t42 -182zM293 595h-80v-502h81q109 0 159 68.5t50 180.5q0 73 -23.5 130t-70 90t-116.5 33z" />
<glyph unicode="E" horiz-adv-x="537" d="M504 100v-100h-419v522q0 44 -1.5 83.5t-7.5 82.5h407l14 -14l-3 -86l-281 7v-212l235 4l-3 -93l-232 5v-206z" />
<glyph unicode="F" horiz-adv-x="505" d="M213 0h-128v522q0 44 -1.5 83.5t-7.5 82.5h395l14 -14l-3 -86l-269 7v-228l222 4l-3 -93l-219 5v-283z" />
<glyph unicode="G" horiz-adv-x="642" d="M572 315l14 -14l-3 -267q-43 -20 -100 -32t-113 -12q-101 0 -173 41t-109.5 116.5t-37.5 180.5q0 111 41.5 194.5t118 129.5t180.5 46q50 0 97.5 -10.5t82.5 -28.5l-22 -111q-30 21 -69 34t-83 13q-95 0 -154 -65.5t-59 -191.5q0 -74 22 -129.5t67 -87t112 -31.5 q36 0 79 8v12q0 46 -1 77t-4 58t-7 60z" />
<glyph unicode="H" horiz-adv-x="710" d="M213 0h-128v517q0 48 -2.5 90.5t-6.5 80.5l123 10l14 -14v-296h283v129q0 48 -2 90.5t-7 80.5l124 10l14 -14v-684h-129v295h-283v-295z" />
<glyph unicode="I" horiz-adv-x="298" d="M213 0h-128v517q0 48 -2.5 90.5t-6.5 80.5l123 10l14 -14v-684z" />
<glyph unicode="J" horiz-adv-x="293" d="M40 -208l-40 56q39 43 59.5 105.5t20.5 148.5v415q0 44 -3 83.5t-9 82.5l127 15l13 -13v-583q0 -79 -15.5 -135.5t-52 -98t-100.5 -76.5z" />
<glyph unicode="K" horiz-adv-x="625" d="M85 517q0 46 -2 86.5t-7 84.5l123 10l14 -14v-310h79q41 74 87 158.5t89 165.5l117 -11l8 -14l-196 -317l219 -356l-146 -7q-45 69 -89.5 142t-87.5 145h-80v-280h-128v517z" />
<glyph unicode="L" horiz-adv-x="505" d="M489 100v-100h-404v517q0 49 -2.5 91t-6.5 80l123 10l14 -14v-591z" />
<glyph unicode="M" horiz-adv-x="880" d="M739 698l17 -14l75 -684h-126l-28 253q-9 78 -15.5 157.5t-11.5 148.5h-2q-15 -77 -34.5 -153.5t-40.5 -152.5l-71 -253h-143l-70 253q-26 92 -44 163t-31 143h-2q-6 -83 -13 -159.5t-15 -146.5l-28 -253h-107l76 690l167 7l84 -281q11 -39 22.5 -89t22.5 -104t18 -104h3 q11 71 21.5 123.5t21 94t20.5 79.5l81 274z" />
<glyph unicode="N" horiz-adv-x="706" d="M370 419q42 -69 75 -127t61 -123h3q-3 31 -5 56.5t-3 57.5t-1.5 79.5t-0.5 119.5q0 58 -2 108.5t-7 97.5l118 9l14 -14v-683h-124q-47 76 -86.5 144.5t-78.5 131.5q-42 68 -73.5 123t-59.5 114h-2q7 -61 8 -113t1 -102v-298h-122v522q0 44 -2.5 86t-6.5 80l130 8 q47 -79 87 -147t77 -130z" />
<glyph unicode="O" horiz-adv-x="707" d="M657 346q0 -116 -42 -195.5t-112.5 -120t-156.5 -40.5t-153 40.5t-105 117t-38 185.5q0 112 40.5 194t111 126.5t160.5 44.5q89 0 155.5 -43.5t103 -122.5t36.5 -186zM183 345q0 -74 19 -132t57 -92t95 -34q85 0 127.5 70t42.5 186q0 75 -17.5 133t-54.5 91.5t-94 33.5 q-83 0 -129 -69.5t-46 -186.5z" />
<glyph unicode="P" horiz-adv-x="581" d="M213 0h-128v522q0 44 -1.5 83.5t-7.5 82.5h227q77 0 133.5 -27.5t87 -78.5t30.5 -120q0 -75 -35.5 -126.5t-96 -78t-136.5 -26.5h-73v-231zM277 595h-64v-272h63q75 0 110 36t35 99q0 60 -33 98.5t-111 38.5z" />
<glyph unicode="Q" horiz-adv-x="705" d="M657 346q0 -101 -32.5 -174.5t-88 -117.5t-125.5 -58q46 -24 102 -39.5t115 -23t114 -7.5l-18 -114q-77 0 -152.5 26t-142 67t-116.5 87q-77 7 -136.5 49.5t-93 116.5t-33.5 175q0 112 40.5 194t111 126.5t160.5 44.5q89 0 155.5 -43.5t103 -122.5t36.5 -186zM183 345 q0 -74 19 -132t57 -92t95 -34q85 0 127.5 70t42.5 186q0 75 -17.5 133t-54.5 91.5t-94 33.5q-83 0 -129 -69.5t-46 -186.5z" />
<glyph unicode="R" horiz-adv-x="606" d="M213 0h-128v522q0 44 -1.5 83.5t-7.5 82.5h210q128 0 198 -58t70 -157q0 -73 -35.5 -120t-89.5 -69l158 -284l-146 -7q-32 62 -63.5 127t-60.5 131h-104v-251zM277 595h-64v-255h63q75 0 110 33.5t35 92.5q0 57 -33 93t-111 36z" />
<glyph unicode="S" horiz-adv-x="531" d="M481 183q0 -62 -31 -105t-86 -65.5t-127 -22.5q-47 0 -100.5 9.5t-86.5 27.5l9 109q26 -15 59 -25.5t65 -15.5t56 -5q53 0 81.5 22.5t28.5 61.5q0 36 -21.5 60.5t-55 42.5t-70.5 37t-71 42.5t-56 58.5t-22 88q0 62 32 105.5t88.5 66.5t129.5 23q44 0 88 -8t72 -20 l-16 -111q-35 20 -74 29.5t-72 9.5q-56 0 -86 -23t-30 -62q0 -35 22 -58t55.5 -40.5t69.5 -36.5q36 -18 70 -42.5t56.5 -61t22.5 -91.5z" />
<glyph unicode="T" horiz-adv-x="560" d="M345 0h-129v592q-50 -1 -100 -3l-100 -4l7 103h514l7 -103l-100 4t-99 3v-592z" />
<glyph unicode="U" horiz-adv-x="666" d="M73 518q0 45 -2.5 86t-7.5 85l126 9l13 -13v-444q0 -75 37 -113.5t98 -38.5q60 0 96.5 38.5t36.5 113.5v301q0 43 -2 77.5t-8 69.5l133 8v-465q0 -81 -36 -134.5t-96 -80.5t-132 -27t-130 27t-92 81t-34 134v286z" />
<glyph unicode="V" horiz-adv-x="624" d="M245 -2l-231 687l137 13l123 -391q15 -47 28 -91t21 -84q9 40 24 89.5t30 93.5l122 383l103 -8l8 -14l-231 -678h-134z" />
<glyph unicode="W" horiz-adv-x="970" d="M210 -2l-192 687l135 13l98 -379q13 -51 23.5 -100t16.5 -87q8 38 22 92t27 102l95 364l124 8l98 -379q14 -51 26 -100t19 -87q7 39 19.5 93t25.5 103l95 370l103 -8l8 -14l-192 -678h-134l-95 329q-12 46 -22.5 93.5t-22.5 97.5h-2q-11 -50 -22.5 -98t-24.5 -95 l-94 -327h-134z" />
<glyph unicode="X" horiz-adv-x="584" d="M23 0l-7 14l196 320l-196 351l137 13l151 -282h2l144 282l112 -9l7 -14l-194 -335l194 -340h-144l-142 258h-2l-144 -258h-114z" />
<glyph unicode="Y" horiz-adv-x="571" d="M221 232l-207 453l137 13l91 -220q13 -34 29 -75.5t25 -70.5h3q11 30 28 71.5t30 74.5l89 220l104 -8l8 -14l-208 -446v-230h-129v232z" />
<glyph unicode="Z" horiz-adv-x="550" d="M51 0l-21 83l340 500l-327 -7l8 112h431l32 -83l-336 -499l335 6l-7 -112h-455z" />
<glyph unicode="[" horiz-adv-x="387" d="M104 758h242v-95h-122v-764h122v-96h-242v955z" />
<glyph unicode="\" horiz-adv-x="378" d="M247 -7l-187 747l8 8l62 11l187 -747l-8 -8z" />
<glyph unicode="]" horiz-adv-x="387" d="M282 758v-955h-242v96h123v764h-123v95h242z" />
<glyph unicode="^" horiz-adv-x="526" d="M159 210h-75l147 338h62l149 -338h-75l-107 243z" />
<glyph unicode="_" horiz-adv-x="419" d="M0 -218v44h419v-44h-419z" />
<glyph unicode="`" horiz-adv-x="302" d="M205 571q-48 35 -87.5 75t-70.5 88l7 21l113 12q15 -47 37.5 -93.5t47.5 -90.5z" />
<glyph unicode="a" horiz-adv-x="514" d="M434 137q0 -35 5.5 -70t16.5 -67l-105 -10q-9 15 -15.5 33t-11.5 36h-3q-20 -28 -59.5 -48.5t-89.5 -20.5q-59 0 -95 32t-36 88q0 57 36 93t97.5 54t137.5 21v48q0 89 -93 89q-37 0 -77 -12t-74 -32l-7 98q35 15 86 27t103 12q93 0 140 -43t47 -122q0 -53 -1.5 -107.5 t-1.5 -98.5zM164 131q0 -27 16.5 -46.5t48.5 -19.5q22 0 44.5 9.5t38.5 24.5v135q-61 -5 -104.5 -30.5t-43.5 -72.5z" />
<glyph unicode="b" horiz-adv-x="568" d="M518 252q0 -127 -60.5 -194.5t-164.5 -67.5q-59 0 -113 17l-106 -17v587q0 46 -3.5 85t-8.5 81l122 15l15 -14v-282q24 21 56.5 33.5t69.5 12.5q89 0 141 -69t52 -187zM276 427q-44 0 -77 -25v-331q35 -12 71 -12q118 0 118 186q0 89 -28 135.5t-84 46.5z" />
<glyph unicode="c" horiz-adv-x="485" d="M449 471l-28 -97q-27 19 -57 30t-61 11q-55 0 -89 -41.5t-34 -117.5q0 -82 37 -129t105 -47q30 0 58 10t54 24l8 -83q-27 -18 -65 -29.5t-86 -11.5q-72 0 -126 30.5t-84 87.5t-30 136q0 81 31.5 140t88 91.5t128.5 32.5q44 0 82.5 -10t67.5 -27z" />
<glyph unicode="d" horiz-adv-x="576" d="M359 743l122 15l14 -14v-609q0 -34 6 -69t17 -66l-108 -10q-7 12 -13.5 29t-13.5 39h-2q-23 -31 -56.5 -49.5t-80.5 -18.5q-86 0 -139.5 64.5t-53.5 178.5q0 89 33.5 150.5t91 93t131.5 31.5q17 0 33 -2t30 -5v76q0 45 -2.5 84t-8.5 82zM180 249q0 -84 30.5 -134 t85.5 -50q24 0 42.5 9t31.5 23v337q-26 5 -49 5q-65 0 -103 -48t-38 -142z" />
<glyph unicode="e" horiz-adv-x="523" d="M477 251l-15 -15h-281q7 -81 47 -118.5t103 -37.5q35 0 67 10.5t57 25.5l8 -83q-23 -15 -65 -29t-100 -14q-74 0 -129.5 29.5t-86.5 85.5t-31 137q0 83 31.5 142.5t85 91.5t118.5 32q89 0 140.5 -56t51.5 -146v-26.5t-1 -28.5zM280 433q-42 0 -69.5 -40t-30.5 -111l174 7 q1 17 1 36q0 46 -18.5 77t-56.5 31z" />
<glyph unicode="f" horiz-adv-x="357" d="M220 0h-125v421l-73 4v46l73 15q-1 22 -2 43.5t-1 35.5q0 92 52.5 142.5t146.5 50.5q38 0 72.5 -8.5t57.5 -22.5l-26 -95q-21 13 -47.5 23t-54.5 10q-41 0 -59.5 -24t-18.5 -68q0 -21 1 -45t2 -42h128l9 -13l-4 -56l-131 4v-421z" />
<glyph unicode="g" horiz-adv-x="513" d="M105 63q0 28 14.5 50t38.5 39q-52 19 -83.5 61t-31.5 102q0 52 24.5 96t70.5 70.5t110 26.5q37 0 67 -9t50 -24q18 30 50.5 44.5t66.5 14.5l15 -11l-3 -83h-102q19 -15 35 -44.5t16 -74.5q0 -51 -24.5 -92.5t-69.5 -66.5t-106 -25q-18 0 -35 3q-8 -15 -8 -30 q0 -23 12.5 -32t38.5 -11l90 -6q43 -3 78.5 -17.5t56.5 -42.5t21 -71q0 -53 -32 -95.5t-91.5 -67.5t-141.5 -25q-101 0 -160.5 37t-59.5 92q0 37 24 61t51 33l46 -20q-5 -7 -9.5 -16.5t-4.5 -20.5q0 -40 33.5 -72t95.5 -32q55 0 89.5 26t34.5 67q0 34 -23.5 52.5t-64.5 22.5 l-82 8q-97 9 -97 83zM323 322q0 57 -19 89t-59 32q-42 0 -62 -32t-20 -89t20.5 -88t61.5 -31q78 0 78 119z" />
<glyph unicode="h" horiz-adv-x="572" d="M199 0h-125v577q0 44 -3 83t-9 83l122 15l15 -14v-303q74 67 157 67q64 0 100.5 -40t36.5 -113v-355h-126v331q0 90 -73 90q-46 0 -95 -37v-384z" />
<glyph unicode="i" horiz-adv-x="281" d="M217 672q0 -34 -24 -60t-60 -26q-33 0 -52.5 21.5t-19.5 50.5q0 34 25.5 59.5t61.5 25.5q30 0 49.5 -19.5t19.5 -51.5zM77 0v327q0 44 -2.5 83t-9.5 83l123 15l14 -14v-494h-125z" />
<glyph unicode="j" horiz-adv-x="283" d="M216 672q0 -34 -23.5 -60t-59.5 -26q-33 0 -53 21.5t-20 50.5q0 34 26 59.5t61 25.5q31 0 50 -19.5t19 -51.5zM55 -258l-47 46q32 38 51 89.5t19 126.5v323q0 44 -2.5 83t-8.5 83l122 15l14 -14v-484q0 -67 -14.5 -116t-47 -85.5t-86.5 -66.5z" />
<glyph unicode="k" horiz-adv-x="533" d="M74 577q0 44 -3 83.5t-9 82.5l122 15l15 -14v-463h55q30 49 63.5 109t65.5 118l102 -11l8 -14l-135 -196q37 -68 78 -138t87 -149l-141 -10q-31 52 -63 110t-61 114h-59v-214h-125v577z" />
<glyph unicode="l" horiz-adv-x="281" d="M202 0h-125v577q0 44 -3 83.5t-9 82.5l123 15l14 -14v-744z" />
<glyph unicode="m" horiz-adv-x="862" d="M204 0h-125v328q0 44 -5 80.5t-15 76.5l117 23q14 -36 22 -72q75 72 160 72q92 0 123 -79q77 79 166 79q64 0 99.5 -39.5t35.5 -109.5v-359h-125v335q0 86 -72 86q-45 0 -93 -38q1 -11 1 -24v-359h-125v335q0 86 -73 86q-43 0 -91 -37v-384z" />
<glyph unicode="n" horiz-adv-x="577" d="M204 0h-125v328q0 44 -5 80.5t-15 76.5l117 23q14 -36 22 -73q76 73 163 73q64 0 100.5 -40t36.5 -113v-355h-126v331q0 90 -73 90q-46 0 -95 -37v-384z" />
<glyph unicode="o" horiz-adv-x="563" d="M513 252q0 -87 -33 -145t-87 -87.5t-118 -29.5t-115 29.5t-80 85.5t-29 137q0 85 32 144.5t86 90.5t119 31q67 0 117.5 -31t79 -88.5t28.5 -136.5zM180 252q0 -84 24.5 -135.5t77.5 -51.5q50 0 75.5 48t25.5 132q0 86 -24 137t-77 51q-48 0 -75 -45t-27 -136z" />
<glyph unicode="p" horiz-adv-x="574" d="M79 -244v572q0 45 -5 80.5t-15 76.5l117 23q11 -27 18 -55q25 24 60.5 39.5t77.5 15.5q56 0 99 -30.5t67.5 -87.5t24.5 -135q0 -121 -58 -193t-167 -72q-24 0 -48.5 3.5t-45.5 10.5v-83q0 -44 2.5 -82t8.5 -82l-122 -15zM204 400v-325q15 -7 33 -11.5t37 -4.5 q60 0 90 48.5t30 139.5q0 93 -30.5 136.5t-83.5 43.5q-44 0 -76 -27v0z" />
<glyph unicode="q" horiz-adv-x="575" d="M370 -244v285q-51 -51 -125 -51q-58 0 -101.5 30.5t-68 86.5t-24.5 133q0 86 31.5 145.5t88 91t129.5 31.5q24 0 50.5 -4t49.5 -10l95 14v-585q0 -44 3 -83t9 -83l-123 -15zM180 250q0 -84 29 -134.5t84 -50.5q21 0 41.5 7t35.5 21v342q-24 4 -42 4q-73 0 -110.5 -49.5 t-37.5 -139.5z" />
<glyph unicode="r" horiz-adv-x="399" d="M204 0h-125v328q0 44 -5 80.5t-15 76.5l117 23q9 -24 16.5 -51t10.5 -53q27 46 59.5 75t73.5 29q15 0 28.5 -4t20.5 -10l-13 -118q-13 4 -26.5 6t-29.5 2q-25 0 -56 -9.5t-56 -30.5v-344z" />
<glyph unicode="s" horiz-adv-x="445" d="M389 480l-9 -96q-35 19 -70.5 29.5t-64.5 10.5q-37 0 -58 -15t-21 -40q0 -22 17.5 -37.5t44.5 -28t57.5 -26t57.5 -31.5t44.5 -44.5t17.5 -65.5q0 -66 -54.5 -106t-145.5 -40q-43 0 -88 9.5t-76 26.5l9 95q40 -23 83.5 -35t74.5 -12q38 0 57 15t19 38q0 22 -17 37.5 t-44 28t-57.5 26t-57.5 31.5t-44.5 44t-17.5 65q0 67 55 108t145 41q72 0 143 -28z" />
<glyph unicode="t" horiz-adv-x="388" d="M351 430l-140 3v-258q0 -51 18 -73t51 -22q20 0 40 6.5t39 17.5l9 -78q-22 -14 -55 -25t-73 -11q-74 0 -114 45t-40 136v264l-70 1v47l73 15l31 124l78 6l15 -15l-2 -115h136l9 -14z" />
<glyph unicode="u" horiz-adv-x="569" d="M77 326q0 45 -2.5 84.5t-8.5 81.5l122 16l14 -14v-326q0 -83 70 -83q45 0 91 35v378l125 10v-372q0 -36 4.5 -70.5t12.5 -64.5l-104 -11q-15 31 -26 74h-4q-71 -74 -158 -74q-63 0 -99.5 37.5t-36.5 101.5v197z" />
<glyph unicode="v" horiz-adv-x="487" d="M473 486l-162 -488h-135l-161 499l131 11l67 -251q18 -56 28 -95t14 -75h2q6 36 16.5 75t28.5 95l67 251l96 -8z" />
<glyph unicode="w" horiz-adv-x="786" d="M153 -2l-138 499l128 11l57 -244q15 -50 23.5 -88.5t14.5 -70.5h2q6 37 14.5 73t21.5 83l54 241h149l54 -236q9 -37 21 -81t17 -79h2q6 36 16.5 78t20.5 80l56 244l97 -8l8 -14l-137 -488h-148l-56 225q-13 50 -22.5 90t-14.5 81h-2q-5 -42 -15 -83.5t-21 -87.5l-57 -225 h-145z" />
<glyph unicode="x" horiz-adv-x="485" d="M334 0l-108 190l-100 -190h-101l-6 14l145 235l-145 246l127 13l111 -206l103 206l100 -8l7 -14l-147 -237l147 -249h-133z" />
<glyph unicode="y" horiz-adv-x="483" d="M473 486l-150 -456q-18 -55 -41 -105.5t-56 -91t-79 -64.5t-110 -27l-18 110q71 4 123 41t82 114h-52l-157 490l131 11l67 -251q18 -56 28 -95t14 -75h2q6 36 16.5 74.5t28.5 95.5l67 251l96 -8z" />
<glyph unicode="z" horiz-adv-x="446" d="M29 395l7 103h363l13 -80l-249 -320l102 1q39 0 78.5 1.5t76.5 5.5l-7 -106h-373l-14 80l255 320z" />
<glyph unicode="{" horiz-adv-x="398" d="M170 125q0 51 -23 81t-79 38v72q56 8 79 37t23 83q0 35 -7.5 66.5t-15.5 62t-8 63.5q0 71 51.5 100.5t166.5 29.5l3 -72q-98 0 -98 -84q0 -28 7.5 -59t14.5 -62.5t7 -61.5q0 -57 -32.5 -92t-81.5 -47q49 -11 81.5 -46t32.5 -92q0 -27 -7 -59t-14.5 -64.5t-7.5 -60.5 q0 -84 98 -84l-3 -72q-115 0 -166.5 29.5t-51.5 100.5q0 32 8 65t15.5 65.5t7.5 62.5z" />
<glyph unicode="|" horiz-adv-x="323" d="M135 -258l-7 8v1005l60 3l7 -8v-1005z" />
<glyph unicode="}" horiz-adv-x="398" d="M330 244l-102 -119q0 -30 8 -62.5t15.5 -65.5t7.5 -65q0 -71 -51 -100.5t-167 -29.5l-3 72q98 0 98 84q0 28 -7 60.5t-14.5 64.5t-7.5 59q0 57 33 92t81 46q-49 12 -81.5 47t-32.5 92q0 30 7.5 61.5t14.5 62.5t7 59q0 84 -98 84l3 72q115 0 166.5 -29.5t51.5 -100.5 q0 -33 -7.5 -63.5t-15.5 -62t-8 -66.5q0 -54 23.5 -83t78.5 -37v-72z" />
<glyph unicode="~" d="M428 218q-14 0 -42 6t-62 15t-67 18t-58 15t-34 6q-11 0 -28 -21t-38 -48l-41 27q13 24 30 51t37.5 46t43.5 19q14 0 41.5 -6t62 -15t67.5 -18t58 -15t34 -6q10 0 27.5 21t39.5 48l40 -27q-13 -24 -30.5 -51t-38 -46t-42.5 -19z" />
<glyph unicode="&#xa1;" horiz-adv-x="313" d="M87 429q0 32 21.5 55.5t54.5 23.5q31 0 49 -19.5t18 -46.5q0 -32 -23.5 -55.5t-56.5 -23.5q-28 0 -45.5 18.5t-17.5 47.5zM118 283h78q6 -108 11.5 -202t10.5 -164.5t7 -106.5l-120 -10l-14 14q2 115 9 233t18 236z" />
<glyph unicode="&#xa2;" horiz-adv-x="492" d="M261 -140l-8 8v126q-92 14 -147 85t-55 184q0 79 27 139t75.5 97t111.5 46v132l46 3l8 -8v-125q80 -4 133 -39l-26 -97q-56 43 -118 43q-59 0 -93.5 -48.5t-34.5 -130.5q0 -90 39 -142t109 -52q29 0 57 9.5t56 25.5l8 -83q-26 -18 -62 -29.5t-80 -12.5v-128z" />
<glyph unicode="&#xa3;" horiz-adv-x="571" d="M529 -159q-12 -4 -31 -6t-35 -2q-52 0 -100 17t-91 43.5t-81 55.5t-71 53q-28 -12 -59 -12q-35 0 -53 13t-18 35t16.5 35t42.5 13q15 0 30 -4t31 -10q14 31 21 73.5t13 94.5l4 46l-113 4l10 47l108 15h1q9 101 35 179t77 122.5t136 44.5q48 0 86 -13t60 -30l-42 -98 q-24 21 -50.5 34.5t-53.5 13.5q-37 0 -61 -25t-39.5 -80.5t-27.5 -147.5h180l6 -13l-15 -53h-180l-3 -17q-11 -65 -32.5 -126t-57.5 -101q40 -22 86.5 -46t98.5 -40.5t111 -16.5q19 0 44.5 2.5t48.5 9.5z" />
<glyph unicode="&#xa4;" horiz-adv-x="566" d="M466 37l-76 78q-22 -16 -51 -26t-65 -10q-31 0 -57.5 7.5t-47.5 21.5l-70 -70l-48 48l68 69q-33 47 -33 109q0 32 9.5 63.5t29.5 57.5l-71 72l45 45q15 -14 34 -33l39 -39q22 15 49 23t59 8q33 0 61.5 -9t50.5 -25l75 75l48 -48l-77 -77q29 -46 29 -103q0 -60 -31 -109 q20 -21 44.5 -45.5t34.5 -35.5v-8zM276 393q-38 0 -64.5 -17.5t-39.5 -46t-13 -59.5q0 -30 13.5 -58.5t40 -46.5t66.5 -18t65.5 17.5t37.5 46t12 59.5q0 50 -31 86.5t-87 36.5z" />
<glyph unicode="&#xa5;" horiz-adv-x="554" d="M66 108v50h149v82h-149v49h149l-201 396l131 13l84 -178q13 -28 29 -68.5t29 -79.5h2q14 39 29.5 76.5t28.5 66.5l87 183l98 -8l8 -14l-201 -387h149v-49h-150v-82h150v-50h-150v-108h-123v108h-149z" />
<glyph unicode="&#xa6;" horiz-adv-x="323" d="M195 359l-56 -3l-11 8v391l60 3l7 -8v-391zM195 -255l-56 -3l-11 8v388l60 3l7 -7v-389z" />
<glyph unicode="&#xa7;" horiz-adv-x="567" d="M355 587q-40 0 -60 -20.5t-20 -50.5q0 -36 24 -73.5t60.5 -79.5t72.5 -89t60.5 -100t24.5 -113q0 -69 -36 -121.5t-100.5 -81.5t-149.5 -29q-41 0 -81 7t-64 18l16 121q25 -17 53.5 -26t51.5 -9q42 0 63.5 21t21.5 53q0 35 -24.5 72.5t-60.5 79t-72 88t-60.5 99.5 t-24.5 113q0 68 35 120.5t98 82t148 29.5q41 0 80.5 -7t64.5 -17l-16 -121q-25 17 -53.5 25.5t-51.5 8.5zM283 -102q59 7 95 32t52 59.5t16 71.5q0 51 -24.5 97t-60.5 90t-72 86.5t-60.5 86t-24.5 89.5q0 34 18.5 67.5t64.5 43.5l-4 8q-58 -7 -94 -31.5t-52.5 -59 t-16.5 -72.5q0 -51 24.5 -97t60.5 -89.5t72.5 -86.5t61 -86t24.5 -89q0 -35 -19 -68.5t-65 -42.5z" />
<glyph unicode="&#xa8;" horiz-adv-x="457" d="M190 672q0 -33 -22 -57.5t-55 -24.5q-30 0 -48 20t-18 47q0 33 23.5 57t55.5 24q29 0 46.5 -18t17.5 -48zM409 672q0 -33 -22 -57.5t-55 -24.5q-30 0 -48 20t-18 47q0 33 23.5 57t55.5 24q28 0 46 -18t18 -48z" />
<glyph unicode="&#xa9;" horiz-adv-x="685" d="M342 -45q-83 0 -149.5 39t-105.5 106t-39 150q0 61 23 114t63.5 94t94 64t113.5 23q63 0 117 -23t93.5 -64t62 -94t22.5 -114t-23 -114t-63.5 -94t-94 -64t-114.5 -23zM342 0q69 0 126 34t90.5 91t33.5 125q0 69 -33.5 126t-90.5 90.5t-126 33.5q-68 0 -125 -33.5 t-91 -90.5t-34 -126q0 -71 33 -127.5t89.5 -89.5t127.5 -33zM462 393l-19 -68q-38 26 -77 26q-36 0 -58 -25t-22 -66q0 -49 24.5 -77t68.5 -28q20 0 38 5.5t35 14.5l6 -57q-18 -12 -43 -19t-58 -7q-72 0 -117 43t-45 117q0 48 21.5 85t59.5 58t88 21q29 0 54 -6.5t44 -16.5z " />
<glyph unicode="&#xaa;" horiz-adv-x="430" d="M361 396q0 -27 4 -54.5t14 -51.5l-88 -8q-7 12 -12.5 26t-8.5 28h-3q-17 -22 -49.5 -38t-72.5 -16q-49 0 -78.5 24.5t-29.5 69.5q0 44 29.5 72t80 42.5t112.5 16.5v35q0 68 -75 68q-31 0 -63.5 -8.5t-61.5 -24.5l-5 79q28 12 70.5 21t85.5 9q76 0 115 -33.5t39 -96.5 q0 -41 -1.5 -83t-1.5 -77zM140 393q0 -21 13.5 -36t39.5 -15q18 0 35.5 7.5t30.5 18.5v104q-49 -4 -84 -23.5t-35 -55.5z" />
<glyph unicode="&#xab;" horiz-adv-x="483" d="M46 276v34q45 38 86.5 84.5t84.5 103.5l32 -14q-18 -53 -44 -101t-56 -90q30 -42 56 -90t44 -101l-32 -14q-43 57 -84.5 103.5t-86.5 84.5zM240 276v34q45 38 86.5 84.5t84.5 103.5l33 -14q-18 -53 -44.5 -101t-56.5 -90q30 -42 56.5 -90t44.5 -101l-33 -14 q-43 57 -84.5 103.5t-86.5 84.5z" />
<glyph unicode="&#xac;" d="M511 326v-236h-71v173h-379v66q30 1 74 1.5t95 1l102 1t95.5 1t75.5 0.5z" />
<glyph unicode="&#xae;" horiz-adv-x="685" d="M341 -45q-62 0 -115 22.5t-93 62.5t-62.5 93.5t-22.5 115.5t23 115.5t63.5 94t94 63.5t114.5 23q62 0 115.5 -23t93.5 -63.5t62.5 -94t22.5 -114.5q0 -60 -23 -113.5t-63.5 -94.5t-94.5 -64t-115 -23zM342 0q69 0 126 34t90.5 91t33.5 125q0 69 -33.5 126t-90.5 90.5 t-126 33.5q-68 0 -125 -33.5t-91 -90.5t-34 -127t33 -126.5t89.5 -89.5t127.5 -33zM304 92h-74v217q0 25 -1 53.5t-7 58.5h106q73 0 112.5 -29.5t39.5 -84.5q0 -39 -20 -64t-46 -37l66 -114l-78 -5q-12 21 -25 48.5t-25 51.5h-48v-95zM335 357h-31v-106h31q67 0 67 52 q0 24 -17 39t-50 15z" />
<glyph unicode="&#xaf;" horiz-adv-x="376" d="M47 629v72h285v-72h-285z" />
<glyph unicode="&#xb0;" horiz-adv-x="340" d="M166 301q-52 0 -85.5 32.5t-33.5 86.5q0 56 36.5 92t90.5 36q52 0 85.5 -32.5t33.5 -85.5q0 -55 -36.5 -92t-90.5 -37zM170 504q-34 0 -54.5 -24t-20.5 -58q0 -33 21 -55t53 -22q34 0 54.5 24t20.5 59q0 32 -20 54t-54 22z" />
<glyph unicode="&#xb1;" d="M501 407h-166v-152h-70v152h-176v65q31 1 77.5 2t97.5 2l-1 149h72v-149q49 1 93 1h74l7 -6zM519 84h-450v65q31 1 76 2t96.5 1.5t103.5 1t97.5 0.5h77.5l7 -6z" />
<glyph unicode="&#xb2;" horiz-adv-x="377" d="M49 352l-11 63q28 19 61 44t62.5 53.5t48.5 59t19 60.5q0 31 -19 50t-52 19q-53 0 -110 -43l-9 71q24 14 62.5 25.5t79.5 11.5q64 0 105.5 -31.5t41.5 -82.5q0 -44 -30.5 -86.5t-76.5 -79.5t-92 -64h93q55 0 105 6l-7 -76h-271z" />
<glyph unicode="&#xb3;" horiz-adv-x="373" d="M45 734q22 12 59.5 22t74.5 10q57 0 95 -25.5t38 -65.5q0 -33 -27 -62.5t-73 -42.5q55 -6 88 -33.5t33 -70.5q0 -54 -50.5 -88t-131.5 -34q-26 0 -56.5 3.5t-54.5 10.5l9 60q19 -6 48.5 -10t49.5 -4q37 0 62 15.5t25 43.5q0 31 -29.5 43t-72.5 12q-12 0 -25.5 -1 t-26.5 -3v60q55 7 94 28t39 53q0 20 -15.5 33t-46.5 13q-24 0 -51.5 -8t-49.5 -20z" />
<glyph unicode="&#xb4;" horiz-adv-x="261" d="M224 754l7 -21q-31 -48 -70.5 -88t-87.5 -75l-46 11q25 45 47.5 91.5t37.5 92.5z" />
<glyph unicode="&#xb6;" horiz-adv-x="601" d="M234 -100q77 0 120.5 48.5t43.5 159.5v533h-72v-423h-26q-71 0 -128 28.5t-91 81t-34 126.5q0 76 36 128t96.5 79t134.5 27h167v-591q0 -124 -65 -195.5t-179 -71.5q-36 0 -73 7t-68 19l7 73q36 -14 67.5 -21.5t63.5 -7.5z" />
<glyph unicode="&#xb7;" horiz-adv-x="312" d="M236 277q0 -35 -24 -58t-58 -23t-56 22t-22 55t25 57t59 24q33 0 54.5 -21.5t21.5 -55.5z" />
<glyph unicode="&#xb8;" horiz-adv-x="302" d="M247 -136q0 -38 -29 -60.5t-73 -32.5t-89 -12l1 45q45 6 71.5 20t26.5 36q0 19 -19 28t-52 9l-14 23l32 107l68 -1l-26 -80q26 -3 49.5 -12t38.5 -26t15 -44z" />
<glyph unicode="&#xb9;" horiz-adv-x="275" d="M105 676h-1l-66 -9l-14 54l165 45l11 -10v-404h-96v242v44t1 38z" />
<glyph unicode="&#xba;" horiz-adv-x="473" d="M427 487q0 -68 -27.5 -113.5t-72 -68.5t-96.5 -23q-53 0 -94.5 23t-65.5 67t-24 106q0 66 26 113t70.5 71t98.5 24q82 0 133.5 -53.5t51.5 -145.5zM154 487q0 -66 20 -105.5t63 -39.5q41 0 61.5 37.5t20.5 101.5q0 66 -19.5 105.5t-62.5 39.5q-40 0 -61.5 -34.5 t-21.5 -104.5z" />
<glyph unicode="&#xbb;" horiz-adv-x="483" d="M437 276q-45 -38 -86.5 -84.5t-84.5 -103.5l-32 14q17 53 43.5 101t56.5 90q-30 42 -56.5 90t-43.5 101l32 14q43 -57 84.5 -103.5t86.5 -84.5v-34zM243 276q-45 -38 -86.5 -84.5t-84.5 -103.5l-33 14q18 53 44.5 101t56.5 90q-30 42 -56.5 90t-44.5 101l33 14 q43 -57 84.5 -103.5t86.5 -84.5v-34z" />
<glyph unicode="&#xbc;" horiz-adv-x="870" d="M135 616h-1l-66 -9l-14 54l165 45l11 -10v-404h-96v242v44t1 38zM639 700l-425 -710h-55l424 710h56zM458 143l166 255l106 6l11 -9v-244q30 2 58 5l-7 -71h-51v-95h-91v95h-181zM537 151v-2q18 0 43.5 0.5t69.5 0.5v77q0 30 0.5 57t3.5 53h-2z" />
<glyph unicode="&#xbd;" horiz-adv-x="891" d="M135 616h-1l-66 -9l-14 54l165 45l11 -10v-404h-96v242v44t1 38zM639 700l-425 -710h-55l424 710h56zM533 -10l-11 63q28 19 61 44t62.5 53.5t48.5 59t19 60.5q0 31 -19 50t-52 19q-53 0 -110 -43l-9 71q24 14 63 25.5t79 11.5q64 0 105.5 -31.5t41.5 -82.5 q0 -44 -30 -86.5t-76 -79.5t-93 -64h93q55 0 105 6l-7 -76h-271z" />
<glyph unicode="&#xbe;" horiz-adv-x="941" d="M75 672q22 12 59.5 22.5t74.5 10.5q57 0 95 -25.5t38 -65.5q0 -33 -27 -62.5t-73 -42.5q55 -7 88 -34t33 -70q0 -54 -50.5 -88t-131.5 -34q-26 0 -56.5 3.5t-54.5 10.5l9 60q19 -6 48.5 -10t49.5 -4q37 0 62 15t25 43q0 31 -29.5 43.5t-72.5 12.5q-12 0 -25.5 -1 t-26.5 -3v60q55 7 94 27.5t39 53.5q0 20 -15.5 33t-46.5 13q-24 0 -51.5 -8t-49.5 -20zM709 700l-425 -710h-55l424 710h56zM529 143l166 255l106 6l10 -9v-244q31 2 59 5l-7 -71h-52v-95h-91v95h-180zM607 151v-2q18 0 44 0.5t69 0.5v77q0 30 0.5 57t3.5 53h-2z" />
<glyph unicode="&#xbf;" horiz-adv-x="477" d="M200 429q0 32 21.5 55.5t54.5 23.5q30 0 48.5 -19.5t18.5 -46.5q0 -32 -23.5 -55.5t-56.5 -23.5q-28 0 -45.5 18.5t-17.5 47.5zM242 279l72 3q14 -27 14 -56q0 -31 -16.5 -54.5t-40.5 -44l-48 -41t-40.5 -45.5t-16.5 -58q0 -40 27 -65.5t72 -25.5q35 0 76 19t70 57 l48 -66q-34 -44 -89.5 -73t-129.5 -29q-94 0 -148.5 46.5t-54.5 119.5q0 47 20 82t49.5 61.5t59.5 47.5t50 39.5t20 37.5q0 7 -0.5 18t-1.5 19z" />
<glyph unicode="&#xc0;" horiz-adv-x="630" d="M447 774q-71 4 -138 20t-129 49l-7 21l77 67q45 -35 98.5 -66.5t108.5 -58.5zM137 0h-122l186 585q10 29 18 57t12 49l147 6l20 -17l217 -680h-129l-53 166h-243zM250 357l-31 -98h184l-30 97q-21 71 -36 127t-23 96h-4q-9 -39 -25 -99t-35 -123z" />
<glyph unicode="&#xc1;" horiz-adv-x="630" d="M457 864l-6 -21q-62 -33 -129 -49t-139 -20l-10 32q55 27 108.5 58.5t99.5 66.5zM137 0h-122l186 585q10 29 18 57t12 49l147 6l20 -17l217 -680h-129l-53 166h-243zM250 357l-31 -98h184l-30 97q-21 71 -36 127t-23 96h-4q-9 -39 -25 -99t-35 -123z" />
<glyph unicode="&#xc2;" horiz-adv-x="630" d="M184 771l-34 30q34 30 63 59.5t55 59.5l88 8q28 -32 58 -63.5t65 -63.5l-33 -30q-37 17 -70 36t-64 38q-29 -19 -61 -38t-67 -36zM137 0h-122l186 585q10 29 18 57t12 49l147 6l20 -17l217 -680h-129l-53 166h-243zM250 357l-31 -98h184l-30 97q-21 71 -36 127t-23 96h-4 q-9 -39 -25 -99t-35 -123z" />
<glyph unicode="&#xc3;" horiz-adv-x="630" d="M244 922q31 0 55.5 -14t47 -28t47.5 -14q22 0 36 13.5t26 34.5l33 -5q-2 -32 -13 -61t-32.5 -48t-54.5 -19q-30 0 -56 14t-50.5 28t-47.5 14q-19 0 -33.5 -12.5t-27.5 -35.5l-33 5q1 30 11.5 59.5t32.5 49t59 19.5zM137 0h-122l186 585q10 29 18 57t12 49l147 6l20 -17 l217 -680h-129l-53 166h-243zM250 357l-31 -98h184l-30 97q-21 71 -36 127t-23 96h-4q-9 -39 -25 -99t-35 -123z" />
<glyph unicode="&#xc4;" horiz-adv-x="630" d="M496 857q0 -31 -21.5 -52.5t-54.5 -21.5q-29 0 -46.5 17t-17.5 42q0 29 22.5 51t54.5 22q27 0 45 -16.5t18 -41.5zM275 857q0 -31 -21.5 -52.5t-54.5 -21.5q-29 0 -46.5 17t-17.5 42q0 29 22.5 51t54.5 22q27 0 45 -16.5t18 -41.5zM137 0h-122l186 585q10 29 18 57t12 49 l147 6l20 -17l217 -680h-129l-53 166h-243zM250 357l-31 -98h184l-30 97q-21 71 -36 127t-23 96h-4q-9 -39 -25 -99t-35 -123z" />
<glyph unicode="&#xc5;" horiz-adv-x="630" d="M423 861q0 -44 -33.5 -75t-81.5 -31q-44 0 -72.5 26t-28.5 63q0 28 16.5 52t43.5 38.5t59 14.5q42 0 69.5 -25t27.5 -63zM264 848q0 -20 13 -34t35 -14q23 0 38.5 16.5t15.5 39.5q0 22 -12 35.5t-33 13.5q-24 0 -40.5 -17t-16.5 -40zM137 0h-122l186 585q10 29 18 57 t12 49l147 6l20 -17l217 -680h-129l-53 166h-243zM250 357l-31 -98h184l-30 97q-21 71 -36 127t-23 96h-4q-9 -39 -25 -99t-35 -123z" />
<glyph unicode="&#xc6;" horiz-adv-x="879" d="M137 0h-122l261 585q14 29 25.5 55.5t20.5 47.5h429l14 -14l-2 -86l-264 6l27 -211l223 4l-3 -93l-209 5l27 -206l282 7v-100h-399l-20 166h-217zM294 357l-43 -98h164l-12 97q-7 70 -11 126t-5 97h-4q-13 -37 -36 -93t-53 -129z" />
<glyph unicode="&#xc7;" horiz-adv-x="583" d="M469 -140q0 -38 -29 -60.5t-73 -33t-89 -11.5v45q46 5 72.5 19t26.5 37q0 18 -19 27t-52 10l-14 23l23 77q-122 14 -193.5 103t-71.5 239q0 110 41 191.5t113 126.5t165 45q51 0 97.5 -11t79.5 -31l-25 -111q-34 22 -71 34.5t-79 12.5q-55 0 -97.5 -30t-66.5 -86.5 t-24 -135.5q0 -110 51 -177t144 -67q46 0 86.5 13t71.5 33l15 -105q-35 -21 -78 -32.5t-91 -13.5l-16 -49q26 -4 49 -13t38.5 -25.5t15.5 -43.5z" />
<glyph unicode="&#xc8;" horiz-adv-x="537" d="M424 774q-71 4 -138 20t-129 49l-7 21l77 67q45 -35 98.5 -66.5t108.5 -58.5zM504 100v-100h-419v522q0 44 -1.5 83.5t-7.5 82.5h407l14 -14l-3 -86l-281 7v-212l235 4l-3 -93l-232 5v-206z" />
<glyph unicode="&#xc9;" horiz-adv-x="537" d="M434 864l-6 -21q-62 -33 -129 -49t-139 -20l-10 32q55 27 108.5 58.5t99.5 66.5zM504 100v-100h-419v522q0 44 -1.5 83.5t-7.5 82.5h407l14 -14l-3 -86l-281 7v-212l235 4l-3 -93l-232 5v-206z" />
<glyph unicode="&#xca;" horiz-adv-x="537" d="M161 771l-34 30q35 30 63.5 59.5t54.5 59.5l88 8q28 -32 58 -63.5t66 -63.5l-34 -30q-37 17 -70 36t-63 38q-30 -19 -62 -38t-67 -36zM504 100v-100h-419v522q0 44 -1.5 83.5t-7.5 82.5h407l14 -14l-3 -86l-281 7v-212l235 4l-3 -93l-232 5v-206z" />
<glyph unicode="&#xcb;" horiz-adv-x="537" d="M473 857q0 -31 -21 -52.5t-55 -21.5q-29 0 -46.5 17t-17.5 42q0 29 22.5 51t55.5 22q26 0 44 -16.5t18 -41.5zM252 857q0 -31 -21 -52.5t-55 -21.5q-29 0 -46.5 17t-17.5 42q0 29 22.5 51t55.5 22q26 0 44 -16.5t18 -41.5zM504 100v-100h-419v522q0 44 -1.5 83.5 t-7.5 82.5h407l14 -14l-3 -86l-281 7v-212l235 4l-3 -93l-232 5v-206z" />
<glyph unicode="&#xcc;" horiz-adv-x="298" d="M275 774q-71 4 -138 20t-129 49l-7 21l77 67q45 -35 98.5 -66.5t108.5 -58.5zM213 0h-128v517q0 48 -2.5 90.5t-6.5 80.5l123 10l14 -14v-684z" />
<glyph unicode="&#xcd;" horiz-adv-x="298" d="M285 864l-6 -21q-62 -33 -129 -49t-139 -20l-10 32q55 27 108.5 58.5t99.5 66.5zM213 0h-128v517q0 48 -2.5 90.5t-6.5 80.5l123 10l14 -14v-684z" />
<glyph unicode="&#xce;" horiz-adv-x="298" d="M12 771l-34 30q35 30 63.5 59.5t54.5 59.5l88 8q28 -32 58 -63.5t66 -63.5l-34 -30q-37 17 -70 36t-63 38q-30 -19 -62 -38t-67 -36zM213 0h-128v517q0 48 -2.5 90.5t-6.5 80.5l123 10l14 -14v-684z" />
<glyph unicode="&#xcf;" horiz-adv-x="298" d="M324 857q0 -31 -21 -52.5t-55 -21.5q-29 0 -46.5 17t-17.5 42q0 29 22.5 51t55.5 22q26 0 44 -16.5t18 -41.5zM103 857q0 -31 -21 -52.5t-55 -21.5q-29 0 -46.5 17t-17.5 42q0 29 22.5 51t55.5 22q26 0 44 -16.5t18 -41.5zM213 0h-128v517q0 48 -2.5 90.5t-6.5 80.5 l123 10l14 -14v-684z" />
<glyph unicode="&#xd0;" horiz-adv-x="686" d="M636 348q0 -111 -46 -189t-125.5 -118.5t-179.5 -40.5h-200v311h-78v66h78v145q0 44 -1.5 83.5t-7.5 82.5h225q100 0 175.5 -41t117.5 -117t42 -182zM383 311h-170v-218h81q109 0 159 68.5t50 180.5q0 73 -23.5 130t-70 90t-116.5 33h-80v-218h170v-66z" />
<glyph unicode="&#xd1;" horiz-adv-x="706" d="M271 922q31 0 55.5 -14t47 -28t47.5 -14q23 0 36.5 13.5t25.5 34.5l33 -5q-1 -32 -12 -61t-33 -48t-55 -19q-29 0 -55.5 14t-50.5 28t-48 14q-19 0 -33.5 -12.5t-26.5 -35.5l-33 5q1 30 11.5 59.5t32.5 49t58 19.5zM370 419q42 -69 75 -127t61 -123h3q-3 31 -5 56.5 t-3 57.5t-1.5 79.5t-0.5 119.5q0 58 -2 108.5t-7 97.5l118 9l14 -14v-683h-124q-47 76 -86.5 144.5t-78.5 131.5q-42 68 -73.5 123t-59.5 114h-2q7 -61 8 -113t1 -102v-298h-122v522q0 44 -2.5 86t-6.5 80l130 8q47 -79 87 -147t77 -130z" />
<glyph unicode="&#xd2;" horiz-adv-x="707" d="M490 768q-72 4 -139 20t-129 49l-6 21l76 67q46 -35 99.5 -66.5t108.5 -58.5zM657 346q0 -116 -42 -195.5t-112.5 -120t-156.5 -40.5t-153 40.5t-105 117t-38 185.5q0 112 40.5 194t111 126.5t160.5 44.5q89 0 155.5 -43.5t103 -122.5t36.5 -186zM183 345q0 -74 19 -132 t57 -92t95 -34q85 0 127.5 70t42.5 186q0 75 -17.5 133t-54.5 91.5t-94 33.5q-83 0 -129 -69.5t-46 -186.5z" />
<glyph unicode="&#xd3;" horiz-adv-x="707" d="M500 858l-7 -21q-62 -33 -129 -49t-138 -20l-10 32q55 27 108.5 58.5t98.5 66.5zM657 346q0 -116 -42 -195.5t-112.5 -120t-156.5 -40.5t-153 40.5t-105 117t-38 185.5q0 112 40.5 194t111 126.5t160.5 44.5q89 0 155.5 -43.5t103 -122.5t36.5 -186zM183 345 q0 -74 19 -132t57 -92t95 -34q85 0 127.5 70t42.5 186q0 75 -17.5 133t-54.5 91.5t-94 33.5q-83 0 -129 -69.5t-46 -186.5z" />
<glyph unicode="&#xd4;" horiz-adv-x="707" d="M226 765l-34 30q35 30 63.5 59.5t55.5 59.5l88 8q27 -32 57.5 -63.5t65.5 -63.5l-34 -30q-36 17 -69.5 36t-63.5 38q-29 -19 -61 -38t-68 -36zM657 346q0 -116 -42 -195.5t-112.5 -120t-156.5 -40.5t-153 40.5t-105 117t-38 185.5q0 112 40.5 194t111 126.5t160.5 44.5 q89 0 155.5 -43.5t103 -122.5t36.5 -186zM183 345q0 -74 19 -132t57 -92t95 -34q85 0 127.5 70t42.5 186q0 75 -17.5 133t-54.5 91.5t-94 33.5q-83 0 -129 -69.5t-46 -186.5z" />
<glyph unicode="&#xd5;" horiz-adv-x="707" d="M286 916q31 0 55.5 -14t47 -28t47.5 -14q23 0 36.5 13.5t25.5 34.5l33 -5q-1 -32 -12 -61t-33 -48t-55 -19q-29 0 -55.5 14t-50.5 28t-48 14q-19 0 -33.5 -12.5t-27.5 -35.5l-33 5q2 30 12.5 59.5t32.5 49t58 19.5zM657 346q0 -116 -42 -195.5t-112.5 -120t-156.5 -40.5 t-153 40.5t-105 117t-38 185.5q0 112 40.5 194t111 126.5t160.5 44.5q89 0 155.5 -43.5t103 -122.5t36.5 -186zM183 345q0 -74 19 -132t57 -92t95 -34q85 0 127.5 70t42.5 186q0 75 -17.5 133t-54.5 91.5t-94 33.5q-83 0 -129 -69.5t-46 -186.5z" />
<glyph unicode="&#xd6;" horiz-adv-x="707" d="M538 851q0 -31 -21 -52.5t-55 -21.5q-29 0 -46.5 17t-17.5 42q0 29 22.5 51t55.5 22q27 0 44.5 -16.5t17.5 -41.5zM317 851q0 -31 -21 -52.5t-55 -21.5q-29 0 -46.5 17t-17.5 42q0 29 22.5 51t55.5 22q27 0 44.5 -16.5t17.5 -41.5zM657 346q0 -116 -42 -195.5 t-112.5 -120t-156.5 -40.5t-153 40.5t-105 117t-38 185.5q0 112 40.5 194t111 126.5t160.5 44.5q89 0 155.5 -43.5t103 -122.5t36.5 -186zM183 345q0 -74 19 -132t57 -92t95 -34q85 0 127.5 70t42.5 186q0 75 -17.5 133t-54.5 91.5t-94 33.5q-83 0 -129 -69.5t-46 -186.5z " />
<glyph unicode="&#xd7;" d="M455 139l-156 158l-158 -158l-48 49l158 158l-156 159l46 46q33 -31 73.5 -72t84.5 -85l157 158l49 -49l-158 -158q43 -43 83.5 -84t73.5 -73l-1 -10z" />
<glyph unicode="&#xd8;" horiz-adv-x="707" d="M657 346q0 -116 -42 -195.5t-112.5 -120t-156.5 -40.5q-119 0 -198 75l-65 -74l-49 43l72 82q-27 42 -41.5 96.5t-14.5 120.5q0 112 40.5 194t111 126.5t160.5 44.5q56 0 104 -18t85 -51l60 69l50 -42l-67 -77q30 -45 46.5 -104t16.5 -129zM183 345q0 -68 16 -122 l276 318q-20 29 -49.5 44.5t-67.5 15.5q-83 0 -129 -69.5t-46 -186.5zM524 343q0 77 -18 134l-278 -320q21 -33 53 -51.5t73 -18.5q85 0 127.5 70t42.5 186z" />
<glyph unicode="&#xd9;" horiz-adv-x="666" d="M465 768q-72 4 -139 20t-129 49l-6 21l77 67q45 -35 98.5 -66.5t108.5 -58.5zM73 518q0 45 -2.5 86t-7.5 85l126 9l13 -13v-444q0 -75 37 -113.5t98 -38.5q60 0 96.5 38.5t36.5 113.5v301q0 43 -2 77.5t-8 69.5l133 8v-465q0 -81 -36 -134.5t-96 -80.5t-132 -27t-130 27 t-92 81t-34 134v286z" />
<glyph unicode="&#xda;" horiz-adv-x="666" d="M475 858l-6 -21q-63 -33 -129.5 -49t-138.5 -20l-10 32q55 27 108.5 58.5t98.5 66.5zM73 518q0 45 -2.5 86t-7.5 85l126 9l13 -13v-444q0 -75 37 -113.5t98 -38.5q60 0 96.5 38.5t36.5 113.5v301q0 43 -2 77.5t-8 69.5l133 8v-465q0 -81 -36 -134.5t-96 -80.5t-132 -27 t-130 27t-92 81t-34 134v286z" />
<glyph unicode="&#xdb;" horiz-adv-x="666" d="M201 765l-33 30q34 30 63 59.5t55 59.5l88 8q27 -32 57.5 -63.5t65.5 -63.5l-33 -30q-37 17 -70 36t-64 38q-29 -19 -61 -38t-68 -36zM73 518q0 45 -2.5 86t-7.5 85l126 9l13 -13v-444q0 -75 37 -113.5t98 -38.5q60 0 96.5 38.5t36.5 113.5v301q0 43 -2 77.5t-8 69.5 l133 8v-465q0 -81 -36 -134.5t-96 -80.5t-132 -27t-130 27t-92 81t-34 134v286z" />
<glyph unicode="&#xdc;" horiz-adv-x="666" d="M513 851q0 -31 -21 -52.5t-55 -21.5q-28 0 -45.5 17t-17.5 42q0 29 22.5 51t54.5 22q27 0 44.5 -16.5t17.5 -41.5zM292 851q0 -31 -21 -52.5t-55 -21.5q-28 0 -45.5 17t-17.5 42q0 29 22.5 51t54.5 22q27 0 44.5 -16.5t17.5 -41.5zM73 518q0 45 -2.5 86t-7.5 85l126 9 l13 -13v-444q0 -75 37 -113.5t98 -38.5q60 0 96.5 38.5t36.5 113.5v301q0 43 -2 77.5t-8 69.5l133 8v-465q0 -81 -36 -134.5t-96 -80.5t-132 -27t-130 27t-92 81t-34 134v286z" />
<glyph unicode="&#xdd;" horiz-adv-x="571" d="M442 858l-7 -21q-62 -33 -129 -49t-138 -20l-10 32q55 27 108.5 58.5t98.5 66.5zM221 232l-207 453l137 13l91 -220q13 -34 29 -75.5t25 -70.5h3q11 30 28 71.5t30 74.5l89 220l104 -8l8 -14l-208 -446v-230h-129v232z" />
<glyph unicode="&#xde;" horiz-adv-x="581" d="M213 0h-128v522q0 44 -1.5 83.5t-7.5 82.5h137v-105h90q77 0 133.5 -27.5t87 -78.5t30.5 -119q0 -76 -35.5 -127.5t-96 -78t-136.5 -26.5h-73v-126zM277 491h-64v-273h63q75 0 110 36t35 99q0 60 -33 99t-111 39z" />
<glyph unicode="&#xdf;" horiz-adv-x="643" d="M95 433l-73 4v46l73 15v16q0 86 30.5 139.5t83 79t117.5 25.5q93 0 147.5 -44.5t54.5 -114.5q0 -58 -33 -101t-83 -66q81 -29 131 -91.5t50 -147.5q0 -61 -26 -106.5t-73 -71t-110 -25.5q-30 0 -59 5t-46 12v81q22 -9 44 -13t39 -4q56 0 83 35.5t27 85.5q0 65 -44.5 120 t-129.5 84v59q48 20 80.5 53t32.5 82q0 38 -22.5 65.5t-66.5 27.5q-42 0 -72 -32.5t-30 -114.5v-536h-125v433z" />
<glyph unicode="&#xe0;" horiz-adv-x="514" d="M304 571q-48 35 -87 75t-71 88l7 21l113 12q15 -47 37.5 -93.5t47.5 -90.5zM434 137q0 -35 5.5 -70t16.5 -67l-105 -10q-9 15 -15.5 33t-11.5 36h-3q-20 -28 -59.5 -48.5t-89.5 -20.5q-59 0 -95 32t-36 88q0 57 36 93t97.5 54t137.5 21v48q0 89 -93 89q-37 0 -77 -12 t-74 -32l-7 98q35 15 86 27t103 12q93 0 140 -43t47 -122q0 -53 -1.5 -107.5t-1.5 -98.5zM164 131q0 -27 16.5 -46.5t48.5 -19.5q22 0 44.5 9.5t38.5 24.5v135q-61 -5 -104.5 -30.5t-43.5 -72.5z" />
<glyph unicode="&#xe1;" horiz-adv-x="514" d="M344 754l7 -21q-32 -48 -71.5 -88t-87.5 -75l-46 11q25 45 47.5 91.5t37.5 92.5zM434 137q0 -35 5.5 -70t16.5 -67l-105 -10q-9 15 -15.5 33t-11.5 36h-3q-20 -28 -59.5 -48.5t-89.5 -20.5q-59 0 -95 32t-36 88q0 57 36 93t97.5 54t137.5 21v48q0 89 -93 89 q-37 0 -77 -12t-74 -32l-7 98q35 15 86 27t103 12q93 0 140 -43t47 -122q0 -53 -1.5 -107.5t-1.5 -98.5zM164 131q0 -27 16.5 -46.5t48.5 -19.5q22 0 44.5 9.5t38.5 24.5v135q-61 -5 -104.5 -30.5t-43.5 -72.5z" />
<glyph unicode="&#xe2;" horiz-adv-x="514" d="M136 563l-39 28q31 41 57.5 80.5t51.5 79.5l88 8q25 -42 53 -83.5t61 -84.5l-40 -28q-32 23 -61.5 50.5t-56.5 54.5q-26 -27 -54.5 -54t-59.5 -51zM434 137q0 -35 5.5 -70t16.5 -67l-105 -10q-9 15 -15.5 33t-11.5 36h-3q-20 -28 -59.5 -48.5t-89.5 -20.5q-59 0 -95 32 t-36 88q0 57 36 93t97.5 54t137.5 21v48q0 89 -93 89q-37 0 -77 -12t-74 -32l-7 98q35 15 86 27t103 12q93 0 140 -43t47 -122q0 -53 -1.5 -107.5t-1.5 -98.5zM164 131q0 -27 16.5 -46.5t48.5 -19.5q22 0 44.5 9.5t38.5 24.5v135q-61 -5 -104.5 -30.5t-43.5 -72.5z" />
<glyph unicode="&#xe3;" horiz-adv-x="514" d="M176 742q30 0 55 -14.5t47.5 -28.5t45.5 -14q20 0 32.5 13.5t23.5 34.5l37 -5q-2 -34 -13 -66t-32 -53t-53 -21q-28 0 -55 14t-51 28.5t-45 14.5q-17 0 -30.5 -13t-24.5 -36l-36 6q2 32 12 64.5t31.5 54t55.5 21.5zM434 137q0 -35 5.5 -70t16.5 -67l-105 -10 q-9 15 -15.5 33t-11.5 36h-3q-20 -28 -59.5 -48.5t-89.5 -20.5q-59 0 -95 32t-36 88q0 57 36 93t97.5 54t137.5 21v48q0 89 -93 89q-37 0 -77 -12t-74 -32l-7 98q35 15 86 27t103 12q93 0 140 -43t47 -122q0 -53 -1.5 -107.5t-1.5 -98.5zM164 131q0 -27 16.5 -46.5 t48.5 -19.5q22 0 44.5 9.5t38.5 24.5v135q-61 -5 -104.5 -30.5t-43.5 -72.5z" />
<glyph unicode="&#xe4;" horiz-adv-x="514" d="M210 672q0 -32 -21.5 -56.5t-55.5 -24.5q-30 0 -48 20t-18 47q0 33 23.5 57t56.5 24q28 0 45.5 -18.5t17.5 -48.5zM429 672q0 -32 -21.5 -56.5t-55.5 -24.5q-30 0 -48 20t-18 47q0 33 23.5 57t56.5 24q28 0 45.5 -18.5t17.5 -48.5zM434 137q0 -35 5.5 -70t16.5 -67 l-105 -10q-9 15 -15.5 33t-11.5 36h-3q-20 -28 -59.5 -48.5t-89.5 -20.5q-59 0 -95 32t-36 88q0 57 36 93t97.5 54t137.5 21v48q0 89 -93 89q-37 0 -77 -12t-74 -32l-7 98q35 15 86 27t103 12q93 0 140 -43t47 -122q0 -53 -1.5 -107.5t-1.5 -98.5zM164 131q0 -27 16.5 -46.5 t48.5 -19.5q22 0 44.5 9.5t38.5 24.5v135q-61 -5 -104.5 -30.5t-43.5 -72.5z" />
<glyph unicode="&#xe5;" horiz-adv-x="514" d="M366 675q0 -43 -33.5 -74t-81.5 -31q-43 0 -71.5 25.5t-28.5 62.5q0 29 16.5 53t43 38.5t58.5 14.5q43 0 70 -25t27 -64zM207 663q0 -21 13.5 -35t35.5 -14t38 17t16 39t-12 35.5t-33 13.5q-24 0 -41 -16.5t-17 -39.5zM434 137q0 -35 5.5 -70t16.5 -67l-105 -10 q-9 15 -15.5 33t-11.5 36h-3q-20 -28 -59.5 -48.5t-89.5 -20.5q-59 0 -95 32t-36 88q0 57 36 93t97.5 54t137.5 21v48q0 89 -93 89q-37 0 -77 -12t-74 -32l-7 98q35 15 86 27t103 12q93 0 140 -43t47 -122q0 -53 -1.5 -107.5t-1.5 -98.5zM164 131q0 -27 16.5 -46.5 t48.5 -19.5q22 0 44.5 9.5t38.5 24.5v135q-61 -5 -104.5 -30.5t-43.5 -72.5z" />
<glyph unicode="&#xe6;" horiz-adv-x="783" d="M737 251l-15 -15h-280q7 -81 47 -118.5t102 -37.5q36 0 67.5 10.5t56.5 25.5l8 -83q-22 -15 -64.5 -29t-99.5 -14q-69 0 -122.5 25.5t-85.5 73.5q-26 -41 -74.5 -70t-106.5 -29q-57 0 -93 32t-36 89q0 56 36 92t97.5 54t137.5 21v48q0 20 -7 40.5t-27.5 34.5t-60.5 14 q-37 0 -76.5 -12.5t-72.5 -31.5l-7 98q35 15 86 27t105 12q102 0 147 -52q62 52 147 52q89 0 140.5 -56t51.5 -146v-26.5t-1 -28.5zM540 433q-42 0 -69.5 -40t-30.5 -111l175 7q1 17 1 34q0 49 -19 79.5t-57 30.5zM164 131q0 -27 16.5 -46.5t48.5 -19.5q30 0 58 16.5 t46 42.5q-21 48 -22 110q-60 -5 -103.5 -30.5t-43.5 -72.5z" />
<glyph unicode="&#xe7;" horiz-adv-x="485" d="M398 -140q0 -38 -29 -60.5t-73 -33t-88 -11.5v45q46 5 72.5 19t26.5 37q0 18 -19 27t-52 10l-14 23l23 78q-88 14 -141 79.5t-53 170.5q0 81 31.5 140t88 91.5t128.5 32.5q44 0 82.5 -10t67.5 -27l-28 -97q-27 19 -57 30t-61 11q-55 0 -89 -41.5t-34 -117.5 q0 -82 37 -129t105 -47q30 0 58 10t54 24l8 -83q-24 -16 -56.5 -27t-73.5 -13l-16 -49q25 -4 48.5 -13t38.5 -25.5t15 -43.5z" />
<glyph unicode="&#xe8;" horiz-adv-x="523" d="M324 571q-48 35 -87.5 75t-70.5 88l7 21l113 12q15 -47 37.5 -93.5t47.5 -90.5zM477 251l-15 -15h-281q7 -81 47 -118.5t103 -37.5q35 0 67 10.5t57 25.5l8 -83q-23 -15 -65 -29t-100 -14q-74 0 -129.5 29.5t-86.5 85.5t-31 137q0 83 31.5 142.5t85 91.5t118.5 32 q89 0 140.5 -56t51.5 -146v-26.5t-1 -28.5zM280 433q-42 0 -69.5 -40t-30.5 -111l174 7q1 17 1 36q0 46 -18.5 77t-56.5 31z" />
<glyph unicode="&#xe9;" horiz-adv-x="523" d="M364 754l7 -21q-32 -48 -71.5 -88t-87.5 -75l-46 11q25 45 47.5 91.5t37.5 92.5zM477 251l-15 -15h-281q7 -81 47 -118.5t103 -37.5q35 0 67 10.5t57 25.5l8 -83q-23 -15 -65 -29t-100 -14q-74 0 -129.5 29.5t-86.5 85.5t-31 137q0 83 31.5 142.5t85 91.5t118.5 32 q89 0 140.5 -56t51.5 -146v-26.5t-1 -28.5zM280 433q-42 0 -69.5 -40t-30.5 -111l174 7q1 17 1 36q0 46 -18.5 77t-56.5 31z" />
<glyph unicode="&#xea;" horiz-adv-x="523" d="M156 563l-39 28q31 41 57.5 80.5t51.5 79.5l88 8q25 -42 53 -83.5t61 -84.5l-40 -28q-32 23 -61.5 50.5t-56.5 54.5q-26 -27 -54.5 -54t-59.5 -51zM477 251l-15 -15h-281q7 -81 47 -118.5t103 -37.5q35 0 67 10.5t57 25.5l8 -83q-23 -15 -65 -29t-100 -14 q-74 0 -129.5 29.5t-86.5 85.5t-31 137q0 83 31.5 142.5t85 91.5t118.5 32q89 0 140.5 -56t51.5 -146v-26.5t-1 -28.5zM280 433q-42 0 -69.5 -40t-30.5 -111l174 7q1 17 1 36q0 46 -18.5 77t-56.5 31z" />
<glyph unicode="&#xeb;" horiz-adv-x="523" d="M230 672q0 -32 -21.5 -56.5t-55.5 -24.5q-30 0 -48 20t-18 47q0 33 23.5 57t56.5 24q28 0 45.5 -18.5t17.5 -48.5zM449 672q0 -32 -21.5 -56.5t-55.5 -24.5q-30 0 -48 20t-18 47q0 33 23.5 57t56.5 24q28 0 45.5 -18.5t17.5 -48.5zM477 251l-15 -15h-281q7 -81 47 -118.5 t103 -37.5q35 0 67 10.5t57 25.5l8 -83q-23 -15 -65 -29t-100 -14q-74 0 -129.5 29.5t-86.5 85.5t-31 137q0 83 31.5 142.5t85 91.5t118.5 32q89 0 140.5 -56t51.5 -146v-26.5t-1 -28.5zM280 433q-42 0 -69.5 -40t-30.5 -111l174 7q1 17 1 36q0 46 -18.5 77t-56.5 31z" />
<glyph unicode="&#xec;" horiz-adv-x="281" d="M195 571q-48 35 -87.5 75t-70.5 88l7 21l112 12q15 -47 37.5 -93.5t47.5 -90.5zM77 0v327q0 44 -2.5 83t-9.5 83l123 15l14 -14v-494h-125z" />
<glyph unicode="&#xed;" horiz-adv-x="281" d="M234 754l7 -21q-31 -48 -70.5 -88t-87.5 -75l-46 11q25 45 47.5 91.5t37.5 92.5zM77 0v327q0 44 -2.5 83t-9.5 83l123 15l14 -14v-494h-125z" />
<glyph unicode="&#xee;" horiz-adv-x="281" d="M58 571l-43 18q18 42 33 83.5t29 84.5l118 8q30 -91 67 -176l-43 -18q-23 24 -43.5 51.5t-39.5 56.5q-18 -29 -37 -56.5t-41 -51.5zM77 0v327q0 44 -2.5 83t-9.5 83l123 15l14 -14v-494h-125z" />
<glyph unicode="&#xef;" horiz-adv-x="281" d="M119 674q0 -32 -19.5 -56.5t-50.5 -24.5q-28 0 -45 20t-17 47q0 32 22.5 56.5t51.5 24.5q26 0 42 -18.5t16 -48.5zM290 674q0 -32 -20 -56.5t-51 -24.5q-27 0 -43.5 20t-16.5 47q0 32 21.5 56.5t50.5 24.5q26 0 42.5 -18.5t16.5 -48.5zM77 0v327q0 44 -2.5 83t-9.5 83 l123 15l14 -14v-494h-125z" />
<glyph unicode="&#xf0;" horiz-adv-x="585" d="M292 -10q-64 0 -115 30t-81 86.5t-30 138.5q0 76 26.5 130t72.5 82t104 28q74 0 118 -45q-13 42 -35.5 78.5t-52.5 68.5l-103 -64l-35 54l90 56q-36 31 -79 56l42 69q67 -28 123 -71l108 68l35 -55l-92 -57q68 -69 106.5 -162t38.5 -204q0 -99 -33 -162.5t-88 -94 t-120 -30.5zM300 405q-46 0 -75.5 -40t-29.5 -124q0 -73 25 -118.5t78 -45.5q49 0 77 43t28 120q0 80 -27 122.5t-76 42.5z" />
<glyph unicode="&#xf1;" horiz-adv-x="577" d="M210 742q30 0 54.5 -14.5t47 -28.5t45.5 -14q21 0 33.5 13.5t23.5 34.5l36 -5q-2 -34 -13 -66t-32 -53t-53 -21q-28 0 -54.5 14t-51 28.5t-45.5 14.5q-17 0 -30 -13t-25 -36l-36 6q2 32 12.5 64.5t31.5 54t56 21.5zM204 0h-125v328q0 44 -5 80.5t-15 76.5l117 23 q14 -36 22 -73q76 73 163 73q64 0 100.5 -40t36.5 -113v-355h-126v331q0 90 -73 90q-46 0 -95 -37v-384z" />
<glyph unicode="&#xf2;" horiz-adv-x="563" d="M338 571q-48 35 -87.5 75t-71.5 88l7 21l113 12q15 -47 37.5 -93.5t47.5 -90.5zM513 252q0 -87 -33 -145t-87 -87.5t-118 -29.5t-115 29.5t-80 85.5t-29 137q0 85 32 144.5t86 90.5t119 31q67 0 117.5 -31t79 -88.5t28.5 -136.5zM180 252q0 -84 24.5 -135.5t77.5 -51.5 q50 0 75.5 48t25.5 132q0 86 -24 137t-77 51q-48 0 -75 -45t-27 -136z" />
<glyph unicode="&#xf3;" horiz-adv-x="563" d="M377 754l7 -21q-31 -48 -70.5 -88t-87.5 -75l-47 11q25 45 47.5 91.5t37.5 92.5zM513 252q0 -87 -33 -145t-87 -87.5t-118 -29.5t-115 29.5t-80 85.5t-29 137q0 85 32 144.5t86 90.5t119 31q67 0 117.5 -31t79 -88.5t28.5 -136.5zM180 252q0 -84 24.5 -135.5t77.5 -51.5 q50 0 75.5 48t25.5 132q0 86 -24 137t-77 51q-48 0 -75 -45t-27 -136z" />
<glyph unicode="&#xf4;" horiz-adv-x="563" d="M170 563l-40 28q31 41 58 80.5t51 79.5l88 8q25 -42 53 -83.5t61 -84.5l-40 -28q-32 23 -61.5 50.5t-56.5 54.5q-26 -27 -54 -54t-59 -51zM513 252q0 -87 -33 -145t-87 -87.5t-118 -29.5t-115 29.5t-80 85.5t-29 137q0 85 32 144.5t86 90.5t119 31q67 0 117.5 -31 t79 -88.5t28.5 -136.5zM180 252q0 -84 24.5 -135.5t77.5 -51.5q50 0 75.5 48t25.5 132q0 86 -24 137t-77 51q-48 0 -75 -45t-27 -136z" />
<glyph unicode="&#xf5;" horiz-adv-x="563" d="M210 742q30 0 54.5 -14.5t47 -28.5t45.5 -14q20 0 32.5 13.5t24.5 34.5l36 -5q-2 -34 -13 -66t-32 -53t-53 -21q-28 0 -54.5 14t-51 28.5t-45.5 14.5q-17 0 -30 -13t-25 -36l-36 6q2 32 12.5 64.5t31.5 54t56 21.5zM513 252q0 -87 -33 -145t-87 -87.5t-118 -29.5 t-115 29.5t-80 85.5t-29 137q0 85 32 144.5t86 90.5t119 31q67 0 117.5 -31t79 -88.5t28.5 -136.5zM180 252q0 -84 24.5 -135.5t77.5 -51.5q50 0 75.5 48t25.5 132q0 86 -24 137t-77 51q-48 0 -75 -45t-27 -136z" />
<glyph unicode="&#xf6;" horiz-adv-x="563" d="M243 672q0 -32 -21.5 -56.5t-54.5 -24.5q-31 0 -49 20t-18 47q0 33 23.5 57t56.5 24q28 0 45.5 -18.5t17.5 -48.5zM462 672q0 -32 -21.5 -56.5t-54.5 -24.5q-31 0 -49 20t-18 47q0 33 23.5 57t56.5 24q28 0 45.5 -18.5t17.5 -48.5zM513 252q0 -87 -33 -145t-87 -87.5 t-118 -29.5t-115 29.5t-80 85.5t-29 137q0 85 32 144.5t86 90.5t119 31q67 0 117.5 -31t79 -88.5t28.5 -136.5zM180 252q0 -84 24.5 -135.5t77.5 -51.5q50 0 75.5 48t25.5 132q0 86 -24 137t-77 51q-48 0 -75 -45t-27 -136z" />
<glyph unicode="&#xf7;" d="M363 541q0 -30 -20 -51t-51 -21q-25 0 -41 17t-16 41q0 29 21 50.5t51 21.5q24 0 40 -16t16 -42zM519 313h-450v65q31 1 76 2t96.5 1.5t103.5 1t97.5 0.5h77.5l7 -7zM364 169q0 -30 -20 -51t-51 -21q-25 0 -41 17t-16 41q0 29 21 50.5t51 21.5q24 0 40 -16t16 -42z" />
<glyph unicode="&#xf8;" horiz-adv-x="563" d="M513 252q0 -87 -33 -145t-87 -87.5t-118 -29.5q-87 0 -146 51l-54 -58l-45 43l59 63q-18 30 -28 68t-10 85q0 85 32 144.5t86 90.5t119 31q86 0 144 -51l55 58l46 -42l-60 -64q19 -31 29.5 -70.5t10.5 -86.5zM180 252q0 -34 4 -62l176 190q-25 53 -78 53q-48 0 -75 -45 t-27 -136zM383 245q0 35 -3 64l-177 -189q26 -55 79 -55q50 0 75.5 48t25.5 132z" />
<glyph unicode="&#xf9;" horiz-adv-x="569" d="M341 571q-48 35 -87.5 75t-70.5 88l7 21l113 12q15 -47 37.5 -93.5t47.5 -90.5zM77 326q0 45 -2.5 84.5t-8.5 81.5l122 16l14 -14v-326q0 -83 70 -83q45 0 91 35v378l125 10v-372q0 -36 4.5 -70.5t12.5 -64.5l-104 -11q-15 31 -26 74h-4q-71 -74 -158 -74 q-63 0 -99.5 37.5t-36.5 101.5v197z" />
<glyph unicode="&#xfa;" horiz-adv-x="569" d="M380 754l8 -21q-32 -48 -71.5 -88t-87.5 -75l-46 11q25 45 47.5 91.5t37.5 92.5zM77 326q0 45 -2.5 84.5t-8.5 81.5l122 16l14 -14v-326q0 -83 70 -83q45 0 91 35v378l125 10v-372q0 -36 4.5 -70.5t12.5 -64.5l-104 -11q-15 31 -26 74h-4q-71 -74 -158 -74 q-63 0 -99.5 37.5t-36.5 101.5v197z" />
<glyph unicode="&#xfb;" horiz-adv-x="569" d="M173 563l-39 28q31 41 57.5 80.5t51.5 79.5l88 8q25 -42 53 -83.5t61 -84.5l-40 -28q-32 23 -61.5 50.5t-56.5 54.5q-26 -27 -54.5 -54t-59.5 -51zM77 326q0 45 -2.5 84.5t-8.5 81.5l122 16l14 -14v-326q0 -83 70 -83q45 0 91 35v378l125 10v-372q0 -36 4.5 -70.5 t12.5 -64.5l-104 -11q-15 31 -26 74h-4q-71 -74 -158 -74q-63 0 -99.5 37.5t-36.5 101.5v197z" />
<glyph unicode="&#xfc;" horiz-adv-x="569" d="M247 672q0 -32 -21.5 -56.5t-55.5 -24.5q-30 0 -48 20t-18 47q0 33 23.5 57t56.5 24q28 0 45.5 -18.5t17.5 -48.5zM466 672q0 -32 -21.5 -56.5t-55.5 -24.5q-30 0 -48 20t-18 47q0 33 23.5 57t56.5 24q28 0 45.5 -18.5t17.5 -48.5zM77 326q0 45 -2.5 84.5t-8.5 81.5 l122 16l14 -14v-326q0 -83 70 -83q45 0 91 35v378l125 10v-372q0 -36 4.5 -70.5t12.5 -64.5l-104 -11q-15 31 -26 74h-4q-71 -74 -158 -74q-63 0 -99.5 37.5t-36.5 101.5v197z" />
<glyph unicode="&#xfd;" horiz-adv-x="483" d="M345 754l8 -21q-32 -48 -71.5 -88t-87.5 -75l-46 11q25 45 47.5 91.5t37.5 92.5zM473 486l-150 -456q-18 -55 -41 -105.5t-56 -91t-79 -64.5t-110 -27l-18 110q71 4 123 41t82 114h-52l-157 490l131 11l67 -251q18 -56 28 -95t14 -75h2q6 36 16.5 74.5t28.5 95.5l67 251 l96 -8z" />
<glyph unicode="&#xfe;" horiz-adv-x="569" d="M74 577q0 46 -3.5 85t-8.5 81l122 15l15 -14v-282q24 20 57 33t71 13q56 0 99 -30.5t67.5 -87.5t24.5 -135q0 -121 -58 -193t-167 -72q-24 0 -48.5 3.5t-45.5 10.5v-77q0 -44 2.5 -82t8.5 -81l-122 -16l-14 14v815zM275 427q-44 0 -76 -27v-325q15 -7 33 -11.5t37 -4.5 q60 0 90 48.5t30 139.5q0 93 -30.5 136.5t-83.5 43.5z" />
<glyph unicode="&#xff;" horiz-adv-x="483" d="M212 672q0 -32 -21.5 -56.5t-55.5 -24.5q-30 0 -48 20t-18 47q0 33 23.5 57t56.5 24q28 0 45.5 -18.5t17.5 -48.5zM431 672q0 -32 -21.5 -56.5t-55.5 -24.5q-30 0 -48 20t-18 47q0 33 23.5 57t56.5 24q28 0 45.5 -18.5t17.5 -48.5zM473 486l-150 -456q-18 -55 -41 -105.5 t-56 -91t-79 -64.5t-110 -27l-18 110q71 4 123 41t82 114h-52l-157 490l131 11l67 -251q18 -56 28 -95t14 -75h2q6 36 16.5 74.5t28.5 95.5l67 251l96 -8z" />
<glyph unicode="&#x100;" horiz-adv-x="630" d="M175 812v74h281v-74h-281zM137 0h-122l186 585q10 29 18 57t12 49l147 6l20 -17l217 -680h-129l-53 166h-243zM250 357l-31 -98h184l-30 97q-21 71 -36 127t-23 96h-4q-9 -39 -25 -99t-35 -123z" />
<glyph unicode="&#x101;" horiz-adv-x="514" d="M106 629v72h285v-72h-285zM434 137q0 -35 5.5 -70t16.5 -67l-105 -10q-9 15 -15.5 33t-11.5 36h-3q-20 -28 -59.5 -48.5t-89.5 -20.5q-59 0 -95 32t-36 88q0 57 36 93t97.5 54t137.5 21v48q0 89 -93 89q-37 0 -77 -12t-74 -32l-7 98q35 15 86 27t103 12q93 0 140 -43 t47 -122q0 -53 -1.5 -107.5t-1.5 -98.5zM164 131q0 -27 16.5 -46.5t48.5 -19.5q22 0 44.5 9.5t38.5 24.5v135q-61 -5 -104.5 -30.5t-43.5 -72.5z" />
<glyph unicode="&#x102;" horiz-adv-x="630" d="M406 916l51 4q-6 -62 -45 -101.5t-102 -39.5q-56 0 -94 35t-44 95l52 8q8 -25 33 -39.5t59 -14.5q33 0 57.5 15t32.5 38zM137 0h-122l186 585q10 29 18 57t12 49l147 6l20 -17l217 -680h-129l-53 166h-243zM250 357l-31 -98h184l-30 97q-21 71 -36 127t-23 96h-4 q-9 -39 -25 -99t-35 -123z" />
<glyph unicode="&#x103;" horiz-adv-x="514" d="M338 750l51 4q-6 -74 -45 -120.5t-102 -46.5q-56 0 -94 42t-44 114l52 8q8 -38 33 -59t59 -21q33 0 57.5 22t32.5 57zM434 137q0 -35 5.5 -70t16.5 -67l-105 -10q-9 15 -15.5 33t-11.5 36h-3q-20 -28 -59.5 -48.5t-89.5 -20.5q-59 0 -95 32t-36 88q0 57 36 93t97.5 54 t137.5 21v48q0 89 -93 89q-37 0 -77 -12t-74 -32l-7 98q35 15 86 27t103 12q93 0 140 -43t47 -122q0 -53 -1.5 -107.5t-1.5 -98.5zM164 131q0 -27 16.5 -46.5t48.5 -19.5q22 0 44.5 9.5t38.5 24.5v135q-61 -5 -104.5 -30.5t-43.5 -72.5z" />
<glyph unicode="&#x104;" horiz-adv-x="630" d="M137 0h-122l186 585q10 29 18 57t12 49l147 6l20 -17l217 -680q-55 -28 -84 -60t-29 -63q0 -21 11.5 -33.5t36.5 -12.5q10 0 24 3t31 10l18 -45q-22 -19 -53.5 -31.5t-63.5 -12.5q-47 0 -77.5 25.5t-30.5 68.5q0 42 34 81.5t96 69.5h-42l-53 166h-243zM250 357l-31 -98 h184l-30 97q-21 71 -36 127t-23 96h-4q-9 -39 -25 -99t-35 -123z" />
<glyph unicode="&#x105;" horiz-adv-x="514" d="M434 137q0 -35 5.5 -70t16.5 -67q-55 -28 -84 -60t-29 -63q0 -21 11.5 -33.5t36.5 -12.5q10 0 24 3t31 10l18 -45q-22 -19 -53.5 -31.5t-63.5 -12.5q-47 0 -77.5 25.5t-30.5 68.5q0 39 29 75.5t82 65.5q-8 15 -14.5 33t-11.5 36h-3q-20 -28 -59.5 -48.5t-89.5 -20.5 q-59 0 -95 32t-36 88q0 57 36 93t97.5 54t137.5 21v48q0 89 -93 89q-37 0 -77 -12t-74 -32l-7 98q35 15 86 27t103 12q93 0 140 -43t47 -122q0 -53 -1.5 -107.5t-1.5 -98.5zM164 131q0 -27 16.5 -46.5t48.5 -19.5q22 0 44.5 9.5t38.5 24.5v135q-61 -5 -104.5 -30.5 t-43.5 -72.5z" />
<glyph unicode="&#x106;" horiz-adv-x="583" d="M483 864l-6 -21q-63 -33 -129.5 -49t-138.5 -20l-10 32q55 27 108.5 58.5t98.5 66.5zM536 142l15 -105q-39 -23 -88 -35t-103 -12q-95 0 -164.5 41t-107.5 118t-38 186q0 110 41 191.5t113 126.5t165 45q51 0 97.5 -11t79.5 -31l-25 -111q-34 22 -71 34.5t-79 12.5 q-55 0 -97.5 -30t-66.5 -86.5t-24 -135.5q0 -110 51 -177t144 -67q46 0 86.5 13t71.5 33z" />
<glyph unicode="&#x107;" horiz-adv-x="485" d="M372 754l7 -21q-32 -48 -71 -88t-87 -75l-47 11q25 45 47.5 91.5t37.5 92.5zM449 471l-28 -97q-27 19 -57 30t-61 11q-55 0 -89 -41.5t-34 -117.5q0 -82 37 -129t105 -47q30 0 58 10t54 24l8 -83q-27 -18 -65 -29.5t-86 -11.5q-72 0 -126 30.5t-84 87.5t-30 136 q0 81 31.5 140t88 91.5t128.5 32.5q44 0 82.5 -10t67.5 -27z" />
<glyph unicode="&#x108;" horiz-adv-x="583" d="M209 771l-33 30q34 30 63 59.5t55 59.5l88 8q27 -32 57.5 -63.5t65.5 -63.5l-33 -30q-37 17 -70 36t-64 38q-29 -19 -61 -38t-68 -36zM536 142l15 -105q-39 -23 -88 -35t-103 -12q-95 0 -164.5 41t-107.5 118t-38 186q0 110 41 191.5t113 126.5t165 45q51 0 97.5 -11 t79.5 -31l-25 -111q-34 22 -71 34.5t-79 12.5q-55 0 -97.5 -30t-66.5 -86.5t-24 -135.5q0 -110 51 -177t144 -67q46 0 86.5 13t71.5 33z" />
<glyph unicode="&#x109;" horiz-adv-x="485" d="M165 563l-40 28q31 41 58 80.5t51 79.5l88 8q25 -42 53 -83.5t61 -84.5l-40 -28q-32 23 -61.5 50.5t-56.5 54.5q-26 -27 -54.5 -54t-58.5 -51zM449 471l-28 -97q-27 19 -57 30t-61 11q-55 0 -89 -41.5t-34 -117.5q0 -82 37 -129t105 -47q30 0 58 10t54 24l8 -83 q-27 -18 -65 -29.5t-86 -11.5q-72 0 -126 30.5t-84 87.5t-30 136q0 81 31.5 140t88 91.5t128.5 32.5q44 0 82.5 -10t67.5 -27z" />
<glyph unicode="&#x10a;" horiz-adv-x="583" d="M419 861q0 -34 -23.5 -57t-60.5 -23q-32 0 -52 18.5t-20 46.5q0 31 25.5 54.5t61.5 23.5q30 0 49.5 -17.5t19.5 -45.5zM536 142l15 -105q-39 -23 -88 -35t-103 -12q-95 0 -164.5 41t-107.5 118t-38 186q0 110 41 191.5t113 126.5t165 45q51 0 97.5 -11t79.5 -31l-25 -111 q-34 22 -71 34.5t-79 12.5q-55 0 -97.5 -30t-66.5 -86.5t-24 -135.5q0 -110 51 -177t144 -67q46 0 86.5 13t71.5 33z" />
<glyph unicode="&#x10b;" horiz-adv-x="485" d="M354 672q0 -34 -23.5 -60t-59.5 -26q-33 0 -52.5 21.5t-19.5 50.5q0 34 25.5 59.5t60.5 25.5q31 0 50 -19.5t19 -51.5zM449 471l-28 -97q-27 19 -57 30t-61 11q-55 0 -89 -41.5t-34 -117.5q0 -82 37 -129t105 -47q30 0 58 10t54 24l8 -83q-27 -18 -65 -29.5t-86 -11.5 q-72 0 -126 30.5t-84 87.5t-30 136q0 81 31.5 140t88 91.5t128.5 32.5q44 0 82.5 -10t67.5 -27z" />
<glyph unicode="&#x10c;" horiz-adv-x="583" d="M472 931l33 -29q-34 -31 -63 -60.5t-55 -59.5l-88 -8q-27 32 -57.5 63.5t-65.5 64.5l33 29q37 -17 70 -36t64 -38q29 19 61 38t68 36zM536 142l15 -105q-39 -23 -88 -35t-103 -12q-95 0 -164.5 41t-107.5 118t-38 186q0 110 41 191.5t113 126.5t165 45q51 0 97.5 -11 t79.5 -31l-25 -111q-34 22 -71 34.5t-79 12.5q-55 0 -97.5 -30t-66.5 -86.5t-24 -135.5q0 -110 51 -177t144 -67q46 0 86.5 13t71.5 33z" />
<glyph unicode="&#x10d;" horiz-adv-x="485" d="M396 771l40 -29q-31 -40 -58 -80t-51 -80l-88 -8q-26 42 -54 83.5t-60 84.5l40 29q31 -24 60.5 -51.5t56.5 -54.5q27 27 55 54.5t59 51.5zM449 471l-28 -97q-27 19 -57 30t-61 11q-55 0 -89 -41.5t-34 -117.5q0 -82 37 -129t105 -47q30 0 58 10t54 24l8 -83 q-27 -18 -65 -29.5t-86 -11.5q-72 0 -126 30.5t-84 87.5t-30 136q0 81 31.5 140t88 91.5t128.5 32.5q44 0 82.5 -10t67.5 -27z" />
<glyph unicode="&#x10e;" horiz-adv-x="686" d="M460 931l34 -29q-35 -31 -63.5 -60.5t-55.5 -59.5l-87 -8q-28 32 -58 63.5t-66 64.5l34 29q37 -17 70 -36t63 -38q30 19 62 38t67 36zM636 348q0 -111 -46 -189t-125.5 -118.5t-179.5 -40.5h-200v522q0 44 -1.5 83.5t-7.5 82.5h225q100 0 175.5 -41t117.5 -117t42 -182z M293 595h-80v-502h81q109 0 159 68.5t50 180.5q0 73 -23.5 130t-70 90t-116.5 33z" />
<glyph unicode="&#x10f;" horiz-adv-x="576" d="M359 743l122 15l14 -14v-609q0 -34 6 -69t17 -66l-108 -10q-7 12 -13.5 29t-13.5 39h-2q-23 -31 -56.5 -49.5t-80.5 -18.5q-86 0 -139.5 64.5t-53.5 178.5q0 89 33.5 150.5t91 93t131.5 31.5q17 0 33 -2t30 -5v76q0 45 -2.5 84t-8.5 82zM701 758l8 -21q-15 -59 -39 -111 t-53 -99l-42 2q9 57 16.5 114.5t9.5 112.5zM180 249q0 -84 30.5 -134t85.5 -50q24 0 42.5 9t31.5 23v337q-26 5 -49 5q-65 0 -103 -48t-38 -142z" />
<glyph unicode="&#x110;" horiz-adv-x="686" d="M636 348q0 -111 -46 -189t-125.5 -118.5t-179.5 -40.5h-200v311h-78v66h78v145q0 44 -1.5 83.5t-7.5 82.5h225q100 0 175.5 -41t117.5 -117t42 -182zM383 311h-170v-218h81q109 0 159 68.5t50 180.5q0 73 -23.5 130t-70 90t-116.5 33h-80v-218h170v-66z" />
<glyph unicode="&#x111;" horiz-adv-x="576" d="M585 578h-90v-443q0 -34 6 -69t17 -66l-108 -10q-7 12 -13.5 29t-13.5 39h-2q-23 -31 -56.5 -49.5t-80.5 -18.5q-86 0 -139.5 64.5t-53.5 178.5q0 89 33.5 150.5t91 93t131.5 31.5q17 0 33 -2t30 -5v76v1h-160v67h159q-3 49 -10 98l122 15l14 -14v-99h90v-67zM180 249 q0 -84 30.5 -134t85.5 -50q24 0 42.5 9t31.5 23v337q-26 5 -49 5q-65 0 -103 -48t-38 -142z" />
<glyph unicode="&#x112;" horiz-adv-x="537" d="M152 812v74h281v-74h-281zM504 100v-100h-419v522q0 44 -1.5 83.5t-7.5 82.5h407l14 -14l-3 -86l-281 7v-212l235 4l-3 -93l-232 5v-206z" />
<glyph unicode="&#x113;" horiz-adv-x="523" d="M126 629v72h285v-72h-285zM477 251l-15 -15h-281q7 -81 47 -118.5t103 -37.5q35 0 67 10.5t57 25.5l8 -83q-23 -15 -65 -29t-100 -14q-74 0 -129.5 29.5t-86.5 85.5t-31 137q0 83 31.5 142.5t85 91.5t118.5 32q89 0 140.5 -56t51.5 -146v-26.5t-1 -28.5zM280 433 q-42 0 -69.5 -40t-30.5 -111l174 7q1 17 1 36q0 46 -18.5 77t-56.5 31z" />
<glyph unicode="&#x114;" horiz-adv-x="537" d="M383 916l51 4q-6 -62 -45 -101.5t-101 -39.5q-56 0 -94.5 35t-43.5 95l51 8q8 -25 33 -39.5t59 -14.5t58 15t32 38zM504 100v-100h-419v522q0 44 -1.5 83.5t-7.5 82.5h407l14 -14l-3 -86l-281 7v-212l235 4l-3 -93l-232 5v-206z" />
<glyph unicode="&#x115;" horiz-adv-x="523" d="M358 750l51 4q-6 -74 -45 -120.5t-102 -46.5q-56 0 -94 42t-44 114l52 8q8 -38 33 -59t59 -21q33 0 57.5 22t32.5 57zM477 251l-15 -15h-281q7 -81 47 -118.5t103 -37.5q35 0 67 10.5t57 25.5l8 -83q-23 -15 -65 -29t-100 -14q-74 0 -129.5 29.5t-86.5 85.5t-31 137 q0 83 31.5 142.5t85 91.5t118.5 32q89 0 140.5 -56t51.5 -146v-26.5t-1 -28.5zM280 433q-42 0 -69.5 -40t-30.5 -111l174 7q1 17 1 36q0 46 -18.5 77t-56.5 31z" />
<glyph unicode="&#x116;" horiz-adv-x="537" d="M371 861q0 -34 -23.5 -57t-61.5 -23q-31 0 -51.5 18.5t-20.5 46.5q0 31 26 54.5t62 23.5q29 0 49 -17.5t20 -45.5zM504 100v-100h-419v522q0 44 -1.5 83.5t-7.5 82.5h407l14 -14l-3 -86l-281 7v-212l235 4l-3 -93l-232 5v-206z" />
<glyph unicode="&#x117;" horiz-adv-x="523" d="M346 672q0 -34 -23.5 -60t-59.5 -26q-33 0 -53 21.5t-20 50.5q0 34 26 59.5t61 25.5q31 0 50 -19.5t19 -51.5zM477 251l-15 -15h-281q7 -81 47 -118.5t103 -37.5q35 0 67 10.5t57 25.5l8 -83q-23 -15 -65 -29t-100 -14q-74 0 -129.5 29.5t-86.5 85.5t-31 137 q0 83 31.5 142.5t85 91.5t118.5 32q89 0 140.5 -56t51.5 -146v-26.5t-1 -28.5zM280 433q-42 0 -69.5 -40t-30.5 -111l174 7q1 17 1 36q0 46 -18.5 77t-56.5 31z" />
<glyph unicode="&#x118;" horiz-adv-x="537" d="M504 0q-54 -28 -83.5 -60t-29.5 -63q0 -21 12 -33.5t36 -12.5q10 0 24 3t31 10l19 -45q-23 -19 -54 -31.5t-63 -12.5q-48 0 -78 25.5t-30 68.5q0 42 34 81.5t96 69.5h-333v522q0 44 -1.5 83.5t-7.5 82.5h407l14 -14l-3 -86l-281 7v-212l235 4l-3 -93l-232 5v-206l291 7 v-100z" />
<glyph unicode="&#x119;" horiz-adv-x="525" d="M477 251l-15 -15h-281q7 -81 47 -118.5t103 -37.5q35 0 67 10.5t57 25.5l8 -83q-2 -1 -3 -1q-64 -42 -98.5 -80t-34.5 -72q0 -20 11.5 -32.5t36.5 -12.5q10 0 24 2.5t31 10.5l19 -45q-23 -19 -54.5 -31.5t-63.5 -12.5q-47 0 -77 25t-30 66q0 36 27.5 72t79.5 69 q-17 -1 -33 -1q-74 0 -129.5 29.5t-86.5 85.5t-31 137q0 83 31.5 142.5t85 91.5t118.5 32q89 0 140.5 -56t51.5 -146v-26.5t-1 -28.5zM280 433q-42 0 -69.5 -40t-30.5 -111l174 7q1 17 1 36q0 46 -18.5 77t-56.5 31z" />
<glyph unicode="&#x11a;" horiz-adv-x="537" d="M423 931l34 -29q-35 -31 -63.5 -60.5t-55.5 -59.5l-88 -8q-27 32 -57.5 63.5t-65.5 64.5l34 29q36 -17 69.5 -36t63.5 -38q29 19 61 38t68 36zM504 100v-100h-419v522q0 44 -1.5 83.5t-7.5 82.5h407l14 -14l-3 -86l-281 7v-212l235 4l-3 -93l-232 5v-206z" />
<glyph unicode="&#x11b;" horiz-adv-x="523" d="M388 771l40 -29q-32 -40 -58.5 -80t-51.5 -80l-87 -8q-26 42 -54 83.5t-60 84.5l39 29q32 -24 61.5 -51.5t56.5 -54.5q26 27 54.5 54.5t59.5 51.5zM477 251l-15 -15h-281q7 -81 47 -118.5t103 -37.5q35 0 67 10.5t57 25.5l8 -83q-23 -15 -65 -29t-100 -14 q-74 0 -129.5 29.5t-86.5 85.5t-31 137q0 83 31.5 142.5t85 91.5t118.5 32q89 0 140.5 -56t51.5 -146v-26.5t-1 -28.5zM280 433q-42 0 -69.5 -40t-30.5 -111l174 7q1 17 1 36q0 46 -18.5 77t-56.5 31z" />
<glyph unicode="&#x11c;" horiz-adv-x="642" d="M215 771l-33 30q34 30 63 59.5t55 59.5l88 8q27 -32 57.5 -63.5t65.5 -63.5l-33 -30q-37 17 -70 36t-64 38q-29 -19 -61 -38t-68 -36zM572 315l14 -14l-3 -267q-43 -20 -100 -32t-113 -12q-101 0 -173 41t-109.5 116.5t-37.5 180.5q0 111 41.5 194.5t118 129.5t180.5 46 q50 0 97.5 -10.5t82.5 -28.5l-22 -111q-30 21 -69 34t-83 13q-95 0 -154 -65.5t-59 -191.5q0 -74 22 -129.5t67 -87t112 -31.5q36 0 79 8v12q0 46 -1 77t-4 58t-7 60z" />
<glyph unicode="&#x11d;" horiz-adv-x="513" d="M134 563l-39 28q31 41 58 80.5t51 79.5l88 8q25 -42 53 -83.5t61 -84.5l-40 -28q-32 23 -61.5 50.5t-56.5 54.5q-26 -27 -54.5 -54t-59.5 -51zM105 63q0 28 14.5 50t38.5 39q-52 19 -83.5 61t-31.5 102q0 52 24.5 96t70.5 70.5t110 26.5q37 0 67 -9t50 -24 q18 30 50.5 44.5t66.5 14.5l15 -11l-3 -83h-102q19 -15 35 -44.5t16 -74.5q0 -51 -24.5 -92.5t-69.5 -66.5t-106 -25q-18 0 -35 3q-8 -15 -8 -30q0 -23 12.5 -32t38.5 -11l90 -6q43 -3 78.5 -17.5t56.5 -42.5t21 -71q0 -53 -32 -95.5t-91.5 -67.5t-141.5 -25 q-101 0 -160.5 37t-59.5 92q0 37 24 61t51 33l46 -20q-5 -7 -9.5 -16.5t-4.5 -20.5q0 -40 33.5 -72t95.5 -32q55 0 89.5 26t34.5 67q0 34 -23.5 52.5t-64.5 22.5l-82 8q-97 9 -97 83zM323 322q0 57 -19 89t-59 32q-42 0 -62 -32t-20 -89t20.5 -88t61.5 -31q78 0 78 119z" />
<glyph unicode="&#x11e;" horiz-adv-x="642" d="M438 916l51 4q-7 -62 -45.5 -101.5t-101.5 -39.5q-56 0 -94 35t-44 95l51 8q9 -25 34 -39.5t59 -14.5q33 0 57.5 15t32.5 38zM572 315l14 -14l-3 -267q-43 -20 -100 -32t-113 -12q-101 0 -173 41t-109.5 116.5t-37.5 180.5q0 111 41.5 194.5t118 129.5t180.5 46 q50 0 97.5 -10.5t82.5 -28.5l-22 -111q-30 21 -69 34t-83 13q-95 0 -154 -65.5t-59 -191.5q0 -74 22 -129.5t67 -87t112 -31.5q36 0 79 8v12q0 46 -1 77t-4 58t-7 60z" />
<glyph unicode="&#x11f;" horiz-adv-x="513" d="M336 750l51 4q-6 -74 -45 -120.5t-102 -46.5q-56 0 -94 42t-43 114l51 8q8 -38 33 -59t59 -21q33 0 57.5 22t32.5 57zM105 63q0 28 14.5 50t38.5 39q-52 19 -83.5 61t-31.5 102q0 52 24.5 96t70.5 70.5t110 26.5q37 0 67 -9t50 -24q18 30 50.5 44.5t66.5 14.5l15 -11 l-3 -83h-102q19 -15 35 -44.5t16 -74.5q0 -51 -24.5 -92.5t-69.5 -66.5t-106 -25q-18 0 -35 3q-8 -15 -8 -30q0 -23 12.5 -32t38.5 -11l90 -6q43 -3 78.5 -17.5t56.5 -42.5t21 -71q0 -53 -32 -95.5t-91.5 -67.5t-141.5 -25q-101 0 -160.5 37t-59.5 92q0 37 24 61t51 33 l46 -20q-5 -7 -9.5 -16.5t-4.5 -20.5q0 -40 33.5 -72t95.5 -32q55 0 89.5 26t34.5 67q0 34 -23.5 52.5t-64.5 22.5l-82 8q-97 9 -97 83zM323 322q0 57 -19 89t-59 32q-42 0 -62 -32t-20 -89t20.5 -88t61.5 -31q78 0 78 119z" />
<glyph unicode="&#x120;" horiz-adv-x="642" d="M425 861q0 -34 -23.5 -57t-60.5 -23q-32 0 -52 18.5t-20 46.5q0 31 25.5 54.5t61.5 23.5q30 0 49.5 -17.5t19.5 -45.5zM572 315l14 -14l-3 -267q-43 -20 -100 -32t-113 -12q-101 0 -173 41t-109.5 116.5t-37.5 180.5q0 111 41.5 194.5t118 129.5t180.5 46 q50 0 97.5 -10.5t82.5 -28.5l-22 -111q-30 21 -69 34t-83 13q-95 0 -154 -65.5t-59 -191.5q0 -74 22 -129.5t67 -87t112 -31.5q36 0 79 8v12q0 46 -1 77t-4 58t-7 60z" />
<glyph unicode="&#x121;" horiz-adv-x="513" d="M324 672q0 -34 -23.5 -60t-59.5 -26q-33 0 -52.5 21.5t-19.5 50.5q0 34 25.5 59.5t60.5 25.5q31 0 50 -19.5t19 -51.5zM105 63q0 28 14.5 50t38.5 39q-52 19 -83.5 61t-31.5 102q0 52 24.5 96t70.5 70.5t110 26.5q37 0 67 -9t50 -24q18 30 50.5 44.5t66.5 14.5l15 -11 l-3 -83h-102q19 -15 35 -44.5t16 -74.5q0 -51 -24.5 -92.5t-69.5 -66.5t-106 -25q-18 0 -35 3q-8 -15 -8 -30q0 -23 12.5 -32t38.5 -11l90 -6q43 -3 78.5 -17.5t56.5 -42.5t21 -71q0 -53 -32 -95.5t-91.5 -67.5t-141.5 -25q-101 0 -160.5 37t-59.5 92q0 37 24 61t51 33 l46 -20q-5 -7 -9.5 -16.5t-4.5 -20.5q0 -40 33.5 -72t95.5 -32q55 0 89.5 26t34.5 67q0 34 -23.5 52.5t-64.5 22.5l-82 8q-97 9 -97 83zM323 322q0 57 -19 89t-59 32q-42 0 -62 -32t-20 -89t20.5 -88t61.5 -31q78 0 78 119z" />
<glyph unicode="&#x122;" horiz-adv-x="642" d="M572 315l14 -14l-3 -267q-43 -20 -100 -32t-113 -12q-101 0 -173 41t-109.5 116.5t-37.5 180.5q0 111 41.5 194.5t118 129.5t180.5 46q50 0 97.5 -10.5t82.5 -28.5l-22 -111q-30 21 -69 34t-83 13q-95 0 -154 -65.5t-59 -191.5q0 -74 22 -129.5t67 -87t112 -31.5 q36 0 79 8v12q0 46 -1 77t-4 58t-7 60zM300 -318q16 21 30 45.5t21 49.5q-22 3 -37.5 20.5t-15.5 42.5q0 28 19.5 50t51.5 22q27 0 47 -19.5t20 -57.5q0 -36 -16 -70t-38.5 -63.5t-42.5 -50.5z" />
<glyph unicode="&#x123;" horiz-adv-x="513" d="M309 802q-16 -21 -29.5 -45.5t-21.5 -49.5q23 -3 38 -20.5t15 -42.5q0 -28 -19.5 -50t-51.5 -22q-27 0 -47 19.5t-20 57.5q0 36 16 70t38.5 63.5t42.5 50.5zM105 63q0 28 14.5 50t38.5 39q-52 19 -83.5 61t-31.5 102q0 52 24.5 96t70.5 70.5t110 26.5q37 0 67 -9t50 -24 q18 30 50.5 44.5t66.5 14.5l15 -11l-3 -83h-102q19 -15 35 -44.5t16 -74.5q0 -51 -24.5 -92.5t-69.5 -66.5t-106 -25q-18 0 -35 3q-8 -15 -8 -30q0 -23 12.5 -32t38.5 -11l90 -6q43 -3 78.5 -17.5t56.5 -42.5t21 -71q0 -53 -32 -95.5t-91.5 -67.5t-141.5 -25 q-101 0 -160.5 37t-59.5 92q0 37 24 61t51 33l46 -20q-5 -7 -9.5 -16.5t-4.5 -20.5q0 -40 33.5 -72t95.5 -32q55 0 89.5 26t34.5 67q0 34 -23.5 52.5t-64.5 22.5l-82 8q-97 9 -97 83zM323 322q0 57 -19 89t-59 32q-42 0 -62 -32t-20 -89t20.5 -88t61.5 -31q78 0 78 119z" />
<glyph unicode="&#x124;" horiz-adv-x="710" d="M224 771l-34 30q34 30 63 59.5t55 59.5l88 8q28 -32 58 -63.5t66 -63.5l-34 -30q-37 17 -70 36t-63 38q-30 -19 -62 -38t-67 -36zM213 0h-128v517q0 48 -2.5 90.5t-6.5 80.5l123 10l14 -14v-296h283v129q0 48 -2 90.5t-7 80.5l124 10l14 -14v-684h-129v295h-283v-295z " />
<glyph unicode="&#x125;" horiz-adv-x="572" d="M1 810l-34 29q34 31 63 60.5t55 59.5l88 8q28 -32 58 -63.5t66 -64.5l-34 -29q-37 17 -70 36t-64 38q-29 -19 -61 -38t-67 -36zM199 0h-125v577q0 44 -3 83t-9 83l122 15l15 -14v-303q74 67 157 67q64 0 100.5 -40t36.5 -113v-355h-126v331q0 90 -73 90q-46 0 -95 -37 v-384z" />
<glyph unicode="&#x126;" horiz-adv-x="710" d="M213 0h-128v493h-70v67h69q-1 71 -8 128l123 10l14 -14v-124h283q-2 71 -9 128l124 10l14 -14v-124h71v-67h-71v-493h-129v295h-283v-295zM213 388h283v105h-283v-105z" />
<glyph unicode="&#x127;" horiz-adv-x="572" d="M199 0h-125v573h-88v67h86q-2 51 -10 103l122 15l15 -14v-104h163v-67h-163v-132q74 67 157 67q64 0 100.5 -40t36.5 -113v-355h-126v331q0 90 -73 90q-46 0 -95 -37v-384z" />
<glyph unicode="&#x128;" horiz-adv-x="298" d="M72 922q31 0 55.5 -14t47 -28t47.5 -14q22 0 36 13.5t26 34.5l33 -5q-1 -32 -12.5 -61t-33 -48t-54.5 -19q-30 0 -56 14t-50.5 28t-47.5 14q-19 0 -33.5 -12.5t-27.5 -35.5l-33 5q2 30 12 59.5t32 49t59 19.5zM213 0h-128v517q0 48 -2.5 90.5t-6.5 80.5l123 10l14 -14 v-684z" />
<glyph unicode="&#x129;" horiz-adv-x="281" d="M83 744q24 0 44 -14.5t37.5 -28.5t34.5 -14q15 0 25.5 13t18.5 36l33 -6q-1 -32 -9.5 -64.5t-26 -54t-46.5 -21.5q-22 0 -43.5 14.5t-40 28.5t-31.5 14q-15 0 -26 -13t-19 -36l-33 6q1 32 9.5 64.5t26.5 54t46 21.5zM77 0v327q0 44 -2.5 83t-9.5 83l123 15l14 -14v-494 h-125z" />
<glyph unicode="&#x12a;" horiz-adv-x="298" d="M3 812v74h281v-74h-281zM213 0h-128v517q0 48 -2.5 90.5t-6.5 80.5l123 10l14 -14v-684z" />
<glyph unicode="&#x12b;" horiz-adv-x="281" d="M18 629v72h241v-72h-241zM77 0v327q0 44 -2.5 83t-9.5 83l123 15l14 -14v-494h-125z" />
<glyph unicode="&#x12c;" horiz-adv-x="298" d="M234 916l51 4q-6 -62 -45 -101.5t-101 -39.5q-56 0 -94.5 35t-43.5 95l51 8q8 -25 33 -39.5t59 -14.5t58 15t32 38zM213 0h-128v517q0 48 -2.5 90.5t-6.5 80.5l123 10l14 -14v-684z" />
<glyph unicode="&#x12d;" horiz-adv-x="281" d="M213 744l51 4q-5 -74 -39.5 -120.5t-90.5 -46.5q-49 0 -82.5 42t-38.5 114l51 8q6 -38 26 -59.5t50 -21.5q29 0 48.5 22.5t24.5 57.5zM77 0v327q0 44 -2.5 83t-9.5 83l123 15l14 -14v-494h-125z" />
<glyph unicode="&#x12e;" horiz-adv-x="286" d="M208 0q-33 -28 -51 -60t-18 -62q0 -47 48 -47q11 0 24.5 3t30.5 10l19 -45q-23 -19 -54 -31.5t-64 -12.5q-47 0 -77 26t-30 72q0 39 26 78.5t68 68.5h-45v517q0 48 -2.5 90.5t-6.5 80.5l123 10l14 -14v-684h-5z" />
<glyph unicode="&#x12f;" horiz-adv-x="281" d="M217 672q0 -34 -24 -60t-60 -26q-33 0 -52.5 21.5t-19.5 50.5q0 34 25.5 59.5t61.5 25.5q30 0 49.5 -19.5t19.5 -51.5zM77 0v327q0 44 -2.5 83t-9.5 83l123 15l14 -14v-494q-73 -55 -73 -114q0 -23 13.5 -37t39.5 -14q11 0 24 3t26 10l19 -45q-23 -19 -54 -31.5 t-63 -12.5q-48 0 -78 26t-30 71q0 38 26 76t71 68h-46z" />
<glyph unicode="&#x130;" horiz-adv-x="298" d="M222 861q0 -34 -23.5 -57t-61.5 -23q-31 0 -51.5 18.5t-20.5 46.5q0 31 26 54.5t62 23.5q29 0 49 -17.5t20 -45.5zM213 0h-128v517q0 48 -2.5 90.5t-6.5 80.5l123 10l14 -14v-684z" />
<glyph unicode="&#x131;" horiz-adv-x="281" d="M77 0v327q0 44 -2.5 83t-9.5 83l123 15l14 -14v-494h-125z" />
<glyph unicode="&#x132;" horiz-adv-x="591" d="M213 0h-128v517q0 48 -2.5 90.5t-6.5 80.5l123 10l14 -14v-684zM338 -208l-40 56q39 43 59.5 105.5t20.5 148.5v415q0 44 -3 83.5t-9 82.5l127 15l13 -13v-583q0 -79 -15.5 -135.5t-52 -98t-100.5 -76.5z" />
<glyph unicode="&#x133;" horiz-adv-x="564" d="M217 672q0 -34 -24 -60t-60 -26q-33 0 -52.5 21.5t-19.5 50.5q0 34 25.5 59.5t61.5 25.5q30 0 49.5 -19.5t19.5 -51.5zM498 672q0 -34 -24 -60t-60 -26q-33 0 -52.5 21.5t-19.5 50.5q0 34 25.5 59.5t60.5 25.5q31 0 50.5 -19.5t19.5 -51.5zM77 0v327q0 44 -2.5 83 t-9.5 83l123 15l14 -14v-494h-125zM337 -258l-47 46q31 38 50.5 89.5t19.5 126.5v323q0 44 -3 83t-9 83l123 15l14 -14v-484q0 -67 -14.5 -116t-47 -85.5t-86.5 -66.5z" />
<glyph unicode="&#x134;" horiz-adv-x="293" d="M12 771l-33 30q34 30 63 59.5t55 59.5l88 8q27 -32 57.5 -63.5t65.5 -63.5l-33 -30q-37 17 -70 36t-64 38q-29 -19 -61 -38t-68 -36zM40 -208l-40 56q39 43 59.5 105.5t20.5 148.5v415q0 44 -3 83.5t-9 82.5l127 15l13 -13v-583q0 -79 -15.5 -135.5t-52 -98t-100.5 -76.5 z" />
<glyph unicode="&#x135;" horiz-adv-x="283" d="M57 571l-43 18q18 42 33.5 83.5t28.5 84.5l119 8q29 -91 66 -176l-42 -18q-24 24 -44 51.5t-39 56.5q-18 -29 -37.5 -56.5t-41.5 -51.5zM55 -258l-47 46q32 38 51 89.5t19 126.5v323q0 44 -2.5 83t-8.5 83l122 15l14 -14v-484q0 -67 -14.5 -116t-47 -85.5t-86.5 -66.5z " />
<glyph unicode="&#x136;" horiz-adv-x="625" d="M85 517q0 46 -2 86.5t-7 84.5l123 10l14 -14v-310h79q41 74 87 158.5t89 165.5l117 -11l8 -14l-196 -317l219 -356l-146 -7q-45 69 -89.5 142t-87.5 145h-80v-280h-128v517zM251 -318q16 21 30 45.5t21 49.5q-23 3 -38 20.5t-15 42.5q0 28 19.5 50t51.5 22q27 0 47 -19.5 t20 -57.5q0 -36 -16 -70t-38.5 -63.5t-42.5 -50.5z" />
<glyph unicode="&#x137;" horiz-adv-x="533" d="M74 577q0 44 -3 83.5t-9 82.5l122 15l15 -14v-463h55q30 49 63.5 109t65.5 118l102 -11l8 -14l-135 -196q37 -68 78 -138t87 -149l-141 -10q-31 52 -63 110t-61 114h-59v-214h-125v577zM206 -318q15 21 29 45.5t21 49.5q-22 3 -37 20.5t-15 42.5q0 28 19.5 50t51.5 22 q27 0 46.5 -19.5t19.5 -57.5q0 -36 -15.5 -70t-38 -63.5t-42.5 -50.5z" />
<glyph unicode="&#x138;" horiz-adv-x="533" d="M74 327q0 44 -3 83.5t-9 82.5l122 15l15 -14v-213h55q30 49 63.5 109t65.5 118l102 -11l8 -14l-135 -196q37 -68 78 -138t87 -149l-141 -10q-31 52 -63 110t-61 114h-59v-214h-125v327z" />
<glyph unicode="&#x139;" horiz-adv-x="505" d="M378 864l-7 -21q-62 -33 -129 -49t-138 -20l-10 32q55 27 108.5 58.5t98.5 66.5zM489 100v-100h-404v517q0 49 -2.5 91t-6.5 80l123 10l14 -14v-591z" />
<glyph unicode="&#x13a;" horiz-adv-x="281" d="M285 919l-6 -21q-63 -32 -130 -48.5t-138 -20.5l-10 32q55 27 108.5 58.5t98.5 66.5zM202 0h-125v577q0 44 -3 83.5t-9 82.5l123 15l14 -14v-744z" />
<glyph unicode="&#x13b;" horiz-adv-x="505" d="M489 100v-100h-404v517q0 49 -2.5 91t-6.5 80l123 10l14 -14v-591zM225 -318q16 21 30 45.5t21 49.5q-22 3 -37.5 20.5t-15.5 42.5q0 28 20 50t51 22q27 0 47 -19.5t20 -57.5q0 -36 -15.5 -70t-38 -63.5t-43.5 -50.5z" />
<glyph unicode="&#x13c;" horiz-adv-x="281" d="M202 0h-125v577q0 44 -3 83.5t-9 82.5l123 15l14 -14v-744zM74 -318q15 21 29 45.5t21 49.5q-22 3 -37 20.5t-15 42.5q0 28 19.5 50t51.5 22q27 0 46.5 -19.5t19.5 -57.5q0 -36 -15.5 -70t-38 -63.5t-42.5 -50.5z" />
<glyph unicode="&#x13d;" horiz-adv-x="505" d="M435 763l9 -21q-16 -59 -40 -111t-52 -100l-42 3q9 56 16 113.5t10 112.5zM489 100v-100h-404v517q0 49 -2.5 91t-6.5 80l123 10l14 -14v-591z" />
<glyph unicode="&#x13e;" horiz-adv-x="281" d="M391 774l8 -21q-15 -59 -39 -111t-52 -100l-43 3q10 56 17 113.5t9 112.5zM202 0h-125v577q0 44 -3 83.5t-9 82.5l123 15l14 -14v-744z" />
<glyph unicode="&#x13f;" horiz-adv-x="505" d="M461 367q0 -34 -23.5 -57.5t-57.5 -23.5t-56 22.5t-22 54.5q0 34 25 58t59 24q32 0 53.5 -21.5t21.5 -56.5zM489 100v-100h-404v517q0 49 -2.5 91t-6.5 80l123 10l14 -14v-591z" />
<glyph unicode="&#x140;" horiz-adv-x="539" d="M202 0h-125v577q0 44 -3 83.5t-9 82.5l123 15l14 -14v-744zM488 321q0 -34 -23.5 -57.5t-57.5 -23.5t-56 22.5t-22 54.5q0 34 25 58t59 24q32 0 53.5 -21.5t21.5 -56.5z" />
<glyph unicode="&#x141;" horiz-adv-x="505" d="M489 100v-100h-404v268l-85 -47l-31 56l116 64v176q0 49 -2.5 91t-6.5 80l123 10l14 -14v-272l117 65l31 -57l-148 -81v-246z" />
<glyph unicode="&#x142;" horiz-adv-x="281" d="M202 0h-125v349l-101 -56l-31 57l132 73v154q0 44 -3 83.5t-9 82.5l123 15l14 -14v-252l104 57l31 -56l-135 -75v-418z" />
<glyph unicode="&#x143;" horiz-adv-x="706" d="M485 864l-7 -21q-62 -33 -129 -49t-138 -20l-10 32q55 27 108.5 58.5t98.5 66.5zM370 419q42 -69 75 -127t61 -123h3q-3 31 -5 56.5t-3 57.5t-1.5 79.5t-0.5 119.5q0 58 -2 108.5t-7 97.5l118 9l14 -14v-683h-124q-47 76 -86.5 144.5t-78.5 131.5q-42 68 -73.5 123 t-59.5 114h-2q7 -61 8 -113t1 -102v-298h-122v522q0 44 -2.5 86t-6.5 80l130 8q47 -79 87 -147t77 -130z" />
<glyph unicode="&#x144;" horiz-adv-x="577" d="M377 754l7 -21q-31 -48 -70.5 -88t-87.5 -75l-47 11q25 45 47.5 91.5t37.5 92.5zM204 0h-125v328q0 44 -5 80.5t-15 76.5l117 23q14 -36 22 -73q76 73 163 73q64 0 100.5 -40t36.5 -113v-355h-126v331q0 90 -73 90q-46 0 -95 -37v-384z" />
<glyph unicode="&#x145;" horiz-adv-x="706" d="M370 419q42 -69 75 -127t61 -123h3q-3 31 -5 56.5t-3 57.5t-1.5 79.5t-0.5 119.5q0 58 -2 108.5t-7 97.5l118 9l14 -14v-683h-124q-47 76 -86.5 144.5t-78.5 131.5q-42 68 -73.5 123t-59.5 114h-2q7 -61 8 -113t1 -102v-298h-122v522q0 44 -2.5 86t-6.5 80l130 8 q47 -79 87 -147t77 -130zM293 -318q16 21 29.5 45.5t21.5 49.5q-23 3 -38 20.5t-15 42.5q0 28 19.5 50t51.5 22q27 0 47 -19.5t20 -57.5q0 -36 -16 -70t-38.5 -63.5t-42.5 -50.5z" />
<glyph unicode="&#x146;" horiz-adv-x="577" d="M204 0h-125v328q0 44 -5 80.5t-15 76.5l117 23q14 -36 22 -73q76 73 163 73q64 0 100.5 -40t36.5 -113v-355h-126v331q0 90 -73 90q-46 0 -95 -37v-384zM219 -318q16 21 29.5 45.5t21.5 49.5q-23 3 -38 20.5t-15 42.5q0 28 19.5 50t51.5 22q27 0 47 -19.5t20 -57.5 q0 -36 -16 -70t-38.5 -63.5t-42.5 -50.5z" />
<glyph unicode="&#x147;" horiz-adv-x="706" d="M473 931l34 -29q-34 -31 -63 -60.5t-55 -59.5l-88 -8q-28 32 -58 63.5t-66 64.5l34 29q37 -17 70 -36t63 -38q30 19 62 38t67 36zM370 419q42 -69 75 -127t61 -123h3q-3 31 -5 56.5t-3 57.5t-1.5 79.5t-0.5 119.5q0 58 -2 108.5t-7 97.5l118 9l14 -14v-683h-124 q-47 76 -86.5 144.5t-78.5 131.5q-42 68 -73.5 123t-59.5 114h-2q7 -61 8 -113t1 -102v-298h-122v522q0 44 -2.5 86t-6.5 80l130 8q47 -79 87 -147t77 -130z" />
<glyph unicode="&#x148;" horiz-adv-x="577" d="M401 771l40 -29q-31 -40 -58 -80t-51 -80l-88 -8q-25 42 -53 83.5t-61 84.5l40 29q32 -24 61 -51.5t57 -54.5q26 27 54 54.5t59 51.5zM204 0h-125v328q0 44 -5 80.5t-15 76.5l117 23q14 -36 22 -73q76 73 163 73q64 0 100.5 -40t36.5 -113v-355h-126v331q0 90 -73 90 q-46 0 -95 -37v-384z" />
<glyph unicode="&#x14a;" horiz-adv-x="706" d="M450 -194l-37 48q33 33 53.5 67.5t25.5 88.5q-44 72 -83 139t-76 127q-42 68 -73.5 123t-59.5 114h-2q7 -61 8 -113t1 -102v-298h-122v522q0 44 -2.5 86t-6.5 80l130 8q47 -79 87 -147t77 -130q42 -69 75 -127t61 -123h3q-3 31 -5 56.5t-3 57.5t-1.5 79.5t-0.5 119.5 q0 58 -2 108.5t-7 97.5l118 9l14 -14v-581q0 -77 -15.5 -131.5t-53 -93.5t-103.5 -71z" />
<glyph unicode="&#x14b;" horiz-adv-x="577" d="M204 0h-125v328q0 44 -5 80.5t-15 76.5l117 23q14 -36 22 -73q76 73 163 73q64 0 100.5 -40t36.5 -113v-319q0 -63 -12 -109.5t-39.5 -84t-72.5 -74.5l-50 45q20 42 34 95.5t14 127.5v295q0 90 -73 90q-46 0 -95 -37v-384z" />
<glyph unicode="&#x14c;" horiz-adv-x="707" d="M217 806v74h281v-74h-281zM657 346q0 -116 -42 -195.5t-112.5 -120t-156.5 -40.5t-153 40.5t-105 117t-38 185.5q0 112 40.5 194t111 126.5t160.5 44.5q89 0 155.5 -43.5t103 -122.5t36.5 -186zM183 345q0 -74 19 -132t57 -92t95 -34q85 0 127.5 70t42.5 186 q0 75 -17.5 133t-54.5 91.5t-94 33.5q-83 0 -129 -69.5t-46 -186.5z" />
<glyph unicode="&#x14d;" horiz-adv-x="563" d="M139 629v72h285v-72h-285zM513 252q0 -87 -33 -145t-87 -87.5t-118 -29.5t-115 29.5t-80 85.5t-29 137q0 85 32 144.5t86 90.5t119 31q67 0 117.5 -31t79 -88.5t28.5 -136.5zM180 252q0 -84 24.5 -135.5t77.5 -51.5q50 0 75.5 48t25.5 132q0 86 -24 137t-77 51 q-48 0 -75 -45t-27 -136z" />
<glyph unicode="&#x14e;" horiz-adv-x="707" d="M449 910l51 4q-7 -62 -46 -101.5t-101 -39.5q-56 0 -94.5 35t-43.5 95l51 8q9 -26 33.5 -40t58.5 -14t58 15t33 38zM657 346q0 -116 -42 -195.5t-112.5 -120t-156.5 -40.5t-153 40.5t-105 117t-38 185.5q0 112 40.5 194t111 126.5t160.5 44.5q89 0 155.5 -43.5 t103 -122.5t36.5 -186zM183 345q0 -74 19 -132t57 -92t95 -34q85 0 127.5 70t42.5 186q0 75 -17.5 133t-54.5 91.5t-94 33.5q-83 0 -129 -69.5t-46 -186.5z" />
<glyph unicode="&#x14f;" horiz-adv-x="563" d="M372 750l51 4q-7 -74 -46 -120.5t-101 -46.5q-56 0 -94.5 42t-43.5 114l51 8q9 -38 33.5 -59t58.5 -21t58 22t33 57zM513 252q0 -87 -33 -145t-87 -87.5t-118 -29.5t-115 29.5t-80 85.5t-29 137q0 85 32 144.5t86 90.5t119 31q67 0 117.5 -31t79 -88.5t28.5 -136.5z M180 252q0 -84 24.5 -135.5t77.5 -51.5q50 0 75.5 48t25.5 132q0 86 -24 137t-77 51q-48 0 -75 -45t-27 -136z" />
<glyph unicode="&#x150;" horiz-adv-x="707" d="M358 860l-6 -21q-49 -34 -102.5 -50.5t-111.5 -20.5l-10 32q45 27 88.5 58.5t79.5 66.5zM587 860l-7 -21q-48 -34 -102 -50.5t-111 -20.5l-10 32q44 27 87.5 58.5t80.5 66.5zM657 346q0 -116 -42 -195.5t-112.5 -120t-156.5 -40.5t-153 40.5t-105 117t-38 185.5 q0 112 40.5 194t111 126.5t160.5 44.5q89 0 155.5 -43.5t103 -122.5t36.5 -186zM183 345q0 -74 19 -132t57 -92t95 -34q85 0 127.5 70t42.5 186q0 75 -17.5 133t-54.5 91.5t-94 33.5q-83 0 -129 -69.5t-46 -186.5z" />
<glyph unicode="&#x151;" horiz-adv-x="563" d="M284 757l7 -22q-27 -48 -61 -88.5t-75 -75.5l-47 12q26 43 48 90t37 94zM446 757l7 -22q-27 -48 -61 -88.5t-76 -75.5l-46 12q26 43 48 90t37 94zM513 252q0 -87 -33 -145t-87 -87.5t-118 -29.5t-115 29.5t-80 85.5t-29 137q0 85 32 144.5t86 90.5t119 31q67 0 117.5 -31 t79 -88.5t28.5 -136.5zM180 252q0 -84 24.5 -135.5t77.5 -51.5q50 0 75.5 48t25.5 132q0 86 -24 137t-77 51q-48 0 -75 -45t-27 -136z" />
<glyph unicode="&#x152;" horiz-adv-x="953" d="M920 100v-100h-492q-39 -10 -82 -10q-86 0 -153 40.5t-105 117t-38 185.5q0 112 40.5 194t111 126.5t160.5 44.5q42 0 79 -10h458l14 -14l-3 -86l-327 6q31 -40 50 -93t23 -118l208 4l-3 -93l-206 5q-6 -64 -26 -115.5t-51 -89.5zM183 345q0 -74 19 -132t57 -92t95 -34 q85 0 127.5 70t42.5 186q0 75 -17.5 133t-54.5 91.5t-94 33.5q-83 0 -129 -69.5t-46 -186.5z" />
<glyph unicode="&#x153;" horiz-adv-x="855" d="M810 251l-15 -15h-281q7 -81 47 -118.5t102 -37.5q36 0 67.5 10.5t57.5 25.5l7 -83q-22 -15 -66 -29t-95 -14q-61 0 -108.5 22.5t-79.5 62.5q-32 -41 -77.5 -63t-97.5 -22q-61 0 -111 29.5t-79.5 85.5t-29.5 137q0 85 32 144.5t85 90.5t116 31q55 0 97.5 -23t71.5 -63 q31 40 74.5 63t95.5 23q56 0 98 -25.5t66 -71t24 -105.5v-26.5t-1 -28.5zM180 252q0 -84 24.5 -135.5t77.5 -51.5q50 0 75.5 48t25.5 133t-24 136t-77 51q-48 0 -75 -45t-27 -136zM613 433q-42 0 -69.5 -40t-30.5 -111l174 7q1 17 1 34q0 49 -19 79.5t-56 30.5z" />
<glyph unicode="&#x154;" horiz-adv-x="606" d="M450 858l-7 -21q-62 -33 -129 -49t-138 -20l-10 32q55 27 108.5 58.5t98.5 66.5zM213 0h-128v522q0 44 -1.5 83.5t-7.5 82.5h210q128 0 198 -58t70 -157q0 -73 -35.5 -120t-89.5 -69l158 -284l-146 -7q-32 62 -63.5 127t-60.5 131h-104v-251zM277 595h-64v-255h63 q75 0 110 33.5t35 92.5q0 57 -33 93t-111 36z" />
<glyph unicode="&#x155;" horiz-adv-x="399" d="M304 754l7 -21q-31 -48 -70.5 -88t-87.5 -75l-47 11q26 45 48 91.5t37 92.5zM204 0h-125v328q0 44 -5 80.5t-15 76.5l117 23q9 -24 16.5 -51t10.5 -53q27 46 59.5 75t73.5 29q15 0 28.5 -4t20.5 -10l-13 -118q-13 4 -26.5 6t-29.5 2q-25 0 -56 -9.5t-56 -30.5v-344z" />
<glyph unicode="&#x156;" horiz-adv-x="606" d="M213 0h-128v522q0 44 -1.5 83.5t-7.5 82.5h210q128 0 198 -58t70 -157q0 -73 -35.5 -120t-89.5 -69l158 -284l-146 -7q-32 62 -63.5 127t-60.5 131h-104v-251zM277 595h-64v-255h63q75 0 110 33.5t35 92.5q0 57 -33 93t-111 36zM243 -318q15 21 29 45.5t21 49.5 q-22 3 -37 20.5t-15 42.5q0 28 19.5 50t50.5 22q28 0 47.5 -19.5t19.5 -57.5q0 -36 -15.5 -70t-38 -63.5t-42.5 -50.5z" />
<glyph unicode="&#x157;" horiz-adv-x="399" d="M204 0h-125v328q0 44 -5 80.5t-15 76.5l117 23q9 -24 16.5 -51t10.5 -53q27 46 59.5 75t73.5 29q15 0 28.5 -4t20.5 -10l-13 -118q-13 4 -26.5 6t-29.5 2q-25 0 -56 -9.5t-56 -30.5v-344zM74 -318q15 21 29 45.5t21 49.5q-22 3 -37 20.5t-15 42.5q0 28 19.5 50t50.5 22 q28 0 47.5 -19.5t19.5 -57.5q0 -36 -15.5 -70t-38 -63.5t-42.5 -50.5z" />
<glyph unicode="&#x158;" horiz-adv-x="606" d="M438 925l34 -30q-34 -30 -63 -59.5t-55 -59.5l-88 -8q-28 32 -58 63.5t-65 63.5l33 30q37 -17 70 -36t64 -38q29 19 61 38t67 36zM213 0h-128v522q0 44 -1.5 83.5t-7.5 82.5h210q128 0 198 -58t70 -157q0 -73 -35.5 -120t-89.5 -69l158 -284l-146 -7q-32 62 -63.5 127 t-60.5 131h-104v-251zM277 595h-64v-255h63q75 0 110 33.5t35 92.5q0 57 -33 93t-111 36z" />
<glyph unicode="&#x159;" horiz-adv-x="399" d="M328 771l40 -29q-31 -40 -58 -80t-51 -80l-88 -8q-25 42 -53 83.5t-61 84.5l40 29q32 -24 61.5 -51.5t56.5 -54.5q26 27 54 54.5t59 51.5zM204 0h-125v328q0 44 -5 80.5t-15 76.5l117 23q9 -24 16.5 -51t10.5 -53q27 46 59.5 75t73.5 29q15 0 28.5 -4t20.5 -10l-13 -118 q-13 4 -26.5 6t-29.5 2q-25 0 -56 -9.5t-56 -30.5v-344z" />
<glyph unicode="&#x15a;" horiz-adv-x="531" d="M419 858l-7 -21q-62 -33 -129 -49t-138 -20l-10 32q55 27 108.5 58.5t98.5 66.5zM481 183q0 -62 -31 -105t-86 -65.5t-127 -22.5q-47 0 -100.5 9.5t-86.5 27.5l9 109q26 -15 59 -25.5t65 -15.5t56 -5q53 0 81.5 22.5t28.5 61.5q0 36 -21.5 60.5t-55 42.5t-70.5 37 t-71 42.5t-56 58.5t-22 88q0 62 32 105.5t88.5 66.5t129.5 23q44 0 88 -8t72 -20l-16 -111q-35 20 -74 29.5t-72 9.5q-56 0 -86 -23t-30 -62q0 -35 22 -58t55.5 -40.5t69.5 -36.5q36 -18 70 -42.5t56.5 -61t22.5 -91.5z" />
<glyph unicode="&#x15b;" horiz-adv-x="445" d="M317 754l8 -21q-32 -48 -71.5 -88t-87.5 -75l-46 11q25 45 47.5 91.5t37.5 92.5zM389 480l-9 -96q-35 19 -70.5 29.5t-64.5 10.5q-37 0 -58 -15t-21 -40q0 -22 17.5 -37.5t44.5 -28t57.5 -26t57.5 -31.5t44.5 -44.5t17.5 -65.5q0 -66 -54.5 -106t-145.5 -40 q-43 0 -88 9.5t-76 26.5l9 95q40 -23 83.5 -35t74.5 -12q38 0 57 15t19 38q0 22 -17 37.5t-44 28t-57.5 26t-57.5 31.5t-44.5 44t-17.5 65q0 67 55 108t145 41q72 0 143 -28z" />
<glyph unicode="&#x15c;" horiz-adv-x="531" d="M145 765l-34 30q35 30 64 59.5t55 59.5l88 8q27 -32 57.5 -63.5t65.5 -63.5l-34 -30q-36 17 -69.5 36t-63.5 38q-29 -19 -61 -38t-68 -36zM481 183q0 -62 -31 -105t-86 -65.5t-127 -22.5q-47 0 -100.5 9.5t-86.5 27.5l9 109q26 -15 59 -25.5t65 -15.5t56 -5 q53 0 81.5 22.5t28.5 61.5q0 36 -21.5 60.5t-55 42.5t-70.5 37t-71 42.5t-56 58.5t-22 88q0 62 32 105.5t88.5 66.5t129.5 23q44 0 88 -8t72 -20l-16 -111q-35 20 -74 29.5t-72 9.5q-56 0 -86 -23t-30 -62q0 -35 22 -58t55.5 -40.5t69.5 -36.5q36 -18 70 -42.5t56.5 -61 t22.5 -91.5z" />
<glyph unicode="&#x15d;" horiz-adv-x="445" d="M110 563l-39 28q31 41 57.5 80.5t51.5 79.5l88 8q25 -42 53 -83.5t61 -84.5l-40 -28q-32 23 -61.5 50.5t-56.5 54.5q-26 -27 -54.5 -54t-59.5 -51zM389 480l-9 -96q-35 19 -70.5 29.5t-64.5 10.5q-37 0 -58 -15t-21 -40q0 -22 17.5 -37.5t44.5 -28t57.5 -26t57.5 -31.5 t44.5 -44.5t17.5 -65.5q0 -66 -54.5 -106t-145.5 -40q-43 0 -88 9.5t-76 26.5l9 95q40 -23 83.5 -35t74.5 -12q38 0 57 15t19 38q0 22 -17 37.5t-44 28t-57.5 26t-57.5 31.5t-44.5 44t-17.5 65q0 67 55 108t145 41q72 0 143 -28z" />
<glyph unicode="&#x15e;" horiz-adv-x="531" d="M390 -140q0 -38 -29 -60.5t-73 -33t-89 -11.5l1 45q46 5 72 19t26 37q0 18 -18.5 27t-51.5 10l-14 23l22 74q-47 0 -100 9.5t-86 27.5l9 109q26 -15 59 -25.5t65 -15.5t56 -5q53 0 81.5 22.5t28.5 61.5q0 36 -21.5 60.5t-55 42.5t-70.5 37t-71 42.5t-56 58.5t-22 88 q0 62 32 105.5t88.5 66.5t129.5 23q44 0 88 -8t72 -20l-16 -111q-35 20 -74 29.5t-72 9.5q-56 0 -86 -23t-30 -62q0 -35 22 -58t55.5 -40.5t69.5 -36.5q36 -18 70 -42.5t56.5 -61t22.5 -91.5q0 -77 -48 -125t-127 -62l-18 -54q25 -4 48.5 -13t38.5 -25.5t15 -43.5z" />
<glyph unicode="&#x15f;" horiz-adv-x="445" d="M343 -140q0 -38 -29 -60.5t-73 -33t-89 -11.5l1 45q46 5 72 19t26 37q0 18 -18.5 27t-51.5 10l-15 23l23 74q-40 2 -80 11t-68 25l9 95q40 -23 83.5 -35t74.5 -12q38 0 57 15t19 38q0 22 -17 37.5t-44 28t-57.5 26t-57.5 31.5t-44.5 44t-17.5 65q0 67 55 108t145 41 q72 0 143 -28l-9 -96q-35 19 -70.5 29.5t-64.5 10.5q-37 0 -58 -15t-21 -40q0 -22 17.5 -37.5t44.5 -28t57.5 -26t57.5 -31.5t44.5 -44.5t17.5 -65.5q0 -56 -39.5 -93.5t-107.5 -48.5l-17 -52q25 -4 48.5 -13t38.5 -25.5t15 -43.5z" />
<glyph unicode="&#x160;" horiz-adv-x="531" d="M407 925l34 -30q-34 -30 -63 -59.5t-55 -59.5l-88 -8q-28 32 -58 63.5t-66 63.5l34 30q37 -17 70 -36t64 -38q29 19 61 38t67 36zM481 183q0 -62 -31 -105t-86 -65.5t-127 -22.5q-47 0 -100.5 9.5t-86.5 27.5l9 109q26 -15 59 -25.5t65 -15.5t56 -5q53 0 81.5 22.5 t28.5 61.5q0 36 -21.5 60.5t-55 42.5t-70.5 37t-71 42.5t-56 58.5t-22 88q0 62 32 105.5t88.5 66.5t129.5 23q44 0 88 -8t72 -20l-16 -111q-35 20 -74 29.5t-72 9.5q-56 0 -86 -23t-30 -62q0 -35 22 -58t55.5 -40.5t69.5 -36.5q36 -18 70 -42.5t56.5 -61t22.5 -91.5z" />
<glyph unicode="&#x161;" horiz-adv-x="445" d="M342 771l40 -29q-32 -40 -58.5 -80t-51.5 -80l-88 -8q-25 42 -53 83.5t-60 84.5l39 29q32 -24 61.5 -51.5t56.5 -54.5q26 27 54.5 54.5t59.5 51.5zM389 480l-9 -96q-35 19 -70.5 29.5t-64.5 10.5q-37 0 -58 -15t-21 -40q0 -22 17.5 -37.5t44.5 -28t57.5 -26t57.5 -31.5 t44.5 -44.5t17.5 -65.5q0 -66 -54.5 -106t-145.5 -40q-43 0 -88 9.5t-76 26.5l9 95q40 -23 83.5 -35t74.5 -12q38 0 57 15t19 38q0 22 -17 37.5t-44 28t-57.5 26t-57.5 31.5t-44.5 44t-17.5 65q0 67 55 108t145 41q72 0 143 -28z" />
<glyph unicode="&#x162;" horiz-adv-x="560" d="M345 0h-35l-19 -58q25 -4 48.5 -13t38.5 -25.5t15 -43.5q0 -38 -29 -60.5t-72.5 -33t-88.5 -11.5v45q46 5 72.5 19t26.5 37q0 18 -19 27t-52 10l-14 23l25 84h-26v592q-50 -1 -100 -3l-100 -4l7 103h514l7 -103l-100 4t-99 3v-592z" />
<glyph unicode="&#x163;" horiz-adv-x="388" d="M328 -140q0 -38 -29 -60.5t-73 -33t-89 -11.5l1 45q45 5 71.5 19t26.5 37q0 18 -19 27t-52 10l-14 23l26 84q-44 17 -67.5 59.5t-23.5 111.5v264l-70 1v47l73 15l31 124l78 6l15 -15l-2 -115h136l9 -14l-5 -54l-140 3v-258q0 -51 18 -73t51 -22q20 0 40 6.5t39 17.5 l9 -78q-22 -14 -55 -25t-72 -11l-16 -48q26 -4 49.5 -13t38.5 -25.5t15 -43.5z" />
<glyph unicode="&#x164;" horiz-adv-x="560" d="M411 925l34 -30q-35 -30 -63.5 -59.5t-55.5 -59.5l-88 -8q-27 32 -57 63.5t-66 63.5l34 30q36 -17 69.5 -36t63.5 -38q29 19 61.5 38t67.5 36zM345 0h-129v592q-50 -1 -100 -3l-100 -4l7 103h514l7 -103l-100 4t-99 3v-592z" />
<glyph unicode="&#x165;" horiz-adv-x="388" d="M391 774l9 -20q-16 -60 -40 -112t-52 -99l-42 2q9 57 16 114.5t10 112.5zM351 430l-140 3v-258q0 -51 18 -73t51 -22q20 0 40 6.5t39 17.5l9 -78q-22 -14 -55 -25t-73 -11q-74 0 -114 45t-40 136v264l-70 1v47l73 15l31 124l78 6l15 -15l-2 -115h136l9 -14z" />
<glyph unicode="&#x166;" horiz-adv-x="560" d="M345 0h-129v311h-123v66h123v215q-50 -1 -100 -3l-100 -4l7 103h514l7 -103l-100 4t-99 3v-215h123v-66h-123v-311z" />
<glyph unicode="&#x167;" horiz-adv-x="388" d="M352 266h-141v-91q0 -51 18 -73t51 -22q20 0 40 6.5t39 17.5l9 -78q-22 -14 -55 -25t-73 -11q-74 0 -114 45t-40 136v95h-67v66h67v103l-70 1v47l73 15l31 124l78 6l15 -15l-2 -115h136l9 -14l-5 -54l-140 3v-101h141v-66z" />
<glyph unicode="&#x168;" horiz-adv-x="666" d="M261 916q32 0 56.5 -14t46.5 -28t47 -14q23 0 36.5 13.5t26.5 34.5l33 -5q-2 -32 -13 -61t-32.5 -48t-55.5 -19q-29 0 -55.5 14t-50.5 28t-47 14q-20 0 -34.5 -12.5t-26.5 -35.5l-33 5q1 30 11.5 59.5t32.5 49t58 19.5zM73 518q0 45 -2.5 86t-7.5 85l126 9l13 -13v-444 q0 -75 37 -113.5t98 -38.5q60 0 96.5 38.5t36.5 113.5v301q0 43 -2 77.5t-8 69.5l133 8v-465q0 -81 -36 -134.5t-96 -80.5t-132 -27t-130 27t-92 81t-34 134v286z" />
<glyph unicode="&#x169;" horiz-adv-x="569" d="M213 742q30 0 55 -14.5t47.5 -28.5t45.5 -14q20 0 32.5 13.5t23.5 34.5l36 -5q-1 -34 -12 -66t-32 -53t-53 -21q-28 0 -55 14t-51 28.5t-45 14.5q-17 0 -30.5 -13t-24.5 -36l-36 6q2 32 12 64.5t31.5 54t55.5 21.5zM77 326q0 45 -2.5 84.5t-8.5 81.5l122 16l14 -14v-326 q0 -83 70 -83q45 0 91 35v378l125 10v-372q0 -36 4.5 -70.5t12.5 -64.5l-104 -11q-15 31 -26 74h-4q-71 -74 -158 -74q-63 0 -99.5 37.5t-36.5 101.5v197z" />
<glyph unicode="&#x16a;" horiz-adv-x="666" d="M193 806v74h280v-74h-280zM73 518q0 45 -2.5 86t-7.5 85l126 9l13 -13v-444q0 -75 37 -113.5t98 -38.5q60 0 96.5 38.5t36.5 113.5v301q0 43 -2 77.5t-8 69.5l133 8v-465q0 -81 -36 -134.5t-96 -80.5t-132 -27t-130 27t-92 81t-34 134v286z" />
<glyph unicode="&#x16b;" horiz-adv-x="569" d="M143 629v72h285v-72h-285zM77 326q0 45 -2.5 84.5t-8.5 81.5l122 16l14 -14v-326q0 -83 70 -83q45 0 91 35v378l125 10v-372q0 -36 4.5 -70.5t12.5 -64.5l-104 -11q-15 31 -26 74h-4q-71 -74 -158 -74q-63 0 -99.5 37.5t-36.5 101.5v197z" />
<glyph unicode="&#x16c;" horiz-adv-x="666" d="M424 910l51 4q-7 -62 -45.5 -101.5t-101.5 -39.5q-56 0 -94 35t-44 95l51 8q9 -26 34 -40t59 -14q33 0 57.5 15t32.5 38zM73 518q0 45 -2.5 86t-7.5 85l126 9l13 -13v-444q0 -75 37 -113.5t98 -38.5q60 0 96.5 38.5t36.5 113.5v301q0 43 -2 77.5t-8 69.5l133 8v-465 q0 -81 -36 -134.5t-96 -80.5t-132 -27t-130 27t-92 81t-34 134v286z" />
<glyph unicode="&#x16d;" horiz-adv-x="569" d="M375 750l51 4q-7 -74 -45.5 -120.5t-101.5 -46.5q-56 0 -94 42t-44 114l52 8q8 -38 33 -59t59 -21q33 0 57.5 22t32.5 57zM77 326q0 45 -2.5 84.5t-8.5 81.5l122 16l14 -14v-326q0 -83 70 -83q45 0 91 35v378l125 10v-372q0 -36 4.5 -70.5t12.5 -64.5l-104 -11 q-15 31 -26 74h-4q-71 -74 -158 -74q-63 0 -99.5 37.5t-36.5 101.5v197z" />
<glyph unicode="&#x16e;" horiz-adv-x="666" d="M451 865q0 -43 -33.5 -74t-81.5 -31q-44 0 -72.5 25.5t-28.5 62.5q0 29 16.5 53t43.5 38.5t59 14.5q42 0 69.5 -25t27.5 -64zM292 853q0 -21 13 -35t35 -14q23 0 39 17t16 39t-12.5 35.5t-33.5 13.5q-24 0 -40.5 -16.5t-16.5 -39.5zM73 518q0 45 -2.5 86t-7.5 85l126 9 l13 -13v-444q0 -75 37 -113.5t98 -38.5q60 0 96.5 38.5t36.5 113.5v301q0 43 -2 77.5t-8 69.5l133 8v-465q0 -81 -36 -134.5t-96 -80.5t-132 -27t-130 27t-92 81t-34 134v286z" />
<glyph unicode="&#x16f;" horiz-adv-x="569" d="M403 675q0 -43 -33.5 -74t-81.5 -31q-43 0 -71.5 25.5t-28.5 62.5q0 29 16.5 53t43 38.5t58.5 14.5q43 0 70 -25t27 -64zM244 663q0 -21 13.5 -35t35.5 -14t38 17t16 39t-12 35.5t-33 13.5q-24 0 -41 -16.5t-17 -39.5zM77 326q0 45 -2.5 84.5t-8.5 81.5l122 16l14 -14 v-326q0 -83 70 -83q45 0 91 35v378l125 10v-372q0 -36 4.5 -70.5t12.5 -64.5l-104 -11q-15 31 -26 74h-4q-71 -74 -158 -74q-63 0 -99.5 37.5t-36.5 101.5v197z" />
<glyph unicode="&#x170;" horiz-adv-x="666" d="M333 860l-6 -21q-49 -34 -102.5 -50.5t-111.5 -20.5l-10 32q45 27 88.5 58.5t80.5 66.5zM562 860l-7 -21q-48 -34 -102 -50.5t-111 -20.5l-10 32q45 27 88.5 58.5t79.5 66.5zM73 518q0 45 -2.5 86t-7.5 85l126 9l13 -13v-444q0 -75 37 -113.5t98 -38.5q60 0 96.5 38.5 t36.5 113.5v301q0 43 -2 77.5t-8 69.5l133 8v-465q0 -81 -36 -134.5t-96 -80.5t-132 -27t-130 27t-92 81t-34 134v286z" />
<glyph unicode="&#x171;" horiz-adv-x="569" d="M287 757l8 -22q-28 -48 -62 -88.5t-75 -75.5l-46 12q25 43 47.5 90t37.5 94zM449 757l8 -22q-28 -48 -62 -88.5t-75 -75.5l-46 12q25 43 47.5 90t37.5 94zM77 326q0 45 -2.5 84.5t-8.5 81.5l122 16l14 -14v-326q0 -83 70 -83q45 0 91 35v378l125 10v-372q0 -36 4.5 -70.5 t12.5 -64.5l-104 -11q-15 31 -26 74h-4q-71 -74 -158 -74q-63 0 -99.5 37.5t-36.5 101.5v197z" />
<glyph unicode="&#x172;" horiz-adv-x="666" d="M482 27q-58 -39 -83.5 -77t-25.5 -69q0 -50 47 -50q12 0 25.5 3t30.5 10l19 -45q-23 -19 -54.5 -31.5t-62.5 -12.5q-48 0 -78 25.5t-30 70.5q0 75 87 140q-14 -1 -28 -1q-72 0 -130 27t-92 81t-34 134v286q0 45 -2.5 86t-7.5 85l126 9l13 -13v-444q0 -75 37 -113.5 t98 -38.5q60 0 96.5 38.5t36.5 113.5v301q0 43 -2 77.5t-8 69.5l133 8v-465q0 -73 -30.5 -124.5t-80.5 -80.5v0z" />
<glyph unicode="&#x173;" horiz-adv-x="569" d="M77 326q0 45 -2.5 84.5t-8.5 81.5l122 16l14 -14v-326q0 -83 70 -83q45 0 91 35v378l125 10v-372q0 -36 4.5 -70.5t12.5 -64.5h-5l2 -1q-55 -28 -84.5 -60t-29.5 -63q0 -21 12 -33.5t37 -12.5q10 0 23.5 3t30.5 10l19 -45q-22 -19 -53.5 -31.5t-63.5 -12.5 q-48 0 -78 25.5t-30 68.5q0 40 30 77t85 66q-15 31 -25 72h-4q-71 -74 -158 -74q-63 0 -99.5 37.5t-36.5 101.5v197z" />
<glyph unicode="&#x174;" horiz-adv-x="970" d="M353 765l-33 30q34 30 63 59.5t55 59.5l88 8q28 -32 58 -63.5t65 -63.5l-33 -30q-37 17 -70 36t-64 38q-29 -19 -61 -38t-68 -36zM210 -2l-192 687l135 13l98 -379q13 -51 23.5 -100t16.5 -87q8 38 22 92t27 102l95 364l124 8l98 -379q14 -51 26 -100t19 -87 q7 39 19.5 93t25.5 103l95 370l103 -8l8 -14l-192 -678h-134l-95 329q-12 46 -22.5 93.5t-22.5 97.5h-2q-11 -50 -22.5 -98t-24.5 -95l-94 -327h-134z" />
<glyph unicode="&#x175;" horiz-adv-x="786" d="M289 563l-40 28q31 41 58 80.5t51 79.5l88 8q25 -42 53 -83.5t61 -84.5l-40 -28q-32 23 -61.5 50.5t-56.5 54.5q-26 -27 -54 -54t-59 -51zM153 -2l-138 499l128 11l57 -244q15 -50 23.5 -88.5t14.5 -70.5h2q6 37 14.5 73t21.5 83l54 241h149l54 -236q9 -37 21 -81t17 -79 h2q6 36 16.5 78t20.5 80l56 244l97 -8l8 -14l-137 -488h-148l-56 225q-13 50 -22.5 90t-14.5 81h-2q-5 -42 -15 -83.5t-21 -87.5l-57 -225h-145z" />
<glyph unicode="&#x176;" horiz-adv-x="571" d="M168 765l-34 30q35 30 63.5 59.5t55.5 59.5l88 8q27 -32 57.5 -63.5t65.5 -63.5l-34 -30q-36 17 -69.5 36t-63.5 38q-29 -19 -61 -38t-68 -36zM221 232l-207 453l137 13l91 -220q13 -34 29 -75.5t25 -70.5h3q11 30 28 71.5t30 74.5l89 220l104 -8l8 -14l-208 -446v-230 h-129v232z" />
<glyph unicode="&#x177;" horiz-adv-x="483" d="M138 563l-39 28q31 41 57.5 80.5t51.5 79.5l88 8q25 -42 53 -83.5t60 -84.5l-39 -28q-32 23 -61.5 50.5t-56.5 54.5q-26 -27 -54.5 -54t-59.5 -51zM473 486l-150 -456q-18 -55 -41 -105.5t-56 -91t-79 -64.5t-110 -27l-18 110q71 4 123 41t82 114h-52l-157 490l131 11 l67 -251q18 -56 28 -95t14 -75h2q6 36 16.5 74.5t28.5 95.5l67 251l96 -8z" />
<glyph unicode="&#x178;" horiz-adv-x="571" d="M480 851q0 -31 -21 -52.5t-55 -21.5q-29 0 -46.5 17t-17.5 42q0 29 22.5 51t55.5 22q27 0 44.5 -16.5t17.5 -41.5zM259 851q0 -31 -21 -52.5t-55 -21.5q-29 0 -46.5 17t-17.5 42q0 29 22.5 51t55.5 22q27 0 44.5 -16.5t17.5 -41.5zM221 232l-207 453l137 13l91 -220 q13 -34 29 -75.5t25 -70.5h3q11 30 28 71.5t30 74.5l89 220l104 -8l8 -14l-208 -446v-230h-129v232z" />
<glyph unicode="&#x179;" horiz-adv-x="550" d="M417 858l-6 -21q-62 -33 -129 -49t-139 -20l-10 32q55 27 108.5 58.5t98.5 66.5zM51 0l-21 83l340 500l-327 -7l8 112h431l32 -83l-336 -499l335 6l-7 -112h-455z" />
<glyph unicode="&#x17a;" horiz-adv-x="446" d="M322 754l7 -21q-31 -48 -70.5 -88t-87.5 -75l-46 11q25 45 47.5 91.5t37.5 92.5zM29 395l7 103h363l13 -80l-249 -320l102 1q39 0 78.5 1.5t76.5 5.5l-7 -106h-373l-14 80l255 320z" />
<glyph unicode="&#x17b;" horiz-adv-x="550" d="M353 855q0 -34 -23.5 -57.5t-60.5 -23.5q-32 0 -52 19t-20 47q0 31 25.5 54.5t61.5 23.5q30 0 49.5 -17.5t19.5 -45.5zM51 0l-21 83l340 500l-327 -7l8 112h431l32 -83l-336 -499l335 6l-7 -112h-455z" />
<glyph unicode="&#x17c;" horiz-adv-x="446" d="M305 672q0 -34 -24 -60t-60 -26q-33 0 -52.5 21.5t-19.5 50.5q0 34 25.5 59.5t61.5 25.5q30 0 49.5 -19.5t19.5 -51.5zM29 395l7 103h363l13 -80l-249 -320l102 1q39 0 78.5 1.5t76.5 5.5l-7 -106h-373l-14 80l255 320z" />
<glyph unicode="&#x17d;" horiz-adv-x="550" d="M406 925l33 -30q-34 -30 -63 -59.5t-55 -59.5l-88 -8q-27 32 -57.5 63.5t-65.5 63.5l33 30q37 -17 70 -36t64 -38q29 19 61 38t68 36zM51 0l-21 83l340 500l-327 -7l8 112h431l32 -83l-336 -499l335 6l-7 -112h-455z" />
<glyph unicode="&#x17e;" horiz-adv-x="446" d="M346 771l40 -29q-31 -40 -58 -80t-51 -80l-88 -8q-25 42 -53 83.5t-61 84.5l40 29q32 -24 61.5 -51.5t56.5 -54.5q26 27 54.5 54.5t58.5 51.5zM29 395l7 103h363l13 -80l-249 -320l102 1q39 0 78.5 1.5t76.5 5.5l-7 -106h-373l-14 80l255 320z" />
<glyph unicode="&#x18f;" horiz-adv-x="653" d="M55 377l22 22h388q-15 105 -71 153.5t-140 48.5q-48 0 -90.5 -14t-76.5 -35l-3 97q22 15 77 32t125 17q97 0 168 -40t110 -118t39 -192q0 -115 -38.5 -195t-106 -121.5t-155.5 -41.5q-74 0 -131 31t-89.5 94.5t-32.5 160.5q0 27 0.5 40.5t2 25.5t2.5 35zM180 265 q0 -89 35 -136.5t100 -47.5q80 0 117.5 66t37.5 175v9l-289 -14q0 -14 -0.5 -27.5t-0.5 -24.5z" />
<glyph unicode="&#x192;" horiz-adv-x="560" d="M173 295l-114 4l10 47l109 15h3l7 64q8 82 34.5 143.5t75 95.5t124.5 34q40 0 74 -8.5t55 -22.5l-41 -98q-20 15 -44 25.5t-46 10.5q-37 0 -57.5 -23t-31.5 -64.5t-18 -95.5l-7 -61h172l7 -13l-15 -53h-172l-34 -288q-3 -24 -8.5 -58t-18.5 -70t-36.5 -67t-62 -50.5 t-95.5 -19.5q-52 0 -104 20l22 99q21 -12 42 -19t42 -7q35 0 53.5 19t27.5 49t12 63l36 329h-1z" />
<glyph unicode="&#x19d;" horiz-adv-x="701" d="M37 -194l-37 48q39 42 59.5 103t20.5 145v420q0 44 -2.5 86t-6.5 80l130 8q46 -79 86 -147t78 -130q42 -69 75 -127t61 -123h2q-2 31 -4 56.5t-3 57.5t-1.5 79.5t-0.5 119.5q0 58 -2 108.5t-7 97.5l118 9l14 -14v-683h-124q-47 76 -87 144.5t-78 131.5q-42 68 -73.5 123 t-59.5 114h-2q6 -61 7.5 -113t1.5 -102v-196q0 -77 -15 -131.5t-51 -93.5t-99 -71z" />
<glyph unicode="&#x1cd;" horiz-adv-x="630" d="M446 931l33 -29q-34 -31 -63 -60.5t-55 -59.5l-88 -8q-27 32 -57.5 63.5t-65.5 64.5l34 29q36 -17 69.5 -36t63.5 -38q29 19 61 38t68 36zM137 0h-122l186 585q10 29 18 57t12 49l147 6l20 -17l217 -680h-129l-53 166h-243zM250 357l-31 -98h184l-30 97q-21 71 -36 127 t-23 96h-4q-9 -39 -25 -99t-35 -123z" />
<glyph unicode="&#x1ce;" horiz-adv-x="514" d="M368 771l40 -29q-32 -40 -58.5 -80t-51.5 -80l-87 -8q-26 42 -54 83.5t-60 84.5l39 29q32 -24 61.5 -51.5t56.5 -54.5q26 27 54.5 54.5t59.5 51.5zM434 137q0 -35 5.5 -70t16.5 -67l-105 -10q-9 15 -15.5 33t-11.5 36h-3q-20 -28 -59.5 -48.5t-89.5 -20.5q-59 0 -95 32 t-36 88q0 57 36 93t97.5 54t137.5 21v48q0 89 -93 89q-37 0 -77 -12t-74 -32l-7 98q35 15 86 27t103 12q93 0 140 -43t47 -122q0 -53 -1.5 -107.5t-1.5 -98.5zM164 131q0 -27 16.5 -46.5t48.5 -19.5q22 0 44.5 9.5t38.5 24.5v135q-61 -5 -104.5 -30.5t-43.5 -72.5z" />
<glyph unicode="&#x1cf;" horiz-adv-x="298" d="M274 931l34 -29q-35 -31 -63.5 -60.5t-55.5 -59.5l-88 -8q-27 32 -57.5 63.5t-65.5 64.5l34 29q36 -17 69.5 -36t63.5 -38q29 19 61 38t68 36zM213 0h-128v517q0 48 -2.5 90.5t-6.5 80.5l123 10l14 -14v-684z" />
<glyph unicode="&#x1d0;" horiz-adv-x="281" d="M219 768l43 -19q-18 -41 -33.5 -83t-28.5 -84l-118 -8q-30 90 -67 175l43 19q23 -25 43.5 -52.5t39.5 -56.5q17 30 36.5 57.5t41.5 51.5zM77 0v327q0 44 -2.5 83t-9.5 83l123 15l14 -14v-494h-125z" />
<glyph unicode="&#x1d1;" horiz-adv-x="707" d="M488 925l34 -30q-35 -30 -63.5 -59.5t-55.5 -59.5l-87 -8q-28 32 -58 63.5t-66 63.5l34 30q37 -17 70 -36t63 -38q30 19 62 38t67 36zM657 346q0 -116 -42 -195.5t-112.5 -120t-156.5 -40.5t-153 40.5t-105 117t-38 185.5q0 112 40.5 194t111 126.5t160.5 44.5 q89 0 155.5 -43.5t103 -122.5t36.5 -186zM183 345q0 -74 19 -132t57 -92t95 -34q85 0 127.5 70t42.5 186q0 75 -17.5 133t-54.5 91.5t-94 33.5q-83 0 -129 -69.5t-46 -186.5z" />
<glyph unicode="&#x1d2;" horiz-adv-x="563" d="M401 771l40 -29q-31 -40 -58 -80t-51 -80l-88 -8q-25 42 -53 83.5t-61 84.5l40 29q32 -24 61 -51.5t57 -54.5q26 27 54 54.5t59 51.5zM513 252q0 -87 -33 -145t-87 -87.5t-118 -29.5t-115 29.5t-80 85.5t-29 137q0 85 32 144.5t86 90.5t119 31q67 0 117.5 -31t79 -88.5 t28.5 -136.5zM180 252q0 -84 24.5 -135.5t77.5 -51.5q50 0 75.5 48t25.5 132q0 86 -24 137t-77 51q-48 0 -75 -45t-27 -136z" />
<glyph unicode="&#x1d3;" horiz-adv-x="666" d="M464 925l33 -30q-34 -30 -63 -59.5t-55 -59.5l-88 -8q-27 32 -57.5 63.5t-65.5 63.5l33 30q37 -17 70 -36t64 -38q29 19 61 38t68 36zM73 518q0 45 -2.5 86t-7.5 85l126 9l13 -13v-444q0 -75 37 -113.5t98 -38.5q60 0 96.5 38.5t36.5 113.5v301q0 43 -2 77.5t-8 69.5 l133 8v-465q0 -81 -36 -134.5t-96 -80.5t-132 -27t-130 27t-92 81t-34 134v286z" />
<glyph unicode="&#x1d4;" horiz-adv-x="569" d="M405 771l40 -29q-32 -40 -58.5 -80t-51.5 -80l-88 -8q-25 42 -53 83.5t-60 84.5l39 29q32 -24 61.5 -51.5t56.5 -54.5q26 27 54.5 54.5t59.5 51.5zM77 326q0 45 -2.5 84.5t-8.5 81.5l122 16l14 -14v-326q0 -83 70 -83q45 0 91 35v378l125 10v-372q0 -36 4.5 -70.5 t12.5 -64.5l-104 -11q-15 31 -26 74h-4q-71 -74 -158 -74q-63 0 -99.5 37.5t-36.5 101.5v197z" />
<glyph unicode="&#x1d5;" horiz-adv-x="666" d="M193 1027v73h280v-73h-280zM513 851q0 -31 -21 -52.5t-55 -21.5q-28 0 -45.5 17t-17.5 42q0 29 22.5 51t54.5 22q27 0 44.5 -16.5t17.5 -41.5zM292 851q0 -31 -21 -52.5t-55 -21.5q-28 0 -45.5 17t-17.5 42q0 29 22.5 51t54.5 22q27 0 44.5 -16.5t17.5 -41.5zM73 518 q0 45 -2.5 86t-7.5 85l126 9l13 -13v-444q0 -75 37 -113.5t98 -38.5q60 0 96.5 38.5t36.5 113.5v301q0 43 -2 77.5t-8 69.5l133 8v-465q0 -81 -36 -134.5t-96 -80.5t-132 -27t-130 27t-92 81t-34 134v286z" />
<glyph unicode="&#x1d6;" horiz-adv-x="569" d="M143 870v72h285v-72h-285zM247 672q0 -32 -21.5 -56.5t-55.5 -24.5q-30 0 -48 20t-18 47q0 33 23.5 57t56.5 24q28 0 45.5 -18.5t17.5 -48.5zM466 672q0 -32 -21.5 -56.5t-55.5 -24.5q-30 0 -48 20t-18 47q0 33 23.5 57t56.5 24q28 0 45.5 -18.5t17.5 -48.5zM77 326 q0 45 -2.5 84.5t-8.5 81.5l122 16l14 -14v-326q0 -83 70 -83q45 0 91 35v378l125 10v-372q0 -36 4.5 -70.5t12.5 -64.5l-104 -11q-15 31 -26 74h-4q-71 -74 -158 -74q-63 0 -99.5 37.5t-36.5 101.5v197z" />
<glyph unicode="&#x1d7;" horiz-adv-x="666" d="M475 1078l-6 -20q-63 -33 -129.5 -49t-138.5 -20l-10 31q55 27 108.5 59t98.5 67zM513 851q0 -31 -21 -52.5t-55 -21.5q-28 0 -45.5 17t-17.5 42q0 29 22.5 51t54.5 22q27 0 44.5 -16.5t17.5 -41.5zM292 851q0 -31 -21 -52.5t-55 -21.5q-28 0 -45.5 17t-17.5 42 q0 29 22.5 51t54.5 22q27 0 44.5 -16.5t17.5 -41.5zM73 518q0 45 -2.5 86t-7.5 85l126 9l13 -13v-444q0 -75 37 -113.5t98 -38.5q60 0 96.5 38.5t36.5 113.5v301q0 43 -2 77.5t-8 69.5l133 8v-465q0 -81 -36 -134.5t-96 -80.5t-132 -27t-130 27t-92 81t-34 134v286z" />
<glyph unicode="&#x1d8;" horiz-adv-x="569" d="M380 995l8 -21q-32 -49 -71.5 -89t-87.5 -74l-46 11q25 45 47.5 91.5t37.5 92.5zM247 672q0 -32 -21.5 -56.5t-55.5 -24.5q-30 0 -48 20t-18 47q0 33 23.5 57t56.5 24q28 0 45.5 -18.5t17.5 -48.5zM466 672q0 -32 -21.5 -56.5t-55.5 -24.5q-30 0 -48 20t-18 47 q0 33 23.5 57t56.5 24q28 0 45.5 -18.5t17.5 -48.5zM77 326q0 45 -2.5 84.5t-8.5 81.5l122 16l14 -14v-326q0 -83 70 -83q45 0 91 35v378l125 10v-372q0 -36 4.5 -70.5t12.5 -64.5l-104 -11q-15 31 -26 74h-4q-71 -74 -158 -74q-63 0 -99.5 37.5t-36.5 101.5v197z" />
<glyph unicode="&#x1d9;" horiz-adv-x="666" d="M464 1145l33 -29q-34 -30 -63 -60t-55 -60l-88 -8q-27 32 -57.5 64t-65.5 64l33 29q37 -16 70 -35.5t64 -38.5q29 19 61 38.5t68 35.5zM513 851q0 -31 -21 -52.5t-55 -21.5q-28 0 -45.5 17t-17.5 42q0 29 22.5 51t54.5 22q27 0 44.5 -16.5t17.5 -41.5zM292 851 q0 -31 -21 -52.5t-55 -21.5q-28 0 -45.5 17t-17.5 42q0 29 22.5 51t54.5 22q27 0 44.5 -16.5t17.5 -41.5zM73 518q0 45 -2.5 86t-7.5 85l126 9l13 -13v-444q0 -75 37 -113.5t98 -38.5q60 0 96.5 38.5t36.5 113.5v301q0 43 -2 77.5t-8 69.5l133 8v-465q0 -81 -36 -134.5 t-96 -80.5t-132 -27t-130 27t-92 81t-34 134v286z" />
<glyph unicode="&#x1da;" horiz-adv-x="569" d="M405 1012l40 -29q-32 -40 -58.5 -80t-51.5 -80l-88 -8q-25 42 -53 83.5t-60 84.5l39 29q32 -24 61.5 -51.5t56.5 -54.5q26 27 54.5 54.5t59.5 51.5zM247 672q0 -32 -21.5 -56.5t-55.5 -24.5q-30 0 -48 20t-18 47q0 33 23.5 57t56.5 24q28 0 45.5 -18.5t17.5 -48.5z M466 672q0 -32 -21.5 -56.5t-55.5 -24.5q-30 0 -48 20t-18 47q0 33 23.5 57t56.5 24q28 0 45.5 -18.5t17.5 -48.5zM77 326q0 45 -2.5 84.5t-8.5 81.5l122 16l14 -14v-326q0 -83 70 -83q45 0 91 35v378l125 10v-372q0 -36 4.5 -70.5t12.5 -64.5l-104 -11q-15 31 -26 74h-4 q-71 -74 -158 -74q-63 0 -99.5 37.5t-36.5 101.5v197z" />
<glyph unicode="&#x1db;" horiz-adv-x="666" d="M465 989q-72 4 -139 20t-129 49l-6 20l77 68q45 -35 98.5 -67t108.5 -59zM513 851q0 -31 -21 -52.5t-55 -21.5q-28 0 -45.5 17t-17.5 42q0 29 22.5 51t54.5 22q27 0 44.5 -16.5t17.5 -41.5zM292 851q0 -31 -21 -52.5t-55 -21.5q-28 0 -45.5 17t-17.5 42q0 29 22.5 51 t54.5 22q27 0 44.5 -16.5t17.5 -41.5zM73 518q0 45 -2.5 86t-7.5 85l126 9l13 -13v-444q0 -75 37 -113.5t98 -38.5q60 0 96.5 38.5t36.5 113.5v301q0 43 -2 77.5t-8 69.5l133 8v-465q0 -81 -36 -134.5t-96 -80.5t-132 -27t-130 27t-92 81t-34 134v286z" />
<glyph unicode="&#x1dc;" horiz-adv-x="569" d="M341 812q-48 35 -87.5 75t-70.5 88l7 21l113 11q15 -46 37.5 -92.5t47.5 -90.5zM247 672q0 -32 -21.5 -56.5t-55.5 -24.5q-30 0 -48 20t-18 47q0 33 23.5 57t56.5 24q28 0 45.5 -18.5t17.5 -48.5zM466 672q0 -32 -21.5 -56.5t-55.5 -24.5q-30 0 -48 20t-18 47 q0 33 23.5 57t56.5 24q28 0 45.5 -18.5t17.5 -48.5zM77 326q0 45 -2.5 84.5t-8.5 81.5l122 16l14 -14v-326q0 -83 70 -83q45 0 91 35v378l125 10v-372q0 -36 4.5 -70.5t12.5 -64.5l-104 -11q-15 31 -26 74h-4q-71 -74 -158 -74q-63 0 -99.5 37.5t-36.5 101.5v197z" />
<glyph unicode="&#x1e6;" horiz-adv-x="642" d="M478 931l33 -29q-34 -31 -63 -60.5t-55 -59.5l-88 -8q-27 32 -57.5 63.5t-65.5 64.5l33 29q37 -17 70 -36t64 -38q29 19 61 38t68 36zM572 315l14 -14l-3 -267q-43 -20 -100 -32t-113 -12q-101 0 -173 41t-109.5 116.5t-37.5 180.5q0 111 41.5 194.5t118 129.5t180.5 46 q50 0 97.5 -10.5t82.5 -28.5l-22 -111q-30 21 -69 34t-83 13q-95 0 -154 -65.5t-59 -191.5q0 -74 22 -129.5t67 -87t112 -31.5q36 0 79 8v12q0 46 -1 77t-4 58t-7 60z" />
<glyph unicode="&#x1e7;" horiz-adv-x="513" d="M366 771l40 -29q-31 -40 -58 -80t-51 -80l-88 -8q-26 42 -54 83.5t-60 84.5l39 29q32 -24 61.5 -51.5t56.5 -54.5q26 27 54.5 54.5t59.5 51.5zM105 63q0 28 14.5 50t38.5 39q-52 19 -83.5 61t-31.5 102q0 52 24.5 96t70.5 70.5t110 26.5q37 0 67 -9t50 -24 q18 30 50.5 44.5t66.5 14.5l15 -11l-3 -83h-102q19 -15 35 -44.5t16 -74.5q0 -51 -24.5 -92.5t-69.5 -66.5t-106 -25q-18 0 -35 3q-8 -15 -8 -30q0 -23 12.5 -32t38.5 -11l90 -6q43 -3 78.5 -17.5t56.5 -42.5t21 -71q0 -53 -32 -95.5t-91.5 -67.5t-141.5 -25 q-101 0 -160.5 37t-59.5 92q0 37 24 61t51 33l46 -20q-5 -7 -9.5 -16.5t-4.5 -20.5q0 -40 33.5 -72t95.5 -32q55 0 89.5 26t34.5 67q0 34 -23.5 52.5t-64.5 22.5l-82 8q-97 9 -97 83zM323 322q0 57 -19 89t-59 32q-42 0 -62 -32t-20 -89t20.5 -88t61.5 -31q78 0 78 119z" />
<glyph unicode="&#x1ea;" horiz-adv-x="707" d="M657 346q0 -116 -42 -195t-111 -120q-58 -42 -82 -75.5t-24 -68.5q0 -56 51 -56q23 0 52 13l19 -45q-23 -19 -54 -31.5t-64 -12.5q-47 0 -77 26t-30 72q0 37 24 73t66 66q-19 -2 -39 -2q-86 0 -153 40.5t-105 117t-38 185.5q0 112 40.5 194t111 126.5t160.5 44.5 q89 0 155.5 -43.5t103 -122.5t36.5 -186zM183 345q0 -74 19 -132t57 -92t95 -34q85 0 127.5 70t42.5 186q0 75 -17.5 133t-54.5 91.5t-94 33.5q-83 0 -129 -69.5t-46 -186.5z" />
<glyph unicode="&#x1eb;" horiz-adv-x="563" d="M414 33q-56 -43 -78.5 -79.5t-22.5 -66.5q0 -24 11.5 -38t36.5 -14q10 0 24 2.5t31 10.5l18 -45q-23 -19 -54 -31.5t-64 -12.5q-46 0 -76.5 25t-30.5 66q0 38 24 73t66 68q-11 -1 -24 -1q-64 0 -115 29.5t-80 85.5t-29 137q0 85 32 144.5t86 90.5t119 31q67 0 117.5 -31 t79 -88.5t28.5 -136.5q0 -78 -27.5 -133t-71.5 -87v1zM180 252q0 -84 24.5 -135.5t77.5 -51.5q50 0 75.5 48t25.5 132q0 86 -24 137t-77 51q-48 0 -75 -45t-27 -136z" />
<glyph unicode="&#x1f4;" horiz-adv-x="642" d="M489 864l-6 -21q-62 -33 -129 -49t-139 -20l-10 32q55 27 108.5 58.5t98.5 66.5zM572 315l14 -14l-3 -267q-43 -20 -100 -32t-113 -12q-101 0 -173 41t-109.5 116.5t-37.5 180.5q0 111 41.5 194.5t118 129.5t180.5 46q50 0 97.5 -10.5t82.5 -28.5l-22 -111q-30 21 -69 34 t-83 13q-95 0 -154 -65.5t-59 -191.5q0 -74 22 -129.5t67 -87t112 -31.5q36 0 79 8v12q0 46 -1 77t-4 58t-7 60z" />
<glyph unicode="&#x1f5;" horiz-adv-x="513" d="M342 754l7 -21q-32 -48 -71.5 -88t-87.5 -75l-46 11q25 45 47.5 91.5t37.5 92.5zM105 63q0 28 14.5 50t38.5 39q-52 19 -83.5 61t-31.5 102q0 52 24.5 96t70.5 70.5t110 26.5q37 0 67 -9t50 -24q18 30 50.5 44.5t66.5 14.5l15 -11l-3 -83h-102q19 -15 35 -44.5t16 -74.5 q0 -51 -24.5 -92.5t-69.5 -66.5t-106 -25q-18 0 -35 3q-8 -15 -8 -30q0 -23 12.5 -32t38.5 -11l90 -6q43 -3 78.5 -17.5t56.5 -42.5t21 -71q0 -53 -32 -95.5t-91.5 -67.5t-141.5 -25q-101 0 -160.5 37t-59.5 92q0 37 24 61t51 33l46 -20q-5 -7 -9.5 -16.5t-4.5 -20.5 q0 -40 33.5 -72t95.5 -32q55 0 89.5 26t34.5 67q0 34 -23.5 52.5t-64.5 22.5l-82 8q-97 9 -97 83zM323 322q0 57 -19 89t-59 32q-42 0 -62 -32t-20 -89t20.5 -88t61.5 -31q78 0 78 119z" />
<glyph unicode="&#x1fa;" horiz-adv-x="630" d="M457 1119l-6 -21q-62 -33 -129 -49t-139 -20l-10 32q55 27 108.5 58.5t99.5 66.5zM423 861q0 -44 -33.5 -75t-81.5 -31q-44 0 -72.5 26t-28.5 63q0 28 16.5 52t43.5 38.5t59 14.5q42 0 69.5 -25t27.5 -63zM264 848q0 -20 13 -34t35 -14q23 0 38.5 16.5t15.5 39.5 q0 22 -12 35.5t-33 13.5q-24 0 -40.5 -17t-16.5 -40zM137 0h-122l186 585q10 29 18 57t12 49l147 6l20 -17l217 -680h-129l-53 166h-243zM250 357l-31 -98h184l-30 97q-21 71 -36 127t-23 96h-4q-9 -39 -25 -99t-35 -123z" />
<glyph unicode="&#x1fb;" horiz-adv-x="514" d="M354 1020l7 -21q-31 -49 -70.5 -89t-87.5 -74l-47 11q26 45 48 91.5t37 92.5zM366 675q0 -43 -33.5 -74t-81.5 -31q-43 0 -71.5 25.5t-28.5 62.5q0 29 16.5 53t43 38.5t58.5 14.5q43 0 70 -25t27 -64zM207 663q0 -21 13.5 -35t35.5 -14t38 17t16 39t-12 35.5t-33 13.5 q-24 0 -41 -16.5t-17 -39.5zM434 137q0 -35 5.5 -70t16.5 -67l-105 -10q-9 15 -15.5 33t-11.5 36h-3q-20 -28 -59.5 -48.5t-89.5 -20.5q-59 0 -95 32t-36 88q0 57 36 93t97.5 54t137.5 21v48q0 89 -93 89q-37 0 -77 -12t-74 -32l-7 98q35 15 86 27t103 12q93 0 140 -43 t47 -122q0 -53 -1.5 -107.5t-1.5 -98.5zM164 131q0 -27 16.5 -46.5t48.5 -19.5q22 0 44.5 9.5t38.5 24.5v135q-61 -5 -104.5 -30.5t-43.5 -72.5z" />
<glyph unicode="&#x1fc;" horiz-adv-x="879" d="M635 858l-6 -21q-63 -33 -130 -49t-138 -20l-10 32q55 27 108.5 58.5t98.5 66.5zM137 0h-122l261 585q14 29 25.5 55.5t20.5 47.5h429l14 -14l-2 -86l-264 6l27 -211l223 4l-3 -93l-209 5l27 -206l282 7v-100h-399l-20 166h-217zM294 357l-43 -98h164l-12 97 q-7 70 -11 126t-5 97h-4q-13 -37 -36 -93t-53 -129z" />
<glyph unicode="&#x1fd;" horiz-adv-x="783" d="M493 754l8 -21q-32 -48 -71.5 -88t-87.5 -75l-46 11q25 45 47.5 91.5t37.5 92.5zM737 251l-15 -15h-280q7 -81 47 -118.5t102 -37.5q36 0 67.5 10.5t56.5 25.5l8 -83q-22 -15 -64.5 -29t-99.5 -14q-69 0 -122.5 25.5t-85.5 73.5q-26 -41 -74.5 -70t-106.5 -29 q-57 0 -93 32t-36 89q0 56 36 92t97.5 54t137.5 21v48q0 20 -7 40.5t-27.5 34.5t-60.5 14q-37 0 -76.5 -12.5t-72.5 -31.5l-7 98q35 15 86 27t105 12q102 0 147 -52q62 52 147 52q89 0 140.5 -56t51.5 -146v-26.5t-1 -28.5zM540 433q-42 0 -69.5 -40t-30.5 -111l175 7 q1 17 1 34q0 49 -19 79.5t-57 30.5zM164 131q0 -27 16.5 -46.5t48.5 -19.5q30 0 58 16.5t46 42.5q-21 48 -22 110q-60 -5 -103.5 -30.5t-43.5 -72.5z" />
<glyph unicode="&#x1fe;" horiz-adv-x="707" d="M500 858l-7 -21q-62 -33 -129 -49t-138 -20l-10 32q55 27 108.5 58.5t98.5 66.5zM657 346q0 -116 -42 -195.5t-112.5 -120t-156.5 -40.5q-119 0 -198 75l-65 -74l-49 43l72 82q-27 42 -41.5 96.5t-14.5 120.5q0 112 40.5 194t111 126.5t160.5 44.5q56 0 104 -18t85 -51 l60 69l50 -42l-67 -77q30 -45 46.5 -104t16.5 -129zM183 345q0 -68 16 -122l276 318q-20 29 -49.5 44.5t-67.5 15.5q-83 0 -129 -69.5t-46 -186.5zM524 343q0 77 -18 134l-278 -320q21 -33 53 -51.5t73 -18.5q85 0 127.5 70t42.5 186z" />
<glyph unicode="&#x1ff;" horiz-adv-x="563" d="M377 754l7 -21q-31 -48 -70.5 -88t-87.5 -75l-47 11q25 45 47.5 91.5t37.5 92.5zM513 252q0 -87 -33 -145t-87 -87.5t-118 -29.5q-87 0 -146 51l-54 -58l-45 43l59 63q-18 30 -28 68t-10 85q0 85 32 144.5t86 90.5t119 31q86 0 144 -51l55 58l46 -42l-60 -64 q19 -31 29.5 -70.5t10.5 -86.5zM180 252q0 -34 4 -62l176 190q-25 53 -78 53q-48 0 -75 -45t-27 -136zM383 245q0 35 -3 64l-177 -189q26 -55 79 -55q50 0 75.5 48t25.5 132z" />
<glyph unicode="&#x218;" horiz-adv-x="531" d="M481 183q0 -62 -31 -105t-86 -65.5t-127 -22.5q-47 0 -100.5 9.5t-86.5 27.5l9 109q26 -15 59 -25.5t65 -15.5t56 -5q53 0 81.5 22.5t28.5 61.5q0 36 -21.5 60.5t-55 42.5t-70.5 37t-71 42.5t-56 58.5t-22 88q0 62 32 105.5t88.5 66.5t129.5 23q44 0 88 -8t72 -20 l-16 -111q-35 20 -74 29.5t-72 9.5q-56 0 -86 -23t-30 -62q0 -35 22 -58t55.5 -40.5t69.5 -36.5q36 -18 70 -42.5t56.5 -61t22.5 -91.5zM209 -318q16 21 29.5 45.5t21.5 49.5q-23 3 -38 20.5t-15 42.5q0 28 19.5 50t51.5 22q27 0 47 -19.5t20 -57.5q0 -36 -16 -70 t-38.5 -63.5t-42.5 -50.5z" />
<glyph unicode="&#x219;" horiz-adv-x="445" d="M389 480l-9 -96q-35 19 -70.5 29.5t-64.5 10.5q-37 0 -58 -15t-21 -40q0 -22 17.5 -37.5t44.5 -28t57.5 -26t57.5 -31.5t44.5 -44.5t17.5 -65.5q0 -66 -54.5 -106t-145.5 -40q-43 0 -88 9.5t-76 26.5l9 95q40 -23 83.5 -35t74.5 -12q38 0 57 15t19 38q0 22 -17 37.5 t-44 28t-57.5 26t-57.5 31.5t-44.5 44t-17.5 65q0 67 55 108t145 41q72 0 143 -28zM162 -318q15 21 29 45.5t21 49.5q-22 3 -37 20.5t-15 42.5q0 28 19.5 50t50.5 22q28 0 47.5 -19.5t19.5 -57.5q0 -36 -15.5 -70t-38 -63.5t-42.5 -50.5z" />
<glyph unicode="&#x21a;" horiz-adv-x="560" d="M345 0h-129v592q-50 -1 -100 -3l-100 -4l7 103h514l7 -103l-100 4t-99 3v-592zM212 -318q16 21 30 45.5t21 49.5q-23 3 -38 20.5t-15 42.5q0 28 19.5 50t51.5 22q27 0 47 -19.5t20 -57.5q0 -36 -16 -70t-38.5 -63.5t-42.5 -50.5z" />
<glyph unicode="&#x21b;" horiz-adv-x="388" d="M351 430l-140 3v-258q0 -51 18 -73t51 -22q20 0 40 6.5t39 17.5l9 -78q-22 -14 -55 -25t-73 -11q-74 0 -114 45t-40 136v264l-70 1v47l73 15l31 124l78 6l15 -15l-2 -115h136l9 -14zM147 -318q15 21 29 45.5t21 49.5q-22 3 -37.5 20.5t-15.5 42.5q0 28 20 50t51 22 q28 0 47.5 -19.5t19.5 -57.5q0 -36 -15.5 -70t-38 -63.5t-43.5 -50.5z" />
<glyph unicode="&#x232;" horiz-adv-x="571" d="M159 806v74h281v-74h-281zM221 232l-207 453l137 13l91 -220q13 -34 29 -75.5t25 -70.5h3q11 30 28 71.5t30 74.5l89 220l104 -8l8 -14l-208 -446v-230h-129v232z" />
<glyph unicode="&#x233;" horiz-adv-x="483" d="M108 629v72h285v-72h-285zM473 486l-150 -456q-18 -55 -41 -105.5t-56 -91t-79 -64.5t-110 -27l-18 110q71 4 123 41t82 114h-52l-157 490l131 11l67 -251q18 -56 28 -95t14 -75h2q6 36 16.5 74.5t28.5 95.5l67 251l96 -8z" />
<glyph unicode="&#x237;" horiz-adv-x="283" d="M55 -258l-47 46q32 38 51 89.5t19 126.5v323q0 44 -2.5 83t-8.5 83l122 15l14 -14v-484q0 -67 -14.5 -116t-47 -85.5t-86.5 -66.5z" />
<glyph unicode="&#x259;" horiz-adv-x="523" d="M46 247l15 15h281q-3 82 -33 117.5t-89 35.5q-39 0 -79 -12t-73 -31l-8 91q28 17 80.5 31t108.5 14q107 0 165 -61t58 -178q0 -92 -31.5 -154t-85 -93.5t-117.5 -31.5q-90 0 -141.5 56t-51.5 146v26.5t1 28.5zM167 175q0 -49 19 -79.5t58 -30.5t66.5 37t31.5 114l-174 -7 q0 -6 -0.5 -15t-0.5 -19z" />
<glyph unicode="&#x272;" horiz-adv-x="577" d="M55 -258l-47 46q32 38 51 89.5t19 126.5v324q0 44 -5 80.5t-15 76.5l118 23q14 -36 22 -73q76 73 163 73q64 0 100 -40t36 -113v-355h-125v331q0 90 -74 90q-45 0 -95 -37v-374q0 -67 -14.5 -116t-47 -85.5t-86.5 -66.5z" />
<glyph unicode="&#x2c6;" horiz-adv-x="405" d="M87 563l-40 29q31 40 58 80t51 80l88 8q25 -42 53 -83.5t61 -84.5l-40 -29q-32 24 -61.5 51.5t-56.5 54.5q-26 -27 -54 -54.5t-59 -51.5z" />
<glyph unicode="&#x2c7;" horiz-adv-x="405" d="M318 772l40 -28q-31 -41 -58 -80.5t-51 -79.5l-88 -8q-25 42 -53 83.5t-61 84.5l40 28q32 -23 61 -50.5t57 -54.5q26 27 54 54t59 51z" />
<glyph unicode="&#x2d8;" horiz-adv-x="379" d="M281 751l51 5q-7 -75 -46 -121.5t-101 -46.5q-56 0 -94.5 42t-43.5 115l51 7q9 -37 33.5 -58.5t58.5 -21.5t58 22t33 57z" />
<glyph unicode="&#x2d9;" horiz-adv-x="250" d="M203 672q0 -34 -24 -60t-60 -26q-33 0 -52.5 21.5t-19.5 50.5q0 34 25.5 59.5t61.5 25.5q30 0 49.5 -19.5t19.5 -51.5z" />
<glyph unicode="&#x2da;" horiz-adv-x="309" d="M262 674q0 -44 -33.5 -75t-81.5 -31q-43 0 -71.5 26t-28.5 63q0 28 16.5 52t43 38.5t58.5 14.5q43 0 70 -25t27 -63zM103 661q0 -20 13.5 -34t35.5 -14t38 16.5t16 39.5q0 22 -12 35.5t-33 13.5q-24 0 -41 -17t-17 -40z" />
<glyph unicode="&#x2db;" horiz-adv-x="365" d="M292 0q-55 -28 -84 -60t-29 -63q0 -21 11.5 -33.5t36.5 -12.5q10 0 24 3t31 10l18 -45q-22 -19 -53 -31.5t-64 -12.5q-47 0 -77 25.5t-30 68.5q0 47 42 90.5t118 73.5z" />
<glyph unicode="&#x2dc;" horiz-adv-x="417" d="M145 742q30 0 55 -14.5t47.5 -28.5t45.5 -14q20 0 32.5 13.5t23.5 34.5l36 -5q-1 -34 -12 -66t-32 -53t-53 -21q-28 0 -55 14t-51.5 28.5t-45.5 14.5q-17 0 -30 -13t-25 -36l-35 6q2 32 12 64.5t31 54t56 21.5z" />
<glyph unicode="&#x2dd;" horiz-adv-x="412" d="M222 757l7 -22q-27 -48 -61 -88.5t-75 -75.5l-47 12q26 43 48 90t37 94zM384 757l7 -22q-27 -48 -61 -88.5t-75 -75.5l-47 12q26 43 48 90t37 94z" />
<glyph unicode="&#x394;" horiz-adv-x="623" d="M242 690h141l225 -670l-2 -20h-589l-2 20zM154 94h291l-145 453z" />
<glyph unicode="&#x3a9;" horiz-adv-x="771" d="M322 0h-272l-17 90l14 14l213 -42q-50 29 -89 79t-61.5 112t-22.5 127q0 66 22.5 123.5t63.5 101.5t96.5 68.5t121.5 24.5q88 0 154 -43t102 -114.5t36 -158.5q0 -68 -22.5 -130.5t-62 -112t-89.5 -78.5l215 43l14 -14l-17 -90h-273l-13 56q49 51 82 130.5t33 175.5 q0 64 -18.5 118.5t-55 87.5t-89.5 33q-52 0 -89.5 -32t-57.5 -86t-20 -122q0 -96 34.5 -174t81.5 -131z" />
<glyph unicode="&#x3bc;" horiz-adv-x="569" d="M77 328q0 44 -2.5 83t-8.5 81l122 16l14 -14v-326q0 -83 69 -83q46 0 92 35v378l125 10v-372q0 -36 4.5 -70.5t12.5 -64.5l-104 -11q-15 31 -26 74h-4q-68 -71 -151 -74q-23 -1 -44 6q12 -37 18 -80t9.5 -83t9.5 -69l-122 -16l-14 14v566z" />
<glyph unicode="&#x3c0;" horiz-adv-x="630" d="M102 0v411l-99 -1l18 90l581 8l8 -14l-23 -77l-72 -1v-260q0 -30 7 -45.5t26 -15.5q17 0 40 9l-7 -104q-19 -4 -40 -7t-40 -3q-48 0 -79.5 30.5t-31.5 99.5v295l-163 -2v-413h-125z" />
<glyph unicode="&#x1e0c;" horiz-adv-x="686" d="M636 348q0 -111 -46 -189t-125.5 -118.5t-179.5 -40.5h-200v522q0 44 -1.5 83.5t-7.5 82.5h225q100 0 175.5 -41t117.5 -117t42 -182zM293 595h-80v-502h81q109 0 159 68.5t50 180.5q0 73 -23.5 130t-70 90t-116.5 33zM429 -157q0 -34 -23.5 -59.5t-60.5 -25.5 q-33 0 -52.5 21t-19.5 50q0 35 25.5 60t61.5 25q30 0 49.5 -19.5t19.5 -51.5z" />
<glyph unicode="&#x1e0d;" horiz-adv-x="576" d="M359 743l122 15l14 -14v-609q0 -34 6 -69t17 -66l-108 -10q-7 12 -13.5 29t-13.5 39h-2q-23 -31 -56.5 -49.5t-80.5 -18.5q-86 0 -139.5 64.5t-53.5 178.5q0 89 33.5 150.5t91 93t131.5 31.5q17 0 33 -2t30 -5v76q0 45 -2.5 84t-8.5 82zM180 249q0 -84 30.5 -134 t85.5 -50q24 0 42.5 9t31.5 23v337q-26 5 -49 5q-65 0 -103 -48t-38 -142zM365 -157q0 -34 -23.5 -59.5t-60.5 -25.5q-32 0 -52 21t-20 50q0 35 26 60t61 25q31 0 50 -19.5t19 -51.5z" />
<glyph unicode="&#x1e24;" horiz-adv-x="710" d="M213 0h-128v517q0 48 -2.5 90.5t-6.5 80.5l123 10l14 -14v-296h283v129q0 48 -2 90.5t-7 80.5l124 10l14 -14v-684h-129v295h-283v-295zM433 -157q0 -34 -23.5 -59.5t-60.5 -25.5q-33 0 -52.5 21t-19.5 50q0 35 25.5 60t61.5 25q31 0 50 -19.5t19 -51.5z" />
<glyph unicode="&#x1e25;" horiz-adv-x="572" d="M199 0h-125v577q0 44 -3 83t-9 83l122 15l15 -14v-303q74 67 157 67q64 0 100.5 -40t36.5 -113v-355h-126v331q0 90 -73 90q-46 0 -95 -37v-384zM367 -157q0 -34 -24 -59.5t-60 -25.5q-33 0 -52.5 21t-19.5 50q0 35 25.5 60t61.5 25q30 0 49.5 -19.5t19.5 -51.5z" />
<glyph unicode="&#x1e44;" horiz-adv-x="706" d="M421 861q0 -34 -23.5 -57t-60.5 -23q-32 0 -52.5 18.5t-20.5 46.5q0 31 26 54.5t62 23.5q30 0 49.5 -17.5t19.5 -45.5zM370 419q42 -69 75 -127t61 -123h3q-3 31 -5 56.5t-3 57.5t-1.5 79.5t-0.5 119.5q0 58 -2 108.5t-7 97.5l118 9l14 -14v-683h-124q-47 76 -86.5 144.5 t-78.5 131.5q-42 68 -73.5 123t-59.5 114h-2q7 -61 8 -113t1 -102v-298h-122v522q0 44 -2.5 86t-6.5 80l130 8q47 -79 87 -147t77 -130z" />
<glyph unicode="&#x1e45;" horiz-adv-x="577" d="M360 672q0 -34 -24 -60t-60 -26q-33 0 -52.5 21.5t-19.5 50.5q0 34 25.5 59.5t60.5 25.5q31 0 50.5 -19.5t19.5 -51.5zM204 0h-125v328q0 44 -5 80.5t-15 76.5l117 23q14 -36 22 -73q76 73 163 73q64 0 100.5 -40t36.5 -113v-355h-126v331q0 90 -73 90q-46 0 -95 -37 v-384z" />
<glyph unicode="&#x1e5a;" horiz-adv-x="606" d="M213 0h-128v522q0 44 -1.5 83.5t-7.5 82.5h210q128 0 198 -58t70 -157q0 -73 -35.5 -120t-89.5 -69l158 -284l-146 -7q-32 62 -63.5 127t-60.5 131h-104v-251zM277 595h-64v-255h63q75 0 110 33.5t35 92.5q0 57 -33 93t-111 36zM390 -157q0 -34 -24 -59.5t-60 -25.5 q-33 0 -52.5 21t-19.5 50q0 35 25.5 60t60.5 25q31 0 50.5 -19.5t19.5 -51.5z" />
<glyph unicode="&#x1e5b;" horiz-adv-x="399" d="M204 0h-125v328q0 44 -5 80.5t-15 76.5l117 23q9 -24 16.5 -51t10.5 -53q27 46 59.5 75t73.5 29q15 0 28.5 -4t20.5 -10l-13 -118q-13 4 -26.5 6t-29.5 2q-25 0 -56 -9.5t-56 -30.5v-344zM221 -157q0 -34 -24 -59.5t-60 -25.5q-33 0 -52.5 21t-19.5 50q0 35 25.5 60 t60.5 25q31 0 50.5 -19.5t19.5 -51.5z" />
<glyph unicode="&#x1e62;" horiz-adv-x="531" d="M481 183q0 -62 -31 -105t-86 -65.5t-127 -22.5q-47 0 -100.5 9.5t-86.5 27.5l9 109q26 -15 59 -25.5t65 -15.5t56 -5q53 0 81.5 22.5t28.5 61.5q0 36 -21.5 60.5t-55 42.5t-70.5 37t-71 42.5t-56 58.5t-22 88q0 62 32 105.5t88.5 66.5t129.5 23q44 0 88 -8t72 -20 l-16 -111q-35 20 -74 29.5t-72 9.5q-56 0 -86 -23t-30 -62q0 -35 22 -58t55.5 -40.5t69.5 -36.5q36 -18 70 -42.5t56.5 -61t22.5 -91.5zM356 -157q0 -34 -24 -59.5t-60 -25.5q-33 0 -52.5 21t-19.5 50q0 35 25.5 60t61.5 25q30 0 49.5 -19.5t19.5 -51.5z" />
<glyph unicode="&#x1e63;" horiz-adv-x="445" d="M389 480l-9 -96q-35 19 -70.5 29.5t-64.5 10.5q-37 0 -58 -15t-21 -40q0 -22 17.5 -37.5t44.5 -28t57.5 -26t57.5 -31.5t44.5 -44.5t17.5 -65.5q0 -66 -54.5 -106t-145.5 -40q-43 0 -88 9.5t-76 26.5l9 95q40 -23 83.5 -35t74.5 -12q38 0 57 15t19 38q0 22 -17 37.5 t-44 28t-57.5 26t-57.5 31.5t-44.5 44t-17.5 65q0 67 55 108t145 41q72 0 143 -28zM309 -157q0 -34 -24 -59.5t-60 -25.5q-33 0 -52.5 21t-19.5 50q0 35 25.5 60t60.5 25q31 0 50.5 -19.5t19.5 -51.5z" />
<glyph unicode="&#x1e6c;" horiz-adv-x="560" d="M345 0h-129v592q-50 -1 -100 -3l-100 -4l7 103h514l7 -103l-100 4t-99 3v-592zM359 -157q0 -34 -23.5 -59.5t-60.5 -25.5q-33 0 -52.5 21t-19.5 50q0 35 25.5 60t61.5 25q31 0 50 -19.5t19 -51.5z" />
<glyph unicode="&#x1e6d;" horiz-adv-x="388" d="M351 430l-140 3v-258q0 -51 18 -73t51 -22q20 0 40 6.5t39 17.5l9 -78q-22 -14 -55 -25t-73 -11q-74 0 -114 45t-40 136v264l-70 1v47l73 15l31 124l78 6l15 -15l-2 -115h136l9 -14zM293 -157q0 -34 -23.5 -59.5t-59.5 -25.5q-33 0 -52.5 21t-19.5 50q0 35 25.5 60 t60.5 25q31 0 50 -19.5t19 -51.5z" />
<glyph unicode="&#x1e80;" horiz-adv-x="970" d="M617 768q-71 4 -138 20t-130 49l-6 21l77 67q45 -35 98.5 -66.5t108.5 -58.5zM210 -2l-192 687l135 13l98 -379q13 -51 23.5 -100t16.5 -87q8 38 22 92t27 102l95 364l124 8l98 -379q14 -51 26 -100t19 -87q7 39 19.5 93t25.5 103l95 370l103 -8l8 -14l-192 -678h-134 l-95 329q-12 46 -22.5 93.5t-22.5 97.5h-2q-11 -50 -22.5 -98t-24.5 -95l-94 -327h-134z" />
<glyph unicode="&#x1e81;" horiz-adv-x="786" d="M457 571q-48 35 -87.5 75t-71.5 88l8 21l112 12q15 -47 37.5 -93.5t47.5 -90.5zM153 -2l-138 499l128 11l57 -244q15 -50 23.5 -88.5t14.5 -70.5h2q6 37 14.5 73t21.5 83l54 241h149l54 -236q9 -37 21 -81t17 -79h2q6 36 16.5 78t20.5 80l56 244l97 -8l8 -14l-137 -488 h-148l-56 225q-13 50 -22.5 90t-14.5 81h-2q-5 -42 -15 -83.5t-21 -87.5l-57 -225h-145z" />
<glyph unicode="&#x1e82;" horiz-adv-x="970" d="M627 858l-6 -21q-62 -33 -129 -49t-139 -20l-10 32q55 27 108.5 58.5t98.5 66.5zM210 -2l-192 687l135 13l98 -379q13 -51 23.5 -100t16.5 -87q8 38 22 92t27 102l95 364l124 8l98 -379q14 -51 26 -100t19 -87q7 39 19.5 93t25.5 103l95 370l103 -8l8 -14l-192 -678h-134 l-95 329q-12 46 -22.5 93.5t-22.5 97.5h-2q-11 -50 -22.5 -98t-24.5 -95l-94 -327h-134z" />
<glyph unicode="&#x1e83;" horiz-adv-x="786" d="M496 754l7 -21q-31 -48 -70.5 -88t-87.5 -75l-47 11q26 45 48 91.5t37 92.5zM153 -2l-138 499l128 11l57 -244q15 -50 23.5 -88.5t14.5 -70.5h2q6 37 14.5 73t21.5 83l54 241h149l54 -236q9 -37 21 -81t17 -79h2q6 36 16.5 78t20.5 80l56 244l97 -8l8 -14l-137 -488h-148 l-56 225q-13 50 -22.5 90t-14.5 81h-2q-5 -42 -15 -83.5t-21 -87.5l-57 -225h-145z" />
<glyph unicode="&#x1e84;" horiz-adv-x="970" d="M665 851q0 -31 -21 -52.5t-55 -21.5q-28 0 -45.5 17t-17.5 42q0 29 22.5 51t54.5 22q27 0 44.5 -16.5t17.5 -41.5zM445 851q0 -31 -21.5 -52.5t-55.5 -21.5q-28 0 -45.5 17t-17.5 42q0 29 22.5 51t54.5 22q27 0 45 -16.5t18 -41.5zM210 -2l-192 687l135 13l98 -379 q13 -51 23.5 -100t16.5 -87q8 38 22 92t27 102l95 364l124 8l98 -379q14 -51 26 -100t19 -87q7 39 19.5 93t25.5 103l95 370l103 -8l8 -14l-192 -678h-134l-95 329q-12 46 -22.5 93.5t-22.5 97.5h-2q-11 -50 -22.5 -98t-24.5 -95l-94 -327h-134z" />
<glyph unicode="&#x1e85;" horiz-adv-x="786" d="M362 672q0 -32 -21.5 -56.5t-54.5 -24.5q-31 0 -48.5 20t-17.5 47q0 33 23.5 57t55.5 24q28 0 45.5 -18.5t17.5 -48.5zM581 672q0 -32 -21.5 -56.5t-54.5 -24.5q-31 0 -48.5 20t-17.5 47q0 33 23.5 57t55.5 24q28 0 45.5 -18.5t17.5 -48.5zM153 -2l-138 499l128 11 l57 -244q15 -50 23.5 -88.5t14.5 -70.5h2q6 37 14.5 73t21.5 83l54 241h149l54 -236q9 -37 21 -81t17 -79h2q6 36 16.5 78t20.5 80l56 244l97 -8l8 -14l-137 -488h-148l-56 225q-13 50 -22.5 90t-14.5 81h-2q-5 -42 -15 -83.5t-21 -87.5l-57 -225h-145z" />
<glyph unicode="&#x1e92;" horiz-adv-x="550" d="M51 0l-21 83l340 500l-327 -7l8 112h431l32 -83l-336 -499l335 6l-7 -112h-455zM358 -157q0 -34 -24 -59.5t-60 -25.5q-33 0 -52.5 21t-19.5 50q0 35 25.5 60t61.5 25q30 0 49.5 -19.5t19.5 -51.5z" />
<glyph unicode="&#x1e93;" horiz-adv-x="446" d="M29 395l7 103h363l13 -80l-249 -320l102 1q39 0 78.5 1.5t76.5 5.5l-7 -106h-373l-14 80l255 320zM301 -157q0 -34 -23.5 -59.5t-60.5 -25.5q-32 0 -52 21t-20 50q0 35 26 60t61 25q31 0 50 -19.5t19 -51.5z" />
<glyph unicode="&#x1e9e;" horiz-adv-x="668" d="M81 144v312q0 78 33 132t91 82t133 28q85 0 149 -37t86 -109l-147 -168q53 -21 96.5 -49.5t69.5 -68.5t26 -96q0 -58 -26.5 -98t-72.5 -61t-104 -21q-34 0 -71 7t-64 20v109q25 -16 56.5 -26t58.5 -10q42 0 66.5 21t24.5 61q0 32 -18.5 57t-60 50t-111.5 55v33l138 175 q-14 29 -40 43t-57 14q-58 0 -92.5 -40t-34.5 -112v-345q0 -28 -7 -62t-22 -50l-118 10q9 28 13.5 67.5t4.5 76.5z" />
<glyph unicode="&#x1ea0;" horiz-adv-x="630" d="M137 0h-122l186 585q10 29 18 57t12 49l147 6l20 -17l217 -680h-129l-53 166h-243zM250 357l-31 -98h184l-30 97q-21 71 -36 127t-23 96h-4q-9 -39 -25 -99t-35 -123zM393 -157q0 -34 -23.5 -59.5t-60.5 -25.5q-33 0 -52.5 21t-19.5 50q0 35 25.5 60t61.5 25 q30 0 49.5 -19.5t19.5 -51.5z" />
<glyph unicode="&#x1ea1;" horiz-adv-x="514" d="M434 137q0 -35 5.5 -70t16.5 -67l-105 -10q-9 15 -15.5 33t-11.5 36h-3q-20 -28 -59.5 -48.5t-89.5 -20.5q-59 0 -95 32t-36 88q0 57 36 93t97.5 54t137.5 21v48q0 89 -93 89q-37 0 -77 -12t-74 -32l-7 98q35 15 86 27t103 12q93 0 140 -43t47 -122q0 -53 -1.5 -107.5 t-1.5 -98.5zM164 131q0 -27 16.5 -46.5t48.5 -19.5q22 0 44.5 9.5t38.5 24.5v135q-61 -5 -104.5 -30.5t-43.5 -72.5zM333 -157q0 -34 -23.5 -59.5t-60.5 -25.5q-32 0 -52 21t-20 50q0 35 26 60t61 25q31 0 50 -19.5t19 -51.5z" />
<glyph unicode="&#x1eb8;" horiz-adv-x="537" d="M504 100v-100h-419v522q0 44 -1.5 83.5t-7.5 82.5h407l14 -14l-3 -86l-281 7v-212l235 4l-3 -93l-232 5v-206zM390 -157q0 -34 -24 -59.5t-60 -25.5q-33 0 -52.5 21t-19.5 50q0 35 25.5 60t60.5 25q31 0 50.5 -19.5t19.5 -51.5z" />
<glyph unicode="&#x1eb9;" horiz-adv-x="523" d="M477 251l-15 -15h-281q7 -81 47 -118.5t103 -37.5q35 0 67 10.5t57 25.5l8 -83q-23 -15 -65 -29t-100 -14q-74 0 -129.5 29.5t-86.5 85.5t-31 137q0 83 31.5 142.5t85 91.5t118.5 32q89 0 140.5 -56t51.5 -146v-26.5t-1 -28.5zM280 433q-42 0 -69.5 -40t-30.5 -111l174 7 q1 17 1 36q0 46 -18.5 77t-56.5 31zM362 -157q0 -34 -23.5 -59.5t-60.5 -25.5q-33 0 -52.5 21t-19.5 50q0 35 25.5 60t61.5 25q30 0 49.5 -19.5t19.5 -51.5z" />
<glyph unicode="&#x1ebc;" horiz-adv-x="537" d="M221 922q31 0 55.5 -14t47 -28t47.5 -14q22 0 36 13.5t26 34.5l33 -5q-1 -32 -12.5 -61t-33 -48t-54.5 -19q-30 0 -56 14t-50.5 28t-47.5 14q-19 0 -33.5 -12.5t-27.5 -35.5l-33 5q2 30 12 59.5t32 49t59 19.5zM504 100v-100h-419v522q0 44 -1.5 83.5t-7.5 82.5h407 l14 -14l-3 -86l-281 7v-212l235 4l-3 -93l-232 5v-206z" />
<glyph unicode="&#x1ebd;" horiz-adv-x="523" d="M196 742q30 0 55 -14.5t47.5 -28.5t45.5 -14q20 0 32.5 13.5t23.5 34.5l37 -5q-2 -34 -13 -66t-32 -53t-53 -21q-28 0 -55 14t-51 28.5t-45 14.5q-17 0 -30.5 -13t-24.5 -36l-36 6q2 32 12 64.5t31.5 54t55.5 21.5zM477 251l-15 -15h-281q7 -81 47 -118.5t103 -37.5 q35 0 67 10.5t57 25.5l8 -83q-23 -15 -65 -29t-100 -14q-74 0 -129.5 29.5t-86.5 85.5t-31 137q0 83 31.5 142.5t85 91.5t118.5 32q89 0 140.5 -56t51.5 -146v-26.5t-1 -28.5zM280 433q-42 0 -69.5 -40t-30.5 -111l174 7q1 17 1 36q0 46 -18.5 77t-56.5 31z" />
<glyph unicode="&#x1eca;" horiz-adv-x="298" d="M213 0h-128v517q0 48 -2.5 90.5t-6.5 80.5l123 10l14 -14v-684zM228 -157q0 -34 -24 -59.5t-60 -25.5q-33 0 -52.5 21t-19.5 50q0 35 25.5 60t61.5 25q30 0 49.5 -19.5t19.5 -51.5z" />
<glyph unicode="&#x1ecb;" horiz-adv-x="281" d="M217 672q0 -34 -24 -60t-60 -26q-33 0 -52.5 21.5t-19.5 50.5q0 34 25.5 59.5t61.5 25.5q30 0 49.5 -19.5t19.5 -51.5zM77 0v327q0 44 -2.5 83t-9.5 83l123 15l14 -14v-494h-125zM222 -157q0 -34 -24 -59.5t-60 -25.5q-33 0 -52.5 21t-19.5 50q0 35 25.5 60t60.5 25 q31 0 50.5 -19.5t19.5 -51.5z" />
<glyph unicode="&#x1ecc;" horiz-adv-x="707" d="M657 346q0 -116 -42 -195.5t-112.5 -120t-156.5 -40.5t-153 40.5t-105 117t-38 185.5q0 112 40.5 194t111 126.5t160.5 44.5q89 0 155.5 -43.5t103 -122.5t36.5 -186zM183 345q0 -74 19 -132t57 -92t95 -34q85 0 127.5 70t42.5 186q0 75 -17.5 133t-54.5 91.5t-94 33.5 q-83 0 -129 -69.5t-46 -186.5zM440 -157q0 -34 -23.5 -59.5t-59.5 -25.5q-33 0 -52.5 21t-19.5 50q0 35 25.5 60t60.5 25q31 0 50 -19.5t19 -51.5z" />
<glyph unicode="&#x1ecd;" horiz-adv-x="563" d="M513 252q0 -87 -33 -145t-87 -87.5t-118 -29.5t-115 29.5t-80 85.5t-29 137q0 85 32 144.5t86 90.5t119 31q67 0 117.5 -31t79 -88.5t28.5 -136.5zM180 252q0 -84 24.5 -135.5t77.5 -51.5q50 0 75.5 48t25.5 132q0 86 -24 137t-77 51q-48 0 -75 -45t-27 -136zM360 -157 q0 -34 -24 -59.5t-60 -25.5q-33 0 -52.5 21t-19.5 50q0 35 25.5 60t60.5 25q31 0 50.5 -19.5t19.5 -51.5z" />
<glyph unicode="&#x1ee4;" horiz-adv-x="666" d="M73 518q0 45 -2.5 86t-7.5 85l126 9l13 -13v-444q0 -75 37 -113.5t98 -38.5q60 0 96.5 38.5t36.5 113.5v301q0 43 -2 77.5t-8 69.5l133 8v-465q0 -81 -36 -134.5t-96 -80.5t-132 -27t-130 27t-92 81t-34 134v286zM411 -157q0 -34 -24 -59.5t-60 -25.5q-33 0 -52.5 21 t-19.5 50q0 35 25.5 60t61.5 25q30 0 49.5 -19.5t19.5 -51.5z" />
<glyph unicode="&#x1ee5;" horiz-adv-x="569" d="M77 326q0 45 -2.5 84.5t-8.5 81.5l122 16l14 -14v-326q0 -83 70 -83q45 0 91 35v378l125 10v-372q0 -36 4.5 -70.5t12.5 -64.5l-104 -11q-15 31 -26 74h-4q-71 -74 -158 -74q-63 0 -99.5 37.5t-36.5 101.5v197zM363 -157q0 -34 -23.5 -59.5t-60.5 -25.5q-32 0 -52 21 t-20 50q0 35 26 60t61 25q31 0 50 -19.5t19 -51.5z" />
<glyph unicode="&#x1ef2;" horiz-adv-x="571" d="M432 768q-72 4 -139 20t-129 49l-6 21l76 67q46 -35 99.5 -66.5t108.5 -58.5zM221 232l-207 453l137 13l91 -220q13 -34 29 -75.5t25 -70.5h3q11 30 28 71.5t30 74.5l89 220l104 -8l8 -14l-208 -446v-230h-129v232z" />
<glyph unicode="&#x1ef3;" horiz-adv-x="483" d="M306 571q-48 35 -87.5 75t-70.5 88l7 21l113 12q15 -47 37 -93.5t48 -90.5zM473 486l-150 -456q-18 -55 -41 -105.5t-56 -91t-79 -64.5t-110 -27l-18 110q71 4 123 41t82 114h-52l-157 490l131 11l67 -251q18 -56 28 -95t14 -75h2q6 36 16.5 74.5t28.5 95.5l67 251l96 -8 z" />
<glyph unicode="&#x1ef8;" horiz-adv-x="571" d="M228 916q31 0 55.5 -14t47 -28t47.5 -14q23 0 36.5 13.5t25.5 34.5l33 -5q-1 -32 -12 -61t-33 -48t-55 -19q-29 0 -55.5 14t-50.5 28t-48 14q-19 0 -33.5 -12.5t-26.5 -35.5l-33 5q1 30 11.5 59.5t32.5 49t58 19.5zM221 232l-207 453l137 13l91 -220q13 -34 29 -75.5 t25 -70.5h3q11 30 28 71.5t30 74.5l89 220l104 -8l8 -14l-208 -446v-230h-129v232z" />
<glyph unicode="&#x1ef9;" horiz-adv-x="483" d="M178 742q30 0 55 -14.5t47.5 -28.5t45.5 -14q20 0 32.5 13.5t23.5 34.5l36 -5q-1 -34 -12 -66t-32 -53t-53 -21q-28 0 -55 14t-51 28.5t-45 14.5q-17 0 -30.5 -13t-25.5 -36l-35 6q2 32 12 64.5t31.5 54t55.5 21.5zM473 486l-150 -456q-18 -55 -41 -105.5t-56 -91 t-79 -64.5t-110 -27l-18 110q71 4 123 41t82 114h-52l-157 490l131 11l67 -251q18 -56 28 -95t14 -75h2q6 36 16.5 74.5t28.5 95.5l67 251l96 -8z" />
<glyph unicode="&#x2007;" />
<glyph unicode="&#x2013;" horiz-adv-x="554" d="M30 262v44h494v-44h-494z" />
<glyph unicode="&#x2014;" horiz-adv-x="857" d="M30 262v44h797v-44h-797z" />
<glyph unicode="&#x2018;" horiz-adv-x="263" d="M222 736q-21 -31 -41.5 -70.5t-29.5 -79.5q26 -4 43.5 -24t17.5 -49q0 -34 -24.5 -59.5t-58.5 -25.5q-32 0 -54.5 21.5t-22.5 65.5q0 33 13 69.5t33.5 71t43 64t42.5 49.5z" />
<glyph unicode="&#x2019;" horiz-adv-x="263" d="M41 451q21 31 41.5 70.5t29.5 79.5q-26 4 -43.5 24t-17.5 49q0 34 24 59.5t59 25.5q32 0 54 -21.5t22 -65.5q0 -33 -13 -69.5t-33 -71t-43 -64t-42 -49.5z" />
<glyph unicode="&#x201a;" horiz-adv-x="263" d="M41 -159q21 30 41.5 70t29.5 80q-26 4 -43.5 24t-17.5 49q0 34 24 59.5t59 25.5q32 0 54 -22t22 -65q0 -34 -13 -70t-33 -70.5t-43 -64t-42 -49.5z" />
<glyph unicode="&#x201c;" horiz-adv-x="488" d="M222 736q-21 -31 -41.5 -70.5t-29.5 -79.5q26 -4 43.5 -24t17.5 -49q0 -34 -24.5 -59.5t-58.5 -25.5q-32 0 -54.5 21.5t-22.5 65.5q0 33 13 69.5t33.5 71t43 64t42.5 49.5zM447 736q-20 -31 -41 -70.5t-29 -79.5q25 -4 42.5 -24t17.5 -49q0 -34 -24 -59.5t-59 -25.5 q-31 0 -53.5 21.5t-22.5 65.5q0 33 13 69.5t33.5 71t43 64t41.5 49.5z" />
<glyph unicode="&#x201d;" horiz-adv-x="488" d="M267 451q20 31 41 70.5t29 80.5q-26 3 -43 23t-17 49q0 34 24 59.5t59 25.5q31 0 53.5 -21.5t22.5 -64.5q0 -34 -13 -70t-33.5 -71t-43 -64t-41.5 -49zM41 451q21 31 41.5 70.5t29.5 80.5q-26 3 -43.5 23t-17.5 49q0 34 24 59.5t59 25.5q32 0 54 -21.5t22 -64.5 q0 -34 -13 -70t-33 -71t-43 -64t-42 -49z" />
<glyph unicode="&#x201e;" horiz-adv-x="485" d="M41 -159q21 30 41.5 70t29.5 80q-26 4 -43.5 24t-17.5 49q0 34 24 59.5t59 25.5q32 0 54 -22t22 -65q0 -34 -13 -70t-33 -70.5t-43 -64t-42 -49.5zM263 -159q21 30 41.5 70t29.5 80q-26 4 -43.5 24t-17.5 49q0 34 24 59.5t59 25.5q32 0 54 -22t22 -65q0 -34 -13 -70 t-33 -70.5t-43 -64t-42 -49.5z" />
<glyph unicode="&#x2020;" horiz-adv-x="505" d="M285 0l-64 -1l-7 11l-30 147l38 297l-164 -16l-3 3q-6 37 -6 82l12 7l159 -15l-29 174l3 4q24 2 53.5 3.5t58.5 1.5l8 -8l-30 -176l163 16l3 -3q2 -16 4 -38.5t2 -43.5l-11 -7l-162 16l38 -297l-30 -147z" />
<glyph unicode="&#x2021;" horiz-adv-x="505" d="M194 -7l-8 7l36 180l-161 -26l-12 8q0 20 1.5 49.5t4.5 46.5l3 3l165 -26q-6 29 -11.5 58t-5.5 54q0 24 6 52.5t11 57.5l-165 -26l-3 3q-3 17 -4.5 46.5t-1.5 49.5l12 8l162 -26l-37 177l3 4q26 2 58 3.5t64 1.5l7 -8l-36 -178l165 26l3 -3q2 -17 4 -46.5t2 -49.5l-11 -8 l-163 25q6 -28 11.5 -56.5t5.5 -52.5t-6 -53.5t-11 -58.5l163 26l11 -8q0 -20 -2 -49.5t-4 -46.5l-3 -3l-165 26l36 -178l-3 -4q-25 -2 -57.5 -3.5t-63.5 -1.5z" />
<glyph unicode="&#x2022;" horiz-adv-x="473" d="M232 116q-58 0 -94.5 36.5t-37.5 87.5q-1 40 18.5 74t54 55t76.5 21q53 0 88 -34.5t36 -89.5q1 -39 -16.5 -73.5t-49.5 -55.5t-75 -21z" />
<glyph unicode="&#x2026;" horiz-adv-x="733" d="M212 71q0 -34 -23.5 -57.5t-57.5 -23.5t-56 22.5t-22 54.5q0 34 25 58t59 24q32 0 53.5 -21.5t21.5 -56.5zM446 71q0 -34 -24 -57.5t-57 -23.5q-34 0 -56 22.5t-22 54.5q0 34 24.5 58t59.5 24q32 0 53.5 -21.5t21.5 -56.5zM679 71q0 -34 -23.5 -57.5t-57.5 -23.5 t-56 22.5t-22 54.5q0 34 25 58t59 24q32 0 53.5 -21.5t21.5 -56.5z" />
<glyph unicode="&#x2030;" horiz-adv-x="1437" d="M431 499q0 -68 -27.5 -113.5t-72 -68.5t-95.5 -23q-53 0 -95 23t-66 67t-24 106q0 66 26 113t70.5 71t99.5 24q81 0 132.5 -53.5t51.5 -145.5zM737 698l-424 -708h-55l423 708h56zM158 499q0 -66 20 -105.5t63 -39.5q41 0 61.5 37.5t20.5 101.5q0 66 -19.5 105.5 t-62.5 39.5q-39 0 -61 -34.5t-22 -104.5zM912 127q0 -68 -27 -113.5t-71.5 -68.5t-96.5 -23q-53 0 -95 23t-66 67t-24 106q0 66 26.5 113t70.5 71t99 24q81 0 132.5 -53.5t51.5 -145.5zM1387 127q0 -68 -27.5 -113.5t-72 -68.5t-96.5 -23q-53 0 -94.5 23t-66 67t-24.5 106 q0 66 26.5 113t71 71t98.5 24q82 0 133.5 -53.5t51.5 -145.5zM639 127q0 -66 20 -105.5t63 -39.5q42 0 62 37.5t20 101.5q0 66 -19.5 105.5t-62.5 39.5q-39 0 -61 -34.5t-22 -104.5zM1114 127q0 -66 20 -105.5t63 -39.5q41 0 61.5 37.5t20.5 101.5q0 66 -19.5 105.5 t-62.5 39.5q-40 0 -61.5 -34.5t-21.5 -104.5z" />
<glyph unicode="&#x2039;" horiz-adv-x="289" d="M46 276v34q45 37 86.5 84t84.5 104l32 -14q-18 -54 -44 -102t-56 -89q30 -42 56 -90t44 -102l-32 -14q-43 57 -84.5 104t-86.5 85z" />
<glyph unicode="&#x203a;" horiz-adv-x="289" d="M243 276q-45 -38 -86.5 -85t-84.5 -104l-33 14q18 54 44.5 102t56.5 90q-30 41 -56.5 89t-44.5 102l33 14q43 -57 84.5 -104t86.5 -84v-34z" />
<glyph unicode="&#x2044;" horiz-adv-x="604" d="M542 700l-425 -710h-55l424 710h56z" />
<glyph unicode="&#x2070;" horiz-adv-x="460" d="M412 557q0 -71 -26 -118t-68.5 -71t-91.5 -24q-76 0 -126.5 53.5t-50.5 152.5q0 68 25 116.5t67 74t94 25.5q79 0 128 -56.5t49 -152.5zM148 557q0 -72 19 -115t64 -43q44 0 62.5 42t18.5 112q0 72 -18.5 114.5t-63.5 42.5q-82 0 -82 -153z" />
<glyph unicode="&#x2074;" horiz-adv-x="419" d="M37 505l166 255l106 6l11 -9v-244q30 2 58 5l-7 -71h-51v-95h-92v95h-180zM116 513v-2q18 0 43.5 0.5t68.5 0.5v77q0 30 0.5 57t3.5 53h-1z" />
<glyph unicode="&#x2075;" horiz-adv-x="395" d="M58 358l9 63q19 -7 47 -11t47 -4q38 0 63 17.5t25 52.5q0 34 -23 49t-56 15q-22 0 -45 -4.5t-40 -11.5l-14 8v226h158q26 0 52.5 1t51.5 5l-6 -76h-178v-92q27 6 59 6q58 0 99 -30t41 -90q0 -67 -52.5 -102.5t-131.5 -35.5q-57 0 -106 14z" />
<glyph unicode="&#x2076;" horiz-adv-x="414" d="M214 344q-70 0 -117.5 44.5t-47.5 135.5q0 70 29 124.5t81.5 86t125.5 31.5q37 0 55 -7l-8 -65q-9 2 -21.5 4.5t-25.5 2.5q-31 0 -60 -14t-49.5 -43t-26.5 -73h2q17 10 40.5 16t48.5 6q58 0 94 -31t36 -85q0 -43 -21.5 -72.5t-57 -45t-77.5 -15.5zM210 538 q-17 0 -35 -6.5t-27 -17.5q1 -59 14.5 -86.5t46.5 -27.5q30 0 46 19.5t16 50.5t-15.5 49.5t-45.5 18.5z" />
<glyph unicode="&#x2077;" horiz-adv-x="360" d="M34 678l8 80h286l12 -10v-50q-76 -74 -118.5 -161t-46.5 -185h-100q5 64 30.5 127t64 116.5t81.5 90.5v2h-87q-35 0 -68 -2.5t-62 -7.5z" />
<glyph unicode="&#x2078;" horiz-adv-x="419" d="M205 344q-73 0 -117 29.5t-44 76.5q0 42 32 70.5t70 38.5v2q-30 16 -57 40t-27 61q0 44 42 74t109 30q48 0 80 -15t48 -38t16 -47q0 -30 -23.5 -57t-59.5 -42v-2q24 -10 47.5 -24t38.5 -34.5t15 -47.5q0 -45 -44 -80t-126 -35zM211 714q-24 0 -42 -12.5t-18 -35.5 q0 -21 18.5 -39.5t49.5 -31.5q22 14 35.5 33t13.5 38q0 22 -16.5 35t-40.5 13zM200 524q-26 -10 -45.5 -29.5t-19.5 -43.5q0 -25 20 -40.5t53 -15.5q31 0 53 14.5t22 40.5q1 25 -21.5 42.5t-61.5 31.5z" />
<glyph unicode="&#x2079;" horiz-adv-x="414" d="M44 627q0 44 21.5 75t57 47.5t78.5 16.5q45 0 82.5 -19.5t59.5 -59t22 -99.5q0 -65 -27 -120.5t-79 -89.5t-127 -34q-11 0 -25 1t-24 4l-2 64q11 -2 22.5 -3t24.5 -1q118 0 137 121q-18 -12 -39.5 -18t-43.5 -6q-62 0 -100 31.5t-38 89.5zM143 632q0 -33 16.5 -52 t48.5 -19q15 0 31 5.5t26 18.5q-2 55 -16.5 87.5t-47.5 32.5q-27 0 -42.5 -20.5t-15.5 -52.5z" />
<glyph unicode="&#x207f;" horiz-adv-x="481" d="M172 290h-104v254q0 35 -4.5 63.5t-11.5 60.5l97 18q12 -29 18 -56q62 56 134 56q52 0 82 -31t30 -88v-277h-104v257q0 69 -60 69q-37 0 -77 -28v-298z" />
<glyph unicode="&#x2080;" horiz-adv-x="460" d="M412 133q0 -71 -26 -118t-68.5 -71t-91.5 -24q-76 0 -126.5 53.5t-50.5 152.5q0 68 25 116.5t67 74t94 25.5q79 0 128 -56.5t49 -152.5zM148 133q0 -72 19 -115t64 -43q44 0 62.5 42t18.5 112q0 72 -18.5 114.5t-63.5 42.5q-82 0 -82 -153z" />
<glyph unicode="&#x2081;" horiz-adv-x="275" d="M105 254h-1l-66 -9l-14 54l165 45l11 -10v-404h-96v242v44t1 38z" />
<glyph unicode="&#x2082;" horiz-adv-x="377" d="M49 -70l-11 63q28 19 61 44t62.5 53.5t48.5 59t19 60.5q0 31 -19 50t-52 19q-53 0 -110 -43l-9 71q24 14 62.5 25.5t79.5 11.5q64 0 105.5 -31.5t41.5 -82.5q0 -44 -30.5 -86.5t-76.5 -79.5t-92 -64h93q55 0 105 6l-7 -76h-271z" />
<glyph unicode="&#x2083;" horiz-adv-x="373" d="M45 310q22 12 59.5 22t74.5 10q57 0 95 -25.5t38 -65.5q0 -33 -27 -62.5t-73 -42.5q55 -6 88 -33.5t33 -70.5q0 -54 -50.5 -88t-131.5 -34q-26 0 -56.5 3.5t-54.5 10.5l9 60q19 -6 48.5 -10t49.5 -4q37 0 62 15.5t25 43.5q0 31 -29.5 43t-72.5 12q-12 0 -25.5 -1 t-26.5 -3v60q55 7 94 28t39 53q0 20 -15.5 33t-46.5 13q-24 0 -51.5 -8t-49.5 -20z" />
<glyph unicode="&#x2084;" horiz-adv-x="419" d="M37 83l166 255l106 6l11 -9v-244q30 2 58 5l-7 -71h-51v-95h-92v95h-180zM116 91v-2q18 0 43.5 0.5t68.5 0.5v77q0 30 0.5 57t3.5 53h-1z" />
<glyph unicode="&#x2085;" horiz-adv-x="395" d="M58 -66l9 63q19 -7 47 -11t47 -4q38 0 63 17.5t25 52.5q0 34 -23 49t-56 15q-22 0 -45 -4.5t-40 -11.5l-14 8v226h158q26 0 52.5 1t51.5 5l-6 -76h-178v-92q27 6 59 6q58 0 99 -30t41 -90q0 -67 -52.5 -102.5t-131.5 -35.5q-57 0 -106 14z" />
<glyph unicode="&#x2086;" horiz-adv-x="414" d="M214 -80q-70 0 -117.5 44.5t-47.5 135.5q0 70 29 124.5t81.5 86t125.5 31.5q37 0 55 -7l-8 -65q-9 2 -21.5 4.5t-25.5 2.5q-31 0 -60 -14t-49.5 -43t-26.5 -73h2q17 10 40.5 16t48.5 6q58 0 94 -31t36 -85q0 -43 -21.5 -72.5t-57 -45t-77.5 -15.5zM210 114 q-17 0 -35 -6.5t-27 -17.5q1 -59 14.5 -86.5t46.5 -27.5q30 0 46 19.5t16 50.5t-15.5 49.5t-45.5 18.5z" />
<glyph unicode="&#x2087;" horiz-adv-x="360" d="M34 256l8 80h286l12 -10v-50q-76 -74 -118.5 -161t-46.5 -185h-100q5 64 30.5 127t64 116.5t81.5 90.5v2h-87q-35 0 -68 -2.5t-62 -7.5z" />
<glyph unicode="&#x2088;" horiz-adv-x="419" d="M205 -80q-73 0 -117 29.5t-44 76.5q0 42 32 70.5t70 38.5v2q-30 16 -57 40t-27 61q0 44 42 74t109 30q48 0 80 -15t48 -38t16 -47q0 -30 -23.5 -57t-59.5 -42v-2q24 -10 47.5 -24t38.5 -34.5t15 -47.5q0 -45 -44 -80t-126 -35zM211 290q-24 0 -42 -12.5t-18 -35.5 q0 -21 18.5 -39.5t49.5 -31.5q22 14 35.5 33t13.5 38q0 22 -16.5 35t-40.5 13zM200 100q-26 -10 -45.5 -29.5t-19.5 -43.5q0 -25 20 -40.5t53 -15.5q31 0 53 14.5t22 40.5q1 25 -21.5 42.5t-61.5 31.5z" />
<glyph unicode="&#x2089;" horiz-adv-x="414" d="M44 203q0 44 21.5 75t57 47.5t78.5 16.5q45 0 82.5 -19.5t59.5 -59t22 -99.5q0 -65 -27 -120.5t-79 -89.5t-127 -34q-11 0 -25 1t-24 4l-2 64q11 -2 22.5 -3t24.5 -1q118 0 137 121q-18 -12 -39.5 -18t-43.5 -6q-62 0 -100 31.5t-38 89.5zM143 208q0 -33 16.5 -52 t48.5 -19q15 0 31 5.5t26 18.5q-2 55 -16.5 87.5t-47.5 32.5q-27 0 -42.5 -20.5t-15.5 -52.5z" />
<glyph unicode="&#x20ac;" horiz-adv-x="582" d="M30 248l4 48h58q-1 17 -1 35q0 26 2 50h-50l4 49h53q15 83 55 143t99.5 92.5t133.5 32.5q44 0 85.5 -11t70.5 -31l-24 -111q-31 22 -64.5 34.5t-65.5 12.5q-59 0 -100.5 -42.5t-57.5 -119.5h211l-4 -49h-213q-2 -19 -2 -39q0 -24 2 -46h204l-4 -48h-192q16 -72 57.5 -112 t105.5 -40q37 0 73.5 13t63.5 33l15 -105q-35 -23 -79 -35t-90 -12q-115 0 -189.5 67.5t-93.5 190.5h-67z" />
<glyph unicode="&#x2122;" horiz-adv-x="580" d="M503 690l8 -5l24 -225h-55l-9 82q-2 20 -3.5 43.5t-2.5 50.5h-2q-4 -25 -10 -51t-11 -44l-22 -81h-62l-22 81q-8 30 -12.5 49.5t-9.5 46.5h-1q-1 -17 -1 -26t-1 -23.5t-5 -46.5l-9 -81h-46l25 228l75 2l22 -70q6 -25 11 -50.5t9 -57.5h1q5 36 10.5 65.5t9.5 42.5l21 68z M164 460h-57v186q-17 0 -33.5 -0.5t-33.5 -1.5l3 43h186l4 -43q-18 1 -34.5 1.5t-34.5 0.5v-186z" />
<glyph unicode="&#x2202;" horiz-adv-x="668" d="M311 758q75 0 129.5 -30t90 -83t52.5 -121.5t17 -144.5q0 -69 -15 -137.5t-49 -125.5t-91.5 -91.5t-143.5 -34.5q-75 0 -128 28.5t-81 78.5t-28 114q0 72 33 128.5t95.5 89t149.5 32.5q37 0 67 -6t56 -16q-11 105 -59 164t-124 59q-43 0 -83 -17t-66 -39l-43 81 q36 28 95 49.5t126 21.5zM196 216q0 -61 30.5 -95t82.5 -34q71 0 115 63.5t44 189.5q-23 11 -49.5 18t-60.5 7q-83 0 -122.5 -41.5t-39.5 -107.5z" />
<glyph unicode="&#x220f;" horiz-adv-x="755" d="M705 674l-5 -83h-93v-731h-125v731h-211v-731h-125v731h-93l-3 95l641 2z" />
<glyph unicode="&#x2211;" horiz-adv-x="583" d="M47 -46l237 326l-237 325l22 83h474l14 -14l-3 -86l-371 8l219 -300v-33l-218 -300l372 8l-1 -100h-486z" />
<glyph unicode="&#x2212;" d="M519 313h-450v65q31 1 76 2t96.5 1.5t103.5 1t97.5 0.5h77.5l7 -7z" />
<glyph unicode="&#x221a;" horiz-adv-x="628" d="M605 736l-216 -736h-135l-146 404h-97v94h186l130 -407l167 667l103 -8z" />
<glyph unicode="&#x221e;" horiz-adv-x="842" d="M772 271q0 -53 -22 -94.5t-61.5 -65t-90.5 -23.5q-64 0 -105 33t-71 78q-36 -53 -82 -82t-102 -29q-50 0 -88 23t-59.5 63.5t-21.5 94.5q0 53 22.5 94.5t61.5 65t90 23.5q62 0 103.5 -32t73.5 -78q36 54 81.5 82t101.5 28q50 0 88 -23t59.5 -63.5t21.5 -94.5zM591 384 q-42 0 -76.5 -28t-58.5 -72l1 -2q18 -34 38 -62.5t45 -46t59 -17.5q44 0 72 31.5t28 82.5t-31 82.5t-77 31.5zM143 273q0 -52 30 -84t77 -32q40 0 76 29t60 70l-1 2q-22 35 -42 63.5t-44.5 45.5t-56.5 17q-44 0 -71.5 -30.5t-27.5 -80.5z" />
<glyph unicode="&#x222b;" horiz-adv-x="456" d="M166 -174q30 0 44.5 17t14.5 56q0 19 -5 55.5t-17 105t-33 183.5q-20 107 -34.5 193.5t-14.5 137.5q0 94 48.5 139t130.5 45q30 0 63.5 -6.5t66.5 -21.5l-10 -96q-66 40 -120 40q-31 0 -45.5 -16.5t-14.5 -54.5q0 -13 2.5 -35t9 -59t17 -97t25.5 -149q20 -111 35 -195.5 t15 -137.5q0 -98 -49 -143t-130 -45q-30 0 -63.5 6.5t-66.5 21.5l10 96q31 -19 63 -29.5t58 -10.5z" />
<glyph unicode="&#x2248;" d="M428 317q-14 0 -42 6t-62 15t-67 18t-58 15t-34 6q-11 0 -28 -21t-38 -49l-41 28q13 24 30 51t37.5 46t43.5 19q14 0 41.5 -6t62 -15t67.5 -18t58 -15t34 -6q10 0 27.5 20.5t39.5 48.5l40 -27q-13 -24 -30.5 -51t-38 -46t-42.5 -19zM428 104q-14 0 -42 6.5t-62 15.5 t-67 18t-58 15t-34 6q-11 0 -28 -21t-38 -49l-41 28q13 24 30 51t37.5 46t43.5 19q14 0 41.5 -6t62 -15t67.5 -18t58 -15t34 -6q10 0 27.5 20.5t39.5 48.5l40 -28q-13 -23 -30.5 -50t-38 -46.5t-42.5 -19.5z" />
<glyph unicode="&#x2260;" d="M145 123l46 96h-122v65q28 1 68.5 1.5t86.5 1.5l60 125h-215v66q42 1 109.5 2t138.5 2l57 119l9 2l55 -29l-44 -92q76 1 126 1l7 -7l-8 -64h-158l-60 -124q63 0 122 0.5t97 0.5l7 -7l-8 -63h-251l-59 -123l-9 -2z" />
<glyph unicode="&#x2264;" d="M178 434l343 -129v-70l-458 175v43l6 9q29 11 73.5 28t97.5 36t105.5 38t98.5 35t76 26v-70zM516 86h-450v65q31 1 76 2t96.5 1.5t103.5 1t97.5 0.5h77.5l7 -6z" />
<glyph unicode="&#x2265;" d="M75 235v70l344 129l-343 121v70q31 -10 76.5 -26t98.5 -35t105.5 -38t97.5 -36t74 -28l5 -9v-43zM522 86h-450v65q31 1 76 2t96.5 1.5t103.5 1t97.5 0.5h77.5l7 -6z" />
<glyph unicode="&#x25ca;" horiz-adv-x="626" d="M67 323v38l211 329l78 10l220 -340v-37l-216 -323l-77 -10zM317 639l-180 -298l181 -289h4l185 290l-185 297h-5z" />
<glyph unicode="&#x25fc;" horiz-adv-x="510" d="M0 510h510v-510h-510v510z" />
<glyph unicode="&#xfb00;" horiz-adv-x="641" d="M220 0h-125v421l-73 4v46l73 15l-2 40t-1 31q0 87 55.5 134t145.5 47q41 0 75.5 -8.5t60.5 -20.5q52 49 146 49q37 0 72 -8.5t58 -22.5l-26 -95q-22 13 -48 23t-55 10q-40 0 -59 -24t-19 -68q0 -21 1 -45t2 -42h128l9 -13l-3 -56l-132 4v-421h-125v421h-158v-421z M215 554q0 -9 1 -31t2 -37h160q-1 22 -2 43.5t-1 35.5q0 35 8 64q-18 11 -39.5 18t-45.5 7q-83 0 -83 -100z" />
<glyph unicode="&#xfb01;" horiz-adv-x="584" d="M220 0h-125v421l-73 4v46l73 15q-1 23 -2 44t-1 33q0 94 54 144.5t149 50.5q58 0 106.5 -17t81.5 -44l-58 -77q-27 19 -58.5 32t-67.5 13q-45 0 -64.5 -25t-19.5 -74q0 -13 0.5 -37.5t2.5 -42.5h148l123 22l14 -14v-494h-125v327q0 24 -0.5 46t-2.5 44l-155 4v-421z" />
<glyph unicode="&#xfb02;" horiz-adv-x="583" d="M220 0h-125v421l-73 4v46l73 15q-1 23 -2 44t-1 36q0 92 55.5 142t156.5 50q48 0 92 -12l97 12l14 -14v-744h-125v417l-162 4v-421zM215 573q0 -21 1 -45t2 -42h164v0v91q0 39 -2 73q-17 7 -36 11t-40 4q-46 0 -67.5 -24t-21.5 -68z" />
<glyph unicode="&#xfb03;" horiz-adv-x="867" d="M220 0h-125v421l-73 4v46l73 15q-1 21 -2 40.5t-1 30.5q0 87 57 134t148 47q41 0 74.5 -8.5t59.5 -20.5q53 49 147 49q59 0 107.5 -17t81.5 -44l-59 -77q-26 19 -57.5 32t-67.5 13q-46 0 -65.5 -25t-19.5 -74q0 -13 1 -37.5t2 -42.5h149l123 22l14 -14v-494h-125v327 q0 24 -1 46t-3 44l-155 4v-421h-125v421h-158v-421zM215 554q0 -9 1 -31t2 -37h160q-1 23 -2 44t-1 33q0 32 7 59q-17 10 -37 16.5t-44 6.5q-41 0 -63.5 -22.5t-22.5 -68.5z" />
<glyph unicode="&#xfb04;" horiz-adv-x="866" d="M220 0h-125v421l-73 4v46l73 15q-1 21 -2 40.5t-1 30.5q0 87 57 134t148 47q41 0 75 -8.5t60 -20.5q55 49 155 49q48 0 92 -12l97 12l15 -14v-744h-125v417l-163 4v-421h-125v421h-158v-421zM498 573q0 -21 1 -45t2 -42h164h1v91q0 39 -2 73q-18 7 -37 11t-40 4 q-45 0 -67 -24t-22 -68zM215 554q0 -9 1 -31t2 -37h160q-1 23 -2 44t-1 36q0 30 6 56q-16 10 -36.5 16.5t-43.5 6.5q-41 0 -63.5 -22.5t-22.5 -68.5z" />
<glyph unicode="&#xfb06;" horiz-adv-x="817" d="M389 480l-9 -96q-35 19 -70.5 29.5t-64.5 10.5q-37 0 -58 -15t-21 -40q0 -22 17.5 -37.5t44.5 -28t57.5 -26t57.5 -31.5t44.5 -44.5t17.5 -65.5q0 -66 -54.5 -106t-145.5 -40q-43 0 -88 9.5t-76 26.5l9 95q40 -23 83.5 -35t74.5 -12q38 0 57 15t19 38q0 22 -17 37.5 t-44 28t-57.5 26t-57.5 31.5t-44.5 44t-17.5 65q0 67 55 108t145 41q34 0 69 -7q-18 40 -18 83q0 49 23 86t64 57.5t95 20.5q76 0 124.5 -43t48.5 -120q0 -23 -4 -46.5t-9 -40.5h136l10 -14l-6 -54l-140 3v-258q0 -24 6 -45.5t21 -35.5t43 -14q20 0 39.5 6.5t38.5 17.5 l10 -78q-23 -14 -56 -25t-72 -11q-57 0 -91 25t-49 66.5t-15 89.5v264l-63 1v47l66 15q3 9 7.5 30t4.5 44q0 44 -19.5 70.5t-57.5 26.5q-37 0 -62 -26t-25 -72t24 -91z" />
<glyph horiz-adv-x="430" d="M361 36q0 -27 4 -54.5t14 -51.5l-88 -8q-7 12 -12.5 26t-8.5 28h-3q-17 -22 -49.5 -38t-72.5 -16q-49 0 -78.5 24.5t-29.5 69.5q0 44 29.5 72t80 42.5t112.5 16.5v35q0 68 -75 68q-31 0 -63.5 -8.5t-61.5 -24.5l-5 79q28 12 70.5 21t85.5 9q76 0 115 -33.5t39 -96.5 q0 -41 -1.5 -83t-1.5 -77zM140 33q0 -21 13.5 -36t39.5 -15q18 0 35.5 7.5t30.5 18.5v104q-49 -4 -84 -23.5t-35 -55.5z" />
<glyph horiz-adv-x="476" d="M429 127q0 -99 -49.5 -152t-134.5 -53q-51 0 -94 14l-87 -14v457q0 35 -2.5 66t-7.5 64l102 12l12 -11v-220q20 17 46.5 26.5t56.5 9.5q73 0 115.5 -53.5t42.5 -145.5zM230 261q-35 0 -62 -19v-255q28 -9 57 -9q97 0 97 143q0 140 -92 140z" />
<glyph horiz-adv-x="408" d="M374 297l-23 -79q-22 15 -47 23.5t-50 8.5q-45 0 -72.5 -31t-27.5 -89q0 -63 30.5 -98.5t86.5 -35.5q24 0 47 7t44 18l7 -67q-22 -14 -53.5 -23t-71.5 -9q-88 0 -142.5 53t-54.5 146q0 62 26 108.5t72 71.5t106 25q37 0 68.5 -8t54.5 -21z" />
<glyph horiz-adv-x="482" d="M299 509l102 12l12 -11v-475q0 -27 4.5 -54t14.5 -51l-90 -8q-6 10 -11.5 23t-11.5 30h-1q-19 -24 -47 -38.5t-66 -14.5q-70 0 -114 50.5t-44 138.5q0 70 27.5 118t75 72.5t107.5 24.5q27 0 52 -5v58q0 35 -2.5 66t-7.5 64zM154 125q0 -65 25 -104t69 -39q20 0 35 7 t26 17v261q-21 4 -40 4q-53 0 -84 -37t-31 -109z" />
<glyph horiz-adv-x="439" d="M397 126l-12 -12h-230q7 -62 39.5 -90t82.5 -28q30 0 55.5 7.5t46.5 19.5l7 -67q-19 -12 -53.5 -23t-82.5 -11q-91 0 -147 51t-56 146q0 64 26 110.5t70 71.5t97 25q73 0 115.5 -44t42.5 -114v-21t-1 -21zM235 266q-34 0 -56 -30.5t-25 -84.5l141 5q1 6 1 12.5v15.5 q0 35 -15 58.5t-46 23.5z" />
<glyph horiz-adv-x="317" d="M185 -70h-104v326l-59 4v37l59 12q-1 17 -1.5 33t-0.5 28q0 72 43.5 111.5t121.5 39.5q30 0 59 -6.5t48 -17.5l-22 -77q-18 10 -39.5 17.5t-44.5 7.5q-64 0 -64 -69q0 -17 1 -35.5t2 -31.5h104l8 -11l-3 -45l-108 3v-326z" />
<glyph horiz-adv-x="430" d="M90 -22q0 22 12 39.5t31 30.5q-42 15 -68 47.5t-26 79.5q0 41 20.5 75.5t58 55t89.5 20.5q30 0 55.5 -7t41.5 -19q15 24 41.5 36t54.5 12l13 -9l-2 -66h-85q16 -13 29 -35.5t13 -55.5q0 -62 -44 -103.5t-120 -41.5q-15 0 -29 2q-6 -11 -6 -23q0 -17 10 -24t32 -8l73 -5 q54 -3 91.5 -27t37.5 -74q0 -39 -25.5 -72t-74.5 -53t-119 -20q-82 0 -131.5 27.5t-49.5 69.5q0 28 20 47t42 25l38 -16q-4 -5 -7.5 -11.5t-3.5 -15.5q0 -29 28 -52t78 -23q44 0 72 19t28 49q0 24 -19 38t-53 17l-66 6q-80 8 -80 65zM269 181q0 44 -15.5 68.5t-48.5 24.5 q-34 0 -50 -24.5t-16 -68.5q0 -92 66 -92q64 0 64 92z" />
<glyph horiz-adv-x="477" d="M168 -70h-104v449q0 35 -2 65.5t-8 64.5l102 12l12 -11v-236q60 52 129 52q52 0 82 -31t30 -88v-277h-104v257q0 69 -60 69q-38 0 -77 -28v-298z" />
<glyph horiz-adv-x="239" d="M182 470q0 -29 -19.5 -49.5t-49.5 -20.5q-27 0 -43 17t-16 40q0 28 21 48.5t51 20.5q25 0 40.5 -15.5t15.5 -40.5zM66 -70v254q0 34 -2 65t-8 65l103 12l11 -11v-385h-104z" />
<glyph horiz-adv-x="240" d="M182 470q0 -29 -19.5 -49.5t-49.5 -20.5q-27 0 -43 17t-16 40q0 28 21 48.5t50 20.5q25 0 41 -15.5t16 -40.5zM69 -268l-41 37q17 33 28.5 75.5t11.5 100.5v239q0 34 -2.5 65t-7.5 65l102 12l12 -11v-370q0 -50 -10 -87t-32.5 -67t-60.5 -59z" />
<glyph horiz-adv-x="446" d="M64 379q0 35 -2.5 65.5t-7.5 64.5l102 12l12 -11v-360h44q25 38 52.5 84.5t53.5 91.5l84 -8l7 -12l-109 -151q29 -53 62.5 -108t71.5 -117l-118 -8q-25 40 -51 85t-49 88h-48v-165h-104v449z" />
<glyph horiz-adv-x="236" d="M167 -70h-104v449q0 35 -2 65.5t-8 64.5l103 12l11 -11v-580z" />
<glyph horiz-adv-x="715" d="M172 -70h-104v254q0 35 -4.5 63.5t-11.5 60.5l97 18q12 -28 18 -56q62 56 131 56q76 0 101 -61q64 61 136 61q53 0 82.5 -31t29.5 -86v-279h-105v260q0 66 -59 66q-36 0 -75 -28q1 -9 1 -19v-279h-104v260q0 66 -59 66q-36 0 -74 -28v-298z" />
<glyph horiz-adv-x="481" d="M172 -70h-104v254q0 35 -4.5 63.5t-11.5 60.5l97 18q12 -29 18 -56q62 56 134 56q52 0 82 -31t30 -88v-277h-104v257q0 69 -60 69q-37 0 -77 -28v-298z" />
<glyph horiz-adv-x="473" d="M427 127q0 -68 -27.5 -113.5t-72 -68.5t-96.5 -23q-53 0 -94.5 23t-65.5 67t-24 106q0 66 26 113t70.5 71t98.5 24q82 0 133.5 -53.5t51.5 -145.5zM154 127q0 -66 20 -105.5t63 -39.5q41 0 61.5 37.5t20.5 101.5q0 66 -19.5 105.5t-62.5 39.5q-40 0 -61.5 -34.5 t-21.5 -104.5z" />
<glyph horiz-adv-x="481" d="M68 -255v439q0 36 -4.5 63.5t-11.5 60.5l97 18q9 -21 15 -42q20 18 49.5 30t63.5 12q69 0 113 -52.5t44 -144.5q0 -95 -48 -151t-137 -56q-39 0 -77 11v-58q0 -35 2 -65t7 -64l-101 -13zM234 261q-36 0 -62 -20v-252q12 -5 26.5 -8t29.5 -3q49 0 73.5 37t24.5 108 t-24.5 104.5t-67.5 33.5z" />
<glyph horiz-adv-x="482" d="M309 -255v217q-43 -40 -104 -40q-70 0 -114 53t-44 142q0 100 57 154.5t147 54.5q20 0 42 -3t40 -8l80 11v-450q0 -34 2 -65t7 -65l-102 -13zM154 125q0 -64 24 -103.5t69 -39.5q35 0 62 22v264q-19 3 -34 3q-60 0 -90.5 -38.5t-30.5 -107.5z" />
<glyph horiz-adv-x="336" d="M172 -70h-104v254q0 35 -4.5 63.5t-11.5 60.5l97 18q8 -20 14.5 -42t7.5 -40q22 36 48.5 59t61.5 23q24 0 40 -11l-11 -96q-11 3 -22 5t-24 2q-21 0 -46.5 -7.5t-45.5 -23.5v-265z" />
<glyph horiz-adv-x="374" d="M323 305l-7 -78q-59 31 -111 31q-30 0 -47 -11t-17 -30q0 -22 20 -35.5t49 -25t58 -25.5t49 -36.5t20 -58.5q0 -51 -44.5 -82.5t-120.5 -31.5q-35 0 -72 7.5t-63 21.5l8 76q32 -18 68.5 -27.5t61.5 -9.5q30 0 46 11.5t16 28.5q0 21 -20 35t-49 25.5t-58 26t-49 36.5 t-20 57q0 52 45 84t121 32q27 0 57.5 -5t58.5 -16z" />
<glyph horiz-adv-x="327" d="M292 264l-114 2v-198q0 -39 14.5 -55.5t41.5 -16.5q17 0 33.5 5t31.5 13l8 -63q-19 -12 -46 -20.5t-60 -8.5q-61 0 -94 35.5t-33 107.5v203l-57 1v37l59 12l26 98l65 4l13 -12l-2 -90h112l7 -11z" />
<glyph horiz-adv-x="475" d="M66 183q0 36 -2 66.5t-6 64.5l101 12l11 -11v-252q0 -64 58 -64q36 0 73 26v293l104 8v-290q0 -28 4 -55t10 -50l-86 -9q-6 12 -12 27t-10 31h-4q-58 -58 -129 -58q-52 0 -82 29.5t-30 79.5v152z" />
<glyph horiz-adv-x="409" d="M392 309l-131 -381h-113l-132 390l109 8l55 -197q14 -41 22 -71.5t12 -57.5h1q5 27 13.5 57.5t22.5 71.5l55 197l80 -6z" />
<glyph horiz-adv-x="653" d="M129 -72l-113 390l107 8l46 -190q12 -38 19 -67.5t11 -53.5h2q5 27 12 55t18 64l43 188h124l44 -185q8 -29 17.5 -62t13.5 -60h1q5 28 13.5 60t16.5 60l46 191l81 -6l7 -11l-112 -381h-124l-45 175q-11 37 -18.5 68.5t-12.5 63.5h-1q-4 -33 -12 -65t-17 -67l-46 -175 h-121z" />
<glyph horiz-adv-x="407" d="M277 -70l-87 147l-82 -147h-83l-6 11l118 183l-118 192l106 10l90 -159l84 159l83 -6l5 -11l-119 -184l119 -195h-110z" />
<glyph horiz-adv-x="405" d="M392 309l-122 -349q-19 -58 -47 -108.5t-73 -83t-115 -35.5l-16 90q59 2 101.5 29t67.5 82l-44 1l-128 383l109 8l55 -197q14 -41 22 -71.5t12 -57.5h1q5 27 13.5 57.5t22.5 71.5l55 197l80 -6z" />
<glyph horiz-adv-x="375" d="M28 235l6 83h297l11 -64l-202 -244l82 1q32 0 64.5 1t63.5 5l-7 -87h-306l-12 65l208 244z" />
<glyph horiz-adv-x="430" d="M361 396q0 -27 4 -54.5t14 -51.5l-88 -8q-7 12 -12.5 26t-8.5 28h-3q-17 -22 -49.5 -38t-72.5 -16q-49 0 -78.5 24.5t-29.5 69.5q0 44 29.5 72t80 42.5t112.5 16.5v35q0 68 -75 68q-31 0 -63.5 -8.5t-61.5 -24.5l-5 79q28 12 70.5 21t85.5 9q76 0 115 -33.5t39 -96.5 q0 -41 -1.5 -83t-1.5 -77zM140 393q0 -21 13.5 -36t39.5 -15q18 0 35.5 7.5t30.5 18.5v104q-49 -4 -84 -23.5t-35 -55.5z" />
<glyph horiz-adv-x="476" d="M429 487q0 -99 -49.5 -152t-134.5 -53q-51 0 -94 14l-87 -14v457q0 35 -2.5 66t-7.5 64l102 12l12 -11v-220q20 17 46.5 26.5t56.5 9.5q73 0 115.5 -53.5t42.5 -145.5zM230 621q-35 0 -62 -19v-255q28 -9 57 -9q97 0 97 143q0 140 -92 140z" />
<glyph horiz-adv-x="408" d="M374 657l-23 -79q-22 15 -47 23.5t-50 8.5q-45 0 -72.5 -31t-27.5 -89q0 -63 30.5 -98.5t86.5 -35.5q24 0 47 7t44 18l7 -67q-22 -14 -53.5 -23t-71.5 -9q-88 0 -142.5 53t-54.5 146q0 62 26 108.5t72 71.5t106 25q37 0 68.5 -8t54.5 -21z" />
<glyph horiz-adv-x="482" d="M299 869l102 12l12 -11v-475q0 -27 4.5 -54t14.5 -51l-90 -8q-6 10 -11.5 23t-11.5 30h-1q-19 -24 -47 -38.5t-66 -14.5q-70 0 -114 50.5t-44 138.5q0 70 27.5 118t75 72.5t107.5 24.5q27 0 52 -5v58q0 35 -2.5 66t-7.5 64zM154 485q0 -65 25 -104t69 -39q20 0 35 7 t26 17v261q-21 4 -40 4q-53 0 -84 -37t-31 -109z" />
<glyph horiz-adv-x="439" d="M397 486l-12 -12h-230q7 -62 39.5 -90t82.5 -28q30 0 55.5 7.5t46.5 19.5l7 -67q-19 -12 -53.5 -23t-82.5 -11q-91 0 -147 51t-56 146q0 64 26 110.5t70 71.5t97 25q73 0 115.5 -44t42.5 -114v-21t-1 -21zM235 626q-34 0 -56 -30.5t-25 -84.5l141 5q1 6 1 12.5v15.5 q0 35 -15 58.5t-46 23.5z" />
<glyph horiz-adv-x="317" d="M185 290h-104v326l-59 4v37l59 12q-1 17 -1.5 33t-0.5 28q0 72 43.5 111.5t121.5 39.5q30 0 59 -6.5t48 -17.5l-22 -77q-18 10 -39.5 17.5t-44.5 7.5q-64 0 -64 -69q0 -17 1 -35.5t2 -31.5h104l8 -11l-3 -45l-108 3v-326z" />
<glyph horiz-adv-x="430" d="M90 338q0 22 12 39.5t31 30.5q-42 15 -68 47.5t-26 79.5q0 41 20.5 75.5t58 55t89.5 20.5q30 0 55.5 -7t41.5 -19q15 24 41.5 36t54.5 12l13 -9l-2 -66h-85q16 -13 29 -35.5t13 -55.5q0 -62 -44 -103.5t-120 -41.5q-15 0 -29 2q-6 -11 -6 -23q0 -17 10 -24t32 -8l73 -5 q54 -3 91.5 -27t37.5 -74q0 -39 -25.5 -72t-74.5 -53t-119 -20q-82 0 -131.5 27.5t-49.5 69.5q0 28 20 47t42 25l38 -16q-4 -5 -7.5 -11.5t-3.5 -15.5q0 -29 28 -52t78 -23q44 0 72 19t28 49q0 24 -19 38t-53 17l-66 6q-80 8 -80 65zM269 541q0 44 -15.5 68.5t-48.5 24.5 q-34 0 -50 -24.5t-16 -68.5q0 -92 66 -92q64 0 64 92z" />
<glyph horiz-adv-x="477" d="M168 290h-104v449q0 35 -2 65.5t-8 64.5l102 12l12 -11v-236q60 52 129 52q52 0 82 -31t30 -88v-277h-104v257q0 69 -60 69q-38 0 -77 -28v-298z" />
<glyph horiz-adv-x="239" d="M182 830q0 -29 -19.5 -49.5t-49.5 -20.5q-27 0 -43 17t-16 40q0 28 21 48.5t51 20.5q25 0 40.5 -15.5t15.5 -40.5zM66 290v254q0 34 -2 65t-8 65l103 12l11 -11v-385h-104z" />
<glyph horiz-adv-x="240" d="M182 830q0 -29 -19.5 -49.5t-49.5 -20.5q-27 0 -43 17t-16 40q0 28 21 48.5t50 20.5q25 0 41 -15.5t16 -40.5zM69 92l-41 37q17 33 28.5 75.5t11.5 100.5v239q0 34 -2.5 65t-7.5 65l102 12l12 -11v-370q0 -50 -10 -87t-32.5 -67t-60.5 -59z" />
<glyph horiz-adv-x="446" d="M64 739q0 35 -2.5 65.5t-7.5 64.5l102 12l12 -11v-360h44q25 38 52.5 84.5t53.5 91.5l84 -8l7 -12l-109 -151q29 -53 62.5 -108t71.5 -117l-118 -8q-25 40 -51 85t-49 88h-48v-165h-104v449z" />
<glyph horiz-adv-x="236" d="M167 290h-104v449q0 35 -2 65.5t-8 64.5l103 12l11 -11v-580z" />
<glyph horiz-adv-x="715" d="M172 290h-104v254q0 35 -4.5 63.5t-11.5 60.5l97 18q12 -28 18 -56q62 56 131 56q76 0 101 -61q64 61 136 61q53 0 82.5 -31t29.5 -86v-279h-105v260q0 66 -59 66q-36 0 -75 -28q1 -9 1 -19v-279h-104v260q0 66 -59 66q-36 0 -74 -28v-298z" />
<glyph horiz-adv-x="473" d="M427 487q0 -68 -27.5 -113.5t-72 -68.5t-96.5 -23q-53 0 -94.5 23t-65.5 67t-24 106q0 66 26 113t70.5 71t98.5 24q82 0 133.5 -53.5t51.5 -145.5zM154 487q0 -66 20 -105.5t63 -39.5q41 0 61.5 37.5t20.5 101.5q0 66 -19.5 105.5t-62.5 39.5q-40 0 -61.5 -34.5 t-21.5 -104.5z" />
<glyph horiz-adv-x="481" d="M68 105v439q0 36 -4.5 63.5t-11.5 60.5l97 18q9 -21 15 -42q20 18 49.5 30t63.5 12q69 0 113 -52.5t44 -144.5q0 -95 -48 -151t-137 -56q-39 0 -77 11v-58q0 -35 2 -65t7 -64l-101 -13zM234 621q-36 0 -62 -20v-252q12 -5 26.5 -8t29.5 -3q49 0 73.5 37t24.5 108 t-24.5 104.5t-67.5 33.5z" />
<glyph horiz-adv-x="482" d="M309 105v217q-43 -40 -104 -40q-70 0 -114 53t-44 142q0 100 57 154.5t147 54.5q20 0 42 -3t40 -8l80 11v-450q0 -34 2 -65t7 -65l-102 -13zM154 485q0 -64 24 -103.5t69 -39.5q35 0 62 22v264q-19 3 -34 3q-60 0 -90.5 -38.5t-30.5 -107.5z" />
<glyph horiz-adv-x="336" d="M172 290h-104v254q0 35 -4.5 63.5t-11.5 60.5l97 18q8 -20 14.5 -42t7.5 -40q22 36 48.5 59t61.5 23q24 0 40 -11l-11 -96q-11 3 -22 5t-24 2q-21 0 -46.5 -7.5t-45.5 -23.5v-265z" />
<glyph horiz-adv-x="374" d="M323 665l-7 -78q-59 31 -111 31q-30 0 -47 -11t-17 -30q0 -22 20 -35.5t49 -25t58 -25.5t49 -36.5t20 -58.5q0 -51 -44.5 -82.5t-120.5 -31.5q-35 0 -72 7.5t-63 21.5l8 76q32 -18 68.5 -27.5t61.5 -9.5q30 0 46 11.5t16 28.5q0 21 -20 35t-49 25.5t-58 26t-49 36.5 t-20 57q0 52 45 84t121 32q27 0 57.5 -5t58.5 -16z" />
<glyph horiz-adv-x="327" d="M292 624l-114 2v-198q0 -39 14.5 -55.5t41.5 -16.5q17 0 33.5 5t31.5 13l8 -63q-19 -12 -46 -20.5t-60 -8.5q-61 0 -94 35.5t-33 107.5v203l-57 1v37l59 12l26 98l65 4l13 -12l-2 -90h112l7 -11z" />
<glyph horiz-adv-x="475" d="M66 543q0 36 -2 66.5t-6 64.5l101 12l11 -11v-252q0 -64 58 -64q36 0 73 26v293l104 8v-290q0 -28 4 -55t10 -50l-86 -9q-6 12 -12 27t-10 31h-4q-58 -58 -129 -58q-52 0 -82 29.5t-30 79.5v152z" />
<glyph horiz-adv-x="409" d="M392 669l-131 -381h-113l-132 390l109 8l55 -197q14 -41 22 -71.5t12 -57.5h1q5 27 13.5 57.5t22.5 71.5l55 197l80 -6z" />
<glyph horiz-adv-x="653" d="M129 288l-113 390l107 8l46 -190q12 -38 19 -67.5t11 -53.5h2q5 27 12 55t18 64l43 188h124l44 -185q8 -29 17.5 -62t13.5 -60h1q5 28 13.5 60t16.5 60l46 191l81 -6l7 -11l-112 -381h-124l-45 175q-11 37 -18.5 68.5t-12.5 63.5h-1q-4 -33 -12 -65t-17 -67l-46 -175 h-121z" />
<glyph horiz-adv-x="407" d="M277 290l-87 147l-82 -147h-83l-6 11l118 183l-118 192l106 10l90 -159l84 159l83 -6l5 -11l-119 -184l119 -195h-110z" />
<glyph horiz-adv-x="405" d="M392 669l-122 -349q-19 -58 -47 -108.5t-73 -83t-115 -35.5l-16 90q59 2 101.5 29t67.5 82l-44 1l-128 383l109 8l55 -197q14 -41 22 -71.5t12 -57.5h1q5 27 13.5 57.5t22.5 71.5l55 197l80 -6z" />
<glyph horiz-adv-x="375" d="M28 595l6 83h297l11 -64l-202 -244l82 1q32 0 64.5 1t63.5 5l-7 -87h-306l-12 65l208 244z" />
<glyph horiz-adv-x="1057" d="M684 0h-125v577q0 20 -0.5 38.5t-1.5 36.5q-18 4 -34 4q-53 0 -85.5 -24.5t-32.5 -65.5q0 -20 9.5 -45.5t34.5 -49.5l-28 -97q-27 19 -57 30t-61 11q-55 0 -89 -41.5t-34 -117.5q0 -82 37 -129t105 -47q30 0 58 10t54 24l8 -83q-27 -18 -65 -29.5t-86 -11.5 q-72 0 -126 30.5t-84 87.5t-30 136q0 81 31.5 140t88 91.5t128.5 32.5q26 0 50 -3q-15 23 -22 46t-7 45q0 45 28.5 82t83 58.5t131.5 21.5q28 0 58.5 -3.5t62.5 -10.5v-303q74 67 157 67q64 0 100.5 -40t36.5 -113v-355h-125v331q0 90 -74 90q-46 0 -95 -37v-384z" />
<glyph horiz-adv-x="864" d="M564 498q3 9 7.5 30t4.5 44q0 44 -19.5 70.5t-56.5 26.5q-38 0 -63 -26t-25 -70q0 -53 37 -102l-28 -97q-27 19 -57 30t-59 11q-57 0 -91 -41.5t-34 -119.5q0 -80 37 -127t104 -47q31 0 59 10t54 24l8 -83q-27 -18 -65 -29.5t-83 -11.5q-74 0 -128.5 30.5t-84.5 87.5 t-30 136q0 81 31.5 140t88 91.5t131.5 32.5q30 0 60 -5q-18 38 -18 81q0 49 23 86t64.5 57.5t94.5 20.5q76 0 124.5 -42.5t48.5 -120.5q0 -23 -4 -46.5t-9 -40.5h136l10 -14l-6 -54l-140 3v-258q0 -24 6 -45.5t21 -35.5t43 -14q20 0 39.5 6.5t38.5 17.5l10 -78 q-23 -14 -56 -25t-72 -11q-57 0 -91 25t-49 66.5t-15 89.5v264l-63 1v47z" />
<glyph horiz-adv-x="1012" d="M389 480l-9 -96q-35 19 -70.5 29.5t-64.5 10.5q-37 0 -58 -15t-21 -40q0 -22 17.5 -37.5t44.5 -28t57.5 -26t57.5 -31.5t44.5 -44.5t17.5 -65.5q0 -66 -54.5 -106t-145.5 -40q-43 0 -88 9.5t-76 26.5l9 95q40 -23 83.5 -35t74.5 -12q38 0 57 15t19 38q0 22 -17 37.5 t-44 28t-57.5 26t-57.5 31.5t-44.5 44t-17.5 65q0 67 55 108t145 41q28 0 57 -5q-15 24 -22 47.5t-7 44.5q0 46 29 83t83.5 58.5t131.5 21.5q27 0 57.5 -3.5t62.5 -10.5v-303q74 67 158 67q64 0 100 -40t36 -113v-355h-125v331q0 90 -74 90q-45 0 -95 -37v-384h-125v577 q0 20 -0.5 38.5t-1.5 36.5q-17 4 -34 4q-52 0 -85 -24.5t-33 -66.5q0 -17 6.5 -40t23.5 -45z" />
<glyph horiz-adv-x="547" d="M131 0h-118l152 456q8 24 15 46t11 38l146 7l19 -17l178 -530h-125l-39 117h-200zM219 261l-20 -58h142l-19 57q-19 61 -31.5 106.5t-18.5 73.5h-3q-7 -28 -20.5 -77.5t-29.5 -101.5z" />
<glyph horiz-adv-x="547" d="M369 795l8 -22q-32 -48 -71.5 -88t-87.5 -74l-46 11q25 45 47.5 91t37.5 93zM131 0h-118l152 456q8 24 15 46t11 38l146 7l19 -17l178 -530h-125l-39 117h-200zM219 261l-20 -58h142l-19 57q-19 61 -31.5 106.5t-18.5 73.5h-3q-7 -28 -20.5 -77.5t-29.5 -101.5z" />
<glyph horiz-adv-x="547" d="M364 790l51 5q-7 -74 -45.5 -121t-101.5 -47q-56 0 -94 42.5t-44 114.5l51 7q9 -37 34 -58.5t59 -21.5q33 0 57.5 22.5t32.5 56.5zM131 0h-118l152 456q8 24 15 46t11 38l146 7l19 -17l178 -530h-125l-39 117h-200zM219 261l-20 -58h142l-19 57q-19 61 -31.5 106.5 t-18.5 73.5h-3q-7 -28 -20.5 -77.5t-29.5 -101.5z" />
<glyph horiz-adv-x="547" d="M394 811l39 -29q-31 -40 -57.5 -79.5t-51.5 -80.5l-88 -8q-25 42 -53 84t-60 84l39 29q32 -23 61.5 -50.5t56.5 -54.5q26 27 54.5 54t59.5 51zM131 0h-118l152 456q8 24 15 46t11 38l146 7l19 -17l178 -530h-125l-39 117h-200zM219 261l-20 -58h142l-19 57 q-19 61 -31.5 106.5t-18.5 73.5h-3q-7 -28 -20.5 -77.5t-29.5 -101.5z" />
<glyph horiz-adv-x="547" d="M162 603l-39 29q31 40 57.5 79.5t51.5 80.5l88 8q25 -42 53 -84t60 -84l-39 -29q-32 23 -61.5 50.5t-56.5 54.5q-26 -26 -54.5 -53.5t-59.5 -51.5zM131 0h-118l152 456q8 24 15 46t11 38l146 7l19 -17l178 -530h-125l-39 117h-200zM219 261l-20 -58h142l-19 57 q-19 61 -31.5 106.5t-18.5 73.5h-3q-7 -28 -20.5 -77.5t-29.5 -101.5z" />
<glyph horiz-adv-x="547" d="M236 713q0 -33 -21.5 -57t-55.5 -24q-30 0 -48 19.5t-18 47.5q0 32 23.5 56t56.5 24q28 0 45.5 -18t17.5 -48zM455 713q0 -33 -22 -57t-55 -24q-30 0 -48 19.5t-18 47.5q0 32 23.5 56t55.5 24q29 0 46.5 -18t17.5 -48zM131 0h-118l152 456q8 24 15 46t11 38l146 7l19 -17 l178 -530h-125l-39 117h-200zM219 261l-20 -58h142l-19 57q-19 61 -31.5 106.5t-18.5 73.5h-3q-7 -28 -20.5 -77.5t-29.5 -101.5z" />
<glyph horiz-adv-x="547" d="M131 0h-118l152 456q8 24 15 46t11 38l146 7l19 -17l178 -530h-125l-39 117h-200zM219 261l-20 -58h142l-19 57q-19 61 -31.5 106.5t-18.5 73.5h-3q-7 -28 -20.5 -77.5t-29.5 -101.5zM352 -159q0 -35 -23.5 -60.5t-60.5 -25.5q-33 0 -52.5 21t-19.5 51q0 34 25.5 59.5 t61.5 25.5q31 0 50 -19.5t19 -51.5z" />
<glyph horiz-adv-x="547" d="M330 612q-48 34 -87.5 74t-70.5 88l7 22l113 11q15 -46 37 -92.5t48 -91.5zM131 0h-118l152 456q8 24 15 46t11 38l146 7l19 -17l178 -530h-125l-39 117h-200zM219 261l-20 -58h142l-19 57q-19 61 -31.5 106.5t-18.5 73.5h-3q-7 -28 -20.5 -77.5t-29.5 -101.5z" />
<glyph horiz-adv-x="547" d="M132 669v72h285v-72h-285zM131 0h-118l152 456q8 24 15 46t11 38l146 7l19 -17l178 -530h-125l-39 117h-200zM219 261l-20 -58h142l-19 57q-19 61 -31.5 106.5t-18.5 73.5h-3q-7 -28 -20.5 -77.5t-29.5 -101.5z" />
<glyph horiz-adv-x="547" d="M131 0h-118l152 456q8 24 15 46t11 38l146 7l19 -17l178 -530q-55 -28 -84 -60t-29 -63q0 -21 11.5 -33.5t36.5 -12.5q10 0 23.5 3t30.5 10l19 -45q-22 -19 -53.5 -31.5t-63.5 -12.5q-47 0 -77.5 25.5t-30.5 68.5q0 42 34 81.5t96 69.5h-38l-39 117h-200zM219 261 l-20 -58h142l-19 57q-19 61 -31.5 106.5t-18.5 73.5h-3q-7 -28 -20.5 -77.5t-29.5 -101.5z" />
<glyph horiz-adv-x="547" d="M392 716q0 -44 -33.5 -75t-81.5 -31q-43 0 -71.5 26t-28.5 63q0 28 16 52t43 38.5t59 14.5q42 0 69.5 -25t27.5 -63zM233 703q0 -20 13.5 -34t35.5 -14t38 16.5t16 39.5q0 22 -12.5 35.5t-33.5 13.5q-23 0 -40 -17t-17 -40zM131 0h-118l152 456q8 24 15 46t11 38l146 7 l19 -17l178 -530h-125l-39 117h-200zM219 261l-20 -58h142l-19 57q-19 61 -31.5 106.5t-18.5 73.5h-3q-7 -28 -20.5 -77.5t-29.5 -101.5z" />
<glyph horiz-adv-x="547" d="M380 1060l7 -21q-32 -48 -71 -88t-87 -75l-47 12q25 44 47.5 90.5t37.5 92.5zM392 716q0 -44 -33.5 -75t-81.5 -31q-43 0 -71.5 26t-28.5 63q0 28 16 52t43 38.5t59 14.5q42 0 69.5 -25t27.5 -63zM233 703q0 -20 13.5 -34t35.5 -14t38 16.5t16 39.5q0 22 -12.5 35.5 t-33.5 13.5q-23 0 -40 -17t-17 -40zM131 0h-118l152 456q8 24 15 46t11 38l146 7l19 -17l178 -530h-125l-39 117h-200zM219 261l-20 -58h142l-19 57q-19 61 -31.5 106.5t-18.5 73.5h-3q-7 -28 -20.5 -77.5t-29.5 -101.5z" />
<glyph horiz-adv-x="547" d="M202 782q30 0 55 -14t47.5 -28.5t45.5 -14.5q20 0 32.5 14t23.5 35l36 -6q-1 -33 -12 -65.5t-32 -53.5t-53 -21q-28 0 -55 14.5t-51 28.5t-45 14q-17 0 -30.5 -12.5t-25.5 -35.5l-35 5q2 33 12 65t31.5 53.5t55.5 21.5zM131 0h-118l152 456q8 24 15 46t11 38l146 7 l19 -17l178 -530h-125l-39 117h-200zM219 261l-20 -58h142l-19 57q-19 61 -31.5 106.5t-18.5 73.5h-3q-7 -28 -20.5 -77.5t-29.5 -101.5z" />
<glyph horiz-adv-x="701" d="M131 0h-118l181 456q9 23 15.5 45t10.5 39h394l14 -14l-2 -79l-214 5l20 -146l181 3l-3 -85l-167 4l19 -141l211 6v-93h-324q-6 64 -11 117h-159q-21 -52 -48 -117zM298 440q-7 -27 -17 -57.5t-26 -73t-41 -106.5h116q-7 69 -10.5 111.5t-5 71t-2.5 54.5h-14z" />
<glyph horiz-adv-x="701" d="M477 795l7 -22q-31 -48 -70.5 -88t-87.5 -74l-46 11q25 45 47.5 91t37.5 93zM131 0h-118l181 456q9 23 15.5 45t10.5 39h394l14 -14l-2 -79l-214 5l20 -146l181 3l-3 -85l-167 4l19 -141l211 6v-93h-324q-6 64 -11 117h-159q-21 -52 -48 -117zM298 440q-7 -27 -17 -57.5 t-26 -73t-41 -106.5h116q-7 69 -10.5 111.5t-5 71t-2.5 54.5h-14z" />
<glyph horiz-adv-x="528" d="M270 0h-207v405q0 35 -1 67.5t-6 67.5h218q92 0 144.5 -40.5t52.5 -102.5q0 -43 -25 -71.5t-67 -44.5q54 -14 84.5 -47.5t30.5 -85.5q0 -45 -29 -78.5t-79.5 -51.5t-115.5 -18zM254 454h-66v-142h65q47 0 70 19.5t23 50.5q0 33 -23 52.5t-69 19.5zM260 232h-72v-146h73 q51 0 78 19.5t27 52.5t-25.5 53.5t-80.5 20.5z" />
<glyph horiz-adv-x="495" d="M459 124l14 -97q-34 -18 -75 -26.5t-88 -8.5q-125 0 -198 71.5t-73 199.5q0 85 35.5 149t98.5 100t144 36q45 0 84.5 -9t67.5 -24l-24 -103q-30 18 -61 27.5t-65 9.5q-67 0 -109 -49t-42 -133q0 -81 41.5 -128.5t117.5 -47.5q38 0 72 9.5t60 23.5z" />
<glyph horiz-adv-x="495" d="M380 795l8 -22q-32 -48 -71.5 -88t-87.5 -74l-46 11q25 45 47.5 91t37.5 93zM459 124l14 -97q-34 -18 -75 -26.5t-88 -8.5q-125 0 -198 71.5t-73 199.5q0 85 35.5 149t98.5 100t144 36q45 0 84.5 -9t67.5 -24l-24 -103q-30 18 -61 27.5t-65 9.5q-67 0 -109 -49t-42 -133 q0 -81 41.5 -128.5t117.5 -47.5q38 0 72 9.5t60 23.5z" />
<glyph horiz-adv-x="495" d="M405 811l40 -29q-32 -40 -58.5 -79.5t-51.5 -80.5l-88 -8q-25 42 -53 84t-60 84l39 29q32 -23 61.5 -50.5t56.5 -54.5q26 27 54.5 54t59.5 51zM459 124l14 -97q-34 -18 -75 -26.5t-88 -8.5q-125 0 -198 71.5t-73 199.5q0 85 35.5 149t98.5 100t144 36q45 0 84.5 -9 t67.5 -24l-24 -103q-30 18 -61 27.5t-65 9.5q-67 0 -109 -49t-42 -133q0 -81 41.5 -128.5t117.5 -47.5q38 0 72 9.5t60 23.5z" />
<glyph horiz-adv-x="495" d="M411 -142q0 -39 -29 -61t-73 -32.5t-88 -12.5v45q46 6 72.5 20t26.5 36q0 19 -19 28t-52 10l-14 22l25 82q-103 14 -162 84t-59 184q0 85 35.5 149t98.5 100t144 36q45 0 84.5 -9t67.5 -24l-24 -103q-30 18 -61 27.5t-65 9.5q-67 0 -109 -49t-42 -133q0 -81 41.5 -128.5 t117.5 -47.5q38 0 72 9.5t60 23.5l14 -97q-60 -32 -147 -35l-17 -53q25 -3 48.5 -12t38.5 -25.5t15 -43.5z" />
<glyph horiz-adv-x="495" d="M173 603l-39 29q31 40 57.5 79.5t51.5 80.5l88 8q25 -42 53 -84t61 -84l-40 -29q-32 23 -61.5 50.5t-56.5 54.5q-26 -26 -54.5 -53.5t-59.5 -51.5zM459 124l14 -97q-34 -18 -75 -26.5t-88 -8.5q-125 0 -198 71.5t-73 199.5q0 85 35.5 149t98.5 100t144 36q45 0 84.5 -9 t67.5 -24l-24 -103q-30 18 -61 27.5t-65 9.5q-67 0 -109 -49t-42 -133q0 -81 41.5 -128.5t117.5 -47.5q38 0 72 9.5t60 23.5z" />
<glyph horiz-adv-x="495" d="M363 713q0 -35 -23.5 -60.5t-60.5 -25.5q-32 0 -52 21t-20 50q0 35 26 60.5t61 25.5q31 0 50 -19.5t19 -51.5zM459 124l14 -97q-34 -18 -75 -26.5t-88 -8.5q-125 0 -198 71.5t-73 199.5q0 85 35.5 149t98.5 100t144 36q45 0 84.5 -9t67.5 -24l-24 -103q-30 18 -61 27.5 t-65 9.5q-67 0 -109 -49t-42 -133q0 -81 41.5 -128.5t117.5 -47.5q38 0 72 9.5t60 23.5z" />
<glyph horiz-adv-x="581" d="M542 274q0 -88 -40.5 -149.5t-108.5 -93t-151 -31.5h-179v405q0 35 -1 67.5t-6 67.5h199q87 0 151.5 -32.5t100 -92t35.5 -141.5zM247 453h-59v-367h63q84 0 123 51t39 131q0 51 -18 93.5t-54.5 67t-93.5 24.5z" />
<glyph horiz-adv-x="581" d="M542 274q0 -88 -40.5 -149.5t-108.5 -93t-151 -31.5h-179v233h-61v67h61v105q0 35 -1 67.5t-6 67.5h199q87 0 151.5 -32.5t100 -92t35.5 -141.5zM321 233h-133v-147h63q84 0 123 51t39 131q0 51 -18 93.5t-54.5 67t-93.5 24.5h-59v-153h133v-67z" />
<glyph horiz-adv-x="581" d="M407 811l40 -29q-31 -40 -58 -79.5t-51 -80.5l-88 -8q-25 42 -53 84t-61 84l40 29q32 -23 61 -50.5t57 -54.5q26 27 54 54t59 51zM542 274q0 -88 -40.5 -149.5t-108.5 -93t-151 -31.5h-179v405q0 35 -1 67.5t-6 67.5h199q87 0 151.5 -32.5t100 -92t35.5 -141.5zM247 453 h-59v-367h63q84 0 123 51t39 131q0 51 -18 93.5t-54.5 67t-93.5 24.5z" />
<glyph horiz-adv-x="581" d="M542 274q0 -88 -40.5 -149.5t-108.5 -93t-151 -31.5h-179v233h-61v67h61v105q0 35 -1 67.5t-6 67.5h199q87 0 151.5 -32.5t100 -92t35.5 -141.5zM321 233h-133v-147h63q84 0 123 51t39 131q0 51 -18 93.5t-54.5 67t-93.5 24.5h-59v-153h133v-67z" />
<glyph horiz-adv-x="581" d="M542 274q0 -88 -40.5 -149.5t-108.5 -93t-151 -31.5h-179v405q0 35 -1 67.5t-6 67.5h199q87 0 151.5 -32.5t100 -92t35.5 -141.5zM247 453h-59v-367h63q84 0 123 51t39 131q0 51 -18 93.5t-54.5 67t-93.5 24.5zM368 -159q0 -35 -24 -60.5t-60 -25.5q-33 0 -52.5 21 t-19.5 51q0 34 25.5 59.5t60.5 25.5q31 0 50.5 -19.5t19.5 -51.5z" />
<glyph horiz-adv-x="460" d="M432 93v-93h-369v405q0 35 -1 67.5t-6 67.5h357l14 -14l-3 -79l-236 7v-148l195 3l-3 -85l-192 5v-143z" />
<glyph horiz-adv-x="460" d="M339 795l7 -22q-31 -48 -70.5 -88t-87.5 -74l-47 11q25 45 47.5 91t37.5 93zM432 93v-93h-369v405q0 35 -1 67.5t-6 67.5h357l14 -14l-3 -79l-236 7v-148l195 3l-3 -85l-192 5v-143z" />
<glyph horiz-adv-x="460" d="M334 790l50 5q-6 -74 -45 -121t-101 -47q-56 0 -94.5 42.5t-43.5 114.5l51 7q9 -37 33.5 -58.5t58.5 -21.5t58 22.5t33 56.5zM432 93v-93h-369v405q0 35 -1 67.5t-6 67.5h357l14 -14l-3 -79l-236 7v-148l195 3l-3 -85l-192 5v-143z" />
<glyph horiz-adv-x="460" d="M363 811l40 -29q-31 -40 -58 -79.5t-51 -80.5l-88 -8q-25 42 -53.5 84t-60.5 84l40 29q32 -23 61 -50.5t57 -54.5q26 27 54 54t59 51zM432 93v-93h-369v405q0 35 -1 67.5t-6 67.5h357l14 -14l-3 -79l-236 7v-148l195 3l-3 -85l-192 5v-143z" />
<glyph horiz-adv-x="460" d="M132 603l-40 29q31 40 58 79.5t51 80.5l88 8q25 -42 53 -84t61 -84l-40 -29q-32 23 -61.5 50.5t-56.5 54.5q-26 -26 -54 -53.5t-59 -51.5zM432 93v-93h-369v405q0 35 -1 67.5t-6 67.5h357l14 -14l-3 -79l-236 7v-148l195 3l-3 -85l-192 5v-143z" />
<glyph horiz-adv-x="460" d="M205 713q0 -33 -21.5 -57t-54.5 -24q-31 0 -49 19.5t-18 47.5q0 32 23.5 56t56.5 24q28 0 45.5 -18t17.5 -48zM424 713q0 -33 -21.5 -57t-54.5 -24q-31 0 -49 19.5t-18 47.5q0 32 23.5 56t56.5 24q28 0 45.5 -18t17.5 -48zM432 93v-93h-369v405q0 35 -1 67.5t-6 67.5h357 l14 -14l-3 -79l-236 7v-148l195 3l-3 -85l-192 5v-143z" />
<glyph horiz-adv-x="460" d="M322 713q0 -35 -24 -60.5t-60 -25.5q-33 0 -52.5 21t-19.5 50q0 35 25.5 60.5t60.5 25.5q31 0 50.5 -19.5t19.5 -51.5zM432 93v-93h-369v405q0 35 -1 67.5t-6 67.5h357l14 -14l-3 -79l-236 7v-148l195 3l-3 -85l-192 5v-143z" />
<glyph horiz-adv-x="460" d="M432 93v-93h-369v405q0 35 -1 67.5t-6 67.5h357l14 -14l-3 -79l-236 7v-148l195 3l-3 -85l-192 5v-143zM332 -159q0 -35 -23.5 -60.5t-59.5 -25.5q-33 0 -53 21t-20 51q0 34 26 59.5t61 25.5q31 0 50 -19.5t19 -51.5z" />
<glyph horiz-adv-x="460" d="M300 612q-48 34 -87.5 74t-71.5 88l7 22l113 11q15 -46 37.5 -92.5t47.5 -91.5zM432 93v-93h-369v405q0 35 -1 67.5t-6 67.5h357l14 -14l-3 -79l-236 7v-148l195 3l-3 -85l-192 5v-143z" />
<glyph horiz-adv-x="460" d="M101 669v72h285v-72h-285zM432 93v-93h-369v405q0 35 -1 67.5t-6 67.5h357l14 -14l-3 -79l-236 7v-148l195 3l-3 -85l-192 5v-143z" />
<glyph horiz-adv-x="460" d="M432 0q-55 -28 -84 -60t-29 -63q0 -21 11.5 -33.5t36.5 -12.5q10 0 24 3t31 10l19 -45q-23 -19 -54 -31.5t-64 -12.5q-47 0 -77 25.5t-30 68.5q0 42 33.5 81.5t96.5 69.5h-283v405q0 35 -1 67.5t-6 67.5h357l14 -14l-3 -79l-236 7v-148l195 3l-3 -85l-192 5v-143l244 7 v-93z" />
<glyph horiz-adv-x="460" d="M172 782q30 0 54.5 -14t47 -28.5t45.5 -14.5q20 0 32.5 14t24.5 35l36 -6q-2 -33 -13 -65.5t-32 -53.5t-53 -21q-28 0 -54.5 14.5t-51 28.5t-45.5 14q-17 0 -30.5 -12.5t-24.5 -35.5l-36 5q2 33 12.5 65t31.5 53.5t56 21.5zM432 93v-93h-369v405q0 35 -1 67.5t-6 67.5 h357l14 -14l-3 -79l-236 7v-148l195 3l-3 -85l-192 5v-143z" />
<glyph horiz-adv-x="549" d="M41 247l15 15h324q-3 102 -52 149t-128 47q-40 0 -74.5 -10t-63.5 -26l-7 83q24 15 69.5 29t106.5 14q83 0 146 -31.5t98 -92t35 -148.5q0 -86 -34.5 -150.5t-94 -100t-135.5 -35.5q-96 0 -151.5 55.5t-55.5 154.5q0 11 0.5 23t1.5 24zM162 181q0 -55 22.5 -85.5 t67.5 -30.5q51 0 85 40t42 111l-215 -7q-2 -13 -2 -28z" />
<glyph horiz-adv-x="429" d="M188 0h-125v405q0 35 -1 67.5t-6 67.5h344l14 -14l-2 -79l-224 7v-162l183 3l-3 -85l-180 5v-215z" />
<glyph horiz-adv-x="547" d="M491 253l14 -13l-2 -215q-38 -15 -86.5 -24t-96.5 -9q-135 0 -208 71t-73 193q0 87 36.5 152.5t103 102.5t157.5 37q44 0 85 -9t71 -23l-21 -102q-27 16 -60 26.5t-70 10.5q-76 0 -124.5 -47t-48.5 -139q0 -81 41 -130.5t124 -49.5q23 0 53 4q0 37 -1 61.5t-3.5 46 t-6.5 48.5z" />
<glyph horiz-adv-x="547" d="M380 795l7 -22q-31 -48 -70.5 -88t-87.5 -74l-46 11q25 45 47.5 91t37.5 93zM491 253l14 -13l-2 -215q-38 -15 -86.5 -24t-96.5 -9q-135 0 -208 71t-73 193q0 87 36.5 152.5t103 102.5t157.5 37q44 0 85 -9t71 -23l-21 -102q-27 16 -60 26.5t-70 10.5q-76 0 -124.5 -47 t-48.5 -139q0 -81 41 -130.5t124 -49.5q23 0 53 4q0 37 -1 61.5t-3.5 46t-6.5 48.5z" />
<glyph horiz-adv-x="547" d="M375 790l51 5q-7 -74 -45.5 -121t-101.5 -47q-56 0 -94 42.5t-44 114.5l51 7q9 -37 34 -58.5t59 -21.5q33 0 57 22.5t33 56.5zM491 253l14 -13l-2 -215q-38 -15 -86.5 -24t-96.5 -9q-135 0 -208 71t-73 193q0 87 36.5 152.5t103 102.5t157.5 37q44 0 85 -9t71 -23 l-21 -102q-27 16 -60 26.5t-70 10.5q-76 0 -124.5 -47t-48.5 -139q0 -81 41 -130.5t124 -49.5q23 0 53 4q0 37 -1 61.5t-3.5 46t-6.5 48.5z" />
<glyph horiz-adv-x="547" d="M405 811l39 -29q-31 -40 -58 -79.5t-51 -80.5l-88 -8q-25 42 -53 84t-61 84l40 29q32 -23 61.5 -50.5t56.5 -54.5q26 27 54.5 54t59.5 51zM491 253l14 -13l-2 -215q-38 -15 -86.5 -24t-96.5 -9q-135 0 -208 71t-73 193q0 87 36.5 152.5t103 102.5t157.5 37q44 0 85 -9 t71 -23l-21 -102q-27 16 -60 26.5t-70 10.5q-76 0 -124.5 -47t-48.5 -139q0 -81 41 -130.5t124 -49.5q23 0 53 4q0 37 -1 61.5t-3.5 46t-6.5 48.5z" />
<glyph horiz-adv-x="547" d="M173 603l-40 29q31 40 58 79.5t51 80.5l88 8q26 -42 54 -84t60 -84l-39 -29q-32 23 -61.5 50.5t-56.5 54.5q-26 -26 -54.5 -53.5t-59.5 -51.5zM491 253l14 -13l-2 -215q-38 -15 -86.5 -24t-96.5 -9q-135 0 -208 71t-73 193q0 87 36.5 152.5t103 102.5t157.5 37 q44 0 85 -9t71 -23l-21 -102q-27 16 -60 26.5t-70 10.5q-76 0 -124.5 -47t-48.5 -139q0 -81 41 -130.5t124 -49.5q23 0 53 4q0 37 -1 61.5t-3.5 46t-6.5 48.5z" />
<glyph horiz-adv-x="547" d="M491 253l14 -13l-2 -215q-38 -15 -86.5 -24t-96.5 -9q-135 0 -208 71t-73 193q0 87 36.5 152.5t103 102.5t157.5 37q44 0 85 -9t71 -23l-21 -102q-27 16 -60 26.5t-70 10.5q-76 0 -124.5 -47t-48.5 -139q0 -81 41 -130.5t124 -49.5q23 0 53 4q0 37 -1 61.5t-3.5 46 t-6.5 48.5zM250 -320q16 21 29.5 45.5t21.5 49.5q-23 3 -38 20.5t-15 42.5q0 27 19.5 49t51.5 22q27 0 47 -19.5t20 -57.5q0 -35 -16 -69t-38.5 -63.5t-42.5 -51.5z" />
<glyph horiz-adv-x="547" d="M363 713q0 -35 -23.5 -60.5t-60.5 -25.5q-33 0 -52.5 21t-19.5 50q0 35 25.5 60.5t61.5 25.5q30 0 49.5 -19.5t19.5 -51.5zM491 253l14 -13l-2 -215q-38 -15 -86.5 -24t-96.5 -9q-135 0 -208 71t-73 193q0 87 36.5 152.5t103 102.5t157.5 37q44 0 85 -9t71 -23l-21 -102 q-27 16 -60 26.5t-70 10.5q-76 0 -124.5 -47t-48.5 -139q0 -81 41 -130.5t124 -49.5q23 0 53 4q0 37 -1 61.5t-3.5 46t-6.5 48.5z" />
<glyph horiz-adv-x="598" d="M188 0h-125v400q0 78 -7 140l118 8l14 -14v-223h222v89q0 78 -8 140l119 8l14 -14v-534h-125v224h-222v-224z" />
<glyph horiz-adv-x="598" d="M188 0h-125v388h-70v66h69q-1 46 -6 86l118 8l14 -14v-80h221q-2 46 -7 86l119 8l14 -14v-80h71v-66h-71v-388h-125v224h-222v-224zM188 311h222v77h-222v-77z" />
<glyph horiz-adv-x="598" d="M187 603l-39 29q31 40 57.5 79.5t51.5 80.5l88 8q25 -42 53 -84t61 -84l-40 -29q-32 23 -61.5 50.5t-56.5 54.5q-26 -26 -54.5 -53.5t-59.5 -51.5zM188 0h-125v400q0 78 -7 140l118 8l14 -14v-223h222v89q0 78 -8 140l119 8l14 -14v-534h-125v224h-222v-224z" />
<glyph horiz-adv-x="598" d="M188 0h-125v400q0 78 -7 140l118 8l14 -14v-223h222v89q0 78 -8 140l119 8l14 -14v-534h-125v224h-222v-224zM377 -159q0 -35 -23.5 -60.5t-59.5 -25.5q-33 0 -53 21t-20 51q0 34 26 59.5t61 25.5q31 0 50 -19.5t19 -51.5z" />
<glyph horiz-adv-x="251" d="M188 0h-125v400q0 78 -7 140l118 8l14 -14v-534z" />
<glyph horiz-adv-x="251" d="M188 0h-125v400q0 78 -7 140l118 8l14 -14v-534z" />
<glyph horiz-adv-x="251" d="M220 795l7 -22q-31 -48 -70.5 -88t-87.5 -74l-47 11q25 45 47.5 91t37.5 93zM188 0h-125v400q0 78 -7 140l118 8l14 -14v-534z" />
<glyph horiz-adv-x="251" d="M199 784l51 5q-6 -74 -40.5 -121t-89.5 -47q-49 0 -82.5 42t-38.5 115l51 7q5 -37 25.5 -58.5t49.5 -21.5q30 0 49.5 22.5t24.5 56.5zM188 0h-125v400q0 78 -7 140l118 8l14 -14v-534z" />
<glyph horiz-adv-x="251" d="M205 808l43 -18q-18 -42 -33.5 -83.5t-28.5 -84.5l-119 -8q-29 91 -66 176l42 18q24 -24 44 -51.5t39 -56.5q18 29 37.5 56.5t41.5 51.5zM188 0h-125v400q0 78 -7 140l118 8l14 -14v-534z" />
<glyph horiz-adv-x="251" d="M43 611l-42 19q17 41 32.5 83t29.5 84l118 8q30 -90 67 -175l-43 -19q-23 25 -43.5 52t-39.5 57q-18 -30 -37 -57.5t-42 -51.5zM188 0h-125v400q0 78 -7 140l118 8l14 -14v-534z" />
<glyph horiz-adv-x="251" d="M105 715q0 -33 -19.5 -57.5t-50.5 -24.5q-28 0 -45 20t-17 47q0 33 22 57t52 24q25 0 41.5 -18.5t16.5 -47.5zM276 715q0 -33 -20 -57.5t-51 -24.5q-28 0 -44 20t-16 47q0 33 21 57t51 24q26 0 42.5 -18.5t16.5 -47.5zM188 0h-125v400q0 78 -7 140l118 8l14 -14v-534z " />
<glyph horiz-adv-x="251" d="M203 713q0 -35 -24 -60.5t-60 -25.5q-33 0 -52.5 21t-19.5 50q0 35 25.5 60.5t60.5 25.5q31 0 50.5 -19.5t19.5 -51.5zM188 0h-125v400q0 78 -7 140l118 8l14 -14v-534z" />
<glyph horiz-adv-x="251" d="M188 0h-125v400q0 78 -7 140l118 8l14 -14v-534zM203 -159q0 -35 -24 -60.5t-60 -25.5q-33 0 -52.5 21t-19.5 51q0 34 25.5 59.5t60.5 25.5q31 0 50.5 -19.5t19.5 -51.5z" />
<glyph horiz-adv-x="251" d="M181 612q-48 34 -87.5 74t-71.5 88l8 22l112 11q15 -46 37.5 -92.5t47.5 -91.5zM188 0h-125v400q0 78 -7 140l118 8l14 -14v-534z" />
<glyph horiz-adv-x="503" d="M188 0h-125v400q0 78 -7 140l118 8l14 -14v-534zM284 -155l-35 43q66 75 66 205v307q0 35 -2.5 67t-9.5 67l124 14l13 -13v-442q0 -63 -13.5 -108t-47.5 -78.5t-95 -61.5z" />
<glyph horiz-adv-x="251" d="M13 669v72h224v-72h-224zM188 0h-125v400q0 78 -7 140l118 8l14 -14v-534z" />
<glyph horiz-adv-x="251" d="M188 0q-32 -27 -51.5 -57t-19.5 -58q0 -23 12.5 -36.5t35.5 -13.5q10 0 24 2.5t31 10.5l19 -45q-22 -19 -52 -31.5t-63 -12.5q-50 0 -80 25.5t-30 70.5q0 40 26 78t72 67h-49v400q0 78 -7 140l118 8l14 -14v-534z" />
<glyph horiz-adv-x="251" d="M69 784q23 0 43.5 -14t38 -28t33.5 -14q15 0 26 12.5t19 35.5l33 -5q-1 -33 -9.5 -65t-26 -53.5t-46.5 -21.5q-22 0 -44 14t-40.5 28t-31.5 14q-15 0 -25.5 -12.5t-18.5 -35.5l-33 5q1 33 9.5 65t26 53.5t46.5 21.5zM188 0h-125v400q0 78 -7 140l118 8l14 -14v-534z" />
<glyph horiz-adv-x="252" d="M33 -155l-35 43q66 75 66 205v307q0 35 -2.5 67t-9.5 67l124 14l13 -13v-442q0 -63 -13.5 -108t-47.5 -78.5t-95 -61.5z" />
<glyph horiz-adv-x="252" d="M33 -155l-35 43q66 75 66 205v307q0 35 -2.5 67t-9.5 67l124 14l13 -13v-442q0 -63 -13.5 -108t-47.5 -78.5t-95 -61.5z" />
<glyph horiz-adv-x="252" d="M36 611l-42 19q17 41 32.5 83t29.5 84l118 8q30 -90 67 -175l-43 -19q-23 25 -43.5 52t-39.5 57q-18 -30 -37 -57.5t-42 -51.5zM33 -155l-35 43q66 75 66 205v307q0 35 -2.5 67t-9.5 67l124 14l13 -13v-442q0 -63 -13.5 -108t-47.5 -78.5t-95 -61.5z" />
<glyph horiz-adv-x="538" d="M63 400q0 36 -1.5 69.5t-5.5 70.5l118 8l14 -14v-238h61q33 56 69.5 122.5t69.5 129.5l116 -9l7 -12l-160 -245l180 -282l-143 -5q-35 50 -70 105.5t-67 109.5h-63v-210h-125v400z" />
<glyph horiz-adv-x="538" d="M63 400q0 36 -1.5 69.5t-5.5 70.5l118 8l14 -14v-238h61q33 56 69.5 122.5t69.5 129.5l116 -9l7 -12l-160 -245l180 -282l-143 -5q-35 50 -70 105.5t-67 109.5h-63v-210h-125v400zM209 -320q16 21 29.5 45.5t21.5 49.5q-23 3 -38 20.5t-15 42.5q0 27 19.5 49t51.5 22 q27 0 47 -19.5t20 -57.5q0 -35 -16 -69t-38.5 -63.5t-42.5 -51.5z" />
<glyph horiz-adv-x="538" d="M63 400q0 36 -1.5 69.5t-5.5 70.5l118 8l14 -14v-238h61q33 56 69.5 122.5t69.5 129.5l116 -9l7 -12l-160 -245l180 -282l-143 -5q-35 50 -70 105.5t-67 109.5h-63v-210h-125v400z" />
<glyph horiz-adv-x="436" d="M418 93v-93h-355v400q0 78 -7 140l118 8l14 -14v-448z" />
<glyph horiz-adv-x="436" d="M287 795l7 -22q-31 -48 -70.5 -88t-87.5 -74l-47 11q25 45 47.5 91t37.5 93zM418 93v-93h-355v400q0 78 -7 140l118 8l14 -14v-448z" />
<glyph horiz-adv-x="436" d="M399 593l8 -21q-15 -59 -39 -111t-53 -100l-42 3q9 56 16.5 113.5t9.5 112.5zM418 93v-93h-355v400q0 78 -7 140l118 8l14 -14v-448z" />
<glyph horiz-adv-x="436" d="M418 93v-93h-355v400q0 78 -7 140l118 8l14 -14v-448zM163 -320q15 21 29 45.5t21 49.5q-22 3 -37 20.5t-15 42.5q0 27 19.5 49t50.5 22q28 0 47.5 -19.5t19.5 -57.5q0 -35 -15.5 -69t-38 -63.5t-42.5 -51.5z" />
<glyph horiz-adv-x="436" d="M399 305q0 -35 -23.5 -60.5t-60.5 -25.5q-33 0 -52.5 21t-19.5 51q0 34 25.5 59.5t61.5 25.5q30 0 49.5 -19.5t19.5 -51.5zM418 93v-93h-355v400q0 78 -7 140l118 8l14 -14v-448z" />
<glyph horiz-adv-x="436" d="M418 93v-93h-355v194l-87 -48l-31 56l118 66v132q0 78 -7 140l118 8l14 -14v-197l118 65l31 -56l-149 -83v-177z" />
<glyph horiz-adv-x="754" d="M639 548l17 -14l60 -534h-122l-22 194q-7 54 -12 117.5t-9 113.5h-2q-10 -58 -25 -115.5t-31 -115.5l-55 -194h-140l-55 194q-19 65 -33 120.5t-23 111.5h-3q-4 -64 -9.5 -122.5t-11.5 -109.5l-22 -194h-103l62 541l165 5l60 -186q13 -49 28 -117t24 -132h2 q11 69 25.5 135t25.5 114l58 181z" />
<glyph horiz-adv-x="595" d="M315 336q32 -46 57.5 -88t47.5 -88h2q-3 24 -5.5 46.5t-3 58.5t-0.5 100q0 96 -8 175l113 6l14 -13v-533h-120q-39 59 -71.5 110.5t-63.5 97.5q-31 45 -56 85t-46 81h-2q6 -47 7.5 -85.5t1.5 -74.5v-214h-119v405q0 35 -2 69.5t-5 65.5l125 6q39 -62 71.5 -113t62.5 -97z " />
<glyph horiz-adv-x="595" d="M394 795l7 -22q-31 -48 -70.5 -88t-87.5 -74l-47 11q26 45 48 91t37 93zM315 336q32 -46 57.5 -88t47.5 -88h2q-3 24 -5.5 46.5t-3 58.5t-0.5 100q0 96 -8 175l113 6l14 -13v-533h-120q-39 59 -71.5 110.5t-63.5 97.5q-31 45 -56 85t-46 81h-2q6 -47 7.5 -85.5t1.5 -74.5 v-214h-119v405q0 35 -2 69.5t-5 65.5l125 6q39 -62 71.5 -113t62.5 -97z" />
<glyph horiz-adv-x="595" d="M418 811l40 -29q-31 -40 -58 -79.5t-51 -80.5l-88 -8q-25 42 -53 84t-61 84l40 29q32 -23 61.5 -50.5t56.5 -54.5q26 27 54 54t59 51zM315 336q32 -46 57.5 -88t47.5 -88h2q-3 24 -5.5 46.5t-3 58.5t-0.5 100q0 96 -8 175l113 6l14 -13v-533h-120q-39 59 -71.5 110.5 t-63.5 97.5q-31 45 -56 85t-46 81h-2q6 -47 7.5 -85.5t1.5 -74.5v-214h-119v405q0 35 -2 69.5t-5 65.5l125 6q39 -62 71.5 -113t62.5 -97z" />
<glyph horiz-adv-x="595" d="M315 336q32 -46 57.5 -88t47.5 -88h2q-3 24 -5.5 46.5t-3 58.5t-0.5 100q0 96 -8 175l113 6l14 -13v-533h-120q-39 59 -71.5 110.5t-63.5 97.5q-31 45 -56 85t-46 81h-2q6 -47 7.5 -85.5t1.5 -74.5v-214h-119v405q0 35 -2 69.5t-5 65.5l125 6q39 -62 71.5 -113t62.5 -97z M236 -320q16 21 30 45.5t21 49.5q-22 3 -37.5 20.5t-15.5 42.5q0 27 20 49t51 22q27 0 47 -19.5t20 -57.5q0 -35 -15.5 -69t-38 -63.5t-43.5 -51.5z" />
<glyph horiz-adv-x="595" d="M377 713q0 -35 -24 -60.5t-60 -25.5q-33 0 -52.5 21t-19.5 50q0 35 25.5 60.5t60.5 25.5q31 0 50.5 -19.5t19.5 -51.5zM315 336q32 -46 57.5 -88t47.5 -88h2q-3 24 -5.5 46.5t-3 58.5t-0.5 100q0 96 -8 175l113 6l14 -13v-533h-120q-39 59 -71.5 110.5t-63.5 97.5 q-31 45 -56 85t-46 81h-2q6 -47 7.5 -85.5t1.5 -74.5v-214h-119v405q0 35 -2 69.5t-5 65.5l125 6q39 -62 71.5 -113t62.5 -97z" />
<glyph horiz-adv-x="595" d="M182 0h-119v405q0 35 -2 69.5t-5 65.5l125 6q39 -62 71.5 -113t62.5 -97q32 -46 57.5 -88t47.5 -88h2q-3 32 -5.5 57.5t-3 59t-0.5 88.5q0 96 -8 175l113 6l14 -13v-440q0 -63 -13.5 -108t-47.5 -78.5t-95 -61.5l-35 43q23 23 40.5 53.5t22.5 70.5q-36 55 -66.5 103.5 t-60.5 92.5q-31 45 -56 85t-46 81h-2q6 -47 7.5 -85.5t1.5 -74.5v-214z" />
<glyph horiz-adv-x="595" d="M33 -155l-35 43q66 75 66 205v312q0 35 -2 69.5t-6 65.5l125 6q39 -62 71.5 -113t62.5 -97q32 -46 57.5 -88t47.5 -88h2q-3 32 -5 57.5t-3 59t-1 88.5q0 96 -8 175l113 6l14 -13v-533h-120q-39 59 -71.5 110.5t-62.5 97.5q-32 45 -56.5 85t-46.5 81h-2q7 -47 8 -85.5 t1 -74.5v-121q0 -63 -13 -108t-45.5 -78.5t-90.5 -61.5z" />
<glyph horiz-adv-x="595" d="M227 782q30 0 54.5 -14t47 -28.5t45.5 -14.5q21 0 33.5 14t23.5 35l36 -6q-2 -33 -12.5 -65.5t-32 -53.5t-53.5 -21q-28 0 -54.5 14.5t-51 28.5t-45.5 14q-17 0 -30 -12.5t-25 -35.5l-36 5q2 33 12.5 65t31.5 53.5t56 21.5zM315 336q32 -46 57.5 -88t47.5 -88h2 q-3 24 -5.5 46.5t-3 58.5t-0.5 100q0 96 -8 175l113 6l14 -13v-533h-120q-39 59 -71.5 110.5t-63.5 97.5q-31 45 -56 85t-46 81h-2q6 -47 7.5 -85.5t1.5 -74.5v-214h-119v405q0 35 -2 69.5t-5 65.5l125 6q39 -62 71.5 -113t62.5 -97z" />
<glyph horiz-adv-x="602" d="M563 272q0 -92 -36.5 -154t-97 -94t-134.5 -32q-75 0 -132.5 32t-90.5 92t-33 145q0 88 35 152t95.5 99.5t138.5 35.5t135 -34.5t88.5 -96.5t31.5 -145zM168 272q0 -53 14.5 -96t44 -68.5t74.5 -25.5q69 0 101 52.5t32 134.5q0 54 -13.5 96.5t-42 67.5t-74.5 25 q-66 0 -101 -51.5t-35 -134.5z" />
<glyph horiz-adv-x="602" d="M396 795l7 -22q-31 -48 -70.5 -88t-87.5 -74l-46 11q25 45 47.5 91t37.5 93zM563 272q0 -92 -36.5 -154t-97 -94t-134.5 -32q-75 0 -132.5 32t-90.5 92t-33 145q0 88 35 152t95.5 99.5t138.5 35.5t135 -34.5t88.5 -96.5t31.5 -145zM168 272q0 -53 14.5 -96t44 -68.5 t74.5 -25.5q69 0 101 52.5t32 134.5q0 54 -13.5 96.5t-42 67.5t-74.5 25q-66 0 -101 -51.5t-35 -134.5z" />
<glyph horiz-adv-x="602" d="M391 790l51 5q-7 -74 -45.5 -121t-101.5 -47q-56 0 -94 42.5t-44 114.5l51 7q9 -37 34 -58.5t59 -21.5q33 0 57 22.5t33 56.5zM563 272q0 -92 -36.5 -154t-97 -94t-134.5 -32q-75 0 -132.5 32t-90.5 92t-33 145q0 88 35 152t95.5 99.5t138.5 35.5t135 -34.5t88.5 -96.5 t31.5 -145zM168 272q0 -53 14.5 -96t44 -68.5t74.5 -25.5q69 0 101 52.5t32 134.5q0 54 -13.5 96.5t-42 67.5t-74.5 25q-66 0 -101 -51.5t-35 -134.5z" />
<glyph horiz-adv-x="602" d="M420 811l40 -29q-31 -40 -58 -79.5t-51 -80.5l-88 -8q-25 42 -53 84t-61 84l40 29q32 -23 61.5 -50.5t56.5 -54.5q26 27 54.5 54t58.5 51zM563 272q0 -92 -36.5 -154t-97 -94t-134.5 -32q-75 0 -132.5 32t-90.5 92t-33 145q0 88 35 152t95.5 99.5t138.5 35.5t135 -34.5 t88.5 -96.5t31.5 -145zM168 272q0 -53 14.5 -96t44 -68.5t74.5 -25.5q69 0 101 52.5t32 134.5q0 54 -13.5 96.5t-42 67.5t-74.5 25q-66 0 -101 -51.5t-35 -134.5z" />
<glyph horiz-adv-x="602" d="M189 603l-40 29q31 40 58 79.5t51 80.5l88 8q26 -42 54 -84t60 -84l-40 -29q-31 23 -60.5 50.5t-56.5 54.5q-27 -26 -55 -53.5t-59 -51.5zM563 272q0 -92 -36.5 -154t-97 -94t-134.5 -32q-75 0 -132.5 32t-90.5 92t-33 145q0 88 35 152t95.5 99.5t138.5 35.5t135 -34.5 t88.5 -96.5t31.5 -145zM168 272q0 -53 14.5 -96t44 -68.5t74.5 -25.5q69 0 101 52.5t32 134.5q0 54 -13.5 96.5t-42 67.5t-74.5 25q-66 0 -101 -51.5t-35 -134.5z" />
</font>
</defs>
</svg>
