<?xml version="1.0" standalone="no"?>
<!DOCTYPE svg PUBLIC "-//W3C//DTD SVG 1.1//EN" "http://www.w3.org/Graphics/SVG/1.1/DTD/svg11.dtd" >
<svg xmlns="http://www.w3.org/2000/svg" xmlns:xlink="http://www.w3.org/1999/xlink" version="1.1">
<metadata></metadata>
<defs>
<font id="indivisa_text_sansbold_italic" horiz-adv-x="594" >
<font-face units-per-em="1000" ascent="800" descent="-200" />
<missing-glyph horiz-adv-x="254" />
<glyph unicode="&#x2f;symbol&#x31;&#x2f;" horiz-adv-x="5534" d="M1865 412q-25 0 -40.5 14.5t-15.5 37.5q0 24 15.5 45t39 34.5t48.5 13.5q24 0 39 -13.5t15 -37.5t-14.5 -45.5t-37.5 -35t-49 -13.5zM1284 412q-26 0 -41.5 14.5t-15.5 37.5q0 24 15.5 45t39.5 34.5t49 13.5q24 0 38.5 -13.5t14.5 -37.5t-14.5 -45.5t-37 -35t-48.5 -13.5 zM959 0q0 21 2.5 46.5t8.5 61.5q-16 -49 -51 -82t-79 -33q-41 0 -63 30t-22 82q0 45 15.5 91t46.5 85.5t76.5 63.5t104.5 24h12.5t12.5 -1l16 73l6 102l136 7q0 -40 -9.5 -95t-23 -116.5t-27 -123.5t-23 -117.5t-9.5 -97.5h-130zM100 0l78 364q8 38 13.5 72.5t7.5 63.5 l128 7l11 -15l-104 -492h-134zM3503 492l-57 -492h-131l20 175q3 30 9 69t12.5 78t11.5 68h-3q-16 -53 -37 -107.5t-44 -107.5l-76 -175h-149l-2 175q-1 56 1 109t8 106h-2q-15 -61 -30 -115.5t-29 -99.5l-53 -175h-109l154 500l184 6l1 -137q1 -50 -2.5 -121.5 t-12.5 -137.5h2q20 65 36 111t30.5 81t27.5 67l56 131l169 7zM5316 300q-15 -74 -23 -110.5t-11 -51t-3 -21.5q0 -34 36 -34q13 0 28 5t31 13l-9 -79q-20 -11 -50 -20t-64 -9q-50 0 -77.5 25t-27.5 75q0 11 1.5 23.5t6 33.5t12.5 57.5t20 95.5l-47 1l9 44l54 14l53 95l81 6 l13 -15l-20 -86h99l6 -14l-17 -51zM336 0q0 28 4 62t13 82t24 116l6 102l137 7q0 -18 -2 -41t-5 -48h2q29 49 65.5 69t68.5 20q35 0 53.5 -19.5t18.5 -51.5q0 -23 -8 -62.5t-18 -84.5q-7 -33 -11 -57t-5.5 -45.5t-1.5 -48.5h-131q0 38 4.5 69.5t14.5 80.5q7 35 11 55.5 t4 31.5q0 24 -17 24t-34 -22.5t-30.5 -60.5t-22 -84t-9.5 -94h-131zM1170 0q0 39 7 87.5t20 105.5l14 67l6 102l137 7q0 -36 -8 -81.5t-19 -95.5t-19 -99t-8 -93h-130zM1399 362l140 7q6 -59 4.5 -137.5t-9.5 -151.5h2q23 45 42 95t32 99t17 90q17 4 28.5 4.5t21.5 0.5 q28 0 46.5 -7t18.5 -35q0 -22 -13.5 -60.5t-36.5 -85t-53.5 -94t-63.5 -87.5h-149q-2 111 -9.5 207.5t-17.5 154.5zM1752 0q0 39 7 87.5t19 105.5l15 67l6 102l137 7q0 -36 -8 -81.5t-19 -95.5t-19 -99t-8 -93h-130zM4716 0q0 28 4 62t13 82t24 116l6 102l137 7 q0 -18 -2.5 -41t-4.5 -48h2q29 49 65 69t69 20q35 0 53.5 -19.5t18.5 -51.5q0 -23 -8 -62.5t-18 -84.5q-7 -33 -11 -57t-6 -45.5t-2 -48.5h-130q0 38 4.5 69.5t14.5 80.5q7 35 11 55.5t4 31.5q0 24 -17 24q-18 0 -34.5 -22.5t-30.5 -60.5t-22.5 -84t-9.5 -94h-130zM2245 256 q-25 14 -51.5 22t-45.5 8q-17 0 -29.5 -7t-12.5 -19q0 -13 13 -22t32 -17.5t38 -20.5t32 -30.5t13 -47.5q0 -39 -25 -68t-66.5 -45t-89.5 -16q-33 0 -66.5 7.5t-51.5 20.5l27 93q27 -18 58.5 -28t52.5 -10q20 0 30 8t10 18q0 13 -13 22t-32 18t-38 21t-32 30t-13 46 q0 39 25.5 68t67.5 45.5t90 16.5q20 0 48.5 -3.5t55.5 -14.5zM2525 369q32 0 73.5 -7.5t72.5 -24.5l-29 -128q-20 -94 -25.5 -140.5t-5.5 -68.5h-130q0 20 2.5 45t9.5 67q-15 -50 -50.5 -84.5t-81.5 -34.5q-41 0 -62.5 30t-21.5 83q0 44 15.5 90.5t46.5 85.5t77.5 63 t108.5 24zM4653 51q-32 -28 -74 -43t-85 -15q-62 0 -102 33.5t-40 103.5q0 46 17.5 88.5t49.5 76.5t75 54t94 20q53 0 86 -23t33 -65q0 -56 -59 -95.5t-162 -44.5v-1q0 -29 15 -46.5t48 -17.5q22 0 45 7.5t45 20.5zM3936 0q0 28 4 62t13.5 82t24.5 116l5 102l137 7 q0 -18 -2 -41t-5 -48h2q29 49 65.5 69t68.5 20q35 0 53.5 -19.5t18.5 -51.5q0 -23 -8 -62.5t-18 -84.5q-7 -33 -11 -57t-5.5 -45.5t-1.5 -48.5h-131q0 38 4.5 69.5t14.5 80.5q8 35 11.5 55.5t3.5 31.5q0 24 -17 24t-34 -22.5t-30.5 -60.5t-22 -84t-9.5 -94h-131zM3768 369 q32 0 73 -7.5t72 -24.5l-28 -128q-20 -94 -25.5 -140.5t-5.5 -68.5h-130q0 20 2.5 45t9.5 67q-15 -50 -50.5 -84.5t-81.5 -34.5q-41 0 -63 30t-22 83q0 44 15.5 90.5t47 85.5t78 63t108.5 24zM4490 177q46 10 72.5 33.5t26.5 59.5q0 17 -5.5 24t-16.5 7q-20 0 -36 -20 t-26 -48.5t-15 -55.5zM3677 101q17 0 33 21t30 54t22 69q2 11 4.5 22t4.5 22q-16 8 -27 8q-18 0 -34.5 -16t-29 -40.5t-20 -51.5t-7.5 -48q0 -40 24 -40zM913 101q16 0 31 19.5t28.5 50t22.5 64.5l4 20l4 20l3 14q-14 8 -27 8q-18 0 -34 -16t-28.5 -40.5t-20 -51.5t-7.5 -48 q0 -40 24 -40zM2435 101q16 0 32.5 21t30 54t21.5 69q2 11 4.5 22t4.5 22q-14 8 -27 8q-18 0 -34 -16t-29 -40.5t-20 -51.5t-7 -48q0 -40 24 -40z" />
<glyph unicode="&#x2f;symbol&#x32;&#x2f;" horiz-adv-x="932" d="M494 570l52 -90l-137 -240h-103l137 240l-52 90h103zM357 570l52 -90l-138 -240h-103l138 240l-52 90h103zM752 120h-103l-137 240l51 90l137 -240h103zM683 0h-103l-137 240l51 90l138 -240h103zM100 120l51 90h275l51 -90h-274l-52 -90zM168 0l52 90h274l52 -90h-275 l-51 -90zM789 88q18 0 30.5 -13t12.5 -31t-12.5 -31t-30.5 -13t-30.5 13t-12.5 31t12.5 31t30.5 13zM829 44q0 17 -11.5 28.5t-28.5 11.5q-16 0 -28 -11.5t-12 -28.5q0 -16 12 -28t28 -12q17 0 28.5 12t11.5 28zM771 69h18h5t6 -2q5 -4 5 -11q0 -5 -3 -8q-1 -2 -2.5 -2.5 t-3.5 -1.5q7 -1 8 -9q0 -8 3 -16h-8q-1 2 -1 6t-1 7q-1 5 -2.5 7.5t-8.5 2.5h-8v-23h-7v50zM778 47h10h3.5t3.5 1q3 3 3 7q0 6 -4 7t-6 1h-10v-16z" />
<glyph unicode="&#x2f;symbol&#x33;&#x2f;" horiz-adv-x="957" d="M505 638l68 -270h270l-203 -135l136 -270l-271 135l-270 -270l135 405l-270 203l338 -68zM814 87q18 0 30.5 -12.5t12.5 -31.5q0 -18 -12.5 -30.5t-30.5 -12.5t-30.5 12.5t-12.5 30.5q0 19 12.5 31.5t30.5 12.5zM854 43q0 17 -11.5 29t-28.5 12q-16 0 -28 -12t-12 -29 q0 -16 12 -28t28 -12q17 0 28.5 12t11.5 28zM796 68h18h5.5t5.5 -2q6 -3 6 -10q0 -5 -4 -9q-3 -3 -6 -3q7 -3 8 -10q1 -4 1.5 -7.5t1.5 -8.5h-7q-1 3 -1.5 7t-1.5 7q0 9 -10 9h-9v-23h-7v50zM803 47h10h3.5t3.5 1l2 2t1 4q0 7 -4 8t-6 1h-10v-16z" />
<glyph unicode="&#x2f;symbol&#x34;&#x2f;" horiz-adv-x="2607" d="M1684 406q0 32 -2.5 63t-8.5 65l126 14l15 -15v-533h-130v406zM1889 406q0 62 -10 128l126 14l14 -15v-533h-130v406zM427 101v-101h-320v362q0 38 -1.5 72t-5.5 63l126 7l14 -14v-396zM925 21l7 109q31 -18 72 -27t72 -9q50 0 50 36q0 19 -20.5 34t-50 31t-59.5 37 t-50.5 51t-20.5 74q0 48 26 80.5t70 49.5t97 17q81 0 127 -18l-14 -111q-28 14 -55 21.5t-56 7.5q-28 0 -43 -11t-15 -29q0 -22 20.5 -38.5t50.5 -32.5t59.5 -36.5t50 -49.5t20.5 -73q0 -67 -54 -104t-139 -37q-40 0 -82.5 8t-62.5 20zM795 0l-106 -7q-7 11 -12 24t-9 25h-4 q-15 -22 -42.5 -35.5t-61.5 -13.5q-41 0 -69 22t-28 67q0 61 53.5 88.5t137.5 29.5v20q0 54 -58 54q-55 0 -108 -29l-8 97q27 10 68.5 18t81.5 8q154 0 154 -135q0 -38 -2 -69.5t-2 -69.5q0 -24 4.5 -50.5t10.5 -43.5zM1626 0l-107 -7q-7 11 -12 24t-9 25h-3 q-15 -22 -42.5 -35.5t-62.5 -13.5q-40 0 -68 22t-28 67q0 61 53 88.5t138 29.5v20q0 54 -58 54q-54 0 -109 -29l-7 97q27 10 68.5 18t81.5 8q153 0 153 -135q0 -38 -1.5 -69.5t-1.5 -69.5q0 -24 4.5 -50.5t10.5 -43.5zM2405 213v-17t-1 -19l-11 -11h-191q8 -45 33.5 -64 t64.5 -19q24 0 45.5 6t38.5 15l7 -81q-17 -11 -49.5 -20.5t-77.5 -9.5q-88 0 -143 47t-55 135q0 58 24 101t66 67.5t94 24.5q73 0 114 -43.5t41 -111.5zM2199 207l78 4q1 5 1.5 11t0.5 15q0 23 -7.5 41t-26.5 18q-23 0 -34 -25.5t-12 -63.5zM654 74v88q-27 -3 -46 -17 t-19 -40q0 -18 10.5 -29t26.5 -11t28 9zM1485 74v88q-27 -3 -46 -17t-19 -40q0 -18 10 -29t27 -11q16 0 28 9zM2464 85q18 0 30.5 -13t12.5 -31t-12.5 -31t-30.5 -13t-31 13t-13 31t13 31t31 13zM2504 41q0 17 -11.5 28.5t-28.5 11.5q-16 0 -28 -11.5t-12 -28.5 q0 -16 12 -28t28 -12q17 0 28.5 12t11.5 28zM2446 66h18q2 0 5 -0.5t6 -2.5q5 -2 5 -10q0 -4 -3 -9q-3 -3 -6 -3q7 -1 8 -10q0 -7 3 -15h-8q-1 2 -1 6t-1 7q-1 5 -2.5 7t-8.5 2h-8v-22h-7v50zM2453 44h10h3.5t3.5 1q3 3 3 7q0 6 -4 7t-6 1h-10v-16z" />
<glyph unicode="&#x2f;symbol&#x35;&#x2f;" horiz-adv-x="705" d="M232 -6l-132 136l124 234l129 -136zM474 -6l-121 234l128 136l124 -234z" />
<glyph unicode=" "  horiz-adv-x="254" />
<glyph unicode="&#x09;" horiz-adv-x="254" />
<glyph unicode="&#xa0;" horiz-adv-x="254" />
<glyph unicode="!" horiz-adv-x="310" d="M186 214h-76q18 108 32.5 202t25 164.5t16.5 107.5l117 10l10 -14q-26 -114 -58 -233t-67 -237zM186 85q0 -24 -13 -45.5t-34 -35t-45 -13.5q-25 0 -38.5 14.5t-13.5 35.5q0 23 13.5 43.5t35 34t45.5 13.5q23 0 36.5 -12.5t13.5 -34.5z" />
<glyph unicode="&#x22;" horiz-adv-x="341" d="M247 758l4 -19l-88 -262h-42l30 281h96zM398 758l4 -19l-88 -262h-42l30 281h96z" />
<glyph unicode="#" horiz-adv-x="717" d="M175 -10l-57 9l-7 8l61 131h-125l-6 8l21 59h141l60 130h-131l-6 8l21 59h147l67 146l57 -10l6 -8l-59 -128h154l68 146l56 -10l6 -8l-59 -128h121l6 -8l-21 -59h-137l-60 -130h132l7 -8l-22 -59h-148l-68 -148l-56 9l-7 8l60 131h-154zM274 205h154l60 130h-154z" />
<glyph unicode="$" horiz-adv-x="496" d="M141 -140l-6 8l26 122q-42 1 -87.5 10t-71.5 27l31 104q33 -24 77.5 -34.5t74.5 -10.5q54 0 85.5 26.5t31.5 68.5q0 35 -19 61t-48 50t-57.5 50.5t-48 61t-19.5 81.5q0 54 28 98t76.5 73t111.5 38l28 131l45 3l7 -8l-27 -122h1q39 0 77 -7.5t63 -21.5l-38 -106 q-27 20 -60 29.5t-60 9.5q-58 0 -89.5 -29.5t-31.5 -71.5q0 -35 19.5 -61.5t47.5 -50t56.5 -49.5t48 -60t19.5 -83q0 -57 -29.5 -100.5t-78.5 -69.5t-110 -34l-27 -130z" />
<glyph unicode="%" horiz-adv-x="991" d="M476 552q0 -49 -17.5 -94.5t-49 -82.5t-75 -58.5t-95.5 -21.5q-63 0 -102 36.5t-39 109.5q0 49 18 95t50 83t75.5 58.5t94.5 21.5q65 0 102.5 -38t37.5 -109zM767 698l-423 -708h-54l422 708h55zM202 435q0 -80 54 -80q28 0 50 20.5t36.5 53t22.5 68t8 65.5q0 78 -54 78 q-29 0 -51 -20.5t-36.5 -52.5t-22 -67.5t-7.5 -64.5zM921 180q0 -49 -17.5 -94.5t-49 -82.5t-75 -58.5t-95.5 -21.5q-63 0 -102 36.5t-39 109.5q0 49 18 95t50 83t75.5 58.5t94.5 21.5q65 0 102.5 -38t37.5 -109zM647 63q0 -80 54 -80q28 0 50 20.5t36.5 53t22 68t7.5 65.5 q0 78 -53 78q-29 0 -51 -20.5t-36.5 -52.5t-22 -67.5t-7.5 -64.5z" />
<glyph unicode="&#x26;" horiz-adv-x="780" d="M720 94q0 -38 -24 -65.5t-70 -38.5l-7 7q11 16 11 38q0 30 -26 54.5t-66 48.5q-47 -66 -116 -107t-156 -41q-62 0 -109 21.5t-73.5 59.5t-26.5 88q0 67 46.5 128.5t122.5 98.5q-9 21 -13.5 44.5t-4.5 49.5q0 71 32.5 119.5t87 73.5t119.5 25q68 0 107.5 -27t39.5 -73 q0 -33 -18.5 -60.5t-47.5 -38.5q21 0 54.5 1t72.5 2t76.5 2.5t67.5 3.5l7 -5q0 -19 -4.5 -47.5t-10.5 -45.5q-34 2 -73.5 5.5t-80.5 8.5q-5 -92 -40 -179q52 -30 87.5 -65.5t35.5 -85.5zM331 505q0 -56 31 -96.5t79 -71.5t99 -59q26 73 28 154q-30 4 -58 8t-53 9l-2 27 q14 18 24 39t10 43q0 23 -13 42t-47 19q-39 0 -68.5 -29t-29.5 -85zM180 191q0 -56 37 -86.5t92 -30.5q52 0 96 25.5t78 69.5q-40 21 -82 45.5t-80 54t-66 67.5q-39 -31 -57 -70.5t-18 -74.5z" />
<glyph unicode="'" horiz-adv-x="190" d="M247 758l4 -19l-88 -262h-42l30 281h96z" />
<glyph unicode="(" horiz-adv-x="413" d="M87 145q0 92 26 181.5t74 170t114.5 147t147.5 114.5l31 -59q-86 -71 -146.5 -161.5t-92.5 -191.5t-32 -204q0 -81 22.5 -149.5t70.5 -129.5l-57 -60q-77 60 -117.5 145t-40.5 197z" />
<glyph unicode=")" horiz-adv-x="414" d="M340 417q0 -93 -26 -182.5t-74 -170t-114.5 -147t-147.5 -114.5l-31 60q86 70 146.5 160.5t92 191.5t31.5 204q0 81 -22 150t-70 130l56 59q77 -60 118 -144.5t41 -196.5z" />
<glyph unicode="*" horiz-adv-x="494" d="M235 354l-3 15l57 152l-155 -105l-24 65l13 13l158 55l-146 63l51 64l16 -2l99 -98l11 168h74l3 -15l-58 -155l156 108l24 -65l-12 -13l-156 -55l144 -63l-52 -64l-15 2l-100 99l-11 -169h-74z" />
<glyph unicode="+" d="M532 314h-185l-40 -189h-67l39 189h-197l14 63q34 1 86.5 2t110.5 1l38 185h69l-39 -184q55 1 104 1h83l4 -7z" />
<glyph unicode="," horiz-adv-x="259" d="M-46 -161q27 32 56 71.5t46 80.5q-21 3 -33.5 17.5t-12.5 36.5q0 25 14 48t37 37t48 14q26 0 42.5 -14.5t16.5 -43.5q0 -32 -17.5 -70t-46 -76.5t-60 -73t-60.5 -58.5z" />
<glyph unicode="-" horiz-adv-x="387" d="M39 263l3 44h322l-4 -44h-321z" />
<glyph unicode="." horiz-adv-x="263" d="M174 91q0 -25 -15 -48.5t-38.5 -38t-49.5 -14.5q-27 0 -43 15.5t-16 39.5q0 25 15.5 47.5t39.5 37t50 14.5t41.5 -14.5t15.5 -38.5z" />
<glyph unicode="/" horiz-adv-x="359" d="M416 748l6 -8l-346 -747l-58 11l-6 8l346 747z" />
<glyph unicode="0" horiz-adv-x="689" d="M649 452q0 -90 -29.5 -173t-80.5 -148t-118 -103t-141 -38q-90 0 -145 61t-55 183q0 89 29.5 172.5t81 149t118.5 104t142 38.5q91 0 144.5 -62.5t53.5 -183.5zM201 225q0 -77 25 -117t74 -40q48 0 89.5 36t72.5 95t48.5 128.5t17.5 136.5q0 156 -98 156q-48 0 -89.5 -36 t-73 -94.5t-49 -128t-17.5 -136.5z" />
<glyph unicode="1" horiz-adv-x="356" d="M201 571h-3l-111 -20l-1 73l245 73l11 -13l-146 -684h-119l92 430q7 35 15 72t17 69z" />
<glyph unicode="2" horiz-adv-x="536" d="M1 0l4 89q49 34 103.5 75t107.5 86.5t96.5 92.5t69 92t25.5 86q0 39 -26 63.5t-76 24.5q-42 0 -92 -17.5t-98 -44.5l8 96q28 13 66 25.5t80 21t83 8.5q85 0 135 -39t50 -103q0 -48 -26 -98t-69.5 -100t-98 -97.5t-112 -89t-110.5 -75.5h166q40 0 81.5 2.5t80.5 7.5 l-32 -106h-416z" />
<glyph unicode="3" horiz-adv-x="518" d="M137 644q40 21 100 37.5t115 16.5q73 0 117.5 -32.5t44.5 -88.5q0 -44 -26.5 -85.5t-73 -74t-105.5 -49.5q75 -8 119 -43.5t44 -100.5q0 -48 -24 -90t-67.5 -74.5t-101.5 -51t-126 -18.5q-40 0 -84.5 6.5t-76.5 16.5l30 84q29 -10 71.5 -16.5t74.5 -6.5q51 0 91.5 18 t63.5 48t23 66q0 34 -20 53.5t-53.5 27.5t-75.5 8q-19 0 -38.5 -1.5t-40.5 -5.5l18 83q73 11 129.5 37t88 60.5t31.5 73.5q0 67 -86 67q-39 0 -85 -14.5t-89 -35.5z" />
<glyph unicode="4" horiz-adv-x="577" d="M27 251l375 435l132 10l11 -13l-90 -421q49 3 93 8l-32 -99h-80l-36 -171h-114l37 171h-299zM128 261v-3q30 1 58.5 1.5t63.5 0.5h83h9l34 161q14 61 22.5 100.5t19.5 75.5h-2z" />
<glyph unicode="5" horiz-adv-x="565" d="M21 13l30 87q25 -9 62.5 -16.5t71.5 -7.5q56 0 99 21t67 56t24 79q0 55 -36.5 77.5t-87.5 22.5q-32 0 -67.5 -7t-59.5 -17l-16 13l78 367h228q41 0 82 2.5t80 7.5l-29 -106h-283l-39 -185q22 5 49.5 8t50.5 3q50 0 90 -16.5t63 -51t23 -89.5q0 -74 -42 -135.5t-117 -98.5 t-172 -37q-41 0 -80 6.5t-69 16.5z" />
<glyph unicode="6" horiz-adv-x="600" d="M249 -10q-86 0 -137.5 51t-51.5 163q0 76 23 148t65 134.5t98 110t122 74.5t138 27q24 0 47 -3.5t33 -8.5l-30 -90q-12 5 -30.5 9t-39.5 4q-54 0 -108.5 -28t-99 -84t-69.5 -143h2q32 26 77.5 39t86.5 13q74 0 117 -38.5t43 -111.5q0 -54 -22.5 -101.5t-61.5 -85 t-91 -58.5t-111 -21zM324 328q-35 0 -73.5 -15.5t-59.5 -42.5q-6 -30 -9 -54t-3 -43q0 -49 19.5 -77t63.5 -28q41 0 74.5 23.5t53 62t19.5 82.5q0 92 -85 92z" />
<glyph unicode="7" horiz-adv-x="520" d="M113 576l36 112h430l12 -14l-15 -68q-91 -82 -169 -178.5t-136 -204.5t-88 -223h-123q23 83 66.5 167t99.5 162.5t116.5 145t117.5 115.5l1 2h-155q-51 0 -99.5 -3.5t-93.5 -12.5z" />
<glyph unicode="8" horiz-adv-x="586" d="M220 -10q-94 0 -149.5 40.5t-55.5 104.5q0 45 26.5 86.5t72 75t104.5 53.5l1 2q-40 24 -70.5 59.5t-30.5 87.5q0 54 35.5 99.5t94.5 72.5t131 27q89 0 135.5 -41.5t46.5 -97.5q0 -61 -49 -114t-125 -85l-1 -3q32 -15 60.5 -37t46.5 -51.5t18 -68.5q0 -56 -39 -104 t-105 -77t-147 -29zM359 626q-35 0 -64 -15t-46 -40.5t-17 -55.5q0 -38 26 -66.5t66 -48.5q56 28 90.5 68t34.5 82q0 34 -25 55t-65 21zM278 302q-66 -27 -106.5 -70.5t-40.5 -87.5q0 -36 29.5 -59t79.5 -23q44 0 78.5 16.5t54.5 44t20 59.5q0 39 -32 68t-83 52z" />
<glyph unicode="9" horiz-adv-x="595" d="M263 263q-78 0 -123 40.5t-45 115.5q0 56 22 106t60.5 89t90.5 61.5t111 22.5q86 0 140.5 -51t54.5 -158q0 -75 -22.5 -147t-63.5 -135.5t-96.5 -112.5t-121.5 -76.5t-137 -27.5q-19 0 -40 2t-35 6l17 88q15 -3 32.5 -5t34.5 -2q101 0 174.5 65.5t106.5 174.5h-2 q-30 -28 -72.5 -42t-85.5 -14zM361 614q-39 0 -70.5 -25t-50 -65.5t-18.5 -87.5q0 -44 22.5 -69.5t68.5 -25.5q31 0 65.5 13t60.5 42q11 59 11 98q0 58 -22.5 89t-66.5 31z" />
<glyph unicode=":" horiz-adv-x="264" d="M243 412q0 -25 -15 -48t-38.5 -38t-49.5 -15q-27 0 -43 15.5t-16 39.5q0 25 15.5 47.5t39.5 37t50 14.5q25 0 41 -14.5t16 -38.5zM174 91q0 -25 -15 -48.5t-38.5 -38t-49.5 -14.5q-27 0 -43 15.5t-16 39.5q0 25 15.5 47.5t39.5 37t50 14.5t41.5 -14.5t15.5 -38.5z" />
<glyph unicode=";" horiz-adv-x="265" d="M244 412q0 -25 -14.5 -48t-38 -38t-50.5 -15t-43 15.5t-16 39.5q0 25 15.5 47.5t40 37t50.5 14.5q25 0 40.5 -14.5t15.5 -38.5zM-46 -161q27 32 56 71.5t46 80.5q-21 3 -33.5 17.5t-12.5 36.5q0 25 14 48t37 37t48 14q26 0 42.5 -14.5t16.5 -43.5q0 -32 -17.5 -70 t-46 -76.5t-60 -73t-60.5 -58.5z" />
<glyph unicode="&#x3c;" d="M554 578l-15 -73l-372 -167l302 -158l-16 -71q-27 12 -67 32t-85.5 43t-90.5 46.5t-83.5 44.5t-63.5 35l-2 9l10 51z" />
<glyph unicode="=" d="M553 411h-450l14 64q30 1 75 1.5t97 1l104 1t98 1t77 0.5l6 -7zM512 218h-450l13 64q31 1 76 1.5t97 1l104 1t97.5 1t77.5 0.5l5 -7z" />
<glyph unicode="&#x3e;" d="M57 109l16 73l372 167l-302 158l15 71q27 -13 67 -32.5t85.5 -42.5t90.5 -46.5t83.5 -44.5t64.5 -36l2 -8l-11 -51z" />
<glyph unicode="?" horiz-adv-x="482" d="M225 219l-70 -3q-2 9 -2.5 20t0.5 20q1 35 24 62t55 50.5t64 48t54 53.5t22 68q0 32 -22 52t-61 20q-36 0 -81.5 -19.5t-82.5 -58.5l-33 64q44 44 105 73t134 29q81 0 125 -35.5t45 -92.5q0 -54 -25 -94.5t-62 -71.5t-75 -55t-65.5 -45t-32.5 -41q-1 -7 -3 -18t-3 -18z M234 85q0 -24 -13 -45.5t-34.5 -35t-45.5 -13.5t-37.5 14.5t-13.5 35.5q0 23 13.5 43.5t34.5 34t45 13.5t37.5 -12.5t13.5 -34.5z" />
<glyph unicode="@" horiz-adv-x="1120" d="M809 -161q-52 -39 -130 -68t-174 -29t-176 31.5t-138.5 90t-90.5 138t-32 176.5t32 184.5t88.5 159.5t131 125t161 82t177.5 29q95 0 173 -31t134 -86t86.5 -128t30.5 -157q0 -76 -24 -142t-66.5 -116.5t-98 -79t-119.5 -28.5q-53 0 -85.5 19t-47 50t-15 68t9.5 73h-5 q-11 -34 -31.5 -70.5t-47.5 -68.5t-59 -51.5t-66 -19.5q-48 0 -77.5 40t-29.5 113q0 62 23 126t66 118.5t104 87.5t137 33q37 0 79 -8.5t78 -23.5l-47 -199q-7 -34 -14 -73t-6 -74t17.5 -57.5t56.5 -22.5q37 0 75 22t70.5 62t52.5 95.5t20 123.5q0 80 -28.5 146t-79 114 t-118.5 74.5t-147 26.5q-77 0 -154 -24.5t-146.5 -71t-124 -111.5t-85.5 -146t-31 -175q0 -87 28 -160t80.5 -126.5t126 -83.5t164.5 -30t156.5 26t118.5 55zM488 91q26 0 52.5 26.5t50.5 68t42 88t26 84.5l15 66q-26 12 -48 12q-37 0 -69.5 -25.5t-58 -65.5t-40 -86.5 t-14.5 -88.5q0 -37 11.5 -58t32.5 -21z" />
<glyph unicode="A" horiz-adv-x="646" d="M89 0h-117l313 585q33 62 52 106l141 6l16 -16l74 -681h-124l-18 170h-246zM282 362l-55 -103h189l-11 103q-6 69 -9.5 125t-2.5 96h-3q-18 -40 -47 -99.5t-61 -121.5z" />
<glyph unicode="B" horiz-adv-x="626" d="M272 0h-222l111 523q10 44 16.5 84.5t9.5 80.5h226q93 0 143 -39.5t50 -106.5q0 -63 -40.5 -112t-105.5 -70q57 -15 84.5 -49.5t27.5 -85.5q0 -69 -41.5 -119.5t-109.5 -78t-149 -27.5zM375 602h-76l-46 -213h68q49 0 85 18t55.5 47t19.5 63q0 85 -106 85zM322 311h-86 l-47 -225h94q74 0 120 38t46 97q0 43 -29.5 66.5t-97.5 23.5z" />
<glyph unicode="C" horiz-adv-x="583" d="M514 138l-7 -100q-44 -24 -95.5 -36t-100.5 -12q-115 0 -177.5 64.5t-62.5 189.5q0 86 28.5 167t79.5 145.5t122 103t155 38.5q43 0 89 -10.5t77 -31.5l-47 -106q-28 22 -66 34t-73 12q-57 0 -100.5 -30t-73.5 -78.5t-45.5 -106t-15.5 -112.5q0 -85 37 -131.5t111 -46.5 q41 0 85.5 13.5t79.5 33.5z" />
<glyph unicode="D" horiz-adv-x="709" d="M676 430q0 -83 -28.5 -160t-84 -138t-135.5 -96.5t-183 -35.5h-195l111 523q11 50 17.5 88t8.5 77h216q130 0 201.5 -63t71.5 -195zM371 599h-71l-108 -510h80q70 0 122 29t86 77t50.5 106t16.5 116q0 74 -24.5 113.5t-64.5 54t-87 14.5z" />
<glyph unicode="E" horiz-adv-x="560" d="M485 96l-20 -96h-415l111 523q10 44 17 83.5t9 81.5h403l11 -14l-20 -82l-281 7l-46 -218l237 4l-22 -89l-232 5l-45 -212z" />
<glyph unicode="F" horiz-adv-x="524" d="M173 0h-123l111 523q10 44 17 83.5t9 81.5h392l10 -14l-19 -82l-270 7l-49 -233l225 3l-22 -89l-220 5z" />
<glyph unicode="G" horiz-adv-x="655" d="M590 313l10 -13l-58 -265q-44 -21 -100.5 -33t-112.5 -12q-126 0 -192.5 63.5t-66.5 188.5q0 88 31 169.5t87 146t131 102.5t163 38q44 0 91.5 -10.5t81.5 -31.5l-43 -106q-62 49 -146 49q-61 0 -110 -29t-84 -77.5t-53.5 -108.5t-18.5 -121q0 -86 39.5 -131.5 t122.5 -45.5q35 0 77 8l4 18q9 42 14 71t8.5 56.5t6.5 63.5z" />
<glyph unicode="H" horiz-adv-x="726" d="M173 0h-123l110 518q10 48 17 90t10 80l121 10l10 -14l-63 -298h283l28 132q10 48 17 90t10 80l121 10l10 -14l-145 -684h-123l63 297h-283z" />
<glyph unicode="I" horiz-adv-x="320" d="M173 0h-123l110 518q10 48 17 90t10 80l121 10l10 -14z" />
<glyph unicode="J" horiz-adv-x="306" d="M-50 -193l-25 46q47 41 81 100t52 145l89 420q8 40 14 78.5t9 86.5l125 15l10 -13l-124 -587q-16 -74 -42 -127.5t-71.5 -93t-117.5 -70.5z" />
<glyph unicode="K" horiz-adv-x="639" d="M160 518q9 46 16 86t11 84l120 10l11 -14l-66 -311h81q58 74 122.5 159t125.5 166l109 -11l5 -13l-266 -319l146 -355l-140 -7q-32 69 -62 143t-58 147h-83l-60 -283h-122z" />
<glyph unicode="L" horiz-adv-x="519" d="M470 96l-20 -96h-400l111 519q9 48 16 89.5t10 79.5l121 10l10 -14l-126 -595z" />
<glyph unicode="M" horiz-adv-x="886" d="M834 698l14 -14l-69 -684h-121l25 255q8 81 19 163t21 153h-2q-32 -79 -69 -158.5t-76 -157.5l-126 -255h-137l-18 255q-7 95 -10 168t-1 148h-2q-23 -85 -47.5 -164.5t-48.5 -151.5l-82 -255h-103l224 690l160 7l27 -291q2 -39 3 -90t0.5 -105.5t-4.5 -106.5h3 q26 72 48 125.5t41.5 95.5t38.5 81l146 284z" />
<glyph unicode="N" horiz-adv-x="730" d="M421 416q28 -73 49 -133.5t36 -128.5h2q4 31 8 58t10 61t16 84.5t27 128.5q24 112 34 202l114 9l11 -14l-145 -683h-119q-30 76 -56 145.5t-51 132.5q-29 73 -49.5 130.5t-36.5 120.5h-2q-7 -64 -16.5 -118.5t-21.5 -107.5l-64 -303h-117l111 523q9 44 16 85.5t10 79.5 l127 8q30 -79 56 -147.5t51 -132.5z" />
<glyph unicode="O" horiz-adv-x="698" d="M667 442q0 -84 -27.5 -164.5t-77 -145.5t-118.5 -103.5t-151 -38.5q-103 0 -162.5 65t-59.5 188q0 84 27.5 165t77.5 146.5t118 104.5t150 39q104 0 163.5 -66.5t59.5 -189.5zM198 246q0 -76 28.5 -119.5t87.5 -43.5q53 0 95 33t71 87t44.5 117t15.5 122 q0 76 -27.5 119.5t-86.5 43.5q-53 0 -95.5 -33.5t-72 -87.5t-45 -117t-15.5 -121z" />
<glyph unicode="P" horiz-adv-x="583" d="M173 0h-123l111 523q11 50 17.5 86.5t8.5 78.5h210q99 0 153 -45.5t54 -129.5q0 -61 -25 -112t-69 -89t-102 -58.5t-125 -20.5h-60zM355 602h-54l-60 -283h49q59 0 100.5 23.5t64 64t22.5 91.5q0 48 -28 76t-94 28z" />
<glyph unicode="Q" horiz-adv-x="685" d="M770 -105q0 -43 -40 -65t-102 -22t-132.5 20.5t-135.5 62t-109 103.5q-81 14 -130.5 78.5t-49.5 176.5q0 83 28 163t78.5 144.5t118 103t146.5 38.5q104 0 162.5 -70t58.5 -195q0 -81 -24 -155t-68 -134.5t-102 -99.5t-125 -50q38 -22 85.5 -41t98 -30.5t99.5 -11.5 q42 0 76 8t54 15q13 -14 13 -39zM310 83q54 0 96 33t71 87t44 117t15 122q0 76 -27.5 119.5t-85.5 43.5q-54 0 -96 -33.5t-71.5 -87.5t-45 -117t-15.5 -121q0 -76 28 -119.5t87 -43.5z" />
<glyph unicode="R" horiz-adv-x="616" d="M173 0h-123l111 523q10 44 16.5 83.5t9.5 81.5h194q109 0 167 -44t58 -124q0 -78 -46.5 -141t-130.5 -92l109 -287l-139 -11q-22 64 -43 130.5t-40 133.5h-90zM356 602h-55l-57 -266h51q85 0 134 46t49 119q0 46 -27.5 73.5t-94.5 27.5z" />
<glyph unicode="S" horiz-adv-x="530" d="M469 206q0 -62 -36.5 -110.5t-101 -77t-149.5 -28.5q-47 0 -97.5 9.5t-80.5 27.5l31 104q23 -15 53.5 -25t61 -15t53.5 -5q61 0 98 30t37 75q0 33 -19 55.5t-46.5 39.5t-53.5 33q-29 16 -55 37t-43 51t-17 73q0 62 38 111.5t103.5 78t150.5 28.5q45 0 86.5 -8t67.5 -21 l-38 -106q-31 20 -68.5 29.5t-69.5 9.5q-61 0 -100 -29.5t-39 -74.5q0 -31 17.5 -52t45.5 -37.5t58 -35.5q26 -16 52 -38t43.5 -53t17.5 -76z" />
<glyph unicode="T" horiz-adv-x="539" d="M278 0h-123l126 596q-49 -1 -100 -3l-102 -4l28 99h510l-13 -99l-100 4t-100 3z" />
<glyph unicode="U" horiz-adv-x="678" d="M76 164q0 29 8 74t20.5 100.5t26 116.5t24 121t14.5 113l124 9l9 -12q-28 -132 -46.5 -217.5t-29.5 -136.5t-16 -77.5t-6.5 -39t-1.5 -21.5q0 -54 30 -81t81 -27q61 0 107 39t62 114q23 108 38 179t24 115t13.5 71t6.5 45.5t3 39.5l130 8l-99 -466q-17 -80 -63.5 -133.5 t-111.5 -80.5t-137 -27q-93 0 -151.5 45t-58.5 129z" />
<glyph unicode="V" horiz-adv-x="620" d="M194 -2l-87 687l133 13l41 -373q5 -57 8.5 -111.5t2.5 -94.5q18 41 44 92t51 97l208 390l97 -8l5 -13l-376 -679h-127z" />
<glyph unicode="W" horiz-adv-x="961" d="M156 -2l-49 687l132 13l18 -381q4 -53 4 -103.5t-2 -90.5q16 39 41.5 94t48.5 104l178 369l119 8l20 -381q3 -52 4.5 -103t0.5 -91q20 54 42 101t46 98l178 376l96 -8l5 -13l-337 -679h-127l-27 339q-3 46 -3.5 93t-1.5 96h-3q-17 -41 -31 -72t-27 -59t-29 -59l-169 -338 h-127z" />
<glyph unicode="X" horiz-adv-x="580" d="M-30 0l-4 13l266 322l-124 350l134 13l94 -285h2l209 285l104 -9l4 -14l-267 -334l123 -341h-137l-90 262h-2l-204 -262h-108z" />
<glyph unicode="Y" horiz-adv-x="561" d="M216 233l-109 452l133 13l44 -227q5 -36 12 -78t10 -73h2q17 31 43 74t46 77l139 227l97 -8l5 -13l-300 -445l-49 -232h-123z" />
<glyph unicode="Z" horiz-adv-x="525" d="M-14 0l-4 79l449 508l-329 -6l30 107h434l14 -79l-445 -508l338 7l-30 -108h-457z" />
<glyph unicode="[" horiz-adv-x="381" d="M27 -105h1l164 771h-1l20 92h239l-20 -92h-124l-164 -771h124l-19 -92h-239z" />
<glyph unicode="\" horiz-adv-x="376" d="M193 -7l-28 747l10 8l61 11l28 -747l-10 -8z" />
<glyph unicode="]" horiz-adv-x="381" d="M183 -197h-238l19 92h124l165 771h-125l20 92h239l-20 -92v0l-164 -771v0z" />
<glyph unicode="^" horiz-adv-x="492" d="M132 210h-73l218 338h62l77 -338h-73l-56 247z" />
<glyph unicode="_" horiz-adv-x="414" d="M-99 -215l9 43h414l-9 -43h-414z" />
<glyph unicode="`" horiz-adv-x="304" d="M275 572q-41 35 -72.5 74.5t-52.5 87.5l11 20l110 12q7 -47 20 -92.5t30 -90.5z" />
<glyph unicode="a" horiz-adv-x="548" d="M37 140q0 64 22 129t64.5 119t103.5 87t138 33q32 0 76.5 -7.5t81.5 -24.5l-40 -175q-17 -73 -26.5 -127t-14 -95.5t-4.5 -78.5h-120q0 38 4.5 78t15.5 103q-19 -45 -49 -89t-67 -73t-80 -29q-48 0 -76.5 38t-28.5 112zM160 170q0 -37 11.5 -58t33.5 -21q24 0 49.5 26 t49 67t42 86.5t29.5 84.5q7 30 15 67q-31 14 -54 14q-35 0 -66.5 -25.5t-56 -65.5t-39 -86.5t-14.5 -88.5z" />
<glyph unicode="b" horiz-adv-x="552" d="M157 609l8 139l128 10q0 -52 -11.5 -123t-29.5 -152t-37 -164q20 48 49.5 91.5t66.5 70.5t79 27q50 0 78.5 -38t28.5 -112q0 -64 -22.5 -129t-64.5 -119t-102 -87t-135 -33q-35 0 -77.5 7t-78.5 24q3 23 8 51.5t13 68.5t20 98t30 141zM173 127v0q-5 -27 -9 -51 q31 -14 54 -14q35 0 66.5 25t56 65.5t39 86.5t14.5 89q0 37 -11.5 58t-33.5 21q-26 0 -53 -27.5t-52 -71t-43.5 -91.5t-27.5 -90z" />
<glyph unicode="c" horiz-adv-x="468" d="M402 133l19 -47q-42 -49 -96 -72.5t-110 -23.5q-76 0 -124 46.5t-48 138.5q0 64 23 123t64 106.5t96.5 75.5t120.5 28q36 0 68 -10t57 -27l-33 -99q-53 55 -111 55q-34 0 -63.5 -20t-51.5 -54t-34 -75t-12 -84q0 -56 23.5 -89.5t74.5 -33.5q36 0 71 17t66 45z" />
<glyph unicode="d" horiz-adv-x="549" d="M439 0h-119q0 34 4.5 76.5t16.5 107.5q-19 -49 -48.5 -93.5t-67.5 -72.5t-83 -28q-48 0 -76.5 38t-28.5 111q0 65 22.5 130t64.5 119t102 87t135 33q23 0 46 -4l23 105l8 139l128 10q0 -57 -13 -132t-32 -159t-37.5 -168.5t-31.5 -161.5t-13 -137zM160 170 q0 -37 11.5 -58t33.5 -21q24 0 50 26t49.5 67t42 86.5t28.5 84.5q3 12 6 25l9 42q-31 14 -54 14q-35 0 -66.5 -25.5t-56 -65.5t-39 -86.5t-14.5 -88.5z" />
<glyph unicode="e" horiz-adv-x="486" d="M400 133l18 -47q-38 -46 -92.5 -71t-109.5 -25q-75 0 -124 46.5t-49 138.5q0 61 22.5 120.5t62 107.5t92.5 76.5t115 28.5t100.5 -30t38.5 -83q0 -47 -33 -88t-101 -68t-172 -31q-1 -12 -1 -24q0 -50 24 -81.5t72 -31.5q35 0 70.5 17.5t66.5 44.5zM314 438 q-34 0 -62.5 -29t-48.5 -73t-29 -88q103 12 146 52t43 86q0 26 -13.5 39t-35.5 13z" />
<glyph unicode="f" horiz-adv-x="366" d="M-13 -235l-39 43q33 46 57 98.5t39 121.5l83 396l-72 4l10 44l76 15q4 22 7.5 44t6.5 36q19 91 81 141t155 50q37 0 69 -8.5t53 -22.5l-45 -91q-18 13 -42 23t-53 10q-41 0 -65 -25t-34 -70q-4 -20 -8.5 -45t-7.5 -42h128l7 -13l-15 -54l-131 4l-77 -363 q-15 -71 -37 -125t-57 -96t-89 -75z" />
<glyph unicode="g" horiz-adv-x="482" d="M139 -258q-94 0 -146 35.5t-52 86.5q0 40 31 68.5t75 46.5l26 -25q-10 -13 -16.5 -26.5t-6.5 -27.5q0 -42 29.5 -69.5t82.5 -27.5q51 0 84 23.5t33 54.5q0 26 -25 44.5t-65 37.5q-34 17 -60 34t-26 46q0 24 19 43t46 32.5t52 21.5v3q-12 -1 -21 0q-65 3 -104 42t-39 106 q0 65 34 113.5t87.5 76t114.5 27.5q54 0 89 0.5t61 3t53 8.5q11 -12 11 -31q0 -15 -10 -31.5t-40 -16.5q-21 0 -41.5 7.5t-40.5 13.5l-1 -2q29 -16 47 -43t18 -71q0 -54 -22.5 -92.5t-55.5 -65.5t-66 -46.5t-55.5 -34.5t-22.5 -30q0 -12 16.5 -22t38.5 -20 q32 -16 61.5 -34.5t48 -42.5t18.5 -57q0 -42 -33.5 -78.5t-92 -58.5t-134.5 -22zM326 363q0 37 -13 59.5t-40 22.5q-28 0 -52 -25.5t-38.5 -64t-14.5 -75.5q0 -39 15 -61.5t42 -22.5q30 0 53 26t35.5 64.5t12.5 76.5z" />
<glyph unicode="h" horiz-adv-x="568" d="M166 0h-119q0 36 5.5 82.5t18.5 117.5t37 180l49 229l8 139l128 10q0 -51 -10 -114t-25 -133.5t-32 -142.5h3q38 73 91 106.5t101 33.5q46 0 71 -26.5t25 -74.5q0 -13 -1.5 -26t-5.5 -35t-12.5 -61t-22.5 -105q-11 -52 -15 -92.5t-4 -87.5h-119q0 71 12 135.5t23 113.5 q10 47 14 70.5t4 38.5q0 49 -42 49q-37 0 -69 -34t-57 -92t-39.5 -131t-16.5 -150z" />
<glyph unicode="i" horiz-adv-x="275" d="M288 690q0 -26 -14.5 -49t-37.5 -37.5t-48 -14.5q-27 0 -42 15.5t-15 38.5q0 24 14.5 46.5t38 37t49.5 14.5t40.5 -14t14.5 -37zM166 0h-119q0 54 9.5 121t27.5 146l20 92l8 139l128 10q0 -53 -11 -116t-26 -130.5t-26 -134.5t-11 -127z" />
<glyph unicode="j" horiz-adv-x="258" d="M276 690q0 -26 -14.5 -49t-37.5 -37.5t-49 -14.5q-27 0 -41.5 15.5t-14.5 38.5q0 24 14.5 46.5t38 37t49.5 14.5q25 0 40 -14t15 -37zM-48 -258l-39 43q42 47 68 99t41 122l75 353l8 139l128 10q0 -64 -23 -175.5t-62 -293.5q-15 -71 -37.5 -125.5t-60 -96t-98.5 -75.5z " />
<glyph unicode="k" horiz-adv-x="537" d="M524 419q0 -41 -24.5 -79t-62.5 -68.5t-77 -51.5q24 -51 58 -110.5t72 -109.5h-149q-26 41 -51 94t-44 111q69 49 113.5 95.5t44.5 88.5q0 38 -35 38q-28 0 -56 -25t-53.5 -68t-46 -98t-33 -115.5t-14.5 -120.5h-119q0 36 5.5 82.5t18.5 117.5t37 180l49 229l8 139 l128 10q0 -52 -11 -120t-28 -144.5t-34 -153.5h2q40 84 95.5 126t111.5 42q47 0 71 -25.5t24 -63.5z" />
<glyph unicode="l" horiz-adv-x="273" d="M166 0h-119q0 36 5.5 82.5t18.5 117.5t37 180l49 229l8 139l128 10q0 -57 -13 -132t-32 -159t-37.5 -168.5t-31.5 -161.5t-13 -137z" />
<glyph unicode="m" horiz-adv-x="849" d="M227 368q38 73 89.5 106.5t99.5 33.5q55 0 79.5 -38t14.5 -102h2q37 73 89 106.5t100 33.5q59 0 83 -43t8 -115l-42 -199q-13 -59 -13 -151h-119q0 38 4.5 77t13.5 89t24 121q12 58 7 89t-38 31q-35 0 -66 -32t-56 -87t-39.5 -125.5t-15.5 -147.5v-2v0v-13h-120 q0 38 4.5 77t14 89t23.5 121q12 59 7 89.5t-38 30.5q-37 0 -69 -36t-55.5 -96t-37.5 -132t-15 -143h-119q0 39 5 85.5t17.5 111.5t34.5 162l8 139l128 10q0 -30 -4.5 -66t-10.5 -74h2z" />
<glyph unicode="n" horiz-adv-x="568" d="M166 0h-119q0 47 6.5 99t19 115t31.5 145l8 139l128 10q0 -30 -4.5 -66t-10.5 -74h2q39 74 92 107t102 33q46 0 71 -26.5t25 -69.5q0 -32 -10.5 -83t-23.5 -113q-11 -49 -16.5 -83.5t-8 -64.5t-2.5 -68h-119q0 54 7.5 103t21.5 120q10 50 16 81.5t6 51.5q0 24 -9.5 37.5 t-31.5 13.5q-35 0 -67 -33.5t-57 -91t-40 -130.5t-17 -152z" />
<glyph unicode="o" horiz-adv-x="538" d="M497 325q0 -62 -21.5 -122t-60 -108t-91 -76.5t-115.5 -28.5q-74 0 -120 44.5t-46 136.5q0 62 21.5 122t60.5 108.5t91.5 77.5t114.5 29q77 0 121.5 -46.5t44.5 -136.5zM167 162q0 -48 14.5 -74t48.5 -26t61 27.5t45 70t27.5 89.5t9.5 87q0 100 -63 100q-35 0 -61.5 -27 t-45 -69.5t-27.5 -89.5t-9 -88z" />
<glyph unicode="p" horiz-adv-x="547" d="M184 -10q-21 0 -44 2q-14 -67 -23 -129t-9 -111h-120q0 35 5.5 81t19 117t36.5 180l49 229l8 139l129 10q0 -37 -6 -83t-16 -97q20 46 48.5 87t65 67t77.5 26q49 0 78 -40.5t29 -115.5q0 -65 -22 -129t-64.5 -116.5t-103 -84.5t-137.5 -32zM343 407q-24 0 -48.5 -24 t-47.5 -62t-41.5 -82t-29.5 -83q-4 -20 -8.5 -40t-9.5 -41q31 -13 54 -13q35 0 66.5 25t56 65.5t39 86.5t14.5 89q0 37 -11.5 58t-33.5 21z" />
<glyph unicode="q" horiz-adv-x="546" d="M145 -10q-49 0 -78 40.5t-29 115.5q0 65 22 129t64.5 116.5t103 84.5t137.5 32q33 0 78 -7.5t81 -24.5l-96 -428q-22 -103 -32.5 -177.5t-10.5 -118.5h-119q0 60 16.5 155t45.5 230l7 32q-19 -42 -48.5 -83.5t-66 -68.5t-75.5 -27zM161 170q0 -37 11.5 -58t33.5 -21 q24 0 49.5 25.5t49 65.5t42 85t29.5 84l15 71q-30 14 -54 14q-35 0 -66.5 -25.5t-56 -65.5t-39 -86.5t-14.5 -88.5z" />
<glyph unicode="r" horiz-adv-x="403" d="M166 0h-119q0 54 9.5 121t27.5 146l20 92l8 139l128 10q0 -40 -7 -86t-17 -95h2q36 100 80 140.5t85 40.5q21 0 39.5 -9t27.5 -20l-59 -109q-14 6 -28 9t-26 3q-38 0 -68.5 -30.5t-52.5 -84t-35 -122.5t-15 -145z" />
<glyph unicode="s" horiz-adv-x="437" d="M417 482l-29 -92q-28 17 -60 27t-60 10q-38 0 -62 -18t-24 -45q0 -25 19 -41t47 -30t56.5 -30.5t47.5 -42t19 -65.5q0 -49 -30 -86t-80 -58t-111 -21q-39 0 -79.5 9t-67.5 27l28 91q33 -23 72.5 -34.5t67.5 -11.5q38 0 62 18.5t24 45.5q0 25 -19.5 41t-47.5 29.5t-56 30 t-47.5 41.5t-19.5 65q0 49 31 86.5t81.5 58.5t109.5 21q30 0 64 -6.5t64 -19.5z" />
<glyph unicode="t" horiz-adv-x="373" d="M378 433l-139 2q-20 -93 -32 -149t-18 -86t-8.5 -44.5t-2.5 -23.5q0 -30 15 -43t41 -13q20 0 41.5 7t41.5 18l-6 -76q-25 -14 -60 -24.5t-74 -10.5q-58 0 -89.5 28.5t-31.5 88.5q0 14 2.5 31t9 49t19 91.5t33.5 158.5l-69 1l9 45l76 15l55 123l77 6l12 -14l-28 -115h136 l7 -14z" />
<glyph unicode="u" horiz-adv-x="548" d="M53 148l45 211l8 139l128 10q0 -47 -8.5 -98t-19.5 -102t-19 -97q-10 -54 -7.5 -87t37.5 -33q32 0 59.5 28t49.5 76t37 109q8 40 14 75t9 66q2 27 2 53l125 10q-3 -49 -10.5 -95.5t-19.5 -105.5t-28 -143q-8 -38 -12.5 -77.5t-4.5 -86.5h-120q0 34 2.5 64t7.5 61h-1 q-37 -71 -86.5 -103t-96.5 -32q-58 0 -82 43.5t-9 114.5z" />
<glyph unicode="v" horiz-adv-x="468" d="M106 0q-2 144 -14 273t-32 225l127 10q17 -91 22.5 -200.5t-1.5 -219.5h2q39 66 72.5 138.5t56 143.5t29.5 132q15 4 26.5 5t20.5 1q26 0 42.5 -8t16.5 -33q0 -32 -18.5 -86.5t-51.5 -120.5t-75.5 -134t-89.5 -126h-133z" />
<glyph unicode="w" horiz-adv-x="754" d="M702 508q26 0 42 -8t16 -33q0 -32 -17.5 -86.5t-48.5 -120t-72 -133.5t-87 -127h-135q7 95 9 185.5t0 178.5h-2q-28 -92 -75.5 -187t-103.5 -177h-134q0 151 -10 280t-24 218l127 9q12 -85 15 -194.5t-5 -226.5h2q39 66 70.5 137.5t53 142t27.5 132.5h145 q11 -80 13.5 -188t-5.5 -224h2q38 66 69.5 139t52.5 144t27 133q15 4 27 5t21 1z" />
<glyph unicode="x" horiz-adv-x="469" d="M-11 0q17 67 64.5 138t122.5 126q-19 60 -45 120t-67 114l123 10q29 -39 49.5 -88t38.5 -104q34 34 59.5 81t31.5 97q21 14 52 14q21 0 39 -8.5t18 -31.5q0 -26 -23 -65t-62.5 -82t-90.5 -80q20 -60 43 -121.5t56 -119.5h-125q-23 41 -40 89t-33 100q-33 -32 -60.5 -84.5 t-37.5 -104.5h-113z" />
<glyph unicode="y" horiz-adv-x="468" d="M415 508q26 0 42.5 -8t16.5 -32q0 -33 -19 -87.5t-53 -122.5t-78 -139.5t-94.5 -138.5t-103 -121t-102.5 -85.5t-94 -31.5q-31 0 -49 18t-18 48q0 16 4 27.5t10 20.5q15 -3 30.5 -5t29.5 -2q42 0 85 21.5t80 56t61 73.5h-57q-2 144 -14 273t-32 225l127 10 q17 -95 22.5 -202.5t-1.5 -217.5h2q39 66 72.5 138.5t56 143.5t29.5 132q15 4 26.5 5t20.5 1z" />
<glyph unicode="z" horiz-adv-x="449" d="M26 -10l-39 58q100 104 179 188t141 157q-35 11 -63.5 15.5t-48.5 4.5q-34 0 -64 -13.5t-53 -43.5l-35 21q20 53 43.5 81t51 39t60.5 11q39 0 79.5 -12.5t84.5 -35.5q20 24 37 48q16 0 32 -8.5t16 -31.5q0 -37 -81 -132.5t-233 -236.5q10 2 25 2q31 0 59 -7.5t53 -7.5 q63 0 105 65l41 -24q-19 -55 -42.5 -84.5t-51.5 -41t-64 -11.5q-51 0 -91.5 13t-73.5 13q-17 0 -32.5 -5.5t-34.5 -20.5z" />
<glyph unicode="{" horiz-adv-x="391" d="M149 166q0 32 -19.5 52.5t-63.5 26.5l18 81q59 6 95 47.5t36 129.5q0 14 -0.5 32.5t-0.5 32.5q0 78 30 119t85 56t131 15l-13 -70q-61 0 -91 -33.5t-30 -112.5q0 -7 0.5 -24t0.5 -28q0 -67 -21.5 -109.5t-55 -66t-71.5 -30.5q41 -13 64 -39.5t23 -67.5q0 -31 -11.5 -62.5 t-26.5 -62t-26 -59.5t-11 -57q0 -64 83 -64l-18 -70q-95 0 -142 23t-47 82q0 35 12.5 68.5t29 66t28.5 64t12 60.5z" />
<glyph unicode="|" horiz-adv-x="301" d="M18 -258l-6 8l213 1005l59 3l6 -8l-214 -1005z" />
<glyph unicode="}" horiz-adv-x="391" d="M255 394q0 -32 19.5 -52.5t63.5 -26.5l-17 -81q-59 -6 -95.5 -47.5t-36.5 -129.5q0 -14 1 -32.5t1 -32.5q0 -78 -30.5 -119t-85.5 -56t-130 -15l12 70q62 0 91.5 33.5t29.5 112.5q0 7 -0.5 24t-0.5 28q0 67 21.5 109.5t55.5 66t72 30.5q-41 13 -64.5 39.5t-23.5 67.5 q0 31 11.5 62.5t26.5 62t26.5 59.5t11.5 57q0 64 -84 64l18 70q95 0 142.5 -23t47.5 -82q0 -35 -12.5 -68.5t-29 -66t-29 -64t-12.5 -60.5z" />
<glyph unicode="~" d="M419 219q-14 0 -40.5 6t-58.5 15t-63 18t-54.5 15.5t-32.5 6.5q-11 0 -33 -21.5t-49 -49.5l-35 27q18 24 41.5 50.5t48 45.5t46.5 19q14 0 40.5 -6t58.5 -15t63 -18t54.5 -15.5t32.5 -6.5q11 0 33 21.5t50 49.5l34 -27q-18 -24 -41 -50.5t-47.5 -45.5t-47.5 -19z" />
<glyph unicode="&#xa1;" horiz-adv-x="310" d="M124 413q0 24 13 45.5t34.5 35t44.5 13.5q25 0 38.5 -14.5t13.5 -35.5q0 -23 -13.5 -44t-34.5 -34t-45 -13t-37.5 12.5t-13.5 34.5zM125 284h75q-18 -108 -32.5 -202.5t-25 -164.5t-16.5 -107l-116 -10l-11 13q27 115 58.5 234t67.5 237z" />
<glyph unicode="&#xa2;" horiz-adv-x="472" d="M171 -140l-6 8l26 124q-67 7 -105.5 55.5t-38.5 136.5q0 67 21.5 128t60 110.5t89.5 81t110 39.5l29 134l45 3l7 -8l-28 -128q33 -3 59 -13t43 -25l-35 -106q-22 27 -48 42.5t-56 15.5q-48 0 -87 -36t-62.5 -93.5t-23.5 -123.5q0 -131 96 -131q38 0 73 19t63 40l21 -47 q-35 -39 -81.5 -64.5t-98.5 -30.5l-27 -128z" />
<glyph unicode="&#xa3;" horiz-adv-x="569" d="M494 -156q-12 -5 -31.5 -7t-35.5 -2q-51 0 -97 17t-86.5 43t-76 55t-67.5 52q-28 -12 -59 -12q-33 0 -49.5 12.5t-14.5 33.5q1 22 18.5 34.5t43.5 12.5q14 0 28.5 -3.5t29.5 -10.5q17 32 28 75t23 97l8 46l-112 3l13 46l110 14v0q20 101 52 179.5t86 123t138 44.5 q47 0 83 -12t56 -29l-48 -95q-22 21 -47.5 34t-52.5 13q-37 0 -63.5 -25t-47 -81.5t-40.5 -151.5h179l6 -12l-20 -51h-180l-5 -20q-17 -64 -43.5 -125t-65.5 -101q39 -22 83.5 -46t95.5 -41.5t109 -17.5q20 0 44.5 3t47.5 10z" />
<glyph unicode="&#xa4;" horiz-adv-x="565" d="M422 38l-60 79q-28 -17 -60 -27t-66 -10q-30 0 -54.5 8t-42.5 21l-86 -70l-36 46l84 70q-16 31 -16 71q0 45 19 86t51 74l-55 72l51 43q13 -14 30 -35.5t30 -37.5q26 15 55.5 23.5t60.5 8.5q32 0 58 -9.5t45 -25.5l91 76l37 -46l-94 -78q12 -29 12 -64q0 -41 -16 -79.5 t-43 -69.5q11 -14 24.5 -31.5t24.5 -31.5t13 -18l-1 -8zM309 395q-40 0 -74.5 -21.5t-55 -56t-20.5 -75.5q0 -39 23.5 -68t72.5 -29q42 0 75.5 21t53 55.5t19.5 74.5q0 44 -24.5 71.5t-69.5 27.5z" />
<glyph unicode="&#xa5;" horiz-adv-x="552" d="M36 110l11 49h151l18 83h-152l11 48h151l-119 395l128 13l49 -182q7 -29 14.5 -68.5t13.5 -77.5h1q23 39 46.5 75.5t42.5 65.5l130 187l92 -8l5 -13l-284 -387h150l-10 -48h-152l-17 -83h151l-10 -49h-151l-24 -110h-118l24 110h-152z" />
<glyph unicode="&#xa6;" horiz-adv-x="301" d="M207 361l-54 -3l-10 7l82 390l59 3l6 -8zM76 -255l-54 -3l-10 8l82 387l59 3l6 -7z" />
<glyph unicode="&#xa7;" horiz-adv-x="561" d="M425 590q-44 0 -72.5 -27t-28.5 -68q0 -31 15.5 -64t38.5 -68.5t46 -74.5t38 -82.5t15 -92.5q0 -60 -25 -111.5t-71 -90t-107.5 -60.5t-133.5 -22q-42 0 -80 7t-60 18l41 117q22 -17 47.5 -25.5t49.5 -8.5q46 0 76.5 27.5t30.5 70.5q0 30 -16 62.5t-39 67.5t-46 74 t-38.5 82.5t-15.5 93.5q0 59 25.5 110.5t71 90.5t106 60.5t131.5 21.5q39 0 77 -6.5t61 -17.5l-40 -118q-22 17 -48.5 25.5t-48.5 8.5zM201 -104q65 8 111.5 37.5t71 72.5t24.5 93q0 42 -15.5 81t-39 76t-46.5 73t-38.5 72.5t-15.5 74.5q0 51 31.5 94t84.5 53l-3 8 q-64 -7 -110.5 -36.5t-71 -72.5t-24.5 -93q0 -43 15.5 -82t38.5 -76t46 -73t39 -72.5t16 -75.5q0 -50 -31.5 -92.5t-84.5 -53.5z" />
<glyph unicode="&#xa8;" horiz-adv-x="450" d="M277 688q0 -24 -13.5 -46t-34.5 -36t-45 -14q-25 0 -38 14.5t-13 35.5q0 24 14 45.5t35.5 35t45.5 13.5q23 0 36 -13t13 -35zM494 688q0 -24 -13.5 -46t-34.5 -36t-45 -14q-25 0 -38.5 14.5t-13.5 35.5q0 24 14.5 45.5t36 35t45.5 13.5q23 0 36 -13t13 -35z" />
<glyph unicode="&#xa9;" horiz-adv-x="685" d="M279 -44q-71 0 -124.5 29.5t-83 81t-29.5 118.5q0 69 29.5 133t81 115t117 81t136.5 30t124.5 -30t83.5 -82.5t30 -118.5q0 -68 -30 -132t-81.5 -114.5t-117 -80.5t-136.5 -30zM288 0q60 0 115.5 25t99.5 68t70 97t26 112q0 56 -26 101t-71.5 71t-105.5 26t-115.5 -25.5 t-99.5 -69t-69 -98t-25 -113.5q0 -56 25 -100t70.5 -69t105.5 -25zM476 391l-25 -70q-15 15 -33 23.5t-37 8.5q-27 0 -49.5 -16.5t-35 -44.5t-12.5 -61q0 -36 16.5 -57t47.5 -21q23 0 44.5 12t36.5 24l15 -38q-23 -27 -58.5 -42.5t-73.5 -15.5q-55 0 -86.5 32t-31.5 90 q0 56 27 101t72.5 72t98.5 27q52 0 84 -24z" />
<glyph unicode="&#xaa;" horiz-adv-x="457" d="M85 407q0 50 18 99.5t53 90.5t84.5 65.5t113.5 24.5q28 0 65.5 -5.5t67.5 -18.5l-32 -140q-20 -90 -28 -144t-7 -92h-100q-1 29 2 59.5t12 78.5q-15 -33 -39.5 -66t-55 -54.5t-64.5 -21.5q-40 0 -65 32t-25 92zM188 426q0 -29 10 -46t28 -17q20 0 40.5 19.5t39.5 50 t34 65.5t23 67q5 24 12 53q-23 11 -43 11q-29 0 -55 -18.5t-46 -49t-31.5 -66t-11.5 -69.5z" />
<glyph unicode="&#xab;" horiz-adv-x="484" d="M54 277l7 32q53 38 104.5 85t106.5 104l28 -13q-29 -53 -66 -101.5t-77 -90.5q22 -42 38.5 -90t23.5 -102l-34 -13q-31 55 -62.5 103t-68.5 86zM248 277l7 32q52 38 103.5 85t106.5 104l29 -13q-30 -53 -66.5 -101.5t-76.5 -90.5q22 -42 38 -90t23 -102l-34 -13 q-30 55 -62 103t-68 86z" />
<glyph unicode="&#xac;" horiz-adv-x="577" d="M525 324l-50 -234h-68l37 174h-381l13 63q30 1 74.5 2t95.5 1.5l102 1t95.5 0.5h75.5z" />
<glyph unicode="&#xae;" horiz-adv-x="686" d="M278 -44q-70 0 -123.5 29.5t-83 81.5t-29.5 119q0 68 30 132t81.5 115t117 81t136.5 30q72 0 125 -30.5t82.5 -83t29.5 -118.5q0 -67 -30 -130.5t-81.5 -114.5t-117 -81t-137.5 -30zM288 0q61 0 117 25.5t99.5 68.5t69 97t25.5 111q0 56 -25.5 101t-71.5 71t-106 26 t-115.5 -25.5t-99 -69t-69 -98t-25.5 -112.5q0 -57 25.5 -101t71 -69t104.5 -25zM272 92h-69l46 218q5 26 9.5 50t5.5 61h123q52 0 80 -23t28 -66q0 -39 -25.5 -72t-66.5 -46l44 -122l-74 -5q-8 23 -16 52.5t-16 55.5h-47zM370 365h-40l-24 -114h39q35 0 55.5 19.5 t20.5 48.5q0 46 -51 46z" />
<glyph unicode="&#xaf;" horiz-adv-x="373" d="M129 630l14 69h283l-14 -69h-283z" />
<glyph unicode="&#xb0;" horiz-adv-x="340" d="M175 302q-42 0 -68 24.5t-26 67.5q0 40 21.5 75t57.5 57t79 22t69 -24.5t26 -67.5q0 -40 -22.5 -75t-58.5 -57t-78 -22zM226 504q-26 0 -48 -14t-35 -36.5t-13 -47.5q0 -28 16 -44.5t43 -16.5q25 0 47 14t35.5 37t13.5 49q0 28 -16.5 43.5t-42.5 15.5z" />
<glyph unicode="&#xb1;" horiz-adv-x="598" d="M533 365h-168l-32 -152h-67l31 152h-176l13 64q31 1 78 1.5t99 1.5l31 151h69l-32 -150q50 0 94.5 0.5t74.5 0.5l5 -7zM500 42h-450l13 64q31 1 76 1.5t97 1l104 1t98 1t77 0.5l5 -7z" />
<glyph unicode="&#xb2;" horiz-adv-x="376" d="M123 352l3 61q42 24 84.5 51.5t78 57.5t57.5 61.5t22 64.5q0 25 -16 40t-46 15q-54 0 -118 -43l6 68q28 16 69 27t80 11q56 0 90.5 -26.5t34.5 -72.5q0 -38 -22.5 -73.5t-59 -67t-81 -58.5t-89.5 -49h95q54 0 106 6l-22 -73h-272z" />
<glyph unicode="&#xb3;" horiz-adv-x="371" d="M202 734q24 12 63.5 22t76.5 10q50 0 81.5 -21t31.5 -55q0 -26 -17 -50.5t-46 -43t-63 -27.5q48 -5 76 -27.5t28 -58.5q0 -39 -28 -70.5t-75.5 -50t-106.5 -18.5q-27 0 -56.5 3.5t-50.5 10.5l21 58q15 -6 40 -10t46 -4q47 0 80 19.5t33 49.5q0 27 -26 37.5t-61 10.5 q-14 0 -29 -1t-30 -3l12 58q69 8 111 33.5t42 58.5q0 17 -13.5 27.5t-40.5 10.5q-24 0 -53.5 -8t-53.5 -20z" />
<glyph unicode="&#xb4;" horiz-adv-x="259" d="M327 753l3 -20q-42 -49 -90 -88.5t-103 -73.5l-42 11q35 44 68.5 90.5t58.5 91.5z" />
<glyph unicode="&#xb6;" horiz-adv-x="603" d="M162 -102q76 0 130 48.5t78 160.5l101 474l13 61h-71l-91 -423h-25q-32 0 -68 8.5t-68 29t-52 56.5t-20 91q0 58 24.5 109.5t68 91t101.5 61.5t126 22h165l-22 -107l-103 -485q-18 -82 -59.5 -142t-102.5 -92t-137 -32q-36 0 -71.5 7t-63.5 19l21 71q33 -14 63.5 -21.5 t62.5 -7.5z" />
<glyph unicode="&#xb7;" horiz-adv-x="311" d="M242 300q0 -26 -14.5 -49t-38 -37.5t-49.5 -14.5q-28 0 -43.5 15.5t-15.5 38.5q0 25 15 48t39.5 37.5t50.5 14.5q25 0 40.5 -14.5t15.5 -38.5z" />
<glyph unicode="&#xb8;" horiz-adv-x="303" d="M165 -121q0 -35 -27.5 -61t-75 -40.5t-107.5 -16.5l10 43q50 7 80 23t30 40q0 15 -17 22.5t-46 8.5l-9 22l54 105l65 -1l-42 -79q34 -4 59.5 -19t25.5 -47z" />
<glyph unicode="&#xb9;" horiz-adv-x="272" d="M249 679h-1l-69 -10l-2 52l172 45l8 -10l-86 -404h-92l52 244q5 24 9 43.5t9 39.5z" />
<glyph unicode="&#xba;" horiz-adv-x="440" d="M460 540q0 -49 -17.5 -94.5t-49 -82.5t-75 -58.5t-95.5 -21.5q-63 0 -102 36.5t-39 109.5q0 49 18 95t50 83t75.5 58.5t93.5 21.5q66 0 103.5 -38t37.5 -109zM185 423q0 -80 54 -80q29 0 50.5 20.5t36.5 53t22.5 68t7.5 65.5q0 78 -54 78q-28 0 -50 -20.5t-37 -52.5 t-22.5 -67.5t-7.5 -64.5z" />
<glyph unicode="&#xbb;" horiz-adv-x="484" d="M448 309l-7 -32q-52 -38 -103.5 -85t-106.5 -104l-29 13q29 53 66 101.5t77 90.5q-22 42 -38.5 90t-23.5 102l35 13q30 -55 61.5 -103t68.5 -86zM254 309l-7 -32q-52 -38 -103.5 -85t-106.5 -104l-28 13q29 53 66 101.5t76 90.5q-21 42 -37.5 90t-23.5 102l34 13 q30 -55 62 -103t68 -86z" />
<glyph unicode="&#xbc;" horiz-adv-x="846" d="M266 619h-1l-69 -10l-2 52l172 45l8 -10l-86 -404h-92l52 244q5 24 9 43.5t9 39.5zM770 700l-576 -710h-56l575 710h57zM467 142l222 256l103 6l8 -9l-52 -245q31 1 60 5l-21 -68h-53l-20 -97h-88l21 97h-181zM544 149v-1q20 0 46 0.5t70 0.5v0l17 80q7 31 13 56.5 t14 53.5h-1z" />
<glyph unicode="&#xbd;" horiz-adv-x="889" d="M266 619h-1l-69 -10l-2 52l172 45l8 -10l-86 -404h-92l52 244q5 24 9 43.5t9 39.5zM776 700l-576 -710h-56l575 710h57zM529 -10l3 61q41 24 84 51.5t78.5 57.5t57 61.5t21.5 64.5q0 25 -16 40t-45 15q-54 0 -119 -43l6 68q29 16 69.5 27t79.5 11q57 0 91.5 -26.5 t34.5 -72.5q0 -38 -22.5 -73.5t-59.5 -67t-81.5 -58.5t-88.5 -49h95q53 0 105 6l-22 -73h-271z" />
<glyph unicode="&#xbe;" horiz-adv-x="974" d="M219 672q24 12 63.5 22t76.5 10q50 0 81.5 -21t31.5 -55q0 -26 -17 -50.5t-46 -43t-63 -27.5q48 -5 76 -27.5t28 -58.5q0 -39 -28 -70.5t-75.5 -50t-106.5 -18.5q-27 0 -56.5 3.5t-50.5 10.5l21 58q15 -6 40 -10t46 -4q47 0 80 19.5t33 49.5q0 27 -26 37.5t-61 10.5 q-14 0 -29 -1t-30 -3l12 58q69 8 111 33.5t42 58.5q0 17 -13.5 27.5t-40.5 10.5q-24 0 -53.5 -8t-53.5 -20zM881 700l-576 -710h-56l575 710h57zM593 142l223 256l102 6l8 -9l-52 -245q32 1 61 5l-22 -68h-52l-21 -97h-87l21 97h-182zM671 149v-1q19 0 45 0.5t70 0.5h1 l17 80q7 31 12.5 56.5t14.5 53.5h-2z" />
<glyph unicode="&#xbf;" horiz-adv-x="481" d="M248 413q0 24 13 45.5t34.5 35t44.5 13.5q25 0 38.5 -14.5t13.5 -35.5q0 -22 -13.5 -43t-35 -34.5t-44.5 -13.5q-24 0 -37.5 13t-13.5 34zM257 280l70 2q2 -9 2.5 -19.5t-0.5 -20.5q-1 -35 -24 -61.5t-55 -50.5l-64 -48t-54 -53.5t-22 -68.5q0 -32 22 -51.5t61 -19.5 q36 0 81.5 19t82.5 58l33 -64q-44 -44 -105.5 -73t-133.5 -29q-81 0 -125.5 36t-44.5 93q0 53 25 93.5t62 71.5t75 55t65.5 45t32.5 42q1 7 3 17.5t3 18.5z" />
<glyph unicode="&#xc0;" horiz-adv-x="646" d="M559 774q-69 5 -132.5 21.5t-117.5 48.5l-2 20l87 65q39 -34 85.5 -65.5t95.5 -58.5zM89 0h-117l313 585q33 62 52 106l141 6l16 -16l74 -681h-124l-18 170h-246zM282 362l-55 -103h189l-11 103q-6 69 -9.5 125t-2.5 96h-3q-18 -40 -47 -99.5t-61 -121.5z" />
<glyph unicode="&#xc1;" horiz-adv-x="646" d="M588 864l-10 -20q-68 -32 -137.5 -48.5t-142.5 -21.5l-3 31q61 28 121 58.5t112 65.5zM89 0h-117l313 585q33 62 52 106l141 6l16 -16l74 -681h-124l-18 170h-246zM282 362l-55 -103h189l-11 103q-6 69 -9.5 125t-2.5 96h-3q-18 -40 -47 -99.5t-61 -121.5z" />
<glyph unicode="&#xc2;" horiz-adv-x="646" d="M304 771l-26 28q43 33 76.5 61.5t66.5 58.5l87 8q20 -31 44 -64t52 -64l-39 -28q-32 17 -61 36.5t-56 39.5q-34 -20 -70.5 -39.5t-73.5 -36.5zM89 0h-117l313 585q33 62 52 106l141 6l16 -16l74 -681h-124l-18 170h-246zM282 362l-55 -103h189l-11 103q-6 69 -9.5 125 t-2.5 96h-3q-18 -40 -47 -99.5t-61 -121.5z" />
<glyph unicode="&#xc3;" horiz-adv-x="646" d="M385 920q23 0 40.5 -8.5t32.5 -19.5t30.5 -20t33.5 -9q23 0 39.5 14t33.5 36l31 -6q-8 -30 -25.5 -59t-43 -47.5t-57.5 -18.5q-29 0 -52 14t-44.5 28t-44.5 14q-19 0 -36.5 -13t-35.5 -36l-31 6q8 28 24.5 57t43 48.5t61.5 19.5zM89 0h-117l313 585q33 62 52 106l141 6 l16 -16l74 -681h-124l-18 170h-246zM282 362l-55 -103h189l-11 103q-6 69 -9.5 125t-2.5 96h-3q-18 -40 -47 -99.5t-61 -121.5z" />
<glyph unicode="&#xc4;" horiz-adv-x="646" d="M621 868q0 -22 -13 -41t-33.5 -31t-44.5 -12t-37 13t-13 32q0 21 13 40t34 31t44 12t36.5 -12t13.5 -32zM402 868q0 -22 -13 -41t-33.5 -31t-43.5 -12q-25 0 -38 13t-13 32q0 21 13 40t34 31t44 12t36.5 -12t13.5 -32zM89 0h-117l313 585q33 62 52 106l141 6l16 -16 l74 -681h-124l-18 170h-246zM282 362l-55 -103h189l-11 103q-6 69 -9.5 125t-2.5 96h-3q-18 -40 -47 -99.5t-61 -121.5z" />
<glyph unicode="&#xc5;" horiz-adv-x="646" d="M550 878q0 -31 -19.5 -59t-50.5 -46t-66 -18q-37 0 -59.5 20t-22.5 51q0 30 20 57.5t52 45t68 17.5t57 -18.5t21 -49.5zM388 836q0 -16 10.5 -26.5t28.5 -10.5q26 0 46.5 21t20.5 48q0 15 -9.5 25t-26.5 10q-27 0 -48.5 -21t-21.5 -46zM89 0h-117l313 585q33 62 52 106 l141 6l16 -16l74 -681h-124l-18 170h-246zM282 362l-55 -103h189l-11 103q-6 69 -9.5 125t-2.5 96h-3q-18 -40 -47 -99.5t-61 -121.5z" />
<glyph unicode="&#xc6;" horiz-adv-x="893" d="M89 0h-117l406 585q13 20 22.5 34.5t19.5 30t25 38.5h422l10 -14l-20 -82l-265 6l-23 -217l226 4l-22 -89l-213 4l-22 -211l281 7l-20 -96h-395l22 170h-220zM339 362l-71 -103h169l13 103q10 69 18.5 124.5t15.5 96.5h-3q-24 -41 -62 -100t-80 -121z" />
<glyph unicode="&#xc7;" horiz-adv-x="583" d="M395 -121q0 -35 -27.5 -61t-75 -40.5t-107.5 -16.5l10 43q50 7 80 23t30 40q0 15 -17 22.5t-46 8.5l-9 22l37 72q-96 11 -147.5 75t-51.5 177q0 86 28.5 167t79.5 145.5t122 103t155 38.5q43 0 89 -10.5t77 -31.5l-47 -106q-28 22 -66 34t-73 12q-57 0 -100.5 -30 t-73.5 -78.5t-45.5 -106t-15.5 -112.5q0 -85 37 -131.5t111 -46.5q41 0 85.5 13.5t79.5 33.5l-7 -100q-39 -21 -84 -33t-89 -14l-24 -46q34 -4 59.5 -19t25.5 -47z" />
<glyph unicode="&#xc8;" horiz-adv-x="560" d="M545 774q-69 5 -132 21.5t-117 48.5l-2 20l87 65q38 -34 84.5 -65.5t96.5 -58.5zM485 96l-20 -96h-415l111 523q10 44 17 83.5t9 81.5h403l11 -14l-20 -82l-281 7l-46 -218l237 4l-22 -89l-232 5l-45 -212z" />
<glyph unicode="&#xc9;" horiz-adv-x="560" d="M574 864l-10 -20q-67 -32 -137 -48.5t-143 -21.5l-3 31q62 28 121.5 58.5t111.5 65.5zM485 96l-20 -96h-415l111 523q10 44 17 83.5t9 81.5h403l11 -14l-20 -82l-281 7l-46 -218l237 4l-22 -89l-232 5l-45 -212z" />
<glyph unicode="&#xca;" horiz-adv-x="560" d="M290 771l-26 28q43 33 77 61.5t67 58.5l86 8q20 -31 44.5 -64t51.5 -64l-38 -28q-32 17 -61.5 36.5t-55.5 39.5q-35 -20 -71.5 -39.5t-73.5 -36.5zM485 96l-20 -96h-415l111 523q10 44 17 83.5t9 81.5h403l11 -14l-20 -82l-281 7l-46 -218l237 4l-22 -89l-232 5l-45 -212 z" />
<glyph unicode="&#xcb;" horiz-adv-x="560" d="M607 868q0 -22 -13 -41t-33.5 -31t-43.5 -12q-25 0 -38 13t-13 32q0 21 13 40t34 31t45 12q22 0 35.5 -12t13.5 -32zM388 868q0 -22 -12.5 -41t-33.5 -31t-44 -12q-24 0 -37.5 13t-13.5 32q0 21 13.5 40t34.5 31t44 12q22 0 35.5 -12t13.5 -32zM485 96l-20 -96h-415 l111 523q10 44 17 83.5t9 81.5h403l11 -14l-20 -82l-281 7l-46 -218l237 4l-22 -89l-232 5l-45 -212z" />
<glyph unicode="&#xcc;" horiz-adv-x="320" d="M408 774q-69 5 -132 21.5t-117 48.5l-2 20l87 65q38 -34 84.5 -65.5t96.5 -58.5zM173 0h-123l110 518q10 48 17 90t10 80l121 10l10 -14z" />
<glyph unicode="&#xcd;" horiz-adv-x="320" d="M438 864l-11 -20q-67 -32 -137 -48.5t-143 -21.5l-3 31q62 28 121.5 58.5t111.5 65.5zM173 0h-123l110 518q10 48 17 90t10 80l121 10l10 -14z" />
<glyph unicode="&#xce;" horiz-adv-x="320" d="M153 771l-26 28q43 33 77 61.5t67 58.5l86 8q20 -31 44.5 -64t51.5 -64l-38 -28q-32 17 -61.5 36.5t-55.5 39.5q-35 -20 -71.5 -39.5t-73.5 -36.5zM173 0h-123l110 518q10 48 17 90t10 80l121 10l10 -14z" />
<glyph unicode="&#xcf;" horiz-adv-x="320" d="M470 868q0 -22 -12.5 -41t-33.5 -31t-44 -12q-25 0 -38 13t-13 32q0 21 13 40t34 31t45 12q22 0 35.5 -12t13.5 -32zM251 868q0 -22 -12.5 -41t-33.5 -31t-44 -12q-24 0 -37.5 13t-13.5 32q0 21 13.5 40t34.5 31t44 12q22 0 35.5 -12t13.5 -32zM173 0h-123l110 518 q10 48 17 90t10 80l121 10l10 -14z" />
<glyph unicode="&#xd0;" horiz-adv-x="709" d="M676 430q0 -83 -28.5 -160t-84 -138t-135.5 -96.5t-183 -35.5h-195l66 312h-63l13 64h64l31 147q11 50 17.5 88t8.5 77h216q130 0 201.5 -63t71.5 -195zM428 312h-189l-47 -223h80q70 0 122 29t86 77t50.5 106t16.5 116q0 74 -24.5 113.5t-64.5 54t-87 14.5h-71l-47 -223 h188z" />
<glyph unicode="&#xd1;" horiz-adv-x="730" d="M428 920q24 0 41.5 -8.5t32.5 -19.5t30 -20t34 -9q23 0 39.5 14t33.5 36l31 -6q-8 -30 -25.5 -59t-43 -47.5t-57.5 -18.5q-30 0 -53 14t-44 28t-44 14q-20 0 -37.5 -13t-34.5 -36l-31 6q7 28 24 57t43 48.5t61 19.5zM421 416q28 -73 49 -133.5t36 -128.5h2q4 31 8 58 t10 61t16 84.5t27 128.5q24 112 34 202l114 9l11 -14l-145 -683h-119q-30 76 -56 145.5t-51 132.5q-29 73 -49.5 130.5t-36.5 120.5h-2q-7 -64 -16.5 -118.5t-21.5 -107.5l-64 -303h-117l111 523q9 44 16 85.5t10 79.5l127 8q30 -79 56 -147.5t51 -132.5z" />
<glyph unicode="&#xd2;" horiz-adv-x="698" d="M592 774q-69 5 -132 21.5t-117 48.5l-2 20l87 65q38 -34 84.5 -65.5t96.5 -58.5zM667 442q0 -84 -27.5 -164.5t-77 -145.5t-118.5 -103.5t-151 -38.5q-103 0 -162.5 65t-59.5 188q0 84 27.5 165t77.5 146.5t118 104.5t150 39q104 0 163.5 -66.5t59.5 -189.5zM198 246 q0 -76 28.5 -119.5t87.5 -43.5q53 0 95 33t71 87t44.5 117t15.5 122q0 76 -27.5 119.5t-86.5 43.5q-53 0 -95.5 -33.5t-72 -87.5t-45 -117t-15.5 -121z" />
<glyph unicode="&#xd3;" horiz-adv-x="698" d="M621 864l-10 -20q-68 -32 -137.5 -48.5t-142.5 -21.5l-3 31q61 28 121 58.5t112 65.5zM667 442q0 -84 -27.5 -164.5t-77 -145.5t-118.5 -103.5t-151 -38.5q-103 0 -162.5 65t-59.5 188q0 84 27.5 165t77.5 146.5t118 104.5t150 39q104 0 163.5 -66.5t59.5 -189.5z M198 246q0 -76 28.5 -119.5t87.5 -43.5q53 0 95 33t71 87t44.5 117t15.5 122q0 76 -27.5 119.5t-86.5 43.5q-53 0 -95.5 -33.5t-72 -87.5t-45 -117t-15.5 -121z" />
<glyph unicode="&#xd4;" horiz-adv-x="698" d="M337 771l-26 28q43 33 77 61.5t67 58.5l86 8q20 -31 44.5 -64t51.5 -64l-38 -28q-32 17 -61.5 36.5t-55.5 39.5q-35 -20 -71.5 -39.5t-73.5 -36.5zM667 442q0 -84 -27.5 -164.5t-77 -145.5t-118.5 -103.5t-151 -38.5q-103 0 -162.5 65t-59.5 188q0 84 27.5 165 t77.5 146.5t118 104.5t150 39q104 0 163.5 -66.5t59.5 -189.5zM198 246q0 -76 28.5 -119.5t87.5 -43.5q53 0 95 33t71 87t44.5 117t15.5 122q0 76 -27.5 119.5t-86.5 43.5q-53 0 -95.5 -33.5t-72 -87.5t-45 -117t-15.5 -121z" />
<glyph unicode="&#xd5;" horiz-adv-x="698" d="M418 920q24 0 41.5 -8.5t32.5 -19.5t30 -20t34 -9q22 0 39 14t34 36l30 -6q-8 -30 -25 -59t-42.5 -47.5t-57.5 -18.5q-30 0 -53 14t-44.5 28t-44.5 14q-19 0 -36.5 -13t-35.5 -36l-30 6q7 28 24 57t43 48.5t61 19.5zM667 442q0 -84 -27.5 -164.5t-77 -145.5 t-118.5 -103.5t-151 -38.5q-103 0 -162.5 65t-59.5 188q0 84 27.5 165t77.5 146.5t118 104.5t150 39q104 0 163.5 -66.5t59.5 -189.5zM198 246q0 -76 28.5 -119.5t87.5 -43.5q53 0 95 33t71 87t44.5 117t15.5 122q0 76 -27.5 119.5t-86.5 43.5q-53 0 -95.5 -33.5t-72 -87.5 t-45 -117t-15.5 -121z" />
<glyph unicode="&#xd6;" horiz-adv-x="698" d="M654 868q0 -22 -13 -41t-33.5 -31t-43.5 -12q-25 0 -38 13t-13 32q0 21 13 40t34 31t45 12q22 0 35.5 -12t13.5 -32zM435 868q0 -22 -13 -41t-33.5 -31t-43.5 -12q-25 0 -38 13t-13 32q0 21 13 40t34 31t45 12q22 0 35.5 -12t13.5 -32zM667 442q0 -84 -27.5 -164.5 t-77 -145.5t-118.5 -103.5t-151 -38.5q-103 0 -162.5 65t-59.5 188q0 84 27.5 165t77.5 146.5t118 104.5t150 39q104 0 163.5 -66.5t59.5 -189.5zM198 246q0 -76 28.5 -119.5t87.5 -43.5q53 0 95 33t71 87t44.5 117t15.5 122q0 76 -27.5 119.5t-86.5 43.5q-53 0 -95.5 -33.5 t-72 -87.5t-45 -117t-15.5 -121z" />
<glyph unicode="&#xd7;" d="M432 142l-123 158l-193 -159l-36 47l192 159l-123 160l55 45q31 -38 59.5 -74.5t65.5 -83.5l191 158l37 -47l-192 -158q25 -33 55.5 -72t68.5 -87l-3 -9z" />
<glyph unicode="&#xd8;" horiz-adv-x="698" d="M667 442q0 -84 -27.5 -164.5t-77 -145.5t-118.5 -103.5t-151 -38.5q-120 0 -178 84l-90 -82l-38 41l102 94q-18 51 -18 116q0 84 27.5 165t77.5 146.5t118 104.5t150 39q116 0 175 -81l86 80l40 -40l-99 -91q21 -54 21 -124zM198 246v-17l329 303q-13 35 -38 54t-63 19 q-53 0 -95.5 -33.5t-72 -87.5t-45 -117t-15.5 -121zM540 442q0 13 -1 24l-330 -304q13 -38 38.5 -58.5t66.5 -20.5q53 0 95 33t71 87t44.5 117t15.5 122z" />
<glyph unicode="&#xd9;" horiz-adv-x="678" d="M588 774q-69 5 -132 21.5t-117 48.5l-2 20l87 65q38 -34 84.5 -65.5t96.5 -58.5zM76 164q0 29 8 74t20.5 100.5t26 116.5t24 121t14.5 113l124 9l9 -12q-28 -132 -46.5 -217.5t-29.5 -136.5t-16 -77.5t-6.5 -39t-1.5 -21.5q0 -54 30 -81t81 -27q61 0 107 39t62 114 q23 108 38 179t24 115t13.5 71t6.5 45.5t3 39.5l130 8l-99 -466q-17 -80 -63.5 -133.5t-111.5 -80.5t-137 -27q-93 0 -151.5 45t-58.5 129z" />
<glyph unicode="&#xda;" horiz-adv-x="678" d="M617 864l-10 -20q-68 -32 -137.5 -48.5t-142.5 -21.5l-3 31q61 28 121 58.5t112 65.5zM76 164q0 29 8 74t20.5 100.5t26 116.5t24 121t14.5 113l124 9l9 -12q-28 -132 -46.5 -217.5t-29.5 -136.5t-16 -77.5t-6.5 -39t-1.5 -21.5q0 -54 30 -81t81 -27q61 0 107 39t62 114 q23 108 38 179t24 115t13.5 71t6.5 45.5t3 39.5l130 8l-99 -466q-17 -80 -63.5 -133.5t-111.5 -80.5t-137 -27q-93 0 -151.5 45t-58.5 129z" />
<glyph unicode="&#xdb;" horiz-adv-x="678" d="M333 771l-26 28q43 33 77 61.5t67 58.5l86 8q20 -31 44.5 -64t51.5 -64l-38 -28q-32 17 -61.5 36.5t-55.5 39.5q-35 -20 -71.5 -39.5t-73.5 -36.5zM76 164q0 29 8 74t20.5 100.5t26 116.5t24 121t14.5 113l124 9l9 -12q-28 -132 -46.5 -217.5t-29.5 -136.5t-16 -77.5 t-6.5 -39t-1.5 -21.5q0 -54 30 -81t81 -27q61 0 107 39t62 114q23 108 38 179t24 115t13.5 71t6.5 45.5t3 39.5l130 8l-99 -466q-17 -80 -63.5 -133.5t-111.5 -80.5t-137 -27q-93 0 -151.5 45t-58.5 129z" />
<glyph unicode="&#xdc;" horiz-adv-x="678" d="M650 868q0 -22 -13 -41t-33.5 -31t-43.5 -12q-25 0 -38 13t-13 32q0 21 13 40t34 31t45 12q22 0 35.5 -12t13.5 -32zM431 868q0 -22 -12.5 -41t-33.5 -31t-44 -12q-24 0 -37.5 13t-13.5 32q0 21 13 40t34 31t45 12q22 0 35.5 -12t13.5 -32zM76 164q0 29 8 74t20.5 100.5 t26 116.5t24 121t14.5 113l124 9l9 -12q-28 -132 -46.5 -217.5t-29.5 -136.5t-16 -77.5t-6.5 -39t-1.5 -21.5q0 -54 30 -81t81 -27q61 0 107 39t62 114q23 108 38 179t24 115t13.5 71t6.5 45.5t3 39.5l130 8l-99 -466q-17 -80 -63.5 -133.5t-111.5 -80.5t-137 -27 q-93 0 -151.5 45t-58.5 129z" />
<glyph unicode="&#xdd;" horiz-adv-x="561" d="M567 864l-10 -20q-68 -32 -137.5 -48.5t-142.5 -21.5l-3 31q61 28 120.5 58.5t112.5 65.5zM216 233l-109 452l133 13l44 -227q5 -36 12 -78t10 -73h2q17 31 43 74t46 77l139 227l97 -8l5 -13l-300 -445l-49 -232h-123z" />
<glyph unicode="&#xde;" horiz-adv-x="595" d="M173 0h-123l111 523q8 39 15 77t11 88h132l-22 -106h89q98 0 153 -45.5t55 -131.5q0 -57 -24.5 -107.5t-68 -89t-102 -60t-127.5 -21.5h-72zM343 493h-65l-59 -277h63q55 0 96 22.5t63.5 61t22.5 87.5q0 42 -17 65t-44.5 32t-59.5 9z" />
<glyph unicode="&#xdf;" horiz-adv-x="615" d="M-13 -230l-38 43q32 47 56.5 99t38.5 122l83 390l-72 4l10 44l75 14l3 14q20 92 59.5 149t93 83t114.5 26q77 0 120 -37t43 -99q0 -61 -42 -110.5t-119 -76.5q63 -32 101 -91t38 -138q0 -61 -24.5 -110t-71.5 -77.5t-116 -28.5q-29 0 -60 5t-47 12l17 80q17 -9 40 -14 t40 -5q54 0 80 39.5t26 94.5q0 67 -36.5 120t-94.5 87l10 48q70 18 109 59t39 96q0 34 -16 54t-51 20q-49 0 -80.5 -42.5t-44.5 -108.5l-100 -468q-14 -71 -36 -125t-57 -96t-90 -76z" />
<glyph unicode="&#xe0;" horiz-adv-x="548" d="M408 572q-40 35 -71.5 74.5t-52.5 87.5l11 20l110 12q7 -47 20 -92.5t30 -90.5zM37 140q0 64 22 129t64.5 119t103.5 87t138 33q32 0 76.5 -7.5t81.5 -24.5l-40 -175q-17 -73 -26.5 -127t-14 -95.5t-4.5 -78.5h-120q0 38 4.5 78t15.5 103q-19 -45 -49 -89t-67 -73 t-80 -29q-48 0 -76.5 38t-28.5 112zM160 170q0 -37 11.5 -58t33.5 -21q24 0 49.5 26t49 67t42 86.5t29.5 84.5q7 30 15 67q-31 14 -54 14q-35 0 -66.5 -25.5t-56 -65.5t-39 -86.5t-14.5 -88.5z" />
<glyph unicode="&#xe1;" horiz-adv-x="548" d="M484 753l2 -20q-42 -49 -89.5 -88.5t-103.5 -73.5l-41 11q34 44 67.5 90.5t58.5 91.5zM37 140q0 64 22 129t64.5 119t103.5 87t138 33q32 0 76.5 -7.5t81.5 -24.5l-40 -175q-17 -73 -26.5 -127t-14 -95.5t-4.5 -78.5h-120q0 38 4.5 78t15.5 103q-19 -45 -49 -89t-67 -73 t-80 -29q-48 0 -76.5 38t-28.5 112zM160 170q0 -37 11.5 -58t33.5 -21q24 0 49.5 26t49 67t42 86.5t29.5 84.5q7 30 15 67q-31 14 -54 14q-35 0 -66.5 -25.5t-56 -65.5t-39 -86.5t-14.5 -88.5z" />
<glyph unicode="&#xe2;" horiz-adv-x="548" d="M246 564l-31 27q36 38 72.5 78.5t69.5 81.5l87 8q17 -43 35.5 -84t42.5 -84l-44 -27q-28 25 -51 52.5t-45 54.5q-32 -28 -66 -55.5t-70 -51.5zM37 140q0 64 22 129t64.5 119t103.5 87t138 33q32 0 76.5 -7.5t81.5 -24.5l-40 -175q-17 -73 -26.5 -127t-14 -95.5 t-4.5 -78.5h-120q0 38 4.5 78t15.5 103q-19 -45 -49 -89t-67 -73t-80 -29q-48 0 -76.5 38t-28.5 112zM160 170q0 -37 11.5 -58t33.5 -21q24 0 49.5 26t49 67t42 86.5t29.5 84.5q7 30 15 67q-31 14 -54 14q-35 0 -66.5 -25.5t-56 -65.5t-39 -86.5t-14.5 -88.5z" />
<glyph unicode="&#xe3;" horiz-adv-x="548" d="M318 739q30 0 51.5 -14t41 -28t42.5 -14q20 0 35.5 14t31.5 35l34 -5q-9 -33 -26.5 -64.5t-42.5 -52t-57 -20.5q-28 0 -51.5 14t-44.5 28.5t-42 14.5q-17 0 -33 -13.5t-33 -36.5l-33 6q9 31 25.5 62.5t42 52.5t59.5 21zM37 140q0 64 22 129t64.5 119t103.5 87t138 33 q32 0 76.5 -7.5t81.5 -24.5l-40 -175q-17 -73 -26.5 -127t-14 -95.5t-4.5 -78.5h-120q0 38 4.5 78t15.5 103q-19 -45 -49 -89t-67 -73t-80 -29q-48 0 -76.5 38t-28.5 112zM160 170q0 -37 11.5 -58t33.5 -21q24 0 49.5 26t49 67t42 86.5t29.5 84.5q7 30 15 67q-31 14 -54 14 q-35 0 -66.5 -25.5t-56 -65.5t-39 -86.5t-14.5 -88.5z" />
<glyph unicode="&#xe4;" horiz-adv-x="548" d="M333 689q0 -24 -13 -46t-34.5 -36t-45.5 -14t-37.5 14.5t-13.5 35.5q0 23 14 44.5t36 35.5t45 14t36 -13t13 -35zM550 689q0 -24 -13 -46t-34.5 -36t-45.5 -14t-37.5 14.5t-13.5 35.5q0 23 14 44.5t36 35.5t45 14t36 -13t13 -35zM37 140q0 64 22 129t64.5 119t103.5 87 t138 33q32 0 76.5 -7.5t81.5 -24.5l-40 -175q-17 -73 -26.5 -127t-14 -95.5t-4.5 -78.5h-120q0 38 4.5 78t15.5 103q-19 -45 -49 -89t-67 -73t-80 -29q-48 0 -76.5 38t-28.5 112zM160 170q0 -37 11.5 -58t33.5 -21q24 0 49.5 26t49 67t42 86.5t29.5 84.5q7 30 15 67 q-31 14 -54 14q-35 0 -66.5 -25.5t-56 -65.5t-39 -86.5t-14.5 -88.5z" />
<glyph unicode="&#xe5;" horiz-adv-x="548" d="M479 693q0 -32 -19.5 -60t-51 -45.5t-65.5 -17.5q-38 0 -60.5 20t-22.5 50t20.5 58t52.5 45.5t67 17.5q36 0 57.5 -19t21.5 -49zM317 650q0 -16 10 -26.5t29 -10.5q26 0 46 21.5t20 47.5q0 16 -9 25.5t-27 9.5q-26 0 -47.5 -20.5t-21.5 -46.5zM37 140q0 64 22 129 t64.5 119t103.5 87t138 33q32 0 76.5 -7.5t81.5 -24.5l-40 -175q-17 -73 -26.5 -127t-14 -95.5t-4.5 -78.5h-120q0 38 4.5 78t15.5 103q-19 -45 -49 -89t-67 -73t-80 -29q-48 0 -76.5 38t-28.5 112zM160 170q0 -37 11.5 -58t33.5 -21q24 0 49.5 26t49 67t42 86.5t29.5 84.5 q7 30 15 67q-31 14 -54 14q-35 0 -66.5 -25.5t-56 -65.5t-39 -86.5t-14.5 -88.5z" />
<glyph unicode="&#xe6;" horiz-adv-x="779" d="M38 147q0 64 22 128t64.5 116.5t104.5 84.5t141 32q35 0 73.5 -6.5t73.5 -19.5q25 12 52 19t56 7q63 0 102 -32t39 -87q0 -70 -74 -120.5t-232 -60.5q-1 -12 -1 -24q0 -50 24 -81.5t72 -31.5q35 0 70.5 17.5t66.5 44.5l18 -47q-38 -46 -92.5 -71t-109.5 -25 q-75 0 -124 46t-49 135q-20 -43 -49 -84.5t-65 -69t-76 -27.5q-49 0 -78 40.5t-29 116.5zM606 438q-34 0 -62.5 -29t-48.5 -73t-29 -88q103 12 146 52t43 86q0 26 -13 39t-36 13zM161 170q0 -38 11.5 -58.5t33.5 -20.5q26 0 54.5 31t54 78.5t43.5 95.5v0q24 64 67 114 q-18 11 -39 18.5t-41 7.5q-39 0 -72.5 -25.5t-58.5 -65.5t-39 -86.5t-14 -88.5z" />
<glyph unicode="&#xe7;" horiz-adv-x="468" d="M313 -121q0 -35 -28 -61t-75.5 -40.5t-107.5 -16.5l10 43q51 7 81 23t30 40q0 15 -17 22.5t-46 8.5l-10 22l37 72q-65 8 -104.5 54t-39.5 129q0 64 23 123t64 106.5t96.5 75.5t120.5 28q36 0 68 -10t57 -27l-33 -99q-53 55 -111 55q-34 0 -63.5 -20t-51.5 -54t-34 -75 t-12 -84q0 -56 23.5 -89.5t74.5 -33.5q36 0 71 17t66 45l19 -47q-35 -41 -78.5 -64t-89.5 -29l-26 -48q34 -4 60 -19t26 -47z" />
<glyph unicode="&#xe8;" horiz-adv-x="486" d="M375 572q-41 35 -72 74.5t-52 87.5l11 20l110 12q6 -47 19.5 -92.5t29.5 -90.5zM400 133l18 -47q-38 -46 -92.5 -71t-109.5 -25q-75 0 -124 46.5t-49 138.5q0 61 22.5 120.5t62 107.5t92.5 76.5t115 28.5t100.5 -30t38.5 -83q0 -47 -33 -88t-101 -68t-172 -31 q-1 -12 -1 -24q0 -50 24 -81.5t72 -31.5q35 0 70.5 17.5t66.5 44.5zM314 438q-34 0 -62.5 -29t-48.5 -73t-29 -88q103 12 146 52t43 86q0 26 -13.5 39t-35.5 13z" />
<glyph unicode="&#xe9;" horiz-adv-x="486" d="M450 753l3 -20q-42 -49 -90 -88.5t-103 -73.5l-42 11q35 44 68.5 90.5t58.5 91.5zM400 133l18 -47q-38 -46 -92.5 -71t-109.5 -25q-75 0 -124 46.5t-49 138.5q0 61 22.5 120.5t62 107.5t92.5 76.5t115 28.5t100.5 -30t38.5 -83q0 -47 -33 -88t-101 -68t-172 -31 q-1 -12 -1 -24q0 -50 24 -81.5t72 -31.5q35 0 70.5 17.5t66.5 44.5zM314 438q-34 0 -62.5 -29t-48.5 -73t-29 -88q103 12 146 52t43 86q0 26 -13.5 39t-35.5 13z" />
<glyph unicode="&#xea;" horiz-adv-x="486" d="M213 564l-32 27q37 38 73.5 78.5t69.5 81.5l86 8q17 -43 36 -84t42 -84l-44 -27q-28 25 -51 52.5t-44 54.5q-32 -28 -66.5 -55.5t-69.5 -51.5zM400 133l18 -47q-38 -46 -92.5 -71t-109.5 -25q-75 0 -124 46.5t-49 138.5q0 61 22.5 120.5t62 107.5t92.5 76.5t115 28.5 t100.5 -30t38.5 -83q0 -47 -33 -88t-101 -68t-172 -31q-1 -12 -1 -24q0 -50 24 -81.5t72 -31.5q35 0 70.5 17.5t66.5 44.5zM314 438q-34 0 -62.5 -29t-48.5 -73t-29 -88q103 12 146 52t43 86q0 26 -13.5 39t-35.5 13z" />
<glyph unicode="&#xeb;" horiz-adv-x="486" d="M300 689q0 -24 -13.5 -46t-34.5 -36t-45 -14q-25 0 -38.5 14.5t-13.5 35.5q0 23 14 44.5t36 35.5t46 14q22 0 35.5 -13t13.5 -35zM516 689q0 -24 -13 -46t-34 -36t-45 -14q-25 0 -38.5 14.5t-13.5 35.5q0 23 14 44.5t36 35.5t46 14q22 0 35 -13t13 -35zM400 133l18 -47 q-38 -46 -92.5 -71t-109.5 -25q-75 0 -124 46.5t-49 138.5q0 61 22.5 120.5t62 107.5t92.5 76.5t115 28.5t100.5 -30t38.5 -83q0 -47 -33 -88t-101 -68t-172 -31q-1 -12 -1 -24q0 -50 24 -81.5t72 -31.5q35 0 70.5 17.5t66.5 44.5zM314 438q-34 0 -62.5 -29t-48.5 -73 t-29 -88q103 12 146 52t43 86q0 26 -13.5 39t-35.5 13z" />
<glyph unicode="&#xec;" horiz-adv-x="275" d="M249 572q-41 35 -72 74.5t-52 87.5l11 20l110 12q7 -47 20 -92.5t30 -90.5zM166 0h-119q0 54 9.5 121t27.5 146l20 92l8 139l128 10q0 -53 -11 -116t-26 -130.5t-26 -134.5t-11 -127z" />
<glyph unicode="&#xed;" horiz-adv-x="275" d="M324 753l3 -20q-42 -49 -89.5 -88.5t-103.5 -73.5l-41 11q34 44 67.5 90.5t58.5 91.5zM166 0h-119q0 54 9.5 121t27.5 146l20 92l8 139l128 10q0 -53 -11 -116t-26 -130.5t-26 -134.5t-11 -127z" />
<glyph unicode="&#xee;" horiz-adv-x="275" d="M111 572l-37 18q27 42 53 85.5t45 80.5l115 8q6 -41 13 -86t18 -88l-45 -18q-18 25 -32.5 52.5t-27.5 56.5q-24 -28 -49.5 -56.5t-52.5 -52.5zM166 0h-119q0 54 9.5 121t27.5 146l20 92l8 139l128 10q0 -53 -11 -116t-26 -130.5t-26 -134.5t-11 -127z" />
<glyph unicode="&#xef;" horiz-adv-x="275" d="M194 692q0 -24 -12.5 -46.5t-32.5 -36.5t-42 -14q-23 0 -35.5 14t-12.5 35q0 23 13.5 45t34.5 36t42 14t33 -13t12 -34zM362 692q0 -24 -12.5 -46.5t-33 -36.5t-42.5 -14t-34 14t-12 35q0 23 13.5 45t33.5 36t42 14q21 0 33 -13t12 -34zM166 0h-119q0 54 9.5 121 t27.5 146l20 92l8 139l128 10q0 -53 -11 -116t-26 -130.5t-26 -134.5t-11 -127z" />
<glyph unicode="&#xf0;" horiz-adv-x="554" d="M215 -10q-74 0 -120.5 45.5t-46.5 135.5q0 60 20 116.5t55.5 101.5t83 71t103.5 26q54 0 87 -29q-6 38 -21.5 72.5t-37.5 64.5l-123 -67l-26 50l111 61q-29 29 -65 53l47 67q62 -29 107 -71l121 67l27 -50l-108 -60q39 -49 60 -112.5t21 -142.5q0 -82 -22 -154.5 t-62 -127.5t-94 -86t-117 -31zM314 414q-32 0 -58 -21t-45.5 -56t-30 -78t-10.5 -87q0 -52 16.5 -81t52.5 -29q32 0 58 22t45 58t29.5 79.5t10.5 86.5q0 55 -17.5 80.5t-50.5 25.5z" />
<glyph unicode="&#xf1;" horiz-adv-x="568" d="M307 739q29 0 51 -14t41 -28t42 -14q20 0 36 14t31 35l34 -5q-9 -33 -26.5 -64.5t-42.5 -52t-56 -20.5q-28 0 -51.5 14t-44.5 28.5t-43 14.5q-16 0 -32.5 -13.5t-33.5 -36.5l-33 6q9 31 26 62.5t42.5 52.5t59.5 21zM166 0h-119q0 47 6.5 99t19 115t31.5 145l8 139l128 10 q0 -30 -4.5 -66t-10.5 -74h2q39 74 92 107t102 33q46 0 71 -26.5t25 -69.5q0 -32 -10.5 -83t-23.5 -113q-11 -49 -16.5 -83.5t-8 -64.5t-2.5 -68h-119q0 54 7.5 103t21.5 120q10 50 16 81.5t6 51.5q0 24 -9.5 37.5t-31.5 13.5q-35 0 -67 -33.5t-57 -91t-40 -130.5t-17 -152z " />
<glyph unicode="&#xf2;" horiz-adv-x="538" d="M388 572q-41 35 -72 74.5t-52 87.5l11 20l110 12q7 -47 20 -92.5t30 -90.5zM497 325q0 -62 -21.5 -122t-60 -108t-91 -76.5t-115.5 -28.5q-74 0 -120 44.5t-46 136.5q0 62 21.5 122t60.5 108.5t91.5 77.5t114.5 29q77 0 121.5 -46.5t44.5 -136.5zM167 162q0 -48 14.5 -74 t48.5 -26t61 27.5t45 70t27.5 89.5t9.5 87q0 100 -63 100q-35 0 -61.5 -27t-45 -69.5t-27.5 -89.5t-9 -88z" />
<glyph unicode="&#xf3;" horiz-adv-x="538" d="M463 753l3 -20q-42 -49 -90 -88.5t-103 -73.5l-41 11q34 44 67.5 90.5t58.5 91.5zM497 325q0 -62 -21.5 -122t-60 -108t-91 -76.5t-115.5 -28.5q-74 0 -120 44.5t-46 136.5q0 62 21.5 122t60.5 108.5t91.5 77.5t114.5 29q77 0 121.5 -46.5t44.5 -136.5zM167 162 q0 -48 14.5 -74t48.5 -26t61 27.5t45 70t27.5 89.5t9.5 87q0 100 -63 100q-35 0 -61.5 -27t-45 -69.5t-27.5 -89.5t-9 -88z" />
<glyph unicode="&#xf4;" horiz-adv-x="538" d="M226 564l-32 27q37 38 73.5 78.5t69.5 81.5l86 8q17 -43 36 -84t42 -84l-44 -27q-27 25 -50.5 52.5t-44.5 54.5q-32 -28 -66.5 -55.5t-69.5 -51.5zM497 325q0 -62 -21.5 -122t-60 -108t-91 -76.5t-115.5 -28.5q-74 0 -120 44.5t-46 136.5q0 62 21.5 122t60.5 108.5 t91.5 77.5t114.5 29q77 0 121.5 -46.5t44.5 -136.5zM167 162q0 -48 14.5 -74t48.5 -26t61 27.5t45 70t27.5 89.5t9.5 87q0 100 -63 100q-35 0 -61.5 -27t-45 -69.5t-27.5 -89.5t-9 -88z" />
<glyph unicode="&#xf5;" horiz-adv-x="538" d="M298 739q30 0 51.5 -14t40.5 -28t43 -14q20 0 35.5 14t31.5 35l33 -5q-8 -33 -26 -64.5t-43 -52t-56 -20.5q-28 0 -51.5 14t-44.5 28.5t-42 14.5q-17 0 -33.5 -13.5t-32.5 -36.5l-33 6q8 31 25 62.5t42.5 52.5t59.5 21zM497 325q0 -62 -21.5 -122t-60 -108t-91 -76.5 t-115.5 -28.5q-74 0 -120 44.5t-46 136.5q0 62 21.5 122t60.5 108.5t91.5 77.5t114.5 29q77 0 121.5 -46.5t44.5 -136.5zM167 162q0 -48 14.5 -74t48.5 -26t61 27.5t45 70t27.5 89.5t9.5 87q0 100 -63 100q-35 0 -61.5 -27t-45 -69.5t-27.5 -89.5t-9 -88z" />
<glyph unicode="&#xf6;" horiz-adv-x="538" d="M313 689q0 -24 -13.5 -46t-34.5 -36t-45 -14q-25 0 -38 14.5t-13 35.5q0 23 14 44.5t35.5 35.5t45.5 14q23 0 36 -13t13 -35zM530 689q0 -24 -13.5 -46t-34.5 -36t-45 -14q-25 0 -38.5 14.5t-13.5 35.5q0 23 14.5 44.5t36 35.5t45.5 14q23 0 36 -13t13 -35zM497 325 q0 -62 -21.5 -122t-60 -108t-91 -76.5t-115.5 -28.5q-74 0 -120 44.5t-46 136.5q0 62 21.5 122t60.5 108.5t91.5 77.5t114.5 29q77 0 121.5 -46.5t44.5 -136.5zM167 162q0 -48 14.5 -74t48.5 -26t61 27.5t45 70t27.5 89.5t9.5 87q0 100 -63 100q-35 0 -61.5 -27t-45 -69.5 t-27.5 -89.5t-9 -88z" />
<glyph unicode="&#xf7;" d="M424 553q0 -20 -12 -39t-31.5 -31t-41.5 -12q-21 0 -33 12.5t-12 31.5q0 20 12.5 39t32 31t40.5 12q20 0 32.5 -11.5t12.5 -32.5zM532 314h-450l14 63q30 1 75.5 2t97 1.5t104 1t98 0.5h77.5l4 -7zM346 181q0 -21 -12 -39.5t-31.5 -30.5t-41.5 -12t-34 12.5t-12 31.5 q0 20 13 39t33 31t41 12q20 0 32 -11.5t12 -32.5z" />
<glyph unicode="&#xf8;" horiz-adv-x="538" d="M497 325q0 -62 -21.5 -122t-60 -108t-91 -76.5t-115.5 -28.5q-42 0 -75 14t-55 42l-71 -62l-35 42l81 70q-11 33 -11 75q0 62 21.5 122t60.5 108.5t91.5 77.5t114.5 29q87 0 130 -57l72 63l35 -41l-82 -71q11 -34 11 -77zM310 436q-31 0 -56 -22.5t-43 -58.5t-29 -78 t-14 -81l203 176q-10 64 -61 64zM230 62q31 0 55.5 22.5t42.5 58.5t29 77.5t15 81.5l-203 -177q10 -63 61 -63z" />
<glyph unicode="&#xf9;" horiz-adv-x="548" d="M377 572q-41 35 -72 74.5t-52 87.5l11 20l110 12q7 -47 20 -92.5t30 -90.5zM53 148l45 211l8 139l128 10q0 -47 -8.5 -98t-19.5 -102t-19 -97q-10 -54 -7.5 -87t37.5 -33q32 0 59.5 28t49.5 76t37 109q8 40 14 75t9 66q2 27 2 53l125 10q-3 -49 -10.5 -95.5t-19.5 -105.5 t-28 -143q-8 -38 -12.5 -77.5t-4.5 -86.5h-120q0 34 2.5 64t7.5 61h-1q-37 -71 -86.5 -103t-96.5 -32q-58 0 -82 43.5t-9 114.5z" />
<glyph unicode="&#xfa;" horiz-adv-x="548" d="M452 753l3 -20q-42 -49 -90 -88.5t-103 -73.5l-41 11q34 44 67.5 90.5t58.5 91.5zM53 148l45 211l8 139l128 10q0 -47 -8.5 -98t-19.5 -102t-19 -97q-10 -54 -7.5 -87t37.5 -33q32 0 59.5 28t49.5 76t37 109q8 40 14 75t9 66q2 27 2 53l125 10q-3 -49 -10.5 -95.5 t-19.5 -105.5t-28 -143q-8 -38 -12.5 -77.5t-4.5 -86.5h-120q0 34 2.5 64t7.5 61h-1q-37 -71 -86.5 -103t-96.5 -32q-58 0 -82 43.5t-9 114.5z" />
<glyph unicode="&#xfb;" horiz-adv-x="548" d="M215 564l-32 27q37 38 73.5 78.5t69.5 81.5l86 8q17 -43 36 -84t42 -84l-43 -27q-28 25 -51 52.5t-45 54.5q-32 -28 -66 -55.5t-70 -51.5zM53 148l45 211l8 139l128 10q0 -47 -8.5 -98t-19.5 -102t-19 -97q-10 -54 -7.5 -87t37.5 -33q32 0 59.5 28t49.5 76t37 109 q8 40 14 75t9 66q2 27 2 53l125 10q-3 -49 -10.5 -95.5t-19.5 -105.5t-28 -143q-8 -38 -12.5 -77.5t-4.5 -86.5h-120q0 34 2.5 64t7.5 61h-1q-37 -71 -86.5 -103t-96.5 -32q-58 0 -82 43.5t-9 114.5z" />
<glyph unicode="&#xfc;" horiz-adv-x="548" d="M302 689q0 -24 -13.5 -46t-34.5 -36t-45 -14q-25 0 -38 14.5t-13 35.5q0 23 14 44.5t35.5 35.5t45.5 14q23 0 36 -13t13 -35zM519 689q0 -24 -13.5 -46t-34.5 -36t-45 -14q-25 0 -38 14.5t-13 35.5q0 23 14 44.5t35.5 35.5t45.5 14q23 0 36 -13t13 -35zM53 148l45 211 l8 139l128 10q0 -47 -8.5 -98t-19.5 -102t-19 -97q-10 -54 -7.5 -87t37.5 -33q32 0 59.5 28t49.5 76t37 109q8 40 14 75t9 66q2 27 2 53l125 10q-3 -49 -10.5 -95.5t-19.5 -105.5t-28 -143q-8 -38 -12.5 -77.5t-4.5 -86.5h-120q0 34 2.5 64t7.5 61h-1q-37 -71 -86.5 -103 t-96.5 -32q-58 0 -82 43.5t-9 114.5z" />
<glyph unicode="&#xfd;" horiz-adv-x="468" d="M418 753l3 -20q-42 -49 -90 -88.5t-103 -73.5l-42 11q35 44 68.5 90.5t58.5 91.5zM415 508q26 0 42.5 -8t16.5 -32q0 -33 -19 -87.5t-53 -122.5t-78 -139.5t-94.5 -138.5t-103 -121t-102.5 -85.5t-94 -31.5q-31 0 -49 18t-18 48q0 16 4 27.5t10 20.5q15 -3 30.5 -5 t29.5 -2q42 0 85 21.5t80 56t61 73.5h-57q-2 144 -14 273t-32 225l127 10q17 -95 22.5 -202.5t-1.5 -217.5h2q39 66 72.5 138.5t56 143.5t29.5 132q15 4 26.5 5t20.5 1z" />
<glyph unicode="&#xfe;" horiz-adv-x="545" d="M108 -242h-120q0 36 6 83t19.5 116.5t35.5 172.5l102 479l8 139l129 10q0 -51 -11.5 -120.5t-29 -149t-35.5 -160.5q19 45 48 86.5t64.5 67.5t76.5 26q50 0 79 -40.5t29 -115.5q0 -65 -22 -129t-64.5 -116.5t-103 -84.5t-136.5 -32q-21 0 -43 2q-14 -69 -23 -132t-9 -102 zM341 407q-24 0 -50.5 -26t-51.5 -71t-45.5 -101t-32.5 -115q-2 -9 -4 -19q30 -13 53 -13q35 0 66.5 25t56.5 65.5t39 86.5t14 89q0 37 -11.5 58t-33.5 21z" />
<glyph unicode="&#xff;" horiz-adv-x="468" d="M267 689q0 -24 -13 -46t-34.5 -36t-44.5 -14q-25 0 -38.5 14.5t-13.5 35.5q0 23 14 44.5t36 35.5t46 14q22 0 35 -13t13 -35zM484 689q0 -24 -13 -46t-34.5 -36t-45.5 -14t-37.5 14.5t-13.5 35.5q0 23 14 44.5t36 35.5t45 14t36 -13t13 -35zM415 508q26 0 42.5 -8 t16.5 -32q0 -33 -19 -87.5t-53 -122.5t-78 -139.5t-94.5 -138.5t-103 -121t-102.5 -85.5t-94 -31.5q-31 0 -49 18t-18 48q0 16 4 27.5t10 20.5q15 -3 30.5 -5t29.5 -2q42 0 85 21.5t80 56t61 73.5h-57q-2 144 -14 273t-32 225l127 10q17 -95 22.5 -202.5t-1.5 -217.5h2 q39 66 72.5 138.5t56 143.5t29.5 132q15 4 26.5 5t20.5 1z" />
<glyph unicode="&#x100;" horiz-adv-x="646" d="M294 812l14 72h279l-15 -72h-278zM89 0h-117l313 585q33 62 52 106l141 6l16 -16l74 -681h-124l-18 170h-246zM282 362l-55 -103h189l-11 103q-6 69 -9.5 125t-2.5 96h-3q-18 -40 -47 -99.5t-61 -121.5z" />
<glyph unicode="&#x101;" horiz-adv-x="548" d="M220 630l14 69h284l-15 -69h-283zM37 140q0 64 22 129t64.5 119t103.5 87t138 33q32 0 76.5 -7.5t81.5 -24.5l-40 -175q-17 -73 -26.5 -127t-14 -95.5t-4.5 -78.5h-120q0 38 4.5 78t15.5 103q-19 -45 -49 -89t-67 -73t-80 -29q-48 0 -76.5 38t-28.5 112zM160 170 q0 -37 11.5 -58t33.5 -21q24 0 49.5 26t49 67t42 86.5t29.5 84.5q7 30 15 67q-31 14 -54 14q-35 0 -66.5 -25.5t-56 -65.5t-39 -86.5t-14.5 -88.5z" />
<glyph unicode="&#x102;" horiz-adv-x="646" d="M533 914l50 4q-20 -61 -66.5 -100t-108.5 -39q-55 0 -85.5 34.5t-23.5 94.5l51 7q3 -25 25 -40t56 -15q33 0 61 15.5t41 38.5zM89 0h-117l313 585q33 62 52 106l141 6l16 -16l74 -681h-124l-18 170h-246zM282 362l-55 -103h189l-11 103q-6 69 -9.5 125t-2.5 96h-3 q-18 -40 -47 -99.5t-61 -121.5z" />
<glyph unicode="&#x103;" horiz-adv-x="548" d="M476 749l50 3q-22 -73 -70.5 -118.5t-109.5 -45.5q-56 0 -84.5 41.5t-19.5 112.5l51 7q1 -37 21.5 -58.5t53.5 -21.5t62.5 22.5t45.5 57.5zM37 140q0 64 22 129t64.5 119t103.5 87t138 33q32 0 76.5 -7.5t81.5 -24.5l-40 -175q-17 -73 -26.5 -127t-14 -95.5t-4.5 -78.5 h-120q0 38 4.5 78t15.5 103q-19 -45 -49 -89t-67 -73t-80 -29q-48 0 -76.5 38t-28.5 112zM160 170q0 -37 11.5 -58t33.5 -21q24 0 49.5 26t49 67t42 86.5t29.5 84.5q7 30 15 67q-31 14 -54 14q-35 0 -66.5 -25.5t-56 -65.5t-39 -86.5t-14.5 -88.5z" />
<glyph unicode="&#x104;" horiz-adv-x="646" d="M89 0h-117l313 585q33 62 52 106l141 6l16 -16l74 -681h-1q-64 -29 -102.5 -65.5t-38.5 -71.5q0 -32 40 -32q10 0 24.5 2.5t33.5 9.5l8 -43q-25 -19 -58 -31t-65 -12q-40 0 -64.5 19t-24.5 53q0 47 43.5 92t119.5 79h-39l-18 170h-246zM282 362l-55 -103h189l-11 103 q-6 69 -9.5 125t-2.5 96h-3q-18 -40 -47 -99.5t-61 -121.5z" />
<glyph unicode="&#x105;" horiz-adv-x="548" d="M37 140q0 64 22 129t64.5 119t103.5 87t138 33q32 0 76.5 -7.5t81.5 -24.5l-40 -175q-17 -73 -26.5 -127t-14 -95.5t-4.5 -78.5q-64 -29 -102.5 -65.5t-38.5 -71.5q0 -32 40 -32q10 0 24.5 2.5t33.5 9.5l8 -43q-26 -19 -59 -31t-64 -12q-40 0 -64.5 19t-24.5 53 q0 47 43.5 92t119.5 79h-36q0 38 4.5 78t15.5 103q-19 -45 -49 -89t-67 -73t-80 -29q-48 0 -76.5 38t-28.5 112zM160 170q0 -37 11.5 -58t33.5 -21q24 0 49.5 26t49 67t42 86.5t29.5 84.5q7 30 15 67q-31 14 -54 14q-35 0 -66.5 -25.5t-56 -65.5t-39 -86.5t-14.5 -88.5z" />
<glyph unicode="&#x106;" horiz-adv-x="583" d="M606 864l-10 -20q-68 -32 -137.5 -48.5t-142.5 -21.5l-3 31q61 28 121 58.5t112 65.5zM514 138l-7 -100q-44 -24 -95.5 -36t-100.5 -12q-115 0 -177.5 64.5t-62.5 189.5q0 86 28.5 167t79.5 145.5t122 103t155 38.5q43 0 89 -10.5t77 -31.5l-47 -106q-28 22 -66 34 t-73 12q-57 0 -100.5 -30t-73.5 -78.5t-45.5 -106t-15.5 -112.5q0 -85 37 -131.5t111 -46.5q41 0 85.5 13.5t79.5 33.5z" />
<glyph unicode="&#x107;" horiz-adv-x="468" d="M458 753l3 -20q-42 -49 -90 -88.5t-103 -73.5l-42 11q35 44 68.5 90.5t58.5 91.5zM402 133l19 -47q-42 -49 -96 -72.5t-110 -23.5q-76 0 -124 46.5t-48 138.5q0 64 23 123t64 106.5t96.5 75.5t120.5 28q36 0 68 -10t57 -27l-33 -99q-53 55 -111 55q-34 0 -63.5 -20 t-51.5 -54t-34 -75t-12 -84q0 -56 23.5 -89.5t74.5 -33.5q36 0 71 17t66 45z" />
<glyph unicode="&#x108;" horiz-adv-x="583" d="M322 771l-26 28q43 33 76.5 61.5t66.5 58.5l87 8q20 -31 44 -64t52 -64l-39 -28q-32 17 -61 36.5t-56 39.5q-34 -20 -70.5 -39.5t-73.5 -36.5zM514 138l-7 -100q-44 -24 -95.5 -36t-100.5 -12q-115 0 -177.5 64.5t-62.5 189.5q0 86 28.5 167t79.5 145.5t122 103t155 38.5 q43 0 89 -10.5t77 -31.5l-47 -106q-28 22 -66 34t-73 12q-57 0 -100.5 -30t-73.5 -78.5t-45.5 -106t-15.5 -112.5q0 -85 37 -131.5t111 -46.5q41 0 85.5 13.5t79.5 33.5z" />
<glyph unicode="&#x109;" horiz-adv-x="468" d="M221 564l-32 27q37 38 73.5 78.5t69.5 81.5l86 8q17 -43 36 -84t42 -84l-44 -27q-27 25 -50.5 52.5t-44.5 54.5q-32 -28 -66.5 -55.5t-69.5 -51.5zM402 133l19 -47q-42 -49 -96 -72.5t-110 -23.5q-76 0 -124 46.5t-48 138.5q0 64 23 123t64 106.5t96.5 75.5t120.5 28 q36 0 68 -10t57 -27l-33 -99q-53 55 -111 55q-34 0 -63.5 -20t-51.5 -54t-34 -75t-12 -84q0 -56 23.5 -89.5t74.5 -33.5q36 0 71 17t66 45z" />
<glyph unicode="&#x10a;" horiz-adv-x="583" d="M538 874q0 -24 -14 -45t-37 -34t-49 -13t-42 14t-16 36q0 23 15 43t38.5 33t48.5 13t40.5 -13t15.5 -34zM514 138l-7 -100q-44 -24 -95.5 -36t-100.5 -12q-115 0 -177.5 64.5t-62.5 189.5q0 86 28.5 167t79.5 145.5t122 103t155 38.5q43 0 89 -10.5t77 -31.5l-47 -106 q-28 22 -66 34t-73 12q-57 0 -100.5 -30t-73.5 -78.5t-45.5 -106t-15.5 -112.5q0 -85 37 -131.5t111 -46.5q41 0 85.5 13.5t79.5 33.5z" />
<glyph unicode="&#x10b;" horiz-adv-x="468" d="M422 690q0 -26 -14.5 -49t-37.5 -37.5t-49 -14.5t-41 15.5t-15 38.5q0 24 14.5 46.5t38 37t49.5 14.5t40.5 -14t14.5 -37zM402 133l19 -47q-42 -49 -96 -72.5t-110 -23.5q-76 0 -124 46.5t-48 138.5q0 64 23 123t64 106.5t96.5 75.5t120.5 28q36 0 68 -10t57 -27l-33 -99 q-53 55 -111 55q-34 0 -63.5 -20t-51.5 -54t-34 -75t-12 -84q0 -56 23.5 -89.5t74.5 -33.5q36 0 71 17t66 45z" />
<glyph unicode="&#x10c;" horiz-adv-x="583" d="M597 929l26 -28q-43 -33 -77 -61.5t-67 -58.5l-87 -8q-20 32 -44 64.5t-52 63.5l39 28q32 -16 61.5 -36t55.5 -39q35 19 71 39t74 36zM514 138l-7 -100q-44 -24 -95.5 -36t-100.5 -12q-115 0 -177.5 64.5t-62.5 189.5q0 86 28.5 167t79.5 145.5t122 103t155 38.5 q43 0 89 -10.5t77 -31.5l-47 -106q-28 22 -66 34t-73 12q-57 0 -100.5 -30t-73.5 -78.5t-45.5 -106t-15.5 -112.5q0 -85 37 -131.5t111 -46.5q41 0 85.5 13.5t79.5 33.5z" />
<glyph unicode="&#x10d;" horiz-adv-x="468" d="M478 769l32 -27q-37 -39 -73.5 -79t-68.5 -81l-87 -8q-17 43 -35.5 84t-42.5 84l44 27q28 -25 51 -52.5t45 -54.5q32 28 66 55.5t69 51.5zM402 133l19 -47q-42 -49 -96 -72.5t-110 -23.5q-76 0 -124 46.5t-48 138.5q0 64 23 123t64 106.5t96.5 75.5t120.5 28q36 0 68 -10 t57 -27l-33 -99q-53 55 -111 55q-34 0 -63.5 -20t-51.5 -54t-34 -75t-12 -84q0 -56 23.5 -89.5t74.5 -33.5q36 0 71 17t66 45z" />
<glyph unicode="&#x10e;" horiz-adv-x="709" d="M617 929l26 -28q-43 -33 -77 -61.5t-67 -58.5l-86 -8q-21 32 -45 64.5t-51 63.5l38 28q32 -16 61.5 -36t55.5 -39q35 19 71.5 39t73.5 36zM676 430q0 -83 -28.5 -160t-84 -138t-135.5 -96.5t-183 -35.5h-195l111 523q11 50 17.5 88t8.5 77h216q130 0 201.5 -63t71.5 -195 zM371 599h-71l-108 -510h80q70 0 122 29t86 77t50.5 106t16.5 116q0 74 -24.5 113.5t-64.5 54t-87 14.5z" />
<glyph unicode="&#x10f;" horiz-adv-x="549" d="M779 764l5 -20q-31 -61 -67 -112.5t-74 -97.5l-40 2q24 59 44.5 115t35.5 110zM439 0h-119q0 34 4.5 76.5t16.5 107.5q-19 -49 -48.5 -93.5t-67.5 -72.5t-83 -28q-48 0 -76.5 38t-28.5 111q0 65 22.5 130t64.5 119t102 87t135 33q23 0 46 -4l23 105l8 139l128 10 q0 -57 -13 -132t-32 -159t-37.5 -168.5t-31.5 -161.5t-13 -137zM160 170q0 -37 11.5 -58t33.5 -21q24 0 50 26t49.5 67t42 86.5t28.5 84.5q3 12 6 25l9 42q-31 14 -54 14q-35 0 -66.5 -25.5t-56 -65.5t-39 -86.5t-14.5 -88.5z" />
<glyph unicode="&#x110;" horiz-adv-x="709" d="M676 430q0 -83 -28.5 -160t-84 -138t-135.5 -96.5t-183 -35.5h-195l66 312h-63l13 64h64l31 147q11 50 17.5 88t8.5 77h216q130 0 201.5 -63t71.5 -195zM428 312h-189l-47 -223h80q70 0 122 29t86 77t50.5 106t16.5 116q0 74 -24.5 113.5t-64.5 54t-87 14.5h-71l-47 -223 h188z" />
<glyph unicode="&#x111;" horiz-adv-x="549" d="M439 0h-119q0 34 4.5 76.5t16.5 107.5q-19 -49 -48.5 -93.5t-67.5 -72.5t-83 -28q-48 0 -76.5 38t-28.5 111q0 65 22.5 130t64.5 119t102 87t135 33q23 0 46 -4l17 79h-164l13 64h159l6 101l128 10q0 -24 -2.5 -52t-7.5 -59h92l-13 -64h-90q-13 -72 -31 -151t-35.5 -157 t-28.5 -148.5t-11 -126.5zM160 170q0 -37 11.5 -58t33.5 -21q24 0 50 26t49.5 67t42 86.5t28.5 84.5q3 12 6 25l9 42q-31 14 -54 14q-35 0 -66.5 -25.5t-56 -65.5t-39 -86.5t-14.5 -88.5z" />
<glyph unicode="&#x112;" horiz-adv-x="560" d="M280 812l15 72h279l-15 -72h-279zM485 96l-20 -96h-415l111 523q10 44 17 83.5t9 81.5h403l11 -14l-20 -82l-281 7l-46 -218l237 4l-22 -89l-232 5l-45 -212z" />
<glyph unicode="&#x113;" horiz-adv-x="486" d="M187 630l14 69h283l-14 -69h-283zM400 133l18 -47q-38 -46 -92.5 -71t-109.5 -25q-75 0 -124 46.5t-49 138.5q0 61 22.5 120.5t62 107.5t92.5 76.5t115 28.5t100.5 -30t38.5 -83q0 -47 -33 -88t-101 -68t-172 -31q-1 -12 -1 -24q0 -50 24 -81.5t72 -31.5q35 0 70.5 17.5 t66.5 44.5zM314 438q-34 0 -62.5 -29t-48.5 -73t-29 -88q103 12 146 52t43 86q0 26 -13.5 39t-35.5 13z" />
<glyph unicode="&#x114;" horiz-adv-x="560" d="M520 914l49 4q-20 -61 -66.5 -100t-108.5 -39q-55 0 -85 34.5t-23 94.5l50 7q4 -25 26 -40t55 -15t61 15.5t42 38.5zM485 96l-20 -96h-415l111 523q10 44 17 83.5t9 81.5h403l11 -14l-20 -82l-281 7l-46 -218l237 4l-22 -89l-232 5l-45 -212z" />
<glyph unicode="&#x115;" horiz-adv-x="486" d="M443 749l50 3q-23 -73 -71.5 -118.5t-109.5 -45.5q-55 0 -84 41.5t-19 112.5l50 7q1 -37 21.5 -58.5t54.5 -21.5q33 0 62.5 22.5t45.5 57.5zM400 133l18 -47q-38 -46 -92.5 -71t-109.5 -25q-75 0 -124 46.5t-49 138.5q0 61 22.5 120.5t62 107.5t92.5 76.5t115 28.5 t100.5 -30t38.5 -83q0 -47 -33 -88t-101 -68t-172 -31q-1 -12 -1 -24q0 -50 24 -81.5t72 -31.5q35 0 70.5 17.5t66.5 44.5zM314 438q-34 0 -62.5 -29t-48.5 -73t-29 -88q103 12 146 52t43 86q0 26 -13.5 39t-35.5 13z" />
<glyph unicode="&#x116;" horiz-adv-x="560" d="M506 874q0 -24 -14 -45t-36.5 -34t-48.5 -13q-27 0 -42.5 14t-15.5 36q0 23 14.5 43t38 33t49.5 13q25 0 40 -13t15 -34zM485 96l-20 -96h-415l111 523q10 44 17 83.5t9 81.5h403l11 -14l-20 -82l-281 7l-46 -218l237 4l-22 -89l-232 5l-45 -212z" />
<glyph unicode="&#x117;" horiz-adv-x="486" d="M414 690q0 -26 -14.5 -49t-37.5 -37.5t-49 -14.5t-41 15.5t-15 38.5q0 24 14.5 46.5t38 37t49.5 14.5q25 0 40 -14t15 -37zM400 133l18 -47q-38 -46 -92.5 -71t-109.5 -25q-75 0 -124 46.5t-49 138.5q0 61 22.5 120.5t62 107.5t92.5 76.5t115 28.5t100.5 -30t38.5 -83 q0 -47 -33 -88t-101 -68t-172 -31q-1 -12 -1 -24q0 -50 24 -81.5t72 -31.5q35 0 70.5 17.5t66.5 44.5zM314 438q-34 0 -62.5 -29t-48.5 -73t-29 -88q103 12 146 52t43 86q0 26 -13.5 39t-35.5 13z" />
<glyph unicode="&#x118;" horiz-adv-x="560" d="M465 0q-64 -29 -102 -65.5t-38 -71.5q0 -32 39 -32q11 0 25.5 2.5t32.5 9.5l9 -43q-26 -19 -59 -31t-64 -12q-41 0 -65.5 19t-24.5 53q0 47 44 92t120 79h-332l111 523q10 44 17 83.5t9 81.5h403l11 -14l-20 -82l-281 7l-46 -218l237 4l-22 -89l-232 5l-45 -212l293 7z " />
<glyph unicode="&#x119;" horiz-adv-x="486" d="M385 49q-72 -55 -115 -97.5t-43 -82.5q0 -18 9.5 -28t30.5 -10q10 0 24.5 2.5t33.5 9.5l8 -43q-25 -19 -58 -31t-65 -12q-40 0 -64.5 20.5t-24.5 57.5q0 43 32 81t90 76q-14 -2 -27 -2q-75 0 -124 46.5t-49 138.5q0 61 22.5 120.5t62 107.5t92.5 76.5t115 28.5t100.5 -30 t38.5 -83q0 -47 -33 -88t-101 -68t-172 -31q-1 -12 -1 -24q0 -50 24 -81.5t72 -31.5q35 0 70.5 17.5t66.5 44.5l18 -47q-17 -21 -38 -37h5zM314 438q-34 0 -62.5 -29t-48.5 -73t-29 -88q103 12 146 52t43 86q0 26 -13.5 39t-35.5 13z" />
<glyph unicode="&#x11a;" horiz-adv-x="560" d="M565 929l26 -28q-43 -33 -77 -61.5t-67 -58.5l-86 -8q-20 32 -44.5 64.5t-51.5 63.5l38 28q32 -16 61.5 -36t55.5 -39q35 19 71.5 39t73.5 36zM485 96l-20 -96h-415l111 523q10 44 17 83.5t9 81.5h403l11 -14l-20 -82l-281 7l-46 -218l237 4l-22 -89l-232 5l-45 -212z " />
<glyph unicode="&#x11b;" horiz-adv-x="486" d="M470 769l32 -27q-37 -39 -73.5 -79t-68.5 -81l-87 -8q-17 43 -36 84t-42 84l44 27q28 -25 51 -52.5t44 -54.5q33 28 67 55.5t69 51.5zM400 133l18 -47q-38 -46 -92.5 -71t-109.5 -25q-75 0 -124 46.5t-49 138.5q0 61 22.5 120.5t62 107.5t92.5 76.5t115 28.5t100.5 -30 t38.5 -83q0 -47 -33 -88t-101 -68t-172 -31q-1 -12 -1 -24q0 -50 24 -81.5t72 -31.5q35 0 70.5 17.5t66.5 44.5zM314 438q-34 0 -62.5 -29t-48.5 -73t-29 -88q103 12 146 52t43 86q0 26 -13.5 39t-35.5 13z" />
<glyph unicode="&#x11c;" horiz-adv-x="655" d="M339 771l-26 28q43 33 76.5 61.5t66.5 58.5l87 8q20 -31 44 -64t52 -64l-39 -28q-32 17 -61 36.5t-56 39.5q-34 -20 -70.5 -39.5t-73.5 -36.5zM590 313l10 -13l-58 -265q-44 -21 -100.5 -33t-112.5 -12q-126 0 -192.5 63.5t-66.5 188.5q0 88 31 169.5t87 146t131 102.5 t163 38q44 0 91.5 -10.5t81.5 -31.5l-43 -106q-62 49 -146 49q-61 0 -110 -29t-84 -77.5t-53.5 -108.5t-18.5 -121q0 -86 39.5 -131.5t122.5 -45.5q35 0 77 8l4 18q9 42 14 71t8.5 56.5t6.5 63.5z" />
<glyph unicode="&#x11d;" horiz-adv-x="482" d="M205 564l-31 27q36 38 72.5 78.5t69.5 81.5l87 8q17 -43 35.5 -84t42.5 -84l-44 -27q-28 25 -51 52.5t-45 54.5q-32 -28 -66 -55.5t-70 -51.5zM139 -258q-94 0 -146 35.5t-52 86.5q0 40 31 68.5t75 46.5l26 -25q-10 -13 -16.5 -26.5t-6.5 -27.5q0 -42 29.5 -69.5 t82.5 -27.5q51 0 84 23.5t33 54.5q0 26 -25 44.5t-65 37.5q-34 17 -60 34t-26 46q0 24 19 43t46 32.5t52 21.5v3q-12 -1 -21 0q-65 3 -104 42t-39 106q0 65 34 113.5t87.5 76t114.5 27.5q54 0 89 0.5t61 3t53 8.5q11 -12 11 -31q0 -15 -10 -31.5t-40 -16.5q-21 0 -41.5 7.5 t-40.5 13.5l-1 -2q29 -16 47 -43t18 -71q0 -54 -22.5 -92.5t-55.5 -65.5t-66 -46.5t-55.5 -34.5t-22.5 -30q0 -12 16.5 -22t38.5 -20q32 -16 61.5 -34.5t48 -42.5t18.5 -57q0 -42 -33.5 -78.5t-92 -58.5t-134.5 -22zM326 363q0 37 -13 59.5t-40 22.5q-28 0 -52 -25.5 t-38.5 -64t-14.5 -75.5q0 -39 15 -61.5t42 -22.5q30 0 53 26t35.5 64.5t12.5 76.5z" />
<glyph unicode="&#x11e;" horiz-adv-x="655" d="M568 914l50 4q-20 -61 -66.5 -100t-108.5 -39q-55 0 -85.5 34.5t-23.5 94.5l51 7q3 -25 25 -40t56 -15q33 0 61 15.5t41 38.5zM590 313l10 -13l-58 -265q-44 -21 -100.5 -33t-112.5 -12q-126 0 -192.5 63.5t-66.5 188.5q0 88 31 169.5t87 146t131 102.5t163 38 q44 0 91.5 -10.5t81.5 -31.5l-43 -106q-62 49 -146 49q-61 0 -110 -29t-84 -77.5t-53.5 -108.5t-18.5 -121q0 -86 39.5 -131.5t122.5 -45.5q35 0 77 8l4 18q9 42 14 71t8.5 56.5t6.5 63.5z" />
<glyph unicode="&#x11f;" horiz-adv-x="482" d="M435 749l50 3q-22 -73 -70.5 -118.5t-109.5 -45.5q-56 0 -84.5 41.5t-19.5 112.5l51 7q1 -37 21.5 -58.5t53.5 -21.5t62.5 22.5t45.5 57.5zM139 -258q-94 0 -146 35.5t-52 86.5q0 40 31 68.5t75 46.5l26 -25q-10 -13 -16.5 -26.5t-6.5 -27.5q0 -42 29.5 -69.5t82.5 -27.5 q51 0 84 23.5t33 54.5q0 26 -25 44.5t-65 37.5q-34 17 -60 34t-26 46q0 24 19 43t46 32.5t52 21.5v3q-12 -1 -21 0q-65 3 -104 42t-39 106q0 65 34 113.5t87.5 76t114.5 27.5q54 0 89 0.5t61 3t53 8.5q11 -12 11 -31q0 -15 -10 -31.5t-40 -16.5q-21 0 -41.5 7.5t-40.5 13.5 l-1 -2q29 -16 47 -43t18 -71q0 -54 -22.5 -92.5t-55.5 -65.5t-66 -46.5t-55.5 -34.5t-22.5 -30q0 -12 16.5 -22t38.5 -20q32 -16 61.5 -34.5t48 -42.5t18.5 -57q0 -42 -33.5 -78.5t-92 -58.5t-134.5 -22zM326 363q0 37 -13 59.5t-40 22.5q-28 0 -52 -25.5t-38.5 -64 t-14.5 -75.5q0 -39 15 -61.5t42 -22.5q30 0 53 26t35.5 64.5t12.5 76.5z" />
<glyph unicode="&#x120;" horiz-adv-x="655" d="M555 874q0 -24 -14 -45t-37 -34t-49 -13t-42 14t-16 36q0 23 15 43t38.5 33t48.5 13t40.5 -13t15.5 -34zM590 313l10 -13l-58 -265q-44 -21 -100.5 -33t-112.5 -12q-126 0 -192.5 63.5t-66.5 188.5q0 88 31 169.5t87 146t131 102.5t163 38q44 0 91.5 -10.5t81.5 -31.5 l-43 -106q-62 49 -146 49q-61 0 -110 -29t-84 -77.5t-53.5 -108.5t-18.5 -121q0 -86 39.5 -131.5t122.5 -45.5q35 0 77 8l4 18q9 42 14 71t8.5 56.5t6.5 63.5z" />
<glyph unicode="&#x121;" horiz-adv-x="482" d="M406 690q0 -26 -14 -49t-37 -37.5t-49 -14.5q-27 0 -42 15.5t-15 38.5q0 24 15 46.5t38 37t50 14.5q25 0 39.5 -14t14.5 -37zM139 -258q-94 0 -146 35.5t-52 86.5q0 40 31 68.5t75 46.5l26 -25q-10 -13 -16.5 -26.5t-6.5 -27.5q0 -42 29.5 -69.5t82.5 -27.5q51 0 84 23.5 t33 54.5q0 26 -25 44.5t-65 37.5q-34 17 -60 34t-26 46q0 24 19 43t46 32.5t52 21.5v3q-12 -1 -21 0q-65 3 -104 42t-39 106q0 65 34 113.5t87.5 76t114.5 27.5q54 0 89 0.5t61 3t53 8.5q11 -12 11 -31q0 -15 -10 -31.5t-40 -16.5q-21 0 -41.5 7.5t-40.5 13.5l-1 -2 q29 -16 47 -43t18 -71q0 -54 -22.5 -92.5t-55.5 -65.5t-66 -46.5t-55.5 -34.5t-22.5 -30q0 -12 16.5 -22t38.5 -20q32 -16 61.5 -34.5t48 -42.5t18.5 -57q0 -42 -33.5 -78.5t-92 -58.5t-134.5 -22zM326 363q0 37 -13 59.5t-40 22.5q-28 0 -52 -25.5t-38.5 -64t-14.5 -75.5 q0 -39 15 -61.5t42 -22.5q30 0 53 26t35.5 64.5t12.5 76.5z" />
<glyph unicode="&#x122;" horiz-adv-x="655" d="M590 313l10 -13l-58 -265q-44 -21 -100.5 -33t-112.5 -12q-126 0 -192.5 63.5t-66.5 188.5q0 88 31 169.5t87 146t131 102.5t163 38q44 0 91.5 -10.5t81.5 -31.5l-43 -106q-62 49 -146 49q-61 0 -110 -29t-84 -77.5t-53.5 -108.5t-18.5 -121q0 -86 39.5 -131.5 t122.5 -45.5q35 0 77 8l4 18q9 42 14 71t8.5 56.5t6.5 63.5zM214 -317q20 21 38.5 45.5t31.5 49.5q-21 2 -32 18t-7 39q4 27 27.5 51t55.5 24q26 0 41 -17t9 -51q-5 -35 -27 -70t-51 -66t-55 -53z" />
<glyph unicode="&#x123;" horiz-adv-x="482" d="M472 799q-20 -21 -38.5 -45.5t-31.5 -49.5q21 -2 32 -18t7 -39q-4 -28 -27.5 -51.5t-56.5 -23.5q-25 0 -40 17t-9 51q5 35 27 70t51 65.5t55 53.5zM139 -258q-94 0 -146 35.5t-52 86.5q0 40 31 68.5t75 46.5l26 -25q-10 -13 -16.5 -26.5t-6.5 -27.5q0 -42 29.5 -69.5 t82.5 -27.5q51 0 84 23.5t33 54.5q0 26 -25 44.5t-65 37.5q-34 17 -60 34t-26 46q0 24 19 43t46 32.5t52 21.5v3q-12 -1 -21 0q-65 3 -104 42t-39 106q0 65 34 113.5t87.5 76t114.5 27.5q54 0 89 0.5t61 3t53 8.5q11 -12 11 -31q0 -15 -10 -31.5t-40 -16.5q-21 0 -41.5 7.5 t-40.5 13.5l-1 -2q29 -16 47 -43t18 -71q0 -54 -22.5 -92.5t-55.5 -65.5t-66 -46.5t-55.5 -34.5t-22.5 -30q0 -12 16.5 -22t38.5 -20q32 -16 61.5 -34.5t48 -42.5t18.5 -57q0 -42 -33.5 -78.5t-92 -58.5t-134.5 -22zM326 363q0 37 -13 59.5t-40 22.5q-28 0 -52 -25.5 t-38.5 -64t-14.5 -75.5q0 -39 15 -61.5t42 -22.5q30 0 53 26t35.5 64.5t12.5 76.5z" />
<glyph unicode="&#x124;" horiz-adv-x="726" d="M345 771l-25 28q42 33 76 61.5t67 58.5l87 8q20 -31 44 -64t52 -64l-39 -28q-32 17 -61 36.5t-56 39.5q-34 -20 -70.5 -39.5t-74.5 -36.5zM173 0h-123l110 518q10 48 17 90t10 80l121 10l10 -14l-63 -298h283l28 132q10 48 17 90t10 80l121 10l10 -14l-145 -684h-123 l63 297h-283z" />
<glyph unicode="&#x125;" horiz-adv-x="568" d="M136 823l-26 28q43 32 77 60.5t67 59.5l86 7q20 -31 44.5 -63.5t51.5 -63.5l-38 -28q-32 16 -61.5 36t-55.5 39q-35 -20 -71.5 -39.5t-73.5 -35.5zM166 0h-119q0 36 5.5 82.5t18.5 117.5t37 180l49 229l8 139l128 10q0 -51 -10 -114t-25 -133.5t-32 -142.5h3 q38 73 91 106.5t101 33.5q46 0 71 -26.5t25 -74.5q0 -13 -1.5 -26t-5.5 -35t-12.5 -61t-22.5 -105q-11 -52 -15 -92.5t-4 -87.5h-119q0 71 12 135.5t23 113.5q10 47 14 70.5t4 38.5q0 49 -42 49q-37 0 -69 -34t-57 -92t-39.5 -131t-16.5 -150z" />
<glyph unicode="&#x126;" horiz-adv-x="726" d="M173 0h-123l105 493h-74l13 64h74q7 36 12 68.5t7 62.5l121 10l10 -14l-27 -127h283q7 36 12 68.5t7 62.5l121 10l10 -14l-26 -127h73l-13 -64h-74l-105 -493h-123l63 297h-283zM255 386h283l23 107h-283z" />
<glyph unicode="&#x127;" horiz-adv-x="568" d="M166 0h-119q0 36 5.5 82.5t18.5 117.5t37 180l41 195h-68l13 64h64l7 109l128 10q0 -27 -3 -57t-8 -62h187l-13 -64h-185q-9 -50 -21 -102t-24 -105h3q38 73 91 106.5t101 33.5q46 0 71 -26.5t25 -74.5q0 -13 -1.5 -26t-5.5 -35t-12.5 -61t-22.5 -105q-11 -52 -15 -92.5 t-4 -87.5h-119q0 71 12 135.5t23 113.5q10 47 14 70.5t4 38.5q0 49 -42 49q-37 0 -69 -34t-57 -92t-39.5 -131t-16.5 -150z" />
<glyph unicode="&#x128;" horiz-adv-x="320" d="M234 920q24 0 41.5 -8.5t32.5 -19.5t30 -20t34 -9q22 0 39 14t34 36l31 -6q-8 -30 -25.5 -59t-43 -47.5t-57.5 -18.5q-30 0 -53 14t-44 28t-45 14q-19 0 -36.5 -13t-34.5 -36l-31 6q7 28 24 57t43 48.5t61 19.5zM173 0h-123l110 518q10 48 17 90t10 80l121 10l10 -14z " />
<glyph unicode="&#x129;" horiz-adv-x="275" d="M171 742q24 0 41 -14.5t31.5 -28.5t30.5 -14q14 0 28 13t27 36l30 -5q-7 -31 -22 -62.5t-37 -53t-50 -21.5q-22 0 -40.5 14.5t-34 28.5t-28.5 14q-15 0 -28.5 -13t-26.5 -36l-31 5q8 31 23.5 63t37.5 53t49 21zM166 0h-119q0 54 9.5 121t27.5 146l20 92l8 139l128 10 q0 -53 -11 -116t-26 -130.5t-26 -134.5t-11 -127z" />
<glyph unicode="&#x12a;" horiz-adv-x="320" d="M143 812l15 72h279l-15 -72h-279zM173 0h-123l110 518q10 48 17 90t10 80l121 10l10 -14z" />
<glyph unicode="&#x12b;" horiz-adv-x="275" d="M79 630l13 69h238l-13 -69h-238zM166 0h-119q0 54 9.5 121t27.5 146l20 92l8 139l128 10q0 -53 -11 -116t-26 -130.5t-26 -134.5t-11 -127z" />
<glyph unicode="&#x12c;" horiz-adv-x="320" d="M383 914l50 4q-21 -61 -67.5 -100t-108.5 -39q-55 0 -85 34.5t-23 94.5l50 7q4 -25 26 -40t55 -15t61 15.5t42 38.5zM173 0h-123l110 518q10 48 17 90t10 80l121 10l10 -14z" />
<glyph unicode="&#x12d;" horiz-adv-x="275" d="M287 743l50 4q-22 -73 -65.5 -119t-98.5 -46q-48 0 -72.5 41.5t-13.5 113.5l50 7q-2 -38 13.5 -59.5t45.5 -21.5q29 0 53.5 22.5t37.5 57.5zM166 0h-119q0 54 9.5 121t27.5 146l20 92l8 139l128 10q0 -53 -11 -116t-26 -130.5t-26 -134.5t-11 -127z" />
<glyph unicode="&#x12e;" horiz-adv-x="320" d="M173 0q-44 -30 -70.5 -65t-26.5 -67q0 -37 40 -37q10 0 24.5 2.5t33.5 9.5l8 -43q-26 -19 -59 -31t-64 -12q-40 0 -64.5 20t-24.5 57q0 44 34 88t93 78h-47l110 518q10 48 17 90t10 80l121 10l10 -14z" />
<glyph unicode="&#x12f;" horiz-adv-x="275" d="M288 690q0 -26 -14.5 -49t-37.5 -37.5t-48 -14.5q-27 0 -42 15.5t-15 38.5q0 24 14.5 46.5t38 37t49.5 14.5t40.5 -14t14.5 -37zM166 0q-41 -34 -65 -68.5t-24 -63.5q0 -17 9.5 -27t30.5 -10q10 0 24.5 2.5t33.5 9.5l8 -43q-26 -19 -59 -31t-64 -12q-40 0 -64.5 20.5 t-24.5 56.5q0 42 32.5 85.5t89.5 80.5h-46q0 54 9.5 121t27.5 146l20 92l8 139l128 10q0 -53 -11 -116t-26 -130.5t-26 -134.5t-11 -127z" />
<glyph unicode="&#x130;" horiz-adv-x="320" d="M369 874q0 -24 -14 -45t-36.5 -34t-48.5 -13q-27 0 -42.5 14t-15.5 36q0 23 14.5 43t38 33t49.5 13q25 0 40 -13t15 -34zM173 0h-123l110 518q10 48 17 90t10 80l121 10l10 -14z" />
<glyph unicode="&#x131;" horiz-adv-x="275" d="M166 0h-119q0 54 9.5 121t27.5 146l20 92l8 139l128 10q0 -53 -11 -116t-26 -130.5t-26 -134.5t-11 -127z" />
<glyph unicode="&#x132;" horiz-adv-x="626" d="M173 0h-123l110 518q10 48 17 90t10 80l121 10l10 -14zM270 -193l-25 46q47 41 81 100t52 145l89 420q8 40 14 78.5t9 86.5l125 15l10 -13l-124 -587q-16 -74 -42.5 -127.5t-71.5 -93t-117 -70.5z" />
<glyph unicode="&#x133;" horiz-adv-x="533" d="M288 690q0 -26 -14.5 -49t-37.5 -37.5t-48 -14.5q-27 0 -42 15.5t-15 38.5q0 24 14.5 46.5t38 37t49.5 14.5t40.5 -14t14.5 -37zM551 690q0 -26 -14.5 -49t-37.5 -37.5t-49 -14.5q-27 0 -41.5 15.5t-14.5 38.5q0 24 14.5 46.5t38 37t49.5 14.5q25 0 40 -14t15 -37zM166 0 h-119q0 54 9.5 121t27.5 146l20 92l8 139l128 10q0 -53 -11 -116t-26 -130.5t-26 -134.5t-11 -127zM227 -258l-39 43q42 47 68 99t41 122l74 353l8 139l129 10q0 -64 -23 -175.5t-62 -293.5q-15 -71 -37.5 -125.5t-60 -96t-98.5 -75.5z" />
<glyph unicode="&#x134;" horiz-adv-x="306" d="M137 765l-26 29q42 32 76 60.5t67 58.5l87 8q20 -31 44 -63.5t52 -63.5l-39 -29q-32 17 -61 37t-56 39q-34 -20 -70.5 -39.5t-73.5 -36.5zM-50 -193l-25 46q47 41 81 100t52 145l89 420q8 40 14 78.5t9 86.5l125 15l10 -13l-124 -587q-16 -74 -42 -127.5t-71.5 -93 t-117.5 -70.5z" />
<glyph unicode="&#x135;" horiz-adv-x="258" d="M98 572l-37 18q28 42 53.5 85.5t44.5 80.5l116 8q5 -41 12.5 -86t17.5 -88l-44 -18q-18 25 -33 52.5t-28 56.5q-24 -28 -49 -56.5t-53 -52.5zM-48 -258l-39 43q42 47 68 99t41 122l75 353l8 139l128 10q0 -64 -23 -175.5t-62 -293.5q-15 -71 -37.5 -125.5t-60 -96 t-98.5 -75.5z" />
<glyph unicode="&#x136;" horiz-adv-x="639" d="M160 518q9 46 16 86t11 84l120 10l11 -14l-66 -311h81q58 74 122.5 159t125.5 166l109 -11l5 -13l-266 -319l146 -355l-140 -7q-32 69 -62 143t-58 147h-83l-60 -283h-122zM155 -317q20 21 38.5 45.5t31.5 49.5q-21 2 -31.5 18t-7.5 39q4 27 27.5 51t56.5 24q25 0 40 -17 t10 -51q-5 -35 -27.5 -70t-51.5 -66t-55 -53z" />
<glyph unicode="&#x137;" horiz-adv-x="537" d="M524 419q0 -41 -24.5 -79t-62.5 -68.5t-77 -51.5q24 -51 58 -110.5t72 -109.5h-149q-26 41 -51 94t-44 111q69 49 113.5 95.5t44.5 88.5q0 38 -35 38q-28 0 -56 -25t-53.5 -68t-46 -98t-33 -115.5t-14.5 -120.5h-119q0 36 5.5 82.5t18.5 117.5t37 180l49 229l8 139 l128 10q0 -52 -11 -120t-28 -144.5t-34 -153.5h2q40 84 95.5 126t111.5 42q47 0 71 -25.5t24 -63.5zM120 -317q20 21 38.5 45.5t31.5 49.5q-21 2 -32 18t-7 39q4 27 27.5 51t56.5 24q25 0 40 -17t9 -51q-5 -35 -27 -70t-51 -66t-55 -53z" />
<glyph unicode="&#x138;" horiz-adv-x="537" d="M341 0q-37 52 -64 114t-40 118q-31 -53 -51 -113.5t-20 -118.5h-119q0 54 9.5 121t27.5 146l20 92l8 139l128 10q0 -61 -15 -135t-30 -151h3q54 135 122.5 210.5t144.5 75.5q30 0 58 -8t43 -18l-68 -112q-17 9 -36.5 14.5t-37.5 5.5q-23 0 -49.5 -14t-52.5 -37 q23 -79 65.5 -168t102.5 -171h-149z" />
<glyph unicode="&#x139;" horiz-adv-x="519" d="M540 864l-10 -20q-68 -32 -137.5 -48.5t-142.5 -21.5l-3 31q61 28 121 58.5t112 65.5zM470 96l-20 -96h-400l111 519q9 48 16 89.5t10 79.5l121 10l10 -14l-126 -595z" />
<glyph unicode="&#x13a;" horiz-adv-x="273" d="M435 912l-10 -20q-68 -32 -137.5 -48t-142.5 -21l-3 30q61 28 121 59t112 65zM166 0h-119q0 36 5.5 82.5t18.5 117.5t37 180l49 229l8 139l128 10q0 -57 -13 -132t-32 -159t-37.5 -168.5t-31.5 -161.5t-13 -137z" />
<glyph unicode="&#x13b;" horiz-adv-x="519" d="M470 96l-20 -96h-400l111 519q9 48 16 89.5t10 79.5l121 10l10 -14l-126 -595zM97 -317q20 21 38.5 45.5t31.5 49.5q-21 2 -32 18t-7 39q4 27 27.5 51t56.5 24q25 0 40 -17t9 -51q-5 -35 -27 -70t-51 -66t-55 -53z" />
<glyph unicode="&#x13c;" horiz-adv-x="273" d="M166 0h-119q0 36 5.5 82.5t18.5 117.5t37 180l49 229l8 139l128 10q0 -57 -13 -132t-32 -159t-37.5 -168.5t-31.5 -161.5t-13 -137zM-15 -317q19 21 38 45.5t31 49.5q-20 2 -31 18t-8 39q4 27 28 51t56 24q25 0 40.5 -17t9.5 -51q-5 -35 -27 -70t-51 -66t-55 -53z" />
<glyph unicode="&#x13d;" horiz-adv-x="519" d="M568 760l4 -19q-30 -62 -66 -113.5t-75 -97.5l-39 3q24 58 44 114t36 111zM470 96l-20 -96h-400l111 519q9 48 16 89.5t10 79.5l121 10l10 -14l-126 -595z" />
<glyph unicode="&#x13e;" horiz-adv-x="273" d="M513 773l5 -20q-31 -62 -66.5 -113.5t-74.5 -97.5l-40 3q24 58 44.5 114t35.5 111zM166 0h-119q0 36 5.5 82.5t18.5 117.5t37 180l49 229l8 139l128 10q0 -57 -13 -132t-32 -159t-37.5 -168.5t-31.5 -161.5t-13 -137z" />
<glyph unicode="&#x13f;" horiz-adv-x="600" d="M470 96l-20 -96h-400l111 519q9 48 16 89.5t10 79.5l121 10l10 -14l-126 -595zM508 388q0 -26 -14.5 -49t-38 -37.5t-49.5 -14.5q-27 0 -43 15.5t-16 38.5q0 25 15 48t39.5 37.5t50.5 14.5q25 0 40.5 -14.5t15.5 -38.5z" />
<glyph unicode="&#x140;" horiz-adv-x="474" d="M166 0h-119q0 36 5.5 82.5t18.5 117.5t37 180l49 229l8 139l128 10q0 -57 -13 -132t-32 -159t-37.5 -168.5t-31.5 -161.5t-13 -137zM438 343q0 -25 -14.5 -48.5t-38 -38t-49.5 -14.5q-27 0 -43 15.5t-16 39.5q0 25 15 47.5t39.5 37t50.5 14.5q25 0 40.5 -14.5t15.5 -38.5 z" />
<glyph unicode="&#x141;" horiz-adv-x="519" d="M470 96l-20 -96h-400l59 276l-111 -55l-18 55l144 71l37 172q9 48 16 89.5t10 79.5l121 10l10 -14l-57 -269l117 58l19 -54l-151 -75l-54 -255z" />
<glyph unicode="&#x142;" horiz-adv-x="273" d="M166 0h-119q0 34 5 78t17 109.5t33 164.5l-116 -57l-18 54l149 74l40 186l8 139l128 10q0 -53 -11.5 -122t-27.5 -145l112 56l19 -55l-147 -72q-17 -77 -33.5 -152.5t-27.5 -144.5t-11 -123z" />
<glyph unicode="&#x143;" horiz-adv-x="730" d="M632 864l-11 -20q-67 -32 -137 -48.5t-143 -21.5l-3 31q62 28 121.5 58.5t111.5 65.5zM421 416q28 -73 49 -133.5t36 -128.5h2q4 31 8 58t10 61t16 84.5t27 128.5q24 112 34 202l114 9l11 -14l-145 -683h-119q-30 76 -56 145.5t-51 132.5q-29 73 -49.5 130.5t-36.5 120.5 h-2q-7 -64 -16.5 -118.5t-21.5 -107.5l-64 -303h-117l111 523q9 44 16 85.5t10 79.5l127 8q30 -79 56 -147.5t51 -132.5z" />
<glyph unicode="&#x144;" horiz-adv-x="568" d="M472 753l3 -20q-42 -49 -90 -88.5t-103 -73.5l-42 11q35 44 68.5 90.5t58.5 91.5zM166 0h-119q0 47 6.5 99t19 115t31.5 145l8 139l128 10q0 -30 -4.5 -66t-10.5 -74h2q39 74 92 107t102 33q46 0 71 -26.5t25 -69.5q0 -32 -10.5 -83t-23.5 -113q-11 -49 -16.5 -83.5 t-8 -64.5t-2.5 -68h-119q0 54 7.5 103t21.5 120q10 50 16 81.5t6 51.5q0 24 -9.5 37.5t-31.5 13.5q-35 0 -67 -33.5t-57 -91t-40 -130.5t-17 -152z" />
<glyph unicode="&#x145;" horiz-adv-x="730" d="M421 416q28 -73 49 -133.5t36 -128.5h2q4 31 8 58t10 61t16 84.5t27 128.5q24 112 34 202l114 9l11 -14l-145 -683h-119q-30 76 -56 145.5t-51 132.5q-29 73 -49.5 130.5t-36.5 120.5h-2q-7 -64 -16.5 -118.5t-21.5 -107.5l-64 -303h-117l111 523q9 44 16 85.5t10 79.5 l127 8q30 -79 56 -147.5t51 -132.5zM192 -317q20 21 38.5 45.5t31.5 49.5q-21 2 -32 18t-7 39q4 27 27.5 51t56.5 24q25 0 40 -17t9 -51q-5 -35 -27 -70t-51 -66t-55 -53z" />
<glyph unicode="&#x146;" horiz-adv-x="568" d="M166 0h-119q0 47 6.5 99t19 115t31.5 145l8 139l128 10q0 -30 -4.5 -66t-10.5 -74h2q39 74 92 107t102 33q46 0 71 -26.5t25 -69.5q0 -32 -10.5 -83t-23.5 -113q-11 -49 -16.5 -83.5t-8 -64.5t-2.5 -68h-119q0 54 7.5 103t21.5 120q10 50 16 81.5t6 51.5q0 24 -9.5 37.5 t-31.5 13.5q-35 0 -67 -33.5t-57 -91t-40 -130.5t-17 -152zM128 -317q20 21 38.5 45.5t31.5 49.5q-21 2 -31.5 18t-7.5 39q4 27 27.5 51t56.5 24q25 0 40 -17t10 -51q-5 -35 -27.5 -70t-51.5 -66t-55 -53z" />
<glyph unicode="&#x147;" horiz-adv-x="730" d="M622 929l26 -28q-43 -33 -77 -61.5t-67 -58.5l-86 -8q-20 32 -44.5 64.5t-51.5 63.5l38 28q32 -16 61.5 -36t55.5 -39q35 19 71.5 39t73.5 36zM421 416q28 -73 49 -133.5t36 -128.5h2q4 31 8 58t10 61t16 84.5t27 128.5q24 112 34 202l114 9l11 -14l-145 -683h-119 q-30 76 -56 145.5t-51 132.5q-29 73 -49.5 130.5t-36.5 120.5h-2q-7 -64 -16.5 -118.5t-21.5 -107.5l-64 -303h-117l111 523q9 44 16 85.5t10 79.5l127 8q30 -79 56 -147.5t51 -132.5z" />
<glyph unicode="&#x148;" horiz-adv-x="568" d="M492 769l32 -27q-37 -39 -73.5 -79t-69.5 -81l-86 -8q-17 43 -36 84t-42 84l44 27q28 -25 51 -52.5t44 -54.5q32 28 66.5 55.5t69.5 51.5zM166 0h-119q0 47 6.5 99t19 115t31.5 145l8 139l128 10q0 -30 -4.5 -66t-10.5 -74h2q39 74 92 107t102 33q46 0 71 -26.5t25 -69.5 q0 -32 -10.5 -83t-23.5 -113q-11 -49 -16.5 -83.5t-8 -64.5t-2.5 -68h-119q0 54 7.5 103t21.5 120q10 50 16 81.5t6 51.5q0 24 -9.5 37.5t-31.5 13.5q-35 0 -67 -33.5t-57 -91t-40 -130.5t-17 -152z" />
<glyph unicode="&#x14a;" horiz-adv-x="729" d="M373 -193l-26 46q39 32 68 67t45 89q-29 72 -54 140t-50 129q-19 48 -34 86.5t-27.5 75.5t-23.5 81h-3q-6 -61 -15.5 -113t-21.5 -105l-64 -303h-117l111 523q9 46 15.5 85t10.5 80l127 8q30 -83 56.5 -151.5t49.5 -128.5q28 -70 50 -130.5t36 -124.5h2q4 29 7.5 55 t9.5 59t16.5 83t26.5 128q13 61 21 108t14 94l114 9l11 -14l-125 -585q-16 -76 -43 -129.5t-72 -92.5t-115 -69z" />
<glyph unicode="&#x14b;" horiz-adv-x="555" d="M166 0h-119q0 39 5 85.5t17.5 112t34.5 161.5l8 139l128 10q0 -30 -4.5 -66t-10.5 -74h2q39 74 92 107t101 33q59 0 82.5 -42.5t8.5 -115.5l-42 -199q-18 -87 -35 -146.5t-38 -100.5t-51.5 -72t-76.5 -62l-39 43q33 47 57 99t39 122l48 227q3 11 6 26q11 58 6.5 89 t-38.5 31q-36 0 -68 -34.5t-57 -92.5t-39.5 -130.5t-16.5 -149.5z" />
<glyph unicode="&#x14c;" horiz-adv-x="698" d="M327 812l15 72h278l-14 -72h-279zM667 442q0 -84 -27.5 -164.5t-77 -145.5t-118.5 -103.5t-151 -38.5q-103 0 -162.5 65t-59.5 188q0 84 27.5 165t77.5 146.5t118 104.5t150 39q104 0 163.5 -66.5t59.5 -189.5zM198 246q0 -76 28.5 -119.5t87.5 -43.5q53 0 95 33t71 87 t44.5 117t15.5 122q0 76 -27.5 119.5t-86.5 43.5q-53 0 -95.5 -33.5t-72 -87.5t-45 -117t-15.5 -121z" />
<glyph unicode="&#x14d;" horiz-adv-x="538" d="M200 630l14 69h283l-14 -69h-283zM497 325q0 -62 -21.5 -122t-60 -108t-91 -76.5t-115.5 -28.5q-74 0 -120 44.5t-46 136.5q0 62 21.5 122t60.5 108.5t91.5 77.5t114.5 29q77 0 121.5 -46.5t44.5 -136.5zM167 162q0 -48 14.5 -74t48.5 -26t61 27.5t45 70t27.5 89.5 t9.5 87q0 100 -63 100q-35 0 -61.5 -27t-45 -69.5t-27.5 -89.5t-9 -88z" />
<glyph unicode="&#x14e;" horiz-adv-x="698" d="M567 914l49 4q-20 -61 -66.5 -100t-108.5 -39q-55 0 -85 34.5t-23 94.5l50 7q4 -25 25.5 -40t55.5 -15q33 0 61 15.5t42 38.5zM667 442q0 -84 -27.5 -164.5t-77 -145.5t-118.5 -103.5t-151 -38.5q-103 0 -162.5 65t-59.5 188q0 84 27.5 165t77.5 146.5t118 104.5t150 39 q104 0 163.5 -66.5t59.5 -189.5zM198 246q0 -76 28.5 -119.5t87.5 -43.5q53 0 95 33t71 87t44.5 117t15.5 122q0 76 -27.5 119.5t-86.5 43.5q-53 0 -95.5 -33.5t-72 -87.5t-45 -117t-15.5 -121z" />
<glyph unicode="&#x14f;" horiz-adv-x="538" d="M456 749l50 3q-23 -73 -71.5 -118.5t-108.5 -45.5q-56 0 -84.5 41.5t-19.5 112.5l51 7q1 -37 21 -58.5t54 -21.5q33 0 62.5 22.5t45.5 57.5zM497 325q0 -62 -21.5 -122t-60 -108t-91 -76.5t-115.5 -28.5q-74 0 -120 44.5t-46 136.5q0 62 21.5 122t60.5 108.5t91.5 77.5 t114.5 29q77 0 121.5 -46.5t44.5 -136.5zM167 162q0 -48 14.5 -74t48.5 -26t61 27.5t45 70t27.5 89.5t9.5 87q0 100 -63 100q-35 0 -61.5 -27t-45 -69.5t-27.5 -89.5t-9 -88z" />
<glyph unicode="&#x150;" horiz-adv-x="698" d="M482 866l-10 -20q-56 -34 -113 -50.5t-113 -21.5l-3 31q50 28 99.5 58.5t93.5 65.5zM707 866l-10 -20q-56 -34 -112.5 -50.5t-113.5 -21.5l-3 31q51 28 100.5 58.5t92.5 65.5zM667 442q0 -84 -27.5 -164.5t-77 -145.5t-118.5 -103.5t-151 -38.5q-103 0 -162.5 65 t-59.5 188q0 84 27.5 165t77.5 146.5t118 104.5t150 39q104 0 163.5 -66.5t59.5 -189.5zM198 246q0 -76 28.5 -119.5t87.5 -43.5q53 0 95 33t71 87t44.5 117t15.5 122q0 76 -27.5 119.5t-86.5 43.5q-53 0 -95.5 -33.5t-72 -87.5t-45 -117t-15.5 -121z" />
<glyph unicode="&#x151;" horiz-adv-x="538" d="M395 756l2 -21q-75 -94 -172 -163l-42 11q35 44 68 90t59 93zM553 756l3 -21q-38 -48 -81 -88.5t-91 -74.5l-42 11q35 44 68 90t59 93zM497 325q0 -62 -21.5 -122t-60 -108t-91 -76.5t-115.5 -28.5q-74 0 -120 44.5t-46 136.5q0 62 21.5 122t60.5 108.5t91.5 77.5 t114.5 29q77 0 121.5 -46.5t44.5 -136.5zM167 162q0 -48 14.5 -74t48.5 -26t61 27.5t45 70t27.5 89.5t9.5 87q0 100 -63 100q-35 0 -61.5 -27t-45 -69.5t-27.5 -89.5t-9 -88z" />
<glyph unicode="&#x152;" horiz-adv-x="951" d="M672 456q0 -38 -5 -74l215 3l-22 -89l-210 5q-19 -63 -51.5 -116.5t-74.5 -94.5l353 6l-20 -96h-490q-39 -10 -78 -10q-101 0 -161 62t-60 176q0 93 31 178t85 150.5t123.5 103.5t147.5 38q39 0 73 -10h454l11 -14l-21 -82l-332 5q32 -58 32 -141zM198 240 q0 -71 29.5 -114t88.5 -43q46 0 87.5 30t73.5 81.5t50.5 118.5t18.5 141q0 68 -28 109.5t-87 41.5q-46 0 -88 -29.5t-75 -81t-51.5 -117t-18.5 -137.5z" />
<glyph unicode="&#x153;" horiz-adv-x="800" d="M713 133l18 -47q-38 -46 -92.5 -71t-109.5 -25q-47 0 -85 18.5t-60 55.5q-36 -34 -80 -54t-95 -20q-74 0 -120 44.5t-46 136.5q0 62 21.5 122t60.5 108.5t91.5 77.5t114.5 29q98 0 138 -75q37 34 82 54.5t95 20.5q63 0 102 -32t39 -87q0 -70 -74 -120.5t-232 -60.5 q-1 -12 -1 -24q0 -50 24 -81.5t72 -31.5q35 0 70.5 17.5t66.5 44.5zM627 438q-34 0 -62.5 -29t-48.5 -73t-29 -88q103 12 146 52t43 86q0 26 -13 39t-36 13zM167 162q0 -48 14.5 -74t48.5 -26t61 27.5t45 70t27.5 89.5t9.5 87q0 100 -63 100q-35 0 -61.5 -27t-45 -69.5 t-27.5 -89.5t-9 -88z" />
<glyph unicode="&#x154;" horiz-adv-x="616" d="M589 864l-11 -20q-67 -32 -137 -48.5t-143 -21.5l-3 31q62 28 121.5 58.5t111.5 65.5zM173 0h-123l111 523q10 44 16.5 83.5t9.5 81.5h194q109 0 167 -44t58 -124q0 -78 -46.5 -141t-130.5 -92l109 -287l-139 -11q-22 64 -43 130.5t-40 133.5h-90zM356 602h-55l-57 -266 h51q85 0 134 46t49 119q0 46 -27.5 73.5t-94.5 27.5z" />
<glyph unicode="&#x155;" horiz-adv-x="403" d="M408 753l3 -20q-42 -49 -90 -88.5t-103 -73.5l-42 11q35 44 68.5 90.5t58.5 91.5zM166 0h-119q0 54 9.5 121t27.5 146l20 92l8 139l128 10q0 -40 -7 -86t-17 -95h2q36 100 80 140.5t85 40.5q21 0 39.5 -9t27.5 -20l-59 -109q-14 6 -28 9t-26 3q-38 0 -68.5 -30.5 t-52.5 -84t-35 -122.5t-15 -145z" />
<glyph unicode="&#x156;" horiz-adv-x="616" d="M173 0h-123l111 523q10 44 16.5 83.5t9.5 81.5h194q109 0 167 -44t58 -124q0 -78 -46.5 -141t-130.5 -92l109 -287l-139 -11q-22 64 -43 130.5t-40 133.5h-90zM356 602h-55l-57 -266h51q85 0 134 46t49 119q0 46 -27.5 73.5t-94.5 27.5zM132 -317q20 21 38.5 45.5 t31.5 49.5q-21 2 -32 18t-7 39q4 27 27.5 51t56.5 24q25 0 40 -17t9 -51q-5 -35 -27 -70t-51 -66t-55 -53z" />
<glyph unicode="&#x157;" horiz-adv-x="403" d="M166 0h-119q0 54 9.5 121t27.5 146l20 92l8 139l128 10q0 -40 -7 -86t-17 -95h2q36 100 80 140.5t85 40.5q21 0 39.5 -9t27.5 -20l-59 -109q-14 6 -28 9t-26 3q-38 0 -68.5 -30.5t-52.5 -84t-35 -122.5t-15 -145zM-20 -317q20 21 38.5 45.5t31.5 49.5q-21 2 -32 18t-7 39 q4 27 27.5 51t56.5 24q25 0 40 -17t9 -51q-5 -35 -27 -70t-51 -66t-55 -53z" />
<glyph unicode="&#x158;" horiz-adv-x="616" d="M579 929l26 -28q-43 -33 -77 -61.5t-67 -58.5l-86 -8q-20 32 -44.5 64.5t-51.5 63.5l38 28q32 -16 61.5 -36t55.5 -39q35 19 71.5 39t73.5 36zM173 0h-123l111 523q10 44 16.5 83.5t9.5 81.5h194q109 0 167 -44t58 -124q0 -78 -46.5 -141t-130.5 -92l109 -287l-139 -11 q-22 64 -43 130.5t-40 133.5h-90zM356 602h-55l-57 -266h51q85 0 134 46t49 119q0 46 -27.5 73.5t-94.5 27.5z" />
<glyph unicode="&#x159;" horiz-adv-x="403" d="M428 769l32 -27q-37 -39 -73.5 -79t-69.5 -81l-86 -8q-17 43 -36 84t-42 84l44 27q27 -25 50.5 -52.5t44.5 -54.5q32 28 66.5 55.5t69.5 51.5zM166 0h-119q0 54 9.5 121t27.5 146l20 92l8 139l128 10q0 -40 -7 -86t-17 -95h2q36 100 80 140.5t85 40.5q21 0 39.5 -9 t27.5 -20l-59 -109q-14 6 -28 9t-26 3q-38 0 -68.5 -30.5t-52.5 -84t-35 -122.5t-15 -145z" />
<glyph unicode="&#x15a;" horiz-adv-x="530" d="M540 864l-11 -20q-67 -32 -137 -48.5t-143 -21.5l-3 31q62 28 121.5 58.5t111.5 65.5zM469 206q0 -62 -36.5 -110.5t-101 -77t-149.5 -28.5q-47 0 -97.5 9.5t-80.5 27.5l31 104q23 -15 53.5 -25t61 -15t53.5 -5q61 0 98 30t37 75q0 33 -19 55.5t-46.5 39.5t-53.5 33 q-29 16 -55 37t-43 51t-17 73q0 62 38 111.5t103.5 78t150.5 28.5q45 0 86.5 -8t67.5 -21l-38 -106q-31 20 -68.5 29.5t-69.5 9.5q-61 0 -100 -29.5t-39 -74.5q0 -31 17.5 -52t45.5 -37.5t58 -35.5q26 -16 52 -38t43.5 -53t17.5 -76z" />
<glyph unicode="&#x15b;" horiz-adv-x="437" d="M399 753l3 -20q-42 -49 -90 -88.5t-103 -73.5l-42 11q35 44 68.5 90.5t58.5 91.5zM417 482l-29 -92q-28 17 -60 27t-60 10q-38 0 -62 -18t-24 -45q0 -25 19 -41t47 -30t56.5 -30.5t47.5 -42t19 -65.5q0 -49 -30 -86t-80 -58t-111 -21q-39 0 -79.5 9t-67.5 27l28 91 q33 -23 72.5 -34.5t67.5 -11.5q38 0 62 18.5t24 45.5q0 25 -19.5 41t-47.5 29.5t-56 30t-47.5 41.5t-19.5 65q0 49 31 86.5t81.5 58.5t109.5 21q30 0 64 -6.5t64 -19.5z" />
<glyph unicode="&#x15c;" horiz-adv-x="530" d="M255 771l-26 28q43 33 77 61.5t67 58.5l86 8q21 -31 45 -64t51 -64l-38 -28q-32 17 -61.5 36.5t-55.5 39.5q-35 -20 -71.5 -39.5t-73.5 -36.5zM469 206q0 -62 -36.5 -110.5t-101 -77t-149.5 -28.5q-47 0 -97.5 9.5t-80.5 27.5l31 104q23 -15 53.5 -25t61 -15t53.5 -5 q61 0 98 30t37 75q0 33 -19 55.5t-46.5 39.5t-53.5 33q-29 16 -55 37t-43 51t-17 73q0 62 38 111.5t103.5 78t150.5 28.5q45 0 86.5 -8t67.5 -21l-38 -106q-31 20 -68.5 29.5t-69.5 9.5q-61 0 -100 -29.5t-39 -74.5q0 -31 17.5 -52t45.5 -37.5t58 -35.5q26 -16 52 -38 t43.5 -53t17.5 -76z" />
<glyph unicode="&#x15d;" horiz-adv-x="437" d="M162 564l-32 27q37 38 73.5 78.5t69.5 81.5l86 8q17 -43 36 -84t42 -84l-44 -27q-27 25 -50.5 52.5t-44.5 54.5q-32 -28 -66.5 -55.5t-69.5 -51.5zM417 482l-29 -92q-28 17 -60 27t-60 10q-38 0 -62 -18t-24 -45q0 -25 19 -41t47 -30t56.5 -30.5t47.5 -42t19 -65.5 q0 -49 -30 -86t-80 -58t-111 -21q-39 0 -79.5 9t-67.5 27l28 91q33 -23 72.5 -34.5t67.5 -11.5q38 0 62 18.5t24 45.5q0 25 -19.5 41t-47.5 29.5t-56 30t-47.5 41.5t-19.5 65q0 49 31 86.5t81.5 58.5t109.5 21q30 0 64 -6.5t64 -19.5z" />
<glyph unicode="&#x15e;" horiz-adv-x="530" d="M298 -121q0 -35 -28 -61t-75.5 -40.5t-107.5 -16.5l10 43q51 7 81 23t30 40q0 15 -17 22.5t-46 8.5l-10 22l36 70q-45 1 -92 10.5t-75 26.5l31 104q23 -15 53.5 -25t61 -15t53.5 -5q61 0 98 30t37 75q0 33 -19 55.5t-46.5 39.5t-53.5 33q-29 16 -55 37t-43 51t-17 73 q0 62 38 111.5t103.5 78t150.5 28.5q45 0 86.5 -8t67.5 -21l-38 -106q-31 20 -68.5 29.5t-69.5 9.5q-61 0 -100 -29.5t-39 -74.5q0 -31 17.5 -52t45.5 -37.5t58 -35.5q26 -16 52 -38t43.5 -53t17.5 -76q0 -55 -29 -99.5t-80.5 -74.5t-121.5 -39l-26 -48q34 -4 60 -19t26 -47 z" />
<glyph unicode="&#x15f;" horiz-adv-x="437" d="M257 -121q0 -35 -27.5 -61t-75 -40.5t-107.5 -16.5l10 43q50 7 80 23t30 40q0 15 -17 22.5t-46 8.5l-9 22l36 71q-35 2 -70 10.5t-58 24.5l28 91q33 -23 72.5 -34.5t67.5 -11.5q38 0 62 18.5t24 45.5q0 25 -19.5 41t-47.5 29.5t-56 30t-47.5 41.5t-19.5 65q0 49 31 86.5 t81.5 58.5t109.5 21q30 0 64 -6.5t64 -19.5l-29 -92q-28 17 -60 27t-60 10q-38 0 -62 -18t-24 -45q0 -25 19 -41t47 -30t56.5 -30.5t47.5 -42t19 -65.5q0 -42 -23 -76t-62 -56t-88 -29l-26 -49q34 -4 59.5 -19t25.5 -47z" />
<glyph unicode="&#x160;" horiz-adv-x="530" d="M530 929l26 -28q-43 -33 -77 -61.5t-67 -58.5l-86 -8q-20 32 -44.5 64.5t-51.5 63.5l38 28q32 -16 61.5 -36t55.5 -39q35 19 71.5 39t73.5 36zM469 206q0 -62 -36.5 -110.5t-101 -77t-149.5 -28.5q-47 0 -97.5 9.5t-80.5 27.5l31 104q23 -15 53.5 -25t61 -15t53.5 -5 q61 0 98 30t37 75q0 33 -19 55.5t-46.5 39.5t-53.5 33q-29 16 -55 37t-43 51t-17 73q0 62 38 111.5t103.5 78t150.5 28.5q45 0 86.5 -8t67.5 -21l-38 -106q-31 20 -68.5 29.5t-69.5 9.5q-61 0 -100 -29.5t-39 -74.5q0 -31 17.5 -52t45.5 -37.5t58 -35.5q26 -16 52 -38 t43.5 -53t17.5 -76z" />
<glyph unicode="&#x161;" horiz-adv-x="437" d="M419 769l32 -27q-37 -39 -73.5 -79t-68.5 -81l-87 -8q-17 43 -36 84t-42 84l44 27q28 -25 51 -52.5t44 -54.5q33 28 67 55.5t69 51.5zM417 482l-29 -92q-28 17 -60 27t-60 10q-38 0 -62 -18t-24 -45q0 -25 19 -41t47 -30t56.5 -30.5t47.5 -42t19 -65.5q0 -49 -30 -86 t-80 -58t-111 -21q-39 0 -79.5 9t-67.5 27l28 91q33 -23 72.5 -34.5t67.5 -11.5q38 0 62 18.5t24 45.5q0 25 -19.5 41t-47.5 29.5t-56 30t-47.5 41.5t-19.5 65q0 49 31 86.5t81.5 58.5t109.5 21q30 0 64 -6.5t64 -19.5z" />
<glyph unicode="&#x162;" horiz-adv-x="539" d="M278 0h-35l-29 -55q34 -4 59.5 -19t25.5 -47q0 -35 -27.5 -61t-75 -40.5t-107.5 -16.5l10 43q50 7 80 23t30 40q0 15 -17 22.5t-46 8.5l-9 22l41 80h-23l126 596q-49 -1 -100 -3l-102 -4l28 99h510l-13 -99l-100 4t-100 3z" />
<glyph unicode="&#x163;" horiz-adv-x="373" d="M248 -121q0 -35 -27.5 -61t-75 -40.5t-107.5 -16.5l10 43q50 7 80 23t30 40q0 15 -17 22.5t-46 8.5l-9 22l40 77q-70 22 -70 110q0 14 2.5 31t9 49t19 91.5t33.5 158.5l-69 1l9 45l76 15l55 123l77 6l12 -14l-28 -115h136l7 -14l-17 -51l-139 2q-20 -93 -32 -149t-18 -86 t-8.5 -44.5t-2.5 -23.5q0 -30 15 -43t41 -13q20 0 41.5 7t41.5 18l-6 -76q-24 -13 -56 -23t-68 -12l-24 -45q34 -4 59.5 -19t25.5 -47z" />
<glyph unicode="&#x164;" horiz-adv-x="539" d="M534 929l26 -28q-43 -33 -76.5 -61.5t-67.5 -58.5l-86 -8q-20 32 -44.5 64.5t-51.5 63.5l38 28q33 -16 62 -36t56 -39q34 19 70.5 39t73.5 36zM278 0h-123l126 596q-49 -1 -100 -3l-102 -4l28 99h510l-13 -99l-100 4t-100 3z" />
<glyph unicode="&#x165;" horiz-adv-x="373" d="M507 768l5 -20q-31 -62 -66.5 -113.5t-74.5 -97.5l-40 3q24 58 44.5 114.5t35.5 110.5zM378 433l-139 2q-20 -93 -32 -149t-18 -86t-8.5 -44.5t-2.5 -23.5q0 -30 15 -43t41 -13q20 0 41.5 7t41.5 18l-6 -76q-25 -14 -60 -24.5t-74 -10.5q-58 0 -89.5 28.5t-31.5 88.5 q0 14 2.5 31t9 49t19 91.5t33.5 158.5l-69 1l9 45l76 15l55 123l77 6l12 -14l-28 -115h136l7 -14z" />
<glyph unicode="&#x166;" horiz-adv-x="539" d="M278 0h-123l66 312h-126l14 64h126l46 220q-49 -1 -100 -3l-102 -4l28 99h510l-13 -99l-100 4t-100 3l-46 -220h126l-14 -64h-126z" />
<glyph unicode="&#x167;" horiz-adv-x="373" d="M344 268h-141q-10 -49 -15.5 -75t-7.5 -39t-2 -22q0 -30 15 -43t41 -13q20 0 41.5 7t41.5 18l-6 -76q-25 -14 -60 -24.5t-74 -10.5q-58 0 -89.5 28.5t-31.5 88.5q0 13 2 29t8 46t18 86h-68l13 63h69q5 24 10.5 50.5t11.5 55.5l-69 1l9 45l76 15l55 123l77 6l12 -14 l-28 -115h136l7 -14l-17 -51l-139 2q-6 -30 -11.5 -55.5t-10.5 -48.5h140z" />
<glyph unicode="&#x168;" horiz-adv-x="678" d="M414 920q24 0 41.5 -8.5t32.5 -19.5t30 -20t34 -9q22 0 39 14t34 36l31 -6q-8 -30 -25.5 -59t-43 -47.5t-57.5 -18.5q-30 0 -53 14t-44 28t-45 14q-19 0 -36.5 -13t-34.5 -36l-31 6q7 28 24 57t43 48.5t61 19.5zM76 164q0 29 8 74t20.5 100.5t26 116.5t24 121t14.5 113 l124 9l9 -12q-28 -132 -46.5 -217.5t-29.5 -136.5t-16 -77.5t-6.5 -39t-1.5 -21.5q0 -54 30 -81t81 -27q61 0 107 39t62 114q23 108 38 179t24 115t13.5 71t6.5 45.5t3 39.5l130 8l-99 -466q-17 -80 -63.5 -133.5t-111.5 -80.5t-137 -27q-93 0 -151.5 45t-58.5 129z" />
<glyph unicode="&#x169;" horiz-adv-x="548" d="M287 739q30 0 51.5 -14t41 -28t42.5 -14q20 0 35.5 14t31.5 35l33 -5q-8 -33 -25.5 -64.5t-43 -52t-56.5 -20.5q-28 0 -51.5 14t-44.5 28.5t-42 14.5q-17 0 -33.5 -13.5t-32.5 -36.5l-33 6q8 31 25 62.5t42.5 52.5t59.5 21zM53 148l45 211l8 139l128 10q0 -47 -8.5 -98 t-19.5 -102t-19 -97q-10 -54 -7.5 -87t37.5 -33q32 0 59.5 28t49.5 76t37 109q8 40 14 75t9 66q2 27 2 53l125 10q-3 -49 -10.5 -95.5t-19.5 -105.5t-28 -143q-8 -38 -12.5 -77.5t-4.5 -86.5h-120q0 34 2.5 64t7.5 61h-1q-37 -71 -86.5 -103t-96.5 -32q-58 0 -82 43.5 t-9 114.5z" />
<glyph unicode="&#x16a;" horiz-adv-x="678" d="M323 812l15 72h279l-15 -72h-279zM76 164q0 29 8 74t20.5 100.5t26 116.5t24 121t14.5 113l124 9l9 -12q-28 -132 -46.5 -217.5t-29.5 -136.5t-16 -77.5t-6.5 -39t-1.5 -21.5q0 -54 30 -81t81 -27q61 0 107 39t62 114q23 108 38 179t24 115t13.5 71t6.5 45.5t3 39.5 l130 8l-99 -466q-17 -80 -63.5 -133.5t-111.5 -80.5t-137 -27q-93 0 -151.5 45t-58.5 129z" />
<glyph unicode="&#x16b;" horiz-adv-x="548" d="M189 630l14 69h284l-15 -69h-283zM53 148l45 211l8 139l128 10q0 -47 -8.5 -98t-19.5 -102t-19 -97q-10 -54 -7.5 -87t37.5 -33q32 0 59.5 28t49.5 76t37 109q8 40 14 75t9 66q2 27 2 53l125 10q-3 -49 -10.5 -95.5t-19.5 -105.5t-28 -143q-8 -38 -12.5 -77.5t-4.5 -86.5 h-120q0 34 2.5 64t7.5 61h-1q-37 -71 -86.5 -103t-96.5 -32q-58 0 -82 43.5t-9 114.5z" />
<glyph unicode="&#x16c;" horiz-adv-x="678" d="M563 914l49 4q-20 -61 -66.5 -100t-108.5 -39q-55 0 -85 34.5t-23 94.5l50 7q4 -25 25.5 -40t55.5 -15q33 0 61 15.5t42 38.5zM76 164q0 29 8 74t20.5 100.5t26 116.5t24 121t14.5 113l124 9l9 -12q-28 -132 -46.5 -217.5t-29.5 -136.5t-16 -77.5t-6.5 -39t-1.5 -21.5 q0 -54 30 -81t81 -27q61 0 107 39t62 114q23 108 38 179t24 115t13.5 71t6.5 45.5t3 39.5l130 8l-99 -466q-17 -80 -63.5 -133.5t-111.5 -80.5t-137 -27q-93 0 -151.5 45t-58.5 129z" />
<glyph unicode="&#x16d;" horiz-adv-x="548" d="M445 749l50 3q-23 -73 -71.5 -118.5t-108.5 -45.5q-56 0 -84.5 41.5t-19.5 112.5l51 7q1 -37 21 -58.5t54 -21.5q33 0 62.5 22.5t45.5 57.5zM53 148l45 211l8 139l128 10q0 -47 -8.5 -98t-19.5 -102t-19 -97q-10 -54 -7.5 -87t37.5 -33q32 0 59.5 28t49.5 76t37 109 q8 40 14 75t9 66q2 27 2 53l125 10q-3 -49 -10.5 -95.5t-19.5 -105.5t-28 -143q-8 -38 -12.5 -77.5t-4.5 -86.5h-120q0 34 2.5 64t7.5 61h-1q-37 -71 -86.5 -103t-96.5 -32q-58 0 -82 43.5t-9 114.5z" />
<glyph unicode="&#x16e;" horiz-adv-x="678" d="M580 878q0 -31 -20 -59t-51 -46t-66 -18q-37 0 -59.5 20t-22.5 51q0 30 20.5 57.5t52.5 45t67 17.5q36 0 57.5 -18.5t21.5 -49.5zM417 836q0 -16 10.5 -26.5t28.5 -10.5q26 0 46.5 21t20.5 48q0 15 -9.5 25t-26.5 10q-27 0 -48.5 -21t-21.5 -46zM76 164q0 29 8 74 t20.5 100.5t26 116.5t24 121t14.5 113l124 9l9 -12q-28 -132 -46.5 -217.5t-29.5 -136.5t-16 -77.5t-6.5 -39t-1.5 -21.5q0 -54 30 -81t81 -27q61 0 107 39t62 114q23 108 38 179t24 115t13.5 71t6.5 45.5t3 39.5l130 8l-99 -466q-17 -80 -63.5 -133.5t-111.5 -80.5 t-137 -27q-93 0 -151.5 45t-58.5 129z" />
<glyph unicode="&#x16f;" horiz-adv-x="548" d="M448 693q0 -32 -20 -60t-51 -45.5t-66 -17.5q-37 0 -59.5 20t-22.5 50t20.5 58t52.5 45.5t67 17.5q36 0 57.5 -19t21.5 -49zM286 650q0 -16 10 -26.5t28 -10.5q26 0 46.5 21.5t20.5 47.5q0 16 -9.5 25.5t-26.5 9.5q-27 0 -48 -20.5t-21 -46.5zM53 148l45 211l8 139 l128 10q0 -47 -8.5 -98t-19.5 -102t-19 -97q-10 -54 -7.5 -87t37.5 -33q32 0 59.5 28t49.5 76t37 109q8 40 14 75t9 66q2 27 2 53l125 10q-3 -49 -10.5 -95.5t-19.5 -105.5t-28 -143q-8 -38 -12.5 -77.5t-4.5 -86.5h-120q0 34 2.5 64t7.5 61h-1q-37 -71 -86.5 -103 t-96.5 -32q-58 0 -82 43.5t-9 114.5z" />
<glyph unicode="&#x170;" horiz-adv-x="678" d="M478 866l-10 -20q-56 -34 -112.5 -50.5t-113.5 -21.5l-3 31q51 28 100 58.5t93 65.5zM703 866l-10 -20q-56 -34 -112.5 -50.5t-113.5 -21.5l-3 31q51 28 100.5 58.5t92.5 65.5zM76 164q0 29 8 74t20.5 100.5t26 116.5t24 121t14.5 113l124 9l9 -12q-28 -132 -46.5 -217.5 t-29.5 -136.5t-16 -77.5t-6.5 -39t-1.5 -21.5q0 -54 30 -81t81 -27q61 0 107 39t62 114q23 108 38 179t24 115t13.5 71t6.5 45.5t3 39.5l130 8l-99 -466q-17 -80 -63.5 -133.5t-111.5 -80.5t-137 -27q-93 0 -151.5 45t-58.5 129z" />
<glyph unicode="&#x171;" horiz-adv-x="548" d="M384 756l2 -21q-75 -94 -172 -163l-42 11q35 44 68 90t59 93zM542 756l3 -21q-38 -48 -81 -88.5t-91 -74.5l-42 11q35 44 68 90t59 93zM53 148l45 211l8 139l128 10q0 -47 -8.5 -98t-19.5 -102t-19 -97q-10 -54 -7.5 -87t37.5 -33q32 0 59.5 28t49.5 76t37 109 q8 40 14 75t9 66q2 27 2 53l125 10q-3 -49 -10.5 -95.5t-19.5 -105.5t-28 -143q-8 -38 -12.5 -77.5t-4.5 -86.5h-120q0 34 2.5 64t7.5 61h-1q-37 -71 -86.5 -103t-96.5 -32q-58 0 -82 43.5t-9 114.5z" />
<glyph unicode="&#x172;" horiz-adv-x="678" d="M76 164q0 29 8 74t20.5 100.5t26 116.5t24 121t14.5 113l124 9l9 -12q-28 -132 -46.5 -217.5t-29.5 -136.5t-16 -77.5t-6.5 -39t-1.5 -21.5q0 -54 30 -81t81 -27q61 0 107 39t62 114q23 108 38 179t24 115t13.5 71t6.5 45.5t3 39.5l130 8l-99 -466q-16 -76 -60 -128.5 t-103 -80.5q-67 -39 -106 -79t-39 -78q0 -16 9.5 -25t29.5 -9q11 0 25.5 2.5t32.5 9.5l9 -43q-26 -19 -59 -31t-64 -12q-41 0 -65 19.5t-24 53.5q0 42 33 83.5t94 77.5q-12 -1 -25 -1q-93 0 -151.5 45t-58.5 129z" />
<glyph unicode="&#x173;" horiz-adv-x="548" d="M53 148l45 211l8 139l128 10q0 -47 -8.5 -98t-19.5 -102t-19 -97q-10 -54 -7.5 -87t37.5 -33q32 0 59.5 28t49.5 76t37 109q8 40 14 75t9 66q2 27 2 53l125 10q-3 -49 -10.5 -95.5t-19.5 -105.5t-28 -143q-8 -38 -12.5 -77.5t-4.5 -86.5q-64 -29 -102.5 -65.5 t-38.5 -71.5q0 -32 40 -32q10 0 24.5 2.5t33.5 9.5l8 -43q-26 -19 -59 -31t-64 -12q-40 0 -64.5 19t-24.5 53q0 47 43.5 92t119.5 79h-36q0 34 2.5 64t7.5 61h-1q-37 -71 -86.5 -103t-96.5 -32q-58 0 -82 43.5t-9 114.5z" />
<glyph unicode="&#x174;" horiz-adv-x="961" d="M470 771l-26 28q43 33 77 61.5t67 58.5l86 8q21 -31 45 -64t52 -64l-39 -28q-32 17 -61.5 36.5t-55.5 39.5q-35 -20 -71 -39.5t-74 -36.5zM156 -2l-49 687l132 13l18 -381q4 -53 4 -103.5t-2 -90.5q16 39 41.5 94t48.5 104l178 369l119 8l20 -381q3 -52 4.5 -103t0.5 -91 q20 54 42 101t46 98l178 376l96 -8l5 -13l-337 -679h-127l-27 339q-3 46 -3.5 93t-1.5 96h-3q-17 -41 -31 -72t-27 -59t-29 -59l-169 -338h-127z" />
<glyph unicode="&#x175;" horiz-adv-x="754" d="M322 564l-32 27q37 38 73 78.5t69 81.5l87 8q17 -43 35.5 -84t42.5 -84l-44 -27q-28 25 -51 52.5t-45 54.5q-32 -28 -66 -55.5t-69 -51.5zM702 508q26 0 42 -8t16 -33q0 -32 -17.5 -86.5t-48.5 -120t-72 -133.5t-87 -127h-135q7 95 9 185.5t0 178.5h-2 q-28 -92 -75.5 -187t-103.5 -177h-134q0 151 -10 280t-24 218l127 9q12 -85 15 -194.5t-5 -226.5h2q39 66 70.5 137.5t53 142t27.5 132.5h145q11 -80 13.5 -188t-5.5 -224h2q38 66 69.5 139t52.5 144t27 133q15 4 27 5t21 1z" />
<glyph unicode="&#x176;" horiz-adv-x="561" d="M282 771l-25 28q42 33 76 61.5t67 58.5l87 8q20 -31 44 -64t52 -64l-39 -28q-32 17 -61 36.5t-56 39.5q-34 -20 -70.5 -39.5t-74.5 -36.5zM216 233l-109 452l133 13l44 -227q5 -36 12 -78t10 -73h2q17 31 43 74t46 77l139 227l97 -8l5 -13l-300 -445l-49 -232h-123z" />
<glyph unicode="&#x177;" horiz-adv-x="468" d="M181 564l-32 27q37 38 73.5 78.5t68.5 81.5l87 8q17 -43 36 -84t42 -84l-44 -27q-28 25 -51 52.5t-44 54.5q-33 -28 -67 -55.5t-69 -51.5zM415 508q26 0 42.5 -8t16.5 -32q0 -33 -19 -87.5t-53 -122.5t-78 -139.5t-94.5 -138.5t-103 -121t-102.5 -85.5t-94 -31.5 q-31 0 -49 18t-18 48q0 16 4 27.5t10 20.5q15 -3 30.5 -5t29.5 -2q42 0 85 21.5t80 56t61 73.5h-57q-2 144 -14 273t-32 225l127 10q17 -95 22.5 -202.5t-1.5 -217.5h2q39 66 72.5 138.5t56 143.5t29.5 132q15 4 26.5 5t20.5 1z" />
<glyph unicode="&#x178;" horiz-adv-x="561" d="M600 868q0 -22 -13 -41t-33.5 -31t-44.5 -12t-37.5 13t-13.5 32q0 21 13.5 40t34.5 31t44 12t36.5 -12t13.5 -32zM381 868q0 -22 -13 -41t-33.5 -31t-44.5 -12t-37 13t-13 32q0 21 13 40t34 31t44 12t36.5 -12t13.5 -32zM216 233l-109 452l133 13l44 -227q5 -36 12 -78 t10 -73h2q17 31 43 74t46 77l139 227l97 -8l5 -13l-300 -445l-49 -232h-123z" />
<glyph unicode="&#x179;" horiz-adv-x="525" d="M537 864l-10 -20q-68 -32 -137.5 -48.5t-142.5 -21.5l-3 31q61 28 120.5 58.5t112.5 65.5zM-14 0l-4 79l449 508l-329 -6l30 107h434l14 -79l-445 -508l338 7l-30 -108h-457z" />
<glyph unicode="&#x17a;" horiz-adv-x="449" d="M399 753l3 -20q-42 -49 -89.5 -88.5t-103.5 -73.5l-41 11q34 44 67.5 90.5t58.5 91.5zM26 -10l-39 58q100 104 179 188t141 157q-35 11 -63.5 15.5t-48.5 4.5q-34 0 -64 -13.5t-53 -43.5l-35 21q20 53 43.5 81t51 39t60.5 11q39 0 79.5 -12.5t84.5 -35.5q20 24 37 48 q16 0 32 -8.5t16 -31.5q0 -37 -81 -132.5t-233 -236.5q10 2 25 2q31 0 59 -7.5t53 -7.5q63 0 105 65l41 -24q-19 -55 -42.5 -84.5t-51.5 -41t-64 -11.5q-51 0 -91.5 13t-73.5 13q-17 0 -32.5 -5.5t-34.5 -20.5z" />
<glyph unicode="&#x17b;" horiz-adv-x="525" d="M468 874q0 -24 -14 -45t-36.5 -34t-48.5 -13t-42 14t-16 36q0 23 15 43t38 33t49 13q25 0 40 -13t15 -34zM-14 0l-4 79l449 508l-329 -6l30 107h434l14 -79l-445 -508l338 7l-30 -108h-457z" />
<glyph unicode="&#x17c;" horiz-adv-x="449" d="M363 690q0 -26 -14.5 -49t-37.5 -37.5t-48 -14.5q-27 0 -42 15.5t-15 38.5q0 24 15 46.5t38 37t49 14.5t40.5 -14t14.5 -37zM26 -10l-39 58q100 104 179 188t141 157q-35 11 -63.5 15.5t-48.5 4.5q-34 0 -64 -13.5t-53 -43.5l-35 21q20 53 43.5 81t51 39t60.5 11 q39 0 79.5 -12.5t84.5 -35.5q20 24 37 48q16 0 32 -8.5t16 -31.5q0 -37 -81 -132.5t-233 -236.5q10 2 25 2q31 0 59 -7.5t53 -7.5q63 0 105 65l41 -24q-19 -55 -42.5 -84.5t-51.5 -41t-64 -11.5q-51 0 -91.5 13t-73.5 13q-17 0 -32.5 -5.5t-34.5 -20.5z" />
<glyph unicode="&#x17d;" horiz-adv-x="525" d="M528 929l25 -28q-42 -33 -76 -61.5t-67 -58.5l-87 -8q-20 32 -44 64.5t-52 63.5l39 28q32 -16 61 -36t56 -39q34 19 70.5 39t74.5 36zM-14 0l-4 79l449 508l-329 -6l30 107h434l14 -79l-445 -508l338 7l-30 -108h-457z" />
<glyph unicode="&#x17e;" horiz-adv-x="449" d="M420 769l32 -27q-37 -39 -73.5 -79t-69.5 -81l-87 -8q-17 43 -35.5 84t-42.5 84l44 27q28 -25 51 -52.5t45 -54.5q32 28 66 55.5t70 51.5zM26 -10l-39 58q100 104 179 188t141 157q-35 11 -63.5 15.5t-48.5 4.5q-34 0 -64 -13.5t-53 -43.5l-35 21q20 53 43.5 81t51 39 t60.5 11q39 0 79.5 -12.5t84.5 -35.5q20 24 37 48q16 0 32 -8.5t16 -31.5q0 -37 -81 -132.5t-233 -236.5q10 2 25 2q31 0 59 -7.5t53 -7.5q63 0 105 65l41 -24q-19 -55 -42.5 -84.5t-51.5 -41t-64 -11.5q-51 0 -91.5 13t-73.5 13q-17 0 -32.5 -5.5t-34.5 -20.5z" />
<glyph unicode="&#x18f;" horiz-adv-x="673" d="M96 376l27 22h383v2q0 108 -44.5 156t-121.5 48q-46 0 -91 -14t-83 -34l17 93q16 10 48 21t73 19.5t86 8.5q117 0 183 -67t66 -201q0 -90 -29 -169.5t-80.5 -140.5t-120.5 -95.5t-148 -34.5q-95 0 -148.5 52.5t-53.5 155.5q0 42 8 79t17 63t12 36zM183 212 q0 -134 106 -134q55 0 99 34t73.5 91.5t39.5 128.5l-300 -14q-9 -25 -13.5 -50.5t-4.5 -55.5z" />
<glyph unicode="&#x192;" horiz-adv-x="519" d="M175 295l-113 4l16 46l112 14h2l16 67q20 81 54 142.5t87 95.5t128 34q39 0 70.5 -8.5t51.5 -22.5l-55 -94q-17 14 -40 25t-45 11q-54 0 -82.5 -51t-49.5 -136l-16 -63h174l4 -12l-22 -52h-172l-73 -292q-6 -24 -16.5 -57.5t-28.5 -69t-46 -66t-68.5 -49.5t-95.5 -19 q-53 0 -100 21l36 94q19 -11 39.5 -18.5t41.5 -7.5q35 0 56.5 20t34 50.5t20.5 63.5l81 330h-1z" />
<glyph unicode="&#x19d;" horiz-adv-x="716" d="M-50 -193l-25 46q47 41 80.5 101t51.5 144l91 425q9 42 16 84.5t10 80.5l127 8q30 -83 58 -154.5t48 -125.5q28 -69 50 -130t36 -125h2q4 29 7.5 54t9.5 58t16 83.5t27 129.5q12 54 20.5 105t13.5 97l115 9l11 -14l-146 -683h-118q-31 76 -57 146t-51 132 q-28 71 -48.5 126.5t-36.5 116.5h-3q-7 -62 -16.5 -115t-20.5 -103l-43 -205q-17 -76 -43.5 -129.5t-70 -92.5t-111.5 -69z" />
<glyph unicode="&#x1cd;" horiz-adv-x="646" d="M579 929l26 -28q-43 -33 -77 -61.5t-67 -58.5l-87 -8q-20 32 -44 64.5t-52 63.5l39 28q32 -16 61.5 -36t55.5 -39q35 19 71 39t74 36zM89 0h-117l313 585q33 62 52 106l141 6l16 -16l74 -681h-124l-18 170h-246zM282 362l-55 -103h189l-11 103q-6 69 -9.5 125t-2.5 96h-3 q-18 -40 -47 -99.5t-61 -121.5z" />
<glyph unicode="&#x1ce;" horiz-adv-x="548" d="M504 769l32 -27q-37 -39 -73.5 -79t-69.5 -81l-86 -8q-17 43 -36 84t-42 84l43 27q28 -25 51 -52.5t45 -54.5q32 28 66 55.5t70 51.5zM37 140q0 64 22 129t64.5 119t103.5 87t138 33q32 0 76.5 -7.5t81.5 -24.5l-40 -175q-17 -73 -26.5 -127t-14 -95.5t-4.5 -78.5h-120 q0 38 4.5 78t15.5 103q-19 -45 -49 -89t-67 -73t-80 -29q-48 0 -76.5 38t-28.5 112zM160 170q0 -37 11.5 -58t33.5 -21q24 0 49.5 26t49 67t42 86.5t29.5 84.5q7 30 15 67q-31 14 -54 14q-35 0 -66.5 -25.5t-56 -65.5t-39 -86.5t-14.5 -88.5z" />
<glyph unicode="&#x1cf;" horiz-adv-x="320" d="M428 929l26 -28q-43 -33 -77 -61.5t-67 -58.5l-86 -8q-20 32 -44.5 64.5t-51.5 63.5l38 28q32 -16 61.5 -36t55.5 -39q35 19 71.5 39t73.5 36zM173 0h-123l110 518q10 48 17 90t10 80l121 10l10 -14z" />
<glyph unicode="&#x1d0;" horiz-adv-x="275" d="M307 767l36 -18q-27 -42 -52.5 -86t-44.5 -80l-116 -8q-6 41 -13 86t-17 88l44 18q18 -25 32.5 -52.5t28.5 -57.5q23 29 48.5 57.5t53.5 52.5zM166 0h-119q0 54 9.5 121t27.5 146l20 92l8 139l128 10q0 -53 -11 -116t-26 -130.5t-26 -134.5t-11 -127z" />
<glyph unicode="&#x1d1;" horiz-adv-x="698" d="M612 929l26 -28q-43 -33 -77 -61.5t-67 -58.5l-86 -8q-21 32 -45 64.5t-51 63.5l38 28q32 -16 61.5 -36t55.5 -39q35 19 71.5 39t73.5 36zM667 442q0 -84 -27.5 -164.5t-77 -145.5t-118.5 -103.5t-151 -38.5q-103 0 -162.5 65t-59.5 188q0 84 27.5 165t77.5 146.5 t118 104.5t150 39q104 0 163.5 -66.5t59.5 -189.5zM198 246q0 -76 28.5 -119.5t87.5 -43.5q53 0 95 33t71 87t44.5 117t15.5 122q0 76 -27.5 119.5t-86.5 43.5q-53 0 -95.5 -33.5t-72 -87.5t-45 -117t-15.5 -121z" />
<glyph unicode="&#x1d2;" horiz-adv-x="538" d="M483 769l32 -27q-37 -39 -73 -79t-69 -81l-87 -8q-17 43 -35.5 84t-42.5 84l44 27q28 -25 51 -52.5t45 -54.5q32 28 66 55.5t69 51.5zM497 325q0 -62 -21.5 -122t-60 -108t-91 -76.5t-115.5 -28.5q-74 0 -120 44.5t-46 136.5q0 62 21.5 122t60.5 108.5t91.5 77.5 t114.5 29q77 0 121.5 -46.5t44.5 -136.5zM167 162q0 -48 14.5 -74t48.5 -26t61 27.5t45 70t27.5 89.5t9.5 87q0 100 -63 100q-35 0 -61.5 -27t-45 -69.5t-27.5 -89.5t-9 -88z" />
<glyph unicode="&#x1d3;" horiz-adv-x="678" d="M608 929l26 -28q-43 -33 -77 -61.5t-67 -58.5l-86 -8q-21 32 -45 64.5t-51 63.5l38 28q32 -16 61.5 -36t55.5 -39q35 19 71.5 39t73.5 36zM76 164q0 29 8 74t20.5 100.5t26 116.5t24 121t14.5 113l124 9l9 -12q-28 -132 -46.5 -217.5t-29.5 -136.5t-16 -77.5t-6.5 -39 t-1.5 -21.5q0 -54 30 -81t81 -27q61 0 107 39t62 114q23 108 38 179t24 115t13.5 71t6.5 45.5t3 39.5l130 8l-99 -466q-17 -80 -63.5 -133.5t-111.5 -80.5t-137 -27q-93 0 -151.5 45t-58.5 129z" />
<glyph unicode="&#x1d4;" horiz-adv-x="548" d="M472 769l32 -27q-36 -39 -72.5 -79t-69.5 -81l-87 -8q-17 43 -35.5 84t-42.5 84l44 27q28 -25 51 -52.5t45 -54.5q32 28 66 55.5t69 51.5zM53 148l45 211l8 139l128 10q0 -47 -8.5 -98t-19.5 -102t-19 -97q-10 -54 -7.5 -87t37.5 -33q32 0 59.5 28t49.5 76t37 109 q8 40 14 75t9 66q2 27 2 53l125 10q-3 -49 -10.5 -95.5t-19.5 -105.5t-28 -143q-8 -38 -12.5 -77.5t-4.5 -86.5h-120q0 34 2.5 64t7.5 61h-1q-37 -71 -86.5 -103t-96.5 -32q-58 0 -82 43.5t-9 114.5z" />
<glyph unicode="&#x1d5;" horiz-adv-x="678" d="M369 1031l15 71h279l-15 -71h-279zM650 868q0 -22 -13 -41t-33.5 -31t-43.5 -12q-25 0 -38 13t-13 32q0 21 13 40t34 31t45 12q22 0 35.5 -12t13.5 -32zM431 868q0 -22 -12.5 -41t-33.5 -31t-44 -12q-24 0 -37.5 13t-13.5 32q0 21 13 40t34 31t45 12q22 0 35.5 -12 t13.5 -32zM76 164q0 29 8 74t20.5 100.5t26 116.5t24 121t14.5 113l124 9l9 -12q-28 -132 -46.5 -217.5t-29.5 -136.5t-16 -77.5t-6.5 -39t-1.5 -21.5q0 -54 30 -81t81 -27q61 0 107 39t62 114q23 108 38 179t24 115t13.5 71t6.5 45.5t3 39.5l130 8l-99 -466 q-17 -80 -63.5 -133.5t-111.5 -80.5t-137 -27q-93 0 -151.5 45t-58.5 129z" />
<glyph unicode="&#x1d6;" horiz-adv-x="548" d="M240 869l14 69h284l-15 -69h-283zM302 689q0 -24 -13.5 -46t-34.5 -36t-45 -14q-25 0 -38 14.5t-13 35.5q0 23 14 44.5t35.5 35.5t45.5 14q23 0 36 -13t13 -35zM519 689q0 -24 -13.5 -46t-34.5 -36t-45 -14q-25 0 -38 14.5t-13 35.5q0 23 14 44.5t35.5 35.5t45.5 14 q23 0 36 -13t13 -35zM53 148l45 211l8 139l128 10q0 -47 -8.5 -98t-19.5 -102t-19 -97q-10 -54 -7.5 -87t37.5 -33q32 0 59.5 28t49.5 76t37 109q8 40 14 75t9 66q2 27 2 53l125 10q-3 -49 -10.5 -95.5t-19.5 -105.5t-28 -143q-8 -38 -12.5 -77.5t-4.5 -86.5h-120 q0 34 2.5 64t7.5 61h-1q-37 -71 -86.5 -103t-96.5 -32q-58 0 -82 43.5t-9 114.5z" />
<glyph unicode="&#x1d7;" horiz-adv-x="678" d="M664 1082l-10 -19q-68 -32 -137.5 -48.5t-142.5 -21.5l-3 31q61 27 121 58t112 65zM650 868q0 -22 -13 -41t-33.5 -31t-43.5 -12q-25 0 -38 13t-13 32q0 21 13 40t34 31t45 12q22 0 35.5 -12t13.5 -32zM431 868q0 -22 -12.5 -41t-33.5 -31t-44 -12q-24 0 -37.5 13 t-13.5 32q0 21 13 40t34 31t45 12q22 0 35.5 -12t13.5 -32zM76 164q0 29 8 74t20.5 100.5t26 116.5t24 121t14.5 113l124 9l9 -12q-28 -132 -46.5 -217.5t-29.5 -136.5t-16 -77.5t-6.5 -39t-1.5 -21.5q0 -54 30 -81t81 -27q61 0 107 39t62 114q23 108 38 179t24 115t13.5 71 t6.5 45.5t3 39.5l130 8l-99 -466q-17 -80 -63.5 -133.5t-111.5 -80.5t-137 -27q-93 0 -151.5 45t-58.5 129z" />
<glyph unicode="&#x1d8;" horiz-adv-x="548" d="M503 992l3 -20q-42 -49 -89.5 -88.5t-103.5 -73.5l-41 11q34 45 67.5 91t58.5 92zM302 689q0 -24 -13.5 -46t-34.5 -36t-45 -14q-25 0 -38 14.5t-13 35.5q0 23 14 44.5t35.5 35.5t45.5 14q23 0 36 -13t13 -35zM519 689q0 -24 -13.5 -46t-34.5 -36t-45 -14q-25 0 -38 14.5 t-13 35.5q0 23 14 44.5t35.5 35.5t45.5 14q23 0 36 -13t13 -35zM53 148l45 211l8 139l128 10q0 -47 -8.5 -98t-19.5 -102t-19 -97q-10 -54 -7.5 -87t37.5 -33q32 0 59.5 28t49.5 76t37 109q8 40 14 75t9 66q2 27 2 53l125 10q-3 -49 -10.5 -95.5t-19.5 -105.5t-28 -143 q-8 -38 -12.5 -77.5t-4.5 -86.5h-120q0 34 2.5 64t7.5 61h-1q-37 -71 -86.5 -103t-96.5 -32q-58 0 -82 43.5t-9 114.5z" />
<glyph unicode="&#x1d9;" horiz-adv-x="678" d="M654 1184l32 -28q-37 -38 -73.5 -78.5t-69.5 -81.5l-86 -7q-17 42 -36 83.5t-42 83.5l43 28q28 -26 51.5 -53t44.5 -54q32 27 66 55t70 52zM650 868q0 -22 -13 -41t-33.5 -31t-43.5 -12q-25 0 -38 13t-13 32q0 21 13 40t34 31t45 12q22 0 35.5 -12t13.5 -32zM431 868 q0 -22 -12.5 -41t-33.5 -31t-44 -12q-24 0 -37.5 13t-13.5 32q0 21 13 40t34 31t45 12q22 0 35.5 -12t13.5 -32zM76 164q0 29 8 74t20.5 100.5t26 116.5t24 121t14.5 113l124 9l9 -12q-28 -132 -46.5 -217.5t-29.5 -136.5t-16 -77.5t-6.5 -39t-1.5 -21.5q0 -54 30 -81 t81 -27q61 0 107 39t62 114q23 108 38 179t24 115t13.5 71t6.5 45.5t3 39.5l130 8l-99 -466q-17 -80 -63.5 -133.5t-111.5 -80.5t-137 -27q-93 0 -151.5 45t-58.5 129z" />
<glyph unicode="&#x1da;" horiz-adv-x="548" d="M524 1008l32 -27q-37 -38 -73.5 -78.5t-69.5 -81.5l-87 -8q-16 43 -35 84t-43 84l44 27q28 -25 51 -52.5t45 -54.5q32 28 66 56t70 51zM302 689q0 -24 -13.5 -46t-34.5 -36t-45 -14q-25 0 -38 14.5t-13 35.5q0 23 14 44.5t35.5 35.5t45.5 14q23 0 36 -13t13 -35zM519 689 q0 -24 -13.5 -46t-34.5 -36t-45 -14q-25 0 -38 14.5t-13 35.5q0 23 14 44.5t35.5 35.5t45.5 14q23 0 36 -13t13 -35zM53 148l45 211l8 139l128 10q0 -47 -8.5 -98t-19.5 -102t-19 -97q-10 -54 -7.5 -87t37.5 -33q32 0 59.5 28t49.5 76t37 109q8 40 14 75t9 66q2 27 2 53 l125 10q-3 -49 -10.5 -95.5t-19.5 -105.5t-28 -143q-8 -38 -12.5 -77.5t-4.5 -86.5h-120q0 34 2.5 64t7.5 61h-1q-37 -71 -86.5 -103t-96.5 -32q-58 0 -82 43.5t-9 114.5z" />
<glyph unicode="&#x1db;" horiz-adv-x="678" d="M635 993q-69 5 -132.5 21t-117.5 49l-2 19l87 65q39 -34 85.5 -65.5t95.5 -57.5zM650 868q0 -22 -13 -41t-33.5 -31t-43.5 -12q-25 0 -38 13t-13 32q0 21 13 40t34 31t45 12q22 0 35.5 -12t13.5 -32zM431 868q0 -22 -12.5 -41t-33.5 -31t-44 -12q-24 0 -37.5 13t-13.5 32 q0 21 13 40t34 31t45 12q22 0 35.5 -12t13.5 -32zM76 164q0 29 8 74t20.5 100.5t26 116.5t24 121t14.5 113l124 9l9 -12q-28 -132 -46.5 -217.5t-29.5 -136.5t-16 -77.5t-6.5 -39t-1.5 -21.5q0 -54 30 -81t81 -27q61 0 107 39t62 114q23 108 38 179t24 115t13.5 71t6.5 45.5 t3 39.5l130 8l-99 -466q-17 -80 -63.5 -133.5t-111.5 -80.5t-137 -27q-93 0 -151.5 45t-58.5 129z" />
<glyph unicode="&#x1dc;" horiz-adv-x="548" d="M428 811q-41 35 -72 74.5t-52 87.5l11 20l110 12q7 -47 20 -92.5t30 -90.5zM302 689q0 -24 -13.5 -46t-34.5 -36t-45 -14q-25 0 -38 14.5t-13 35.5q0 23 14 44.5t35.5 35.5t45.5 14q23 0 36 -13t13 -35zM519 689q0 -24 -13.5 -46t-34.5 -36t-45 -14q-25 0 -38 14.5 t-13 35.5q0 23 14 44.5t35.5 35.5t45.5 14q23 0 36 -13t13 -35zM53 148l45 211l8 139l128 10q0 -47 -8.5 -98t-19.5 -102t-19 -97q-10 -54 -7.5 -87t37.5 -33q32 0 59.5 28t49.5 76t37 109q8 40 14 75t9 66q2 27 2 53l125 10q-3 -49 -10.5 -95.5t-19.5 -105.5t-28 -143 q-8 -38 -12.5 -77.5t-4.5 -86.5h-120q0 34 2.5 64t7.5 61h-1q-37 -71 -86.5 -103t-96.5 -32q-58 0 -82 43.5t-9 114.5z" />
<glyph unicode="&#x1e6;" horiz-adv-x="655" d="M614 929l26 -28q-43 -33 -77 -61.5t-67 -58.5l-87 -8q-20 32 -44 64.5t-52 63.5l39 28q32 -16 61.5 -36t55.5 -39q35 19 71 39t74 36zM590 313l10 -13l-58 -265q-44 -21 -100.5 -33t-112.5 -12q-126 0 -192.5 63.5t-66.5 188.5q0 88 31 169.5t87 146t131 102.5t163 38 q44 0 91.5 -10.5t81.5 -31.5l-43 -106q-62 49 -146 49q-61 0 -110 -29t-84 -77.5t-53.5 -108.5t-18.5 -121q0 -86 39.5 -131.5t122.5 -45.5q35 0 77 8l4 18q9 42 14 71t8.5 56.5t6.5 63.5z" />
<glyph unicode="&#x1e7;" horiz-adv-x="482" d="M463 769l32 -27q-37 -39 -73.5 -79t-69.5 -81l-86 -8q-17 43 -36 84t-42 84l43 27q28 -25 51 -52.5t45 -54.5q32 28 66 55.5t70 51.5zM139 -258q-94 0 -146 35.5t-52 86.5q0 40 31 68.5t75 46.5l26 -25q-10 -13 -16.5 -26.5t-6.5 -27.5q0 -42 29.5 -69.5t82.5 -27.5 q51 0 84 23.5t33 54.5q0 26 -25 44.5t-65 37.5q-34 17 -60 34t-26 46q0 24 19 43t46 32.5t52 21.5v3q-12 -1 -21 0q-65 3 -104 42t-39 106q0 65 34 113.5t87.5 76t114.5 27.5q54 0 89 0.5t61 3t53 8.5q11 -12 11 -31q0 -15 -10 -31.5t-40 -16.5q-21 0 -41.5 7.5t-40.5 13.5 l-1 -2q29 -16 47 -43t18 -71q0 -54 -22.5 -92.5t-55.5 -65.5t-66 -46.5t-55.5 -34.5t-22.5 -30q0 -12 16.5 -22t38.5 -20q32 -16 61.5 -34.5t48 -42.5t18.5 -57q0 -42 -33.5 -78.5t-92 -58.5t-134.5 -22zM326 363q0 37 -13 59.5t-40 22.5q-28 0 -52 -25.5t-38.5 -64 t-14.5 -75.5q0 -39 15 -61.5t42 -22.5q30 0 53 26t35.5 64.5t12.5 76.5z" />
<glyph unicode="&#x1ea;" horiz-adv-x="698" d="M448 31q-65 -36 -107.5 -79.5t-42.5 -84.5q0 -36 40 -36q10 0 24.5 2.5t33.5 9.5l8 -43q-26 -19 -59 -31t-65 -12q-40 0 -64 20t-24 57q0 40 31 81t85 75h-15q-103 0 -162.5 65t-59.5 188q0 84 27.5 165t77.5 146.5t118 104.5t150 39q104 0 163.5 -66.5t59.5 -189.5 q0 -83 -27 -163t-76 -145t-116 -103v0zM198 246q0 -76 28.5 -119.5t87.5 -43.5q53 0 95 33t71 87t44.5 117t15.5 122q0 76 -27.5 119.5t-86.5 43.5q-53 0 -95.5 -33.5t-72 -87.5t-45 -117t-15.5 -121z" />
<glyph unicode="&#x1eb;" horiz-adv-x="538" d="M346 31q-63 -48 -103.5 -90t-40.5 -77q0 -15 9.5 -24t29.5 -9q11 0 25.5 2.5t32.5 9.5l9 -43q-26 -19 -59 -31t-65 -12q-40 0 -64 19.5t-24 53.5q0 39 32.5 80t90.5 80h-10q-74 0 -120 44.5t-46 136.5q0 62 21.5 122t60.5 108.5t91.5 77.5t114.5 29q77 0 121.5 -46.5 t44.5 -136.5q0 -58 -19 -114t-53 -103t-80 -77h1zM167 162q0 -48 14.5 -74t48.5 -26t61 27.5t45 70t27.5 89.5t9.5 87q0 100 -63 100q-35 0 -61.5 -27t-45 -69.5t-27.5 -89.5t-9 -88z" />
<glyph unicode="&#x1f4;" horiz-adv-x="655" d="M623 864l-10 -20q-68 -32 -137.5 -48.5t-142.5 -21.5l-3 31q61 28 121 58.5t112 65.5zM590 313l10 -13l-58 -265q-44 -21 -100.5 -33t-112.5 -12q-126 0 -192.5 63.5t-66.5 188.5q0 88 31 169.5t87 146t131 102.5t163 38q44 0 91.5 -10.5t81.5 -31.5l-43 -106 q-62 49 -146 49q-61 0 -110 -29t-84 -77.5t-53.5 -108.5t-18.5 -121q0 -86 39.5 -131.5t122.5 -45.5q35 0 77 8l4 18q9 42 14 71t8.5 56.5t6.5 63.5z" />
<glyph unicode="&#x1f5;" horiz-adv-x="482" d="M443 753l2 -20q-42 -49 -89.5 -88.5t-103.5 -73.5l-41 11q34 44 67.5 90.5t58.5 91.5zM139 -258q-94 0 -146 35.5t-52 86.5q0 40 31 68.5t75 46.5l26 -25q-10 -13 -16.5 -26.5t-6.5 -27.5q0 -42 29.5 -69.5t82.5 -27.5q51 0 84 23.5t33 54.5q0 26 -25 44.5t-65 37.5 q-34 17 -60 34t-26 46q0 24 19 43t46 32.5t52 21.5v3q-12 -1 -21 0q-65 3 -104 42t-39 106q0 65 34 113.5t87.5 76t114.5 27.5q54 0 89 0.5t61 3t53 8.5q11 -12 11 -31q0 -15 -10 -31.5t-40 -16.5q-21 0 -41.5 7.5t-40.5 13.5l-1 -2q29 -16 47 -43t18 -71q0 -54 -22.5 -92.5 t-55.5 -65.5t-66 -46.5t-55.5 -34.5t-22.5 -30q0 -12 16.5 -22t38.5 -20q32 -16 61.5 -34.5t48 -42.5t18.5 -57q0 -42 -33.5 -78.5t-92 -58.5t-134.5 -22zM326 363q0 37 -13 59.5t-40 22.5q-28 0 -52 -25.5t-38.5 -64t-14.5 -75.5q0 -39 15 -61.5t42 -22.5q30 0 53 26 t35.5 64.5t12.5 76.5z" />
<glyph unicode="&#x1fa;" horiz-adv-x="646" d="M641 1117l-10 -20q-68 -32 -137.5 -48.5t-142.5 -21.5l-3 31q61 27 121 58t112 66zM550 878q0 -31 -19.5 -59t-50.5 -46t-66 -18q-37 0 -59.5 20t-22.5 51q0 30 20 57.5t52 45t68 17.5t57 -18.5t21 -49.5zM388 836q0 -16 10.5 -26.5t28.5 -10.5q26 0 46.5 21t20.5 48 q0 15 -9.5 25t-26.5 10q-27 0 -48.5 -21t-21.5 -46zM89 0h-117l313 585q33 62 52 106l141 6l16 -16l74 -681h-124l-18 170h-246zM282 362l-55 -103h189l-11 103q-6 69 -9.5 125t-2.5 96h-3q-18 -40 -47 -99.5t-61 -121.5z" />
<glyph unicode="&#x1fb;" horiz-adv-x="548" d="M540 1016l2 -21q-42 -48 -89.5 -87.5t-103.5 -73.5l-41 11q34 44 67.5 90.5t58.5 91.5zM479 693q0 -32 -19.5 -60t-51 -45.5t-65.5 -17.5q-38 0 -60.5 20t-22.5 50t20.5 58t52.5 45.5t67 17.5q36 0 57.5 -19t21.5 -49zM317 650q0 -16 10 -26.5t29 -10.5q26 0 46 21.5 t20 47.5q0 16 -9 25.5t-27 9.5q-26 0 -47.5 -20.5t-21.5 -46.5zM37 140q0 64 22 129t64.5 119t103.5 87t138 33q32 0 76.5 -7.5t81.5 -24.5l-40 -175q-17 -73 -26.5 -127t-14 -95.5t-4.5 -78.5h-120q0 38 4.5 78t15.5 103q-19 -45 -49 -89t-67 -73t-80 -29q-48 0 -76.5 38 t-28.5 112zM160 170q0 -37 11.5 -58t33.5 -21q24 0 49.5 26t49 67t42 86.5t29.5 84.5q7 30 15 67q-31 14 -54 14q-35 0 -66.5 -25.5t-56 -65.5t-39 -86.5t-14.5 -88.5z" />
<glyph unicode="&#x1fc;" horiz-adv-x="893" d="M744 864l-10 -20q-68 -32 -137.5 -48.5t-142.5 -21.5l-3 31q61 28 121 58.5t112 65.5zM89 0h-117l406 585q13 20 22.5 34.5t19.5 30t25 38.5h422l10 -14l-20 -82l-265 6l-23 -217l226 4l-22 -89l-213 4l-22 -211l281 7l-20 -96h-395l22 170h-220zM339 362l-71 -103h169 l13 103q10 69 18.5 124.5t15.5 96.5h-3q-24 -41 -62 -100t-80 -121z" />
<glyph unicode="&#x1fd;" horiz-adv-x="779" d="M599 753l2 -20q-42 -49 -89.5 -88.5t-102.5 -73.5l-42 11q35 44 68 90.5t59 91.5zM38 147q0 64 22 128t64.5 116.5t104.5 84.5t141 32q35 0 73.5 -6.5t73.5 -19.5q25 12 52 19t56 7q63 0 102 -32t39 -87q0 -70 -74 -120.5t-232 -60.5q-1 -12 -1 -24q0 -50 24 -81.5 t72 -31.5q35 0 70.5 17.5t66.5 44.5l18 -47q-38 -46 -92.5 -71t-109.5 -25q-75 0 -124 46t-49 135q-20 -43 -49 -84.5t-65 -69t-76 -27.5q-49 0 -78 40.5t-29 116.5zM606 438q-34 0 -62.5 -29t-48.5 -73t-29 -88q103 12 146 52t43 86q0 26 -13 39t-36 13zM161 170 q0 -38 11.5 -58.5t33.5 -20.5q26 0 54.5 31t54 78.5t43.5 95.5v0q24 64 67 114q-18 11 -39 18.5t-41 7.5q-39 0 -72.5 -25.5t-58.5 -65.5t-39 -86.5t-14 -88.5z" />
<glyph unicode="&#x1fe;" horiz-adv-x="698" d="M621 864l-10 -20q-68 -32 -137.5 -48.5t-142.5 -21.5l-3 31q61 28 121 58.5t112 65.5zM667 442q0 -84 -27.5 -164.5t-77 -145.5t-118.5 -103.5t-151 -38.5q-120 0 -178 84l-90 -82l-38 41l102 94q-18 51 -18 116q0 84 27.5 165t77.5 146.5t118 104.5t150 39 q116 0 175 -81l86 80l40 -40l-99 -91q21 -54 21 -124zM198 246v-17l329 303q-13 35 -38 54t-63 19q-53 0 -95.5 -33.5t-72 -87.5t-45 -117t-15.5 -121zM540 442q0 13 -1 24l-330 -304q13 -38 38.5 -58.5t66.5 -20.5q53 0 95 33t71 87t44.5 117t15.5 122z" />
<glyph unicode="&#x1ff;" horiz-adv-x="538" d="M463 753l3 -20q-42 -49 -90 -88.5t-103 -73.5l-41 11q34 44 67.5 90.5t58.5 91.5zM497 325q0 -62 -21.5 -122t-60 -108t-91 -76.5t-115.5 -28.5q-42 0 -75 14t-55 42l-71 -62l-35 42l81 70q-11 33 -11 75q0 62 21.5 122t60.5 108.5t91.5 77.5t114.5 29q87 0 130 -57 l72 63l35 -41l-82 -71q11 -34 11 -77zM310 436q-31 0 -56 -22.5t-43 -58.5t-29 -78t-14 -81l203 176q-10 64 -61 64zM230 62q31 0 55.5 22.5t42.5 58.5t29 77.5t15 81.5l-203 -177q10 -63 61 -63z" />
<glyph unicode="&#x218;" horiz-adv-x="530" d="M469 206q0 -62 -36.5 -110.5t-101 -77t-149.5 -28.5q-47 0 -97.5 9.5t-80.5 27.5l31 104q23 -15 53.5 -25t61 -15t53.5 -5q61 0 98 30t37 75q0 33 -19 55.5t-46.5 39.5t-53.5 33q-29 16 -55 37t-43 51t-17 73q0 62 38 111.5t103.5 78t150.5 28.5q45 0 86.5 -8t67.5 -21 l-38 -106q-31 20 -68.5 29.5t-69.5 9.5q-61 0 -100 -29.5t-39 -74.5q0 -31 17.5 -52t45.5 -37.5t58 -35.5q26 -16 52 -38t43.5 -53t17.5 -76zM86 -317q19 21 38 45.5t31 49.5q-20 2 -31 18t-7 39q3 27 27 51t56 24q26 0 41 -17t9 -51q-5 -35 -27 -70t-51 -66t-55 -53z" />
<glyph unicode="&#x219;" horiz-adv-x="437" d="M417 482l-29 -92q-28 17 -60 27t-60 10q-38 0 -62 -18t-24 -45q0 -25 19 -41t47 -30t56.5 -30.5t47.5 -42t19 -65.5q0 -49 -30 -86t-80 -58t-111 -21q-39 0 -79.5 9t-67.5 27l28 91q33 -23 72.5 -34.5t67.5 -11.5q38 0 62 18.5t24 45.5q0 25 -19.5 41t-47.5 29.5t-56 30 t-47.5 41.5t-19.5 65q0 49 31 86.5t81.5 58.5t109.5 21q30 0 64 -6.5t64 -19.5zM45 -317q20 21 39 45.5t31 49.5q-21 2 -31.5 18t-7.5 39q4 27 28 51t56 24q25 0 40 -17t10 -51q-5 -35 -27.5 -70t-51.5 -66t-54 -53z" />
<glyph unicode="&#x21a;" horiz-adv-x="539" d="M278 0h-123l126 596q-49 -1 -100 -3l-102 -4l28 99h510l-13 -99l-100 4t-100 3zM87 -317q20 21 38.5 45.5t31.5 49.5q-21 2 -31.5 18t-7.5 39q4 27 27.5 51t56.5 24q25 0 40 -17t10 -51q-5 -35 -27.5 -70t-51.5 -66t-55 -53z" />
<glyph unicode="&#x21b;" horiz-adv-x="373" d="M378 433l-139 2q-20 -93 -32 -149t-18 -86t-8.5 -44.5t-2.5 -23.5q0 -30 15 -43t41 -13q20 0 41.5 7t41.5 18l-6 -76q-25 -14 -60 -24.5t-74 -10.5q-58 0 -89.5 28.5t-31.5 88.5q0 14 2.5 31t9 49t19 91.5t33.5 158.5l-69 1l9 45l76 15l55 123l77 6l12 -14l-28 -115h136 l7 -14zM36 -317q20 21 39 45.5t31 49.5q-21 2 -31.5 18t-7.5 39q4 27 28 51t56 24q25 0 40 -17t10 -51q-5 -35 -27.5 -70t-51.5 -66t-54 -53z" />
<glyph unicode="&#x232;" horiz-adv-x="561" d="M272 812l15 72h279l-15 -72h-279zM216 233l-109 452l133 13l44 -227q5 -36 12 -78t10 -73h2q17 31 43 74t46 77l139 227l97 -8l5 -13l-300 -445l-49 -232h-123z" />
<glyph unicode="&#x233;" horiz-adv-x="468" d="M154 630l15 69h283l-14 -69h-284zM415 508q26 0 42.5 -8t16.5 -32q0 -33 -19 -87.5t-53 -122.5t-78 -139.5t-94.5 -138.5t-103 -121t-102.5 -85.5t-94 -31.5q-31 0 -49 18t-18 48q0 16 4 27.5t10 20.5q15 -3 30.5 -5t29.5 -2q42 0 85 21.5t80 56t61 73.5h-57 q-2 144 -14 273t-32 225l127 10q17 -95 22.5 -202.5t-1.5 -217.5h2q39 66 72.5 138.5t56 143.5t29.5 132q15 4 26.5 5t20.5 1z" />
<glyph unicode="&#x237;" horiz-adv-x="258" d="M-48 -258l-39 43q42 47 68 99t41 122l75 353l8 139l128 10q0 -64 -23 -175.5t-62 -293.5q-15 -71 -37.5 -125.5t-60 -96t-98.5 -75.5z" />
<glyph unicode="&#x259;" horiz-adv-x="479" d="M80 383l7 83q32 18 77 30t88 12q83 0 134 -46.5t51 -136.5q0 -62 -24.5 -121.5t-67 -108t-96 -77t-110.5 -28.5t-94.5 29t-37.5 84q0 44 30 85.5t97.5 69.5t178.5 32q1 13 1 24q0 50 -24 81.5t-75 31.5q-33 0 -67.5 -12.5t-67.5 -31.5zM118 112q0 -26 13 -39.5t35 -13.5 q34 0 62.5 29.5t48.5 73.5t29 88q-103 -13 -145.5 -52.5t-42.5 -85.5z" />
<glyph unicode="&#x272;" horiz-adv-x="601" d="M5 -230l-39 43q33 47 57 98.5t39 122.5l69 325l8 139l128 10q0 -30 -4.5 -66t-10.5 -74h2q39 74 92 107t101 33q58 0 82 -42.5t9 -115.5l-42 -199q-13 -59 -13 -151h-119q0 38 4.5 77t13.5 89t24 121q12 58 7 89t-39 31q-37 0 -69.5 -35.5t-57.5 -95t-39 -132.5 q-4 -21 -8 -39t-8 -38q-19 -107 -61.5 -176.5t-125.5 -120.5z" />
<glyph unicode="&#x2c6;" horiz-adv-x="401" d="M152 564l-32 28q37 38 73.5 78.5t69.5 80.5l86 8q17 -42 36 -83.5t42 -83.5l-44 -28q-27 26 -50.5 53t-44.5 54q-32 -27 -66.5 -55t-69.5 -52z" />
<glyph unicode="&#x2c7;" horiz-adv-x="401" d="M428 772l32 -28q-37 -38 -73.5 -78.5t-69.5 -80.5l-87 -8q-16 42 -35 83.5t-43 83.5l44 28q28 -26 51 -53t45 -54q32 27 66 55t70 52z" />
<glyph unicode="&#x2d8;" horiz-adv-x="377" d="M387 750l49 4q-22 -73 -70.5 -119t-109.5 -46q-55 0 -84 41.5t-19 112.5l50 7q1 -37 21.5 -58.5t54.5 -21.5q33 0 62.5 22.5t45.5 57.5z" />
<glyph unicode="&#x2d9;" horiz-adv-x="245" d="M289 690q0 -26 -14.5 -49t-37.5 -37.5t-49 -14.5t-41 15.5t-15 37.5q0 25 14.5 47.5t38 37t49.5 14.5t40.5 -14t14.5 -37z" />
<glyph unicode="&#x2da;" horiz-adv-x="306" d="M351 692q0 -31 -20 -59t-51 -45.5t-66 -17.5q-37 0 -59.5 19.5t-22.5 50.5q0 30 20.5 57.5t52.5 45t67 17.5q36 0 57.5 -18.5t21.5 -49.5zM189 650q0 -16 10 -26.5t29 -10.5q25 0 45.5 21t20.5 48q0 16 -9.5 25.5t-26.5 9.5q-27 0 -48 -21t-21 -46z" />
<glyph unicode="&#x2db;" horiz-adv-x="364" d="M238 0q-64 -29 -102.5 -65.5t-38.5 -71.5q0 -32 40 -32q10 0 24.5 2.5t33.5 9.5l8 -43q-26 -19 -59 -31t-64 -12q-40 0 -64.5 19t-24.5 53q0 52 52.5 101t143.5 83z" />
<glyph unicode="&#x2dc;" horiz-adv-x="416" d="M248 739q30 0 51.5 -14t41 -28t42.5 -14q20 0 35.5 14t31.5 35l34 -5q-9 -33 -26.5 -64.5t-42.5 -52t-56 -20.5q-29 0 -52 14t-44.5 28.5t-42.5 14.5q-17 0 -33 -13.5t-33 -36.5l-33 6q9 31 26 62.5t42 52.5t59 21z" />
<glyph unicode="&#x2dd;" horiz-adv-x="409" d="M329 756l2 -21q-75 -94 -172 -163l-42 11q35 44 68 90t59 93zM488 756l2 -21q-38 -48 -81 -88.5t-91 -74.5l-42 11q35 44 68 90t59 93z" />
<glyph unicode="&#x394;" horiz-adv-x="638" d="M347 690h134l83 -670l-6 -20h-584l2 20zM125 90h299l-51 461z" />
<glyph unicode="&#x3a9;" horiz-adv-x="783" d="M275 0h-271l3 86l16 14l205 -41q-52 36 -83 105t-31 151q0 81 29 150.5t80 121.5t117 81.5t141 29.5q79 0 133 -31.5t82 -85.5t28 -122q0 -60 -20 -119t-54 -112t-78.5 -96.5t-93.5 -71.5l218 40l11 -14l-35 -86h-271l-1 54q56 48 99.5 113.5t68.5 137.5t25 138 q0 72 -33 117t-99 45q-64 0 -115 -42t-81 -115.5t-30 -167.5q0 -73 18 -130t45 -96z" />
<glyph unicode="&#x3bc;" horiz-adv-x="548" d="M318 0q0 34 2.5 64t7.5 61h-1q-37 -71 -86.5 -103t-96.5 -32q-16 0 -30 6q7 -60 -0.5 -121.5t-6.5 -111.5l-119 -5q0 34 5.5 79.5t19 115t36.5 177.5l49 229l8 139l128 10q0 -47 -8.5 -98t-19.5 -102t-19 -97q-10 -54 -7.5 -87t37.5 -33q32 0 59.5 28t49.5 76t37 109 q8 40 14 75t9 66q2 27 2 53l125 10q-3 -49 -10 -95.5t-19 -105.5t-29 -143q-8 -38 -12.5 -77.5t-4.5 -86.5h-120z" />
<glyph unicode="&#x3c0;" horiz-adv-x="629" d="M46 414l36 86l580 8l5 -14l-37 -73l-81 -1q-14 -58 -26.5 -114.5t-21 -104t-10.5 -78.5q0 -14 4 -23t20 -9q18 0 42 8l-27 -99q-36 -10 -75 -10q-45 0 -68 22t-22 70q1 42 17 121t46 216l-158 -2q-16 -76 -32.5 -151.5t-27.5 -143.5t-11 -122h-119q0 40 6 89.5 t19.5 119.5t35.5 171l7 35z" />
<glyph unicode="&#x1e0c;" horiz-adv-x="709" d="M676 430q0 -83 -28.5 -160t-84 -138t-135.5 -96.5t-183 -35.5h-195l111 523q11 50 17.5 88t8.5 77h216q130 0 201.5 -63t71.5 -195zM371 599h-71l-108 -510h80q70 0 122 29t86 77t50.5 106t16.5 116q0 74 -24.5 113.5t-64.5 54t-87 14.5zM344 -137q0 -26 -14.5 -49 t-37.5 -37.5t-49 -14.5q-27 0 -41.5 15.5t-14.5 38.5q0 24 14.5 46.5t38 37t49.5 14.5q25 0 40 -14t15 -37z" />
<glyph unicode="&#x1e0d;" horiz-adv-x="549" d="M439 0h-119q0 34 4.5 76.5t16.5 107.5q-19 -49 -48.5 -93.5t-67.5 -72.5t-83 -28q-48 0 -76.5 38t-28.5 111q0 65 22.5 130t64.5 119t102 87t135 33q23 0 46 -4l23 105l8 139l128 10q0 -57 -13 -132t-32 -159t-37.5 -168.5t-31.5 -161.5t-13 -137zM160 170 q0 -37 11.5 -58t33.5 -21q24 0 50 26t49.5 67t42 86.5t28.5 84.5q3 12 6 25l9 42q-31 14 -54 14q-35 0 -66.5 -25.5t-56 -65.5t-39 -86.5t-14.5 -88.5zM281 -137q0 -26 -14.5 -49t-37.5 -37.5t-48 -14.5q-27 0 -42 15.5t-15 38.5q0 24 15 46.5t38 37t49 14.5t40.5 -14 t14.5 -37z" />
<glyph unicode="&#x1e24;" horiz-adv-x="726" d="M173 0h-123l110 518q10 48 17 90t10 80l121 10l10 -14l-63 -298h283l28 132q10 48 17 90t10 80l121 10l10 -14l-145 -684h-123l63 297h-283zM354 -137q0 -26 -14 -49t-37 -37.5t-49 -14.5q-27 0 -42 15.5t-15 38.5q0 24 15 46.5t38.5 37t49.5 14.5q25 0 39.5 -14 t14.5 -37z" />
<glyph unicode="&#x1e25;" horiz-adv-x="568" d="M166 0h-119q0 36 5.5 82.5t18.5 117.5t37 180l49 229l8 139l128 10q0 -51 -10 -114t-25 -133.5t-32 -142.5h3q38 73 91 106.5t101 33.5q46 0 71 -26.5t25 -74.5q0 -13 -1.5 -26t-5.5 -35t-12.5 -61t-22.5 -105q-11 -52 -15 -92.5t-4 -87.5h-119q0 71 12 135.5t23 113.5 q10 47 14 70.5t4 38.5q0 49 -42 49q-37 0 -69 -34t-57 -92t-39.5 -131t-16.5 -150zM296 -137q0 -26 -14.5 -49t-37.5 -37.5t-49 -14.5t-41 15.5t-15 38.5q0 24 14.5 46.5t38 37t49.5 14.5t40.5 -14t14.5 -37z" />
<glyph unicode="&#x1e44;" horiz-adv-x="730" d="M563 874q0 -24 -14 -45t-36.5 -34t-48.5 -13q-27 0 -42.5 14t-15.5 36q0 23 14.5 43t38 33t49.5 13q25 0 40 -13t15 -34zM421 416q28 -73 49 -133.5t36 -128.5h2q4 31 8 58t10 61t16 84.5t27 128.5q24 112 34 202l114 9l11 -14l-145 -683h-119q-30 76 -56 145.5 t-51 132.5q-29 73 -49.5 130.5t-36.5 120.5h-2q-7 -64 -16.5 -118.5t-21.5 -107.5l-64 -303h-117l111 523q9 44 16 85.5t10 79.5l127 8q30 -79 56 -147.5t51 -132.5z" />
<glyph unicode="&#x1e45;" horiz-adv-x="568" d="M436 690q0 -26 -14.5 -49t-37.5 -37.5t-49 -14.5q-27 0 -41.5 15.5t-14.5 38.5q0 24 14.5 46.5t38 37t49.5 14.5q25 0 40 -14t15 -37zM166 0h-119q0 47 6.5 99t19 115t31.5 145l8 139l128 10q0 -30 -4.5 -66t-10.5 -74h2q39 74 92 107t102 33q46 0 71 -26.5t25 -69.5 q0 -32 -10.5 -83t-23.5 -113q-11 -49 -16.5 -83.5t-8 -64.5t-2.5 -68h-119q0 54 7.5 103t21.5 120q10 50 16 81.5t6 51.5q0 24 -9.5 37.5t-31.5 13.5q-35 0 -67 -33.5t-57 -91t-40 -130.5t-17 -152z" />
<glyph unicode="&#x1e5a;" horiz-adv-x="616" d="M173 0h-123l111 523q10 44 16.5 83.5t9.5 81.5h194q109 0 167 -44t58 -124q0 -78 -46.5 -141t-130.5 -92l109 -287l-139 -11q-22 64 -43 130.5t-40 133.5h-90zM356 602h-55l-57 -266h51q85 0 134 46t49 119q0 46 -27.5 73.5t-94.5 27.5zM306 -137q0 -26 -14.5 -49 t-37.5 -37.5t-49 -14.5t-41 15.5t-15 38.5q0 24 14.5 46.5t38 37t49.5 14.5q25 0 40 -14t15 -37z" />
<glyph unicode="&#x1e5b;" horiz-adv-x="403" d="M166 0h-119q0 54 9.5 121t27.5 146l20 92l8 139l128 10q0 -40 -7 -86t-17 -95h2q36 100 80 140.5t85 40.5q21 0 39.5 -9t27.5 -20l-59 -109q-14 6 -28 9t-26 3q-38 0 -68.5 -30.5t-52.5 -84t-35 -122.5t-15 -145zM154 -137q0 -26 -14.5 -49t-37.5 -37.5t-49 -14.5 t-41 15.5t-15 38.5q0 24 14.5 46.5t38 37t49.5 14.5q25 0 40 -14t15 -37z" />
<glyph unicode="&#x1e62;" horiz-adv-x="530" d="M469 206q0 -62 -36.5 -110.5t-101 -77t-149.5 -28.5q-47 0 -97.5 9.5t-80.5 27.5l31 104q23 -15 53.5 -25t61 -15t53.5 -5q61 0 98 30t37 75q0 33 -19 55.5t-46.5 39.5t-53.5 33q-29 16 -55 37t-43 51t-17 73q0 62 38 111.5t103.5 78t150.5 28.5q45 0 86.5 -8t67.5 -21 l-38 -106q-31 20 -68.5 29.5t-69.5 9.5q-61 0 -100 -29.5t-39 -74.5q0 -31 17.5 -52t45.5 -37.5t58 -35.5q26 -16 52 -38t43.5 -53t17.5 -76zM260 -137q0 -26 -14.5 -49t-37.5 -37.5t-49 -14.5q-27 0 -41.5 15.5t-14.5 38.5q0 24 14.5 46.5t38 37t49.5 14.5q25 0 40 -14 t15 -37z" />
<glyph unicode="&#x1e63;" horiz-adv-x="437" d="M417 482l-29 -92q-28 17 -60 27t-60 10q-38 0 -62 -18t-24 -45q0 -25 19 -41t47 -30t56.5 -30.5t47.5 -42t19 -65.5q0 -49 -30 -86t-80 -58t-111 -21q-39 0 -79.5 9t-67.5 27l28 91q33 -23 72.5 -34.5t67.5 -11.5q38 0 62 18.5t24 45.5q0 25 -19.5 41t-47.5 29.5t-56 30 t-47.5 41.5t-19.5 65q0 49 31 86.5t81.5 58.5t109.5 21q30 0 64 -6.5t64 -19.5zM219 -137q0 -26 -14.5 -49t-37.5 -37.5t-48 -14.5q-27 0 -42 15.5t-15 38.5q0 24 14.5 46.5t38 37t49.5 14.5t40.5 -14t14.5 -37z" />
<glyph unicode="&#x1e6c;" horiz-adv-x="539" d="M278 0h-123l126 596q-49 -1 -100 -3l-102 -4l28 99h510l-13 -99l-100 4t-100 3zM261 -137q0 -26 -14.5 -49t-37.5 -37.5t-49 -14.5t-41 15.5t-15 38.5q0 24 14.5 46.5t38 37t49.5 14.5t40.5 -14t14.5 -37z" />
<glyph unicode="&#x1e6d;" horiz-adv-x="373" d="M378 433l-139 2q-20 -93 -32 -149t-18 -86t-8.5 -44.5t-2.5 -23.5q0 -30 15 -43t41 -13q20 0 41.5 7t41.5 18l-6 -76q-25 -14 -60 -24.5t-74 -10.5q-58 0 -89.5 28.5t-31.5 88.5q0 14 2.5 31t9 49t19 91.5t33.5 158.5l-69 1l9 45l76 15l55 123l77 6l12 -14l-28 -115h136 l7 -14zM210 -137q0 -26 -14.5 -49t-37.5 -37.5t-48 -14.5q-27 0 -42 15.5t-15 38.5q0 24 14.5 46.5t38 37t49.5 14.5t40.5 -14t14.5 -37z" />
<glyph unicode="&#x1e80;" horiz-adv-x="961" d="M725 774q-69 5 -132 21.5t-117 48.5l-2 20l87 65q39 -34 85.5 -65.5t95.5 -58.5zM156 -2l-49 687l132 13l18 -381q4 -53 4 -103.5t-2 -90.5q16 39 41.5 94t48.5 104l178 369l119 8l20 -381q3 -52 4.5 -103t0.5 -91q20 54 42 101t46 98l178 376l96 -8l5 -13l-337 -679 h-127l-27 339q-3 46 -3.5 93t-1.5 96h-3q-17 -41 -31 -72t-27 -59t-29 -59l-169 -338h-127z" />
<glyph unicode="&#x1e81;" horiz-adv-x="754" d="M483 572q-40 35 -71.5 74.5t-52.5 87.5l11 20l110 12q7 -47 20 -92.5t30 -90.5zM702 508q26 0 42 -8t16 -33q0 -32 -17.5 -86.5t-48.5 -120t-72 -133.5t-87 -127h-135q7 95 9 185.5t0 178.5h-2q-28 -92 -75.5 -187t-103.5 -177h-134q0 151 -10 280t-24 218l127 9 q12 -85 15 -194.5t-5 -226.5h2q39 66 70.5 137.5t53 142t27.5 132.5h145q11 -80 13.5 -188t-5.5 -224h2q38 66 69.5 139t52.5 144t27 133q15 4 27 5t21 1z" />
<glyph unicode="&#x1e82;" horiz-adv-x="961" d="M755 864l-11 -20q-67 -32 -136.5 -48.5t-143.5 -21.5l-3 31q62 28 121.5 58.5t112.5 65.5zM156 -2l-49 687l132 13l18 -381q4 -53 4 -103.5t-2 -90.5q16 39 41.5 94t48.5 104l178 369l119 8l20 -381q3 -52 4.5 -103t0.5 -91q20 54 42 101t46 98l178 376l96 -8l5 -13 l-337 -679h-127l-27 339q-3 46 -3.5 93t-1.5 96h-3q-17 -41 -31 -72t-27 -59t-29 -59l-169 -338h-127z" />
<glyph unicode="&#x1e83;" horiz-adv-x="754" d="M559 753l2 -20q-42 -49 -89.5 -88.5t-103.5 -73.5l-41 11q34 44 67.5 90.5t58.5 91.5zM702 508q26 0 42 -8t16 -33q0 -32 -17.5 -86.5t-48.5 -120t-72 -133.5t-87 -127h-135q7 95 9 185.5t0 178.5h-2q-28 -92 -75.5 -187t-103.5 -177h-134q0 151 -10 280t-24 218l127 9 q12 -85 15 -194.5t-5 -226.5h2q39 66 70.5 137.5t53 142t27.5 132.5h145q11 -80 13.5 -188t-5.5 -224h2q38 66 69.5 139t52.5 144t27 133q15 4 27 5t21 1z" />
<glyph unicode="&#x1e84;" horiz-adv-x="961" d="M787 868q0 -22 -12.5 -41t-33 -31t-44.5 -12t-37.5 13t-13.5 32q0 21 13.5 40t34.5 31t44 12q22 0 35.5 -12t13.5 -32zM568 868q0 -22 -12.5 -41t-33 -31t-44.5 -12t-37.5 13t-13.5 32q0 21 13.5 40t34.5 31t44 12q22 0 35.5 -12t13.5 -32zM156 -2l-49 687l132 13 l18 -381q4 -53 4 -103.5t-2 -90.5q16 39 41.5 94t48.5 104l178 369l119 8l20 -381q3 -52 4.5 -103t0.5 -91q20 54 42 101t46 98l178 376l96 -8l5 -13l-337 -679h-127l-27 339q-3 46 -3.5 93t-1.5 96h-3q-17 -41 -31 -72t-27 -59t-29 -59l-169 -338h-127z" />
<glyph unicode="&#x1e85;" horiz-adv-x="754" d="M408 689q0 -24 -13 -46t-34.5 -36t-45.5 -14t-37.5 14.5t-13.5 35.5q0 23 14 44.5t36 35.5t45 14t36 -13t13 -35zM625 689q0 -24 -13 -46t-34.5 -36t-45.5 -14t-37.5 14.5t-13.5 35.5q0 23 14 44.5t36 35.5t45 14t36 -13t13 -35zM702 508q26 0 42 -8t16 -33 q0 -32 -17.5 -86.5t-48.5 -120t-72 -133.5t-87 -127h-135q7 95 9 185.5t0 178.5h-2q-28 -92 -75.5 -187t-103.5 -177h-134q0 151 -10 280t-24 218l127 9q12 -85 15 -194.5t-5 -226.5h2q39 66 70.5 137.5t53 142t27.5 132.5h145q11 -80 13.5 -188t-5.5 -224h2q38 66 69.5 139 t52.5 144t27 133q15 4 27 5t21 1z" />
<glyph unicode="&#x1e92;" horiz-adv-x="525" d="M-14 0l-4 79l449 508l-329 -6l30 107h434l14 -79l-445 -508l338 7l-30 -108h-457zM251 -137q0 -26 -14.5 -49t-37.5 -37.5t-49 -14.5t-41 15.5t-15 38.5q0 24 14.5 46.5t38 37t49.5 14.5q25 0 40 -14t15 -37z" />
<glyph unicode="&#x1e93;" horiz-adv-x="449" d="M26 -10l-39 58q100 104 179 188t141 157q-35 11 -63.5 15.5t-48.5 4.5q-34 0 -64 -13.5t-53 -43.5l-35 21q20 53 43.5 81t51 39t60.5 11q39 0 79.5 -12.5t84.5 -35.5q20 24 37 48q16 0 32 -8.5t16 -31.5q0 -37 -81 -132.5t-233 -236.5q10 2 25 2q31 0 59 -7.5t53 -7.5 q63 0 105 65l41 -24q-19 -55 -42.5 -84.5t-51.5 -41t-64 -11.5q-51 0 -91.5 13t-73.5 13q-17 0 -32.5 -5.5t-34.5 -20.5zM206 -137q0 -26 -14.5 -49t-37.5 -37.5t-49 -14.5t-41 15.5t-15 38.5q0 24 14.5 46.5t38 37t49.5 14.5t40.5 -14t14.5 -37z" />
<glyph unicode="&#x1e9e;" horiz-adv-x="677" d="M70 139l68 318q17 77 61 131t107 82t137 28q84 0 139 -36t63 -106l-187 -172q43 -21 78 -46.5t55.5 -61.5t20.5 -86q0 -55 -29.5 -100.5t-82.5 -72.5t-124 -27q-37 0 -74.5 7t-63.5 20l22 104q23 -16 53 -25.5t58 -9.5q56 0 84.5 29t28.5 70q0 46 -38 78.5t-121 72.5 l6 32l179 178q-10 29 -33.5 43t-54.5 14q-59 0 -103.5 -41t-59.5 -113l-74 -348q-6 -27 -19.5 -60.5t-31.5 -50.5l-111 10q14 28 27 66t20 73z" />
<glyph unicode="&#x1ea0;" horiz-adv-x="646" d="M89 0h-117l313 585q33 62 52 106l141 6l16 -16l74 -681h-124l-18 170h-246zM282 362l-55 -103h189l-11 103q-6 69 -9.5 125t-2.5 96h-3q-18 -40 -47 -99.5t-61 -121.5zM319 -137q0 -26 -14 -49t-37 -37.5t-49 -14.5q-27 0 -42 15.5t-15 38.5q0 24 15 46.5t38.5 37 t49.5 14.5q25 0 39.5 -14t14.5 -37z" />
<glyph unicode="&#x1ea1;" horiz-adv-x="548" d="M37 140q0 64 22 129t64.5 119t103.5 87t138 33q32 0 76.5 -7.5t81.5 -24.5l-40 -175q-17 -73 -26.5 -127t-14 -95.5t-4.5 -78.5h-120q0 38 4.5 78t15.5 103q-19 -45 -49 -89t-67 -73t-80 -29q-48 0 -76.5 38t-28.5 112zM160 170q0 -37 11.5 -58t33.5 -21q24 0 49.5 26 t49 67t42 86.5t29.5 84.5q7 30 15 67q-31 14 -54 14q-35 0 -66.5 -25.5t-56 -65.5t-39 -86.5t-14.5 -88.5zM296 -137q0 -26 -14.5 -49t-37.5 -37.5t-49 -14.5q-27 0 -41.5 15.5t-14.5 38.5q0 24 14.5 46.5t38 37t49.5 14.5q25 0 40 -14t15 -37z" />
<glyph unicode="&#x1eb8;" horiz-adv-x="560" d="M485 96l-20 -96h-415l111 523q10 44 17 83.5t9 81.5h403l11 -14l-20 -82l-281 7l-46 -218l237 4l-22 -89l-232 5l-45 -212zM302 -137q0 -26 -14 -49t-37 -37.5t-49 -14.5q-27 0 -42 15.5t-15 38.5q0 24 15 46.5t38 37t50 14.5q25 0 39.5 -14t14.5 -37z" />
<glyph unicode="&#x1eb9;" horiz-adv-x="486" d="M400 133l18 -47q-38 -46 -92.5 -71t-109.5 -25q-75 0 -124 46.5t-49 138.5q0 61 22.5 120.5t62 107.5t92.5 76.5t115 28.5t100.5 -30t38.5 -83q0 -47 -33 -88t-101 -68t-172 -31q-1 -12 -1 -24q0 -50 24 -81.5t72 -31.5q35 0 70.5 17.5t66.5 44.5zM314 438 q-34 0 -62.5 -29t-48.5 -73t-29 -88q103 12 146 52t43 86q0 26 -13.5 39t-35.5 13zM271 -137q0 -26 -14.5 -49t-37.5 -37.5t-49 -14.5q-27 0 -41.5 15.5t-14.5 38.5q0 24 14.5 46.5t38 37t49.5 14.5q25 0 40 -14t15 -37z" />
<glyph unicode="&#x1ebc;" horiz-adv-x="560" d="M371 920q24 0 41.5 -8.5t32.5 -19.5t30 -20t34 -9q22 0 39 14t34 36l31 -6q-8 -30 -25.5 -59t-43 -47.5t-57.5 -18.5q-30 0 -53 14t-44 28t-45 14q-19 0 -36.5 -13t-34.5 -36l-31 6q7 28 24 57t43 48.5t61 19.5zM485 96l-20 -96h-415l111 523q10 44 17 83.5t9 81.5h403 l11 -14l-20 -82l-281 7l-46 -218l237 4l-22 -89l-232 5l-45 -212z" />
<glyph unicode="&#x1ebd;" horiz-adv-x="486" d="M285 739q30 0 51.5 -14t40.5 -28t42 -14q20 0 36 14t31 35l34 -5q-9 -33 -26.5 -64.5t-42.5 -52t-56 -20.5q-28 0 -51.5 14t-44.5 28.5t-42 14.5q-17 0 -33.5 -13.5t-32.5 -36.5l-34 6q9 31 26 62.5t42.5 52.5t59.5 21zM400 133l18 -47q-38 -46 -92.5 -71t-109.5 -25 q-75 0 -124 46.5t-49 138.5q0 61 22.5 120.5t62 107.5t92.5 76.5t115 28.5t100.5 -30t38.5 -83q0 -47 -33 -88t-101 -68t-172 -31q-1 -12 -1 -24q0 -50 24 -81.5t72 -31.5q35 0 70.5 17.5t66.5 44.5zM314 438q-34 0 -62.5 -29t-48.5 -73t-29 -88q103 12 146 52t43 86 q0 26 -13.5 39t-35.5 13z" />
<glyph unicode="&#x1eca;" horiz-adv-x="320" d="M173 0h-123l110 518q10 48 17 90t10 80l121 10l10 -14zM150 -137q0 -26 -14.5 -49t-37.5 -37.5t-48 -14.5q-27 0 -42 15.5t-15 38.5q0 24 15 46.5t38 37t50 14.5q25 0 39.5 -14t14.5 -37z" />
<glyph unicode="&#x1ecb;" horiz-adv-x="275" d="M288 690q0 -26 -14.5 -49t-37.5 -37.5t-48 -14.5q-27 0 -42 15.5t-15 38.5q0 24 14.5 46.5t38 37t49.5 14.5t40.5 -14t14.5 -37zM166 0h-119q0 54 9.5 121t27.5 146l20 92l8 139l128 10q0 -53 -11 -116t-26 -130.5t-26 -134.5t-11 -127zM154 -137q0 -26 -14.5 -49 t-37.5 -37.5t-49 -14.5q-27 0 -41.5 15.5t-14.5 38.5q0 24 14.5 46.5t38 37t49.5 14.5q25 0 40 -14t15 -37z" />
<glyph unicode="&#x1ecc;" horiz-adv-x="698" d="M667 442q0 -84 -27.5 -164.5t-77 -145.5t-118.5 -103.5t-151 -38.5q-103 0 -162.5 65t-59.5 188q0 84 27.5 165t77.5 146.5t118 104.5t150 39q104 0 163.5 -66.5t59.5 -189.5zM198 246q0 -76 28.5 -119.5t87.5 -43.5q53 0 95 33t71 87t44.5 117t15.5 122 q0 76 -27.5 119.5t-86.5 43.5q-53 0 -95.5 -33.5t-72 -87.5t-45 -117t-15.5 -121zM344 -137q0 -26 -14 -49t-37 -37.5t-49 -14.5q-27 0 -42 15.5t-15 38.5q0 24 15 46.5t38 37t50 14.5q25 0 39.5 -14t14.5 -37z" />
<glyph unicode="&#x1ecd;" horiz-adv-x="538" d="M497 325q0 -62 -21.5 -122t-60 -108t-91 -76.5t-115.5 -28.5q-74 0 -120 44.5t-46 136.5q0 62 21.5 122t60.5 108.5t91.5 77.5t114.5 29q77 0 121.5 -46.5t44.5 -136.5zM167 162q0 -48 14.5 -74t48.5 -26t61 27.5t45 70t27.5 89.5t9.5 87q0 100 -63 100q-35 0 -61.5 -27 t-45 -69.5t-27.5 -89.5t-9 -88zM273 -137q0 -26 -14.5 -49t-37.5 -37.5t-48 -14.5q-27 0 -42 15.5t-15 38.5q0 24 15 46.5t38 37t49 14.5t40.5 -14t14.5 -37z" />
<glyph unicode="&#x1ee4;" horiz-adv-x="678" d="M76 164q0 29 8 74t20.5 100.5t26 116.5t24 121t14.5 113l124 9l9 -12q-28 -132 -46.5 -217.5t-29.5 -136.5t-16 -77.5t-6.5 -39t-1.5 -21.5q0 -54 30 -81t81 -27q61 0 107 39t62 114q23 108 38 179t24 115t13.5 71t6.5 45.5t3 39.5l130 8l-99 -466q-17 -80 -63.5 -133.5 t-111.5 -80.5t-137 -27q-93 0 -151.5 45t-58.5 129zM335 -137q0 -26 -14 -49t-37 -37.5t-49 -14.5q-27 0 -42 15.5t-15 38.5q0 24 15 46.5t38 37t50 14.5q25 0 39.5 -14t14.5 -37z" />
<glyph unicode="&#x1ee5;" horiz-adv-x="548" d="M53 148l45 211l8 139l128 10q0 -47 -8.5 -98t-19.5 -102t-19 -97q-10 -54 -7.5 -87t37.5 -33q32 0 59.5 28t49.5 76t37 109q8 40 14 75t9 66q2 27 2 53l125 10q-3 -49 -10.5 -95.5t-19.5 -105.5t-28 -143q-8 -38 -12.5 -77.5t-4.5 -86.5h-120q0 34 2.5 64t7.5 61h-1 q-37 -71 -86.5 -103t-96.5 -32q-58 0 -82 43.5t-9 114.5zM298 -137q0 -26 -14.5 -49t-37.5 -37.5t-49 -14.5t-41 15.5t-15 38.5q0 24 14.5 46.5t38 37t49.5 14.5t40.5 -14t14.5 -37z" />
<glyph unicode="&#x1ef2;" horiz-adv-x="561" d="M538 774q-69 5 -132.5 21.5t-117.5 48.5l-2 20l87 65q39 -34 85.5 -65.5t95.5 -58.5zM216 233l-109 452l133 13l44 -227q5 -36 12 -78t10 -73h2q17 31 43 74t46 77l139 227l97 -8l5 -13l-300 -445l-49 -232h-123z" />
<glyph unicode="&#x1ef3;" horiz-adv-x="468" d="M343 572q-41 35 -72.5 74.5t-52.5 87.5l12 20l110 12q6 -47 19 -92.5t30 -90.5zM415 508q26 0 42.5 -8t16.5 -32q0 -33 -19 -87.5t-53 -122.5t-78 -139.5t-94.5 -138.5t-103 -121t-102.5 -85.5t-94 -31.5q-31 0 -49 18t-18 48q0 16 4 27.5t10 20.5q15 -3 30.5 -5t29.5 -2 q42 0 85 21.5t80 56t61 73.5h-57q-2 144 -14 273t-32 225l127 10q17 -95 22.5 -202.5t-1.5 -217.5h2q39 66 72.5 138.5t56 143.5t29.5 132q15 4 26.5 5t20.5 1z" />
<glyph unicode="&#x1ef8;" horiz-adv-x="561" d="M364 920q23 0 40.5 -8.5t32.5 -19.5t30.5 -20t33.5 -9q23 0 39.5 14t33.5 36l31 -6q-8 -30 -25.5 -59t-43 -47.5t-57.5 -18.5q-29 0 -52 14t-44.5 28t-44.5 14q-19 0 -36.5 -13t-35.5 -36l-31 6q8 28 24.5 57t42.5 48.5t62 19.5zM216 233l-109 452l133 13l44 -227 q5 -36 12 -78t10 -73h2q17 31 43 74t46 77l139 227l97 -8l5 -13l-300 -445l-49 -232h-123z" />
<glyph unicode="&#x1ef9;" horiz-adv-x="468" d="M252 739q30 0 51.5 -14t41 -28t42.5 -14q20 0 35.5 14t31.5 35l34 -5q-9 -33 -26.5 -64.5t-42.5 -52t-56 -20.5q-28 0 -51.5 14t-45 28.5t-42.5 14.5q-17 0 -33 -13.5t-33 -36.5l-33 6q9 31 26 62.5t42.5 52.5t58.5 21zM415 508q26 0 42.5 -8t16.5 -32q0 -33 -19 -87.5 t-53 -122.5t-78 -139.5t-94.5 -138.5t-103 -121t-102.5 -85.5t-94 -31.5q-31 0 -49 18t-18 48q0 16 4 27.5t10 20.5q15 -3 30.5 -5t29.5 -2q42 0 85 21.5t80 56t61 73.5h-57q-2 144 -14 273t-32 225l127 10q17 -95 22.5 -202.5t-1.5 -217.5h2q39 66 72.5 138.5t56 143.5 t29.5 132q15 4 26.5 5t20.5 1z" />
<glyph unicode="&#x2007;" />
<glyph unicode="&#x2013;" horiz-adv-x="550" d="M37 263l5 44h487l-6 -44h-486z" />
<glyph unicode="&#x2014;" horiz-adv-x="845" d="M34 263l8 44h785l-9 -44h-784z" />
<glyph unicode="&#x2018;" horiz-adv-x="259" d="M321 737q-27 -32 -55.5 -71.5t-45.5 -80.5q20 -3 33 -17.5t13 -36.5q0 -25 -14.5 -48t-37.5 -37t-48 -14q-26 0 -42.5 14.5t-16.5 44.5q0 31 18 69t46 76.5t60 73t60 58.5z" />
<glyph unicode="&#x2019;" horiz-adv-x="259" d="M85 454q27 31 55.5 71t46.5 80q-21 4 -33.5 18.5t-12.5 36.5q0 25 14 47.5t37 37t48 14.5q26 0 42.5 -14.5t16.5 -44.5q0 -31 -17.5 -69t-46 -76.5t-60 -73t-60.5 -58.5z" />
<glyph unicode="&#x201a;" horiz-adv-x="259" d="M-46 -161q27 32 56 71.5t46 80.5q-21 3 -33.5 17.5t-12.5 36.5q0 25 14 48t37 37t48 14q26 0 42.5 -14.5t16.5 -43.5q0 -32 -17.5 -70t-46 -76.5t-60 -73t-60.5 -58.5z" />
<glyph unicode="&#x201c;" horiz-adv-x="480" d="M321 737q-27 -32 -55.5 -71.5t-45.5 -80.5q20 -3 33 -17.5t13 -36.5q0 -25 -14.5 -48t-37.5 -37t-48 -14q-26 0 -42.5 14.5t-16.5 44.5q0 31 18 69t46 76.5t60 73t60 58.5zM542 737q-27 -32 -55.5 -71.5t-45.5 -80.5q20 -3 33 -17.5t13 -36.5q0 -25 -14.5 -48t-37.5 -37 t-48 -14q-26 0 -42.5 14.5t-16.5 44.5q0 31 18 69t46 76.5t60 73t60 58.5z" />
<glyph unicode="&#x201d;" horiz-adv-x="480" d="M306 455q27 31 56 71t46 80q-21 3 -33.5 17.5t-12.5 36.5q0 26 14 48.5t37 36.5t48 14q26 0 42.5 -14.5t16.5 -43.5q0 -32 -17.5 -70t-46 -76.5t-60 -72.5t-60.5 -58zM85 455q27 31 55.5 71t46.5 80q-21 3 -33.5 17.5t-12.5 36.5q0 26 14 48.5t37 36.5t48 14 q26 0 42.5 -14.5t16.5 -43.5q0 -32 -17.5 -70t-46 -76.5t-60 -72.5t-60.5 -58z" />
<glyph unicode="&#x201e;" horiz-adv-x="476" d="M-46 -161q27 32 56 71.5t46 80.5q-21 3 -33.5 17.5t-12.5 36.5q0 25 14 48t37 37t48 14q26 0 42.5 -14.5t16.5 -43.5q0 -32 -17.5 -70t-46 -76.5t-60 -73t-60.5 -58.5zM172 -161q27 32 55.5 71.5t45.5 80.5q-20 3 -33 17.5t-13 36.5q0 25 14.5 48t37.5 37t48 14t42 -14.5 t17 -43.5q0 -32 -18 -70t-46 -76.5t-60 -73t-60 -58.5z" />
<glyph unicode="&#x2020;" horiz-adv-x="506" d="M231 0l-61 -1l-5 11l3 148l99 297l-167 -15l-2 3q0 16 3 37t8 41l12 7l157 -15l10 176l4 4q23 2 51 3.5t56 1.5l7 -8l-66 -177l166 15l3 -3q-2 -16 -4.5 -37t-6.5 -41l-13 -7l-159 15l-27 -297l-60 -149z" />
<glyph unicode="&#x2021;" horiz-adv-x="506" d="M143 -7l-6 8l72 180l-166 -24l-10 7q4 20 11.5 48t13.5 44l4 3l159 -25q1 29 2 58.5t6 55.5q5 24 17 52.5t23 57.5l-170 -25l-3 3q1 17 5.5 44.5t9.5 47.5l12 7l157 -24l3 178l4 4q26 2 56 3.5t60 1.5l7 -8l-72 -179l169 24l3 -3q-1 -16 -5.5 -44t-8.5 -47l-12 -8 l-158 25q-1 -29 -1.5 -57.5t-5.5 -52.5q-6 -26 -17.5 -55.5t-23.5 -58.5l168 25l9 -8q-4 -19 -11.5 -47t-12.5 -44l-4 -3l-160 24l-4 -179l-4 -4q-24 -2 -55 -3.5t-61 -1.5z" />
<glyph unicode="&#x2022;" horiz-adv-x="468" d="M204 132q-49 0 -77 28t-28 70q0 44 26 83.5t67 64t86 24.5q46 0 72.5 -26t26.5 -70q0 -45 -24.5 -84.5t-64 -64.5t-84.5 -25z" />
<glyph unicode="&#x2026;" horiz-adv-x="721" d="M174 91q0 -25 -15 -48.5t-38.5 -38t-49.5 -14.5q-27 0 -43 15.5t-16 39.5q0 25 15.5 47.5t39.5 37t50 14.5t41.5 -14.5t15.5 -38.5zM403 91q0 -25 -14.5 -48.5t-38 -38t-50.5 -14.5t-43 15.5t-16 39.5q0 25 15.5 47.5t39.5 37t51 14.5q25 0 40.5 -14.5t15.5 -38.5z M632 91q0 -25 -14.5 -48.5t-38 -38t-49.5 -14.5q-27 0 -43 15.5t-16 39.5q0 25 15 47.5t39.5 37t50.5 14.5q25 0 40.5 -14.5t15.5 -38.5z" />
<glyph unicode="&#x2030;" horiz-adv-x="1425" d="M476 552q0 -49 -17.5 -94.5t-49 -82.5t-75 -58.5t-95.5 -21.5q-63 0 -102 36.5t-39 109.5q0 49 18 95t50 83t75.5 58.5t94.5 21.5q65 0 102.5 -38t37.5 -109zM767 698l-423 -708h-54l422 708h55zM202 435q0 -80 54 -80q28 0 50 20.5t36.5 53t22.5 68t8 65.5q0 78 -54 78 q-29 0 -51 -20.5t-36.5 -52.5t-22 -67.5t-7.5 -64.5zM921 180q0 -49 -17.5 -94.5t-49 -82.5t-75 -58.5t-95.5 -21.5q-63 0 -102 36.5t-39 109.5q0 49 18 95t50 83t75.5 58.5t94.5 21.5q65 0 102.5 -38t37.5 -109zM1355 180q0 -49 -17.5 -94.5t-49 -82.5t-75 -58.5 t-95.5 -21.5q-63 0 -102 36.5t-39 109.5q0 49 18 95t50 83t75.5 58.5t93.5 21.5q66 0 103.5 -38t37.5 -109zM647 63q0 -80 54 -80q28 0 50 20.5t36.5 53t22 68t7.5 65.5q0 78 -53 78q-29 0 -51 -20.5t-36.5 -52.5t-22 -67.5t-7.5 -64.5zM1081 63q0 -80 53 -80 q29 0 50.5 20.5t36.5 53t22.5 68t7.5 65.5q0 78 -54 78q-28 0 -50 -20.5t-36.5 -52.5t-22 -67.5t-7.5 -64.5z" />
<glyph unicode="&#x2039;" horiz-adv-x="290" d="M54 276l7 33q53 38 104.5 85t106.5 104l28 -14q-29 -52 -66 -101t-77 -90q22 -42 38.5 -90.5t23.5 -101.5l-34 -14q-31 56 -62.5 104t-68.5 85z" />
<glyph unicode="&#x203a;" horiz-adv-x="290" d="M254 309l-7 -33q-52 -38 -103.5 -85t-106.5 -104l-28 14q29 53 66 101.5t76 89.5q-21 42 -37.5 90.5t-23.5 101.5l34 14q30 -56 62 -104t68 -85z" />
<glyph unicode="&#x2044;" horiz-adv-x="497" d="M638 700l-576 -710h-57l575 710h58z" />
<glyph unicode="&#x2070;" horiz-adv-x="461" d="M536 613q0 -53 -18.5 -101.5t-51.5 -86.5t-76 -59.5t-92 -21.5q-62 0 -100 37.5t-38 112.5q0 54 19 102.5t52 87t76.5 60.5t92.5 22q63 0 99.5 -39.5t36.5 -113.5zM253 485q0 -88 58 -88q29 0 53 21.5t41.5 55.5t27.5 74t10 76q0 88 -57 88q-29 0 -53 -21t-42 -55 t-28 -74t-10 -77z" />
<glyph unicode="&#x2074;" horiz-adv-x="417" d="M144 504l223 256l102 6l8 -9l-52 -245q32 1 61 5l-22 -68h-52l-21 -97h-87l21 97h-182zM222 511v-1q19 0 45 0.5t70 0.5h1l17 80q7 31 12.5 56.5t14.5 53.5h-2z" />
<glyph unicode="&#x2075;" horiz-adv-x="393" d="M134 358l21 61q16 -7 41 -11t44 -4q47 0 80.5 22t33.5 59q0 29 -21 43t-51 14q-20 0 -44.5 -5t-41.5 -11l-11 8l47 224h156q26 0 52.5 1t52.5 5l-21 -74h-179l-20 -94q29 5 59 5q51 0 85.5 -25.5t34.5 -76.5q0 -44 -27.5 -79t-76 -55.5t-109.5 -20.5q-27 0 -55 4t-50 10z " />
<glyph unicode="&#x2076;" horiz-adv-x="413" d="M293 344q-60 0 -98.5 32t-38.5 103q0 55 23 106.5t63.5 92t93 64.5t110.5 24q17 0 32.5 -2t22.5 -5l-21 -63q-8 3 -20.5 5t-25.5 2q-31 0 -63.5 -14t-59.5 -43.5t-43 -74.5h2q17 10 40 16t45 6q54 0 86.5 -25.5t32.5 -72.5q0 -41 -24 -75.5t-65 -55t-92 -20.5zM324 540 q-17 0 -37 -7.5t-31 -19.5q-8 -26 -8 -50q0 -65 51 -65q34 0 56 26.5t22 61.5q0 25 -13.5 39.5t-39.5 14.5z" />
<glyph unicode="&#x2077;" horiz-adv-x="359" d="M179 680l24 78h285l9 -10l-10 -48q-91 -74 -153.5 -162t-86.5 -186h-96q18 64 57.5 127.5t90 118t100.5 91.5v1h-90q-34 0 -67 -2t-63 -8z" />
<glyph unicode="&#x2078;" horiz-adv-x="417" d="M279 344q-66 0 -103.5 24.5t-37.5 65.5q0 40 36 73t92 52v2q-25 16 -45 37.5t-20 51.5q0 33 23.5 59.5t62.5 41.5t85 15q63 0 94.5 -26t31.5 -60q0 -33 -29 -64.5t-77 -50.5v-2q29 -14 54.5 -37.5t25.5 -60.5q0 -33 -25 -60.5t-68.5 -44t-99.5 -16.5zM358 716 q-28 0 -49 -16t-21 -42q0 -19 15 -36t39 -29q32 16 51 38t19 43q0 19 -15.5 30.5t-38.5 11.5zM311 525q-32 -11 -58 -34t-26 -50q0 -21 17.5 -34.5t49.5 -13.5q39 0 63.5 18.5t24.5 43.5q0 22 -20 39.5t-51 30.5z" />
<glyph unicode="&#x2079;" horiz-adv-x="413" d="M289 506q-53 0 -84 26.5t-31 74.5q0 44 23.5 80t63.5 57.5t90 21.5q58 0 100.5 -35.5t42.5 -113.5q0 -54 -21.5 -103t-60 -87.5t-90 -60.5t-112.5 -22q-13 0 -28.5 1t-24.5 4l11 61q11 -1 22.5 -2.5t24.5 -1.5q62 0 106.5 36t59.5 92q-21 -15 -45 -21.5t-47 -6.5z M346 708q-33 0 -53.5 -29t-20.5 -64q0 -56 54 -56q15 0 32.5 5t32.5 16q4 16 5.5 31t1.5 26q0 33 -13 52t-39 19zM412 606l-11 -17q7 8 11 17z" />
<glyph unicode="&#x207f;" horiz-adv-x="471" d="M238 580q29 53 72.5 80t86.5 27q39 0 60.5 -22t21.5 -60q0 -25 -7.5 -61t-19.5 -85q-8 -39 -12.5 -66t-5.5 -50t-1 -52h-100q0 47 5.5 87.5t15.5 84.5q9 44 13 65.5t4 33.5q0 41 -36 41q-28 0 -54 -25.5t-46 -69t-32 -99.5t-13 -118h-100q0 31 4 67.5t13.5 87t26.5 125.5 l4 108l108 8q0 -22 -3 -49.5t-8 -57.5h3z" />
<glyph unicode="&#x2080;" horiz-adv-x="461" d="M446 189q0 -53 -18.5 -101.5t-51.5 -86.5t-76 -59.5t-92 -21.5q-62 0 -100 37.5t-38 112.5q0 54 19 102.5t52 87t76.5 60.5t92.5 22q63 0 99.5 -39.5t36.5 -113.5zM163 61q0 -88 58 -88q29 0 53 21.5t41.5 55.5t27.5 74t10 76q0 88 -57 88q-29 0 -53 -21t-42 -55t-28 -74 t-10 -77z" />
<glyph unicode="&#x2081;" horiz-adv-x="272" d="M159 257h-1l-69 -10l-2 52l172 45l8 -10l-86 -404h-92l52 244q5 24 9 43.5t9 39.5z" />
<glyph unicode="&#x2082;" horiz-adv-x="376" d="M33 -70l3 61q42 24 84.5 51.5t78 57.5t57.5 61.5t22 64.5q0 25 -16 40t-46 15q-54 0 -118 -43l6 68q28 16 69 27t80 11q56 0 90.5 -26.5t34.5 -72.5q0 -38 -22.5 -73.5t-59 -67t-81 -58.5t-89.5 -49h95q54 0 106 6l-22 -73h-272z" />
<glyph unicode="&#x2083;" horiz-adv-x="371" d="M112 310q24 12 63.5 22t76.5 10q50 0 81.5 -21t31.5 -55q0 -26 -17 -50.5t-46 -43t-63 -27.5q48 -5 76 -27.5t28 -58.5q0 -39 -28 -70.5t-75.5 -50t-106.5 -18.5q-27 0 -56.5 3.5t-50.5 10.5l21 58q15 -6 40 -10t46 -4q47 0 80 19.5t33 49.5q0 27 -26 37.5t-61 10.5 q-14 0 -29 -1t-30 -3l12 58q69 8 111 33.5t42 58.5q0 17 -13.5 27.5t-40.5 10.5q-24 0 -53.5 -8t-53.5 -20z" />
<glyph unicode="&#x2084;" horiz-adv-x="417" d="M54 82l223 256l102 6l8 -9l-52 -245q32 1 61 5l-22 -68h-52l-21 -97h-87l21 97h-182zM132 89v-1q19 0 45 0.5t70 0.5h1l17 80q7 31 12.5 56.5t14.5 53.5h-2z" />
<glyph unicode="&#x2085;" horiz-adv-x="393" d="M44 -66l21 61q16 -7 41 -11t44 -4q47 0 80.5 22t33.5 59q0 29 -21 43t-51 14q-20 0 -44.5 -5t-41.5 -11l-11 8l47 224h156q26 0 52.5 1t52.5 5l-21 -74h-179l-20 -94q29 5 59 5q51 0 85.5 -25.5t34.5 -76.5q0 -44 -27.5 -79t-76 -55.5t-109.5 -20.5q-27 0 -55 4t-50 10z " />
<glyph unicode="&#x2086;" horiz-adv-x="413" d="M203 -80q-60 0 -98.5 32t-38.5 103q0 55 23 106.5t63.5 92t93 64.5t110.5 24q17 0 32.5 -2t22.5 -5l-21 -63q-8 3 -20.5 5t-25.5 2q-31 0 -63.5 -14t-59.5 -43.5t-43 -74.5h2q17 10 40 16t45 6q54 0 86.5 -25.5t32.5 -72.5q0 -41 -24 -75.5t-65 -55t-92 -20.5zM234 116 q-17 0 -37 -7.5t-31 -19.5q-8 -26 -8 -50q0 -65 51 -65q34 0 56 26.5t22 61.5q0 25 -13.5 39.5t-39.5 14.5z" />
<glyph unicode="&#x2087;" horiz-adv-x="359" d="M89 258l24 78h285l9 -10l-10 -48q-91 -74 -153.5 -162t-86.5 -186h-96q18 64 57.5 127.5t90 118t100.5 91.5v1h-90q-34 0 -67 -2t-63 -8z" />
<glyph unicode="&#x2088;" horiz-adv-x="417" d="M189 -80q-66 0 -103.5 24.5t-37.5 65.5q0 40 36 73t92 52v2q-25 16 -45 37.5t-20 51.5q0 33 23.5 59.5t62.5 41.5t85 15q63 0 94.5 -26t31.5 -60q0 -33 -29 -64.5t-77 -50.5v-2q29 -14 54.5 -37.5t25.5 -60.5q0 -33 -25 -60.5t-68.5 -44t-99.5 -16.5zM268 292 q-28 0 -49 -16t-21 -42q0 -19 15 -36t39 -29q32 16 51 38t19 43q0 19 -15.5 30.5t-38.5 11.5zM221 101q-32 -11 -58 -34t-26 -50q0 -21 17.5 -34.5t49.5 -13.5q39 0 63.5 18.5t24.5 43.5q0 22 -20 39.5t-51 30.5z" />
<glyph unicode="&#x2089;" horiz-adv-x="413" d="M199 82q-53 0 -84 26.5t-31 74.5q0 44 23.5 80t63.5 57.5t90 21.5q58 0 100.5 -35.5t42.5 -113.5q0 -54 -21.5 -103t-60 -87.5t-90 -60.5t-112.5 -22q-13 0 -28.5 1t-24.5 4l11 61q11 -1 22.5 -2.5t24.5 -1.5q62 0 106.5 36t59.5 92q-21 -15 -45 -21.5t-47 -6.5zM256 284 q-33 0 -53.5 -29t-20.5 -64q0 -56 54 -56q15 0 32.5 5t32.5 16q4 16 5.5 31t1.5 26q0 33 -13 52t-39 19zM322 182l-11 -17q7 8 11 17z" />
<glyph unicode="&#x20ac;" horiz-adv-x="597" d="M41 248l15 47h66q6 44 19 87h-58l15 47h60q32 77 85 137.5t120 96t142 35.5q41 0 80 -11t64 -31l-45 -106q-27 21 -58 33.5t-62 12.5q-61 0 -114 -47t-85 -120h206l-14 -47h-209q-13 -43 -17 -87h198l-14 -47h-186q3 -157 126 -157q37 0 76.5 13.5t71.5 33.5l-8 -100 q-40 -24 -86.5 -36t-91.5 -12q-105 0 -162 60.5t-57 181.5v16h-77z" />
<glyph unicode="&#x2122;" horiz-adv-x="581" d="M596 690l6 -5l-24 -225h-53l9 82q2 20 5 42.5t8 52.5h-1q-11 -26 -18 -44t-25 -52l-40 -81h-60l-4 81q-3 30 -3 49t1 48h-1q-5 -19 -7.5 -28t-6.5 -22.5t-14 -46.5l-27 -81h-45l74 228l74 2l6 -73q1 -23 0.5 -47.5t-2.5 -59.5h1q12 34 24 63t20 44l36 71zM209 460h-55 l40 187q-17 0 -34 -0.5t-34 -1.5l12 42h185l-6 -42q-17 1 -34 1.5t-34 0.5z" />
<glyph unicode="&#x2202;" horiz-adv-x="664" d="M432 758q119 0 173 -72t54 -201q0 -99 -28.5 -188t-81 -158t-125 -109t-160.5 -40q-94 0 -143 46.5t-49 126.5q0 60 26 113.5t71.5 94.5t106.5 65t131 24q38 0 67.5 -7.5t53.5 -18.5q1 18 1 36q0 99 -35 147.5t-102 48.5q-43 0 -87.5 -16.5t-75.5 -39.5l-25 78 q41 27 101.5 48.5t126.5 21.5zM201 181q0 -98 93 -98q58 0 102 36t73.5 94.5t44.5 125.5q-21 12 -48 20t-62 8q-60 0 -106 -24.5t-71.5 -66.5t-25.5 -95z" />
<glyph unicode="&#x220f;" horiz-adv-x="753" d="M845 674l-21 -79h-96l-156 -735h-119l156 735h-214l-156 -735h-119l156 735h-96l16 91l639 2z" />
<glyph unicode="&#x2211;" horiz-adv-x="581" d="M38 -49l309 329l-169 329l38 79h472l11 -14l-22 -82l-371 7l157 -303l-7 -32l-285 -303l376 7l-21 -96h-484z" />
<glyph unicode="&#x2212;" d="M532 314h-450l14 63q30 1 75.5 2t97 1.5t104 1t98 0.5h77.5l4 -7z" />
<glyph unicode="&#x221a;" horiz-adv-x="625" d="M759 737l-374 -737h-130l-61 408h-96l19 90h181l46 -409l313 669l96 -8z" />
<glyph unicode="&#x221e;" horiz-adv-x="805" d="M780 388q0 -60 -29.5 -111t-78.5 -82t-108 -31q-43 0 -72 16t-48 41t-33 54q-46 -52 -97.5 -81.5t-108.5 -29.5q-62 0 -99.5 37.5t-37.5 101.5q0 60 29 111t77 81.5t105 30.5q43 0 72.5 -16t50 -41.5t34.5 -55.5q48 55 99 84t108 29q63 0 100 -37.5t37 -100.5zM619 460 q-43 0 -85 -29.5t-75 -74.5q14 -35 29 -63.5t36 -45.5t54 -17q34 0 63.5 20t47.5 52.5t18 69.5q0 40 -24 64t-64 24zM142 321q0 -42 24.5 -66t64.5 -24t82 29t75 71q-14 33 -29.5 62.5t-38 48t-57.5 18.5q-34 0 -61.5 -19.5t-43.5 -51t-16 -68.5z" />
<glyph unicode="&#x222b;" horiz-adv-x="498" d="M98 -258q-31 0 -62.5 7t-61.5 21l29 93q25 -19 53 -29.5t51 -10.5q35 0 53.5 22.5t26 62t10.5 89.5q6 48 8.5 119t5.5 166q3 106 10.5 193.5t29 150.5t67.5 97.5t126 34.5q68 0 126 -28l-29 -93q-27 19 -53.5 29.5t-52.5 10.5q-48 0 -68 -40.5t-25 -118t-9 -186.5 q-4 -91 -6.5 -157.5t-7.5 -126.5q-9 -97 -33 -165.5t-69 -104.5t-119 -36z" />
<glyph unicode="&#x2248;" d="M457 359q-14 0 -40.5 6t-58.5 15.5t-63 18.5t-54.5 15t-32.5 6q-12 0 -33.5 -21.5t-48.5 -49.5l-35 28q18 23 41 50t47.5 46t47.5 19q13 0 40 -6t59 -15.5t63 -18.5t54.5 -15t32.5 -6q11 0 33 21t50 49l34 -26q-18 -24 -41.5 -51t-48 -46t-46.5 -19zM412 149 q-14 0 -40.5 6t-58.5 15t-63 18t-54.5 15.5t-32.5 6.5q-11 0 -33 -21.5t-49 -49.5l-35 27q18 24 41 50.5t47.5 46t47.5 19.5q14 0 40.5 -6.5t58.5 -15.5t63 -18t54.5 -15.5t32.5 -6.5q11 0 33 21.5t50 49.5l34 -27q-18 -24 -41 -50.5t-47.5 -45.5t-47.5 -19z" />
<glyph unicode="&#x2260;" d="M119 127l68 97h-124l14 64q28 0 68.5 1t87.5 1l87 127h-215l13 64q42 1 110 2t139 2l83 120l9 2l47 -28l-64 -94q77 1 128 1l5 -7l-20 -62h-160l-87 -126q63 1 122.5 1.5t98.5 0.5l4 -7l-20 -62h-252l-85 -123l-10 -2z" />
<glyph unicode="&#x2264;" d="M205 392l317 -130l-15 -68l-419 174l9 43l7 9q29 10 75.5 26t102.5 35t113 38t108 35.5t86 27.5l-14 -68zM474 45h-450l13 63q31 1 76 1.5t97 1.5t104 1.5t98 0.5h78l4 -7z" />
<glyph unicode="&#x2265;" d="M62 192l15 70l377 129l-322 122l14 69q38 -14 93 -35t115 -44.5t115 -45.5t94 -38l3 -9l-10 -49zM479 45h-450l13 63q31 1 76 1.5t97 1.5t104 1.5t97.5 0.5h77.5l5 -7z" />
<glyph unicode="&#x25ca;" horiz-adv-x="600" d="M62 324l8 37l282 329l78 10l147 -340l-8 -37l-284 -323l-77 -10zM379 640l-245 -299l121 -290h4l247 291l-122 298h-5z" />
<glyph unicode="&#x25fc;" horiz-adv-x="510" d="M0 510h510v-510h-510v510z" />
<glyph unicode="&#xfb00;" horiz-adv-x="654" d="M269 552q-4 -15 -6 -31t-6 -34h172q4 22 7.5 44t6.5 36q7 33 20 61q-16 13 -36.5 21t-47.5 8q-41 0 -70 -24t-40 -81zM-13 -230l-38 43q32 47 56.5 99t38.5 122l83 390l-72 4l10 44l75 15q3 19 6 35.5t5 30.5q14 63 49 104t85 61t108 20q43 0 75 -9t56 -21q61 50 155 50 q37 0 69 -8.5t53 -22.5l-45 -91q-18 13 -42 23t-53 10q-41 0 -65 -25t-35 -70q-3 -20 -7.5 -45t-7.5 -42h128l7 -13l-16 -54l-131 4l-76 -363q-15 -71 -37 -125t-57 -96t-89 -75l-39 43q32 46 56.5 98.5t38.5 121.5l84 396h-169l-76 -357q-14 -71 -36 -125t-57 -96t-90 -76z " />
<glyph unicode="&#xfb01;" horiz-adv-x="570" d="M-13 -230l-38 43q32 47 56.5 99t38.5 122l83 390l-72 4l10 44l75 15q4 21 8 44.5t6 33.5q18 91 82 142t159 51q58 0 103 -16.5t73 -43.5l-72 -75q-23 19 -52 32.5t-67 13.5q-46 0 -71.5 -25.5t-36.5 -74.5q-2 -11 -7 -38t-8 -44h150l128 21q0 -53 -11 -116t-26 -130.5 t-26 -134.5t-11 -127h-119q0 54 10 121t27 146l20 92l4 61l-157 4l-76 -357q-15 -71 -36.5 -125.5t-56.5 -96t-90 -75.5z" />
<glyph unicode="&#xfb02;" horiz-adv-x="571" d="M272 569q-2 -11 -7 -38t-8 -44h171l27 122l2 41q-17 9 -36 14t-41 5q-46 0 -71.5 -25.5t-36.5 -74.5zM-13 -230l-38 43q32 47 56.5 99t38.5 122l83 390l-72 4l10 44l75 15q4 21 8 44.5t6 33.5q18 91 82 142t159 51q40 0 76 -9l120 9q0 -57 -13 -132t-32 -159 t-37.5 -168.5t-31.5 -161.5t-13 -137h-119q0 36 5.5 82.5t18.5 117.5t37 180l8 40l-168 4l-76 -357q-15 -71 -36.5 -125.5t-56.5 -96t-90 -75.5z" />
<glyph unicode="&#xfb03;" horiz-adv-x="856" d="M269 552q-4 -15 -6 -31t-6 -34h169q3 21 7.5 44.5t5.5 33.5q8 36 23 67q-16 12 -36 18.5t-45 6.5q-42 0 -71 -23.5t-41 -81.5zM-13 -230l-38 43q32 47 56.5 99t38.5 122l83 390l-72 4l10 44l75 15q4 21 6 36.5t5 29.5q22 96 88 140.5t154 44.5q43 0 75.5 -8.5t56.5 -19.5 q63 48 155 48q59 0 104 -16.5t73 -43.5l-73 -75q-23 19 -52 32.5t-66 13.5q-47 0 -72.5 -25.5t-35.5 -74.5q-2 -11 -7 -38t-8 -44h149l129 21q0 -53 -11.5 -116t-26 -130.5t-25.5 -134.5t-11 -127h-120q0 54 10 121t27 146l20 92l4 61l-156 4l-76 -357q-15 -71 -37 -125.5 t-57 -96t-89 -75.5l-39 43q33 47 57 99t39 122l83 390h-167l-76 -357q-14 -71 -36 -125t-57 -96t-90 -76z" />
<glyph unicode="&#xfb04;" horiz-adv-x="859" d="M561 569q-2 -11 -7.5 -38t-7.5 -44h171l26 122l2 41q-16 9 -35.5 14t-41.5 5q-46 0 -71.5 -25.5t-35.5 -74.5zM269 552q-4 -15 -6 -31t-6 -34h172q3 21 7 44.5t6 33.5q7 34 21 63q-16 13 -36.5 21t-45.5 8q-42 0 -71 -23.5t-41 -81.5zM-13 -230l-38 43q32 47 56.5 99 t38.5 122l83 390l-72 4l10 44l75 15q4 21 6 36.5t5 29.5q23 96 88.5 140.5t153.5 44.5q43 0 75.5 -9t55.5 -22q64 51 159 51q41 0 77 -9l119 9q0 -57 -12.5 -132t-31.5 -159t-38 -168.5t-32 -161.5t-13 -137h-119q0 36 5.5 82.5t18.5 117.5t37 180l9 40l-168 4l-76 -357 q-15 -71 -37 -125.5t-57 -96t-89 -75.5l-39 43q33 47 57 99t39 122l82 390h-169l-76 -357q-14 -71 -36 -125t-57 -96t-90 -76z" />
<glyph unicode="&#xfb06;" horiz-adv-x="790" d="M417 482l-29 -92q-28 17 -60 27t-60 10q-38 0 -62 -18t-24 -45q0 -25 19 -41t47 -30t56.5 -30.5t47.5 -42t19 -65.5q0 -49 -30 -86t-80 -58t-111 -21q-39 0 -79.5 9t-67.5 27l28 91q33 -23 72.5 -34.5t67.5 -11.5q38 0 62 18.5t24 45.5q0 25 -19.5 41t-47.5 29.5t-56 30 t-47.5 41.5t-19.5 65q0 49 31 86.5t81.5 58.5t109.5 21q24 0 50 -4q-3 11 -4.5 22.5t-1.5 21.5q0 55 30.5 100.5t82 72.5t115.5 27q68 0 107 -31.5t39 -82.5q0 -39 -22.5 -75t-61.5 -61h182l6 -14l-16 -51l-139 2q-20 -93 -32 -149t-18.5 -86t-8.5 -44t-2 -23 q0 -30 14.5 -43.5t40.5 -13.5q20 0 41.5 7t42.5 18l-6 -76q-26 -14 -60.5 -24.5t-73.5 -10.5q-59 0 -90 28.5t-31 89.5q0 13 2 30t8.5 49t19.5 91.5t34 158.5l-64 1l10 44q50 16 77 52.5t27 73.5q0 30 -18 47t-51 17q-32 0 -59.5 -17.5t-44 -47t-16.5 -64.5q0 -32 19 -61z " />
<glyph horiz-adv-x="457" d="M9 47q0 50 18 99.5t53 90.5t84.5 65.5t113.5 24.5q28 0 65.5 -5.5t67.5 -18.5l-32 -140q-20 -90 -28 -144t-7 -92h-100q-1 29 2 59.5t12 78.5q-15 -33 -39.5 -66t-55 -54.5t-64.5 -21.5q-40 0 -65 32t-25 92zM112 66q0 -29 10 -46t28 -17q20 0 40.5 19.5t39.5 50t34 65.5 t23 67q5 24 12 53q-23 11 -43 11q-29 0 -55 -18.5t-46 -49t-31.5 -66t-11.5 -69.5z" />
<glyph horiz-adv-x="459" d="M93 406l5 108l108 8q1 -39 -7.5 -92t-22 -113.5t-27.5 -122.5q28 57 68.5 95t88.5 38q42 0 67.5 -31.5t25.5 -91.5q0 -49 -18 -98.5t-52.5 -91t-84.5 -66.5t-114 -25q-29 0 -67 6.5t-63 19.5q3 23 9.5 57t17.5 87t28 134zM109 -3l2 26q-3 -17 -5 -32q21 -9 42 -9 q30 0 57 17.5t47 46.5t31.5 63.5t11.5 68.5q0 32 -10 50.5t-29 18.5q-22 0 -45.5 -23t-44.5 -61t-36 -81.5t-21 -84.5z" />
<glyph horiz-adv-x="389" d="M300 36l16 -40q-31 -33 -77 -53t-92 -20q-64 0 -103 38.5t-39 110.5q0 50 19 95.5t52.5 81.5t78 57t96.5 21q22 0 50 -4.5t52 -14.5l-24 -78q-19 14 -40.5 22.5t-43.5 8.5q-38 0 -69 -25.5t-49 -66t-18 -86.5q0 -43 18.5 -68t58.5 -25q30 0 60 13.5t54 32.5z" />
<glyph horiz-adv-x="456" d="M340 -69h-100q-1 26 2 57.5t11 77.5q-16 -36 -40.5 -69t-55 -53.5t-65.5 -20.5q-40 0 -65.5 32.5t-25.5 93.5q0 50 19 99.5t54.5 90t86.5 64.5t114 24q15 0 32 -1l17 80l5 108l108 8q0 -43 -9.5 -100t-23.5 -121v0v0q-14 -66 -29.5 -133t-25.5 -128.5t-9 -108.5zM105 70 q0 -67 38 -67q21 0 43 21.5t42 54.5t34.5 70.5t21.5 69.5v-3q1 5 2 11l7 32q-21 10 -39 10q-41 0 -75 -30.5t-54 -76t-20 -92.5z" />
<glyph horiz-adv-x="409" d="M304 36l16 -40q-29 -34 -75 -53.5t-93 -19.5q-65 0 -106 38t-41 111q0 49 19 94.5t52.5 82t77.5 57.5t94 21q52 0 83.5 -23.5t31.5 -64.5q0 -57 -64.5 -99.5t-189.5 -49.5q-1 -6 -1 -12q0 -40 20.5 -64t60.5 -24q29 0 59 13t56 33zM232 270q-28 0 -52 -22.5t-41.5 -56.5 t-24.5 -69q83 11 119.5 44t36.5 67q0 19 -10.5 28t-27.5 9z" />
<glyph horiz-adv-x="310" d="M-26 -250l-33 35q26 37 46 78.5t31 97.5l64 297l-60 4l8 36l63 12q3 17 6 33.5t5 28.5q15 72 66.5 111t128.5 39q31 0 58.5 -6.5t44.5 -17.5l-36 -75q-16 10 -36.5 17.5t-43.5 7.5q-35 0 -54.5 -18.5t-27.5 -51.5q-3 -17 -6 -33.5t-6 -34.5h107l6 -11l-12 -44l-111 3 l-57 -268q-19 -86 -51 -143t-100 -97z" />
<glyph horiz-adv-x="406" d="M101 -266q-80 0 -125 27.5t-45 66.5q0 32 26.5 53t61.5 33l21 -19q-7 -9 -12 -18.5t-5 -19.5q0 -31 25.5 -51.5t69.5 -20.5q41 0 68.5 16t27.5 40q0 19 -20 31.5t-56 29.5q-31 13 -52 27t-21 35q0 20 15.5 35t38 25t43.5 16v1q-14 0 -31 2q-47 4 -77.5 35t-30.5 82 t27.5 88.5t72.5 58t95 20.5q45 0 74.5 0.5t51 2.5t44.5 7q9 -9 9 -25q0 -12 -8.5 -26t-32.5 -14q-17 0 -34 6.5t-35 11.5l-1 -1q24 -13 40 -35t16 -58q0 -41 -18.5 -70t-45.5 -49.5t-54.5 -35.5t-45.5 -26t-18 -21t15.5 -18.5t31.5 -15.5q26 -11 50.5 -25.5t41 -34 t16.5 -45.5q0 -33 -27.5 -60t-76 -44t-110.5 -17zM248 210q0 30 -12 48t-33 18q-24 0 -43.5 -19.5t-31 -48.5t-11.5 -57q0 -30 12.5 -48t35.5 -18q25 0 43.5 20t29 49t10.5 56z" />
<glyph horiz-adv-x="472" d="M114 -69h-100q-1 28 3.5 64.5t14.5 91.5t28 140l38 179l5 108l109 8q0 -59 -16.5 -138.5t-35.5 -163.5h2q31 55 74.5 81t85.5 26q39 0 60 -22t21 -61q0 -13 -3 -31t-10 -51t-20 -92q-8 -39 -10.5 -70t-2.5 -69h-100q-1 48 7.5 97.5t22.5 117.5q5 21 6.5 33.5t1.5 20.5 q0 43 -34 43q-30 0 -56.5 -26.5t-46.5 -71t-32 -100t-12 -114.5z" />
<glyph horiz-adv-x="230" d="M201 483q0 -20 -11.5 -38.5t-30 -30.5t-40.5 -12t-34.5 12.5t-12.5 32.5t12.5 38.5t31.5 30t40 11.5q20 0 32.5 -12t12.5 -32zM114 -69h-100q-1 48 6.5 97.5t21.5 110.5l16 72l4 108l108 8q1 -40 -7.5 -89t-20 -102t-20 -105.5t-8.5 -99.5z" />
<glyph horiz-adv-x="223" d="M200 483q0 -20 -11.5 -38.5t-30 -30.5t-40.5 -12t-35 12.5t-13 32.5t13 38.5t32 30t39 11.5q21 0 33.5 -12t12.5 -32zM-46 -268l-33 35q27 39 46 80t32 96l57 268l5 108l108 8q1 -52 -17 -137t-47 -219q-19 -86 -51 -142.5t-100 -96.5z" />
<glyph horiz-adv-x="451" d="M409 255q0 -43 -39.5 -83.5t-95.5 -67.5q22 -40 50.5 -86.5t61.5 -86.5h-126q-20 30 -42 70t-39 88q57 39 93 75t36 66q0 31 -30 31q-28 0 -56.5 -29.5t-52.5 -77.5t-39 -106t-16 -117h-100q-1 28 3.5 64.5t14.5 91.5t28 140l38 179l5 108l109 8q0 -40 -8 -92t-21 -110.5 t-27 -118.5h1q30 58 78 92t95 34q39 0 59 -20.5t20 -51.5z" />
<glyph horiz-adv-x="230" d="M114 -69h-100q-1 28 3.5 64.5t14.5 91.5t28 140l38 179l5 108l109 8q0 -44 -10 -102.5t-24.5 -124t-29.5 -131.5t-25 -126t-9 -107z" />
<glyph horiz-adv-x="707" d="M161 220q29 53 72.5 80t84.5 27q40 0 60.5 -22.5t20.5 -62.5q0 -10 -1 -22v0q30 54 73.5 80.5t84.5 26.5t61.5 -22t20.5 -60q0 -25 -7 -59.5t-18 -80.5q-11 -50 -16 -87t-5 -87h-100q0 54 6.5 92.5t15.5 81.5q6 30 11 56t5 43t-7.5 28t-26.5 11q-35 0 -68.5 -40 t-54.5 -110t-20 -162h-100q0 47 5.5 87.5t15.5 84.5q9 43 13 64.5t4 33.5q0 19 -8 30.5t-27 11.5q-27 0 -52 -25.5t-45.5 -69t-32.5 -99.5t-12 -118h-100q-1 31 3 67.5t14 87t26 125.5l5 108l107 8q1 -22 -2 -49.5t-8 -57.5h2z" />
<glyph horiz-adv-x="471" d="M161 220q29 53 72.5 80t86.5 27q40 0 61.5 -22t21.5 -60q0 -25 -8 -61t-19 -85q-9 -39 -13.5 -66t-5.5 -50t0 -52h-100q-1 47 5 87.5t15 84.5q10 44 14 65.5t4 33.5q0 41 -36 41q-29 0 -54.5 -25.5t-46 -69t-32.5 -99.5t-12 -118h-100q-1 31 3 67.5t14 87t26 125.5l5 108 l107 8q1 -22 -2 -49.5t-8 -57.5h2z" />
<glyph horiz-adv-x="439" d="M383 180q0 -49 -17.5 -94.5t-49 -82.5t-75 -58.5t-95.5 -21.5q-63 0 -102 36.5t-39 109.5q0 49 18 95t50 83t75.5 58.5t93.5 21.5q66 0 103.5 -38t37.5 -109zM108 63q0 -80 54 -80q29 0 50.5 20.5t36.5 53t22.5 68t7.5 65.5q0 78 -54 78q-28 0 -50 -20.5t-37 -52.5 t-22.5 -67.5t-7.5 -64.5z" />
<glyph horiz-adv-x="465" d="M134 -77q-18 0 -37 2q-11 -51 -18 -98t-6 -85h-100q-1 28 3.5 65t14.5 91t28 134l38 179l5 108l108 8q1 -27 -3.5 -61t-11.5 -72q16 34 40 64.5t53.5 49.5t63.5 19q41 0 66.5 -31t25.5 -91q0 -49 -18 -99t-53 -91.5t-85 -66.5t-114 -25zM262 247q-21 0 -42 -19t-40 -49.5 t-34 -66.5t-23 -69l-6 -26t-6 -25q22 -10 42 -10q30 0 57 19t47 49.5t31.5 65.5t11.5 67q0 30 -10 47t-28 17z" />
<glyph horiz-adv-x="450" d="M102 -77q-43 0 -68.5 32.5t-25.5 92.5q0 50 19 100t55 90.5t87 64.5t114 24q29 0 64 -6t65 -20l-75 -333q-34 -154 -33 -226h-101q-1 47 12.5 121t35.5 174l3 14q-16 -31 -39 -60.5t-52 -48.5t-61 -19zM112 67q0 -29 10 -46.5t28 -17.5q20 0 41 18t39.5 47.5t33.5 64 t24 68.5l13 58q-20 10 -40 10q-31 0 -58.5 -19t-47.5 -49.5t-31.5 -65.5t-11.5 -68z" />
<glyph horiz-adv-x="339" d="M114 -69h-100q-1 45 6.5 96t20.5 112l16 72l5 108l107 8q1 -29 -4 -65.5t-14 -74.5h3q28 77 64 108.5t72 31.5q17 0 32.5 -7t23.5 -16l-48 -92q-23 10 -46 10q-42 0 -72.5 -40t-47.5 -106.5t-18 -144.5z" />
<glyph horiz-adv-x="374" d="M325 308l-23 -78q-24 15 -51.5 23t-50.5 8q-32 0 -51 -13t-19 -33q0 -19 16.5 -31t40 -22.5t47.5 -23.5t40 -33.5t16 -52.5q0 -38 -24.5 -67t-66 -45.5t-91.5 -16.5q-31 0 -66.5 7.5t-57.5 21.5l23 75q27 -18 60 -27.5t57 -9.5q31 0 51 13.5t20 32.5t-16.5 31t-40.5 22.5 t-48 24t-40 33.5t-16 52q0 38 25 67t66.5 45t90.5 16q26 0 55 -4.5t54 -14.5z" />
<glyph horiz-adv-x="326" d="M292 266l-117 2q-15 -69 -24 -111t-14 -65.5t-6.5 -34.5t-1.5 -18q0 -44 47 -44q17 0 34.5 5.5t34.5 13.5l-4 -63q-21 -11 -50 -19.5t-62 -8.5q-103 0 -103 97q0 10 2 23.5t7 39t15 70t26 117.5l-59 1l8 37l63 11l45 97l64 5l11 -11l-22 -91h114l6 -10z" />
<glyph horiz-adv-x="460" d="M18 10q0 13 4 35.5t12.5 62t21.5 103.5l6 108l107 8q1 -54 -11 -110t-20 -99q-5 -25 -8.5 -43t-3.5 -29q0 -17 8 -27.5t26 -10.5q30 0 55.5 28t44.5 73.5t29 100.5t9 109l105 8q-2 -36 -7.5 -72.5t-15 -83t-22.5 -114.5q-6 -28 -9.5 -58t-2.5 -68h-101q0 27 2 49.5 t6 46.5h-2q-30 -54 -71 -79t-80 -25t-60.5 23t-21.5 64z" />
<glyph horiz-adv-x="398" d="M68 -69q-3 114 -15 215.5t-30 172.5l107 8q15 -68 21 -153.5t2 -171.5h2q32 51 59 107t45 109.5t23 99.5q16 9 41 9q16 0 32.5 -7t16.5 -31t-15 -65t-41 -91t-61 -102.5t-75 -99.5h-112z" />
<glyph horiz-adv-x="639" d="M563 327q17 0 33 -7t16 -31q0 -25 -14.5 -66.5t-39.5 -92t-58.5 -102.5t-71.5 -97h-113q8 144 3 279h-2q-23 -72 -60.5 -143.5t-84.5 -135.5h-112q-3 115 -12.5 217.5t-23.5 170.5l108 8q10 -65 14 -150.5t-1 -174.5h2q47 75 80.5 160t41.5 157h121q10 -62 13.5 -145.5 t-1.5 -171.5h2q30 50 55.5 105.5t42 110t21.5 100.5q16 9 41 9z" />
<glyph horiz-adv-x="376" d="M-41 -69q15 54 53.5 109.5t100.5 97.5q-17 46 -39.5 92.5t-56.5 88.5l103 8q24 -30 42 -68t34 -80q26 27 44.5 63.5t22.5 74.5q16 10 43 10q21 0 34.5 -8t13.5 -27t-17.5 -49t-48 -63t-71.5 -61q17 -46 37 -94t49 -94h-105q-20 32 -35 69.5t-29 77.5q-28 -25 -49.5 -66 t-29.5 -81h-96z" />
<glyph horiz-adv-x="399" d="M324 327q15 0 31.5 -6.5t16.5 -29.5q0 -25 -15.5 -67.5t-42.5 -94t-63 -106.5t-77 -106.5t-84 -92.5t-84.5 -65.5t-78.5 -24.5q-27 0 -43 15.5t-16 41.5q0 13 3.5 22t8.5 17q24 -6 52 -6q34 0 69 15t65 39t50 53h-48q-3 113 -14.5 215t-29.5 173l107 8q15 -71 21 -155.5 t1 -169.5h2q31 51 58.5 106.5t45.5 109.5t23 100q17 9 42 9z" />
<glyph horiz-adv-x="401" d="M-1 -77l-33 49q87 78 155.5 142t122.5 120q-33 4 -61.5 9t-51.5 5q-27 0 -50 -9.5t-43 -31.5l-30 17q24 62 55.5 82.5t74.5 20.5q40 0 83 -9t89 -13q11 11 20 22q38 0 38 -29q0 -30 -71.5 -104.5t-206.5 -181.5q11 3 22 3q15 0 36 -3t42 -5.5t36 -2.5q26 0 46.5 13 t36.5 38l35 -20q-23 -67 -53.5 -89.5t-75.5 -22.5t-88 10.5t-74 10.5q-14 0 -26.5 -4.5t-27.5 -16.5z" />
<glyph horiz-adv-x="457" d="M85 407q0 50 18 99.5t53 90.5t84.5 65.5t113.5 24.5q28 0 65.5 -5.5t67.5 -18.5l-32 -140q-20 -90 -28 -144t-7 -92h-100q-1 29 2 59.5t12 78.5q-15 -33 -39.5 -66t-55 -54.5t-64.5 -21.5q-40 0 -65 32t-25 92zM188 426q0 -29 10 -46t28 -17q20 0 40.5 19.5t39.5 50 t34 65.5t23 67q5 24 12 53q-23 11 -43 11q-29 0 -55 -18.5t-46 -49t-31.5 -66t-11.5 -69.5z" />
<glyph horiz-adv-x="459" d="M170 766l4 108l108 8q1 -39 -7.5 -92t-21.5 -113.5t-28 -122.5q28 57 69 95t89 38q42 0 67 -31.5t25 -91.5q0 -49 -18 -98.5t-52.5 -91t-84.5 -66.5t-113 -25q-30 0 -67.5 6.5t-62.5 19.5q3 23 9.5 57t17.5 87t28 134zM186 357l2 26q-3 -17 -6 -32q22 -9 42 -9 q31 0 57.5 17.5t47 46.5t32 63.5t11.5 68.5q0 32 -10.5 50.5t-29.5 18.5q-22 0 -45 -23t-44 -61t-36.5 -81.5t-20.5 -84.5z" />
<glyph horiz-adv-x="390" d="M377 396l16 -40q-31 -33 -77 -53t-92 -20q-64 0 -103 38.5t-39 110.5q0 50 19 95.5t52.5 81.5t78 57t96.5 21q22 0 50 -4.5t52 -14.5l-24 -78q-19 14 -40.5 22.5t-43.5 8.5q-38 0 -69 -25.5t-49 -66t-18 -86.5q0 -43 18.5 -68t58.5 -25q30 0 60 13.5t54 32.5z" />
<glyph horiz-adv-x="456" d="M416 291h-100q-1 26 2 57.5t11 77.5q-16 -36 -40.5 -69t-55 -53.5t-65.5 -20.5q-40 0 -65.5 32.5t-25.5 93.5q0 50 19 99.5t54.5 90t86.5 64.5t114 24q15 0 32 -1l17 80l5 108l108 8q0 -43 -9.5 -100t-23.5 -121v0v0q-14 -66 -29.5 -133t-25.5 -128.5t-9 -108.5zM181 430 q0 -67 38 -67q21 0 43 21.5t42 54.5t34.5 70.5t21.5 69.5v-3q1 5 2 11l7 32q-21 10 -39 10q-41 0 -75 -30.5t-54 -76t-20 -92.5z" />
<glyph horiz-adv-x="410" d="M381 396l16 -40q-29 -34 -75 -53.5t-93 -19.5q-65 0 -106 38t-41 111q0 49 19 94.5t52.5 82t77.5 57.5t94 21q52 0 83.5 -23.5t31.5 -64.5q0 -57 -64.5 -99.5t-189.5 -49.5q-1 -6 -1 -12q0 -40 20.5 -64t60.5 -24q29 0 59 13t56 33zM309 630q-28 0 -52 -22.5t-41.5 -56.5 t-24.5 -69q83 11 119.5 44t36.5 67q0 19 -10.5 28t-27.5 9z" />
<glyph horiz-adv-x="310" d="M51 110l-34 35q26 37 46 78.5t32 97.5l63 297l-59 4l7 36l64 12q3 17 5.5 33.5t5.5 28.5q15 72 66.5 111t128.5 39q30 0 57.5 -6.5t45.5 -17.5l-36 -75q-16 10 -36.5 17.5t-43.5 7.5q-35 0 -55 -18.5t-27 -51.5q-4 -17 -6.5 -33.5t-5.5 -34.5h106l6 -11l-12 -44l-110 3 l-58 -268q-18 -86 -50 -143t-100 -97z" />
<glyph horiz-adv-x="407" d="M178 94q-80 0 -125 27.5t-45 66.5q0 32 26.5 53t61.5 33l21 -19q-7 -9 -12 -18.5t-5 -19.5q0 -31 25.5 -51.5t69.5 -20.5q41 0 68.5 16t27.5 40q0 19 -20 31.5t-56 29.5q-31 13 -52 27t-21 35q0 20 15.5 35t38 25t43.5 16v1q-14 0 -31 2q-47 4 -77.5 35t-30.5 82 t27.5 88.5t72.5 58t95 20.5q45 0 74.5 0.5t51 2.5t44.5 7q9 -9 9 -25q0 -12 -8.5 -26t-32.5 -14q-17 0 -34 6.5t-35 11.5l-1 -1q24 -13 40 -35t16 -58q0 -41 -18.5 -70t-45.5 -49.5t-54.5 -35.5t-45.5 -26t-18 -21t15.5 -18.5t31.5 -15.5q26 -11 50.5 -25.5t41 -34 t16.5 -45.5q0 -33 -27.5 -60t-76 -44t-110.5 -17zM325 570q0 30 -12 48t-33 18q-24 0 -43.5 -19.5t-31 -48.5t-11.5 -57q0 -30 12.5 -48t35.5 -18q25 0 43.5 20t29 49t10.5 56z" />
<glyph horiz-adv-x="472" d="M190 291h-100q0 28 4 64.5t14.5 91.5t28.5 140l38 179l5 108l108 8q0 -59 -16 -138.5t-36 -163.5h3q31 55 74 81t86 26q38 0 59.5 -22t21.5 -61q0 -13 -3 -31t-10.5 -51t-19.5 -92q-9 -39 -11.5 -70t-1.5 -69h-101q-1 48 7.5 97.5t22.5 117.5q5 21 6.5 33.5t1.5 20.5 q0 43 -34 43q-29 0 -55.5 -26.5t-47 -71t-32 -100t-12.5 -114.5z" />
<glyph horiz-adv-x="230" d="M278 843q0 -20 -11.5 -38.5t-30.5 -30.5t-41 -12t-34.5 12.5t-12.5 32.5t12.5 38.5t32 30t39.5 11.5q21 0 33.5 -12t12.5 -32zM191 291h-100q-1 48 6.5 97.5t20.5 110.5l16 72l5 108l107 8q1 -40 -7.5 -89t-19.5 -102t-20 -105.5t-8 -99.5z" />
<glyph horiz-adv-x="222" d="M276 843q0 -20 -11.5 -38.5t-30 -30.5t-40.5 -12t-35 12.5t-13 32.5t13 38.5t32 30t39 11.5q21 0 33.5 -12t12.5 -32zM30 92l-33 35q27 39 46 80t32 96l57 268l5 108l108 8q1 -52 -17 -137t-47 -219q-19 -86 -51 -142.5t-100 -96.5z" />
<glyph horiz-adv-x="451" d="M486 615q0 -43 -39.5 -83.5t-95.5 -67.5q21 -40 49.5 -86.5t61.5 -86.5h-125q-21 30 -43 70t-39 88q57 39 93 75t36 66q0 31 -29 31t-57.5 -29.5t-52.5 -77.5t-39 -106t-16 -117h-100q0 28 4 64.5t14.5 91.5t28.5 140l38 179l5 108l108 8q1 -40 -7.5 -92t-21.5 -110.5 t-26 -118.5v0q30 58 78 92t96 34q38 0 58.5 -20.5t20.5 -51.5z" />
<glyph horiz-adv-x="230" d="M190 291h-100q0 28 4 64.5t14.5 91.5t28.5 140l38 179l5 108l108 8q1 -44 -9 -102.5t-25 -124t-30 -131.5t-24.5 -126t-9.5 -107z" />
<glyph horiz-adv-x="707" d="M238 580q29 53 72 80t85 27q39 0 60 -22.5t21 -62.5q0 -10 -2 -22v0q30 54 73.5 80.5t85.5 26.5q40 0 61 -22t21 -60q0 -25 -7.5 -59.5l-17.5 -80.5q-12 -50 -16.5 -87t-4.5 -87h-100q-1 54 5.5 92.5t15.5 81.5q7 30 12 56t5 43t-8 28t-27 11q-34 0 -67.5 -40t-55 -110 t-19.5 -162h-100q-1 47 5 87.5t15 84.5q9 43 13 64.5t4 33.5q0 19 -7.5 30.5t-26.5 11.5q-27 0 -52.5 -25.5t-45.5 -69t-32 -99.5t-13 -118h-100q0 31 4 67.5t13.5 87t26.5 125.5l4 108l108 8q0 -22 -3 -49.5t-8 -57.5h3z" />
<glyph horiz-adv-x="440" d="M460 540q0 -49 -17.5 -94.5t-49 -82.5t-75 -58.5t-95.5 -21.5q-63 0 -102 36.5t-39 109.5q0 49 18 95t50 83t75.5 58.5t93.5 21.5q66 0 103.5 -38t37.5 -109zM185 423q0 -80 54 -80q29 0 50.5 20.5t36.5 53t22.5 68t7.5 65.5q0 78 -54 78q-28 0 -50 -20.5t-37 -52.5 t-22.5 -67.5t-7.5 -64.5z" />
<glyph horiz-adv-x="464" d="M149 102h-100q0 28 4 65t14.5 91t27.5 134l39 179l5 108l108 8q0 -27 -4 -61t-11 -72q16 34 39.5 64.5t53 49.5t63.5 19q42 0 67.5 -31t25.5 -91q0 -49 -18.5 -99t-53.5 -91.5t-85 -66.5t-114 -25q-17 0 -37 2q-11 -51 -17.5 -98t-6.5 -85zM339 607q-21 0 -42 -19 t-40 -49.5t-34 -66.5t-24 -69l-6 -26t-5 -25q21 -10 41 -10q31 0 57.5 19t47 49.5t32 65.5t11.5 67q0 30 -10 47t-28 17z" />
<glyph horiz-adv-x="450" d="M178 283q-42 0 -67.5 32.5t-25.5 92.5q0 50 19 100t55 90.5t86.5 64.5t113.5 24q29 0 64.5 -6t64.5 -20l-74 -333q-35 -154 -34 -226h-100q-1 47 12 121t36 174l3 14q-16 -31 -39.5 -60.5t-52.5 -48.5t-61 -19zM188 427q0 -29 10 -46.5t29 -17.5q20 0 40.5 18t39.5 47.5 t33.5 64t23.5 68.5l13 58q-20 10 -39 10q-32 0 -59 -19t-47.5 -49.5t-32 -65.5t-11.5 -68z" />
<glyph horiz-adv-x="339" d="M190 291h-100q0 45 7 96t21 112l16 72l4 108l108 8q0 -29 -5 -65.5t-13 -74.5h3q28 77 64 108.5t71 31.5q18 0 33.5 -7t23.5 -16l-49 -92q-22 10 -45 10q-43 0 -73.5 -40t-47 -106.5t-18.5 -144.5z" />
<glyph horiz-adv-x="374" d="M402 668l-23 -78q-24 15 -51.5 23t-50.5 8q-32 0 -51 -13t-19 -33q0 -19 16.5 -31t40 -22.5t47.5 -23.5t40 -33.5t16 -52.5q0 -38 -24.5 -67t-66 -45.5t-91.5 -16.5q-31 0 -66.5 7.5t-57.5 21.5l23 75q27 -18 60 -27.5t57 -9.5q31 0 51 13.5t20 32.5t-16.5 31t-40.5 22.5 t-48 24t-40 33.5t-16 52q0 38 25 67t66.5 45t90.5 16q26 0 55 -4.5t54 -14.5z" />
<glyph horiz-adv-x="326" d="M368 626l-117 2q-15 -69 -24 -111t-14 -65.5t-6.5 -34.5t-1.5 -18q0 -44 47 -44q17 0 34.5 5.5t34.5 13.5l-4 -63q-21 -11 -50 -19.5t-62 -8.5q-103 0 -103 97q0 10 2 23.5t7 39t15 70t26 117.5l-59 1l8 37l63 11l45 97l64 5l11 -11l-22 -91h114l6 -10z" />
<glyph horiz-adv-x="460" d="M94 370q0 13 4 35.5t12.5 62t22.5 103.5l5 108l108 8q1 -54 -11.5 -110t-20.5 -99q-5 -25 -8 -43t-3 -29q0 -17 7.5 -27.5t26.5 -10.5q30 0 55.5 28t44 73.5t29 100.5t9.5 109l104 8q-1 -36 -7 -72.5t-15.5 -83t-22.5 -114.5q-5 -28 -8.5 -58t-3.5 -68h-100 q0 27 1.5 49.5t5.5 46.5h-1q-30 -54 -71.5 -79t-79.5 -25q-40 0 -61.5 23t-21.5 64z" />
<glyph horiz-adv-x="399" d="M144 291q-3 114 -14.5 215.5t-29.5 172.5l107 8q15 -68 21 -153.5t1 -171.5h2q32 51 59 107t45 109.5t23 99.5q17 9 41 9q17 0 33 -7t16 -31t-14.5 -65t-41 -91t-61 -102.5t-74.5 -99.5h-113z" />
<glyph horiz-adv-x="639" d="M639 687q17 0 33 -7t16 -31q0 -25 -14 -66.5t-39.5 -92t-59 -102.5t-71.5 -97h-112q8 144 2 279h-1q-23 -72 -61 -143.5t-84 -135.5h-113q-2 115 -11.5 217.5t-23.5 170.5l107 8q11 -65 15 -150.5t-1 -174.5h1q47 75 81 160t41 157h121q10 -62 13.5 -145.5t-1.5 -171.5h2 q31 50 56 105.5t42 110t21 100.5q17 9 41 9z" />
<glyph horiz-adv-x="376" d="M36 291q14 54 53 109.5t100 97.5q-17 46 -39.5 92.5t-56.5 88.5l103 8q25 -30 43 -68t34 -80q25 27 43.5 63.5t23.5 74.5q16 10 42 10q21 0 35 -8t14 -27t-17.5 -49t-48.5 -63t-71 -61q17 -46 37 -94t48 -94h-104q-20 32 -35 69.5t-29 77.5q-28 -25 -50 -66t-29 -81h-96z " />
<glyph horiz-adv-x="399" d="M400 687q15 0 31.5 -6.5t16.5 -29.5q0 -25 -15.5 -67.5t-42.5 -94t-63 -106.5t-77 -106.5t-84 -92.5t-84.5 -65.5t-78.5 -24.5q-27 0 -43 15.5t-16 41.5q0 13 3.5 22t8.5 17q24 -6 52 -6q34 0 69 15t65 39t50 53h-48q-3 113 -14.5 215t-29.5 173l107 8q15 -71 21 -155.5 t1 -169.5h2q31 51 58.5 106.5t45.5 109.5t23 100q17 9 42 9z" />
<glyph horiz-adv-x="401" d="M76 283l-34 49q88 78 156 142t122 120q-33 4 -61.5 9t-50.5 5q-27 0 -50.5 -9.5t-42.5 -31.5l-30 17q24 62 55.5 82.5t74.5 20.5q39 0 82 -9t90 -13l20 22q37 0 37 -29q0 -30 -71 -104.5t-206 -181.5q11 3 22 3q14 0 35 -3t42.5 -5.5t35.5 -2.5q27 0 47.5 13t36.5 38 l35 -20q-23 -67 -53.5 -89.5t-75.5 -22.5t-88.5 10.5t-73.5 10.5q-14 0 -26.5 -4.5t-27.5 -16.5z" />
<glyph horiz-adv-x="1030" d="M402 133l19 -47q-42 -49 -95.5 -72.5t-108.5 -23.5q-78 0 -126 46.5t-48 138.5q0 63 23 123t64 107t95.5 75t118.5 28q16 0 32 -2q-13 29 -13 60q0 55 36.5 98.5t100 68.5t143.5 25q28 0 55.5 -3.5t56.5 -10.5q0 -38 -9.5 -99t-25 -133t-31.5 -144h2q39 73 92 106.5 t102 33.5q45 0 69.5 -27t24.5 -76q0 -13 -1.5 -28t-6.5 -38.5t-13 -61.5t-20 -97q-9 -39 -13 -68t-5.5 -55.5t-1.5 -56.5h-119q0 70 12.5 135t22.5 114q10 47 14 70t4 39q0 49 -42 49q-36 0 -68.5 -34t-57 -92t-39.5 -131t-17 -150h-119q0 38 6 86t19 118.5t36 175.5l33 154 q12 56 20 120q-22 6 -43 6q-35 0 -66.5 -12t-51.5 -36t-20 -60q0 -19 6.5 -41t22.5 -45v0l1 -1l-37 -93q-51 55 -107 55q-38 0 -68 -24.5t-51 -62.5t-31.5 -79.5t-10.5 -76.5q0 -50 23 -81.5t75 -31.5q36 0 71 17t66 45z" />
<glyph horiz-adv-x="845" d="M402 133l19 -47q-42 -49 -96 -72.5t-110 -23.5q-76 0 -124 46.5t-48 138.5q0 64 23 123t64 106.5t96.5 75.5t120.5 28q24 0 47 -5q-3 12 -4 23t-1 22q0 55 30.5 100.5t82 72.5t114.5 27q69 0 107.5 -31.5t38.5 -82.5q0 -39 -22.5 -75t-61.5 -61h182l7 -14l-17 -51l-139 2 q-20 -93 -32 -149t-18 -86t-8 -44t-2 -23q0 -30 14.5 -43.5t40.5 -13.5q20 0 41.5 7t41.5 18l-6 -76q-25 -14 -60 -24.5t-74 -10.5q-58 0 -89.5 28.5t-31.5 89.5q0 13 2.5 30t9 49t19 91.5t33.5 158.5l-64 1l10 44q51 16 78 52.5t27 73.5q0 30 -18.5 47t-50.5 17 q-33 0 -60 -17.5t-44 -47t-17 -64.5q0 -39 19 -72l-33 -99q-53 55 -111 55q-34 0 -63.5 -20t-51.5 -54t-34 -75t-12 -84q0 -56 23.5 -89.5t74.5 -33.5q36 0 71 17t66 45z" />
<glyph horiz-adv-x="979" d="M578 0h-120q0 39 6.5 89t19.5 120t35 171l34 154q12 57 19 120q-21 6 -43 6q-35 0 -66.5 -11.5t-51.5 -34.5t-20 -58q0 -16 6 -34.5t20 -39.5l-29 -92q-28 17 -60 27t-60 10q-38 0 -62 -18t-24 -45q0 -25 19 -41t47 -30t56.5 -30.5t47.5 -42t19 -65.5q0 -49 -30 -86 t-80 -58t-111 -21q-39 0 -79.5 9t-67.5 27l28 91q33 -23 72.5 -34.5t67.5 -11.5q38 0 62 18.5t24 45.5q0 25 -19.5 41t-47.5 29.5t-56 30t-47.5 41.5t-19.5 65q0 49 31 86.5t81.5 58.5t109.5 21q20 0 40 -3q-9 17 -13 33.5t-4 32.5q0 53 36.5 95.5t100 67t142.5 24.5 q28 0 56 -3.5t58 -10.5q0 -38 -10 -99t-25.5 -133t-31.5 -144h2q39 73 92 106.5t102 33.5q45 0 70 -27t25 -76q0 -13 -2 -28t-6.5 -38.5t-13 -61.5t-20.5 -97q-8 -39 -12.5 -68t-5.5 -55.5t-1 -56.5h-120q0 70 12.5 135t22.5 114q10 47 14 70t4 39q0 49 -41 49 q-37 0 -69 -34t-57 -92t-40 -131t-16 -150z" />
<glyph horiz-adv-x="570" d="M87 0h-113l252 457q12 23 23 44t20 40l139 6l15 -16l68 -531h-120l-15 120h-203zM234 266l-35 -63h146l-8 62q-5 62 -8 106.5t-4 72.5h-3q-12 -27 -35 -73.5t-53 -104.5z" />
<glyph horiz-adv-x="570" d="M495 779l2 -20q-42 -49 -89.5 -88.5t-102.5 -73.5l-42 12q35 44 68 90t59 92zM87 0h-113l252 457q12 23 23 44t20 40l139 6l15 -16l68 -531h-120l-15 120h-203zM234 266l-35 -63h146l-8 62q-5 62 -8 106.5t-4 72.5h-3q-12 -27 -35 -73.5t-53 -104.5z" />
<glyph horiz-adv-x="570" d="M487 775l50 4q-22 -73 -70.5 -119t-109.5 -46q-56 0 -84.5 41.5t-19.5 113.5l51 7q1 -38 21.5 -59.5t53.5 -21.5t62.5 22.5t45.5 57.5zM87 0h-113l252 457q12 23 23 44t20 40l139 6l15 -16l68 -531h-120l-15 120h-203zM234 266l-35 -63h146l-8 62q-5 62 -8 106.5t-4 72.5 h-3q-12 -27 -35 -73.5t-53 -104.5z" />
<glyph horiz-adv-x="600" d="M497 778l31 -28q-36 -38 -72.5 -78.5t-69.5 -80.5l-87 -8q-17 42 -35.5 83.5t-42.5 83.5l44 28q28 -25 51 -52.5t45 -54.5q32 27 66 55t70 52zM87 0h-113l252 457q12 23 23 44t20 40l139 6l15 -16l68 -531h-120l-15 120h-203zM234 266l-35 -63h146l-8 62q-5 62 -8 106.5 t-4 72.5h-3q-12 -27 -35 -73.5t-53 -104.5z" />
<glyph horiz-adv-x="570" d="M258 590l-32 28q37 38 73.5 78.5t68.5 80.5l87 8q17 -42 35.5 -83.5t42.5 -83.5l-44 -28q-28 25 -51 52.5t-45 54.5q-32 -27 -66 -55t-69 -52zM87 0h-113l252 457q12 23 23 44t20 40l139 6l15 -16l68 -531h-120l-15 120h-203zM234 266l-35 -63h146l-8 62q-5 62 -8 106.5 t-4 72.5h-3q-12 -27 -35 -73.5t-53 -104.5z" />
<glyph horiz-adv-x="570" d="M344 716q0 -25 -13 -47t-34.5 -35.5t-44.5 -13.5q-25 0 -38.5 14t-13.5 35q0 24 14 45.5t36 35t45 13.5t36 -13t13 -34zM561 716q0 -25 -13 -47t-34.5 -35.5t-45.5 -13.5t-37.5 14t-13.5 35q0 24 14 45.5t36 35t45 13.5t36 -13t13 -34zM87 0h-113l252 457q12 23 23 44 t20 40l139 6l15 -16l68 -531h-120l-15 120h-203zM234 266l-35 -63h146l-8 62q-5 62 -8 106.5t-4 72.5h-3q-12 -27 -35 -73.5t-53 -104.5z" />
<glyph horiz-adv-x="570" d="M87 0h-113l252 457q12 23 23 44t20 40l139 6l15 -16l68 -531h-120l-15 120h-203zM234 266l-35 -63h146l-8 62q-5 62 -8 106.5t-4 72.5h-3q-12 -27 -35 -73.5t-53 -104.5zM282 -131q0 -25 -14 -48.5t-37 -38t-49 -14.5q-27 0 -42 15.5t-15 38.5q0 24 15 47t38.5 37.5 t49.5 14.5q25 0 39.5 -14t14.5 -38z" />
</font>
</defs>
</svg>
