<?xml version="1.0" standalone="no"?>
<!DOCTYPE svg PUBLIC "-//W3C//DTD SVG 1.1//EN" "http://www.w3.org/Graphics/SVG/1.1/DTD/svg11.dtd" >
<svg xmlns="http://www.w3.org/2000/svg" xmlns:xlink="http://www.w3.org/1999/xlink" version="1.1">
<metadata></metadata>
<defs>
<font id="indivisa_text_sansLtIt" horiz-adv-x="560" >
<font-face units-per-em="1000" ascent="800" descent="-200" />
<missing-glyph horiz-adv-x="260" />
<glyph unicode="&#x2f;symbol&#x31;&#x2f;" horiz-adv-x="5534" d="M1865 412q-25 0 -40.5 14.5t-15.5 37.5q0 24 15.5 45t39 34.5t48.5 13.5q24 0 39 -13.5t15 -37.5t-14.5 -45.5t-37.5 -35t-49 -13.5zM1284 412q-26 0 -41.5 14.5t-15.5 37.5q0 24 15.5 45t39.5 34.5t49 13.5q24 0 38.5 -13.5t14.5 -37.5t-14.5 -45.5t-37 -35t-48.5 -13.5 zM959 0q0 21 2.5 46.5t8.5 61.5q-16 -49 -51 -82t-79 -33q-41 0 -63 30t-22 82q0 45 15.5 91t46.5 85.5t76.5 63.5t104.5 24h12.5t12.5 -1l16 73l6 102l136 7q0 -40 -9.5 -95t-23 -116.5t-27 -123.5t-23 -117.5t-9.5 -97.5h-130zM100 0l78 364q8 38 13.5 72.5t7.5 63.5 l128 7l11 -15l-104 -492h-134zM3503 492l-57 -492h-131l20 175q3 30 9 69t12.5 78t11.5 68h-3q-16 -53 -37 -107.5t-44 -107.5l-76 -175h-149l-2 175q-1 56 1 109t8 106h-2q-15 -61 -30 -115.5t-29 -99.5l-53 -175h-109l154 500l184 6l1 -137q1 -50 -2.5 -121.5 t-12.5 -137.5h2q20 65 36 111t30.5 81t27.5 67l56 131l169 7zM5316 300q-15 -74 -23 -110.5t-11 -51t-3 -21.5q0 -34 36 -34q13 0 28 5t31 13l-9 -79q-20 -11 -50 -20t-64 -9q-50 0 -77.5 25t-27.5 75q0 11 1.5 23.5t6 33.5t12.5 57.5t20 95.5l-47 1l9 44l54 14l53 95l81 6 l13 -15l-20 -86h99l6 -14l-17 -51zM336 0q0 28 4 62t13 82t24 116l6 102l137 7q0 -18 -2 -41t-5 -48h2q29 49 65.5 69t68.5 20q35 0 53.5 -19.5t18.5 -51.5q0 -23 -8 -62.5t-18 -84.5q-7 -33 -11 -57t-5.5 -45.5t-1.5 -48.5h-131q0 38 4.5 69.5t14.5 80.5q7 35 11 55.5 t4 31.5q0 24 -17 24t-34 -22.5t-30.5 -60.5t-22 -84t-9.5 -94h-131zM1170 0q0 39 7 87.5t20 105.5l14 67l6 102l137 7q0 -36 -8 -81.5t-19 -95.5t-19 -99t-8 -93h-130zM1399 362l140 7q6 -59 4.5 -137.5t-9.5 -151.5h2q23 45 42 95t32 99t17 90q17 4 28.5 4.5t21.5 0.5 q28 0 46.5 -7t18.5 -35q0 -22 -13.5 -60.5t-36.5 -85t-53.5 -94t-63.5 -87.5h-149q-2 111 -9.5 207.5t-17.5 154.5zM1752 0q0 39 7 87.5t19 105.5l15 67l6 102l137 7q0 -36 -8 -81.5t-19 -95.5t-19 -99t-8 -93h-130zM4716 0q0 28 4 62t13 82t24 116l6 102l137 7 q0 -18 -2.5 -41t-4.5 -48h2q29 49 65 69t69 20q35 0 53.5 -19.5t18.5 -51.5q0 -23 -8 -62.5t-18 -84.5q-7 -33 -11 -57t-6 -45.5t-2 -48.5h-130q0 38 4.5 69.5t14.5 80.5q7 35 11 55.5t4 31.5q0 24 -17 24q-18 0 -34.5 -22.5t-30.5 -60.5t-22.5 -84t-9.5 -94h-130zM2245 256 q-25 14 -51.5 22t-45.5 8q-17 0 -29.5 -7t-12.5 -19q0 -13 13 -22t32 -17.5t38 -20.5t32 -30.5t13 -47.5q0 -39 -25 -68t-66.5 -45t-89.5 -16q-33 0 -66.5 7.5t-51.5 20.5l27 93q27 -18 58.5 -28t52.5 -10q20 0 30 8t10 18q0 13 -13 22t-32 18t-38 21t-32 30t-13 46 q0 39 25.5 68t67.5 45.5t90 16.5q20 0 48.5 -3.5t55.5 -14.5zM2525 369q32 0 73.5 -7.5t72.5 -24.5l-29 -128q-20 -94 -25.5 -140.5t-5.5 -68.5h-130q0 20 2.5 45t9.5 67q-15 -50 -50.5 -84.5t-81.5 -34.5q-41 0 -62.5 30t-21.5 83q0 44 15.5 90.5t46.5 85.5t77.5 63 t108.5 24zM4653 51q-32 -28 -74 -43t-85 -15q-62 0 -102 33.5t-40 103.5q0 46 17.5 88.5t49.5 76.5t75 54t94 20q53 0 86 -23t33 -65q0 -56 -59 -95.5t-162 -44.5v-1q0 -29 15 -46.5t48 -17.5q22 0 45 7.5t45 20.5zM3936 0q0 28 4 62t13.5 82t24.5 116l5 102l137 7 q0 -18 -2 -41t-5 -48h2q29 49 65.5 69t68.5 20q35 0 53.5 -19.5t18.5 -51.5q0 -23 -8 -62.5t-18 -84.5q-7 -33 -11 -57t-5.5 -45.5t-1.5 -48.5h-131q0 38 4.5 69.5t14.5 80.5q8 35 11.5 55.5t3.5 31.5q0 24 -17 24t-34 -22.5t-30.5 -60.5t-22 -84t-9.5 -94h-131zM3768 369 q32 0 73 -7.5t72 -24.5l-28 -128q-20 -94 -25.5 -140.5t-5.5 -68.5h-130q0 20 2.5 45t9.5 67q-15 -50 -50.5 -84.5t-81.5 -34.5q-41 0 -63 30t-22 83q0 44 15.5 90.5t47 85.5t78 63t108.5 24zM4490 177q46 10 72.5 33.5t26.5 59.5q0 17 -5.5 24t-16.5 7q-20 0 -36 -20 t-26 -48.5t-15 -55.5zM3677 101q17 0 33 21t30 54t22 69q2 11 4.5 22t4.5 22q-16 8 -27 8q-18 0 -34.5 -16t-29 -40.5t-20 -51.5t-7.5 -48q0 -40 24 -40zM913 101q16 0 31 19.5t28.5 50t22.5 64.5l4 20l4 20l3 14q-14 8 -27 8q-18 0 -34 -16t-28.5 -40.5t-20 -51.5t-7.5 -48 q0 -40 24 -40zM2435 101q16 0 32.5 21t30 54t21.5 69q2 11 4.5 22t4.5 22q-14 8 -27 8q-18 0 -34 -16t-29 -40.5t-20 -51.5t-7 -48q0 -40 24 -40z" />
<glyph unicode="&#x2f;symbol&#x32;&#x2f;" horiz-adv-x="932" d="M494 570l52 -90l-137 -240h-103l137 240l-52 90h103zM357 570l52 -90l-138 -240h-103l138 240l-52 90h103zM752 120h-103l-137 240l51 90l137 -240h103zM683 0h-103l-137 240l51 90l138 -240h103zM100 120l51 90h275l51 -90h-274l-52 -90zM168 0l52 90h274l52 -90h-275 l-51 -90zM789 88q18 0 30.5 -13t12.5 -31t-12.5 -31t-30.5 -13t-30.5 13t-12.5 31t12.5 31t30.5 13zM829 44q0 17 -11.5 28.5t-28.5 11.5q-16 0 -28 -11.5t-12 -28.5q0 -16 12 -28t28 -12q17 0 28.5 12t11.5 28zM771 69h18h5t6 -2q5 -4 5 -11q0 -5 -3 -8q-1 -2 -2.5 -2.5 t-3.5 -1.5q7 -1 8 -9q0 -8 3 -16h-8q-1 2 -1 6t-1 7q-1 5 -2.5 7.5t-8.5 2.5h-8v-23h-7v50zM778 47h10h3.5t3.5 1q3 3 3 7q0 6 -4 7t-6 1h-10v-16z" />
<glyph unicode="&#x2f;symbol&#x33;&#x2f;" horiz-adv-x="957" d="M505 638l68 -270h270l-203 -135l136 -270l-271 135l-270 -270l135 405l-270 203l338 -68zM814 87q18 0 30.5 -12.5t12.5 -31.5q0 -18 -12.5 -30.5t-30.5 -12.5t-30.5 12.5t-12.5 30.5q0 19 12.5 31.5t30.5 12.5zM854 43q0 17 -11.5 29t-28.5 12q-16 0 -28 -12t-12 -29 q0 -16 12 -28t28 -12q17 0 28.5 12t11.5 28zM796 68h18h5.5t5.5 -2q6 -3 6 -10q0 -5 -4 -9q-3 -3 -6 -3q7 -3 8 -10q1 -4 1.5 -7.5t1.5 -8.5h-7q-1 3 -1.5 7t-1.5 7q0 9 -10 9h-9v-23h-7v50zM803 47h10h3.5t3.5 1l2 2t1 4q0 7 -4 8t-6 1h-10v-16z" />
<glyph unicode="&#x2f;symbol&#x34;&#x2f;" horiz-adv-x="2607" d="M1684 406q0 32 -2.5 63t-8.5 65l126 14l15 -15v-533h-130v406zM1889 406q0 62 -10 128l126 14l14 -15v-533h-130v406zM427 101v-101h-320v362q0 38 -1.5 72t-5.5 63l126 7l14 -14v-396zM925 21l7 109q31 -18 72 -27t72 -9q50 0 50 36q0 19 -20.5 34t-50 31t-59.5 37 t-50.5 51t-20.5 74q0 48 26 80.5t70 49.5t97 17q81 0 127 -18l-14 -111q-28 14 -55 21.5t-56 7.5q-28 0 -43 -11t-15 -29q0 -22 20.5 -38.5t50.5 -32.5t59.5 -36.5t50 -49.5t20.5 -73q0 -67 -54 -104t-139 -37q-40 0 -82.5 8t-62.5 20zM795 0l-106 -7q-7 11 -12 24t-9 25h-4 q-15 -22 -42.5 -35.5t-61.5 -13.5q-41 0 -69 22t-28 67q0 61 53.5 88.5t137.5 29.5v20q0 54 -58 54q-55 0 -108 -29l-8 97q27 10 68.5 18t81.5 8q154 0 154 -135q0 -38 -2 -69.5t-2 -69.5q0 -24 4.5 -50.5t10.5 -43.5zM1626 0l-107 -7q-7 11 -12 24t-9 25h-3 q-15 -22 -42.5 -35.5t-62.5 -13.5q-40 0 -68 22t-28 67q0 61 53 88.5t138 29.5v20q0 54 -58 54q-54 0 -109 -29l-7 97q27 10 68.5 18t81.5 8q153 0 153 -135q0 -38 -1.5 -69.5t-1.5 -69.5q0 -24 4.5 -50.5t10.5 -43.5zM2405 213v-17t-1 -19l-11 -11h-191q8 -45 33.5 -64 t64.5 -19q24 0 45.5 6t38.5 15l7 -81q-17 -11 -49.5 -20.5t-77.5 -9.5q-88 0 -143 47t-55 135q0 58 24 101t66 67.5t94 24.5q73 0 114 -43.5t41 -111.5zM2199 207l78 4q1 5 1.5 11t0.5 15q0 23 -7.5 41t-26.5 18q-23 0 -34 -25.5t-12 -63.5zM654 74v88q-27 -3 -46 -17 t-19 -40q0 -18 10.5 -29t26.5 -11t28 9zM1485 74v88q-27 -3 -46 -17t-19 -40q0 -18 10 -29t27 -11q16 0 28 9zM2464 85q18 0 30.5 -13t12.5 -31t-12.5 -31t-30.5 -13t-31 13t-13 31t13 31t31 13zM2504 41q0 17 -11.5 28.5t-28.5 11.5q-16 0 -28 -11.5t-12 -28.5 q0 -16 12 -28t28 -12q17 0 28.5 12t11.5 28zM2446 66h18q2 0 5 -0.5t6 -2.5q5 -2 5 -10q0 -4 -3 -9q-3 -3 -6 -3q7 -1 8 -10q0 -7 3 -15h-8q-1 2 -1 6t-1 7q-1 5 -2.5 7t-8.5 2h-8v-22h-7v50zM2453 44h10h3.5t3.5 1q3 3 3 7q0 6 -4 7t-6 1h-10v-16z" />
<glyph unicode="&#x2f;symbol&#x35;&#x2f;" horiz-adv-x="705" d="M232 -6l-132 136l124 234l129 -136zM474 -6l-121 234l128 136l124 -234z" />
<glyph unicode=" "  horiz-adv-x="260" />
<glyph unicode="&#x09;" horiz-adv-x="260" />
<glyph unicode="&#xa0;" horiz-adv-x="260" />
<glyph unicode="!" horiz-adv-x="257" d="M129 190h-31q36 184 61 309t37 186l44 10l4 -5q-27 -118 -56.5 -246t-58.5 -254zM119 51q0 -24 -14.5 -42.5t-34.5 -18.5q-13 0 -20 9t-7 21q0 23 15.5 41.5t33.5 18.5q14 0 20.5 -8t6.5 -21z" />
<glyph unicode="&#x22;" horiz-adv-x="228" d="M191 755l4 -5l-64 -229h-20l37 234h43zM291 755l4 -5l-64 -229h-20l37 234h43z" />
<glyph unicode="#" horiz-adv-x="719" d="M185 -10l-27 2l-7 8l71 155h-141l-6 8l11 28h153l73 158h-147l-7 8l11 28h159l74 160l28 -2l6 -8l-69 -150h179l74 160l28 -2l6 -8l-69 -150h136l6 -8l-9 -28h-150l-72 -158h147l6 -8l-10 -28h-160l-76 -165l-27 2l-7 8l71 155h-179zM278 191h179l73 158h-180z" />
<glyph unicode="$" horiz-adv-x="460" d="M136 -140l-6 8l26 122h-2q-30 0 -68 7.5t-73 27.5l17 43q32 -24 70 -32t66 -8q47 0 86 17t62 49.5t23 78.5q0 39 -15 67t-39.5 51t-51 44t-51 44t-39.5 52t-15 69q0 49 25 90t67.5 68t96.5 34l27 130l23 3l6 -8l-26 -122h7q36 0 71 -9t58 -24l-17 -43q-28 23 -61.5 30.5 t-59.5 7.5q-51 0 -89.5 -20t-60 -53.5t-21.5 -75.5q0 -36 15 -62.5t39 -48.5t51 -42.5t51 -44t39 -54t15 -71.5q0 -53 -26 -94.5t-70.5 -67t-99.5 -31.5l-27 -129z" />
<glyph unicode="%" horiz-adv-x="936" d="M436 558q0 -46 -14.5 -93t-42 -85.5t-66 -62t-85.5 -23.5q-55 0 -84.5 36t-29.5 103q0 47 15 93.5t42 85t65.5 61.5t84.5 23q56 0 85.5 -35.5t29.5 -102.5zM734 695l-422 -705h-40l421 705h41zM152 436q0 -54 21 -83t64 -29q38 0 68 21t50.5 55.5t31.5 75t11 79.5 q0 111 -85 111q-38 0 -68 -21t-50.5 -55.5t-31.5 -75t-11 -78.5zM848 186q0 -46 -14.5 -93t-42 -85.5t-66 -62t-85.5 -23.5q-55 0 -84.5 36t-29.5 103q0 47 15 93.5t42 85t65.5 61.5t84.5 23q56 0 85.5 -35.5t29.5 -102.5zM564 64q0 -54 21 -83t64 -29q38 0 68 21t50.5 55.5 t31.5 75t11 79.5q0 111 -85 111q-38 0 -68 -21t-50.5 -55.5t-31.5 -75t-11 -78.5z" />
<glyph unicode="&#x26;" horiz-adv-x="753" d="M681 57q0 -25 -13.5 -42.5t-40.5 -24.5l-7 7q7 8 12.5 24.5t5.5 31.5q0 32 -29 58t-73 52q-47 -75 -115.5 -124t-154.5 -49q-59 0 -99 23t-60.5 61.5t-20.5 84.5q0 69 46 130t123 95q-11 22 -17 47.5t-6 54.5q0 66 28.5 112.5t74 71.5t97.5 25q56 0 85 -26t29 -66 q0 -31 -17 -61t-42 -49q20 0 54.5 1.5t74 3t76.5 3.5t63 4l5 -5q0 -9 -2 -22t-4 -21q-23 0 -57 1.5t-71 3.5q-1 -66 -20 -136t-52 -132q53 -30 90 -61.5t37 -75.5zM275 489q0 -56 23 -98.5t60 -74.5t81.5 -58t87.5 -50q30 57 46 123t17 133q-38 3 -72 5t-55 4l-5 11 q20 24 32.5 50t12.5 51q0 29 -17.5 51.5t-62.5 22.5q-39 0 -73 -20.5t-54.5 -58.5t-20.5 -91zM129 164q0 -62 42.5 -100t109.5 -38q71 0 129.5 42t99.5 109q-42 23 -88 49.5t-87 59.5t-68 76q-74 -36 -106 -91.5t-32 -106.5z" />
<glyph unicode="'" horiz-adv-x="128" d="M191 755l4 -5l-64 -229h-20l37 234h43z" />
<glyph unicode="(" horiz-adv-x="351" d="M103 114q0 89 20.5 180.5t59.5 177t94 158.5t124 125l14 -19q-87 -80 -147.5 -182.5t-92.5 -215.5t-32 -226q0 -79 18 -151t60 -137l-22 -19q-46 54 -71 133t-25 176z" />
<glyph unicode=")" horiz-adv-x="352" d="M262 446q0 -89 -20.5 -180.5t-59.5 -177t-94 -158t-124 -125.5l-14 19q87 81 148 183t92.5 215.5t31.5 225.5q0 80 -18 152t-60 136l22 19q47 -54 71.5 -133t24.5 -176z" />
<glyph unicode="*" horiz-adv-x="481" d="M255 376l-4 4l39 152l-148 -85l-9 26l1 7l153 69l-126 71l21 26l6 3l110 -82l26 155h30l4 -4l-41 -153l150 86l9 -26l-1 -7l-150 -69l123 -71l-21 -26l-6 -3l-111 84l-25 -157h-30z" />
<glyph unicode="+" d="M521 328h-199l-43 -203h-40l42 203h-210l7 35q37 1 93 2t118 1l41 199h42l-42 -198q58 0 110.5 0.5t88.5 0.5l3 -5z" />
<glyph unicode="," horiz-adv-x="207" d="M-40 -177q24 38 47.5 82.5t36.5 84.5q-14 0 -22.5 9.5t-8.5 22.5q0 23 17 40.5t39 17.5q30 0 30 -33q0 -19 -11.5 -48.5t-30 -63.5t-40 -66t-41.5 -56z" />
<glyph unicode="-" horiz-adv-x="349" d="M41 279l3 35h285l-3 -35h-285z" />
<glyph unicode="." horiz-adv-x="211" d="M104 48q0 -22 -17 -40t-37 -18q-13 0 -23 9t-10 24q0 22 17.5 39.5t37.5 17.5q14 0 23 -9t9 -23z" />
<glyph unicode="/" horiz-adv-x="349" d="M389 753l6 -8l-346 -747l-29 5l-6 8l346 747z" />
<glyph unicode="0" horiz-adv-x="692" d="M629 458q0 -90 -28 -174t-76.5 -150.5t-111 -105t-131.5 -38.5q-82 0 -130.5 60t-48.5 178q0 90 28 173.5t76.5 150t111 105t131.5 38.5q82 0 130.5 -59t48.5 -178zM147 233q0 -98 36.5 -152.5t107.5 -54.5q59 0 112 35.5t94 95.5t64.5 136.5t23.5 158.5q0 99 -37 153 t-108 54q-59 0 -112 -35.5t-93.5 -95.5t-64 -136.5t-23.5 -158.5z" />
<glyph unicode="1" horiz-adv-x="294" d="M209 639h-1l-130 -33l-2 24l179 65l4 -5l-147 -690h-40l104 491q8 35 16 73t17 75z" />
<glyph unicode="2" horiz-adv-x="541" d="M0 0l2 43q91 69 175.5 138.5t151 136t105.5 127t39 110.5q0 47 -35 75.5t-103 28.5q-52 0 -105 -16t-104 -39l3 36q28 14 65 26.5t77.5 20.5t78.5 8q78 0 122.5 -36t44.5 -95q0 -48 -29.5 -101.5t-79 -109t-110.5 -110.5t-126.5 -107t-124.5 -98h225q40 0 81.5 2.5 t80.5 7.5l-20 -48h-414z" />
<glyph unicode="3" horiz-adv-x="494" d="M151 640q38 20 93 37.5t108 17.5q62 0 100.5 -28.5t38.5 -83.5q0 -68 -62 -128.5t-171 -98.5q81 -4 133.5 -35.5t52.5 -103.5q0 -61 -38.5 -112.5t-103.5 -83t-146 -31.5q-41 0 -84 7.5t-70 16.5l13 36q32 -10 74 -17t76 -7q66 0 119 25t84 66t31 90q0 46 -25.5 71.5 t-66.5 36.5t-87 11q-36 0 -67 -7l7 35q85 19 149.5 52.5t101 77t36.5 90.5q0 41 -28 63t-81 22q-49 0 -96.5 -16t-93.5 -39z" />
<glyph unicode="4" horiz-adv-x="550" d="M52 235l395 448l42 10l4 -5l-96 -452q27 1 54 3.5t53 5.5l-20 -48h-95l-42 -197h-40l43 197h-298v38zM92 234v-1q62 2 114.5 2h113.5h22h16l53 247q11 52 17 79t9.5 42.5t6.5 30.5h-1z" />
<glyph unicode="5" horiz-adv-x="544" d="M27 14l13 36q30 -10 69 -17t71 -7q68 0 122 29t86 77.5t32 106.5q0 46 -20 74.5t-54 41.5t-76 13q-18 0 -43.5 -2.5t-50 -6.5t-41.5 -11l-8 10l70 327h188q41 0 81.5 2.5t80.5 7.5l-14 -48h-306l-56 -258q26 6 58.5 10t57.5 4q48 0 88.5 -16t64.5 -50t24 -89 q0 -52 -22.5 -98.5t-62.5 -82.5t-93 -56.5t-115 -20.5q-39 0 -78.5 7.5t-65.5 16.5z" />
<glyph unicode="6" horiz-adv-x="592" d="M242 -10q-162 0 -162 204q0 76 21 148.5t59 136.5t88.5 112.5t110 76t123.5 27.5q23 0 46 -3.5t34 -11.5l-13 -36q-23 15 -72 15q-70 0 -137.5 -38t-120.5 -116t-81 -199h1q28 30 65 49.5t76.5 29t72.5 9.5q71 0 112 -39t41 -110q0 -51 -21 -96.5t-57.5 -81.5t-84 -56.5 t-101.5 -20.5zM339 358q-36 0 -77 -12t-76 -35t-56 -56q-2 -17 -3.5 -34t-1.5 -33q0 -71 30 -116.5t100 -45.5q57 0 104 29.5t75 77.5t28 103q0 56 -31 89t-92 33z" />
<glyph unicode="7" horiz-adv-x="514" d="M148 637l21 48h398l4 -5l-6 -28q-61 -60 -125.5 -135.5t-124 -161t-106.5 -176t-73 -179.5h-43q19 69 55.5 142t82.5 144.5t96.5 138t99.5 123t90 98.5l1 1h-207q-40 0 -81.5 -2.5t-81.5 -7.5z" />
<glyph unicode="8" horiz-adv-x="539" d="M198 -10q-82 0 -133 36.5t-51 96.5q0 64 58.5 122.5t153.5 97.5v1q-46 26 -79 66t-33 94q0 53 31.5 96t83 69t111.5 26q72 0 119.5 -38t47.5 -100q0 -67 -54.5 -123t-140.5 -88l-1 -1q36 -17 67 -41.5t49.5 -56t18.5 -69.5q0 -48 -32 -91t-88 -70t-128 -27zM332 659 q-48 0 -88 -19.5t-63.5 -52t-23.5 -73.5q0 -49 35.5 -86.5t89.5 -63.5q80 32 131 80.5t51 107.5q0 48 -36 77.5t-96 29.5zM256 325q-91 -36 -145 -89.5t-54 -106.5q0 -46 41 -74.5t107 -28.5q58 0 102.5 21t70 55t25.5 72q0 35 -20 61.5t-53 48.5t-74 41z" />
<glyph unicode="9" horiz-adv-x="588" d="M277 270q-76 0 -119 42.5t-43 118.5q0 51 19 98t53.5 84.5t80.5 59.5t101 22q80 0 128 -52.5t48 -159.5q0 -67 -20 -137t-56.5 -133.5t-86.5 -114t-111 -79.5t-130 -29q-18 0 -40 2t-33 6l7 36q11 -4 30.5 -6t35.5 -2q78 0 148.5 43.5t122 120t73.5 174.5h-1 q-39 -49 -96 -71.5t-111 -22.5zM360 659q-57 0 -102.5 -31.5t-71.5 -82t-26 -107.5q0 -60 32.5 -96t97.5 -36q52 0 108.5 25t94.5 84q4 20 5.5 38t1.5 34q0 78 -36 125t-104 47z" />
<glyph unicode=":" horiz-adv-x="212" d="M174 375q0 -22 -17 -40t-37 -18q-13 0 -23 9t-10 24q0 22 17.5 39.5t37.5 17.5q14 0 23 -9t9 -23zM104 48q0 -22 -17 -40t-37 -18q-13 0 -23 9t-10 24q0 22 17.5 39.5t37.5 17.5q14 0 23 -9t9 -23z" />
<glyph unicode=";" horiz-adv-x="221" d="M183 375q0 -22 -17 -40t-37 -18q-13 0 -23 9t-10 24q0 22 17.5 39.5t37.5 17.5q14 0 23 -9t9 -23zM-40 -177q24 38 47.5 82.5t36.5 84.5q-14 0 -22.5 9.5t-8.5 22.5q0 23 17 40.5t39 17.5q30 0 30 -33q0 -19 -11.5 -48.5t-30 -63.5t-40 -66t-41.5 -56z" />
<glyph unicode="&#x3c;" d="M543 558l-10 -45l-397 -180l323 -166l-9 -40q-34 16 -84 41t-105 53t-103.5 53.5t-79.5 42.5l-2 6l5 27z" />
<glyph unicode="=" d="M540 421h-450l8 35q31 1 75.5 1.5t96 1.5t103.5 1.5t97.5 0.5h77.5l4 -5zM501 237h-450l7 35q31 1 76 1.5t96.5 1.5t103.5 1.5t97.5 0.5h77.5l3 -5z" />
<glyph unicode="&#x3e;" d="M57 127l10 45l397 180l-323 166l9 40q34 -16 84 -41t105 -53t103.5 -53.5t79.5 -42.5l2 -6l-5 -27z" />
<glyph unicode="?" horiz-adv-x="423" d="M177 209h-28q-1 9 0.5 21t2.5 19q4 29 30 54t62 50t71 54.5t58.5 66.5t23.5 87q0 44 -27.5 71t-78.5 27q-40 0 -90 -21t-92 -70l-21 21q43 51 101 78.5t115 27.5q65 0 101.5 -32t37.5 -86q0 -56 -24.5 -99t-61 -76t-74 -59.5t-64 -50t-30.5 -47.5q-2 -14 -2 -28zM165 51 q0 -24 -14.5 -42.5t-34.5 -18.5q-13 0 -20 9t-7 21q0 23 15.5 41.5t33.5 18.5q14 0 20.5 -8t6.5 -21z" />
<glyph unicode="@" horiz-adv-x="1118" d="M820 -163q-52 -34 -130 -63t-174 -29q-95 0 -174.5 31.5t-137.5 89t-90 137t-32 175.5q0 97 32 184t88.5 159t130.5 124.5t160 81t176 28.5q95 0 172 -31t133 -85.5t86 -127t30 -155.5q0 -75 -24 -141.5t-66 -117t-98 -79t-119 -28.5q-54 0 -84 20.5t-40.5 55t-6 77.5 t18.5 88h-4q-16 -39 -40 -81t-54 -78.5t-63 -59t-67 -22.5q-37 0 -64 33.5t-27 108.5q0 68 23.5 134t65 120t97.5 86.5t122 32.5q19 0 47 -3.5t56 -11.5l-56 -228q-5 -21 -11 -51t-7.5 -62t6 -60t29.5 -45.5t63 -17.5q46 0 92 23.5t84 67t61 104t23 133.5q0 79 -28.5 145.5 t-79 116t-119.5 76.5t-150 27q-77 0 -155 -25t-148 -71.5t-124.5 -112t-86 -147t-31.5 -176.5q0 -88 28.5 -162t81.5 -129t127.5 -85t165.5 -30q92 0 158.5 25.5t119.5 54.5zM455 26q29 0 59.5 25.5t59.5 66.5t53.5 88.5t42 92.5t25.5 77l20 81q-21 6 -42 9t-36 3 q-48 0 -91.5 -29t-77.5 -77t-53.5 -107t-19.5 -119q0 -52 15.5 -81.5t44.5 -29.5z" />
<glyph unicode="A" horiz-adv-x="589" d="M13 0h-41l344 592q16 27 31 53.5t25 46.5l28 3l4 -5l107 -690h-44l-35 222h-290zM267 437l-104 -179h264l-28 179q-7 50 -14 100.5t-8 99.5h-1q-22 -49 -51 -99.5t-58 -100.5z" />
<glyph unicode="B" horiz-adv-x="593" d="M229 0h-150l115 538q9 43 15 80.5t9 66.5h138q89 0 139 -36t50 -103q0 -44 -20.5 -82.5t-55.5 -66t-79 -38.5q68 -10 99 -49t31 -90q0 -68 -38 -117.5t-104 -76t-149 -26.5zM346 650h-86l-60 -279h64q69 0 122 22.5t83 59.5t30 82q0 115 -153 115zM287 336h-94l-65 -301 h115q68 0 120.5 22t82 62.5t29.5 95.5q0 57 -42 89t-146 32z" />
<glyph unicode="C" horiz-adv-x="578" d="M498 86l-2 -38q-41 -28 -95.5 -43t-100.5 -15q-94 0 -147.5 62.5t-53.5 180.5q0 65 16.5 131t47.5 125.5t75 106t99.5 73t120.5 26.5q33 0 77.5 -9.5t81.5 -35.5l-18 -42q-28 25 -68.5 37t-79.5 12q-60 0 -108.5 -25t-85.5 -68t-62 -96.5t-38 -111.5t-13 -113 q0 -99 42.5 -157t127.5 -58q47 0 96 16.5t88 41.5z" />
<glyph unicode="D" horiz-adv-x="689" d="M629 433q0 -81 -29 -158t-83 -139.5t-130 -99t-170 -36.5h-138l115 538q9 43 15 80.5t9 66.5h147q122 0 193 -61.5t71 -190.5zM351 649h-92l-130 -613h94q87 0 154.5 33.5t113.5 90t69.5 126.5t23.5 143q0 109 -55.5 164.5t-177.5 55.5z" />
<glyph unicode="E" horiz-adv-x="532" d="M437 39l-8 -39h-350l115 538q9 44 14.5 78t9.5 69h342l4 -5l-7 -34l-297 4l-63 -292l257 2l-9 -39l-255 2l-62 -288z" />
<glyph unicode="F" horiz-adv-x="502" d="M121 0h-42l115 538q9 44 14.5 78t9.5 69h342l4 -5l-7 -34l-297 4l-65 -302l257 2l-9 -39l-255 2l4 22z" />
<glyph unicode="G" horiz-adv-x="639" d="M563 288l4 -5l-53 -242q-38 -25 -91.5 -38t-101.5 -13q-104 0 -162.5 61.5t-58.5 188.5q0 85 26 166t73.5 146.5t112.5 104t142 38.5q32 0 76.5 -9.5t81.5 -35.5l-18 -42q-28 25 -68.5 37t-78.5 12q-69 0 -124.5 -36t-95.5 -95.5t-61 -132t-21 -146.5q0 -105 46.5 -162 t144.5 -57q72 0 140 30l15 73q8 40 14 76t10 71z" />
<glyph unicode="H" horiz-adv-x="713" d="M121 0h-42l114 538q9 44 15 78t10 69l46 10l4 -5l-71 -331h372l38 179q10 44 15.5 78t9.5 69l46 10l4 -5l-147 -690h-42l68 323h-371z" />
<glyph unicode="I" horiz-adv-x="299" d="M121 0h-42l114 538q10 44 15.5 78t9.5 69l46 10l4 -5z" />
<glyph unicode="J" horiz-adv-x="269" d="M-66 -182l-10 26q43 21 80.5 69t54.5 130l105 495q9 44 14.5 75.5t9.5 71.5l46 10l4 -5l-137 -647q-35 -166 -167 -225z" />
<glyph unicode="K" horiz-adv-x="598" d="M194 538q9 44 14.5 78t9.5 69l44 10l4 -5l-70 -331h109l154 168l154 168l25 -13l4 -5l-305 -333l183 -344l-43 -10l-177 333h-112l-69 -323h-40z" />
<glyph unicode="L" horiz-adv-x="504" d="M121 0h-42l115 539q9 44 14.5 77.5t9.5 68.5l46 10l4 -5zM429 39l-8 -39h-300l8 35z" />
<glyph unicode="M" horiz-adv-x="826" d="M765 695l4 -5l-56 -690h-42l22 271q6 72 10.5 128t9.5 107t12 106h-1q-43 -85 -91 -170t-96 -171l-154 -271h-46l-37 271q-11 79 -19 137t-14 106t-11 98h-1q-25 -85 -55 -170t-59 -171l-94 -271h-40l239 691l36 4l60 -424q7 -46 15 -108.5t12 -121.5h1q38 74 68.5 128.5 t57.5 101.5l237 420z" />
<glyph unicode="N" horiz-adv-x="728" d="M395 384q28 -68 51.5 -122.5t42.5 -104.5t33 -106h1q4 24 8 46t10 52.5t16 78.5t25.5 123t39.5 187q10 44 15.5 78t9.5 69l46 10l4 -5l-147 -690h-45q-32 78 -64.5 155.5t-64.5 155.5q-28 68 -50 120.5t-39.5 100.5t-33.5 102h-1q-11 -66 -23.5 -128t-26.5 -124l-81 -382 h-42l114 538q10 44 15.5 78t9.5 69l48 10q33 -78 65.5 -156t63.5 -155z" />
<glyph unicode="O" horiz-adv-x="689" d="M630 448q0 -82 -25 -163t-70 -148t-107 -107t-137 -40q-88 0 -140.5 61.5t-52.5 179.5q0 66 16.5 132.5t47 126t73 106t94.5 73t110 26.5q88 0 139.5 -64t51.5 -183zM143 240q0 -99 40.5 -155.5t118.5 -56.5q65 0 117.5 37t89.5 98t56.5 134.5t19.5 146.5q0 99 -38.5 156 t-115.5 57q-64 0 -117 -37.5t-91.5 -99.5t-59 -135t-20.5 -145z" />
<glyph unicode="P" horiz-adv-x="538" d="M121 0h-42l115 538q9 44 14.5 78t9.5 69h140q91 0 142 -42t51 -116q0 -79 -39.5 -137.5t-107 -90.5t-150.5 -32h-76zM348 650h-88l-75 -348h85q70 0 123 28t83 78t30 115q0 57 -37.5 92t-120.5 35z" />
<glyph unicode="Q" horiz-adv-x="666" d="M740 -125q0 -21 -24.5 -29.5t-67.5 -8.5q-65 0 -133.5 20t-134 55t-120.5 80q-74 10 -118 70.5t-44 168.5q0 66 16.5 132.5t47 126t73 106t94.5 73t110 26.5q88 0 139.5 -64t51.5 -183q0 -79 -23 -157t-65 -143.5t-100 -107.5t-128 -49q37 -26 92.5 -51t119 -41.5 t124.5 -16.5q25 0 43 2t41 8q6 -6 6 -17zM302 28q65 0 117.5 37t89.5 98t56.5 134.5t19.5 146.5q0 99 -38.5 156t-115.5 57q-64 0 -117 -37.5t-91.5 -99.5t-59 -135t-20.5 -145q0 -99 40.5 -155.5t118.5 -56.5z" />
<glyph unicode="R" horiz-adv-x="571" d="M121 0h-42l115 538q9 44 14.5 78t9.5 69h140q92 0 143 -43t51 -115q0 -87 -55.5 -147.5t-142.5 -81.5l134 -298l-41 -10q-33 74 -66.5 148.5t-67.5 148.5h-131zM348 650h-88l-70 -328h85q69 0 121 24.5t81 69.5t29 107q0 55 -37 91t-121 36z" />
<glyph unicode="S" horiz-adv-x="493" d="M417 190q0 -57 -31.5 -102.5t-86.5 -71.5t-128 -26q-34 0 -77 7.5t-81 27.5l17 43q36 -24 79 -32t71 -8q56 0 99.5 21t68.5 56.5t25 78.5q0 39 -18.5 65.5t-46.5 46t-57 35.5q-30 18 -60 38.5t-49.5 50.5t-19.5 75q0 56 31 101t86 72t126 27q41 0 81 -9t65 -24l-17 -43 q-31 23 -69 30.5t-67 7.5q-55 0 -98 -20t-68 -54t-25 -77q0 -38 19 -63.5t48.5 -45t61.5 -38.5q28 -16 55.5 -37.5t46.5 -53t19 -78.5z" />
<glyph unicode="T" horiz-adv-x="491" d="M214 0h-42l139 650q-54 0 -108 -1.5t-109 -3.5l12 40h465l-6 -40q-53 2 -106 3.5t-106 1.5z" />
<glyph unicode="U" horiz-adv-x="634" d="M87 157q0 26 9 73.5t22 107t27 122.5t24.5 122t13.5 105l54 8v-1q-31 -144 -51 -236.5t-31.5 -146.5t-17 -81.5t-7 -40t-1.5 -22.5q0 -67 41.5 -102t105.5 -35q50 0 95 21t78 62.5t46 103.5q23 107 38.5 178.5t25 117t14.5 75t8 52t4 47.5l54 8l-101 -475 q-16 -76 -57.5 -127.5t-98.5 -77t-120 -25.5q-76 0 -125.5 42t-49.5 125z" />
<glyph unicode="V" horiz-adv-x="586" d="M228 -5l-109 696l43 4l67 -427q10 -62 16.5 -113t6.5 -106q25 55 62 120t71 124l232 402l33 -5l4 -5l-401 -690h-25z" />
<glyph unicode="W" horiz-adv-x="956" d="M197 -5l-78 695l41 5l48 -428q8 -61 12 -112.5t2 -102.5q20 51 53 115.5t64 122.5l215 401l39 4l48 -428q8 -61 12 -112.5t2 -102.5q20 51 52.5 114t63.5 121l218 408l31 -5l4 -5l-369 -690h-25l-55 492q-4 35 -7.5 71.5t-5.5 79.5h-1q-19 -43 -38.5 -79.5t-38.5 -71.5 l-262 -492h-25z" />
<glyph unicode="X" horiz-adv-x="541" d="M-22 0v5l287 343l-142 337l44 10l134 -319h1l265 319l37 -5v-5l-286 -338l140 -347h-47l-129 319h-1l-263 -319h-40z" />
<glyph unicode="Y" horiz-adv-x="524" d="M243 256l-124 435l43 4l74 -260q8 -32 20 -72t15 -78h1q20 38 49.5 79t51.5 73l182 258l33 -5l4 -5l-308 -433l-54 -252h-42z" />
<glyph unicode="Z" horiz-adv-x="507" d="M-16 0l-1 25l522 625l-379 -3l11 38h417l4 -25l-522 -625l397 4l-11 -39h-438z" />
<glyph unicode="[" horiz-adv-x="298" d="M188 755h193l-8 -36h-151l-186 -878h151l-8 -36h-193l194 914v0z" />
<glyph unicode="\" horiz-adv-x="349" d="M194 -2l-28 747l10 8l31 5l28 -747l-10 -8z" />
<glyph unicode="]" horiz-adv-x="298" d="M124 -195h-193l8 36h151l186 878h-151l8 36h193l-194 -914v0z" />
<glyph unicode="^" horiz-adv-x="525" d="M127 210h-45l213 335h56l76 -335h-44l-68 299z" />
<glyph unicode="_" horiz-adv-x="340" d="M-92 -183l8 35h340l-8 -35h-340z" />
<glyph unicode="`" horiz-adv-x="341" d="M283 580q-43 32 -76 68.5t-54 82.5l5 8l42 16q15 -41 40.5 -82t55.5 -80z" />
<glyph unicode="a" horiz-adv-x="506" d="M52 132q0 68 23.5 134t65 120t97.5 86.5t122 32.5q19 0 47 -3.5t56 -11.5l-42 -173q-19 -82 -33.5 -155.5t-14.5 -161.5h-40q0 37 2.5 70.5t9 71.5t17.5 90q-18 -39 -42 -81t-52 -79t-59.5 -59.5t-65.5 -22.5q-37 0 -64 33.5t-27 108.5zM95 137q0 -52 15.5 -81.5 t44.5 -29.5t60.5 28.5t61 74t55 97t43.5 98.5t26 78q4 13 7 26.5t7 28.5q-21 6 -42 9t-36 3q-48 0 -91.5 -29t-77.5 -77t-53.5 -107t-19.5 -119z" />
<glyph unicode="b" horiz-adv-x="512" d="M366 505q41 0 67.5 -33.5t26.5 -108.5q0 -68 -23 -134t-65 -120t-98.5 -86.5t-122.5 -32.5q-19 0 -48.5 3.5t-55.5 11.5q8 35 16 67.5t17 72.5t21.5 96.5t30.5 138.5l49 229l8 136l49 10q0 -57 -13.5 -136.5t-34.5 -171.5t-43 -184q18 42 41.5 85t51 78.5t59.5 57 t67 21.5zM357 469q-29 0 -60 -26.5t-61 -70t-55.5 -93.5t-45 -98.5t-28.5 -84.5q-7 -31 -12 -57q21 -7 43 -10t37 -3q48 0 91.5 29t77.5 77t53.5 107t19.5 119q0 52 -15.5 81.5t-44.5 29.5z" />
<glyph unicode="c" horiz-adv-x="444" d="M366 119l18 -13q-40 -62 -87 -89t-94 -27q-65 0 -104.5 46.5t-39.5 131.5q0 65 22 125t59.5 108t86 76t100.5 28q35 0 59 -12.5t42 -29.5l-17 -41q-17 20 -40.5 33.5t-53.5 13.5q-41 0 -79.5 -25.5t-69 -68.5t-48.5 -96t-18 -107q0 -64 27.5 -105t83.5 -41q44 0 82 26 t71 67z" />
<glyph unicode="d" horiz-adv-x="509" d="M376 0h-40q0 40 7 93.5t25 144.5q-18 -43 -41.5 -87t-52 -80.5t-61.5 -58.5t-70 -22t-64 33.5t-27 108.5q0 68 23.5 134t65 120t97.5 86.5t122 32.5q12 0 28.5 -1.5t34.5 -4.5l23 110l8 136l49 10q0 -58 -13 -132t-31.5 -156.5t-37.5 -166t-32 -160.5t-13 -140zM95 137 q0 -52 15.5 -81.5t44.5 -29.5t60 27.5t60.5 71.5t55 94.5t44 97.5t25.5 79l14 61q-21 6 -42 9t-35 3q-48 0 -91.5 -29t-77.5 -77t-53.5 -107t-19.5 -119z" />
<glyph unicode="e" horiz-adv-x="447" d="M364 119l18 -13q-31 -55 -80 -85.5t-99 -30.5q-62 0 -103 46.5t-41 132.5q0 59 19.5 118.5t54 108.5t79.5 79t95 30q47 0 76 -27t29 -75q0 -30 -14.5 -60t-49 -55t-94 -42t-147.5 -21q-5 -28 -5 -53q0 -64 28.5 -105t80.5 -41q44 0 83 27.5t70 65.5zM298 469 q-42 0 -79.5 -31t-65 -80.5t-40.5 -103.5q79 5 129 21t78 38.5t38.5 46t10.5 42.5q0 30 -19.5 48.5t-51.5 18.5z" />
<glyph unicode="f" horiz-adv-x="318" d="M-11 -203l-15 21q23 26 49.5 71t40.5 111l98 462l-76 2l5 24l78 7q5 29 10 57.5t8 41.5q16 74 60 117.5t114 43.5q56 0 99 -26l-21 -40q-14 12 -36.5 21t-52.5 9q-54 0 -82 -33.5t-42 -94.5q-1 -7 -4.5 -24.5t-7 -37t-6.5 -34.5h136l4 -5l-9 -31l-137 3l-98 -462 q-14 -67 -45 -116t-70 -87z" />
<glyph unicode="g" horiz-adv-x="415" d="M120 -255q-78 0 -118.5 33.5t-40.5 84.5q0 40 22 68.5t56 49.5l14 -16q-22 -22 -35.5 -46t-13.5 -48q0 -37 31.5 -63.5t92.5 -26.5q48 0 83 15.5t54.5 40t19.5 51.5q0 25 -19.5 45t-65.5 42q-32 16 -59 31.5t-27 42.5q0 24 22.5 48.5t59.5 52.5v1q-8 -1 -9 -1 q-60 0 -88.5 36t-28.5 93q0 60 26.5 111.5t72.5 83t102 31.5q38 0 63.5 0.5t45.5 2.5t42 7q5 -8 5 -21q0 -10 -7.5 -18t-29.5 -8q-15 0 -34.5 4t-38.5 8v-1q23 -15 35.5 -39.5t12.5 -65.5q0 -57 -21 -100.5t-52 -76t-62 -57t-52 -43.5t-21 -36q0 -12 10 -21t23.5 -15.5 t22.5 -11.5q61 -28 88 -55t27 -62q0 -34 -24 -69t-70 -58.5t-114 -23.5zM325 370q0 47 -20 74t-55 27q-36 0 -68 -28t-52 -71t-20 -90q0 -49 22 -73t56 -24q40 0 71 28t48.5 71t17.5 86z" />
<glyph unicode="h" horiz-adv-x="537" d="M111 0h-40q0 36 5.5 82.5t19 117.5t36.5 180l49 229l8 136l49 10q0 -52 -10.5 -118.5t-27 -141t-34.5 -150.5h2q37 81 92.5 120.5t107.5 39.5q46 0 70 -25.5t24 -70.5q0 -13 -0.5 -23t-3.5 -27t-10 -49.5t-20 -91.5q-11 -54 -17 -91t-8 -66t-2 -61h-40q0 72 11.5 130 t22.5 108q14 65 20.5 102t6.5 60q0 34 -15 51.5t-50 17.5q-53 0 -97 -38t-76.5 -104t-51.5 -150.5t-21 -176.5z" />
<glyph unicode="i" horiz-adv-x="241" d="M227 682q0 -24 -14.5 -42.5t-34.5 -18.5q-13 0 -20 9t-7 21q0 23 15.5 41.5t33.5 18.5q14 0 20.5 -8t6.5 -21zM111 0h-40q0 54 10 121t27 146l20 92l8 136l49 10q0 -56 -11 -119t-26 -129t-26 -131.5t-11 -125.5z" />
<glyph unicode="j" horiz-adv-x="218" d="M219 682q0 -24 -14.5 -42.5t-34.5 -18.5q-13 0 -20 9t-7 21q0 23 15.5 41.5t33.5 18.5q14 0 20.5 -8t6.5 -21zM-70 -255l-15 21q44 26 74.5 71t44.5 111l88 411l8 136l49 10q0 -26 -3 -54.5t-10 -67.5t-19 -96.5t-29.5 -140t-42.5 -198.5q-15 -67 -49.5 -116t-95.5 -87z " />
<glyph unicode="k" horiz-adv-x="474" d="M449 429q0 -43 -29.5 -84t-74.5 -76t-93 -60q17 -29 41.5 -67t52.5 -75.5t55 -66.5h-52q-37 43 -74 101.5t-70 123.5q33 17 68.5 38t65.5 46.5t48.5 53.5t18.5 58q0 48 -47 48q-36 0 -71 -28.5t-66 -77t-55 -109.5t-39 -126.5t-17 -127.5h-40q0 36 5.5 82.5t19 117.5 t36.5 180l49 229l8 136l49 10q0 -59 -13.5 -136t-33.5 -162.5t-39 -170.5h2q40 108 100.5 163.5t118.5 55.5q39 0 57.5 -22t18.5 -54z" />
<glyph unicode="l" horiz-adv-x="240" d="M111 0h-40q0 36 5.5 82.5t19 117.5t36.5 180l49 229l8 136l49 10q0 -58 -13 -132t-31.5 -156.5t-37.5 -166t-32 -160.5t-13 -140z" />
<glyph unicode="m" horiz-adv-x="807" d="M165 345q35 80 88 120t106 40q56 0 79 -42t8 -113l-1 -5h2q35 80 87.5 120t104.5 40q56 0 79 -42t8 -113l-42 -199q-13 -59 -13 -151h-40q0 38 4.5 77t14 89t23.5 121q20 96 11.5 139t-58.5 43q-51 0 -93.5 -39t-74 -105.5t-49 -150.5t-18.5 -174h-40q0 38 4.5 77t14 89 t23.5 121q20 97 11.5 139.5t-58.5 42.5q-44 0 -80.5 -28.5t-64.5 -76.5t-47.5 -109t-30 -127t-12.5 -128h-40q0 31 3 63t9.5 72t17.5 94.5t27 129.5l8 136l49 10q0 -37 -6 -77.5t-16 -82.5h2z" />
<glyph unicode="n" horiz-adv-x="537" d="M111 0h-40q1 89 18 175t39 184l8 136l49 10q0 -37 -6 -78t-16 -82h2q38 81 94 120.5t110 39.5q45 0 69 -25t24 -69q0 -31 -9 -77.5t-23 -107.5q-12 -54 -18.5 -89.5t-8.5 -66t-2 -70.5h-40q0 57 9.5 113t24.5 132q10 50 16 87.5t6 62.5q0 35 -14 54.5t-49 19.5 q-49 0 -92 -37t-76 -102t-53 -150t-22 -180z" />
<glyph unicode="o" horiz-adv-x="494" d="M436 337q0 -60 -17.5 -121t-50.5 -112.5t-78.5 -82.5t-101.5 -31q-61 0 -95 42t-34 127q0 62 18 123t51 111.5t78 81t100 30.5q61 0 95.5 -42t34.5 -126zM102 164q0 -65 23.5 -101.5t73.5 -36.5q45 0 81 28t61.5 73.5t38.5 99t13 104.5q0 138 -97 138q-45 0 -81 -28 t-61.5 -73.5t-38.5 -99t-13 -104.5z" />
<glyph unicode="p" horiz-adv-x="507" d="M147 -10q-12 0 -28.5 1.5t-33.5 4.5q-14 -67 -23.5 -128.5t-9.5 -112.5h-40q0 34 5.5 79t19 116t36.5 180l49 229l8 136l49 10q0 -47 -9 -106t-23 -124q18 41 41 82t50 74.5t59 53.5t67 20q38 0 64.5 -33.5t26.5 -108.5q0 -68 -23.5 -134t-65 -120t-97.5 -86.5 t-122 -32.5zM352 469q-28 0 -58.5 -26.5t-60 -69.5t-54.5 -93t-43.5 -97t-27.5 -81q-4 -16 -7.5 -32t-6.5 -32q20 -6 41 -9t35 -3q48 0 91.5 29t77.5 77t53.5 107t19.5 119q0 52 -15.5 81.5t-44.5 29.5z" />
<glyph unicode="q" horiz-adv-x="501" d="M143 -10q-37 0 -64 33.5t-27 108.5q0 68 23.5 134t65 120t97.5 86.5t122 32.5q19 0 47 -3.5t56 -11.5l-102 -443q-9 -39 -19 -92t-17 -106t-7 -94h-40q0 34 5.5 82t19.5 122.5t40 186.5l19 81q-18 -39 -42 -80.5t-52 -77t-60 -57.5t-65 -22zM95 137q0 -52 15.5 -81.5 t44.5 -29.5t60 27.5t60.5 71t55 94t44 97.5t26.5 79l14 62q-21 6 -42 9t-36 3q-48 0 -91.5 -29t-77.5 -77t-53.5 -107t-19.5 -119z" />
<glyph unicode="r" horiz-adv-x="368" d="M111 0h-40q0 54 10 121t27 146l20 92l8 136l49 10q0 -42 -7 -87.5t-18 -92.5h2q38 96 87 138t98 42q20 0 36 -5.5t26 -13.5l-25 -34q-23 14 -49 14q-36 0 -69 -28.5t-61 -77t-48.5 -109t-32.5 -125.5t-13 -126z" />
<glyph unicode="s" horiz-adv-x="425" d="M376 479l-17 -41q-21 14 -46.5 22.5t-56.5 8.5q-55 0 -89.5 -28.5t-34.5 -70.5q0 -34 21 -55t51.5 -37t61 -33.5t51.5 -42.5t21 -66t-23.5 -74t-64.5 -52.5t-94 -19.5q-30 0 -64 7.5t-63 24.5l17 41q26 -19 60 -28t60 -9q53 0 90 29.5t37 72.5q0 33 -21 53.5t-52 36 t-61.5 32.5t-51.5 42t-21 66q0 44 25 77t66.5 51.5t90.5 18.5q33 0 60.5 -7.5t47.5 -18.5z" />
<glyph unicode="t" horiz-adv-x="338" d="M330 462h-138q-20 -92 -33 -153.5t-21 -99.5t-12 -59.5t-5.5 -34t-1.5 -22.5q0 -37 16 -52t46 -15q23 0 45 7t41 18l2 -33q-21 -12 -48 -20t-56 -8q-43 0 -66 21t-23 67q0 11 1.5 23t5.5 34t12.5 61.5t22.5 104t34 161.5h-76l6 26l77 7l33 112l30 4l4 -5l-27 -111h135 l4 -5z" />
<glyph unicode="u" horiz-adv-x="510" d="M76 145l45 214l8 136l49 10q0 -73 -15.5 -145.5t-30.5 -151.5q-11 -59 -13.5 -99.5t10.5 -61.5t49 -21q44 0 81 29.5t66 81t49 116.5q11 50 20.5 98t13.5 93q2 26 3 51l40 10q0 -75 -18 -157.5t-34 -165.5q-9 -46 -15.5 -92t-6.5 -90h-40q0 33 3.5 67.5t9.5 69.5 q-34 -74 -84.5 -110.5t-99.5 -36.5q-55 0 -80 42t-10 113z" />
<glyph unicode="v" horiz-adv-x="398" d="M126 0q0 133 -14.5 256.5t-43.5 238.5l40 10q29 -102 44 -213t15 -232h1q49 72 92 148t72 151t36 142q5 2 10.5 3t8.5 1q18 0 18 -18q0 -33 -19 -89.5t-52.5 -125t-77 -139.5t-92.5 -133h-38z" />
<glyph unicode="w" horiz-adv-x="606" d="M595 505q18 0 18 -18q0 -33 -16.5 -89t-46.5 -124t-69.5 -139t-86.5 -135h-40q2 115 -2 218t-12 199h-1q-13 -62 -43 -134.5t-70 -145.5t-86 -137h-40q3 149 -6 272t-26 223l41 7q16 -86 26 -197t7 -250h1q71 110 119 225t59 215h44q15 -85 24.5 -194.5t6.5 -245.5h1 q48 73 85.5 150t62 153t31.5 143q5 2 10.5 3t8.5 1z" />
<glyph unicode="x" horiz-adv-x="419" d="M4 0q32 68 77 133t105 121q-15 64 -33.5 126t-49.5 115l40 10q29 -49 47 -106t33 -116q54 48 95 102.5t56 114.5q6 5 16 5q9 0 14.5 -4t5.5 -15q0 -20 -15.5 -49t-41.5 -62t-57.5 -66t-64.5 -61q16 -66 34.5 -130t50.5 -118h-46q-28 48 -45 104t-31 114 q-50 -49 -87.5 -105.5t-62.5 -112.5h-40z" />
<glyph unicode="y" horiz-adv-x="398" d="M387 505q18 0 18 -18q0 -35 -20 -92.5t-54.5 -126.5t-79.5 -142t-95 -141t-101 -122t-98 -86t-85 -32q-37 0 -37 27q0 7 2.5 13t5.5 10q11 -1 21 -2t16 -1q33 0 66.5 20t66 52t61.5 68.5t52 69.5q0 133 -15 256t-43 237l40 10q30 -110 44.5 -217t14.5 -228h1 q49 72 92 148t72 151t36 142q5 2 10.5 3t8.5 1z" />
<glyph unicode="z" horiz-adv-x="392" d="M-1 -10l-18 23q81 92 142.5 164t108.5 133t86 121q-51 23 -92.5 30.5t-61.5 7.5q-27 0 -50.5 -12.5t-46.5 -45.5l-21 8q24 53 53 69.5t67 16.5q35 0 76 -12t91 -38q15 25 29 50q14 0 21 -5t7 -12q0 -13 -19.5 -45t-53 -77.5t-77 -99.5t-92.5 -111t-98 -112q11 3 25 3 q22 0 49 -5t53.5 -10t46.5 -5q26 0 50 13t51 48l21 -8q-28 -55 -58 -72t-71 -17q-45 0 -91 10t-82 10q-16 0 -25 -4t-20 -16z" />
<glyph unicode="{" horiz-adv-x="290" d="M137 174q0 35 -20 59.5t-63 31.5l8 39q63 3 100.5 55.5t37.5 155.5q0 14 -0.5 30t-0.5 29q0 76 22.5 114.5t62.5 52.5t90 14l-3 -30q-75 0 -104 -34t-29 -123v-55q0 -77 -18.5 -126t-47 -74t-60.5 -33q34 -14 49.5 -39t15.5 -59q0 -37 -13.5 -73.5t-31.5 -72.5 t-31.5 -70.5t-13.5 -66.5q0 -34 21.5 -49t73.5 -15l-10 -30q-65 0 -95 17.5t-30 63.5q0 36 13.5 73t31.5 74.5t31.5 73t13.5 67.5z" />
<glyph unicode="|" horiz-adv-x="321" d="M41 -255l-6 7l213 1000l33 3l6 -7l-213 -1000z" />
<glyph unicode="}" horiz-adv-x="289" d="M166 386q0 -34 20 -59t63 -32l-8 -39q-63 -3 -100.5 -55.5t-37.5 -155.5q0 -14 0.5 -30t0.5 -29q0 -75 -22.5 -114t-62 -53t-90.5 -14l3 30q75 0 104 34.5t29 122.5v55q0 77 18.5 126t47 74t60.5 33q-34 14 -49.5 39t-15.5 59q0 37 13.5 73.5t31.5 72.5t31.5 70.5 t13.5 66.5q0 34 -21.5 49t-73.5 15l10 30q65 0 95 -17.5t30 -63.5q0 -36 -13.5 -73t-31.5 -74.5t-31.5 -73t-13.5 -67.5z" />
<glyph unicode="~" d="M402 227q-14 0 -39.5 7.5t-56.5 19t-61 23t-52 19t-30 7.5q-15 0 -41 -27t-58 -62l-22 18q18 23 40 48.5t46 44t45 18.5q14 0 39.5 -7.5t56.5 -19t60.5 -23t51.5 -19t30 -7.5q15 0 41 26.5t60 61.5l21 -17q-17 -22 -39.5 -48t-46 -44.5t-45.5 -18.5z" />
<glyph unicode="&#xa1;" horiz-adv-x="257" d="M138 444q0 24 15 42.5t34 18.5q14 0 20.5 -9t6.5 -21q0 -23 -15.5 -41.5t-33.5 -18.5q-13 0 -20 8t-7 21zM128 305h31q-36 -184 -61 -308.5t-37 -186.5l-44 -10l-4 5q27 119 56.5 246.5t58.5 253.5z" />
<glyph unicode="&#xa2;" horiz-adv-x="448" d="M172 -140l-6 8l26 123q-55 4 -92 49t-37 139q0 70 21 133t58 113t85 80t101 34l30 137l22 3l7 -8l-29 -133q28 -3 47.5 -14t33.5 -27l-17 -41q-13 20 -35 33.5t-56 13.5q-45 0 -85 -25.5t-71.5 -69.5t-49 -101t-17.5 -121q0 -78 27.5 -119t79.5 -41q34 0 63.5 15t53 36.5 t38.5 41.5l18 -13q-32 -50 -75 -80t-91 -35l-27 -128z" />
<glyph unicode="&#xa3;" horiz-adv-x="506" d="M177 298l-109 2l7 27l112 7v0q20 74 38.5 139t42 115t58.5 78t88 28q29 0 55.5 -7.5t39.5 -18.5l-23 -47q-33 37 -80 37q-44 0 -72.5 -31t-52 -102t-54.5 -191h182l4 -5l-13 -31h-182l-16 -59q-8 -31 -20 -71t-29.5 -78.5t-41.5 -65.5q32 -14 69 -33.5t76.5 -39t78 -32 t74.5 -12.5q20 0 39 4t29 10l-23 -48q-8 -4 -25 -7t-33 -3q-39 0 -78.5 15t-79 37t-78.5 45.5t-77 41.5q-21 -13 -45 -13q-40 0 -37 27q1 14 12.5 21t27.5 7t38 -7q28 24 46.5 79.5t39.5 135.5l12 46v0z" />
<glyph unicode="&#xa4;" horiz-adv-x="577" d="M442 48l-68 90q-28 -21 -61.5 -32.5t-69.5 -11.5q-32 0 -56.5 9t-42.5 25l-95 -77l-18 23l94 78q-21 32 -21 77t20.5 87t55.5 72l-62 81l25 21q13 -16 30.5 -38t34.5 -43q26 18 56.5 27.5t63.5 9.5q35 0 61.5 -11t43.5 -30l102 85l19 -23l-104 -86q17 -31 17 -71 q0 -42 -17.5 -80t-47.5 -68q9 -11 24.5 -31t29 -38t15.5 -22v-4zM317 414q-46 0 -85.5 -24.5t-63.5 -64t-24 -86.5q0 -46 27 -79.5t85 -33.5q48 0 87 24t61.5 64t22.5 87q0 53 -29.5 83t-80.5 30z" />
<glyph unicode="&#xa5;" horiz-adv-x="542" d="M47 134l7 33h179l21 100h-179l7 33h179l-142 391l45 4l85 -237q12 -31 21.5 -59.5t19.5 -64.5h1q28 38 51.5 67.5t45.5 58.5l183 235l35 -5l4 -5l-305 -385h177l-7 -33h-179l-21 -100h179l-7 -33h-179l-29 -134h-42l29 134h-179z" />
<glyph unicode="&#xa6;" horiz-adv-x="321" d="M208 377l-24 -3l-15 7l79 371l33 3l6 -7zM74 -252l-23 -3l-16 7l79 371l34 3l5 -7z" />
<glyph unicode="&#xa7;" horiz-adv-x="532" d="M415 629q-61 0 -100 -39t-39 -101q0 -41 16 -77.5t39.5 -71.5t47.5 -72t40 -78t16 -91q0 -75 -40.5 -136t-112 -97t-163.5 -36q-38 0 -68 6.5t-49 16.5l25 69q18 -15 41 -20.5t45 -5.5q68 0 110 41t42 104q0 41 -16.5 76.5t-40 70t-47.5 70.5t-40.5 77.5t-16.5 90.5 q0 75 40.5 136t110 97t156.5 36q36 0 65.5 -6t48.5 -17l-25 -69q-18 15 -41.5 20.5t-43.5 5.5zM119 -138q88 0 148.5 32.5t92 84.5t31.5 110q0 45 -16.5 84.5t-40.5 75.5t-48 71t-40.5 72t-16.5 78q0 47 23.5 89.5t66.5 70t100 29.5l1 4q-87 0 -147.5 -32t-92.5 -83.5 t-32 -111.5q0 -46 16.5 -85.5t40.5 -75t48 -70.5t40.5 -72t16.5 -78q0 -47 -23.5 -89.5t-66 -70t-100.5 -29.5z" />
<glyph unicode="&#xa8;" horiz-adv-x="360" d="M210 678q0 -24 -14.5 -43t-33.5 -19q-13 0 -19.5 8.5t-6.5 21.5q0 23 15.5 41.5t33.5 18.5q25 0 25 -28zM398 678q0 -24 -14.5 -43t-33.5 -19q-13 0 -19.5 8.5t-6.5 21.5q0 23 15.5 41.5t33.5 18.5q25 0 25 -28z" />
<glyph unicode="&#xa9;" horiz-adv-x="692" d="M283 -36q-69 0 -120.5 28.5t-80.5 79t-29 115.5q0 66 29 128.5t79 112t113.5 79t133.5 29.5q69 0 121 -29t81 -79.5t29 -116.5q0 -65 -29 -127t-78.5 -111.5t-113.5 -79t-135 -29.5zM290 0q61 0 117 25t100 68t69.5 97t25.5 111t-26 102t-71.5 71t-105.5 26t-115.5 -25.5 t-99 -69t-69 -98t-25.5 -112.5q0 -57 25 -101t70.5 -69t104.5 -25zM459 379l-18 -33q-11 13 -28 22t-40 9q-33 0 -60 -20t-43.5 -53.5t-16.5 -75.5q0 -44 19 -70.5t54 -26.5q32 0 58.5 19.5t40.5 36.5l16 -12q-24 -35 -59.5 -55t-70.5 -20q-43 0 -69.5 30t-26.5 87 q0 54 23 97t61.5 68.5t82.5 25.5q50 0 77 -29z" />
<glyph unicode="&#xaa;" horiz-adv-x="419" d="M92 397q0 53 19 104t53 92t80 66t100 25q15 0 39 -2.5t48 -10.5l-32 -135q-16 -67 -27 -123t-10 -123h-35q0 42 4 79t16 95q-19 -40 -46.5 -82t-60.5 -71t-70 -29q-31 0 -54.5 27t-23.5 88zM130 402q0 -41 13 -64.5t37 -23.5t49 21.5t49 56t44.5 74t35.5 76.5t22 63 q4 17 9 40q-29 9 -61 9q-40 0 -76 -22t-63.5 -58.5t-43 -81.5t-15.5 -90z" />
<glyph unicode="&#xab;" horiz-adv-x="439" d="M68 287l3 12q49 38 100.5 88t107.5 109l11 -8q-38 -53 -79.5 -102.5t-85.5 -92.5q25 -43 46 -91.5t36 -103.5l-14 -8q-31 59 -60.5 108.5t-64.5 88.5zM228 287l3 12q49 38 100.5 88t107.5 109l11 -8q-38 -53 -79.5 -102.5t-85.5 -92.5q25 -43 46 -91.5t36 -103.5l-14 -8 q-31 59 -60.5 108.5t-64.5 88.5z" />
<glyph unicode="&#xac;" horiz-adv-x="520" d="M482 305l-46 -209h-40l38 177h-395l7 35q37 1 94 2t120.5 1.5t121 1t94.5 0.5z" />
<glyph unicode="&#xae;" horiz-adv-x="693" d="M283 -36q-68 0 -119.5 29t-80.5 80t-29 116q0 66 29 128.5t79.5 111.5t114 78t132.5 29q70 0 121.5 -29.5t80.5 -80.5t29 -116q0 -66 -29.5 -128t-80 -111t-114.5 -78t-133 -29zM292 0q61 0 116.5 25.5t99.5 68t69.5 96.5t25.5 111t-26 102t-71.5 71t-105.5 26 t-115.5 -25.5t-99 -69t-69 -98t-25.5 -112.5t26 -102t71.5 -68.5t103.5 -24.5zM260 92h-32l49 229q5 24 9.5 49.5t5.5 50.5h97q46 0 68.5 -20.5t22.5 -58.5q0 -42 -29 -74.5t-70 -39.5l43 -136l-36 -5q-6 18 -13 43l-14 50t-12 41h-62zM384 390h-61l-29 -138h59q40 0 65 25 t25 61q0 24 -15 38t-44 14z" />
<glyph unicode="&#xaf;" horiz-adv-x="324" d="M135 646l7 34h264l-7 -34h-264z" />
<glyph unicode="&#xb0;" horiz-adv-x="331" d="M173 310q-38 0 -63.5 23.5t-25.5 63.5q0 38 21 71.5t55.5 55t73.5 21.5q40 0 64.5 -23t24.5 -63q0 -37 -21.5 -71.5t-55.5 -56t-73 -21.5zM223 510q-26 0 -49 -14.5t-37 -38t-14 -49.5q0 -28 16.5 -45.5t44.5 -17.5q27 0 49.5 14.5t36.5 38.5t14 50q0 31 -17.5 46.5 t-43.5 15.5z" />
<glyph unicode="&#xb1;" horiz-adv-x="569" d="M553 421h-184l-35 -166h-40l34 166h-189l7 35q32 1 83 2t107 1l34 166h42l-35 -165q54 0 103 0.5t81 0.5l3 -5zM530 98h-450l7 35q31 1 76 1.5t96.5 1.5t103.5 1.5t97.5 0.5h77.5l3 -5z" />
<glyph unicode="&#xb2;" horiz-adv-x="359" d="M115 352l2 33q55 33 106.5 67t92 68t64.5 69.5t24 72.5q0 35 -22.5 54.5t-61.5 19.5q-31 0 -65.5 -11t-68.5 -34l3 31q28 20 68.5 32t75.5 12q50 0 81.5 -25t31.5 -70q0 -42 -26 -81.5t-68.5 -76t-93 -69t-99.5 -60.5h135q54 0 105 6l-14 -38h-270z" />
<glyph unicode="&#xb3;" horiz-adv-x="346" d="M205 733q20 12 56 22.5t71 10.5q44 0 72 -19t28 -52q0 -44 -43.5 -80.5t-106.5 -54.5q57 0 90.5 -21t33.5 -63q0 -36 -25 -66t-68 -48t-97 -18q-28 0 -55.5 4.5t-44.5 9.5l10 29q17 -5 43.5 -9.5t50.5 -4.5q41 0 73.5 12.5t52 34.5t19.5 49q0 26 -16 41t-42 21.5t-56 6.5 q-11 0 -22.5 -1t-22.5 -3l7 29q82 16 129.5 49.5t47.5 73.5q0 23 -19 36.5t-54 13.5q-30 0 -60 -9t-54 -23z" />
<glyph unicode="&#xb4;" horiz-adv-x="237" d="M271 736l1 -8q-42 -46 -89.5 -82.5t-104.5 -68.5l-7 13q44 37 88.5 79t75.5 83z" />
<glyph unicode="&#xb6;" horiz-adv-x="604" d="M164 -131q82 0 140.5 51.5t84.5 175.5l100 469l18 85h-74l-89 -420h-31q-5 0 -25.5 1.5t-47 9.5t-51.5 26.5t-42 52t-17 86.5q0 57 22 107.5t60.5 89t90 60.5t111.5 22h142l-25 -120l-102 -480q-26 -124 -95 -190t-170 -66q-36 0 -75 8t-67 18l13 40q34 -13 66 -19.5 t63 -6.5z" />
<glyph unicode="&#xb7;" horiz-adv-x="283" d="M193 298q0 -22 -17 -40t-37 -18q-13 0 -23 9t-10 24q0 22 17.5 39.5t37.5 17.5q14 0 23 -9t9 -23z" />
<glyph unicode="&#xb8;" horiz-adv-x="300" d="M142 -115q0 -26 -22.5 -46.5t-56 -33.5t-65.5 -17l-1 22q47 11 74.5 26.5t27.5 39.5q0 17 -17.5 24t-37.5 9l-5 11l44 81l29 -1l-34 -62q29 -4 46.5 -17t17.5 -36z" />
<glyph unicode="&#xb9;" horiz-adv-x="227" d="M254 722h-1l-81 -17l-2 22l126 39l3 -4l-87 -410h-38l60 283q6 29 11 49t9 38z" />
<glyph unicode="&#xba;" horiz-adv-x="415" d="M419 546q0 -46 -14.5 -93t-42 -85.5t-66 -62t-85.5 -23.5q-55 0 -84.5 36t-29.5 103q0 47 15 93.5t42 85t65.5 61.5t84.5 23q56 0 85.5 -35.5t29.5 -102.5zM135 424q0 -54 21 -83t64 -29q38 0 68 21t50.5 55.5t31.5 75t11 79.5q0 111 -85 111q-38 0 -68 -21t-50.5 -55.5 t-31.5 -75t-11 -78.5z" />
<glyph unicode="&#xbb;" horiz-adv-x="439" d="M390 299l-3 -12q-49 -38 -100.5 -88t-107.5 -109l-11 8q38 53 79.5 102.5t85.5 92.5q-25 43 -46 91.5t-36 103.5l14 8q32 -58 61.5 -108t63.5 -89zM230 299l-3 -12q-49 -38 -100.5 -88t-107.5 -109l-11 8q38 53 79.5 102.5t85.5 92.5q-25 43 -46 91.5t-36 103.5l14 8 q32 -58 61.5 -108t63.5 -89z" />
<glyph unicode="&#xbc;" horiz-adv-x="787" d="M271 662h-1l-81 -17l-2 22l126 39l3 -4l-87 -410h-38l60 283q6 29 11 49t9 38zM732 700l-576 -710h-45l575 710h46zM434 132l247 266l41 6l3 -4l-56 -266q35 1 68 5l-15 -36h-60l-24 -113h-37l25 113h-192v29zM469 133v-1q37 1 69.5 1h72.5h20h1l29 133q6 27 9.5 43t6 28 t5.5 26h-1z" />
<glyph unicode="&#xbd;" horiz-adv-x="849" d="M271 662h-1l-81 -17l-2 22l126 39l3 -4l-87 -410h-38l60 283q6 29 11 49t9 38zM744 700l-576 -710h-45l575 710h46zM498 -10l2 33q55 33 106.5 67t92 68t64.5 69.5t24 72.5q0 35 -22.5 54.5t-61.5 19.5q-31 0 -65.5 -11t-68.5 -34l3 31q28 20 68.5 32t75.5 12 q50 0 81.5 -25t31.5 -70q0 -42 -26 -81.5t-68.5 -76t-93 -69t-99.5 -60.5h135q54 0 105 6l-14 -38h-270z" />
<glyph unicode="&#xbe;" horiz-adv-x="926" d="M222 671q20 12 56 22.5t71 10.5q44 0 72 -19t28 -52q0 -44 -43.5 -80.5t-106.5 -54.5q57 0 90.5 -21t33.5 -63q0 -36 -25 -66t-68 -48t-97 -18q-28 0 -55.5 4.5t-44.5 9.5l10 29q17 -5 43.5 -9.5t50.5 -4.5q41 0 73.5 12.5t52 34.5t19.5 49q0 26 -16 41t-42 21.5t-56 6.5 q-11 0 -22.5 -1t-22.5 -3l7 29q82 16 129.5 49.5t47.5 73.5q0 23 -19 36.5t-54 13.5q-30 0 -60 -9t-54 -23zM864 700l-576 -710h-45l575 710h46zM573 132l247 266l41 6l3 -4l-56 -266q35 1 68 5l-15 -36h-60l-24 -113h-37l25 113h-192v29zM608 133v-1q37 1 69.5 1h72.5h20h1 l29 133q6 27 9.5 43t6 28t5.5 26h-1z" />
<glyph unicode="&#xbf;" horiz-adv-x="422" d="M258 445q0 24 15 42.5t34 18.5q14 0 20.5 -9t6.5 -21q0 -23 -15.5 -41.5t-33.5 -18.5q-13 0 -20 8t-7 21zM246 287h28q1 -9 -0.5 -20.5t-2.5 -19.5q-4 -29 -30 -54t-62 -50t-71 -54.5t-58.5 -66.5t-23.5 -87q0 -43 27.5 -70.5t78.5 -27.5q40 0 90 21t92 70l21 -21 q-43 -51 -101 -78.5t-115 -27.5q-64 0 -101 32t-38 86q0 56 24.5 99t61 76t74 59.5t64 50t30.5 47.5q2 14 2 28z" />
<glyph unicode="&#xc0;" horiz-adv-x="589" d="M518 779q-60 10 -111.5 28.5t-95.5 49.5l1 8l36 31q36 -30 83 -55t98 -45zM13 0h-41l344 592q16 27 31 53.5t25 46.5l28 3l4 -5l107 -690h-44l-35 222h-290zM267 437l-104 -179h264l-28 179q-7 50 -14 100.5t-8 99.5h-1q-22 -49 -51 -99.5t-58 -100.5z" />
<glyph unicode="&#xc1;" horiz-adv-x="589" d="M544 865l-3 -8q-57 -31 -116.5 -49.5t-124.5 -28.5l-3 17q59 20 117.5 45t105.5 55zM13 0h-41l344 592q16 27 31 53.5t25 46.5l28 3l4 -5l107 -690h-44l-35 222h-290zM267 437l-104 -179h264l-28 179q-7 50 -14 100.5t-8 99.5h-1q-22 -49 -51 -99.5t-58 -100.5z" />
<glyph unicode="&#xc2;" horiz-adv-x="589" d="M290 770l-10 13q39 30 72.5 58.5t65.5 59.5l44 5q20 -30 45.5 -62t53.5 -61l-16 -13q-29 22 -58 46.5t-55 50.5q-32 -24 -67.5 -49t-74.5 -48zM13 0h-41l344 592q16 27 31 53.5t25 46.5l28 3l4 -5l107 -690h-44l-35 222h-290zM267 437l-104 -179h264l-28 179 q-7 50 -14 100.5t-8 99.5h-1q-22 -49 -51 -99.5t-58 -100.5z" />
<glyph unicode="&#xc3;" horiz-adv-x="589" d="M364 890q28 0 48 -14t39 -28t42 -14q25 0 45.5 17.5t36.5 39.5l15 -3q-12 -34 -42 -63t-68 -29q-28 0 -48.5 14t-39 28t-42.5 14t-44.5 -17t-37.5 -40l-15 3q8 20 23.5 41t38 36t49.5 15zM13 0h-41l344 592q16 27 31 53.5t25 46.5l28 3l4 -5l107 -690h-44l-35 222h-290z M267 437l-104 -179h264l-28 179q-7 50 -14 100.5t-8 99.5h-1q-22 -49 -51 -99.5t-58 -100.5z" />
<glyph unicode="&#xc4;" horiz-adv-x="589" d="M555 849q0 -22 -15 -39.5t-35 -17.5q-15 0 -22.5 9t-7.5 21q0 20 16 37.5t35 17.5q14 0 21.5 -8t7.5 -20zM365 849q0 -22 -15 -39.5t-35 -17.5q-15 0 -22.5 9t-7.5 21q0 20 16 37.5t35 17.5q14 0 21.5 -8t7.5 -20zM13 0h-41l344 592q16 27 31 53.5t25 46.5l28 3l4 -5 l107 -690h-44l-35 222h-290zM267 437l-104 -179h264l-28 179q-7 50 -14 100.5t-8 99.5h-1q-22 -49 -51 -99.5t-58 -100.5z" />
<glyph unicode="&#xc5;" horiz-adv-x="589" d="M500 852q0 -23 -14.5 -44.5t-37 -34.5t-47.5 -13t-43.5 15.5t-18.5 40.5q0 23 14.5 43.5t37.5 33.5t48 13q28 0 44.5 -15.5t16.5 -38.5zM374 821q0 -16 9.5 -25t25.5 -9q23 0 39.5 18t16.5 41q0 14 -9 23.5t-26 9.5q-22 0 -39 -17.5t-17 -40.5zM13 0h-41l344 592 q16 27 31 53.5t25 46.5l28 3l4 -5l107 -690h-44l-35 222h-290zM267 437l-104 -179h264l-28 179q-7 50 -14 100.5t-8 99.5h-1q-22 -49 -51 -99.5t-58 -100.5z" />
<glyph unicode="&#xc6;" horiz-adv-x="833" d="M13 0h-41l438 592l12 16t6.5 9l14 20t34.5 48h304l4 -5l-8 -34l-268 4l-26 -292l232 2l-9 -39l-226 2l-26 -288l284 4l-8 -39h-323l23 222h-253zM336 437l-132 -179h230l19 179q5 50 10 99t14 101h-1q-29 -47 -66 -98.5t-74 -101.5z" />
<glyph unicode="&#xc7;" horiz-adv-x="578" d="M368 -115q0 -26 -22.5 -46.5t-56 -33.5t-65.5 -17l-1 22q47 11 74.5 26.5t27.5 39.5q0 17 -17.5 24t-37.5 9l-5 11l38 70h-3q-94 0 -147.5 62.5t-53.5 180.5q0 65 16.5 131t47.5 125.5t75 106t99.5 73t120.5 26.5q33 0 77.5 -9.5t81.5 -35.5l-18 -42q-28 25 -68.5 37 t-79.5 12q-60 0 -108.5 -25t-85.5 -68t-62 -96.5t-38 -111.5t-13 -113q0 -99 42.5 -157t127.5 -58q47 0 96 16.5t88 41.5l-2 -38q-34 -24 -77.5 -38t-84.5 -18l-30 -54q29 -4 46.5 -17t17.5 -36z" />
<glyph unicode="&#xc8;" horiz-adv-x="532" d="M523 779q-60 10 -111.5 28.5t-95.5 49.5l1 8l36 31q36 -30 83 -55t98 -45zM437 39l-8 -39h-350l115 538q9 44 14.5 78t9.5 69h342l4 -5l-7 -34l-297 4l-63 -292l257 2l-9 -39l-255 2l-62 -288z" />
<glyph unicode="&#xc9;" horiz-adv-x="532" d="M549 865l-3 -8q-57 -31 -116.5 -49.5t-124.5 -28.5l-3 17q59 20 117.5 45t105.5 55zM437 39l-8 -39h-350l115 538q9 44 14.5 78t9.5 69h342l4 -5l-7 -34l-297 4l-63 -292l257 2l-9 -39l-255 2l-62 -288z" />
<glyph unicode="&#xca;" horiz-adv-x="532" d="M295 770l-10 13q39 30 72.5 58.5t65.5 59.5l44 5q20 -30 45.5 -62t53.5 -61l-16 -13q-29 22 -58 46.5t-55 50.5q-32 -24 -67.5 -49t-74.5 -48zM437 39l-8 -39h-350l115 538q9 44 14.5 78t9.5 69h342l4 -5l-7 -34l-297 4l-63 -292l257 2l-9 -39l-255 2l-62 -288z" />
<glyph unicode="&#xcb;" horiz-adv-x="532" d="M560 849q0 -22 -15 -39.5t-35 -17.5q-15 0 -22.5 9t-7.5 21q0 20 16 37.5t35 17.5q14 0 21.5 -8t7.5 -20zM370 849q0 -22 -15 -39.5t-35 -17.5q-15 0 -22.5 9t-7.5 21q0 20 16 37.5t35 17.5q14 0 21.5 -8t7.5 -20zM437 39l-8 -39h-350l115 538q9 44 14.5 78t9.5 69h342 l4 -5l-7 -34l-297 4l-63 -292l257 2l-9 -39l-255 2l-62 -288z" />
<glyph unicode="&#xcc;" horiz-adv-x="299" d="M373 779q-60 10 -111.5 28.5t-95.5 49.5l1 8l36 31q36 -30 83 -55t98 -45zM121 0h-42l114 538q10 44 15.5 78t9.5 69l46 10l4 -5z" />
<glyph unicode="&#xcd;" horiz-adv-x="299" d="M399 865l-3 -8q-57 -31 -116.5 -49.5t-124.5 -28.5l-3 17q59 20 117.5 45t105.5 55zM121 0h-42l114 538q10 44 15.5 78t9.5 69l46 10l4 -5z" />
<glyph unicode="&#xce;" horiz-adv-x="299" d="M145 770l-10 13q39 30 72.5 58.5t65.5 59.5l44 5q20 -30 45.5 -62t53.5 -61l-16 -13q-29 22 -58 46.5t-55 50.5q-32 -24 -67.5 -49t-74.5 -48zM121 0h-42l114 538q10 44 15.5 78t9.5 69l46 10l4 -5z" />
<glyph unicode="&#xcf;" horiz-adv-x="299" d="M410 849q0 -22 -15 -39.5t-35 -17.5q-15 0 -22.5 9t-7.5 21q0 20 16 37.5t35 17.5q14 0 21.5 -8t7.5 -20zM220 849q0 -22 -15 -39.5t-35 -17.5q-15 0 -22.5 9t-7.5 21q0 20 16 37.5t35 17.5q14 0 21.5 -8t7.5 -20zM121 0h-42l114 538q10 44 15.5 78t9.5 69l46 10l4 -5z " />
<glyph unicode="&#xd0;" horiz-adv-x="689" d="M629 433q0 -81 -29 -158t-83 -139.5t-130 -99t-170 -36.5h-138l70 328h-87l6 30h88l38 180q9 43 15 80.5t9 66.5h147q122 0 193 -61.5t71 -190.5zM422 328h-231l-62 -292h94q87 0 154.5 33.5t113.5 90t69.5 126.5t23.5 143q0 109 -55.5 164.5t-177.5 55.5h-92l-62 -291 h231z" />
<glyph unicode="&#xd1;" horiz-adv-x="728" d="M425 890q28 0 48 -14t39 -28t42 -14q25 0 45.5 17.5t36.5 39.5l15 -3q-12 -34 -42 -63t-68 -29q-28 0 -48.5 14t-39 28t-42.5 14t-44.5 -17t-37.5 -40l-15 3q8 20 23.5 41t38 36t49.5 15zM395 384q28 -68 51.5 -122.5t42.5 -104.5t33 -106h1q4 24 8 46t10 52.5t16 78.5 t25.5 123t39.5 187q10 44 15.5 78t9.5 69l46 10l4 -5l-147 -690h-45q-32 78 -64.5 155.5t-64.5 155.5q-28 68 -50 120.5t-39.5 100.5t-33.5 102h-1q-11 -66 -23.5 -128t-26.5 -124l-81 -382h-42l114 538q10 44 15.5 78t9.5 69l48 10q33 -78 65.5 -156t63.5 -155z" />
<glyph unicode="&#xd2;" horiz-adv-x="689" d="M575 779q-60 10 -111.5 28.5t-95.5 49.5l1 8l36 31q36 -30 83 -55t98 -45zM630 448q0 -82 -25 -163t-70 -148t-107 -107t-137 -40q-88 0 -140.5 61.5t-52.5 179.5q0 66 16.5 132.5t47 126t73 106t94.5 73t110 26.5q88 0 139.5 -64t51.5 -183zM143 240q0 -99 40.5 -155.5 t118.5 -56.5q65 0 117.5 37t89.5 98t56.5 134.5t19.5 146.5q0 99 -38.5 156t-115.5 57q-64 0 -117 -37.5t-91.5 -99.5t-59 -135t-20.5 -145z" />
<glyph unicode="&#xd3;" horiz-adv-x="689" d="M601 865l-3 -8q-57 -31 -116.5 -49.5t-124.5 -28.5l-3 17q59 20 117.5 45t105.5 55zM630 448q0 -82 -25 -163t-70 -148t-107 -107t-137 -40q-88 0 -140.5 61.5t-52.5 179.5q0 66 16.5 132.5t47 126t73 106t94.5 73t110 26.5q88 0 139.5 -64t51.5 -183zM143 240 q0 -99 40.5 -155.5t118.5 -56.5q65 0 117.5 37t89.5 98t56.5 134.5t19.5 146.5q0 99 -38.5 156t-115.5 57q-64 0 -117 -37.5t-91.5 -99.5t-59 -135t-20.5 -145z" />
<glyph unicode="&#xd4;" horiz-adv-x="689" d="M347 770l-10 13q39 30 72.5 58.5t65.5 59.5l44 5q20 -30 45.5 -62t53.5 -61l-16 -13q-29 22 -58 46.5t-55 50.5q-32 -24 -67.5 -49t-74.5 -48zM630 448q0 -82 -25 -163t-70 -148t-107 -107t-137 -40q-88 0 -140.5 61.5t-52.5 179.5q0 66 16.5 132.5t47 126t73 106 t94.5 73t110 26.5q88 0 139.5 -64t51.5 -183zM143 240q0 -99 40.5 -155.5t118.5 -56.5q65 0 117.5 37t89.5 98t56.5 134.5t19.5 146.5q0 99 -38.5 156t-115.5 57q-64 0 -117 -37.5t-91.5 -99.5t-59 -135t-20.5 -145z" />
<glyph unicode="&#xd5;" horiz-adv-x="689" d="M421 890q28 0 48 -14t39 -28t42 -14q25 0 45.5 17.5t36.5 39.5l15 -3q-12 -34 -42 -63t-68 -29q-28 0 -48.5 14t-39 28t-42.5 14t-44.5 -17t-37.5 -40l-15 3q8 20 23.5 41t38 36t49.5 15zM630 448q0 -82 -25 -163t-70 -148t-107 -107t-137 -40q-88 0 -140.5 61.5 t-52.5 179.5q0 66 16.5 132.5t47 126t73 106t94.5 73t110 26.5q88 0 139.5 -64t51.5 -183zM143 240q0 -99 40.5 -155.5t118.5 -56.5q65 0 117.5 37t89.5 98t56.5 134.5t19.5 146.5q0 99 -38.5 156t-115.5 57q-64 0 -117 -37.5t-91.5 -99.5t-59 -135t-20.5 -145z" />
<glyph unicode="&#xd6;" horiz-adv-x="689" d="M612 849q0 -22 -15 -39.5t-35 -17.5q-15 0 -22.5 9t-7.5 21q0 20 16 37.5t35 17.5q14 0 21.5 -8t7.5 -20zM422 849q0 -22 -15 -39.5t-35 -17.5q-15 0 -22.5 9t-7.5 21q0 20 16 37.5t35 17.5q14 0 21.5 -8t7.5 -20zM630 448q0 -82 -25 -163t-70 -148t-107 -107t-137 -40 q-88 0 -140.5 61.5t-52.5 179.5q0 66 16.5 132.5t47 126t73 106t94.5 73t110 26.5q88 0 139.5 -64t51.5 -183zM143 240q0 -99 40.5 -155.5t118.5 -56.5q65 0 117.5 37t89.5 98t56.5 134.5t19.5 146.5q0 99 -38.5 156t-115.5 57q-64 0 -117 -37.5t-91.5 -99.5t-59 -135 t-20.5 -145z" />
<glyph unicode="&#xd7;" d="M429 154l-133 167l-203 -168l-19 25l203 168l-133 167l32 25q19 -23 29 -36.5t17.5 -23t16.5 -21t25 -31.5t43 -55l203 168l19 -26l-202 -167q23 -30 55 -70.5t75 -94.5l-3 -7z" />
<glyph unicode="&#xd8;" horiz-adv-x="689" d="M630 448q0 -82 -25 -163t-70 -148t-107 -107t-137 -40q-57 0 -100 26t-67 77l-101 -93l-20 22l110 101q-15 47 -15 108q0 66 16.5 132.5t47 126t73 106t94.5 73t110 26.5q59 0 102 -29t66 -85l114 105l22 -21l-125 -116q12 -45 12 -101zM143 240q0 -45 8 -81l420 389 q-16 52 -51 80.5t-89 28.5q-64 0 -117 -37.5t-91.5 -99.5t-59 -135t-20.5 -145zM585 444q0 38 -6 70l-418 -387q18 -47 53.5 -73t87.5 -26q65 0 117.5 37t89.5 98t56.5 134.5t19.5 146.5z" />
<glyph unicode="&#xd9;" horiz-adv-x="634" d="M545 779q-60 10 -111.5 28.5t-95.5 49.5l1 8l36 31q36 -30 83 -55t98 -45zM87 157q0 26 9 73.5t22 107t27 122.5t24.5 122t13.5 105l54 8v-1q-31 -144 -51 -236.5t-31.5 -146.5t-17 -81.5t-7 -40t-1.5 -22.5q0 -67 41.5 -102t105.5 -35q50 0 95 21t78 62.5t46 103.5 q23 107 38.5 178.5t25 117t14.5 75t8 52t4 47.5l54 8l-101 -475q-16 -76 -57.5 -127.5t-98.5 -77t-120 -25.5q-76 0 -125.5 42t-49.5 125z" />
<glyph unicode="&#xda;" horiz-adv-x="634" d="M571 865l-3 -8q-57 -31 -116.5 -49.5t-124.5 -28.5l-3 17q59 20 117.5 45t105.5 55zM87 157q0 26 9 73.5t22 107t27 122.5t24.5 122t13.5 105l54 8v-1q-31 -144 -51 -236.5t-31.5 -146.5t-17 -81.5t-7 -40t-1.5 -22.5q0 -67 41.5 -102t105.5 -35q50 0 95 21t78 62.5 t46 103.5q23 107 38.5 178.5t25 117t14.5 75t8 52t4 47.5l54 8l-101 -475q-16 -76 -57.5 -127.5t-98.5 -77t-120 -25.5q-76 0 -125.5 42t-49.5 125z" />
<glyph unicode="&#xdb;" horiz-adv-x="634" d="M317 770l-10 13q39 30 72.5 58.5t65.5 59.5l44 5q20 -30 45.5 -62t53.5 -61l-16 -13q-29 22 -58 46.5t-55 50.5q-32 -24 -67.5 -49t-74.5 -48zM87 157q0 26 9 73.5t22 107t27 122.5t24.5 122t13.5 105l54 8v-1q-31 -144 -51 -236.5t-31.5 -146.5t-17 -81.5t-7 -40 t-1.5 -22.5q0 -67 41.5 -102t105.5 -35q50 0 95 21t78 62.5t46 103.5q23 107 38.5 178.5t25 117t14.5 75t8 52t4 47.5l54 8l-101 -475q-16 -76 -57.5 -127.5t-98.5 -77t-120 -25.5q-76 0 -125.5 42t-49.5 125z" />
<glyph unicode="&#xdc;" horiz-adv-x="634" d="M582 849q0 -22 -15 -39.5t-35 -17.5q-15 0 -22.5 9t-7.5 21q0 20 16 37.5t35 17.5q14 0 21.5 -8t7.5 -20zM392 849q0 -22 -15 -39.5t-35 -17.5q-15 0 -22.5 9t-7.5 21q0 20 16 37.5t35 17.5q14 0 21.5 -8t7.5 -20zM87 157q0 26 9 73.5t22 107t27 122.5t24.5 122t13.5 105 l54 8v-1q-31 -144 -51 -236.5t-31.5 -146.5t-17 -81.5t-7 -40t-1.5 -22.5q0 -67 41.5 -102t105.5 -35q50 0 95 21t78 62.5t46 103.5q23 107 38.5 178.5t25 117t14.5 75t8 52t4 47.5l54 8l-101 -475q-16 -76 -57.5 -127.5t-98.5 -77t-120 -25.5q-76 0 -125.5 42t-49.5 125z " />
<glyph unicode="&#xdd;" horiz-adv-x="524" d="M511 865l-3 -8q-57 -31 -116.5 -49.5t-124.5 -28.5l-3 17q59 20 117.5 45t105.5 55zM243 256l-124 435l43 4l74 -260q8 -32 20 -72t15 -78h1q20 38 49.5 79t51.5 73l182 258l33 -5l4 -5l-308 -433l-54 -252h-42z" />
<glyph unicode="&#xde;" horiz-adv-x="553" d="M121 0h-42l114 538q6 29 10.5 51t8 44t6.5 52h49l-26 -123h105q91 0 142.5 -41.5t51.5 -122.5q0 -70 -38.5 -128t-105.5 -92t-153 -34h-91zM337 527h-104l-74 -348h100q69 0 122.5 28.5t83.5 77.5t30 109q0 64 -37.5 98.5t-120.5 34.5z" />
<glyph unicode="&#xdf;" horiz-adv-x="551" d="M-12 -203l-15 21q23 26 49.5 71t40.5 111l98 462l-75 2l5 24l77 7l6 30q20 92 54 141.5t74 69t76 19.5q55 0 88.5 -33.5t33.5 -92.5q0 -68 -46.5 -121t-127.5 -74q61 -34 100 -99t39 -144q0 -60 -23 -105t-64 -70.5t-95 -25.5q-24 0 -47.5 5t-43.5 12l8 40q23 -11 46 -16 t42 -5q47 0 76.5 22.5t43.5 59.5t14 79q0 77 -41.5 142.5t-112.5 99.5l6 28q88 14 134.5 61.5t46.5 108.5q0 42 -22 67t-64 25q-26 0 -56 -15t-56 -56t-43 -120l-111 -528q-14 -67 -45 -116t-70 -87z" />
<glyph unicode="&#xe0;" horiz-adv-x="506" d="M413 580q-43 32 -76 68.5t-54 82.5l5 8l42 16q15 -41 40.5 -82t55.5 -80zM52 132q0 68 23.5 134t65 120t97.5 86.5t122 32.5q19 0 47 -3.5t56 -11.5l-42 -173q-19 -82 -33.5 -155.5t-14.5 -161.5h-40q0 37 2.5 70.5t9 71.5t17.5 90q-18 -39 -42 -81t-52 -79t-59.5 -59.5 t-65.5 -22.5q-37 0 -64 33.5t-27 108.5zM95 137q0 -52 15.5 -81.5t44.5 -29.5t60.5 28.5t61 74t55 97t43.5 98.5t26 78q4 13 7 26.5t7 28.5q-21 6 -42 9t-36 3q-48 0 -91.5 -29t-77.5 -77t-53.5 -107t-19.5 -119z" />
<glyph unicode="&#xe1;" horiz-adv-x="506" d="M453 736l1 -8q-42 -46 -89.5 -82.5t-104.5 -68.5l-7 13q44 37 88.5 79t75.5 83zM52 132q0 68 23.5 134t65 120t97.5 86.5t122 32.5q19 0 47 -3.5t56 -11.5l-42 -173q-19 -82 -33.5 -155.5t-14.5 -161.5h-40q0 37 2.5 70.5t9 71.5t17.5 90q-18 -39 -42 -81t-52 -79 t-59.5 -59.5t-65.5 -22.5q-37 0 -64 33.5t-27 108.5zM95 137q0 -52 15.5 -81.5t44.5 -29.5t60.5 28.5t61 74t55 97t43.5 98.5t26 78q4 13 7 26.5t7 28.5q-21 6 -42 9t-36 3q-48 0 -91.5 -29t-77.5 -77t-53.5 -107t-19.5 -119z" />
<glyph unicode="&#xe2;" horiz-adv-x="506" d="M238 579l-11 11q35 38 68.5 75.5t64.5 78.5l44 5q17 -42 36.5 -81.5t41.5 -77.5l-15 -11q-27 32 -49.5 63t-44.5 63q-30 -30 -66 -63.5t-69 -62.5zM52 132q0 68 23.5 134t65 120t97.5 86.5t122 32.5q19 0 47 -3.5t56 -11.5l-42 -173q-19 -82 -33.5 -155.5t-14.5 -161.5 h-40q0 37 2.5 70.5t9 71.5t17.5 90q-18 -39 -42 -81t-52 -79t-59.5 -59.5t-65.5 -22.5q-37 0 -64 33.5t-27 108.5zM95 137q0 -52 15.5 -81.5t44.5 -29.5t60.5 28.5t61 74t55 97t43.5 98.5t26 78q4 13 7 26.5t7 28.5q-21 6 -42 9t-36 3q-48 0 -91.5 -29t-77.5 -77t-53.5 -107 t-19.5 -119z" />
<glyph unicode="&#xe3;" horiz-adv-x="506" d="M299 710q25 0 43.5 -14t36 -28t37.5 -14q21 0 40 17.5t35 39.5l15 -3q-8 -21 -23.5 -42.5t-36 -35.5t-43.5 -14q-25 0 -44 14t-36 28t-38 14q-20 0 -39 -17t-36 -40l-15 3q9 20 24 41t35.5 36t44.5 15zM52 132q0 68 23.5 134t65 120t97.5 86.5t122 32.5q19 0 47 -3.5 t56 -11.5l-42 -173q-19 -82 -33.5 -155.5t-14.5 -161.5h-40q0 37 2.5 70.5t9 71.5t17.5 90q-18 -39 -42 -81t-52 -79t-59.5 -59.5t-65.5 -22.5q-37 0 -64 33.5t-27 108.5zM95 137q0 -52 15.5 -81.5t44.5 -29.5t60.5 28.5t61 74t55 97t43.5 98.5t26 78q4 13 7 26.5t7 28.5 q-21 6 -42 9t-36 3q-48 0 -91.5 -29t-77.5 -77t-53.5 -107t-19.5 -119z" />
<glyph unicode="&#xe4;" horiz-adv-x="506" d="M298 680q0 -24 -14.5 -43t-33.5 -19q-13 0 -19.5 8.5t-6.5 21.5q0 23 15.5 41.5t33.5 18.5q25 0 25 -28zM486 680q0 -24 -14.5 -43t-33.5 -19q-13 0 -19.5 8.5t-6.5 21.5q0 23 15.5 41.5t33.5 18.5q25 0 25 -28zM52 132q0 68 23.5 134t65 120t97.5 86.5t122 32.5 q19 0 47 -3.5t56 -11.5l-42 -173q-19 -82 -33.5 -155.5t-14.5 -161.5h-40q0 37 2.5 70.5t9 71.5t17.5 90q-18 -39 -42 -81t-52 -79t-59.5 -59.5t-65.5 -22.5q-37 0 -64 33.5t-27 108.5zM95 137q0 -52 15.5 -81.5t44.5 -29.5t60.5 28.5t61 74t55 97t43.5 98.5t26 78 q4 13 7 26.5t7 28.5q-21 6 -42 9t-36 3q-48 0 -91.5 -29t-77.5 -77t-53.5 -107t-19.5 -119z" />
<glyph unicode="&#xe5;" horiz-adv-x="506" d="M432 666q0 -23 -14.5 -44.5t-37 -34.5t-47.5 -13t-43.5 15.5t-18.5 40.5q0 23 14.5 43.5t37.5 33.5t48 13q28 0 44.5 -15.5t16.5 -38.5zM306 635q0 -16 9.5 -25t25.5 -9q23 0 39.5 18t16.5 41q0 14 -9 23.5t-26 9.5q-22 0 -39 -17.5t-17 -40.5zM52 132q0 68 23.5 134 t65 120t97.5 86.5t122 32.5q19 0 47 -3.5t56 -11.5l-42 -173q-19 -82 -33.5 -155.5t-14.5 -161.5h-40q0 37 2.5 70.5t9 71.5t17.5 90q-18 -39 -42 -81t-52 -79t-59.5 -59.5t-65.5 -22.5q-37 0 -64 33.5t-27 108.5zM95 137q0 -52 15.5 -81.5t44.5 -29.5t60.5 28.5t61 74 t55 97t43.5 98.5t26 78q4 13 7 26.5t7 28.5q-21 6 -42 9t-36 3q-48 0 -91.5 -29t-77.5 -77t-53.5 -107t-19.5 -119z" />
<glyph unicode="&#xe6;" horiz-adv-x="730" d="M52 133q0 68 23 134t65.5 119.5t101.5 86t131 32.5q34 0 65.5 -7.5t61.5 -19.5q44 27 90 27q47 0 76 -27t29 -75q0 -30 -14.5 -60t-49 -55t-94 -42t-147.5 -21q-5 -28 -5 -53q0 -64 28.5 -105t80.5 -41q44 0 83 27.5t70 65.5l18 -13q-31 -55 -80 -85.5t-99 -30.5 q-62 0 -103 46.5t-41 132.5q0 12 1 24q-25 -48 -56 -95t-67.5 -77.5t-76.5 -30.5q-37 0 -64 33.5t-27 109.5zM95 137q0 -53 15.5 -82t43.5 -29t58 26.5t59 69t54.5 92t44.5 95.5q15 40 37.5 75t50.5 61q-19 10 -46.5 17t-56.5 7q-58 0 -106 -29t-82.5 -77t-53 -107 t-18.5 -119zM581 469q-42 0 -79.5 -31t-65 -80.5t-40.5 -103.5q79 5 129 21t78 38.5t38.5 46t10.5 42.5q0 30 -19.5 48.5t-51.5 18.5z" />
<glyph unicode="&#xe7;" horiz-adv-x="444" d="M265 -115q0 -26 -22.5 -46.5t-56 -33.5t-65.5 -17l-1 22q47 11 74.5 26.5t27.5 39.5q0 17 -17.5 24t-37.5 9l-5 11l38 70q-64 1 -102.5 47t-38.5 131q0 65 22 125t59.5 108t86 76t100.5 28q35 0 59 -12.5t42 -29.5l-17 -41q-17 20 -40.5 33.5t-53.5 13.5 q-41 0 -79.5 -25.5t-69 -68.5t-48.5 -96t-18 -107q0 -64 27.5 -105t83.5 -41q44 0 82 26t71 67l18 -13q-34 -53 -73.5 -80t-79.5 -34l-30 -54q29 -4 46.5 -17t17.5 -36z" />
<glyph unicode="&#xe8;" horiz-adv-x="447" d="M367 580q-43 32 -76 68.5t-54 82.5l5 8l42 16q15 -41 40.5 -82t55.5 -80zM364 119l18 -13q-31 -55 -80 -85.5t-99 -30.5q-62 0 -103 46.5t-41 132.5q0 59 19.5 118.5t54 108.5t79.5 79t95 30q47 0 76 -27t29 -75q0 -30 -14.5 -60t-49 -55t-94 -42t-147.5 -21 q-5 -28 -5 -53q0 -64 28.5 -105t80.5 -41q44 0 83 27.5t70 65.5zM298 469q-42 0 -79.5 -31t-65 -80.5t-40.5 -103.5q79 5 129 21t78 38.5t38.5 46t10.5 42.5q0 30 -19.5 48.5t-51.5 18.5z" />
<glyph unicode="&#xe9;" horiz-adv-x="447" d="M407 736l1 -8q-42 -46 -89.5 -82.5t-104.5 -68.5l-7 13q44 37 88.5 79t75.5 83zM364 119l18 -13q-31 -55 -80 -85.5t-99 -30.5q-62 0 -103 46.5t-41 132.5q0 59 19.5 118.5t54 108.5t79.5 79t95 30q47 0 76 -27t29 -75q0 -30 -14.5 -60t-49 -55t-94 -42t-147.5 -21 q-5 -28 -5 -53q0 -64 28.5 -105t80.5 -41q44 0 83 27.5t70 65.5zM298 469q-42 0 -79.5 -31t-65 -80.5t-40.5 -103.5q79 5 129 21t78 38.5t38.5 46t10.5 42.5q0 30 -19.5 48.5t-51.5 18.5z" />
<glyph unicode="&#xea;" horiz-adv-x="447" d="M192 579l-11 11q35 38 68.5 75.5t64.5 78.5l44 5q17 -42 36.5 -81.5t41.5 -77.5l-15 -11q-27 32 -49.5 63t-44.5 63q-30 -30 -66 -63.5t-69 -62.5zM364 119l18 -13q-31 -55 -80 -85.5t-99 -30.5q-62 0 -103 46.5t-41 132.5q0 59 19.5 118.5t54 108.5t79.5 79t95 30 q47 0 76 -27t29 -75q0 -30 -14.5 -60t-49 -55t-94 -42t-147.5 -21q-5 -28 -5 -53q0 -64 28.5 -105t80.5 -41q44 0 83 27.5t70 65.5zM298 469q-42 0 -79.5 -31t-65 -80.5t-40.5 -103.5q79 5 129 21t78 38.5t38.5 46t10.5 42.5q0 30 -19.5 48.5t-51.5 18.5z" />
<glyph unicode="&#xeb;" horiz-adv-x="447" d="M252 680q0 -24 -14.5 -43t-33.5 -19q-13 0 -19.5 8.5t-6.5 21.5q0 23 15.5 41.5t33.5 18.5q25 0 25 -28zM440 680q0 -24 -14.5 -43t-33.5 -19q-13 0 -19.5 8.5t-6.5 21.5q0 23 15.5 41.5t33.5 18.5q25 0 25 -28zM364 119l18 -13q-31 -55 -80 -85.5t-99 -30.5 q-62 0 -103 46.5t-41 132.5q0 59 19.5 118.5t54 108.5t79.5 79t95 30q47 0 76 -27t29 -75q0 -30 -14.5 -60t-49 -55t-94 -42t-147.5 -21q-5 -28 -5 -53q0 -64 28.5 -105t80.5 -41q44 0 83 27.5t70 65.5zM298 469q-42 0 -79.5 -31t-65 -80.5t-40.5 -103.5q79 5 129 21 t78 38.5t38.5 46t10.5 42.5q0 30 -19.5 48.5t-51.5 18.5z" />
<glyph unicode="&#xec;" horiz-adv-x="241" d="M247 580q-43 32 -76 68.5t-54 82.5l5 8l42 16q15 -41 40.5 -82t55.5 -80zM111 0h-40q0 54 10 121t27 146l20 92l8 136l49 10q0 -56 -11 -119t-26 -129t-26 -131.5t-11 -125.5z" />
<glyph unicode="&#xed;" horiz-adv-x="241" d="M287 736l1 -8q-42 -46 -89.5 -82.5t-104.5 -68.5l-7 13q44 37 88.5 79t75.5 83zM111 0h-40q0 54 10 121t27 146l20 92l8 136l49 10q0 -56 -11 -119t-26 -129t-26 -131.5t-11 -125.5z" />
<glyph unicode="&#xee;" horiz-adv-x="241" d="M92 586l-8 10q30 42 58.5 84.5t44.5 69.5l44 5q11 -39 23 -79.5t25 -79.5l-12 -10q-19 29 -35.5 59.5t-31.5 61.5q-27 -32 -53.5 -62.5t-54.5 -58.5zM111 0h-40q0 54 10 121t27 146l20 92l8 136l49 10q0 -56 -11 -119t-26 -129t-26 -131.5t-11 -125.5z" />
<glyph unicode="&#xef;" horiz-adv-x="241" d="M158 683q0 -24 -14.5 -43t-33.5 -19q-13 0 -19.5 8.5t-6.5 21.5q0 23 15.5 41.5t33.5 18.5q25 0 25 -28zM294 683q0 -24 -14.5 -43t-33.5 -19q-13 0 -19.5 8.5t-6.5 21.5q0 23 15.5 41.5t33.5 18.5q25 0 25 -28zM111 0h-40q0 54 10 121t27 146l20 92l8 136l49 10 q0 -56 -11 -119t-26 -129t-26 -131.5t-11 -125.5z" />
<glyph unicode="&#xf0;" horiz-adv-x="513" d="M196 -10q-60 0 -95 42t-35 127q0 62 18 123t51 111.5t78 81t100 30.5q34 0 58 -12t39 -33q-14 92 -72 168l-160 -82l-11 29l151 77q-39 43 -91 76l24 27q64 -35 107 -83l144 74l11 -28l-136 -70q36 -48 55 -110.5t19 -143.5q0 -84 -19.5 -157t-54 -128.5t-81 -87 t-100.5 -31.5zM303 469q-45 0 -81 -28t-61.5 -73.5t-38.5 -99t-13 -104.5q0 -65 23.5 -101.5t73.5 -36.5q45 0 81 28t61.5 73.5t38.5 99t13 104.5q0 138 -97 138z" />
<glyph unicode="&#xf1;" horiz-adv-x="537" d="M293 710q25 0 43.5 -14t36 -28t37.5 -14q21 0 40 17.5t35 39.5l15 -3q-8 -21 -23.5 -42.5t-36 -35.5t-43.5 -14q-25 0 -44 14t-36 28t-38 14q-20 0 -39 -17t-36 -40l-15 3q9 20 24 41t35.5 36t44.5 15zM111 0h-40q1 89 18 175t39 184l8 136l49 10q0 -37 -6 -78t-16 -82h2 q38 81 94 120.5t110 39.5q45 0 69 -25t24 -69q0 -31 -9 -77.5t-23 -107.5q-12 -54 -18.5 -89.5t-8.5 -66t-2 -70.5h-40q0 57 9.5 113t24.5 132q10 50 16 87.5t6 62.5q0 35 -14 54.5t-49 19.5q-49 0 -92 -37t-76 -102t-53 -150t-22 -180z" />
<glyph unicode="&#xf2;" horiz-adv-x="494" d="M391 580q-43 32 -76 68.5t-54 82.5l5 8l42 16q15 -41 40.5 -82t55.5 -80zM436 337q0 -60 -17.5 -121t-50.5 -112.5t-78.5 -82.5t-101.5 -31q-61 0 -95 42t-34 127q0 62 18 123t51 111.5t78 81t100 30.5q61 0 95.5 -42t34.5 -126zM102 164q0 -65 23.5 -101.5t73.5 -36.5 q45 0 81 28t61.5 73.5t38.5 99t13 104.5q0 138 -97 138q-45 0 -81 -28t-61.5 -73.5t-38.5 -99t-13 -104.5z" />
<glyph unicode="&#xf3;" horiz-adv-x="494" d="M431 736l1 -8q-42 -46 -89.5 -82.5t-104.5 -68.5l-7 13q44 37 88.5 79t75.5 83zM436 337q0 -60 -17.5 -121t-50.5 -112.5t-78.5 -82.5t-101.5 -31q-61 0 -95 42t-34 127q0 62 18 123t51 111.5t78 81t100 30.5q61 0 95.5 -42t34.5 -126zM102 164q0 -65 23.5 -101.5 t73.5 -36.5q45 0 81 28t61.5 73.5t38.5 99t13 104.5q0 138 -97 138q-45 0 -81 -28t-61.5 -73.5t-38.5 -99t-13 -104.5z" />
<glyph unicode="&#xf4;" horiz-adv-x="494" d="M216 579l-11 11q35 38 68.5 75.5t64.5 78.5l44 5q17 -42 36.5 -81.5t41.5 -77.5l-15 -11q-27 32 -49.5 63t-44.5 63q-30 -30 -66 -63.5t-69 -62.5zM436 337q0 -60 -17.5 -121t-50.5 -112.5t-78.5 -82.5t-101.5 -31q-61 0 -95 42t-34 127q0 62 18 123t51 111.5t78 81 t100 30.5q61 0 95.5 -42t34.5 -126zM102 164q0 -65 23.5 -101.5t73.5 -36.5q45 0 81 28t61.5 73.5t38.5 99t13 104.5q0 138 -97 138q-45 0 -81 -28t-61.5 -73.5t-38.5 -99t-13 -104.5z" />
<glyph unicode="&#xf5;" horiz-adv-x="494" d="M277 710q25 0 43.5 -14t36 -28t37.5 -14q21 0 40 17.5t35 39.5l15 -3q-8 -21 -23.5 -42.5t-36 -35.5t-43.5 -14q-25 0 -44 14t-36 28t-38 14q-20 0 -39 -17t-36 -40l-15 3q9 20 24 41t35.5 36t44.5 15zM436 337q0 -60 -17.5 -121t-50.5 -112.5t-78.5 -82.5t-101.5 -31 q-61 0 -95 42t-34 127q0 62 18 123t51 111.5t78 81t100 30.5q61 0 95.5 -42t34.5 -126zM102 164q0 -65 23.5 -101.5t73.5 -36.5q45 0 81 28t61.5 73.5t38.5 99t13 104.5q0 138 -97 138q-45 0 -81 -28t-61.5 -73.5t-38.5 -99t-13 -104.5z" />
<glyph unicode="&#xf6;" horiz-adv-x="494" d="M276 680q0 -24 -14.5 -43t-33.5 -19q-13 0 -19.5 8.5t-6.5 21.5q0 23 15.5 41.5t33.5 18.5q25 0 25 -28zM464 680q0 -24 -14.5 -43t-33.5 -19q-13 0 -19.5 8.5t-6.5 21.5q0 23 15.5 41.5t33.5 18.5q25 0 25 -28zM436 337q0 -60 -17.5 -121t-50.5 -112.5t-78.5 -82.5 t-101.5 -31q-61 0 -95 42t-34 127q0 62 18 123t51 111.5t78 81t100 30.5q61 0 95.5 -42t34.5 -126zM102 164q0 -65 23.5 -101.5t73.5 -36.5q45 0 81 28t61.5 73.5t38.5 99t13 104.5q0 138 -97 138q-45 0 -81 -28t-61.5 -73.5t-38.5 -99t-13 -104.5z" />
<glyph unicode="&#xf7;" d="M388 547q0 -21 -17.5 -39t-39.5 -18q-14 0 -22 8.5t-8 21.5q0 22 18 40t40 18q13 0 21 -8.5t8 -22.5zM521 328h-450l7 35q31 1 76 1.5t96.5 1.5t103.5 1.5t97.5 0.5h77.5l3 -5zM310 175q0 -21 -17.5 -39t-39.5 -18q-14 0 -22 8.5t-8 21.5q0 22 18 40t40 18q13 0 21 -8.5 t8 -22.5z" />
<glyph unicode="&#xf8;" horiz-adv-x="494" d="M436 337q0 -60 -17.5 -121t-50.5 -112.5t-78.5 -82.5t-101.5 -31q-88 0 -117 84l-82 -72l-18 22l92 81q-4 24 -4 54q0 62 18 123t51 111.5t78 81t100 30.5q90 0 118 -86l86 75l19 -22l-97 -84q4 -24 4 -51zM102 164q0 -13 1 -25l285 248q-18 82 -92 82q-45 0 -81 -28 t-61.5 -73.5t-38.5 -99t-13 -104.5zM393 331q0 12 -1 22l-284 -248q9 -38 31 -58.5t60 -20.5q45 0 81 28t61.5 73.5t38.5 99t13 104.5z" />
<glyph unicode="&#xf9;" horiz-adv-x="510" d="M388 580q-43 32 -76 68.5t-54 82.5l5 8l42 16q15 -41 40.5 -82t55.5 -80zM76 145l45 214l8 136l49 10q0 -73 -15.5 -145.5t-30.5 -151.5q-11 -59 -13.5 -99.5t10.5 -61.5t49 -21q44 0 81 29.5t66 81t49 116.5q11 50 20.5 98t13.5 93q2 26 3 51l40 10q0 -75 -18 -157.5 t-34 -165.5q-9 -46 -15.5 -92t-6.5 -90h-40q0 33 3.5 67.5t9.5 69.5q-34 -74 -84.5 -110.5t-99.5 -36.5q-55 0 -80 42t-10 113z" />
<glyph unicode="&#xfa;" horiz-adv-x="510" d="M428 736l1 -8q-42 -46 -89.5 -82.5t-104.5 -68.5l-7 13q44 37 88.5 79t75.5 83zM76 145l45 214l8 136l49 10q0 -73 -15.5 -145.5t-30.5 -151.5q-11 -59 -13.5 -99.5t10.5 -61.5t49 -21q44 0 81 29.5t66 81t49 116.5q11 50 20.5 98t13.5 93q2 26 3 51l40 10 q0 -75 -18 -157.5t-34 -165.5q-9 -46 -15.5 -92t-6.5 -90h-40q0 33 3.5 67.5t9.5 69.5q-34 -74 -84.5 -110.5t-99.5 -36.5q-55 0 -80 42t-10 113z" />
<glyph unicode="&#xfb;" horiz-adv-x="510" d="M213 579l-11 11q35 38 68.5 75.5t64.5 78.5l44 5q17 -42 36.5 -81.5t41.5 -77.5l-15 -11q-27 32 -49.5 63t-44.5 63q-30 -30 -66 -63.5t-69 -62.5zM76 145l45 214l8 136l49 10q0 -73 -15.5 -145.5t-30.5 -151.5q-11 -59 -13.5 -99.5t10.5 -61.5t49 -21q44 0 81 29.5 t66 81t49 116.5q11 50 20.5 98t13.5 93q2 26 3 51l40 10q0 -75 -18 -157.5t-34 -165.5q-9 -46 -15.5 -92t-6.5 -90h-40q0 33 3.5 67.5t9.5 69.5q-34 -74 -84.5 -110.5t-99.5 -36.5q-55 0 -80 42t-10 113z" />
<glyph unicode="&#xfc;" horiz-adv-x="510" d="M273 680q0 -24 -14.5 -43t-33.5 -19q-13 0 -19.5 8.5t-6.5 21.5q0 23 15.5 41.5t33.5 18.5q25 0 25 -28zM461 680q0 -24 -14.5 -43t-33.5 -19q-13 0 -19.5 8.5t-6.5 21.5q0 23 15.5 41.5t33.5 18.5q25 0 25 -28zM76 145l45 214l8 136l49 10q0 -73 -15.5 -145.5 t-30.5 -151.5q-11 -59 -13.5 -99.5t10.5 -61.5t49 -21q44 0 81 29.5t66 81t49 116.5q11 50 20.5 98t13.5 93q2 26 3 51l40 10q0 -75 -18 -157.5t-34 -165.5q-9 -46 -15.5 -92t-6.5 -90h-40q0 33 3.5 67.5t9.5 69.5q-34 -74 -84.5 -110.5t-99.5 -36.5q-55 0 -80 42t-10 113z " />
<glyph unicode="&#xfd;" horiz-adv-x="398" d="M364 736l1 -8q-42 -46 -89.5 -82.5t-104.5 -68.5l-7 13q44 37 88.5 79t75.5 83zM387 505q18 0 18 -18q0 -35 -20 -92.5t-54.5 -126.5t-79.5 -142t-95 -141t-101 -122t-98 -86t-85 -32q-37 0 -37 27q0 7 2.5 13t5.5 10q11 -1 21 -2t16 -1q33 0 66.5 20t66 52t61.5 68.5 t52 69.5q0 133 -15 256t-43 237l40 10q30 -110 44.5 -217t14.5 -228h1q49 72 92 148t72 151t36 142q5 2 10.5 3t8.5 1z" />
<glyph unicode="&#xfe;" horiz-adv-x="507" d="M52 -245h-40q0 37 6.5 86.5t20 120t34.5 168.5l102 479l8 136l49 10q0 -58 -14 -139.5t-35.5 -175.5t-43.5 -188q17 42 40 86.5t51.5 82.5t61 61t69.5 23q41 0 67.5 -33.5t26.5 -108.5q0 -68 -23.5 -134t-65 -120t-97.5 -86.5t-122 -32.5q-12 0 -28.5 1.5t-34.5 4.5 q-14 -71 -23 -133t-9 -108zM352 469q-28 0 -58 -26t-60.5 -70.5t-57.5 -100t-48.5 -116.5t-34.5 -118q20 -6 41 -9t36 -3q48 0 91.5 29t77.5 77t53.5 107t19.5 119q0 52 -15.5 81.5t-44.5 29.5z" />
<glyph unicode="&#xff;" horiz-adv-x="398" d="M209 680q0 -24 -14.5 -43t-33.5 -19q-13 0 -19.5 8.5t-6.5 21.5q0 23 15.5 41.5t33.5 18.5q25 0 25 -28zM397 680q0 -24 -14.5 -43t-33.5 -19q-13 0 -19.5 8.5t-6.5 21.5q0 23 15.5 41.5t33.5 18.5q25 0 25 -28zM387 505q18 0 18 -18q0 -35 -20 -92.5t-54.5 -126.5 t-79.5 -142t-95 -141t-101 -122t-98 -86t-85 -32q-37 0 -37 27q0 7 2.5 13t5.5 10q11 -1 21 -2t16 -1q33 0 66.5 20t66 52t61.5 68.5t52 69.5q0 133 -15 256t-43 237l40 10q30 -110 44.5 -217t14.5 -228h1q49 72 92 148t72 151t36 142q5 2 10.5 3t8.5 1z" />
<glyph unicode="&#x100;" horiz-adv-x="589" d="M289 817l8 39h254l-8 -39h-254zM13 0h-41l344 592q16 27 31 53.5t25 46.5l28 3l4 -5l107 -690h-44l-35 222h-290zM267 437l-104 -179h264l-28 179q-7 50 -14 100.5t-8 99.5h-1q-22 -49 -51 -99.5t-58 -100.5z" />
<glyph unicode="&#x101;" horiz-adv-x="506" d="M219 646l7 34h264l-7 -34h-264zM52 132q0 68 23.5 134t65 120t97.5 86.5t122 32.5q19 0 47 -3.5t56 -11.5l-42 -173q-19 -82 -33.5 -155.5t-14.5 -161.5h-40q0 37 2.5 70.5t9 71.5t17.5 90q-18 -39 -42 -81t-52 -79t-59.5 -59.5t-65.5 -22.5q-37 0 -64 33.5t-27 108.5z M95 137q0 -52 15.5 -81.5t44.5 -29.5t60.5 28.5t61 74t55 97t43.5 98.5t26 78q4 13 7 26.5t7 28.5q-21 6 -42 9t-36 3q-48 0 -91.5 -29t-77.5 -77t-53.5 -107t-19.5 -119z" />
<glyph unicode="&#x102;" horiz-adv-x="589" d="M517 890l22 -3q-22 -48 -60 -75t-84 -27q-44 0 -70 27t-24 75l23 3q4 -29 26.5 -45.5t58.5 -16.5q33 0 62 17t46 45zM13 0h-41l344 592q16 27 31 53.5t25 46.5l28 3l4 -5l107 -690h-44l-35 222h-290zM267 437l-104 -179h264l-28 179q-7 50 -14 100.5t-8 99.5h-1 q-22 -49 -51 -99.5t-58 -100.5z" />
<glyph unicode="&#x103;" horiz-adv-x="506" d="M452 727l22 -3q-23 -58 -63 -90t-85 -32t-69.5 32t-20.5 90l23 3q2 -38 23 -60t58 -22q33 0 63 22.5t49 59.5zM52 132q0 68 23.5 134t65 120t97.5 86.5t122 32.5q19 0 47 -3.5t56 -11.5l-42 -173q-19 -82 -33.5 -155.5t-14.5 -161.5h-40q0 37 2.5 70.5t9 71.5t17.5 90 q-18 -39 -42 -81t-52 -79t-59.5 -59.5t-65.5 -22.5q-37 0 -64 33.5t-27 108.5zM95 137q0 -52 15.5 -81.5t44.5 -29.5t60.5 28.5t61 74t55 97t43.5 98.5t26 78q4 13 7 26.5t7 28.5q-21 6 -42 9t-36 3q-48 0 -91.5 -29t-77.5 -77t-53.5 -107t-19.5 -119z" />
<glyph unicode="&#x104;" horiz-adv-x="589" d="M13 0h-41l344 592q16 27 31 53.5t25 46.5l28 3l4 -5l107 -690h-3q-61 -31 -100 -67.5t-39 -74.5q0 -37 46 -37q11 0 25.5 2.5t33.5 9.5l4 -22q-16 -11 -37.5 -17t-41.5 -6q-35 0 -55 14.5t-20 41.5q0 41 37 81t106 75v0l-35 222h-290zM267 437l-104 -179h264l-28 179 q-7 50 -14 100.5t-8 99.5h-1q-22 -49 -51 -99.5t-58 -100.5z" />
<glyph unicode="&#x105;" horiz-adv-x="506" d="M52 132q0 68 23.5 134t65 120t97.5 86.5t122 32.5q19 0 47 -3.5t56 -11.5l-42 -173q-19 -82 -33.5 -155.5t-14.5 -161.5q-61 -31 -100 -67.5t-39 -74.5q0 -37 46 -37q11 0 25.5 2.5t33.5 9.5l4 -22q-16 -11 -37.5 -17t-41.5 -6q-35 0 -55 14.5t-20 41.5q0 41 37 81 t107 75q0 38 2.5 71t9 71t17.5 90q-18 -39 -42 -81t-52 -79t-59.5 -59.5t-65.5 -22.5q-37 0 -64 33.5t-27 108.5zM95 137q0 -52 15.5 -81.5t44.5 -29.5t60.5 28.5t61 74t55 97t43.5 98.5t26 78q4 13 7 26.5t7 28.5q-21 6 -42 9t-36 3q-48 0 -91.5 -29t-77.5 -77t-53.5 -107 t-19.5 -119z" />
<glyph unicode="&#x106;" horiz-adv-x="578" d="M592 865l-3 -8q-57 -31 -116.5 -49.5t-124.5 -28.5l-3 17q59 20 117.5 45t105.5 55zM498 86l-2 -38q-41 -28 -95.5 -43t-100.5 -15q-94 0 -147.5 62.5t-53.5 180.5q0 65 16.5 131t47.5 125.5t75 106t99.5 73t120.5 26.5q33 0 77.5 -9.5t81.5 -35.5l-18 -42 q-28 25 -68.5 37t-79.5 12q-60 0 -108.5 -25t-85.5 -68t-62 -96.5t-38 -111.5t-13 -113q0 -99 42.5 -157t127.5 -58q47 0 96 16.5t88 41.5z" />
<glyph unicode="&#x107;" horiz-adv-x="444" d="M418 736l1 -8q-42 -46 -89.5 -82.5t-104.5 -68.5l-7 13q44 37 88.5 79t75.5 83zM366 119l18 -13q-40 -62 -87 -89t-94 -27q-65 0 -104.5 46.5t-39.5 131.5q0 65 22 125t59.5 108t86 76t100.5 28q35 0 59 -12.5t42 -29.5l-17 -41q-17 20 -40.5 33.5t-53.5 13.5 q-41 0 -79.5 -25.5t-69 -68.5t-48.5 -96t-18 -107q0 -64 27.5 -105t83.5 -41q44 0 82 26t71 67z" />
<glyph unicode="&#x108;" horiz-adv-x="578" d="M338 770l-10 13q39 30 72.5 58.5t65.5 59.5l44 5q20 -30 45.5 -62t53.5 -61l-16 -13q-29 22 -58 46.5t-55 50.5q-32 -24 -67.5 -49t-74.5 -48zM498 86l-2 -38q-41 -28 -95.5 -43t-100.5 -15q-94 0 -147.5 62.5t-53.5 180.5q0 65 16.5 131t47.5 125.5t75 106t99.5 73 t120.5 26.5q33 0 77.5 -9.5t81.5 -35.5l-18 -42q-28 25 -68.5 37t-79.5 12q-60 0 -108.5 -25t-85.5 -68t-62 -96.5t-38 -111.5t-13 -113q0 -99 42.5 -157t127.5 -58q47 0 96 16.5t88 41.5z" />
<glyph unicode="&#x109;" horiz-adv-x="444" d="M203 579l-11 11q35 38 68.5 75.5t64.5 78.5l44 5q17 -42 36.5 -81.5t41.5 -77.5l-15 -11q-27 32 -49.5 63t-44.5 63q-30 -30 -66 -63.5t-69 -62.5zM366 119l18 -13q-40 -62 -87 -89t-94 -27q-65 0 -104.5 46.5t-39.5 131.5q0 65 22 125t59.5 108t86 76t100.5 28 q35 0 59 -12.5t42 -29.5l-17 -41q-17 20 -40.5 33.5t-53.5 13.5q-41 0 -79.5 -25.5t-69 -68.5t-48.5 -96t-18 -107q0 -64 27.5 -105t83.5 -41q44 0 82 26t71 67z" />
<glyph unicode="&#x10a;" horiz-adv-x="578" d="M511 857q0 -22 -15 -38t-36 -16q-16 0 -24 8t-8 21q0 20 16 36.5t36 16.5q16 0 23.5 -8t7.5 -20zM498 86l-2 -38q-41 -28 -95.5 -43t-100.5 -15q-94 0 -147.5 62.5t-53.5 180.5q0 65 16.5 131t47.5 125.5t75 106t99.5 73t120.5 26.5q33 0 77.5 -9.5t81.5 -35.5l-18 -42 q-28 25 -68.5 37t-79.5 12q-60 0 -108.5 -25t-85.5 -68t-62 -96.5t-38 -111.5t-13 -113q0 -99 42.5 -157t127.5 -58q47 0 96 16.5t88 41.5z" />
<glyph unicode="&#x10b;" horiz-adv-x="444" d="M358 682q0 -24 -14.5 -42.5t-34.5 -18.5q-13 0 -20 9t-7 21q0 23 15.5 41.5t33.5 18.5q14 0 20.5 -8t6.5 -21zM366 119l18 -13q-40 -62 -87 -89t-94 -27q-65 0 -104.5 46.5t-39.5 131.5q0 65 22 125t59.5 108t86 76t100.5 28q35 0 59 -12.5t42 -29.5l-17 -41 q-17 20 -40.5 33.5t-53.5 13.5q-41 0 -79.5 -25.5t-69 -68.5t-48.5 -96t-18 -107q0 -64 27.5 -105t83.5 -41q44 0 82 26t71 67z" />
<glyph unicode="&#x10c;" horiz-adv-x="578" d="M599 906l10 -13q-39 -30 -72.5 -58t-65.5 -60l-44 -5q-20 30 -45 62t-54 61l16 13q29 -22 58 -46.5t55 -50.5q32 24 67.5 49t74.5 48zM498 86l-2 -38q-41 -28 -95.5 -43t-100.5 -15q-94 0 -147.5 62.5t-53.5 180.5q0 65 16.5 131t47.5 125.5t75 106t99.5 73t120.5 26.5 q33 0 77.5 -9.5t81.5 -35.5l-18 -42q-28 25 -68.5 37t-79.5 12q-60 0 -108.5 -25t-85.5 -68t-62 -96.5t-38 -111.5t-13 -113q0 -99 42.5 -157t127.5 -58q47 0 96 16.5t88 41.5z" />
<glyph unicode="&#x10d;" horiz-adv-x="444" d="M437 750l11 -11q-35 -37 -68 -75t-65 -79l-44 -5q-16 42 -35.5 81.5t-42.5 77.5l15 11q27 -32 49.5 -63t44.5 -63q30 30 66 63.5t69 62.5zM366 119l18 -13q-40 -62 -87 -89t-94 -27q-65 0 -104.5 46.5t-39.5 131.5q0 65 22 125t59.5 108t86 76t100.5 28q35 0 59 -12.5 t42 -29.5l-17 -41q-17 20 -40.5 33.5t-53.5 13.5q-41 0 -79.5 -25.5t-69 -68.5t-48.5 -96t-18 -107q0 -64 27.5 -105t83.5 -41q44 0 82 26t71 67z" />
<glyph unicode="&#x10e;" horiz-adv-x="689" d="M587 906l10 -13q-39 -30 -72.5 -58t-65.5 -60l-44 -5q-20 30 -45 62t-54 61l16 13q29 -22 58 -46.5t55 -50.5q32 24 67.5 49t74.5 48zM629 433q0 -81 -29 -158t-83 -139.5t-130 -99t-170 -36.5h-138l115 538q9 43 15 80.5t9 66.5h147q122 0 193 -61.5t71 -190.5zM351 649 h-92l-130 -613h94q87 0 154.5 33.5t113.5 90t69.5 126.5t23.5 143q0 109 -55.5 164.5t-177.5 55.5z" />
<glyph unicode="&#x10f;" horiz-adv-x="509" d="M376 0h-40q0 40 7 93.5t25 144.5q-18 -43 -41.5 -87t-52 -80.5t-61.5 -58.5t-70 -22t-64 33.5t-27 108.5q0 68 23.5 134t65 120t97.5 86.5t122 32.5q12 0 28.5 -1.5t34.5 -4.5l23 110l8 136l49 10q0 -58 -13 -132t-31.5 -156.5t-37.5 -166t-32 -160.5t-13 -140zM672 755 l5 -6q-16 -56 -44 -109t-65 -103l-15 6q27 56 46.5 107.5t29.5 98.5zM95 137q0 -52 15.5 -81.5t44.5 -29.5t60 27.5t60.5 71.5t55 94.5t44 97.5t25.5 79l14 61q-21 6 -42 9t-35 3q-48 0 -91.5 -29t-77.5 -77t-53.5 -107t-19.5 -119z" />
<glyph unicode="&#x110;" horiz-adv-x="689" d="M629 433q0 -81 -29 -158t-83 -139.5t-130 -99t-170 -36.5h-138l70 328h-87l6 30h88l38 180q9 43 15 80.5t9 66.5h147q122 0 193 -61.5t71 -190.5zM422 328h-231l-62 -292h94q87 0 154.5 33.5t113.5 90t69.5 126.5t23.5 143q0 109 -55.5 164.5t-177.5 55.5h-92l-62 -291 h231z" />
<glyph unicode="&#x111;" horiz-adv-x="509" d="M376 0h-40q0 40 7 93.5t25 144.5q-18 -43 -41.5 -87t-52 -80.5t-61.5 -58.5t-70 -22t-64 33.5t-27 108.5q0 68 23.5 134t65 120t97.5 86.5t122 32.5q12 0 28.5 -1.5t34.5 -4.5l21 101h-221l6 30h218l7 115l49 10q0 -27 -3 -58.5t-9 -66.5h98l-6 -30h-97 q-13 -72 -31.5 -152t-36.5 -160t-30 -154t-12 -134zM95 137q0 -52 15.5 -81.5t44.5 -29.5t60 27.5t60.5 71.5t55 94.5t44 97.5t25.5 79l14 61q-21 6 -42 9t-35 3q-48 0 -91.5 -29t-77.5 -77t-53.5 -107t-19.5 -119z" />
<glyph unicode="&#x112;" horiz-adv-x="532" d="M294 817l8 39h254l-8 -39h-254zM437 39l-8 -39h-350l115 538q9 44 14.5 78t9.5 69h342l4 -5l-7 -34l-297 4l-63 -292l257 2l-9 -39l-255 2l-62 -288z" />
<glyph unicode="&#x113;" horiz-adv-x="447" d="M173 646l7 34h264l-7 -34h-264zM364 119l18 -13q-31 -55 -80 -85.5t-99 -30.5q-62 0 -103 46.5t-41 132.5q0 59 19.5 118.5t54 108.5t79.5 79t95 30q47 0 76 -27t29 -75q0 -30 -14.5 -60t-49 -55t-94 -42t-147.5 -21q-5 -28 -5 -53q0 -64 28.5 -105t80.5 -41 q44 0 83 27.5t70 65.5zM298 469q-42 0 -79.5 -31t-65 -80.5t-40.5 -103.5q79 5 129 21t78 38.5t38.5 46t10.5 42.5q0 30 -19.5 48.5t-51.5 18.5z" />
<glyph unicode="&#x114;" horiz-adv-x="532" d="M522 890l22 -3q-22 -48 -60 -75t-84 -27q-44 0 -70 27t-24 75l23 3q4 -29 26.5 -45.5t58.5 -16.5q33 0 62 17t46 45zM437 39l-8 -39h-350l115 538q9 44 14.5 78t9.5 69h342l4 -5l-7 -34l-297 4l-63 -292l257 2l-9 -39l-255 2l-62 -288z" />
<glyph unicode="&#x115;" horiz-adv-x="447" d="M406 727l22 -3q-23 -58 -63 -90t-85 -32t-69.5 32t-20.5 90l23 3q2 -38 23 -60t58 -22q33 0 63 22.5t49 59.5zM364 119l18 -13q-31 -55 -80 -85.5t-99 -30.5q-62 0 -103 46.5t-41 132.5q0 59 19.5 118.5t54 108.5t79.5 79t95 30q47 0 76 -27t29 -75q0 -30 -14.5 -60 t-49 -55t-94 -42t-147.5 -21q-5 -28 -5 -53q0 -64 28.5 -105t80.5 -41q44 0 83 27.5t70 65.5zM298 469q-42 0 -79.5 -31t-65 -80.5t-40.5 -103.5q79 5 129 21t78 38.5t38.5 46t10.5 42.5q0 30 -19.5 48.5t-51.5 18.5z" />
<glyph unicode="&#x116;" horiz-adv-x="532" d="M468 857q0 -22 -15 -38t-36 -16q-16 0 -24 8t-8 21q0 20 16 36.5t36 16.5q16 0 23.5 -8t7.5 -20zM437 39l-8 -39h-350l115 538q9 44 14.5 78t9.5 69h342l4 -5l-7 -34l-297 4l-63 -292l257 2l-9 -39l-255 2l-62 -288z" />
<glyph unicode="&#x117;" horiz-adv-x="447" d="M347 682q0 -24 -14.5 -42.5t-34.5 -18.5q-13 0 -20 9t-7 21q0 23 15.5 41.5t33.5 18.5q14 0 20.5 -8t6.5 -21zM364 119l18 -13q-31 -55 -80 -85.5t-99 -30.5q-62 0 -103 46.5t-41 132.5q0 59 19.5 118.5t54 108.5t79.5 79t95 30q47 0 76 -27t29 -75q0 -30 -14.5 -60 t-49 -55t-94 -42t-147.5 -21q-5 -28 -5 -53q0 -64 28.5 -105t80.5 -41q44 0 83 27.5t70 65.5zM298 469q-42 0 -79.5 -31t-65 -80.5t-40.5 -103.5q79 5 129 21t78 38.5t38.5 46t10.5 42.5q0 30 -19.5 48.5t-51.5 18.5z" />
<glyph unicode="&#x118;" horiz-adv-x="532" d="M429 0q-61 -31 -100 -67.5t-39 -74.5q0 -37 46 -37q11 0 25.5 2.5t33.5 9.5l4 -22q-16 -11 -37.5 -17t-41.5 -6q-35 0 -55 14.5t-20 41.5q0 41 37 81t106 75h-309l115 538q9 44 14.5 78t9.5 69h342l4 -5l-7 -34l-297 4l-63 -292l257 2l-9 -39l-255 2l-62 -288l309 4z" />
<glyph unicode="&#x119;" horiz-adv-x="447" d="M305 22q-61 -43 -100 -78t-39 -77q0 -46 47 -46q10 0 24.5 2.5t33.5 9.5l4 -22q-16 -11 -37.5 -17t-41.5 -6q-35 0 -55 17.5t-20 48.5q0 36 26 69t76 68q-10 -1 -20 -1q-62 0 -103 46.5t-41 132.5q0 59 19.5 118.5t54 108.5t79.5 79t95 30q47 0 76 -27t29 -75 q0 -30 -14.5 -60t-49 -55t-94 -42t-147.5 -21q-5 -28 -5 -53q0 -64 28.5 -105t80.5 -41q44 0 83 27.5t70 65.5l18 -13q-15 -27 -34.5 -48t-42.5 -36v0zM298 469q-42 0 -79.5 -31t-65 -80.5t-40.5 -103.5q79 5 129 21t78 38.5t38.5 46t10.5 42.5q0 30 -19.5 48.5t-51.5 18.5z " />
<glyph unicode="&#x11a;" horiz-adv-x="532" d="M556 906l10 -13q-39 -30 -72.5 -58t-65.5 -60l-44 -5q-20 30 -45 62t-54 61l16 13q29 -22 58 -46.5t55 -50.5q32 24 67.5 49t74.5 48zM437 39l-8 -39h-350l115 538q9 44 14.5 78t9.5 69h342l4 -5l-7 -34l-297 4l-63 -292l257 2l-9 -39l-255 2l-62 -288z" />
<glyph unicode="&#x11b;" horiz-adv-x="447" d="M426 750l11 -11q-35 -37 -68 -75t-65 -79l-44 -5q-16 42 -35.5 81.5t-42.5 77.5l15 11q27 -32 49.5 -63t44.5 -63q30 30 66 63.5t69 62.5zM364 119l18 -13q-31 -55 -80 -85.5t-99 -30.5q-62 0 -103 46.5t-41 132.5q0 59 19.5 118.5t54 108.5t79.5 79t95 30q47 0 76 -27 t29 -75q0 -30 -14.5 -60t-49 -55t-94 -42t-147.5 -21q-5 -28 -5 -53q0 -64 28.5 -105t80.5 -41q44 0 83 27.5t70 65.5zM298 469q-42 0 -79.5 -31t-65 -80.5t-40.5 -103.5q79 5 129 21t78 38.5t38.5 46t10.5 42.5q0 30 -19.5 48.5t-51.5 18.5z" />
<glyph unicode="&#x11c;" horiz-adv-x="639" d="M325 770l-10 13q39 30 72.5 58.5t65.5 59.5l44 5q20 -30 45.5 -62t53.5 -61l-16 -13q-29 22 -58 46.5t-55 50.5q-32 -24 -67.5 -49t-74.5 -48zM563 288l4 -5l-53 -242q-38 -25 -91.5 -38t-101.5 -13q-104 0 -162.5 61.5t-58.5 188.5q0 85 26 166t73.5 146.5t112.5 104 t142 38.5q32 0 76.5 -9.5t81.5 -35.5l-18 -42q-28 25 -68.5 37t-78.5 12q-69 0 -124.5 -36t-95.5 -95.5t-61 -132t-21 -146.5q0 -105 46.5 -162t144.5 -57q72 0 140 30l15 73q8 40 14 76t10 71z" />
<glyph unicode="&#x11d;" horiz-adv-x="415" d="M180 579l-11 11q35 38 68.5 75.5t64.5 78.5l44 5q17 -42 36.5 -81.5t41.5 -77.5l-15 -11q-27 32 -49.5 63t-44.5 63q-30 -30 -66 -63.5t-69 -62.5zM120 -255q-78 0 -118.5 33.5t-40.5 84.5q0 40 22 68.5t56 49.5l14 -16q-22 -22 -35.5 -46t-13.5 -48q0 -37 31.5 -63.5 t92.5 -26.5q48 0 83 15.5t54.5 40t19.5 51.5q0 25 -19.5 45t-65.5 42q-32 16 -59 31.5t-27 42.5q0 24 22.5 48.5t59.5 52.5v1q-8 -1 -9 -1q-60 0 -88.5 36t-28.5 93q0 60 26.5 111.5t72.5 83t102 31.5q38 0 63.5 0.5t45.5 2.5t42 7q5 -8 5 -21q0 -10 -7.5 -18t-29.5 -8 q-15 0 -34.5 4t-38.5 8v-1q23 -15 35.5 -39.5t12.5 -65.5q0 -57 -21 -100.5t-52 -76t-62 -57t-52 -43.5t-21 -36q0 -12 10 -21t23.5 -15.5t22.5 -11.5q61 -28 88 -55t27 -62q0 -34 -24 -69t-70 -58.5t-114 -23.5zM325 370q0 47 -20 74t-55 27q-36 0 -68 -28t-52 -71t-20 -90 q0 -49 22 -73t56 -24q40 0 71 28t48.5 71t17.5 86z" />
<glyph unicode="&#x11e;" horiz-adv-x="639" d="M552 890l22 -3q-22 -48 -60 -75t-84 -27q-44 0 -70 27t-24 75l23 3q4 -29 26.5 -45.5t58.5 -16.5q33 0 62 17t46 45zM563 288l4 -5l-53 -242q-38 -25 -91.5 -38t-101.5 -13q-104 0 -162.5 61.5t-58.5 188.5q0 85 26 166t73.5 146.5t112.5 104t142 38.5q32 0 76.5 -9.5 t81.5 -35.5l-18 -42q-28 25 -68.5 37t-78.5 12q-69 0 -124.5 -36t-95.5 -95.5t-61 -132t-21 -146.5q0 -105 46.5 -162t144.5 -57q72 0 140 30l15 73q8 40 14 76t10 71z" />
<glyph unicode="&#x11f;" horiz-adv-x="415" d="M394 727l22 -3q-23 -58 -63 -90t-85 -32t-69.5 32t-20.5 90l23 3q2 -38 23 -60t58 -22q33 0 63 22.5t49 59.5zM120 -255q-78 0 -118.5 33.5t-40.5 84.5q0 40 22 68.5t56 49.5l14 -16q-22 -22 -35.5 -46t-13.5 -48q0 -37 31.5 -63.5t92.5 -26.5q48 0 83 15.5t54.5 40 t19.5 51.5q0 25 -19.5 45t-65.5 42q-32 16 -59 31.5t-27 42.5q0 24 22.5 48.5t59.5 52.5v1q-8 -1 -9 -1q-60 0 -88.5 36t-28.5 93q0 60 26.5 111.5t72.5 83t102 31.5q38 0 63.5 0.5t45.5 2.5t42 7q5 -8 5 -21q0 -10 -7.5 -18t-29.5 -8q-15 0 -34.5 4t-38.5 8v-1 q23 -15 35.5 -39.5t12.5 -65.5q0 -57 -21 -100.5t-52 -76t-62 -57t-52 -43.5t-21 -36q0 -12 10 -21t23.5 -15.5t22.5 -11.5q61 -28 88 -55t27 -62q0 -34 -24 -69t-70 -58.5t-114 -23.5zM325 370q0 47 -20 74t-55 27q-36 0 -68 -28t-52 -71t-20 -90q0 -49 22 -73t56 -24 q40 0 71 28t48.5 71t17.5 86z" />
<glyph unicode="&#x120;" horiz-adv-x="639" d="M498 857q0 -22 -15 -38t-36 -16q-16 0 -24 8t-8 21q0 20 16 36.5t36 16.5q16 0 23.5 -8t7.5 -20zM563 288l4 -5l-53 -242q-38 -25 -91.5 -38t-101.5 -13q-104 0 -162.5 61.5t-58.5 188.5q0 85 26 166t73.5 146.5t112.5 104t142 38.5q32 0 76.5 -9.5t81.5 -35.5l-18 -42 q-28 25 -68.5 37t-78.5 12q-69 0 -124.5 -36t-95.5 -95.5t-61 -132t-21 -146.5q0 -105 46.5 -162t144.5 -57q72 0 140 30l15 73q8 40 14 76t10 71z" />
<glyph unicode="&#x121;" horiz-adv-x="415" d="M335 682q0 -24 -14.5 -42.5t-34.5 -18.5q-13 0 -20 9t-7 21q0 23 15.5 41.5t33.5 18.5q14 0 20.5 -8t6.5 -21zM120 -255q-78 0 -118.5 33.5t-40.5 84.5q0 40 22 68.5t56 49.5l14 -16q-22 -22 -35.5 -46t-13.5 -48q0 -37 31.5 -63.5t92.5 -26.5q48 0 83 15.5t54.5 40 t19.5 51.5q0 25 -19.5 45t-65.5 42q-32 16 -59 31.5t-27 42.5q0 24 22.5 48.5t59.5 52.5v1q-8 -1 -9 -1q-60 0 -88.5 36t-28.5 93q0 60 26.5 111.5t72.5 83t102 31.5q38 0 63.5 0.5t45.5 2.5t42 7q5 -8 5 -21q0 -10 -7.5 -18t-29.5 -8q-15 0 -34.5 4t-38.5 8v-1 q23 -15 35.5 -39.5t12.5 -65.5q0 -57 -21 -100.5t-52 -76t-62 -57t-52 -43.5t-21 -36q0 -12 10 -21t23.5 -15.5t22.5 -11.5q61 -28 88 -55t27 -62q0 -34 -24 -69t-70 -58.5t-114 -23.5zM325 370q0 47 -20 74t-55 27q-36 0 -68 -28t-52 -71t-20 -90q0 -49 22 -73t56 -24 q40 0 71 28t48.5 71t17.5 86z" />
<glyph unicode="&#x122;" horiz-adv-x="639" d="M563 288l4 -5l-53 -242q-38 -25 -91.5 -38t-101.5 -13q-104 0 -162.5 61.5t-58.5 188.5q0 85 26 166t73.5 146.5t112.5 104t142 38.5q32 0 76.5 -9.5t81.5 -35.5l-18 -42q-28 25 -68.5 37t-78.5 12q-69 0 -124.5 -36t-95.5 -95.5t-61 -132t-21 -146.5q0 -105 46.5 -162 t144.5 -57q72 0 140 30l15 73q8 40 14 76t10 71zM244 -306q17 25 30.5 48t23.5 46h-2q-14 0 -21 9.5t-7 22.5q0 19 13.5 39t38.5 20q30 0 30 -32q0 -24 -13 -53t-33.5 -57.5t-42.5 -53.5z" />
<glyph unicode="&#x123;" horiz-adv-x="415" d="M404 759q-17 -25 -30.5 -48t-23.5 -46h2q14 0 21 -9t7 -23q0 -19 -13.5 -39t-38.5 -20q-30 0 -30 32q0 25 13 53.5t33.5 57.5t42.5 53zM120 -255q-78 0 -118.5 33.5t-40.5 84.5q0 40 22 68.5t56 49.5l14 -16q-22 -22 -35.5 -46t-13.5 -48q0 -37 31.5 -63.5t92.5 -26.5 q48 0 83 15.5t54.5 40t19.5 51.5q0 25 -19.5 45t-65.5 42q-32 16 -59 31.5t-27 42.5q0 24 22.5 48.5t59.5 52.5v1q-8 -1 -9 -1q-60 0 -88.5 36t-28.5 93q0 60 26.5 111.5t72.5 83t102 31.5q38 0 63.5 0.5t45.5 2.5t42 7q5 -8 5 -21q0 -10 -7.5 -18t-29.5 -8q-15 0 -34.5 4 t-38.5 8v-1q23 -15 35.5 -39.5t12.5 -65.5q0 -57 -21 -100.5t-52 -76t-62 -57t-52 -43.5t-21 -36q0 -12 10 -21t23.5 -15.5t22.5 -11.5q61 -28 88 -55t27 -62q0 -34 -24 -69t-70 -58.5t-114 -23.5zM325 370q0 47 -20 74t-55 27q-36 0 -68 -28t-52 -71t-20 -90q0 -49 22 -73 t56 -24q40 0 71 28t48.5 71t17.5 86z" />
<glyph unicode="&#x124;" horiz-adv-x="713" d="M350 770l-10 13q39 30 72.5 58.5t65.5 59.5l44 5q20 -30 45.5 -62t53.5 -61l-16 -13q-29 22 -58 46.5t-55 50.5q-32 -24 -67.5 -49t-74.5 -48zM121 0h-42l114 538q9 44 15 78t10 69l46 10l4 -5l-71 -331h372l38 179q10 44 15.5 78t9.5 69l46 10l4 -5l-147 -690h-42 l68 323h-371z" />
<glyph unicode="&#x125;" horiz-adv-x="537" d="M163 830l-10 13q39 30 72.5 58.5t65.5 59.5l44 5q20 -30 45.5 -62t53.5 -61l-16 -13q-29 22 -58 46.5t-55 50.5q-32 -24 -67.5 -49t-74.5 -48zM111 0h-40q0 36 5.5 82.5t19 117.5t36.5 180l49 229l8 136l49 10q0 -52 -10.5 -118.5t-27 -141t-34.5 -150.5h2 q37 81 92.5 120.5t107.5 39.5q46 0 70 -25.5t24 -70.5q0 -13 -0.5 -23t-3.5 -27t-10 -49.5t-20 -91.5q-11 -54 -17 -91t-8 -66t-2 -61h-40q0 72 11.5 130t22.5 108q14 65 20.5 102t6.5 60q0 34 -15 51.5t-50 17.5q-53 0 -97 -38t-76.5 -104t-51.5 -150.5t-21 -176.5z" />
<glyph unicode="&#x126;" horiz-adv-x="713" d="M121 0h-42l106 498h-86l6 30h86l2 10q9 44 15 78t10 69l46 10l4 -5l-35 -162h372l2 10q10 44 15.5 78t9.5 69l46 10l4 -5l-35 -162h78l-6 -30h-78l-106 -498h-42l68 323h-371zM197 359h372l30 139h-372z" />
<glyph unicode="&#x127;" horiz-adv-x="537" d="M111 0h-40q0 36 5.5 82.5t19 117.5t36.5 180l45 211h-86l6 30h85l7 124l49 10q0 -29 -3.5 -63t-9.5 -71h232l-6 -30h-231q-11 -58 -25 -120.5t-29 -125.5h2q37 81 92.5 120.5t107.5 39.5q46 0 70 -25.5t24 -70.5q0 -13 -0.5 -23t-3.5 -27t-10 -49.5t-20 -91.5 q-11 -54 -17 -91t-8 -66t-2 -61h-40q0 72 11.5 130t22.5 108q14 65 20.5 102t6.5 60q0 34 -15 51.5t-50 17.5q-53 0 -97 -38t-76.5 -104t-51.5 -150.5t-21 -176.5z" />
<glyph unicode="&#x128;" horiz-adv-x="299" d="M219 890q28 0 48 -14t39 -28t42 -14q25 0 45.5 17.5t36.5 39.5l15 -3q-12 -34 -42 -63t-68 -29q-28 0 -48.5 14t-39 28t-42.5 14t-44.5 -17t-37.5 -40l-15 3q8 20 23.5 41t38 36t49.5 15zM121 0h-42l114 538q10 44 15.5 78t9.5 69l46 10l4 -5z" />
<glyph unicode="&#x129;" horiz-adv-x="241" d="M155 714q20 0 33 -14t24 -28t26 -14q17 0 32 17.5t28 39.5l15 -3q-5 -19 -18.5 -40.5t-31.5 -36.5t-38 -15t-33 14t-24.5 28t-26.5 14q-16 0 -31.5 -17t-28.5 -40l-15 3q6 19 19.5 40.5t31.5 36.5t38 15zM111 0h-40q0 54 10 121t27 146l20 92l8 136l49 10q0 -56 -11 -119 t-26 -129t-26 -131.5t-11 -125.5z" />
<glyph unicode="&#x12a;" horiz-adv-x="299" d="M144 817l8 39h254l-8 -39h-254zM121 0h-42l114 538q10 44 15.5 78t9.5 69l46 10l4 -5z" />
<glyph unicode="&#x12b;" horiz-adv-x="241" d="M78 646l6 34h198l-6 -34h-198zM111 0h-40q0 54 10 121t27 146l20 92l8 136l49 10q0 -56 -11 -119t-26 -129t-26 -131.5t-11 -125.5z" />
<glyph unicode="&#x12c;" horiz-adv-x="299" d="M372 890l22 -3q-22 -48 -60 -75t-84 -27q-44 0 -70 27t-24 75l23 3q4 -29 26.5 -45.5t58.5 -16.5q33 0 62 17t46 45zM121 0h-42l114 538q10 44 15.5 78t9.5 69l46 10l4 -5z" />
<glyph unicode="&#x12d;" horiz-adv-x="241" d="M271 730l23 -3q-22 -58 -57 -90t-76 -32q-39 0 -59.5 32t-15.5 90l22 3q1 -38 18.5 -60t48.5 -22q28 0 53.5 22.5t42.5 59.5zM111 0h-40q0 54 10 121t27 146l20 92l8 136l49 10q0 -56 -11 -119t-26 -129t-26 -131.5t-11 -125.5z" />
<glyph unicode="&#x12e;" horiz-adv-x="299" d="M121 0q-37 -34 -60 -67.5t-23 -65.5q0 -46 47 -46q10 0 24.5 2.5t33.5 9.5l4 -22q-16 -11 -37.5 -17t-41.5 -6q-35 0 -55 17t-20 48q0 36 24.5 73t71.5 74h-10l114 538q10 44 15.5 78t9.5 69l46 10l4 -5z" />
<glyph unicode="&#x12f;" horiz-adv-x="241" d="M227 682q0 -24 -14.5 -42.5t-34.5 -18.5q-13 0 -20 9t-7 21q0 23 15.5 41.5t33.5 18.5q14 0 20.5 -8t6.5 -21zM111 0q-36 -32 -58.5 -65t-22.5 -65q0 -22 11.5 -35.5t35.5 -13.5q10 0 24.5 2.5t33.5 9.5l4 -22q-16 -11 -37.5 -17t-41.5 -6q-35 0 -55 17.5t-20 50.5 q0 72 93 144h-7q0 54 10 121t27 146l20 92l8 136l49 10q0 -56 -11 -119t-26 -129t-26 -131.5t-11 -125.5z" />
<glyph unicode="&#x130;" horiz-adv-x="299" d="M318 857q0 -22 -15 -38t-36 -16q-16 0 -24 8t-8 21q0 20 16 36.5t36 16.5q16 0 23.5 -8t7.5 -20zM121 0h-42l114 538q10 44 15.5 78t9.5 69l46 10l4 -5z" />
<glyph unicode="&#x131;" horiz-adv-x="241" d="M111 0h-40q0 54 10 121t27 146l20 92l8 136l49 10q0 -56 -11 -119t-26 -129t-26 -131.5t-11 -125.5z" />
<glyph unicode="&#x132;" horiz-adv-x="568" d="M121 0h-42l114 538q10 44 15.5 78t9.5 69l46 10l4 -5zM233 -182l-10 26q43 21 80.5 69t54.5 130l105 495q9 44 14.5 75.5t9.5 71.5l46 10l4 -5l-137 -647q-35 -166 -167 -225z" />
<glyph unicode="&#x133;" horiz-adv-x="459" d="M227 682q0 -24 -14.5 -42.5t-34.5 -18.5q-13 0 -20 9t-7 21q0 23 15.5 41.5t33.5 18.5q14 0 20.5 -8t6.5 -21zM460 682q0 -24 -14.5 -42.5t-34.5 -18.5q-13 0 -20 9t-7 21q0 23 15.5 41.5t33.5 18.5q14 0 20.5 -8t6.5 -21zM111 0h-40q0 54 10 121t27 146l20 92l8 136 l49 10q0 -56 -11 -119t-26 -129t-26 -131.5t-11 -125.5zM171 -255l-15 21q44 26 74.5 71t44.5 111l88 411l8 136l49 10q0 -26 -3 -54.5t-10 -67.5t-19 -96.5t-29.5 -140t-42.5 -198.5q-15 -67 -49.5 -116t-95.5 -87z" />
<glyph unicode="&#x134;" horiz-adv-x="269" d="M115 770l-10 13q39 30 72.5 58.5t65.5 59.5l44 5q20 -30 45.5 -62t53.5 -61l-16 -13q-29 22 -58 46.5t-55 50.5q-32 -24 -67.5 -49t-74.5 -48zM-66 -182l-10 26q43 21 80.5 69t54.5 130l105 495q9 44 14.5 75.5t9.5 71.5l46 10l4 -5l-137 -647q-35 -166 -167 -225z" />
<glyph unicode="&#x135;" horiz-adv-x="218" d="M84 586l-8 10q30 42 58.5 84.5t44.5 69.5l44 5q11 -39 23 -79.5t25 -79.5l-12 -10q-19 29 -35.5 59.5t-31.5 61.5q-27 -32 -53.5 -62.5t-54.5 -58.5zM-70 -255l-15 21q44 26 74.5 71t44.5 111l88 411l8 136l49 10q0 -26 -3 -54.5t-10 -67.5t-19 -96.5t-29.5 -140 t-42.5 -198.5q-15 -67 -49.5 -116t-95.5 -87z" />
<glyph unicode="&#x136;" horiz-adv-x="598" d="M194 538q9 44 14.5 78t9.5 69l44 10l4 -5l-70 -331h109l154 168l154 168l25 -13l4 -5l-305 -333l183 -344l-43 -10l-177 333h-112l-69 -323h-40zM161 -306q17 25 30.5 48t23.5 46h-2q-14 0 -21 9.5t-7 22.5q0 19 13.5 39t38.5 20q30 0 30 -32q0 -24 -13 -53t-33.5 -57.5 t-42.5 -53.5z" />
<glyph unicode="&#x137;" horiz-adv-x="474" d="M449 429q0 -43 -29.5 -84t-74.5 -76t-93 -60q17 -29 41.5 -67t52.5 -75.5t55 -66.5h-52q-37 43 -74 101.5t-70 123.5q33 17 68.5 38t65.5 46.5t48.5 53.5t18.5 58q0 48 -47 48q-36 0 -71 -28.5t-66 -77t-55 -109.5t-39 -126.5t-17 -127.5h-40q0 36 5.5 82.5t19 117.5 t36.5 180l49 229l8 136l49 10q0 -59 -13.5 -136t-33.5 -162.5t-39 -170.5h2q40 108 100.5 163.5t118.5 55.5q39 0 57.5 -22t18.5 -54zM132 -306q17 25 30.5 48t23.5 46h-2q-14 0 -21 9.5t-7 22.5q0 19 13.5 39t38.5 20q30 0 30 -32q0 -24 -13 -53t-33.5 -57.5t-42.5 -53.5z " />
<glyph unicode="&#x138;" horiz-adv-x="474" d="M349 0q-37 45 -66 97t-47.5 102t-24.5 89q-30 -52 -52.5 -106.5t-35 -102.5t-12.5 -79h-40q0 54 10 121t27 146l20 92l8 136l49 10q0 -70 -17.5 -151.5t-33.5 -163.5h3q33 94 78 165t97 110.5t105 39.5q17 0 33.5 -4t29.5 -11l-21 -38q-5 5 -20 11t-35 6q-41 0 -82.5 -37 t-79.5 -92q4 -47 25 -106t55.5 -120t78.5 -114h-52z" />
<glyph unicode="&#x139;" horiz-adv-x="504" d="M516 865l-3 -8q-57 -31 -116.5 -49.5t-124.5 -28.5l-3 17q59 20 117.5 45t105.5 55zM121 0h-42l115 539q9 44 14.5 77.5t9.5 68.5l46 10l4 -5zM429 39l-8 -39h-300l8 35z" />
<glyph unicode="&#x13a;" horiz-adv-x="240" d="M423 914l-3 -8q-57 -31 -116.5 -49.5t-124.5 -28.5l-3 17q59 20 117.5 45t105.5 55zM111 0h-40q0 36 5.5 82.5t19 117.5t36.5 180l49 229l8 136l49 10q0 -58 -13 -132t-31.5 -156.5t-37.5 -166t-32 -160.5t-13 -140z" />
<glyph unicode="&#x13b;" horiz-adv-x="504" d="M121 0h-42l115 539q9 44 14.5 77.5t9.5 68.5l46 10l4 -5zM429 39l-8 -39h-300l8 35zM114 -306q17 25 30.5 48t23.5 46h-2q-14 0 -21 9.5t-7 22.5q0 19 13.5 39t38.5 20q30 0 30 -32q0 -24 -13 -53t-33.5 -57.5t-42.5 -53.5z" />
<glyph unicode="&#x13c;" horiz-adv-x="240" d="M111 0h-40q0 36 5.5 82.5t19 117.5t36.5 180l49 229l8 136l49 10q0 -58 -13 -132t-31.5 -156.5t-37.5 -166t-32 -160.5t-13 -140zM-4 -306q17 25 30.5 48t23.5 46h-2q-14 0 -21 9.5t-7 22.5q0 19 13.5 39t38.5 20q30 0 30 -32q0 -24 -13 -53t-33.5 -57.5t-42.5 -53.5z " />
<glyph unicode="&#x13d;" horiz-adv-x="504" d="M476 727l5 -6q-16 -56 -44 -109t-65 -103l-15 6q27 56 46.5 107.5t29.5 98.5zM121 0h-42l115 539q9 44 14.5 77.5t9.5 68.5l46 10l4 -5zM429 39l-8 -39h-300l8 35z" />
<glyph unicode="&#x13e;" horiz-adv-x="240" d="M111 0h-40q0 36 5.5 82.5t19 117.5t36.5 180l49 229l8 136l49 10q0 -58 -13 -132t-31.5 -156.5t-37.5 -166t-32 -160.5t-13 -140zM403 755l5 -6q-16 -56 -44 -109t-65 -103l-15 6q27 56 46.5 107.5t29.5 98.5z" />
<glyph unicode="&#x13f;" horiz-adv-x="600" d="M121 0h-42l115 539q9 44 14.5 77.5t9.5 68.5l46 10l4 -5zM403 358q0 -22 -17 -40t-37 -18q-13 0 -23 9t-10 24q0 22 17.5 39.5t37.5 17.5q14 0 23 -9t9 -23zM429 39l-8 -39h-300l8 35z" />
<glyph unicode="&#x140;" horiz-adv-x="414" d="M111 0h-40q0 36 5.5 82.5t19 117.5t36.5 180l49 229l8 136l49 10q0 -58 -13 -132t-31.5 -156.5t-37.5 -166t-32 -160.5t-13 -140zM354 328q0 -22 -17 -40t-37 -18q-13 0 -23 9t-10 24q0 22 17.5 39.5t37.5 17.5q14 0 23 -9t9 -23z" />
<glyph unicode="&#x141;" horiz-adv-x="504" d="M121 0h-42l67 314l-139 -69l-10 29l157 78l40 187q9 44 14.5 77.5t9.5 68.5l46 10l4 -5l-67 -315l132 66l11 -29l-151 -75zM429 39l-8 -39h-300l8 35z" />
<glyph unicode="&#x142;" horiz-adv-x="240" d="M111 0h-40q0 36 5.5 82.5t19 117.5t36.5 180l1 4l-136 -67l-10 29l154 77l40 186l8 136l49 10q0 -61 -14.5 -141t-34.5 -168l134 67l11 -29l-154 -76q-17 -73 -32.5 -146t-26 -140t-10.5 -122z" />
<glyph unicode="&#x143;" horiz-adv-x="728" d="M605 865l-3 -8q-57 -31 -116.5 -49.5t-124.5 -28.5l-3 17q59 20 117.5 45t105.5 55zM395 384q28 -68 51.5 -122.5t42.5 -104.5t33 -106h1q4 24 8 46t10 52.5t16 78.5t25.5 123t39.5 187q10 44 15.5 78t9.5 69l46 10l4 -5l-147 -690h-45q-32 78 -64.5 155.5t-64.5 155.5 q-28 68 -50 120.5t-39.5 100.5t-33.5 102h-1q-11 -66 -23.5 -128t-26.5 -124l-81 -382h-42l114 538q10 44 15.5 78t9.5 69l48 10q33 -78 65.5 -156t63.5 -155z" />
<glyph unicode="&#x144;" horiz-adv-x="537" d="M447 736l1 -8q-42 -46 -89.5 -82.5t-104.5 -68.5l-7 13q44 37 88.5 79t75.5 83zM111 0h-40q1 89 18 175t39 184l8 136l49 10q0 -37 -6 -78t-16 -82h2q38 81 94 120.5t110 39.5q45 0 69 -25t24 -69q0 -31 -9 -77.5t-23 -107.5q-12 -54 -18.5 -89.5t-8.5 -66t-2 -70.5h-40 q0 57 9.5 113t24.5 132q10 50 16 87.5t6 62.5q0 35 -14 54.5t-49 19.5q-49 0 -92 -37t-76 -102t-53 -150t-22 -180z" />
<glyph unicode="&#x145;" horiz-adv-x="728" d="M395 384q28 -68 51.5 -122.5t42.5 -104.5t33 -106h1q4 24 8 46t10 52.5t16 78.5t25.5 123t39.5 187q10 44 15.5 78t9.5 69l46 10l4 -5l-147 -690h-45q-32 78 -64.5 155.5t-64.5 155.5q-28 68 -50 120.5t-39.5 100.5t-33.5 102h-1q-11 -66 -23.5 -128t-26.5 -124l-81 -382 h-42l114 538q10 44 15.5 78t9.5 69l48 10q33 -78 65.5 -156t63.5 -155zM225 -306q17 25 30.5 48t23.5 46h-2q-14 0 -21 9.5t-7 22.5q0 19 13.5 39t38.5 20q30 0 30 -32q0 -24 -13 -53t-33.5 -57.5t-42.5 -53.5z" />
<glyph unicode="&#x146;" horiz-adv-x="537" d="M111 0h-40q1 89 18 175t39 184l8 136l49 10q0 -37 -6 -78t-16 -82h2q38 81 94 120.5t110 39.5q45 0 69 -25t24 -69q0 -31 -9 -77.5t-23 -107.5q-12 -54 -18.5 -89.5t-8.5 -66t-2 -70.5h-40q0 57 9.5 113t24.5 132q10 50 16 87.5t6 62.5q0 35 -14 54.5t-49 19.5 q-49 0 -92 -37t-76 -102t-53 -150t-22 -180zM147 -306q17 25 30.5 48t23.5 46h-2q-14 0 -21 9.5t-7 22.5q0 19 13.5 39t38.5 20q30 0 30 -32q0 -24 -13 -53t-33.5 -57.5t-42.5 -53.5z" />
<glyph unicode="&#x147;" horiz-adv-x="728" d="M612 906l10 -13q-39 -30 -72.5 -58t-65.5 -60l-44 -5q-20 30 -45 62t-54 61l16 13q29 -22 58 -46.5t55 -50.5q32 24 67.5 49t74.5 48zM395 384q28 -68 51.5 -122.5t42.5 -104.5t33 -106h1q4 24 8 46t10 52.5t16 78.5t25.5 123t39.5 187q10 44 15.5 78t9.5 69l46 10l4 -5 l-147 -690h-45q-32 78 -64.5 155.5t-64.5 155.5q-28 68 -50 120.5t-39.5 100.5t-33.5 102h-1q-11 -66 -23.5 -128t-26.5 -124l-81 -382h-42l114 538q10 44 15.5 78t9.5 69l48 10q33 -78 65.5 -156t63.5 -155z" />
<glyph unicode="&#x148;" horiz-adv-x="537" d="M466 750l11 -11q-35 -37 -68 -75t-65 -79l-44 -5q-16 42 -35.5 81.5t-42.5 77.5l15 11q27 -32 49.5 -63t44.5 -63q30 30 66 63.5t69 62.5zM111 0h-40q1 89 18 175t39 184l8 136l49 10q0 -37 -6 -78t-16 -82h2q38 81 94 120.5t110 39.5q45 0 69 -25t24 -69q0 -31 -9 -77.5 t-23 -107.5q-12 -54 -18.5 -89.5t-8.5 -66t-2 -70.5h-40q0 57 9.5 113t24.5 132q10 50 16 87.5t6 62.5q0 35 -14 54.5t-49 19.5q-49 0 -92 -37t-76 -102t-53 -150t-22 -180z" />
<glyph unicode="&#x149;" horiz-adv-x="606" d="M104 500q24 38 47.5 82.5t36.5 84.5q-14 0 -22.5 9.5t-8.5 22.5q0 23 17 40.5t39 17.5q30 0 30 -33q0 -19 -11.5 -48.5t-30 -63.5t-40 -66t-41.5 -56zM180 0h-40q1 89 18 175t39 184l8 136l49 10q0 -37 -6 -78t-16 -82h2q38 81 94 120.5t110 39.5q45 0 69 -25t24 -69 q0 -31 -9 -77.5t-23 -107.5q-12 -54 -18.5 -89.5t-8.5 -66t-2 -70.5h-40q0 57 9.5 113t24.5 132q10 50 16 87.5t6 62.5q0 35 -14 54.5t-49 19.5q-49 0 -92 -37t-76 -102t-53 -150t-22 -180z" />
<glyph unicode="&#x14a;" horiz-adv-x="728" d="M392 -182l-9 26q38 19 72 55t51 97q-31 76 -64.5 156.5t-65.5 158.5q-31 75 -53 128.5t-38.5 98.5t-31.5 96h-1q-11 -66 -23.5 -127t-26.5 -125l-81 -382h-42l114 538q9 44 15 75.5t10 71.5l48 10q18 -42 41 -97t46.5 -111.5t41.5 -102.5q29 -71 52.5 -126.5t42 -104.5 t32.5 -102h1q4 23 8 44.5t10 52t16 78.5t25.5 123.5t39.5 187.5q11 49 16 80t9 68l46 10l4 -5l-138 -647q-20 -92 -62.5 -145t-104.5 -80z" />
<glyph unicode="&#x14b;" horiz-adv-x="514" d="M111 0h-40q1 41 6 86t17 109.5t34 163.5l8 136l49 10q0 -37 -6 -78t-16 -82h2q38 81 94 120.5t109 39.5q57 0 80 -42t8 -113l-42 -199q-18 -84 -31 -138t-27 -90t-35 -64.5t-55 -61.5l-15 21q23 26 49.5 71t40.5 111l66 309q16 84 6 122t-58 38q-52 0 -95.5 -39 t-76 -105.5t-51.5 -150.5t-21 -174z" />
<glyph unicode="&#x14c;" horiz-adv-x="689" d="M346 817l8 39h254l-8 -39h-254zM630 448q0 -82 -25 -163t-70 -148t-107 -107t-137 -40q-88 0 -140.5 61.5t-52.5 179.5q0 66 16.5 132.5t47 126t73 106t94.5 73t110 26.5q88 0 139.5 -64t51.5 -183zM143 240q0 -99 40.5 -155.5t118.5 -56.5q65 0 117.5 37t89.5 98 t56.5 134.5t19.5 146.5q0 99 -38.5 156t-115.5 57q-64 0 -117 -37.5t-91.5 -99.5t-59 -135t-20.5 -145z" />
<glyph unicode="&#x14d;" horiz-adv-x="494" d="M197 646l7 34h264l-7 -34h-264zM436 337q0 -60 -17.5 -121t-50.5 -112.5t-78.5 -82.5t-101.5 -31q-61 0 -95 42t-34 127q0 62 18 123t51 111.5t78 81t100 30.5q61 0 95.5 -42t34.5 -126zM102 164q0 -65 23.5 -101.5t73.5 -36.5q45 0 81 28t61.5 73.5t38.5 99t13 104.5 q0 138 -97 138q-45 0 -81 -28t-61.5 -73.5t-38.5 -99t-13 -104.5z" />
<glyph unicode="&#x14e;" horiz-adv-x="689" d="M574 890l22 -3q-22 -48 -60 -75t-84 -27q-44 0 -70 27t-24 75l23 3q4 -29 26.5 -45.5t58.5 -16.5q33 0 62 17t46 45zM630 448q0 -82 -25 -163t-70 -148t-107 -107t-137 -40q-88 0 -140.5 61.5t-52.5 179.5q0 66 16.5 132.5t47 126t73 106t94.5 73t110 26.5 q88 0 139.5 -64t51.5 -183zM143 240q0 -99 40.5 -155.5t118.5 -56.5q65 0 117.5 37t89.5 98t56.5 134.5t19.5 146.5q0 99 -38.5 156t-115.5 57q-64 0 -117 -37.5t-91.5 -99.5t-59 -135t-20.5 -145z" />
<glyph unicode="&#x14f;" horiz-adv-x="494" d="M430 727l22 -3q-23 -58 -63 -90t-85 -32t-69.5 32t-20.5 90l23 3q2 -38 23 -60t58 -22q33 0 63 22.5t49 59.5zM436 337q0 -60 -17.5 -121t-50.5 -112.5t-78.5 -82.5t-101.5 -31q-61 0 -95 42t-34 127q0 62 18 123t51 111.5t78 81t100 30.5q61 0 95.5 -42t34.5 -126z M102 164q0 -65 23.5 -101.5t73.5 -36.5q45 0 81 28t61.5 73.5t38.5 99t13 104.5q0 138 -97 138q-45 0 -81 -28t-61.5 -73.5t-38.5 -99t-13 -104.5z" />
<glyph unicode="&#x150;" horiz-adv-x="689" d="M486 865l-3 -8q-46 -31 -93 -49.5t-98 -28.5l-3 17q45 20 90.5 45t82.5 55zM666 865l-3 -8q-46 -31 -93 -49.5t-98 -28.5l-3 17q45 20 90.5 45t82.5 55zM630 448q0 -82 -25 -163t-70 -148t-107 -107t-137 -40q-88 0 -140.5 61.5t-52.5 179.5q0 66 16.5 132.5t47 126 t73 106t94.5 73t110 26.5q88 0 139.5 -64t51.5 -183zM143 240q0 -99 40.5 -155.5t118.5 -56.5q65 0 117.5 37t89.5 98t56.5 134.5t19.5 146.5q0 99 -38.5 156t-115.5 57q-64 0 -117 -37.5t-91.5 -99.5t-59 -135t-20.5 -145z" />
<glyph unicode="&#x151;" horiz-adv-x="494" d="M385 742l1 -8q-81 -90 -189 -154l-7 13q44 35 87.5 77t76.5 85zM499 742l1 -8q-41 -46 -88.5 -84t-100.5 -70l-7 13q44 35 87.5 77t76.5 85zM436 337q0 -60 -17.5 -121t-50.5 -112.5t-78.5 -82.5t-101.5 -31q-61 0 -95 42t-34 127q0 62 18 123t51 111.5t78 81t100 30.5 q61 0 95.5 -42t34.5 -126zM102 164q0 -65 23.5 -101.5t73.5 -36.5q45 0 81 28t61.5 73.5t38.5 99t13 104.5q0 138 -97 138q-45 0 -81 -28t-61.5 -73.5t-38.5 -99t-13 -104.5z" />
<glyph unicode="&#x152;" horiz-adv-x="925" d="M652 460q0 -51 -9 -102l204 2l-9 -39l-203 2q-23 -94 -73.5 -169.5t-117.5 -117.5l386 3l-8 -39h-456q-35 -10 -71 -10q-88 0 -143.5 59.5t-55.5 171.5q0 93 29.5 178t80 151.5t115.5 105.5t136 39q35 0 65 -10h431l4 -5l-8 -34l-366 3q33 -30 51 -77.5t18 -111.5z M142 230q0 -94 43 -148t122 -54q60 0 114.5 34t96 93.5t65.5 136.5t24 164q0 92 -40.5 146.5t-117.5 54.5q-61 0 -116 -34.5t-98 -94.5t-68 -137t-25 -161z" />
<glyph unicode="&#x153;" horiz-adv-x="764" d="M681 119l18 -13q-31 -55 -80 -85.5t-99 -30.5q-53 0 -91.5 34t-48.5 99q-33 -58 -82 -95.5t-110 -37.5t-95 42t-34 127q0 62 18 123t51 111.5t78 81t100 30.5q54 0 87.5 -33.5t40.5 -99.5q35 58 84.5 95.5t105.5 37.5q47 0 76 -27t29 -75q0 -30 -14.5 -60t-49 -55 t-94 -42t-147.5 -21q-5 -28 -5 -53q0 -64 28.5 -105t80.5 -41q44 0 83 27.5t70 65.5zM102 164q0 -65 23.5 -101.5t73.5 -36.5q45 0 81 28t61.5 73.5t38.5 99t13 104.5q0 138 -97 138q-45 0 -81 -28t-61.5 -73.5t-38.5 -99t-13 -104.5zM615 469q-42 0 -79.5 -31t-65 -80.5 t-40.5 -103.5q79 5 129 21t78 38.5t38.5 46t10.5 42.5q0 30 -19.5 48.5t-51.5 18.5z" />
<glyph unicode="&#x154;" horiz-adv-x="571" d="M550 865l-3 -8q-57 -31 -116.5 -49.5t-124.5 -28.5l-3 17q59 20 117.5 45t105.5 55zM121 0h-42l115 538q9 44 14.5 78t9.5 69h140q92 0 143 -43t51 -115q0 -87 -55.5 -147.5t-142.5 -81.5l134 -298l-41 -10q-33 74 -66.5 148.5t-67.5 148.5h-131zM348 650h-88l-70 -328 h85q69 0 121 24.5t81 69.5t29 107q0 55 -37 91t-121 36z" />
<glyph unicode="&#x155;" horiz-adv-x="368" d="M375 736l1 -8q-42 -46 -89.5 -82.5t-104.5 -68.5l-7 13q44 37 88.5 79t75.5 83zM111 0h-40q0 54 10 121t27 146l20 92l8 136l49 10q0 -42 -7 -87.5t-18 -92.5h2q38 96 87 138t98 42q20 0 36 -5.5t26 -13.5l-25 -34q-23 14 -49 14q-36 0 -69 -28.5t-61 -77t-48.5 -109 t-32.5 -125.5t-13 -126z" />
<glyph unicode="&#x156;" horiz-adv-x="571" d="M121 0h-42l115 538q9 44 14.5 78t9.5 69h140q92 0 143 -43t51 -115q0 -87 -55.5 -147.5t-142.5 -81.5l134 -298l-41 -10q-33 74 -66.5 148.5t-67.5 148.5h-131zM348 650h-88l-70 -328h85q69 0 121 24.5t81 69.5t29 107q0 55 -37 91t-121 36zM148 -306q17 25 30.5 48 t23.5 46h-2q-14 0 -21 9.5t-7 22.5q0 19 13.5 39t38.5 20q30 0 30 -32q0 -24 -13 -53t-33.5 -57.5t-42.5 -53.5z" />
<glyph unicode="&#x157;" horiz-adv-x="368" d="M111 0h-40q0 54 10 121t27 146l20 92l8 136l49 10q0 -42 -7 -87.5t-18 -92.5h2q38 96 87 138t98 42q20 0 36 -5.5t26 -13.5l-25 -34q-23 14 -49 14q-36 0 -69 -28.5t-61 -77t-48.5 -109t-32.5 -125.5t-13 -126zM-4 -306q17 25 30.5 48t23.5 46h-2q-14 0 -21 9.5t-7 22.5 q0 19 13.5 39t38.5 20q30 0 30 -32q0 -24 -13 -53t-33.5 -57.5t-42.5 -53.5z" />
<glyph unicode="&#x158;" horiz-adv-x="571" d="M557 906l10 -13q-39 -30 -72.5 -58t-65.5 -60l-44 -5q-20 30 -45 62t-54 61l16 13q29 -22 58 -46.5t55 -50.5q32 24 67.5 49t74.5 48zM121 0h-42l115 538q9 44 14.5 78t9.5 69h140q92 0 143 -43t51 -115q0 -87 -55.5 -147.5t-142.5 -81.5l134 -298l-41 -10 q-33 74 -66.5 148.5t-67.5 148.5h-131zM348 650h-88l-70 -328h85q69 0 121 24.5t81 69.5t29 107q0 55 -37 91t-121 36z" />
<glyph unicode="&#x159;" horiz-adv-x="368" d="M394 750l11 -11q-35 -37 -68 -75t-65 -79l-44 -5q-16 42 -35.5 81.5t-42.5 77.5l15 11q27 -32 49.5 -63t44.5 -63q30 30 66 63.5t69 62.5zM111 0h-40q0 54 10 121t27 146l20 92l8 136l49 10q0 -42 -7 -87.5t-18 -92.5h2q38 96 87 138t98 42q20 0 36 -5.5t26 -13.5 l-25 -34q-23 14 -49 14q-36 0 -69 -28.5t-61 -77t-48.5 -109t-32.5 -125.5t-13 -126z" />
<glyph unicode="&#x15a;" horiz-adv-x="493" d="M496 865l-3 -8q-57 -31 -116.5 -49.5t-124.5 -28.5l-3 17q59 20 117.5 45t105.5 55zM417 190q0 -57 -31.5 -102.5t-86.5 -71.5t-128 -26q-34 0 -77 7.5t-81 27.5l17 43q36 -24 79 -32t71 -8q56 0 99.5 21t68.5 56.5t25 78.5q0 39 -18.5 65.5t-46.5 46t-57 35.5 q-30 18 -60 38.5t-49.5 50.5t-19.5 75q0 56 31 101t86 72t126 27q41 0 81 -9t65 -24l-17 -43q-31 23 -69 30.5t-67 7.5q-55 0 -98 -20t-68 -54t-25 -77q0 -38 19 -63.5t48.5 -45t61.5 -38.5q28 -16 55.5 -37.5t46.5 -53t19 -78.5z" />
<glyph unicode="&#x15b;" horiz-adv-x="425" d="M360 736l1 -8q-42 -46 -89.5 -82.5t-104.5 -68.5l-7 13q44 37 88.5 79t75.5 83zM376 479l-17 -41q-21 14 -46.5 22.5t-56.5 8.5q-55 0 -89.5 -28.5t-34.5 -70.5q0 -34 21 -55t51.5 -37t61 -33.5t51.5 -42.5t21 -66t-23.5 -74t-64.5 -52.5t-94 -19.5q-30 0 -64 7.5 t-63 24.5l17 41q26 -19 60 -28t60 -9q53 0 90 29.5t37 72.5q0 33 -21 53.5t-52 36t-61.5 32.5t-51.5 42t-21 66q0 44 25 77t66.5 51.5t90.5 18.5q33 0 60.5 -7.5t47.5 -18.5z" />
<glyph unicode="&#x15c;" horiz-adv-x="493" d="M242 770l-10 13q39 30 72.5 58.5t65.5 59.5l44 5q20 -30 45.5 -62t53.5 -61l-16 -13q-29 22 -58 46.5t-55 50.5q-32 -24 -67.5 -49t-74.5 -48zM417 190q0 -57 -31.5 -102.5t-86.5 -71.5t-128 -26q-34 0 -77 7.5t-81 27.5l17 43q36 -24 79 -32t71 -8q56 0 99.5 21 t68.5 56.5t25 78.5q0 39 -18.5 65.5t-46.5 46t-57 35.5q-30 18 -60 38.5t-49.5 50.5t-19.5 75q0 56 31 101t86 72t126 27q41 0 81 -9t65 -24l-17 -43q-31 23 -69 30.5t-67 7.5q-55 0 -98 -20t-68 -54t-25 -77q0 -38 19 -63.5t48.5 -45t61.5 -38.5q28 -16 55.5 -37.5 t46.5 -53t19 -78.5z" />
<glyph unicode="&#x15d;" horiz-adv-x="425" d="M145 579l-11 11q35 38 68.5 75.5t64.5 78.5l44 5q17 -42 36.5 -81.5t41.5 -77.5l-15 -11q-27 32 -49.5 63t-44.5 63q-30 -30 -66 -63.5t-69 -62.5zM376 479l-17 -41q-21 14 -46.5 22.5t-56.5 8.5q-55 0 -89.5 -28.5t-34.5 -70.5q0 -34 21 -55t51.5 -37t61 -33.5 t51.5 -42.5t21 -66t-23.5 -74t-64.5 -52.5t-94 -19.5q-30 0 -64 7.5t-63 24.5l17 41q26 -19 60 -28t60 -9q53 0 90 29.5t37 72.5q0 33 -21 53.5t-52 36t-61.5 32.5t-51.5 42t-21 66q0 44 25 77t66.5 51.5t90.5 18.5q33 0 60.5 -7.5t47.5 -18.5z" />
<glyph unicode="&#x15e;" horiz-adv-x="493" d="M250 -115q0 -26 -22.5 -46.5t-56 -33.5t-65.5 -17l-1 22q47 11 74.5 26.5t27.5 39.5q0 17 -17.5 24t-37.5 9l-5 11l38 70h-14q-34 0 -77 7.5t-81 27.5l17 43q36 -24 79 -32t71 -8q56 0 99.5 21t68.5 56.5t25 78.5q0 39 -18.5 65.5t-46.5 46t-57 35.5q-30 18 -60 38.5 t-49.5 50.5t-19.5 75q0 56 31 101t86 72t126 27q41 0 81 -9t65 -24l-17 -43q-31 23 -69 30.5t-67 7.5q-55 0 -98 -20t-68 -54t-25 -77q0 -38 19 -63.5t48.5 -45t61.5 -38.5q28 -16 55.5 -37.5t46.5 -53t19 -78.5q0 -51 -25 -93t-70.5 -69t-105.5 -35l-30 -55q29 -4 46.5 -17 t17.5 -36z" />
<glyph unicode="&#x15f;" horiz-adv-x="425" d="M234 -115q0 -26 -22.5 -46.5t-56 -33.5t-65.5 -17l-1 22q47 11 74.5 26.5t27.5 39.5q0 17 -17.5 24t-37.5 9l-5 11l38 70h-13q-30 0 -64 7.5t-63 24.5l17 41q26 -19 60 -28t60 -9q53 0 90 29.5t37 72.5q0 33 -21 53.5t-52 36t-61.5 32.5t-51.5 42t-21 66q0 44 25 77 t66.5 51.5t90.5 18.5q33 0 60.5 -7.5t47.5 -18.5l-17 -41q-21 14 -46.5 22.5t-56.5 8.5q-55 0 -89.5 -28.5t-34.5 -70.5q0 -34 21 -55t51.5 -37t61 -33.5t51.5 -42.5t21 -66q0 -52 -38 -91.5t-99 -50.5l-31 -56q29 -4 46.5 -17t17.5 -36z" />
<glyph unicode="&#x160;" horiz-adv-x="493" d="M503 906l10 -13q-39 -30 -72.5 -58t-65.5 -60l-44 -5q-20 30 -45 62t-54 61l16 13q29 -22 58 -46.5t55 -50.5q32 24 67.5 49t74.5 48zM417 190q0 -57 -31.5 -102.5t-86.5 -71.5t-128 -26q-34 0 -77 7.5t-81 27.5l17 43q36 -24 79 -32t71 -8q56 0 99.5 21t68.5 56.5 t25 78.5q0 39 -18.5 65.5t-46.5 46t-57 35.5q-30 18 -60 38.5t-49.5 50.5t-19.5 75q0 56 31 101t86 72t126 27q41 0 81 -9t65 -24l-17 -43q-31 23 -69 30.5t-67 7.5q-55 0 -98 -20t-68 -54t-25 -77q0 -38 19 -63.5t48.5 -45t61.5 -38.5q28 -16 55.5 -37.5t46.5 -53t19 -78.5 z" />
<glyph unicode="&#x161;" horiz-adv-x="425" d="M379 750l11 -11q-35 -37 -68 -75t-65 -79l-44 -5q-16 42 -35.5 81.5t-42.5 77.5l15 11q27 -32 49.5 -63t44.5 -63q30 30 66 63.5t69 62.5zM376 479l-17 -41q-21 14 -46.5 22.5t-56.5 8.5q-55 0 -89.5 -28.5t-34.5 -70.5q0 -34 21 -55t51.5 -37t61 -33.5t51.5 -42.5 t21 -66t-23.5 -74t-64.5 -52.5t-94 -19.5q-30 0 -64 7.5t-63 24.5l17 41q26 -19 60 -28t60 -9q53 0 90 29.5t37 72.5q0 33 -21 53.5t-52 36t-61.5 32.5t-51.5 42t-21 66q0 44 25 77t66.5 51.5t90.5 18.5q33 0 60.5 -7.5t47.5 -18.5z" />
<glyph unicode="&#x162;" horiz-adv-x="491" d="M214 0h-1l-34 -62q29 -4 46.5 -17t17.5 -36q0 -26 -22.5 -46.5t-56 -33.5t-65.5 -17l-1 22q47 11 74.5 26.5t27.5 39.5q0 17 -17.5 24t-37.5 9l-5 11l43 80h-11l139 650q-54 0 -108 -1.5t-109 -3.5l12 40h465l-6 -40q-53 2 -106 3.5t-106 1.5z" />
<glyph unicode="&#x163;" horiz-adv-x="338" d="M204 -115q0 -26 -22.5 -46.5t-56 -33.5t-65.5 -17l-1 22q47 11 74.5 26.5t27.5 39.5q0 17 -17.5 24t-37.5 9l-5 11l39 72q-31 5 -47.5 26t-16.5 60q0 11 1.5 23t5.5 34t12.5 61.5t22.5 104t34 161.5h-76l6 26l77 7l33 112l30 4l4 -5l-27 -111h135l4 -5l-8 -28h-138 q-20 -92 -33 -153.5t-21 -99.5t-12 -59.5t-5.5 -34t-1.5 -22.5q0 -37 16 -52t46 -15q23 0 45 7t41 18l2 -33q-21 -12 -47.5 -20t-52.5 -8l-29 -52q29 -4 46.5 -17t17.5 -36z" />
<glyph unicode="&#x164;" horiz-adv-x="491" d="M502 906l10 -13q-39 -30 -72.5 -58t-65.5 -60l-44 -5q-20 30 -45 62t-54 61l16 13q29 -22 58 -46.5t55 -50.5q32 24 67.5 49t74.5 48zM214 0h-42l139 650q-54 0 -108 -1.5t-109 -3.5l12 40h465l-6 -40q-53 2 -106 3.5t-106 1.5z" />
<glyph unicode="&#x165;" horiz-adv-x="338" d="M432 744l5 -6q-16 -56 -44 -109t-65 -103l-15 6q27 56 46.5 107.5t29.5 98.5zM330 462h-138q-20 -92 -33 -153.5t-21 -99.5t-12 -59.5t-5.5 -34t-1.5 -22.5q0 -37 16 -52t46 -15q23 0 45 7t41 18l2 -33q-21 -12 -48 -20t-56 -8q-43 0 -66 21t-23 67q0 11 1.5 23t5.5 34 t12.5 61.5t22.5 104t34 161.5h-76l6 26l77 7l33 112l30 4l4 -5l-27 -111h135l4 -5z" />
<glyph unicode="&#x166;" horiz-adv-x="491" d="M214 0h-42l70 328h-159l6 30h159l63 292q-54 0 -108 -1.5t-109 -3.5l12 40h465l-6 -40q-53 2 -106 3.5t-106 1.5l-63 -292h159l-6 -30h-159z" />
<glyph unicode="&#x167;" horiz-adv-x="338" d="M296 293h-140l-19.5 -91t-11 -55.5t-5 -32t-1.5 -21.5q0 -37 16 -52t46 -15q23 0 45 7t41 18l2 -33q-21 -12 -48 -20t-56 -8q-43 0 -66 21t-23 67q0 10 1.5 22t5.5 33.5t12 59t21 100.5h-72l4 30h75q6 30 13.5 65t15.5 74h-76l6 26l77 7l33 112l30 4l4 -5l-27 -111h135 l4 -5l-8 -28h-138q-9 -41 -16.5 -75.5t-13.5 -63.5h138z" />
<glyph unicode="&#x168;" horiz-adv-x="634" d="M391 890q28 0 48 -14t39 -28t42 -14q25 0 45.5 17.5t36.5 39.5l15 -3q-12 -34 -42 -63t-68 -29q-28 0 -48.5 14t-39 28t-42.5 14t-44.5 -17t-37.5 -40l-15 3q8 20 23.5 41t38 36t49.5 15zM87 157q0 26 9 73.5t22 107t27 122.5t24.5 122t13.5 105l54 8v-1 q-31 -144 -51 -236.5t-31.5 -146.5t-17 -81.5t-7 -40t-1.5 -22.5q0 -67 41.5 -102t105.5 -35q50 0 95 21t78 62.5t46 103.5q23 107 38.5 178.5t25 117t14.5 75t8 52t4 47.5l54 8l-101 -475q-16 -76 -57.5 -127.5t-98.5 -77t-120 -25.5q-76 0 -125.5 42t-49.5 125z" />
<glyph unicode="&#x169;" horiz-adv-x="510" d="M274 710q25 0 43.5 -14t36 -28t37.5 -14q21 0 40 17.5t35 39.5l15 -3q-8 -21 -23.5 -42.5t-36 -35.5t-43.5 -14q-25 0 -44 14t-36 28t-38 14q-20 0 -39 -17t-36 -40l-15 3q9 20 24 41t35.5 36t44.5 15zM76 145l45 214l8 136l49 10q0 -73 -15.5 -145.5t-30.5 -151.5 q-11 -59 -13.5 -99.5t10.5 -61.5t49 -21q44 0 81 29.5t66 81t49 116.5q11 50 20.5 98t13.5 93q2 26 3 51l40 10q0 -75 -18 -157.5t-34 -165.5q-9 -46 -15.5 -92t-6.5 -90h-40q0 33 3.5 67.5t9.5 69.5q-34 -74 -84.5 -110.5t-99.5 -36.5q-55 0 -80 42t-10 113z" />
<glyph unicode="&#x16a;" horiz-adv-x="634" d="M316 817l8 39h254l-8 -39h-254zM87 157q0 26 9 73.5t22 107t27 122.5t24.5 122t13.5 105l54 8v-1q-31 -144 -51 -236.5t-31.5 -146.5t-17 -81.5t-7 -40t-1.5 -22.5q0 -67 41.5 -102t105.5 -35q50 0 95 21t78 62.5t46 103.5q23 107 38.5 178.5t25 117t14.5 75t8 52t4 47.5 l54 8l-101 -475q-16 -76 -57.5 -127.5t-98.5 -77t-120 -25.5q-76 0 -125.5 42t-49.5 125z" />
<glyph unicode="&#x16b;" horiz-adv-x="510" d="M194 646l7 34h264l-7 -34h-264zM76 145l45 214l8 136l49 10q0 -73 -15.5 -145.5t-30.5 -151.5q-11 -59 -13.5 -99.5t10.5 -61.5t49 -21q44 0 81 29.5t66 81t49 116.5q11 50 20.5 98t13.5 93q2 26 3 51l40 10q0 -75 -18 -157.5t-34 -165.5q-9 -46 -15.5 -92t-6.5 -90h-40 q0 33 3.5 67.5t9.5 69.5q-34 -74 -84.5 -110.5t-99.5 -36.5q-55 0 -80 42t-10 113z" />
<glyph unicode="&#x16c;" horiz-adv-x="634" d="M544 890l22 -3q-22 -48 -60 -75t-84 -27q-44 0 -70 27t-24 75l23 3q4 -29 26.5 -45.5t58.5 -16.5q33 0 62 17t46 45zM87 157q0 26 9 73.5t22 107t27 122.5t24.5 122t13.5 105l54 8v-1q-31 -144 -51 -236.5t-31.5 -146.5t-17 -81.5t-7 -40t-1.5 -22.5q0 -67 41.5 -102 t105.5 -35q50 0 95 21t78 62.5t46 103.5q23 107 38.5 178.5t25 117t14.5 75t8 52t4 47.5l54 8l-101 -475q-16 -76 -57.5 -127.5t-98.5 -77t-120 -25.5q-76 0 -125.5 42t-49.5 125z" />
<glyph unicode="&#x16d;" horiz-adv-x="510" d="M427 727l22 -3q-23 -58 -63 -90t-85 -32t-69.5 32t-20.5 90l23 3q2 -38 23 -60t58 -22q33 0 63 22.5t49 59.5zM76 145l45 214l8 136l49 10q0 -73 -15.5 -145.5t-30.5 -151.5q-11 -59 -13.5 -99.5t10.5 -61.5t49 -21q44 0 81 29.5t66 81t49 116.5q11 50 20.5 98t13.5 93 q2 26 3 51l40 10q0 -75 -18 -157.5t-34 -165.5q-9 -46 -15.5 -92t-6.5 -90h-40q0 33 3.5 67.5t9.5 69.5q-34 -74 -84.5 -110.5t-99.5 -36.5q-55 0 -80 42t-10 113z" />
<glyph unicode="&#x16e;" horiz-adv-x="634" d="M527 852q0 -23 -14.5 -44.5t-37 -34.5t-47.5 -13t-43.5 15.5t-18.5 40.5q0 23 14.5 43.5t37.5 33.5t48 13q28 0 44.5 -15.5t16.5 -38.5zM401 821q0 -16 9.5 -25t25.5 -9q23 0 39.5 18t16.5 41q0 14 -9 23.5t-26 9.5q-22 0 -39 -17.5t-17 -40.5zM87 157q0 26 9 73.5 t22 107t27 122.5t24.5 122t13.5 105l54 8v-1q-31 -144 -51 -236.5t-31.5 -146.5t-17 -81.5t-7 -40t-1.5 -22.5q0 -67 41.5 -102t105.5 -35q50 0 95 21t78 62.5t46 103.5q23 107 38.5 178.5t25 117t14.5 75t8 52t4 47.5l54 8l-101 -475q-16 -76 -57.5 -127.5t-98.5 -77 t-120 -25.5q-76 0 -125.5 42t-49.5 125z" />
<glyph unicode="&#x16f;" horiz-adv-x="510" d="M407 666q0 -23 -14.5 -44.5t-37 -34.5t-47.5 -13t-43.5 15.5t-18.5 40.5q0 23 14.5 43.5t37.5 33.5t48 13q28 0 44.5 -15.5t16.5 -38.5zM281 635q0 -16 9.5 -25t25.5 -9q23 0 39.5 18t16.5 41q0 14 -9 23.5t-26 9.5q-22 0 -39 -17.5t-17 -40.5zM76 145l45 214l8 136 l49 10q0 -73 -15.5 -145.5t-30.5 -151.5q-11 -59 -13.5 -99.5t10.5 -61.5t49 -21q44 0 81 29.5t66 81t49 116.5q11 50 20.5 98t13.5 93q2 26 3 51l40 10q0 -75 -18 -157.5t-34 -165.5q-9 -46 -15.5 -92t-6.5 -90h-40q0 33 3.5 67.5t9.5 69.5q-34 -74 -84.5 -110.5 t-99.5 -36.5q-55 0 -80 42t-10 113z" />
<glyph unicode="&#x170;" horiz-adv-x="634" d="M456 865l-3 -8q-46 -31 -93 -49.5t-98 -28.5l-3 17q45 20 90.5 45t82.5 55zM636 865l-3 -8q-46 -31 -93 -49.5t-98 -28.5l-3 17q45 20 90.5 45t82.5 55zM87 157q0 26 9 73.5t22 107t27 122.5t24.5 122t13.5 105l54 8v-1q-31 -144 -51 -236.5t-31.5 -146.5t-17 -81.5 t-7 -40t-1.5 -22.5q0 -67 41.5 -102t105.5 -35q50 0 95 21t78 62.5t46 103.5q23 107 38.5 178.5t25 117t14.5 75t8 52t4 47.5l54 8l-101 -475q-16 -76 -57.5 -127.5t-98.5 -77t-120 -25.5q-76 0 -125.5 42t-49.5 125z" />
<glyph unicode="&#x171;" horiz-adv-x="510" d="M382 742l1 -8q-81 -90 -189 -154l-7 13q44 35 87.5 77t76.5 85zM496 742l1 -8q-41 -46 -88.5 -84t-100.5 -70l-7 13q44 35 87.5 77t76.5 85zM76 145l45 214l8 136l49 10q0 -73 -15.5 -145.5t-30.5 -151.5q-11 -59 -13.5 -99.5t10.5 -61.5t49 -21q44 0 81 29.5t66 81 t49 116.5q11 50 20.5 98t13.5 93q2 26 3 51l40 10q0 -75 -18 -157.5t-34 -165.5q-9 -46 -15.5 -92t-6.5 -90h-40q0 33 3.5 67.5t9.5 69.5q-34 -74 -84.5 -110.5t-99.5 -36.5q-55 0 -80 42t-10 113z" />
<glyph unicode="&#x172;" horiz-adv-x="634" d="M87 157q0 26 9 73.5t22 107t27 122.5t24.5 122t13.5 105l54 8v-1q-31 -144 -51 -236.5t-31.5 -146.5t-17 -81.5t-7 -40t-1.5 -22.5q0 -67 41.5 -102t105.5 -35q50 0 95 21t78 62.5t46 103.5q23 107 38.5 178.5t25 117t14.5 75t8 52t4 47.5l54 8l-101 -475 q-17 -81 -63 -133.5t-106 -76.5q-65 -32 -105 -70t-40 -78q0 -19 11.5 -30t34.5 -11q11 0 25.5 2.5t33.5 9.5l4 -22q-16 -11 -37.5 -17t-41.5 -6q-35 0 -55 15.5t-20 44.5q0 77 114 144q-15 -2 -31 -2q-76 0 -125.5 42t-49.5 125z" />
<glyph unicode="&#x173;" horiz-adv-x="510" d="M76 145l45 214l8 136l49 10q0 -73 -15.5 -145.5t-30.5 -151.5q-11 -59 -13.5 -99.5t10.5 -61.5t49 -21q44 0 81 29.5t66 81t49 116.5q11 50 20.5 98t13.5 93q2 26 3 51l40 10q0 -75 -18 -157.5t-34 -165.5q-9 -46 -15.5 -92t-6.5 -90q-61 -31 -100 -67.5t-39 -74.5 q0 -37 46 -37q11 0 25.5 2.5t33.5 9.5l4 -22q-16 -11 -37.5 -17t-41.5 -6q-35 0 -55 14.5t-20 41.5q0 41 37 81t107 75q0 34 3.5 68t9.5 69q-34 -74 -84.5 -110.5t-99.5 -36.5q-55 0 -80 42t-10 113z" />
<glyph unicode="&#x174;" horiz-adv-x="956" d="M473 770l-10 13q39 30 72.5 58.5t65.5 59.5l44 5q20 -30 45.5 -62t53.5 -61l-16 -13q-29 22 -58 46.5t-55 50.5q-32 -24 -67.5 -49t-74.5 -48zM197 -5l-78 695l41 5l48 -428q8 -61 12 -112.5t2 -102.5q20 51 53 115.5t64 122.5l215 401l39 4l48 -428q8 -61 12 -112.5 t2 -102.5q20 51 52.5 114t63.5 121l218 408l31 -5l4 -5l-369 -690h-25l-55 492q-4 35 -7.5 71.5t-5.5 79.5h-1q-19 -43 -38.5 -79.5t-38.5 -71.5l-262 -492h-25z" />
<glyph unicode="&#x175;" horiz-adv-x="606" d="M249 579l-11 11q35 38 68.5 75.5t64.5 78.5l44 5q17 -42 36.5 -81.5t41.5 -77.5l-15 -11q-27 32 -49.5 63t-44.5 63q-30 -30 -66 -63.5t-69 -62.5zM595 505q18 0 18 -18q0 -33 -16.5 -89t-46.5 -124t-69.5 -139t-86.5 -135h-40q2 115 -2 218t-12 199h-1 q-13 -62 -43 -134.5t-70 -145.5t-86 -137h-40q3 149 -6 272t-26 223l41 7q16 -86 26 -197t7 -250h1q71 110 119 225t59 215h44q15 -85 24.5 -194.5t6.5 -245.5h1q48 73 85.5 150t62 153t31.5 143q5 2 10.5 3t8.5 1z" />
<glyph unicode="&#x176;" horiz-adv-x="524" d="M257 770l-10 13q39 30 72.5 58.5t65.5 59.5l44 5q20 -30 45.5 -62t53.5 -61l-16 -13q-29 22 -58 46.5t-55 50.5q-32 -24 -67.5 -49t-74.5 -48zM243 256l-124 435l43 4l74 -260q8 -32 20 -72t15 -78h1q20 38 49.5 79t51.5 73l182 258l33 -5l4 -5l-308 -433l-54 -252h-42z " />
<glyph unicode="&#x177;" horiz-adv-x="398" d="M149 579l-11 11q35 38 68.5 75.5t64.5 78.5l44 5q17 -42 36.5 -81.5t41.5 -77.5l-15 -11q-27 32 -49.5 63t-44.5 63q-30 -30 -66 -63.5t-69 -62.5zM387 505q18 0 18 -18q0 -35 -20 -92.5t-54.5 -126.5t-79.5 -142t-95 -141t-101 -122t-98 -86t-85 -32q-37 0 -37 27 q0 7 2.5 13t5.5 10q11 -1 21 -2t16 -1q33 0 66.5 20t66 52t61.5 68.5t52 69.5q0 133 -15 256t-43 237l40 10q30 -110 44.5 -217t14.5 -228h1q49 72 92 148t72 151t36 142q5 2 10.5 3t8.5 1z" />
<glyph unicode="&#x178;" horiz-adv-x="524" d="M522 849q0 -22 -15 -39.5t-35 -17.5q-15 0 -22.5 9t-7.5 21q0 20 16 37.5t35 17.5q14 0 21.5 -8t7.5 -20zM332 849q0 -22 -15 -39.5t-35 -17.5q-15 0 -22.5 9t-7.5 21q0 20 16 37.5t35 17.5q14 0 21.5 -8t7.5 -20zM243 256l-124 435l43 4l74 -260q8 -32 20 -72t15 -78h1 q20 38 49.5 79t51.5 73l182 258l33 -5l4 -5l-308 -433l-54 -252h-42z" />
<glyph unicode="&#x179;" horiz-adv-x="507" d="M503 865l-3 -8q-57 -31 -116.5 -49.5t-124.5 -28.5l-3 17q59 20 117.5 45t105.5 55zM-16 0l-1 25l522 625l-379 -3l11 38h417l4 -25l-522 -625l397 4l-11 -39h-438z" />
<glyph unicode="&#x17a;" horiz-adv-x="392" d="M332 736l1 -8q-42 -46 -89.5 -82.5t-104.5 -68.5l-7 13q44 37 88.5 79t75.5 83zM-1 -10l-18 23q81 92 142.5 164t108.5 133t86 121q-51 23 -92.5 30.5t-61.5 7.5q-27 0 -50.5 -12.5t-46.5 -45.5l-21 8q24 53 53 69.5t67 16.5q35 0 76 -12t91 -38q15 25 29 50q14 0 21 -5 t7 -12q0 -13 -19.5 -45t-53 -77.5t-77 -99.5t-92.5 -111t-98 -112q11 3 25 3q22 0 49 -5t53.5 -10t46.5 -5q26 0 50 13t51 48l21 -8q-28 -55 -58 -72t-71 -17q-45 0 -91 10t-82 10q-16 0 -25 -4t-20 -16z" />
<glyph unicode="&#x17b;" horiz-adv-x="507" d="M422 857q0 -22 -15 -38t-36 -16q-16 0 -24 8t-8 21q0 20 16 36.5t36 16.5q16 0 23.5 -8t7.5 -20zM-16 0l-1 25l522 625l-379 -3l11 38h417l4 -25l-522 -625l397 4l-11 -39h-438z" />
<glyph unicode="&#x17c;" horiz-adv-x="392" d="M272 682q0 -24 -14.5 -42.5t-34.5 -18.5q-13 0 -20 9t-7 21q0 23 15.5 41.5t33.5 18.5q14 0 20.5 -8t6.5 -21zM-1 -10l-18 23q81 92 142.5 164t108.5 133t86 121q-51 23 -92.5 30.5t-61.5 7.5q-27 0 -50.5 -12.5t-46.5 -45.5l-21 8q24 53 53 69.5t67 16.5q35 0 76 -12 t91 -38q15 25 29 50q14 0 21 -5t7 -12q0 -13 -19.5 -45t-53 -77.5t-77 -99.5t-92.5 -111t-98 -112q11 3 25 3q22 0 49 -5t53.5 -10t46.5 -5q26 0 50 13t51 48l21 -8q-28 -55 -58 -72t-71 -17q-45 0 -91 10t-82 10q-16 0 -25 -4t-20 -16z" />
<glyph unicode="&#x17d;" horiz-adv-x="507" d="M510 906l10 -13q-39 -30 -72.5 -58t-65.5 -60l-44 -5q-20 30 -45 62t-54 61l16 13q29 -22 58 -46.5t55 -50.5q32 24 67.5 49t74.5 48zM-16 0l-1 25l522 625l-379 -3l11 38h417l4 -25l-522 -625l397 4l-11 -39h-438z" />
<glyph unicode="&#x17e;" horiz-adv-x="392" d="M351 750l11 -11q-35 -37 -68 -75t-65 -79l-44 -5q-16 42 -35.5 81.5t-42.5 77.5l15 11q27 -32 49.5 -63t44.5 -63q30 30 66 63.5t69 62.5zM-1 -10l-18 23q81 92 142.5 164t108.5 133t86 121q-51 23 -92.5 30.5t-61.5 7.5q-27 0 -50.5 -12.5t-46.5 -45.5l-21 8 q24 53 53 69.5t67 16.5q35 0 76 -12t91 -38q15 25 29 50q14 0 21 -5t7 -12q0 -13 -19.5 -45t-53 -77.5t-77 -99.5t-92.5 -111t-98 -112q11 3 25 3q22 0 49 -5t53.5 -10t46.5 -5q26 0 50 13t51 48l21 -8q-28 -55 -58 -72t-71 -17q-45 0 -91 10t-82 10q-16 0 -25 -4t-20 -16z " />
<glyph unicode="&#x18f;" horiz-adv-x="655" d="M124 366l19 18h401q2 22 2 45q0 122 -46.5 175t-122.5 53q-47 0 -91 -15.5t-81 -37.5l4 38q26 17 74.5 35t106.5 18q94 0 148.5 -62t54.5 -194q0 -91 -26 -172.5t-71.5 -143.5t-106.5 -97.5t-130 -35.5q-83 0 -128.5 51.5t-45.5 142.5q0 58 14.5 108t24.5 74zM540 351 l-378 -7q-12 -28 -21.5 -68.5t-9.5 -82.5q0 -79 36.5 -122t102.5 -43q69 0 126.5 44t96 119.5t49.5 168.5z" />
<glyph unicode="&#x192;" horiz-adv-x="419" d="M176 298l-112 2l7 27l113 7h1l22 100q17 76 41.5 135t64 92.5t99.5 33.5q26 0 51.5 -6.5t45.5 -19.5l-22 -40q-14 12 -36 21t-42 9q-39 0 -68 -20.5t-51.5 -71.5t-43.5 -143l-20 -90h181l4 -5l-12 -31h-181l-78 -352q-6 -27 -16.5 -61t-29.5 -66t-51 -53t-81 -21 q-55 0 -93 26l22 40q13 -12 34 -21t47 -9q44 0 68 25.5t37 64t21 76.5l79 351h-1z" />
<glyph unicode="&#x19d;" horiz-adv-x="698" d="M-67 -182l-9 26q43 21 80 69t54 130l106 495q9 39 14.5 75.5t9.5 71.5l48 10q18 -42 41 -97t46.5 -111.5t41.5 -102.5q28 -68 51.5 -124t42.5 -106t33 -103h1q4 23 8 44.5t10 52t16 78.5t25.5 123t39.5 187q10 45 15.5 79.5t9.5 69.5l46 10l4 -5l-147 -690h-45 q-32 78 -64.5 157t-64.5 155q-28 68 -50 120t-39.5 100t-33.5 102h-1q-11 -66 -24 -129t-26 -123l-72 -339q-20 -93 -62.5 -145.5t-104.5 -79.5z" />
<glyph unicode="&#x1cd;" horiz-adv-x="589" d="M551 906l10 -13q-39 -30 -72.5 -58t-65.5 -60l-44 -5q-20 30 -45 62t-54 61l16 13q29 -22 58 -46.5t55 -50.5q32 24 67.5 49t74.5 48zM13 0h-41l344 592q16 27 31 53.5t25 46.5l28 3l4 -5l107 -690h-44l-35 222h-290zM267 437l-104 -179h264l-28 179q-7 50 -14 100.5 t-8 99.5h-1q-22 -49 -51 -99.5t-58 -100.5z" />
<glyph unicode="&#x1ce;" horiz-adv-x="506" d="M472 750l11 -11q-35 -37 -68 -75t-65 -79l-44 -5q-16 42 -35.5 81.5t-42.5 77.5l15 11q27 -32 49.5 -63t44.5 -63q30 30 66 63.5t69 62.5zM52 132q0 68 23.5 134t65 120t97.5 86.5t122 32.5q19 0 47 -3.5t56 -11.5l-42 -173q-19 -82 -33.5 -155.5t-14.5 -161.5h-40 q0 37 2.5 70.5t9 71.5t17.5 90q-18 -39 -42 -81t-52 -79t-59.5 -59.5t-65.5 -22.5q-37 0 -64 33.5t-27 108.5zM95 137q0 -52 15.5 -81.5t44.5 -29.5t60.5 28.5t61 74t55 97t43.5 98.5t26 78q4 13 7 26.5t7 28.5q-21 6 -42 9t-36 3q-48 0 -91.5 -29t-77.5 -77t-53.5 -107 t-19.5 -119z" />
<glyph unicode="&#x1cf;" horiz-adv-x="299" d="M406 906l10 -13q-39 -30 -72.5 -58t-65.5 -60l-44 -5q-20 30 -45 62t-54 61l16 13q29 -22 58 -46.5t55 -50.5q32 24 67.5 49t74.5 48zM121 0h-42l114 538q10 44 15.5 78t9.5 69l46 10l4 -5z" />
<glyph unicode="&#x1d0;" horiz-adv-x="241" d="M289 755l8 -10q-30 -42 -58 -84.5t-45 -69.5l-44 -5q-10 39 -22 79.5t-26 79.5l12 10q19 -29 35.5 -59.5t31.5 -61.5q27 32 53.5 62.5t54.5 58.5zM111 0h-40q0 54 10 121t27 146l20 92l8 136l49 10q0 -56 -11 -119t-26 -129t-26 -131.5t-11 -125.5z" />
<glyph unicode="&#x1d1;" horiz-adv-x="689" d="M608 906l10 -13q-39 -30 -72.5 -58t-65.5 -60l-44 -5q-20 30 -45 62t-54 61l16 13q29 -22 58 -46.5t55 -50.5q32 24 67.5 49t74.5 48zM630 448q0 -82 -25 -163t-70 -148t-107 -107t-137 -40q-88 0 -140.5 61.5t-52.5 179.5q0 66 16.5 132.5t47 126t73 106t94.5 73 t110 26.5q88 0 139.5 -64t51.5 -183zM143 240q0 -99 40.5 -155.5t118.5 -56.5q65 0 117.5 37t89.5 98t56.5 134.5t19.5 146.5q0 99 -38.5 156t-115.5 57q-64 0 -117 -37.5t-91.5 -99.5t-59 -135t-20.5 -145z" />
<glyph unicode="&#x1d2;" horiz-adv-x="494" d="M450 750l11 -11q-35 -37 -68 -75t-65 -79l-44 -5q-16 42 -35.5 81.5t-42.5 77.5l15 11q27 -32 49.5 -63t44.5 -63q30 30 66 63.5t69 62.5zM436 337q0 -60 -17.5 -121t-50.5 -112.5t-78.5 -82.5t-101.5 -31q-61 0 -95 42t-34 127q0 62 18 123t51 111.5t78 81t100 30.5 q61 0 95.5 -42t34.5 -126zM102 164q0 -65 23.5 -101.5t73.5 -36.5q45 0 81 28t61.5 73.5t38.5 99t13 104.5q0 138 -97 138q-45 0 -81 -28t-61.5 -73.5t-38.5 -99t-13 -104.5z" />
<glyph unicode="&#x1d3;" horiz-adv-x="634" d="M578 906l10 -13q-39 -30 -72.5 -58t-65.5 -60l-44 -5q-20 30 -45 62t-54 61l16 13q29 -22 58 -46.5t55 -50.5q32 24 67.5 49t74.5 48zM87 157q0 26 9 73.5t22 107t27 122.5t24.5 122t13.5 105l54 8v-1q-31 -144 -51 -236.5t-31.5 -146.5t-17 -81.5t-7 -40t-1.5 -22.5 q0 -67 41.5 -102t105.5 -35q50 0 95 21t78 62.5t46 103.5q23 107 38.5 178.5t25 117t14.5 75t8 52t4 47.5l54 8l-101 -475q-16 -76 -57.5 -127.5t-98.5 -77t-120 -25.5q-76 0 -125.5 42t-49.5 125z" />
<glyph unicode="&#x1d4;" horiz-adv-x="510" d="M447 750l11 -11q-35 -37 -68 -75t-65 -79l-44 -5q-16 42 -35.5 81.5t-42.5 77.5l15 11q27 -32 49.5 -63t44.5 -63q30 30 66 63.5t69 62.5zM76 145l45 214l8 136l49 10q0 -73 -15.5 -145.5t-30.5 -151.5q-11 -59 -13.5 -99.5t10.5 -61.5t49 -21q44 0 81 29.5t66 81 t49 116.5q11 50 20.5 98t13.5 93q2 26 3 51l40 10q0 -75 -18 -157.5t-34 -165.5q-9 -46 -15.5 -92t-6.5 -90h-40q0 33 3.5 67.5t9.5 69.5q-34 -74 -84.5 -110.5t-99.5 -36.5q-55 0 -80 42t-10 113z" />
<glyph unicode="&#x1d5;" horiz-adv-x="634" d="M357 1009l8 39h254l-8 -39h-254zM582 849q0 -22 -15 -39.5t-35 -17.5q-15 0 -22.5 9t-7.5 21q0 20 16 37.5t35 17.5q14 0 21.5 -8t7.5 -20zM392 849q0 -22 -15 -39.5t-35 -17.5q-15 0 -22.5 9t-7.5 21q0 20 16 37.5t35 17.5q14 0 21.5 -8t7.5 -20zM87 157q0 26 9 73.5 t22 107t27 122.5t24.5 122t13.5 105l54 8v-1q-31 -144 -51 -236.5t-31.5 -146.5t-17 -81.5t-7 -40t-1.5 -22.5q0 -67 41.5 -102t105.5 -35q50 0 95 21t78 62.5t46 103.5q23 107 38.5 178.5t25 117t14.5 75t8 52t4 47.5l54 8l-101 -475q-16 -76 -57.5 -127.5t-98.5 -77 t-120 -25.5q-76 0 -125.5 42t-49.5 125z" />
<glyph unicode="&#x1d6;" horiz-adv-x="510" d="M240 859l7 34h264l-7 -34h-264zM273 680q0 -24 -14.5 -43t-33.5 -19q-13 0 -19.5 8.5t-6.5 21.5q0 23 15.5 41.5t33.5 18.5q25 0 25 -28zM461 680q0 -24 -14.5 -43t-33.5 -19q-13 0 -19.5 8.5t-6.5 21.5q0 23 15.5 41.5t33.5 18.5q25 0 25 -28zM76 145l45 214l8 136 l49 10q0 -73 -15.5 -145.5t-30.5 -151.5q-11 -59 -13.5 -99.5t10.5 -61.5t49 -21q44 0 81 29.5t66 81t49 116.5q11 50 20.5 98t13.5 93q2 26 3 51l40 10q0 -75 -18 -157.5t-34 -165.5q-9 -46 -15.5 -92t-6.5 -90h-40q0 33 3.5 67.5t9.5 69.5q-34 -74 -84.5 -110.5 t-99.5 -36.5q-55 0 -80 42t-10 113z" />
<glyph unicode="&#x1d7;" horiz-adv-x="634" d="M612 1057l-3 -8q-57 -31 -116.5 -49.5t-124.5 -28.5l-3 17q59 20 117.5 45t105.5 55zM582 849q0 -22 -15 -39.5t-35 -17.5q-15 0 -22.5 9t-7.5 21q0 20 16 37.5t35 17.5q14 0 21.5 -8t7.5 -20zM392 849q0 -22 -15 -39.5t-35 -17.5q-15 0 -22.5 9t-7.5 21q0 20 16 37.5 t35 17.5q14 0 21.5 -8t7.5 -20zM87 157q0 26 9 73.5t22 107t27 122.5t24.5 122t13.5 105l54 8v-1q-31 -144 -51 -236.5t-31.5 -146.5t-17 -81.5t-7 -40t-1.5 -22.5q0 -67 41.5 -102t105.5 -35q50 0 95 21t78 62.5t46 103.5q23 107 38.5 178.5t25 117t14.5 75t8 52t4 47.5 l54 8l-101 -475q-16 -76 -57.5 -127.5t-98.5 -77t-120 -25.5q-76 0 -125.5 42t-49.5 125z" />
<glyph unicode="&#x1d8;" horiz-adv-x="510" d="M474 949l1 -8q-42 -46 -89.5 -82.5t-104.5 -68.5l-7 13q44 37 88.5 79t75.5 83zM273 680q0 -24 -14.5 -43t-33.5 -19q-13 0 -19.5 8.5t-6.5 21.5q0 23 15.5 41.5t33.5 18.5q25 0 25 -28zM461 680q0 -24 -14.5 -43t-33.5 -19q-13 0 -19.5 8.5t-6.5 21.5q0 23 15.5 41.5 t33.5 18.5q25 0 25 -28zM76 145l45 214l8 136l49 10q0 -73 -15.5 -145.5t-30.5 -151.5q-11 -59 -13.5 -99.5t10.5 -61.5t49 -21q44 0 81 29.5t66 81t49 116.5q11 50 20.5 98t13.5 93q2 26 3 51l40 10q0 -75 -18 -157.5t-34 -165.5q-9 -46 -15.5 -92t-6.5 -90h-40 q0 33 3.5 67.5t9.5 69.5q-34 -74 -84.5 -110.5t-99.5 -36.5q-55 0 -80 42t-10 113z" />
<glyph unicode="&#x1d9;" horiz-adv-x="634" d="M609 1132l11 -11q-35 -37 -68 -75t-65 -79l-44 -5q-16 42 -35.5 81.5t-42.5 77.5l15 11q27 -32 49.5 -63t44.5 -63q30 30 66 63.5t69 62.5zM582 849q0 -22 -15 -39.5t-35 -17.5q-15 0 -22.5 9t-7.5 21q0 20 16 37.5t35 17.5q14 0 21.5 -8t7.5 -20zM392 849 q0 -22 -15 -39.5t-35 -17.5q-15 0 -22.5 9t-7.5 21q0 20 16 37.5t35 17.5q14 0 21.5 -8t7.5 -20zM87 157q0 26 9 73.5t22 107t27 122.5t24.5 122t13.5 105l54 8v-1q-31 -144 -51 -236.5t-31.5 -146.5t-17 -81.5t-7 -40t-1.5 -22.5q0 -67 41.5 -102t105.5 -35q50 0 95 21 t78 62.5t46 103.5q23 107 38.5 178.5t25 117t14.5 75t8 52t4 47.5l54 8l-101 -475q-16 -76 -57.5 -127.5t-98.5 -77t-120 -25.5q-76 0 -125.5 42t-49.5 125z" />
<glyph unicode="&#x1da;" horiz-adv-x="510" d="M493 963l11 -11q-35 -37 -68 -75t-65 -79l-44 -5q-16 42 -35.5 81.5t-42.5 77.5l15 11q27 -32 49.5 -63t44.5 -63q30 30 66 63.5t69 62.5zM273 680q0 -24 -14.5 -43t-33.5 -19q-13 0 -19.5 8.5t-6.5 21.5q0 23 15.5 41.5t33.5 18.5q25 0 25 -28zM461 680q0 -24 -14.5 -43 t-33.5 -19q-13 0 -19.5 8.5t-6.5 21.5q0 23 15.5 41.5t33.5 18.5q25 0 25 -28zM76 145l45 214l8 136l49 10q0 -73 -15.5 -145.5t-30.5 -151.5q-11 -59 -13.5 -99.5t10.5 -61.5t49 -21q44 0 81 29.5t66 81t49 116.5q11 50 20.5 98t13.5 93q2 26 3 51l40 10q0 -75 -18 -157.5 t-34 -165.5q-9 -46 -15.5 -92t-6.5 -90h-40q0 33 3.5 67.5t9.5 69.5q-34 -74 -84.5 -110.5t-99.5 -36.5q-55 0 -80 42t-10 113z" />
<glyph unicode="&#x1db;" horiz-adv-x="634" d="M586 971q-60 10 -111.5 28.5t-95.5 49.5l1 8l36 31q36 -30 83 -55t98 -45zM582 849q0 -22 -15 -39.5t-35 -17.5q-15 0 -22.5 9t-7.5 21q0 20 16 37.5t35 17.5q14 0 21.5 -8t7.5 -20zM392 849q0 -22 -15 -39.5t-35 -17.5q-15 0 -22.5 9t-7.5 21q0 20 16 37.5t35 17.5 q14 0 21.5 -8t7.5 -20zM87 157q0 26 9 73.5t22 107t27 122.5t24.5 122t13.5 105l54 8v-1q-31 -144 -51 -236.5t-31.5 -146.5t-17 -81.5t-7 -40t-1.5 -22.5q0 -67 41.5 -102t105.5 -35q50 0 95 21t78 62.5t46 103.5q23 107 38.5 178.5t25 117t14.5 75t8 52t4 47.5l54 8 l-101 -475q-16 -76 -57.5 -127.5t-98.5 -77t-120 -25.5q-76 0 -125.5 42t-49.5 125z" />
<glyph unicode="&#x1dc;" horiz-adv-x="510" d="M434 793q-43 32 -76 68.5t-54 82.5l5 8l42 16q15 -41 40.5 -82t55.5 -80zM273 680q0 -24 -14.5 -43t-33.5 -19q-13 0 -19.5 8.5t-6.5 21.5q0 23 15.5 41.5t33.5 18.5q25 0 25 -28zM461 680q0 -24 -14.5 -43t-33.5 -19q-13 0 -19.5 8.5t-6.5 21.5q0 23 15.5 41.5 t33.5 18.5q25 0 25 -28zM76 145l45 214l8 136l49 10q0 -73 -15.5 -145.5t-30.5 -151.5q-11 -59 -13.5 -99.5t10.5 -61.5t49 -21q44 0 81 29.5t66 81t49 116.5q11 50 20.5 98t13.5 93q2 26 3 51l40 10q0 -75 -18 -157.5t-34 -165.5q-9 -46 -15.5 -92t-6.5 -90h-40 q0 33 3.5 67.5t9.5 69.5q-34 -74 -84.5 -110.5t-99.5 -36.5q-55 0 -80 42t-10 113z" />
<glyph unicode="&#x1e6;" horiz-adv-x="639" d="M586 906l10 -13q-39 -30 -72.5 -58t-65.5 -60l-44 -5q-20 30 -45 62t-54 61l16 13q29 -22 58 -46.5t55 -50.5q32 24 67.5 49t74.5 48zM563 288l4 -5l-53 -242q-38 -25 -91.5 -38t-101.5 -13q-104 0 -162.5 61.5t-58.5 188.5q0 85 26 166t73.5 146.5t112.5 104t142 38.5 q32 0 76.5 -9.5t81.5 -35.5l-18 -42q-28 25 -68.5 37t-78.5 12q-69 0 -124.5 -36t-95.5 -95.5t-61 -132t-21 -146.5q0 -105 46.5 -162t144.5 -57q72 0 140 30l15 73q8 40 14 76t10 71z" />
<glyph unicode="&#x1e7;" horiz-adv-x="415" d="M414 750l11 -11q-35 -37 -68 -75t-65 -79l-44 -5q-16 42 -35.5 81.5t-42.5 77.5l15 11q27 -32 49.5 -63t44.5 -63q30 30 66 63.5t69 62.5zM120 -255q-78 0 -118.5 33.5t-40.5 84.5q0 40 22 68.5t56 49.5l14 -16q-22 -22 -35.5 -46t-13.5 -48q0 -37 31.5 -63.5t92.5 -26.5 q48 0 83 15.5t54.5 40t19.5 51.5q0 25 -19.5 45t-65.5 42q-32 16 -59 31.5t-27 42.5q0 24 22.5 48.5t59.5 52.5v1q-8 -1 -9 -1q-60 0 -88.5 36t-28.5 93q0 60 26.5 111.5t72.5 83t102 31.5q38 0 63.5 0.5t45.5 2.5t42 7q5 -8 5 -21q0 -10 -7.5 -18t-29.5 -8q-15 0 -34.5 4 t-38.5 8v-1q23 -15 35.5 -39.5t12.5 -65.5q0 -57 -21 -100.5t-52 -76t-62 -57t-52 -43.5t-21 -36q0 -12 10 -21t23.5 -15.5t22.5 -11.5q61 -28 88 -55t27 -62q0 -34 -24 -69t-70 -58.5t-114 -23.5zM325 370q0 47 -20 74t-55 27q-36 0 -68 -28t-52 -71t-20 -90q0 -49 22 -73 t56 -24q40 0 71 28t48.5 71t17.5 86z" />
<glyph unicode="&#x1ea;" horiz-adv-x="689" d="M630 448q0 -65 -16 -130t-45 -123.5t-70.5 -104t-92.5 -72.5q-63 -33 -105 -73t-42 -82t46 -42q11 0 25.5 2.5t33.5 9.5l4 -22q-16 -11 -38 -17t-44 -6q-33 0 -52.5 16t-19.5 48q0 35 28 71t77 69q-14 -2 -28 -2q-88 0 -140.5 61.5t-52.5 179.5q0 66 16.5 132.5t47 126 t73 106t94.5 73t110 26.5q88 0 139.5 -64t51.5 -183zM143 240q0 -99 40.5 -155.5t118.5 -56.5q65 0 117.5 37t89.5 98t56.5 134.5t19.5 146.5q0 99 -38.5 156t-115.5 57q-64 0 -117 -37.5t-91.5 -99.5t-59 -135t-20.5 -145z" />
<glyph unicode="&#x1eb;" horiz-adv-x="494" d="M289 21q-31 -23 -63.5 -51t-54.5 -56t-22 -54q0 -17 11.5 -28t34.5 -11q11 0 25.5 2.5t33.5 9.5l4 -22q-16 -11 -38 -17t-42 -6q-34 0 -54 15.5t-20 41.5q0 34 31.5 72.5t77.5 74.5q-13 -2 -25 -2q-61 0 -95 42t-34 127q0 62 18 123t51 111.5t78 81t100 30.5 q61 0 95.5 -42t34.5 -126q0 -60 -18 -121.5t-51 -113t-78 -81.5v0zM102 164q0 -65 23.5 -101.5t73.5 -36.5q45 0 81 28t61.5 73.5t38.5 99t13 104.5q0 138 -97 138q-45 0 -81 -28t-61.5 -73.5t-38.5 -99t-13 -104.5z" />
<glyph unicode="&#x1f4;" horiz-adv-x="639" d="M579 865l-3 -8q-57 -31 -116.5 -49.5t-124.5 -28.5l-3 17q59 20 117.5 45t105.5 55zM563 288l4 -5l-53 -242q-38 -25 -91.5 -38t-101.5 -13q-104 0 -162.5 61.5t-58.5 188.5q0 85 26 166t73.5 146.5t112.5 104t142 38.5q32 0 76.5 -9.5t81.5 -35.5l-18 -42 q-28 25 -68.5 37t-78.5 12q-69 0 -124.5 -36t-95.5 -95.5t-61 -132t-21 -146.5q0 -105 46.5 -162t144.5 -57q72 0 140 30l15 73q8 40 14 76t10 71z" />
<glyph unicode="&#x1f5;" horiz-adv-x="415" d="M395 736l1 -8q-42 -46 -89.5 -82.5t-104.5 -68.5l-7 13q44 37 88.5 79t75.5 83zM120 -255q-78 0 -118.5 33.5t-40.5 84.5q0 40 22 68.5t56 49.5l14 -16q-22 -22 -35.5 -46t-13.5 -48q0 -37 31.5 -63.5t92.5 -26.5q48 0 83 15.5t54.5 40t19.5 51.5q0 25 -19.5 45t-65.5 42 q-32 16 -59 31.5t-27 42.5q0 24 22.5 48.5t59.5 52.5v1q-8 -1 -9 -1q-60 0 -88.5 36t-28.5 93q0 60 26.5 111.5t72.5 83t102 31.5q38 0 63.5 0.5t45.5 2.5t42 7q5 -8 5 -21q0 -10 -7.5 -18t-29.5 -8q-15 0 -34.5 4t-38.5 8v-1q23 -15 35.5 -39.5t12.5 -65.5 q0 -57 -21 -100.5t-52 -76t-62 -57t-52 -43.5t-21 -36q0 -12 10 -21t23.5 -15.5t22.5 -11.5q61 -28 88 -55t27 -62q0 -34 -24 -69t-70 -58.5t-114 -23.5zM325 370q0 47 -20 74t-55 27q-36 0 -68 -28t-52 -71t-20 -90q0 -49 22 -73t56 -24q40 0 71 28t48.5 71t17.5 86z" />
<glyph unicode="&#x1fa;" horiz-adv-x="589" d="M591 1086l-3 -8q-57 -31 -116.5 -49.5t-124.5 -28.5l-3 17q59 20 117.5 45t105.5 55zM500 852q0 -23 -14.5 -44.5t-37 -34.5t-47.5 -13t-43.5 15.5t-18.5 40.5q0 23 14.5 43.5t37.5 33.5t48 13q28 0 44.5 -15.5t16.5 -38.5zM374 821q0 -16 9.5 -25t25.5 -9q23 0 39.5 18 t16.5 41q0 14 -9 23.5t-26 9.5q-22 0 -39 -17.5t-17 -40.5zM13 0h-41l344 592q16 27 31 53.5t25 46.5l28 3l4 -5l107 -690h-44l-35 222h-290zM267 437l-104 -179h264l-28 179q-7 50 -14 100.5t-8 99.5h-1q-22 -49 -51 -99.5t-58 -100.5z" />
<glyph unicode="&#x1fb;" horiz-adv-x="506" d="M501 961l1 -8q-42 -46 -89.5 -82.5t-104.5 -68.5l-7 13q44 37 88.5 79t75.5 83zM432 666q0 -23 -14.5 -44.5t-37 -34.5t-47.5 -13t-43.5 15.5t-18.5 40.5q0 23 14.5 43.5t37.5 33.5t48 13q28 0 44.5 -15.5t16.5 -38.5zM306 635q0 -16 9.5 -25t25.5 -9q23 0 39.5 18 t16.5 41q0 14 -9 23.5t-26 9.5q-22 0 -39 -17.5t-17 -40.5zM52 132q0 68 23.5 134t65 120t97.5 86.5t122 32.5q19 0 47 -3.5t56 -11.5l-42 -173q-19 -82 -33.5 -155.5t-14.5 -161.5h-40q0 37 2.5 70.5t9 71.5t17.5 90q-18 -39 -42 -81t-52 -79t-59.5 -59.5t-65.5 -22.5 q-37 0 -64 33.5t-27 108.5zM95 137q0 -52 15.5 -81.5t44.5 -29.5t60.5 28.5t61 74t55 97t43.5 98.5t26 78q4 13 7 26.5t7 28.5q-21 6 -42 9t-36 3q-48 0 -91.5 -29t-77.5 -77t-53.5 -107t-19.5 -119z" />
<glyph unicode="&#x1fc;" horiz-adv-x="833" d="M661 865l-3 -8q-57 -31 -116.5 -49.5t-124.5 -28.5l-3 17q59 20 117.5 45t105.5 55zM13 0h-41l438 592l12 16t6.5 9l14 20t34.5 48h304l4 -5l-8 -34l-268 4l-26 -292l232 2l-9 -39l-226 2l-26 -288l284 4l-8 -39h-323l23 222h-253zM336 437l-132 -179h230l19 179 q5 50 10 99t14 101h-1q-29 -47 -66 -98.5t-74 -101.5z" />
<glyph unicode="&#x1fd;" horiz-adv-x="730" d="M563 736l1 -8q-42 -46 -89.5 -82.5t-104.5 -68.5l-7 13q44 37 88.5 79t75.5 83zM52 133q0 68 23 134t65.5 119.5t101.5 86t131 32.5q34 0 65.5 -7.5t61.5 -19.5q44 27 90 27q47 0 76 -27t29 -75q0 -30 -14.5 -60t-49 -55t-94 -42t-147.5 -21q-5 -28 -5 -53 q0 -64 28.5 -105t80.5 -41q44 0 83 27.5t70 65.5l18 -13q-31 -55 -80 -85.5t-99 -30.5q-62 0 -103 46.5t-41 132.5q0 12 1 24q-25 -48 -56 -95t-67.5 -77.5t-76.5 -30.5q-37 0 -64 33.5t-27 109.5zM95 137q0 -53 15.5 -82t43.5 -29t58 26.5t59 69t54.5 92t44.5 95.5 q15 40 37.5 75t50.5 61q-19 10 -46.5 17t-56.5 7q-58 0 -106 -29t-82.5 -77t-53 -107t-18.5 -119zM581 469q-42 0 -79.5 -31t-65 -80.5t-40.5 -103.5q79 5 129 21t78 38.5t38.5 46t10.5 42.5q0 30 -19.5 48.5t-51.5 18.5z" />
<glyph unicode="&#x1fe;" horiz-adv-x="689" d="M601 865l-3 -8q-57 -31 -116.5 -49.5t-124.5 -28.5l-3 17q59 20 117.5 45t105.5 55zM630 448q0 -82 -25 -163t-70 -148t-107 -107t-137 -40q-57 0 -100 26t-67 77l-101 -93l-20 22l110 101q-15 47 -15 108q0 66 16.5 132.5t47 126t73 106t94.5 73t110 26.5q59 0 102 -29 t66 -85l114 105l22 -21l-125 -116q12 -45 12 -101zM143 240q0 -45 8 -81l420 389q-16 52 -51 80.5t-89 28.5q-64 0 -117 -37.5t-91.5 -99.5t-59 -135t-20.5 -145zM585 444q0 38 -6 70l-418 -387q18 -47 53.5 -73t87.5 -26q65 0 117.5 37t89.5 98t56.5 134.5t19.5 146.5z" />
<glyph unicode="&#x1ff;" horiz-adv-x="494" d="M431 736l1 -8q-42 -46 -89.5 -82.5t-104.5 -68.5l-7 13q44 37 88.5 79t75.5 83zM436 337q0 -60 -17.5 -121t-50.5 -112.5t-78.5 -82.5t-101.5 -31q-88 0 -117 84l-82 -72l-18 22l92 81q-4 24 -4 54q0 62 18 123t51 111.5t78 81t100 30.5q90 0 118 -86l86 75l19 -22 l-97 -84q4 -24 4 -51zM102 164q0 -13 1 -25l285 248q-18 82 -92 82q-45 0 -81 -28t-61.5 -73.5t-38.5 -99t-13 -104.5zM393 331q0 12 -1 22l-284 -248q9 -38 31 -58.5t60 -20.5q45 0 81 28t61.5 73.5t38.5 99t13 104.5z" />
<glyph unicode="&#x218;" horiz-adv-x="493" d="M417 190q0 -57 -31.5 -102.5t-86.5 -71.5t-128 -26q-34 0 -77 7.5t-81 27.5l17 43q36 -24 79 -32t71 -8q56 0 99.5 21t68.5 56.5t25 78.5q0 39 -18.5 65.5t-46.5 46t-57 35.5q-30 18 -60 38.5t-49.5 50.5t-19.5 75q0 56 31 101t86 72t126 27q41 0 81 -9t65 -24l-17 -43 q-31 23 -69 30.5t-67 7.5q-55 0 -98 -20t-68 -54t-25 -77q0 -38 19 -63.5t48.5 -45t61.5 -38.5q28 -16 55.5 -37.5t46.5 -53t19 -78.5zM100 -306q17 25 30.5 48t23.5 46h-2q-14 0 -21 9.5t-7 22.5q0 19 13.5 39t38.5 20q30 0 30 -32q0 -24 -13 -53t-33.5 -57.5t-42.5 -53.5z " />
<glyph unicode="&#x219;" horiz-adv-x="425" d="M376 479l-17 -41q-21 14 -46.5 22.5t-56.5 8.5q-55 0 -89.5 -28.5t-34.5 -70.5q0 -34 21 -55t51.5 -37t61 -33.5t51.5 -42.5t21 -66t-23.5 -74t-64.5 -52.5t-94 -19.5q-30 0 -64 7.5t-63 24.5l17 41q26 -19 60 -28t60 -9q53 0 90 29.5t37 72.5q0 33 -21 53.5t-52 36 t-61.5 32.5t-51.5 42t-21 66q0 44 25 77t66.5 51.5t90.5 18.5q33 0 60.5 -7.5t47.5 -18.5zM84 -306q17 25 30.5 48t23.5 46h-2q-14 0 -21 9.5t-7 22.5q0 19 13.5 39t38.5 20q30 0 30 -32q0 -24 -13 -53t-33.5 -57.5t-42.5 -53.5z" />
<glyph unicode="&#x21a;" horiz-adv-x="491" d="M214 0h-42l139 650q-54 0 -108 -1.5t-109 -3.5l12 40h465l-6 -40q-53 2 -106 3.5t-106 1.5zM93 -306q17 25 30.5 48t23.5 46h-2q-14 0 -21 9.5t-7 22.5q0 19 13.5 39t38.5 20q30 0 30 -32q0 -24 -13 -53t-33.5 -57.5t-42.5 -53.5z" />
<glyph unicode="&#x21b;" horiz-adv-x="338" d="M330 462h-138q-20 -92 -33 -153.5t-21 -99.5t-12 -59.5t-5.5 -34t-1.5 -22.5q0 -37 16 -52t46 -15q23 0 45 7t41 18l2 -33q-21 -12 -48 -20t-56 -8q-43 0 -66 21t-23 67q0 11 1.5 23t5.5 34t12.5 61.5t22.5 104t34 161.5h-76l6 26l77 7l33 112l30 4l4 -5l-27 -111h135 l4 -5zM54 -306q17 25 30.5 48t23.5 46h-2q-14 0 -21 9.5t-7 22.5q0 19 13.5 39t38.5 20q30 0 30 -32q0 -24 -13 -53t-33.5 -57.5t-42.5 -53.5z" />
<glyph unicode="&#x232;" horiz-adv-x="524" d="M256 817l8 39h254l-8 -39h-254zM243 256l-124 435l43 4l74 -260q8 -32 20 -72t15 -78h1q20 38 49.5 79t51.5 73l182 258l33 -5l4 -5l-308 -433l-54 -252h-42z" />
<glyph unicode="&#x233;" horiz-adv-x="398" d="M130 646l7 34h264l-7 -34h-264zM387 505q18 0 18 -18q0 -35 -20 -92.5t-54.5 -126.5t-79.5 -142t-95 -141t-101 -122t-98 -86t-85 -32q-37 0 -37 27q0 7 2.5 13t5.5 10q11 -1 21 -2t16 -1q33 0 66.5 20t66 52t61.5 68.5t52 69.5q0 133 -15 256t-43 237l40 10 q30 -110 44.5 -217t14.5 -228h1q49 72 92 148t72 151t36 142q5 2 10.5 3t8.5 1z" />
<glyph unicode="&#x237;" horiz-adv-x="218" d="M-70 -255l-15 21q44 26 74.5 71t44.5 111l88 411l8 136l49 10q0 -26 -3 -54.5t-10 -67.5t-19 -96.5t-29.5 -140t-42.5 -198.5q-15 -67 -49.5 -116t-95.5 -87z" />
<glyph unicode="&#x259;" horiz-adv-x="435" d="M76 417l4 40q29 21 69.5 34.5t77.5 13.5q68 0 108.5 -46t40.5 -132q0 -59 -19.5 -118.5t-54 -109t-79.5 -79.5t-95 -30q-46 0 -75.5 27t-29.5 75q0 30 14.5 60t49 55t93.5 42t148 21q5 28 5 54q0 63 -28.5 104t-86.5 41q-36 0 -72.5 -15.5t-69.5 -36.5zM66 93 q0 -30 19.5 -48.5t51.5 -18.5q42 0 79.5 31t65 80.5t40.5 103.5q-79 -5 -129 -21t-78 -38.5t-38.5 -46t-10.5 -42.5z" />
<glyph unicode="&#x272;" horiz-adv-x="564" d="M7 -203l-15 21q23 26 49.5 71t40.5 111l77 359l8 136l49 10q0 -37 -6 -78t-16 -82h2q38 81 94 120.5t109 39.5q57 0 80 -42t8 -113l-42 -199q-13 -59 -13 -151h-40q0 38 4.5 77t14 89t23.5 121q20 96 11.5 139t-59.5 43q-54 0 -99 -42t-77.5 -113t-50.5 -159 q-7 -34 -15.5 -72.5t-17.5 -82.5q-14 -67 -46 -116t-73 -87z" />
<glyph unicode="&#x2c6;" horiz-adv-x="355" d="M134 579l-11 11q35 38 68.5 75.5t64.5 78.5l44 5q17 -42 36.5 -81.5t41.5 -77.5l-15 -11q-27 32 -49.5 63t-44.5 63q-30 -30 -66 -63.5t-69 -62.5z" />
<glyph unicode="&#x2c7;" horiz-adv-x="355" d="M401 762l11 -11q-35 -37 -68 -75t-65 -79l-44 -5q-16 42 -35.5 81.5t-42.5 77.5l15 11q27 -32 49.5 -63t44.5 -63q30 30 66 63.5t69 62.5z" />
<glyph unicode="&#x2d8;" horiz-adv-x="338" d="M368 730l22 -3q-23 -58 -63 -90t-85 -32t-69.5 32t-20.5 90l23 3q2 -38 23 -60t58 -22q33 0 63 22.5t49 59.5z" />
<glyph unicode="&#x2d9;" horiz-adv-x="172" d="M212 679q0 -24 -14.5 -42.5t-34.5 -18.5q-13 0 -20 9t-7 21q0 23 15.5 41.5t33.5 18.5q14 0 20.5 -8t6.5 -21z" />
<glyph unicode="&#x2da;" horiz-adv-x="256" d="M297 682q0 -23 -14.5 -44.5t-37 -34.5t-47.5 -13t-43.5 15.5t-18.5 40.5q0 23 14.5 43.5t37.5 33.5t48 13q28 0 44.5 -15.5t16.5 -38.5zM171 651q0 -16 9.5 -25t25.5 -9q23 0 39.5 18t16.5 41q0 14 -9 23.5t-26 9.5q-22 0 -39 -17.5t-17 -40.5z" />
<glyph unicode="&#x2db;" horiz-adv-x="365" d="M215 0q-61 -31 -100 -67.5t-39 -74.5q0 -37 46 -37q11 0 25.5 2.5t33.5 9.5l4 -22q-16 -11 -37.5 -17t-41.5 -6q-35 0 -55 14.5t-20 41.5q0 44 43 87t123 80z" />
<glyph unicode="&#x2dc;" horiz-adv-x="402" d="M233 710q25 0 43.5 -14t36 -28t37.5 -14q21 0 40 17.5t35 39.5l15 -3q-8 -21 -23.5 -42.5t-36 -35.5t-43.5 -14q-25 0 -44 14t-36 28t-38 14q-20 0 -39 -17t-36 -40l-15 3q9 20 24 41t35.5 36t44.5 15z" />
<glyph unicode="&#x2dd;" horiz-adv-x="364" d="M318 742l1 -8q-81 -90 -189 -154l-7 13q44 35 87.5 77t76.5 85zM432 742l1 -8q-41 -46 -88.5 -84t-100.5 -70l-7 13q44 35 87.5 77t76.5 85z" />
<glyph unicode="&#x394;" horiz-adv-x="570" d="M362 690h35l100 -670l-6 -20h-516l2 20zM22 33h431l-92 583z" />
<glyph unicode="&#x3a9;" horiz-adv-x="728" d="M244 0h-242l3 36l6 5l200 -16q-43 41 -70.5 113.5t-27.5 159.5q0 84 26.5 156.5t73 126.5t107 84t128.5 30t117.5 -30t76 -83.5t26.5 -124.5q0 -60 -19 -123t-52.5 -121t-77.5 -107t-95 -81l205 16l4 -5l-13 -36h-242l2 23q70 48 124 117.5t85.5 148.5t31.5 156 q0 95 -48.5 153.5t-132.5 58.5q-58 0 -109 -28t-90.5 -77.5t-62 -115.5t-22.5 -142q0 -80 25.5 -153.5t70.5 -117.5z" />
<glyph unicode="&#x3bc;" horiz-adv-x="510" d="M337 0q0 33 3.5 67.5t9.5 69.5q-34 -74 -84.5 -110.5t-99.5 -36.5q-62 0 -85 52q-6 -80 -17.5 -154t-11.5 -133h-40q0 34 5.5 79t19 116t36.5 180l49 229l8 136l48 10q0 -73 -15.5 -145.5t-30.5 -151.5q-11 -59 -13.5 -99.5t10.5 -61.5t49 -21q44 0 81 29.5t66 81 t49 116.5q11 50 20.5 98t13.5 93q2 26 3 51l40 10q0 -75 -18 -157.5t-34 -165.5q-9 -46 -15.5 -92t-6.5 -90h-40z" />
<glyph unicode="&#x3c0;" horiz-adv-x="620" d="M78 471l16 30l556 4l4 -5l-11 -25l-118 -1q-9 -41 -21.5 -94.5t-24.5 -110t-21 -109.5t-13 -94q-1 -16 2 -28t23 -12q9 0 21 2t24 5l-8 -33q-13 -4 -26.5 -7t-26.5 -3q-29 0 -41 16t-10 52q2 27 10 76.5t25 132t44 207.5l-234 -2q-18 -82 -37.5 -167t-33 -163.5 t-13.5 -141.5h-40q0 40 6 89.5t19.5 119.5t35.5 171l20 92z" />
<glyph unicode="&#x1e0c;" horiz-adv-x="689" d="M629 433q0 -81 -29 -158t-83 -139.5t-130 -99t-170 -36.5h-138l115 538q9 43 15 80.5t9 66.5h147q122 0 193 -61.5t71 -190.5zM351 649h-92l-130 -613h94q87 0 154.5 33.5t113.5 90t69.5 126.5t23.5 143q0 109 -55.5 164.5t-177.5 55.5zM296 -145q0 -24 -14.5 -42.5 t-34.5 -18.5q-13 0 -20 9t-7 21q0 23 15.5 41.5t33.5 18.5q14 0 20.5 -8t6.5 -21z" />
<glyph unicode="&#x1e0d;" horiz-adv-x="509" d="M376 0h-40q0 40 7 93.5t25 144.5q-18 -43 -41.5 -87t-52 -80.5t-61.5 -58.5t-70 -22t-64 33.5t-27 108.5q0 68 23.5 134t65 120t97.5 86.5t122 32.5q12 0 28.5 -1.5t34.5 -4.5l23 110l8 136l49 10q0 -58 -13 -132t-31.5 -156.5t-37.5 -166t-32 -160.5t-13 -140zM95 137 q0 -52 15.5 -81.5t44.5 -29.5t60 27.5t60.5 71.5t55 94.5t44 97.5t25.5 79l14 61q-21 6 -42 9t-35 3q-48 0 -91.5 -29t-77.5 -77t-53.5 -107t-19.5 -119zM207 -145q0 -24 -14.5 -42.5t-34.5 -18.5q-13 0 -20 9t-7 21q0 23 15.5 41.5t33.5 18.5q14 0 20.5 -8t6.5 -21z" />
<glyph unicode="&#x1e24;" horiz-adv-x="713" d="M121 0h-42l114 538q9 44 15 78t10 69l46 10l4 -5l-71 -331h372l38 179q10 44 15.5 78t9.5 69l46 10l4 -5l-147 -690h-42l68 323h-371zM308 -145q0 -24 -14.5 -42.5t-34.5 -18.5q-13 0 -20 9t-7 21q0 23 15.5 41.5t33.5 18.5q14 0 20.5 -8t6.5 -21z" />
<glyph unicode="&#x1e25;" horiz-adv-x="537" d="M111 0h-40q0 36 5.5 82.5t19 117.5t36.5 180l49 229l8 136l49 10q0 -52 -10.5 -118.5t-27 -141t-34.5 -150.5h2q37 81 92.5 120.5t107.5 39.5q46 0 70 -25.5t24 -70.5q0 -13 -0.5 -23t-3.5 -27t-10 -49.5t-20 -91.5q-11 -54 -17 -91t-8 -66t-2 -61h-40q0 72 11.5 130 t22.5 108q14 65 20.5 102t6.5 60q0 34 -15 51.5t-50 17.5q-53 0 -97 -38t-76.5 -104t-51.5 -150.5t-21 -176.5zM267 -145q0 -24 -14.5 -42.5t-34.5 -18.5q-13 0 -20 9t-7 21q0 23 15.5 41.5t33.5 18.5q14 0 20.5 -8t6.5 -21z" />
<glyph unicode="&#x1e44;" horiz-adv-x="728" d="M524 857q0 -22 -15 -38t-36 -16q-16 0 -24 8t-8 21q0 20 16 36.5t36 16.5q16 0 23.5 -8t7.5 -20zM395 384q28 -68 51.5 -122.5t42.5 -104.5t33 -106h1q4 24 8 46t10 52.5t16 78.5t25.5 123t39.5 187q10 44 15.5 78t9.5 69l46 10l4 -5l-147 -690h-45q-32 78 -64.5 155.5 t-64.5 155.5q-28 68 -50 120.5t-39.5 100.5t-33.5 102h-1q-11 -66 -23.5 -128t-26.5 -124l-81 -382h-42l114 538q10 44 15.5 78t9.5 69l48 10q33 -78 65.5 -156t63.5 -155z" />
<glyph unicode="&#x1e45;" horiz-adv-x="537" d="M387 682q0 -24 -14.5 -42.5t-34.5 -18.5q-13 0 -20 9t-7 21q0 23 15.5 41.5t33.5 18.5q14 0 20.5 -8t6.5 -21zM111 0h-40q1 89 18 175t39 184l8 136l49 10q0 -37 -6 -78t-16 -82h2q38 81 94 120.5t110 39.5q45 0 69 -25t24 -69q0 -31 -9 -77.5t-23 -107.5 q-12 -54 -18.5 -89.5t-8.5 -66t-2 -70.5h-40q0 57 9.5 113t24.5 132q10 50 16 87.5t6 62.5q0 35 -14 54.5t-49 19.5q-49 0 -92 -37t-76 -102t-53 -150t-22 -180z" />
<glyph unicode="&#x1e5a;" horiz-adv-x="571" d="M121 0h-42l115 538q9 44 14.5 78t9.5 69h140q92 0 143 -43t51 -115q0 -87 -55.5 -147.5t-142.5 -81.5l134 -298l-41 -10q-33 74 -66.5 148.5t-67.5 148.5h-131zM348 650h-88l-70 -328h85q69 0 121 24.5t81 69.5t29 107q0 55 -37 91t-121 36zM252 -145q0 -24 -14.5 -42.5 t-34.5 -18.5q-13 0 -20 9t-7 21q0 23 15.5 41.5t33.5 18.5q14 0 20.5 -8t6.5 -21z" />
<glyph unicode="&#x1e5b;" horiz-adv-x="368" d="M111 0h-40q0 54 10 121t27 146l20 92l8 136l49 10q0 -42 -7 -87.5t-18 -92.5h2q38 96 87 138t98 42q20 0 36 -5.5t26 -13.5l-25 -34q-23 14 -49 14q-36 0 -69 -28.5t-61 -77t-48.5 -109t-32.5 -125.5t-13 -126zM100 -145q0 -24 -14.5 -42.5t-34.5 -18.5q-13 0 -20 9 t-7 21q0 23 15.5 41.5t33.5 18.5q14 0 20.5 -8t6.5 -21z" />
<glyph unicode="&#x1e62;" horiz-adv-x="493" d="M417 190q0 -57 -31.5 -102.5t-86.5 -71.5t-128 -26q-34 0 -77 7.5t-81 27.5l17 43q36 -24 79 -32t71 -8q56 0 99.5 21t68.5 56.5t25 78.5q0 39 -18.5 65.5t-46.5 46t-57 35.5q-30 18 -60 38.5t-49.5 50.5t-19.5 75q0 56 31 101t86 72t126 27q41 0 81 -9t65 -24l-17 -43 q-31 23 -69 30.5t-67 7.5q-55 0 -98 -20t-68 -54t-25 -77q0 -38 19 -63.5t48.5 -45t61.5 -38.5q28 -16 55.5 -37.5t46.5 -53t19 -78.5zM204 -145q0 -24 -14.5 -42.5t-34.5 -18.5q-13 0 -20 9t-7 21q0 23 15.5 41.5t33.5 18.5q14 0 20.5 -8t6.5 -21z" />
<glyph unicode="&#x1e63;" horiz-adv-x="425" d="M376 479l-17 -41q-21 14 -46.5 22.5t-56.5 8.5q-55 0 -89.5 -28.5t-34.5 -70.5q0 -34 21 -55t51.5 -37t61 -33.5t51.5 -42.5t21 -66t-23.5 -74t-64.5 -52.5t-94 -19.5q-30 0 -64 7.5t-63 24.5l17 41q26 -19 60 -28t60 -9q53 0 90 29.5t37 72.5q0 33 -21 53.5t-52 36 t-61.5 32.5t-51.5 42t-21 66q0 44 25 77t66.5 51.5t90.5 18.5q33 0 60.5 -7.5t47.5 -18.5zM188 -145q0 -24 -14.5 -42.5t-34.5 -18.5q-13 0 -20 9t-7 21q0 23 15.5 41.5t33.5 18.5q14 0 20.5 -8t6.5 -21z" />
<glyph unicode="&#x1e6c;" horiz-adv-x="491" d="M214 0h-42l139 650q-54 0 -108 -1.5t-109 -3.5l12 40h465l-6 -40q-53 2 -106 3.5t-106 1.5zM197 -145q0 -24 -14.5 -42.5t-34.5 -18.5q-13 0 -20 9t-7 21q0 23 15.5 41.5t33.5 18.5q14 0 20.5 -8t6.5 -21z" />
<glyph unicode="&#x1e6d;" horiz-adv-x="338" d="M330 462h-138q-20 -92 -33 -153.5t-21 -99.5t-12 -59.5t-5.5 -34t-1.5 -22.5q0 -37 16 -52t46 -15q23 0 45 7t41 18l2 -33q-21 -12 -48 -20t-56 -8q-43 0 -66 21t-23 67q0 11 1.5 23t5.5 34t12.5 61.5t22.5 104t34 161.5h-76l6 26l77 7l33 112l30 4l4 -5l-27 -111h135 l4 -5zM158 -145q0 -24 -14.5 -42.5t-34.5 -18.5q-13 0 -20 9t-7 21q0 23 15.5 41.5t33.5 18.5q14 0 20.5 -8t6.5 -21z" />
<glyph unicode="&#x1e80;" horiz-adv-x="956" d="M701 779q-60 10 -111.5 28.5t-95.5 49.5l1 8l36 31q36 -30 83 -55t98 -45zM197 -5l-78 695l41 5l48 -428q8 -61 12 -112.5t2 -102.5q20 51 53 115.5t64 122.5l215 401l39 4l48 -428q8 -61 12 -112.5t2 -102.5q20 51 52.5 114t63.5 121l218 408l31 -5l4 -5l-369 -690h-25 l-55 492q-4 35 -7.5 71.5t-5.5 79.5h-1q-19 -43 -38.5 -79.5t-38.5 -71.5l-262 -492h-25z" />
<glyph unicode="&#x1e81;" horiz-adv-x="606" d="M424 580q-43 32 -76 68.5t-54 82.5l5 8l42 16q15 -41 40.5 -82t55.5 -80zM595 505q18 0 18 -18q0 -33 -16.5 -89t-46.5 -124t-69.5 -139t-86.5 -135h-40q2 115 -2 218t-12 199h-1q-13 -62 -43 -134.5t-70 -145.5t-86 -137h-40q3 149 -6 272t-26 223l41 7q16 -86 26 -197 t7 -250h1q71 110 119 225t59 215h44q15 -85 24.5 -194.5t6.5 -245.5h1q48 73 85.5 150t62 153t31.5 143q5 2 10.5 3t8.5 1z" />
<glyph unicode="&#x1e82;" horiz-adv-x="956" d="M727 865l-3 -8q-57 -31 -116.5 -49.5t-124.5 -28.5l-3 17q59 20 117.5 45t105.5 55zM197 -5l-78 695l41 5l48 -428q8 -61 12 -112.5t2 -102.5q20 51 53 115.5t64 122.5l215 401l39 4l48 -428q8 -61 12 -112.5t2 -102.5q20 51 52.5 114t63.5 121l218 408l31 -5l4 -5 l-369 -690h-25l-55 492q-4 35 -7.5 71.5t-5.5 79.5h-1q-19 -43 -38.5 -79.5t-38.5 -71.5l-262 -492h-25z" />
<glyph unicode="&#x1e83;" horiz-adv-x="606" d="M464 736l1 -8q-42 -46 -89.5 -82.5t-104.5 -68.5l-7 13q44 37 88.5 79t75.5 83zM595 505q18 0 18 -18q0 -33 -16.5 -89t-46.5 -124t-69.5 -139t-86.5 -135h-40q2 115 -2 218t-12 199h-1q-13 -62 -43 -134.5t-70 -145.5t-86 -137h-40q3 149 -6 272t-26 223l41 7 q16 -86 26 -197t7 -250h1q71 110 119 225t59 215h44q15 -85 24.5 -194.5t6.5 -245.5h1q48 73 85.5 150t62 153t31.5 143q5 2 10.5 3t8.5 1z" />
<glyph unicode="&#x1e84;" horiz-adv-x="956" d="M738 849q0 -22 -15 -39.5t-35 -17.5q-15 0 -22.5 9t-7.5 21q0 20 16 37.5t35 17.5q14 0 21.5 -8t7.5 -20zM548 849q0 -22 -15 -39.5t-35 -17.5q-15 0 -22.5 9t-7.5 21q0 20 16 37.5t35 17.5q14 0 21.5 -8t7.5 -20zM197 -5l-78 695l41 5l48 -428q8 -61 12 -112.5t2 -102.5 q20 51 53 115.5t64 122.5l215 401l39 4l48 -428q8 -61 12 -112.5t2 -102.5q20 51 52.5 114t63.5 121l218 408l31 -5l4 -5l-369 -690h-25l-55 492q-4 35 -7.5 71.5t-5.5 79.5h-1q-19 -43 -38.5 -79.5t-38.5 -71.5l-262 -492h-25z" />
<glyph unicode="&#x1e85;" horiz-adv-x="606" d="M309 680q0 -24 -14.5 -43t-33.5 -19q-13 0 -19.5 8.5t-6.5 21.5q0 23 15.5 41.5t33.5 18.5q25 0 25 -28zM497 680q0 -24 -14.5 -43t-33.5 -19q-13 0 -19.5 8.5t-6.5 21.5q0 23 15.5 41.5t33.5 18.5q25 0 25 -28zM595 505q18 0 18 -18q0 -33 -16.5 -89t-46.5 -124 t-69.5 -139t-86.5 -135h-40q2 115 -2 218t-12 199h-1q-13 -62 -43 -134.5t-70 -145.5t-86 -137h-40q3 149 -6 272t-26 223l41 7q16 -86 26 -197t7 -250h1q71 110 119 225t59 215h44q15 -85 24.5 -194.5t6.5 -245.5h1q48 73 85.5 150t62 153t31.5 143q5 2 10.5 3t8.5 1z" />
<glyph unicode="&#x1e92;" horiz-adv-x="507" d="M-16 0l-1 25l522 625l-379 -3l11 38h417l4 -25l-522 -625l397 4l-11 -39h-438zM197 -145q0 -24 -14.5 -42.5t-34.5 -18.5q-13 0 -20 9t-7 21q0 23 15.5 41.5t33.5 18.5q14 0 20.5 -8t6.5 -21z" />
<glyph unicode="&#x1e93;" horiz-adv-x="392" d="M-1 -10l-18 23q81 92 142.5 164t108.5 133t86 121q-51 23 -92.5 30.5t-61.5 7.5q-27 0 -50.5 -12.5t-46.5 -45.5l-21 8q24 53 53 69.5t67 16.5q35 0 76 -12t91 -38q15 25 29 50q14 0 21 -5t7 -12q0 -13 -19.5 -45t-53 -77.5t-77 -99.5t-92.5 -111t-98 -112q11 3 25 3 q22 0 49 -5t53.5 -10t46.5 -5q26 0 50 13t51 48l21 -8q-28 -55 -58 -72t-71 -17q-45 0 -91 10t-82 10q-16 0 -25 -4t-20 -16zM138 -145q0 -24 -14.5 -42.5t-34.5 -18.5q-13 0 -20 9t-7 21q0 23 15.5 41.5t33.5 18.5q14 0 20.5 -8t6.5 -21z" />
<glyph unicode="&#x1e9e;" horiz-adv-x="602" d="M65 77l83 388q17 77 57 128t95.5 76.5t117.5 25.5q56 0 99.5 -23t62.5 -67l-227 -216q46 -21 85 -47t63 -62.5t24 -89.5t-26.5 -99t-76.5 -73.5t-121 -27.5q-29 0 -60 6t-57 19l9 43q26 -17 59 -23.5t60 -6.5q56 0 93.5 21t56.5 56t19 77q0 71 -50 112t-130 69l5 23 l220 212q-19 36 -49 47.5t-62 11.5q-85 0 -145.5 -52t-78.5 -137l-83 -390q-4 -19 -13.5 -45t-19.5 -43l-38 10q10 21 17 39t11 38z" />
<glyph unicode="&#x1ea0;" horiz-adv-x="589" d="M13 0h-41l344 592q16 27 31 53.5t25 46.5l28 3l4 -5l107 -690h-44l-35 222h-290zM267 437l-104 -179h264l-28 179q-7 50 -14 100.5t-8 99.5h-1q-22 -49 -51 -99.5t-58 -100.5zM260 -145q0 -24 -14.5 -42.5t-34.5 -18.5q-13 0 -20 9t-7 21q0 23 15.5 41.5t33.5 18.5 q14 0 20.5 -8t6.5 -21z" />
<glyph unicode="&#x1ea1;" horiz-adv-x="506" d="M52 132q0 68 23.5 134t65 120t97.5 86.5t122 32.5q19 0 47 -3.5t56 -11.5l-42 -173q-19 -82 -33.5 -155.5t-14.5 -161.5h-40q0 37 2.5 70.5t9 71.5t17.5 90q-18 -39 -42 -81t-52 -79t-59.5 -59.5t-65.5 -22.5q-37 0 -64 33.5t-27 108.5zM95 137q0 -52 15.5 -81.5 t44.5 -29.5t60.5 28.5t61 74t55 97t43.5 98.5t26 78q4 13 7 26.5t7 28.5q-21 6 -42 9t-36 3q-48 0 -91.5 -29t-77.5 -77t-53.5 -107t-19.5 -119zM227 -145q0 -24 -14.5 -42.5t-34.5 -18.5q-13 0 -20 9t-7 21q0 23 15.5 41.5t33.5 18.5q14 0 20.5 -8t6.5 -21z" />
<glyph unicode="&#x1eb8;" horiz-adv-x="532" d="M437 39l-8 -39h-350l115 538q9 44 14.5 78t9.5 69h342l4 -5l-7 -34l-297 4l-63 -292l257 2l-9 -39l-255 2l-62 -288zM261 -145q0 -24 -14.5 -42.5t-34.5 -18.5q-13 0 -20 9t-7 21q0 23 15.5 41.5t33.5 18.5q14 0 20.5 -8t6.5 -21z" />
<glyph unicode="&#x1eb9;" horiz-adv-x="447" d="M364 119l18 -13q-31 -55 -80 -85.5t-99 -30.5q-62 0 -103 46.5t-41 132.5q0 59 19.5 118.5t54 108.5t79.5 79t95 30q47 0 76 -27t29 -75q0 -30 -14.5 -60t-49 -55t-94 -42t-147.5 -21q-5 -28 -5 -53q0 -64 28.5 -105t80.5 -41q44 0 83 27.5t70 65.5zM298 469 q-42 0 -79.5 -31t-65 -80.5t-40.5 -103.5q79 5 129 21t78 38.5t38.5 46t10.5 42.5q0 30 -19.5 48.5t-51.5 18.5zM188 -145q0 -24 -14.5 -42.5t-34.5 -18.5q-13 0 -20 9t-7 21q0 23 15.5 41.5t33.5 18.5q14 0 20.5 -8t6.5 -21z" />
<glyph unicode="&#x1ebc;" horiz-adv-x="532" d="M369 890q28 0 48 -14t39 -28t42 -14q25 0 45.5 17.5t36.5 39.5l15 -3q-12 -34 -42 -63t-68 -29q-28 0 -48.5 14t-39 28t-42.5 14t-44.5 -17t-37.5 -40l-15 3q8 20 23.5 41t38 36t49.5 15zM437 39l-8 -39h-350l115 538q9 44 14.5 78t9.5 69h342l4 -5l-7 -34l-297 4 l-63 -292l257 2l-9 -39l-255 2l-62 -288z" />
<glyph unicode="&#x1ebd;" horiz-adv-x="447" d="M253 710q25 0 43.5 -14t36 -28t37.5 -14q21 0 40 17.5t35 39.5l15 -3q-8 -21 -23.5 -42.5t-36 -35.5t-43.5 -14q-25 0 -44 14t-36 28t-38 14q-20 0 -39 -17t-36 -40l-15 3q9 20 24 41t35.5 36t44.5 15zM364 119l18 -13q-31 -55 -80 -85.5t-99 -30.5q-62 0 -103 46.5 t-41 132.5q0 59 19.5 118.5t54 108.5t79.5 79t95 30q47 0 76 -27t29 -75q0 -30 -14.5 -60t-49 -55t-94 -42t-147.5 -21q-5 -28 -5 -53q0 -64 28.5 -105t80.5 -41q44 0 83 27.5t70 65.5zM298 469q-42 0 -79.5 -31t-65 -80.5t-40.5 -103.5q79 5 129 21t78 38.5t38.5 46 t10.5 42.5q0 30 -19.5 48.5t-51.5 18.5z" />
<glyph unicode="&#x1eca;" horiz-adv-x="299" d="M121 0h-42l114 538q10 44 15.5 78t9.5 69l46 10l4 -5zM101 -145q0 -24 -14.5 -42.5t-34.5 -18.5q-13 0 -20 9t-7 21q0 23 15.5 41.5t33.5 18.5q14 0 20.5 -8t6.5 -21z" />
<glyph unicode="&#x1ecb;" horiz-adv-x="241" d="M227 682q0 -24 -14.5 -42.5t-34.5 -18.5q-13 0 -20 9t-7 21q0 23 15.5 41.5t33.5 18.5q14 0 20.5 -8t6.5 -21zM111 0h-40q0 54 10 121t27 146l20 92l8 136l49 10q0 -56 -11 -119t-26 -129t-26 -131.5t-11 -125.5zM110 -145q0 -24 -14.5 -42.5t-34.5 -18.5q-13 0 -20 9 t-7 21q0 23 15.5 41.5t33.5 18.5q14 0 20.5 -8t6.5 -21z" />
<glyph unicode="&#x1ecc;" horiz-adv-x="689" d="M630 448q0 -82 -25 -163t-70 -148t-107 -107t-137 -40q-88 0 -140.5 61.5t-52.5 179.5q0 66 16.5 132.5t47 126t73 106t94.5 73t110 26.5q88 0 139.5 -64t51.5 -183zM143 240q0 -99 40.5 -155.5t118.5 -56.5q65 0 117.5 37t89.5 98t56.5 134.5t19.5 146.5q0 99 -38.5 156 t-115.5 57q-64 0 -117 -37.5t-91.5 -99.5t-59 -135t-20.5 -145zM294 -145q0 -24 -14.5 -42.5t-34.5 -18.5q-13 0 -20 9t-7 21q0 23 15.5 41.5t33.5 18.5q14 0 20.5 -8t6.5 -21z" />
<glyph unicode="&#x1ecd;" horiz-adv-x="494" d="M436 337q0 -60 -17.5 -121t-50.5 -112.5t-78.5 -82.5t-101.5 -31q-61 0 -95 42t-34 127q0 62 18 123t51 111.5t78 81t100 30.5q61 0 95.5 -42t34.5 -126zM102 164q0 -65 23.5 -101.5t73.5 -36.5q45 0 81 28t61.5 73.5t38.5 99t13 104.5q0 138 -97 138q-45 0 -81 -28 t-61.5 -73.5t-38.5 -99t-13 -104.5zM203 -145q0 -24 -14.5 -42.5t-34.5 -18.5q-13 0 -20 9t-7 21q0 23 15.5 41.5t33.5 18.5q14 0 20.5 -8t6.5 -21z" />
<glyph unicode="&#x1ee4;" horiz-adv-x="634" d="M87 157q0 26 9 73.5t22 107t27 122.5t24.5 122t13.5 105l54 8v-1q-31 -144 -51 -236.5t-31.5 -146.5t-17 -81.5t-7 -40t-1.5 -22.5q0 -67 41.5 -102t105.5 -35q50 0 95 21t78 62.5t46 103.5q23 107 38.5 178.5t25 117t14.5 75t8 52t4 47.5l54 8l-101 -475 q-16 -76 -57.5 -127.5t-98.5 -77t-120 -25.5q-76 0 -125.5 42t-49.5 125zM273 -145q0 -24 -14.5 -42.5t-34.5 -18.5q-13 0 -20 9t-7 21q0 23 15.5 41.5t33.5 18.5q14 0 20.5 -8t6.5 -21z" />
<glyph unicode="&#x1ee5;" horiz-adv-x="510" d="M76 145l45 214l8 136l49 10q0 -73 -15.5 -145.5t-30.5 -151.5q-11 -59 -13.5 -99.5t10.5 -61.5t49 -21q44 0 81 29.5t66 81t49 116.5q11 50 20.5 98t13.5 93q2 26 3 51l40 10q0 -75 -18 -157.5t-34 -165.5q-9 -46 -15.5 -92t-6.5 -90h-40q0 33 3.5 67.5t9.5 69.5 q-34 -74 -84.5 -110.5t-99.5 -36.5q-55 0 -80 42t-10 113zM256 -145q0 -24 -14.5 -42.5t-34.5 -18.5q-13 0 -20 9t-7 21q0 23 15.5 41.5t33.5 18.5q14 0 20.5 -8t6.5 -21z" />
<glyph unicode="&#x1ef2;" horiz-adv-x="524" d="M485 779q-60 10 -111.5 28.5t-95.5 49.5l1 8l36 31q36 -30 83 -55t98 -45zM243 256l-124 435l43 4l74 -260q8 -32 20 -72t15 -78h1q20 38 49.5 79t51.5 73l182 258l33 -5l4 -5l-308 -433l-54 -252h-42z" />
<glyph unicode="&#x1ef3;" horiz-adv-x="398" d="M324 580q-43 32 -76 68.5t-54 82.5l5 8l42 16q15 -41 40.5 -82t55.5 -80zM387 505q18 0 18 -18q0 -35 -20 -92.5t-54.5 -126.5t-79.5 -142t-95 -141t-101 -122t-98 -86t-85 -32q-37 0 -37 27q0 7 2.5 13t5.5 10q11 -1 21 -2t16 -1q33 0 66.5 20t66 52t61.5 68.5t52 69.5 q0 133 -15 256t-43 237l40 10q30 -110 44.5 -217t14.5 -228h1q49 72 92 148t72 151t36 142q5 2 10.5 3t8.5 1z" />
<glyph unicode="&#x1ef8;" horiz-adv-x="524" d="M331 890q28 0 48 -14t39 -28t42 -14q25 0 45.5 17.5t36.5 39.5l15 -3q-12 -34 -42 -63t-68 -29q-28 0 -48.5 14t-39 28t-42.5 14t-44.5 -17t-37.5 -40l-15 3q8 20 23.5 41t38 36t49.5 15zM243 256l-124 435l43 4l74 -260q8 -32 20 -72t15 -78h1q20 38 49.5 79t51.5 73 l182 258l33 -5l4 -5l-308 -433l-54 -252h-42z" />
<glyph unicode="&#x1ef9;" horiz-adv-x="398" d="M210 710q25 0 43.5 -14t36 -28t37.5 -14q21 0 40 17.5t35 39.5l15 -3q-8 -21 -23.5 -42.5t-36 -35.5t-43.5 -14q-25 0 -44 14t-36 28t-38 14q-20 0 -39 -17t-36 -40l-15 3q9 20 24 41t35.5 36t44.5 15zM387 505q18 0 18 -18q0 -35 -20 -92.5t-54.5 -126.5t-79.5 -142 t-95 -141t-101 -122t-98 -86t-85 -32q-37 0 -37 27q0 7 2.5 13t5.5 10q11 -1 21 -2t16 -1q33 0 66.5 20t66 52t61.5 68.5t52 69.5q0 133 -15 256t-43 237l40 10q30 -110 44.5 -217t14.5 -228h1q49 72 92 148t72 151t36 142q5 2 10.5 3t8.5 1z" />
<glyph unicode="&#x2007;" />
<glyph unicode="&#x2013;" horiz-adv-x="494" d="M40 279l4 35h431l-5 -35h-430z" />
<glyph unicode="&#x2014;" horiz-adv-x="754" d="M37 279l7 35h694l-7 -35h-694z" />
<glyph unicode="&#x2018;" horiz-adv-x="207" d="M263 744q-24 -38 -47.5 -82.5t-36.5 -84.5q14 0 22.5 -9.5t8.5 -22.5q0 -22 -17 -40t-39 -18q-30 0 -30 33q0 19 11.5 48.5t30 63.5t40 66t41.5 56z" />
<glyph unicode="&#x2019;" horiz-adv-x="207" d="M104 500q24 38 47.5 82.5t36.5 84.5q-14 0 -22.5 9.5t-8.5 22.5q0 23 17 40.5t39 17.5q30 0 30 -33q0 -19 -11.5 -48.5t-30 -63.5t-40 -66t-41.5 -56z" />
<glyph unicode="&#x201a;" horiz-adv-x="207" d="M-40 -177q24 38 47.5 82.5t36.5 84.5q-14 0 -22.5 9.5t-8.5 22.5q0 23 17 40.5t39 17.5q30 0 30 -33q0 -19 -11.5 -48.5t-30 -63.5t-40 -66t-41.5 -56z" />
<glyph unicode="&#x201c;" horiz-adv-x="364" d="M263 744q-24 -38 -47.5 -82.5t-36.5 -84.5q14 0 22.5 -9.5t8.5 -22.5q0 -22 -17 -40t-39 -18q-30 0 -30 33q0 19 11.5 48.5t30 63.5t40 66t41.5 56zM420 744q-24 -38 -47.5 -82.5t-36.5 -84.5q14 0 22.5 -9.5t8.5 -22.5q0 -22 -17 -40t-39 -18q-30 0 -30 33 q0 19 11.5 48.5t30 63.5t40 66t41.5 56z" />
<glyph unicode="&#x201d;" horiz-adv-x="364" d="M261 501q24 38 47.5 82.5t36.5 84.5q-14 0 -22.5 9.5t-8.5 22.5q0 23 17 40.5t39 17.5q30 0 30 -33q0 -19 -11.5 -48.5t-30 -63.5t-40 -66t-41.5 -56zM104 501q24 38 47.5 82.5t36.5 84.5q-14 0 -22.5 9.5t-8.5 22.5q0 23 17 40.5t39 17.5q30 0 30 -33q0 -19 -11.5 -48.5 t-30 -63.5t-40 -66t-41.5 -56z" />
<glyph unicode="&#x201e;" horiz-adv-x="364" d="M-40 -177q24 38 47.5 82.5t36.5 84.5q-14 0 -22.5 9.5t-8.5 22.5q0 23 17 40.5t39 17.5q30 0 30 -33q0 -19 -11.5 -48.5t-30 -63.5t-40 -66t-41.5 -56zM117 -177q24 38 47.5 82.5t36.5 84.5q-14 0 -22.5 9.5t-8.5 22.5q0 23 17 40.5t39 17.5q30 0 30 -33 q0 -19 -11.5 -48.5t-30 -63.5t-40 -66t-41.5 -56z" />
<glyph unicode="&#x2020;" horiz-adv-x="504" d="M209 0l-17 -3l-6 7l27 168l71 298l-168 -5l-2 3q0 15 3 28l8 7l165 -5l35 191l4 3q10 2 15.5 2.5t15.5 0.5l6 -7l-46 -190l168 5l3 -3q0 -14 -3 -28l-9 -7l-166 5l-55 -298l-45 -169z" />
<glyph unicode="&#x2021;" horiz-adv-x="504" d="M183 -3l-6 7l49 192l-167 -7l-6 7q2 7 4.5 16t5.5 16l4 3l164 -9q4 32 8 64.5t11 64.5q7 30 16.5 60t18.5 60l-169 -7l-2 3q0 7 1.5 16t2.5 16l8 7l165 -9l32 192l4 3q11 2 17.5 2.5t17.5 0.5l6 -7l-48 -191l169 9l2 -3q0 -7 -1 -16t-2 -16l-9 -7l-164 7q-4 -30 -7.5 -60 t-10.5 -60q-7 -32 -16.5 -64.5t-18.5 -64.5l168 9l5 -7q-1 -7 -4 -16t-6 -16l-3 -3l-166 7l-34 -193l-4 -3q-9 -1 -17.5 -1.5t-17.5 -1.5z" />
<glyph unicode="&#x2022;" horiz-adv-x="394" d="M182 190q-37 0 -56.5 22t-19.5 53q0 36 19 67.5t49.5 51.5t63.5 20q35 0 53 -20t18 -52q0 -37 -18 -69.5t-47 -52.5t-62 -20z" />
<glyph unicode="&#x2026;" horiz-adv-x="553" d="M104 48q0 -22 -17 -40t-37 -18q-13 0 -23 9t-10 24q0 22 17.5 39.5t37.5 17.5q14 0 23 -9t9 -23zM275 48q0 -22 -17 -40t-37 -18q-13 0 -23 9t-10 24q0 22 17.5 39.5t37.5 17.5q14 0 23 -9t9 -23zM446 48q0 -22 -17 -40t-37 -18q-13 0 -23 9t-10 24q0 22 17.5 39.5 t37.5 17.5q14 0 23 -9t9 -23z" />
<glyph unicode="&#x2030;" horiz-adv-x="1333" d="M436 558q0 -46 -14.5 -93t-42 -85.5t-66 -62t-85.5 -23.5q-55 0 -84.5 36t-29.5 103q0 47 15 93.5t42 85t65.5 61.5t84.5 23q56 0 85.5 -35.5t29.5 -102.5zM734 695l-422 -705h-40l421 705h41zM152 436q0 -54 21 -83t64 -29q38 0 68 21t50.5 55.5t31.5 75t11 79.5 q0 111 -85 111q-38 0 -68 -21t-50.5 -55.5t-31.5 -75t-11 -78.5zM848 186q0 -46 -14.5 -93t-42 -85.5t-66 -62t-85.5 -23.5q-55 0 -84.5 36t-29.5 103q0 47 15 93.5t42 85t65.5 61.5t84.5 23q56 0 85.5 -35.5t29.5 -102.5zM1245 186q0 -46 -14.5 -93t-42 -85.5t-66 -62 t-85.5 -23.5q-55 0 -84.5 36t-29.5 103q0 47 15 93.5t42 85t65.5 61.5t84.5 23q56 0 85.5 -35.5t29.5 -102.5zM564 64q0 -54 21 -83t64 -29q38 0 68 21t50.5 55.5t31.5 75t11 79.5q0 111 -85 111q-38 0 -68 -21t-50.5 -55.5t-31.5 -75t-11 -78.5zM961 64q0 -54 21 -83 t64 -29q38 0 68 21t50.5 55.5t31.5 75t11 79.5q0 111 -85 111q-38 0 -68 -21t-50.5 -55.5t-31.5 -75t-11 -78.5z" />
<glyph unicode="&#x2039;" horiz-adv-x="279" d="M68 286l3 12q49 38 100.5 88t107.5 109l11 -8q-38 -53 -79.5 -102.5t-85.5 -92.5q25 -43 46 -91.5t36 -103.5l-14 -8q-31 59 -60.5 108.5t-64.5 88.5z" />
<glyph unicode="&#x203a;" horiz-adv-x="279" d="M230 298l-3 -12q-49 -38 -100.5 -88t-107.5 -109l-11 8q38 53 79.5 102.5t85.5 92.5q-25 43 -46 91.5t-36 103.5l14 8q32 -58 61.5 -108t63.5 -89z" />
<glyph unicode="&#x2044;" horiz-adv-x="520" d="M616 700l-576 -710h-45l575 710h46z" />
<glyph unicode="&#x2070;" horiz-adv-x="470" d="M526 617q0 -54 -17.5 -103t-48.5 -87.5t-71.5 -60.5t-85.5 -22q-56 0 -89.5 37t-33.5 110q0 54 17.5 103t49 88t71.5 61.5t85 22.5q56 0 89.5 -37.5t33.5 -111.5zM220 494q0 -58 23 -90t67 -32q48 0 88 34.5t63.5 90.5t23.5 119q0 58 -22 90t-66 32q-48 0 -88 -34.5 t-64.5 -90t-24.5 -119.5z" />
<glyph unicode="&#x2074;" horiz-adv-x="391" d="M145 494l247 266l41 6l3 -4l-56 -266q35 1 68 5l-15 -36h-60l-24 -113h-37l25 113h-192v29zM180 495v-1q37 1 69.5 1h72.5h20h1l29 133q6 27 9.5 43t6 28t5.5 26h-1z" />
<glyph unicode="&#x2075;" horiz-adv-x="366" d="M131 358l11 30q19 -7 45 -11t47 -4q41 0 73.5 14.5t52 40t19.5 56.5q0 41 -28.5 61t-69.5 20q-17 0 -42.5 -3.5t-41.5 -9.5l-6 6l42 200h128q27 0 53.5 1t51.5 5l-11 -38h-195l-29 -140q16 3 34.5 5t32.5 2q50 0 86 -24.5t36 -76.5q0 -41 -25.5 -75t-69 -53.5 t-97.5 -19.5q-28 0 -54.5 5t-42.5 9z" />
<glyph unicode="&#x2076;" horiz-adv-x="406" d="M297 344q-57 0 -89 32.5t-32 100.5q0 56 21 107.5t57.5 92.5t84 65t100.5 24q15 0 29.5 -2t21.5 -7l-10 -30q-7 4 -19.5 6.5t-27.5 2.5q-43 0 -84.5 -20.5t-73.5 -62.5t-49 -108h1q25 21 56.5 31t59.5 10q53 0 84.5 -26.5t31.5 -72.5q0 -39 -21.5 -71.5t-58.5 -52 t-82 -19.5zM335 559q-30 0 -64 -14t-51 -39q-3 -18 -3 -35q0 -44 21 -70.5t66 -26.5q49 0 82 32t33 77q0 33 -21 54.5t-63 21.5z" />
<glyph unicode="&#x2077;" horiz-adv-x="345" d="M193 719l15 39h258l4 -5l-5 -23q-53 -48 -107.5 -110t-97 -130.5t-61.5 -137.5h-40q14 51 44.5 104t68.5 103t78 93t74 73v1h-121q-27 0 -55.5 -1.5t-54.5 -5.5z" />
<glyph unicode="&#x2078;" horiz-adv-x="385" d="M272 344q-59 0 -94.5 24t-35.5 61t35 70.5t99 55.5v1q-29 17 -51 41.5t-22 57.5q0 32 20.5 57t54.5 39.5t72 14.5q50 0 82.5 -24t32.5 -62q0 -37 -33 -70.5t-86 -53.5v-1q33 -16 59.5 -43t26.5 -62q0 -29 -21 -53.5t-57 -38.5t-82 -14zM342 738q-40 0 -70 -21t-30 -57 q0 -28 21.5 -51t53.5 -38q50 18 80 46t30 59q0 29 -24 45.5t-61 16.5zM300 540q-26 -9 -54 -24.5t-46.5 -36t-18.5 -45.5q0 -27 25 -45t71 -18q53 0 84.5 23t31.5 53q0 29 -27.5 51.5t-65.5 41.5z" />
<glyph unicode="&#x2079;" horiz-adv-x="406" d="M290 512q-51 0 -80 26t-29 71q0 41 21.5 77t58.5 58t83 22q54 0 88.5 -35.5t34.5 -107.5q0 -57 -21.5 -107.5t-59 -89t-83.5 -60.5t-96 -22q-15 0 -30 1.5t-21 3.5l6 29q9 -1 22 -2.5t24 -1.5q49 0 94 26t76 69t40 96q-25 -28 -60 -40.5t-68 -12.5zM340 737 q-33 0 -59.5 -17t-42 -44t-15.5 -59q0 -34 20 -55.5t60 -21.5q31 0 64 13t55 44q3 20 3 37q0 46 -21.5 74.5t-63.5 28.5zM438 628l-2 -6z" />
<glyph unicode="&#x207f;" horiz-adv-x="449" d="M185 560q27 58 74 91t94 33q40 0 63 -23t23 -63q0 -21 -7 -52.5t-22 -97.5q-12 -53 -15 -87t-2 -71h-35q-1 43 5.5 86t17.5 97q12 56 15.5 81.5t3.5 37.5q0 60 -58 60q-40 0 -76 -27.5t-63 -76.5t-43 -115t-16 -143h-35q-1 34 3 69t14 84.5t26 126.5l4 106l43 8 q1 -27 -3.5 -58t-12.5 -66h2z" />
<glyph unicode="&#x2080;" horiz-adv-x="470" d="M436 193q0 -54 -17.5 -103t-48.5 -87.5t-71.5 -60.5t-85.5 -22q-56 0 -89.5 37t-33.5 110q0 54 17.5 103t49 88t71.5 61.5t85 22.5q56 0 89.5 -37.5t33.5 -111.5zM130 70q0 -58 23 -90t67 -32q48 0 88 34.5t63.5 90.5t23.5 119q0 58 -22 90t-66 32q-48 0 -88.5 -34.5 t-64.5 -90t-24 -119.5z" />
<glyph unicode="&#x2081;" horiz-adv-x="227" d="M164 300h-1l-81 -17l-2 22l126 39l3 -4l-87 -410h-38l60 283q6 29 11 49t9 38z" />
<glyph unicode="&#x2082;" horiz-adv-x="359" d="M25 -70l2 33q55 33 106.5 67t92 68t64.5 69.5t24 72.5q0 35 -22.5 54.5t-61.5 19.5q-31 0 -65.5 -11t-68.5 -34l3 31q28 20 68.5 32t75.5 12q50 0 81.5 -25t31.5 -70q0 -42 -26 -81.5t-68.5 -76t-93 -69t-99.5 -60.5h135q54 0 105 6l-14 -38h-270z" />
<glyph unicode="&#x2083;" horiz-adv-x="346" d="M115 309q20 12 56 22.5t71 10.5q44 0 72 -19t28 -52q0 -44 -43.5 -80.5t-106.5 -54.5q57 0 90.5 -21t33.5 -63q0 -36 -25 -66t-68 -48t-97 -18q-28 0 -55.5 4.5t-44.5 9.5l10 29q17 -5 43.5 -9.5t50.5 -4.5q41 0 73.5 13t52 34.5t19.5 48.5q0 26 -16 41t-42 21.5t-56 6.5 q-11 0 -22.5 -1t-22.5 -3l7 29q82 16 129.5 49.5t47.5 73.5q0 23 -19 36.5t-54 13.5q-30 0 -60 -9t-54 -23z" />
<glyph unicode="&#x2084;" horiz-adv-x="391" d="M55 72l247 266l41 6l3 -4l-56 -266q35 1 68 5l-15 -36h-60l-24 -113h-37l25 113h-192v29zM90 73v-1q37 1 69.5 1h72.5h20h1l29 133q6 27 9.5 43t6 28t5.5 26h-1z" />
<glyph unicode="&#x2085;" horiz-adv-x="366" d="M41 -66l11 30q19 -7 45 -11t47 -4q41 0 73.5 14.5t52 40t19.5 56.5q0 41 -28.5 61t-69.5 20q-17 0 -42.5 -3.5t-41.5 -9.5l-6 6l42 200h128q27 0 53.5 1t51.5 5l-11 -38h-195l-29 -140q16 3 34.5 5t32.5 2q50 0 86 -24.5t36 -76.5q0 -41 -25.5 -75t-69 -53.5t-97.5 -19.5 q-28 0 -54.5 5t-42.5 9z" />
<glyph unicode="&#x2086;" horiz-adv-x="406" d="M207 -80q-57 0 -89 32.5t-32 100.5q0 56 21 107.5t57.5 92.5t84 65t100.5 24q15 0 29.5 -2t21.5 -7l-10 -30q-7 4 -19.5 6.5t-27.5 2.5q-43 0 -84.5 -20.5t-73.5 -62.5t-49 -108h1q25 21 56.5 31t59.5 10q53 0 84.5 -26.5t31.5 -72.5q0 -39 -21.5 -71.5t-58.5 -52 t-82 -19.5zM245 135q-30 0 -64 -14t-51 -39q-3 -18 -3 -35q0 -44 21 -70.5t66 -26.5q49 0 82 32t33 77q0 33 -21 54.5t-63 21.5z" />
<glyph unicode="&#x2087;" horiz-adv-x="345" d="M103 297l15 39h258l4 -5l-5 -23q-53 -48 -107.5 -110t-97 -130.5t-61.5 -137.5h-40q14 51 44.5 104t68.5 103t78 93t74 73v1h-121q-27 0 -55.5 -1.5t-54.5 -5.5z" />
<glyph unicode="&#x2088;" horiz-adv-x="385" d="M182 -80q-59 0 -94.5 24t-35.5 61t35 70.5t99 55.5v1q-29 17 -51 41.5t-22 57.5q0 32 20.5 57t54.5 39.5t72 14.5q50 0 82.5 -24t32.5 -62q0 -37 -33 -70.5t-86 -53.5v-1q33 -16 59.5 -43t26.5 -62q0 -29 -21 -53.5t-57 -38.5t-82 -14zM252 314q-40 0 -70 -21t-30 -57 q0 -28 21.5 -51t53.5 -38q50 18 80 46t30 59q0 29 -24 45.5t-61 16.5zM210 116q-26 -9 -54 -24.5t-46.5 -36t-18.5 -45.5q0 -27 25 -45t71 -18q53 0 84.5 23t31.5 53q0 29 -27.5 51.5t-65.5 41.5z" />
<glyph unicode="&#x2089;" horiz-adv-x="406" d="M200 88q-51 0 -80 26t-29 71q0 41 21.5 77t58.5 58t83 22q54 0 88.5 -35.5t34.5 -107.5q0 -57 -21.5 -107.5t-59 -89t-83.5 -60.5t-96 -22q-15 0 -30 1.5t-21 3.5l6 29q9 -1 22 -2.5t24 -1.5q49 0 94 26t76 69t40 96q-25 -28 -60 -40.5t-68 -12.5zM250 313 q-33 0 -59.5 -17t-42 -44t-15.5 -59q0 -34 20 -55.5t60 -21.5q31 0 64 13t55 44q3 20 3 37q0 46 -21.5 74.5t-63.5 28.5zM348 204l-2 -6z" />
<glyph unicode="&#x20ac;" horiz-adv-x="611" d="M71 250l10 30h83q6 55 22 108h-70l11 30h70q29 78 77.5 141t109.5 99.5t128 36.5q35 0 74 -11t64 -34l-17 -42q-20 22 -55 35.5t-73 13.5q-56 0 -106.5 -31.5t-91 -85.5t-66.5 -122h249l-10 -30h-249q-16 -53 -21 -108h234l-9 -30h-227v-15q0 -101 40 -154t114 -53 q43 0 88.5 16.5t80.5 41.5l-2 -38q-38 -28 -88 -43t-94 -15q-85 0 -135.5 57.5t-50.5 175.5q0 14 1 27h-91z" />
<glyph unicode="&#x2122;" horiz-adv-x="597" d="M576 688l3 -3l-21 -225h-28l9 87q2 22 5.5 53.5t5.5 50.5h-1q-8 -17 -13.5 -28.5t-13.5 -28t-26 -48.5l-47 -86h-32l-10 86q-3 30 -5 44t-2.5 26.5t-1.5 35.5h-1q-5 -18 -7 -25t-4 -13t-7 -20.5t-16 -47.5l-29 -86h-25l77 226l35 2l14 -114q2 -17 3.5 -37t1.5 -49h1 q11 23 21.5 45t20.5 41l61 112zM214 460h-30l43 203q-17 0 -35 -0.5t-34 -1.5l7 24h164l-3 -24q-16 1 -33.5 1.5t-35.5 0.5z" />
<glyph unicode="&#x2202;" horiz-adv-x="598" d="M388 755q97 0 145 -69t48 -203q0 -98 -24 -187t-68.5 -158t-107.5 -108.5t-141 -39.5q-83 0 -123.5 45t-40.5 118q0 58 22.5 109.5t63 90.5t94.5 61.5t116 22.5q50 0 89 -14t69 -35q5 41 5 83q0 124 -39.5 186t-110.5 62q-36 0 -76.5 -13t-69.5 -33l-13 32q30 20 73.5 35 t88.5 15zM120 162q0 -136 129 -136q75 0 131 44t92.5 117t51.5 160q-27 23 -63 38.5t-89 15.5q-75 0 -132 -31.5t-88.5 -85.5t-31.5 -122z" />
<glyph unicode="&#x220f;" horiz-adv-x="733" d="M812 680l-11 -35h-130l-167 -785h-40l167 785h-259l-167 -785h-40l167 785h-130l7 35l599 5z" />
<glyph unicode="&#x2211;" horiz-adv-x="557" d="M47 -87l343 373l-184 374l15 25h442l4 -5l-10 -33l-408 5l181 -358l-3 -15l-333 -358l410 5l-10 -38h-442z" />
<glyph unicode="&#x2212;" d="M521 328h-450l7 35q31 1 76 1.5t96.5 1.5t103.5 1.5t97.5 0.5h77.5l3 -5z" />
<glyph unicode="&#x221a;" horiz-adv-x="584" d="M715 745l-387 -745h-51l-80 462h-79l7 33h108l78 -456l369 716l31 -5z" />
<glyph unicode="&#x221e;" horiz-adv-x="818" d="M773 377q0 -51 -26.5 -95.5t-70.5 -72t-99 -27.5q-48 0 -78 20t-48 49t-30 56q-48 -61 -97.5 -93t-104.5 -32q-58 0 -95 35.5t-37 97.5q0 52 25 96t67 70.5t93 26.5q45 0 75.5 -20t51.5 -50t36 -61q50 65 101 98t106 33q58 0 94.5 -34.5t36.5 -96.5zM632 472 q-48 0 -93.5 -33t-89.5 -94q15 -34 31.5 -63t40 -46.5t60.5 -17.5q40 0 74 21.5t55 56.5t21 75q0 47 -27.5 74t-71.5 27zM129 325q0 -49 28.5 -77.5t72.5 -28.5q47 0 92 32t86 87q-14 32 -32 63t-45 51t-67 20t-70.5 -21t-47.5 -54.5t-17 -71.5z" />
<glyph unicode="&#x222b;" horiz-adv-x="493" d="M137 -255q-36 0 -63 9t-51 23l17 41q22 -16 47.5 -26.5t55.5 -10.5q47 0 74.5 24.5t41 67t18 99t4.5 120.5q0 48 -1 110t-1 141q0 89 4.5 164t22 130.5t55 86.5t103.5 31q35 0 62 -9t51 -23l-17 -41q-22 17 -47.5 27t-55.5 10q-46 0 -73.5 -23.5t-41.5 -65t-18.5 -95 t-4.5 -113.5q0 -43 1 -106.5t1 -149.5q0 -95 -4.5 -172.5t-22 -133t-55 -85.5t-102.5 -30z" />
<glyph unicode="&#x2248;" d="M450 367q-14 0 -39.5 7.5t-56.5 19t-61 23t-52 19t-30 7.5q-15 0 -41 -27t-58 -62l-22 18q18 23 40 48.5t46 44t45 18.5q14 0 39.5 -7.5t56.5 -19t60.5 -23t51.5 -19t30 -7.5q15 0 41 26.5t60 61.5l21 -17q-17 -22 -39.5 -48t-46 -44.5t-45.5 -18.5zM408 174 q-14 0 -39.5 7.5t-56.5 19t-61 23t-52 19t-30 7.5q-15 0 -41 -27t-58 -62l-22 18q18 23 40 48.5t46 44t45 18.5q14 0 39.5 -7.5t56.5 -19t60.5 -23t51.5 -19t30 -7.5q15 0 41 26.5t60 61.5l21 -17q-17 -22 -39.5 -48t-46 -44.5t-45.5 -18.5z" />
<glyph unicode="&#x2260;" d="M116 120l85 123h-149l7 35q30 1 74 1.5t94 1.5l101 146h-237l8 35q43 1 113 2t143 2l92 133l7 2l24 -14l-84 -121q94 1 155 1l4 -5l-12 -35h-174l-101 -146q69 1 135.5 1.5t108.5 0.5l3 -5l-11 -35h-262l-93 -134l-8 -2z" />
<glyph unicode="&#x2264;" d="M152 438l358 -145l-9 -40l-410 171l5 26l6 6q29 10 73 25t97 32.5t108 35.5t106 34t91 28l-9 -40zM477 103h-450l7 35q31 1 76 1.5t96.5 1.5t103.5 1.5t97.5 0.5h77.5l3 -5z" />
<glyph unicode="&#x2265;" d="M61 253l9 40l422 146l-362 132l8 40q37 -13 92 -33.5t115.5 -43t114 -43.5t87.5 -35l3 -6l-6 -30zM473 103h-450l7 35q31 1 76 1.5t96.5 1.5t103.5 1.5t97.5 0.5h77.5l3 -5z" />
<glyph unicode="&#x25ca;" horiz-adv-x="600" d="M74 330l5 25l288 335l50 10l149 -345l-5 -27l-289 -328l-49 -10zM381 655l-263 -313l133 -306l8 1l265 305l-134 313h-9z" />
<glyph unicode="&#x25fc;" horiz-adv-x="505" d="M0 505h505v-505h-505v505z" />
<glyph unicode="&#xfb00;" horiz-adv-x="573" d="M-12 -203l-15 21q23 26 49.5 71t40.5 111l98 462l-75 2l5 24l77 7q4 20 7 42t7 38q13 60 41.5 95t66.5 50t80 15q40 0 70.5 -10.5t51.5 -23.5q23 26 54 40t70 14q56 0 99 -26l-21 -40q-14 12 -36.5 21t-52.5 9q-54 0 -82 -33.5t-42 -94.5q-1 -7 -4.5 -24.5t-7 -37 t-6.5 -34.5h136l4 -5l-9 -31l-137 3l-98 -462q-14 -67 -45 -116t-70 -87l-15 21q23 26 49.5 71t40.5 111l98 462h-216l-98 -462q-14 -67 -45 -116t-70 -87zM221 573q-4 -16 -6.5 -35.5t-7.5 -42.5h217q5 29 10 57.5t8 41.5q9 41 25 72q-21 14 -47 23.5t-61 9.5 q-54 0 -89 -28.5t-49 -97.5z" />
<glyph unicode="&#xfb01;" horiz-adv-x="501" d="M-12 -203l-15 21q23 26 49.5 71t40.5 111l98 462l-75 2l5 24l77 7q6 29 11 58.5t7 40.5q15 74 64.5 117.5t125.5 43.5q79 0 131 -46l-30 -34q-17 17 -44 30.5t-69 13.5q-61 0 -93 -33.5t-45 -92.5q-1 -7 -5 -25.5t-7.5 -38.5t-6.5 -34h189l49 10q0 -56 -11 -119t-26 -129 t-26 -131.5t-11 -125.5h-40q0 54 10 121t27 146l20 92l6 100l-193 3l-98 -462q-14 -67 -45 -116t-70 -87z" />
<glyph unicode="&#xfb02;" horiz-adv-x="508" d="M-12 -203l-15 21q23 26 49.5 71t40.5 111l98 462l-75 2l5 24l77 7q6 29 11 58.5t7 40.5q15 74 64.5 117.5t125.5 43.5q43 0 81 -15v5l49 10q0 -58 -13 -132t-31.5 -156.5t-37.5 -166t-32 -160.5t-13 -140h-40q0 36 5.5 82.5t19 117.5t36.5 180l17 79l-216 3l-98 -462 q-14 -67 -45 -116t-70 -87zM226 593q-1 -7 -5 -25.5t-7.5 -38.5t-6.5 -34h216l1 -2l25 116l5 84q-16 11 -38 18.5t-52 7.5q-61 0 -93 -33.5t-45 -92.5z" />
<glyph unicode="&#xfb03;" horiz-adv-x="751" d="M-12 -203l-15 21q23 26 49.5 71t40.5 111l98 462l-75 2l5 24l77 7q4 20 7 42t7 38q13 60 41.5 95t67 50t79.5 15q39 0 69.5 -10t51.5 -23q52 53 135 53q79 0 131 -46l-30 -34q-17 17 -44 30.5t-69 13.5q-61 0 -93 -33.5t-45 -92.5q-1 -7 -5 -25.5t-7.5 -38.5t-6.5 -34 h189l49 10q0 -56 -11 -119t-26 -129t-26 -131.5t-11 -125.5h-40q0 54 10 121t27 146l20 92l6 100l-193 3l-98 -462q-14 -67 -45 -116t-70 -87l-15 21q23 26 49.5 71t40.5 111l98 462h-210l-98 -462q-14 -67 -45 -116t-70 -87zM221 573q-4 -16 -6.5 -35.5t-7.5 -42.5h211 q6 29 11 58.5t7 40.5q8 42 28 74q-21 13 -46 22t-59 9q-54 0 -89 -28.5t-49 -97.5z" />
<glyph unicode="&#xfb04;" horiz-adv-x="764" d="M-12 -203l-15 21q23 26 49.5 71t40.5 111l98 462l-75 2l5 24l77 7q4 20 7 42t7 38q14 60 42.5 95t66.5 50t79 15t72.5 -11t51.5 -24q53 55 138 55q43 0 81 -15v5l49 10q0 -58 -13 -132t-31.5 -156.5t-37.5 -166t-32 -160.5t-13 -140h-40q0 36 5.5 82.5t19 117.5t36.5 180 l17 79l-216 3l-98 -462q-14 -67 -45 -116t-70 -87l-15 21q23 26 49.5 71t40.5 111l98 462h-216l-98 -462q-14 -67 -45 -116t-70 -87zM482 593q-1 -7 -5 -25.5t-7.5 -38.5t-6.5 -34h216l1 -2l25 116l5 84q-16 11 -38 18.5t-52 7.5q-61 0 -93 -33.5t-45 -92.5zM221 573 q-4 -16 -6.5 -35.5t-7.5 -42.5h217q6 29 11 58.5t7 40.5q8 40 26 71q-21 14 -47 24t-62 10q-54 0 -88 -28.5t-50 -97.5z" />
<glyph unicode="&#xfb06;" horiz-adv-x="728" d="M376 479l-17 -41q-21 14 -46.5 22.5t-56.5 8.5q-55 0 -89.5 -28.5t-34.5 -70.5q0 -34 21 -55t51.5 -37t61 -33.5t51.5 -42.5t21 -66t-23.5 -74t-64.5 -52.5t-94 -19.5q-30 0 -64 7.5t-63 24.5l17 41q26 -19 60 -28t60 -9q53 0 90 29.5t37 72.5q0 33 -21 53.5t-52 36 t-61.5 32.5t-51.5 42t-21 66q0 44 25 77t66.5 51.5t90.5 18.5q16 0 31.5 -2t28.5 -6q-9 17 -12 35t-3 33q0 52 27 92.5t70.5 64t92.5 23.5q61 0 95 -32.5t34 -81.5q0 -39 -20.5 -76t-54.5 -60h167l4 -5l-8 -28h-138q-20 -92 -33 -153.5t-21 -99.5t-12 -59t-5.5 -33t-1.5 -21 q0 -39 16 -54.5t46 -15.5q23 0 45 7t41 18l2 -33q-21 -12 -48 -20t-56 -8q-43 0 -66 21t-23 69q0 10 1.5 21.5t5.5 33.5t12.5 61.5t22 104t34.5 161.5h-76l6 23q56 17 88 57.5t32 85.5q0 40 -26 60.5t-67 20.5q-40 0 -73.5 -19.5t-53 -53.5t-19.5 -77t23 -80z" />
<glyph horiz-adv-x="269" d="M369 865l-3 -8q-57 -31 -116.5 -49.5t-124.5 -28.5l-3 17q59 20 117.5 45t105.5 55zM-66 -182l-10 26q43 21 80.5 69t54.5 130l105 495q9 44 14.5 75.5t9.5 71.5l46 10l4 -5l-137 -647q-35 -166 -167 -225z" />
<glyph horiz-adv-x="218" d="M279 736l1 -8q-42 -46 -89.5 -82.5t-104.5 -68.5l-7 13q44 37 88.5 79t75.5 83zM-70 -255l-15 21q44 26 74.5 71t44.5 111l88 411l8 136l49 10q0 -26 -3 -54.5t-10 -67.5t-19 -96.5t-29.5 -140t-42.5 -198.5q-15 -67 -49.5 -116t-95.5 -87z" />
<glyph horiz-adv-x="419" d="M16 37q0 53 19 104t53 92t80 66t100 25q15 0 39 -2.5t48 -10.5l-32 -135q-16 -67 -27 -123t-10 -123h-35q0 42 4 79t16 95q-19 -40 -46.5 -82t-60.5 -71t-70 -29q-31 0 -54.5 27t-23.5 88zM54 42q0 -41 13 -64.5t37 -23.5t49 21.5t49 56t44.5 74t35.5 76.5t22 63 q4 17 9 40q-29 9 -61 9q-40 0 -76 -22t-63.5 -58.5t-43 -81.5t-15.5 -90z" />
<glyph horiz-adv-x="429" d="M116 405l4 106l43 8q1 -43 -9 -104.5t-26 -132t-34 -141.5q24 51 52.5 92.5t62 66t69.5 24.5q35 0 59 -27.5t24 -87.5q0 -51 -19 -102t-53 -93t-81.5 -67t-104.5 -25q-19 0 -45 3t-47 10q6 26 12.5 51.5t14 56.5t17.5 75t23 108zM61 0v2q-5 -22 -9 -40q14 -5 30.5 -7.5 t30.5 -2.5q44 0 82.5 22t67 58.5t44.5 81t16 89.5q0 41 -13.5 65t-39.5 24q-25 0 -52 -21.5t-52.5 -55.5t-47 -74t-36.5 -77t-21 -64z" />
<glyph horiz-adv-x="375" d="M271 24l15 -12q-26 -40 -68.5 -65t-86.5 -25q-52 0 -82 37.5t-30 101.5q0 51 18.5 98t50 84t72.5 59t86 22q24 0 44.5 -6t34.5 -14l-14 -35q-15 11 -33 18t-39 7q-37 0 -70 -21t-58 -55.5t-39.5 -75.5t-14.5 -82q0 -47 21.5 -77t61.5 -30q37 0 71.5 21t59.5 50z" />
<glyph horiz-adv-x="429" d="M297 -70h-35q-1 32 4.5 75.5t18.5 110.5q-20 -45 -49 -89.5t-65 -74.5t-77 -30q-31 0 -55 27.5t-24 89.5q0 52 20 102.5t56.5 92t85.5 66t107 24.5q9 0 20.5 -1t23.5 -3l18 85l4 106l43 8q1 -45 -9 -103t-24.5 -122t-29.5 -129.5t-24.5 -125.5t-8.5 -109zM53 44 q0 -42 14 -66t39 -24t51.5 21.5t52 56.5t46.5 74.5t35.5 75.5t19.5 61v-2l10 44q-15 5 -28 7t-24 2q-46 0 -85 -21.5t-68.5 -58t-46 -81t-16.5 -89.5z" />
<glyph horiz-adv-x="379" d="M284 24l16 -12q-27 -43 -70 -66.5t-86 -23.5q-56 0 -90 39.5t-34 105.5q0 50 18.5 96t50 82t70 57.5t78.5 21.5t62 -20t22 -54q0 -32 -24.5 -64t-81.5 -55.5t-154 -28.5q-3 -18 -3 -34q0 -52 24.5 -83.5t67.5 -31.5q37 0 71.5 20t62.5 51zM231 294q-36 0 -69.5 -23.5 t-59 -62t-37.5 -83.5q90 7 137 28t64 47.5t17 47.5t-13.5 33.5t-38.5 12.5z" />
<glyph horiz-adv-x="252" d="M-41 -230l-14 18q19 21 41 56.5t33 87.5l76 356l-65 2l4 20l67 6q5 22 8 41.5t6 34.5q12 59 49 93t98 34q23 0 45.5 -5t40.5 -15l-17 -34q-13 9 -32 16t-45 7q-46 0 -70 -26t-34 -70q-2 -11 -5.5 -30t-8.5 -46h116l4 -5l-7 -25l-118 2h-1l-75 -354q-12 -55 -37.5 -94.5 t-58.5 -69.5z" />
<glyph horiz-adv-x="358" d="M86 -269q-68 0 -104 27t-36 67q0 31 18.5 52.5t46.5 37.5l13 -13q-18 -16 -29 -33.5t-11 -36.5q0 -29 28 -50t80 -21q56 0 94 23.5t38 57.5q0 20 -17 35t-58 33q-33 14 -53.5 27t-20.5 32t19 38t50 39v1q-4 -1 -7 -1h-7q-42 0 -69.5 27.5t-27.5 75.5q0 46 22.5 85.5 t61.5 64.5t87 25t74 1t54 7q5 -7 5 -17q0 -8 -6.5 -14.5t-24.5 -6.5q-12 0 -28.5 2.5t-34.5 6.5h-1q20 -10 32 -32t12 -56q0 -43 -17.5 -75.5t-43.5 -57t-52 -43t-43.5 -33t-17.5 -27.5q0 -9 10 -17t22 -13t18 -8q48 -19 74 -42t26 -53q0 -25 -20 -52t-59 -45t-97 -18z M251 215q0 38 -18 59.5t-48 21.5t-57 -21t-43.5 -53.5t-16.5 -68.5q0 -39 19.5 -58.5t48.5 -19.5q34 0 60 21.5t40.5 54t14.5 64.5z" />
<glyph horiz-adv-x="449" d="M67 -70h-35q-1 43 10.5 113t35.5 183l38 179l5 106l43 8q1 -62 -17 -146t-38 -173h1q30 59 77 91.5t96 32.5q38 0 58.5 -22t20.5 -60q0 -24 -8 -58t-19 -87q-8 -41 -12 -68.5t-5 -50t-1 -48.5h-36q-1 50 8.5 103t19.5 101q9 41 11.5 62t2.5 31q0 35 -12 50t-41 15 q-43 0 -80 -29.5t-64.5 -80.5t-43 -116t-15.5 -136z" />
<glyph horiz-adv-x="202" d="M152 495q0 -16 -11 -32.5t-30 -16.5q-11 0 -17 7.5t-6 17.5q0 17 12.5 33t28.5 16q11 0 17 -7t6 -18zM68 -70h-35q-2 46 6 96.5t21 111.5l16 72l4 106l43 8q1 -43 -7.5 -92.5t-20 -101t-20 -102.5t-7.5 -98z" />
<glyph horiz-adv-x="188" d="M153 495q0 -16 -11 -32.5t-30 -16.5q-11 0 -17 7.5t-6 17.5q0 17 12.5 33t28.5 16q11 0 17 -7t6 -18zM-53 -271l-14 18q19 22 41 57t33 87l69 319l5 106l43 8q0 -28 -3.5 -58t-12.5 -75t-25 -116t-40 -182q-12 -55 -37.5 -94.5t-58.5 -69.5z" />
<glyph horiz-adv-x="401" d="M351 262q0 -33 -24.5 -64.5t-62.5 -58t-78 -45.5q24 -37 60 -83.5t71 -80.5h-46q-30 32 -64 78t-63 96q39 19 78 42.5t65 51t26 57.5q0 39 -41 39q-38 0 -74.5 -33.5t-65.5 -88t-46.5 -118.5t-18.5 -124h-35q-1 43 10.5 113t35.5 183l38 179l5 106l43 8 q1 -46 -9.5 -105.5t-26 -125.5t-29.5 -132v0q32 82 83 125t102 43q34 0 50.5 -18t16.5 -44z" />
<glyph horiz-adv-x="200" d="M67 -70h-35q-1 43 10.5 113t35.5 183l38 179l5 106l43 8q1 -45 -9 -103t-25 -122t-29.5 -129.5t-24.5 -125.5t-9 -109z" />
<glyph horiz-adv-x="682" d="M109 200q27 58 73.5 91t91.5 33q38 0 59.5 -23t21.5 -61q0 -15 -4 -36q29 58 73.5 89t87.5 31q41 0 62 -22t21 -62q0 -25 -7 -58.5t-18 -78.5q-13 -58 -17 -98t-3 -75h-35q-1 56 5.5 94.5t15.5 81.5q8 40 14 73.5t6 53.5q0 28 -12 43.5t-41 15.5q-48 0 -93 -44 t-73.5 -125t-27.5 -193h-35q-1 43 5.5 86t17.5 97q11 55 14.5 79.5t3.5 36.5q0 31 -12.5 47t-41.5 16q-38 0 -72.5 -28t-61.5 -77.5t-43 -115t-16 -141.5h-35q-1 34 3 69t14 84.5t26 126.5l4 106l43 8q1 -27 -3.5 -58t-12.5 -66h2z" />
<glyph horiz-adv-x="449" d="M109 200q27 58 74 91t94 33q40 0 63 -23t23 -63q0 -21 -7 -52.5t-22 -97.5q-12 -53 -15 -87t-2 -71h-35q-1 43 5.5 86t17.5 97q12 56 15.5 81.5t3.5 37.5q0 60 -58 60q-40 0 -76 -27.5t-63 -76.5t-43 -115t-16 -143h-35q-1 34 3 69t14 84.5t26 126.5l4 106l43 8 q1 -27 -3.5 -58t-12.5 -66h2z" />
<glyph horiz-adv-x="415" d="M342 186q0 -46 -14.5 -93t-42 -85.5t-66 -62t-85.5 -23.5q-55 0 -84.5 36t-29.5 103q0 47 15 93.5t42 85t65.5 61.5t84.5 23q56 0 85.5 -35.5t29.5 -102.5zM58 64q0 -54 21 -83t64 -29q38 0 68 21t50.5 55.5t31.5 75t11 79.5q0 111 -85 111q-38 0 -68 -21t-50.5 -55.5 t-31.5 -75t-11 -78.5z" />
<glyph horiz-adv-x="434" d="M105 -78q-26 0 -53 5q-11 -52 -18 -100t-6 -88h-35q0 26 3.5 60.5t14 89.5t28.5 142l38 179l5 106l43 8q1 -36 -5.5 -80.5t-17.5 -94.5q20 42 47 82t60.5 66.5t71.5 26.5q35 0 59.5 -27.5t24.5 -88.5q0 -52 -19.5 -103t-54.5 -92.5t-82.5 -66t-103.5 -24.5zM274 292 q-25 0 -50.5 -19.5t-49.5 -51.5t-44.5 -70.5t-36 -76t-23.5 -67.5q-3 -12 -5.5 -23.5t-5.5 -23.5q29 -8 59 -8q44 0 82 22t66.5 58.5t44.5 81t16 89.5q0 42 -14 65.5t-39 23.5z" />
<glyph horiz-adv-x="426" d="M99 -78q-34 0 -58.5 27.5t-24.5 89.5q0 52 19 102.5t54.5 92t84 66t107.5 24.5q17 0 37.5 -2.5t45.5 -10.5l-79 -344q-8 -34 -16 -75.5t-12.5 -81.5t-4.5 -71h-35q-1 28 3 66t15 95t31 143l13 54q-20 -39 -47.5 -79.5t-61 -68t-71.5 -27.5zM54 43q0 -41 14 -65t39 -24 t50.5 19t49.5 50.5t45 69t36 74.5t23 67l12 51q-13 4 -28.5 6.5t-30.5 2.5q-44 0 -82.5 -21.5t-67 -58t-44.5 -81t-16 -90.5z" />
<glyph horiz-adv-x="312" d="M68 -70h-35q-1 44 6.5 95.5t20.5 112.5l16 72l4 106l43 8q1 -31 -4.5 -67t-13.5 -73h2q29 72 70 106t85 34q32 0 54 -15l-21 -31q-20 11 -42 11q-39 0 -73 -33.5t-59 -87.5t-39 -117t-14 -121z" />
<glyph horiz-adv-x="365" d="M293 304l-14 -35q-18 11 -41 18t-51 7q-48 0 -74.5 -21.5t-26.5 -52.5q0 -27 18 -43.5t45 -29t54 -26t45 -33.5t18 -53q0 -48 -43 -80.5t-111 -32.5q-24 0 -54 6t-56 19l14 35q23 -15 52 -22t52 -7q45 0 76 21.5t31 53.5q0 26 -18.5 41.5t-45.5 28t-54 26t-45.5 34 t-18.5 53.5q0 50 43.5 81.5t107.5 31.5q30 0 55 -6t42 -14z" />
<glyph horiz-adv-x="293" d="M255 289h-119q-18 -85 -29 -136.5t-17 -79.5t-8 -42t-2 -23q0 -55 55 -55q20 0 38.5 5.5t34.5 13.5l2 -28q-18 -9 -40 -15.5t-49 -6.5q-79 0 -79 74q0 10 2 24t8.5 43t18 82.5t31.5 143.5h-66l5 21l66 6l27 88l26 3l3 -4l-21 -87h116l4 -4z" />
<glyph horiz-adv-x="434" d="M36 8q0 20 11 70.5t28 131.5l5 106l42 8q2 -56 -6.5 -97t-17.5 -84q-10 -48 -16 -81.5t-6 -51.5q0 -25 12.5 -40.5t42.5 -15.5q44 0 80 32.5t61.5 85.5t38.5 115.5t11 121.5v7l35 8q2 -57 -12 -121t-27 -132q-7 -36 -12 -71.5t-4 -69.5h-35q-1 30 2.5 56t7.5 52v0 q-28 -58 -71.5 -87t-85.5 -29q-38 0 -61 22.5t-23 63.5z" />
<glyph horiz-adv-x="344" d="M86 -70q-2 105 -17 201.5t-41 184.5l35 8q26 -79 41 -164.5t17 -181.5h1q42 57 77 116t58 116.5t28 107.5q8 6 18 6q16 0 16 -20q0 -25 -15.5 -68t-43.5 -96t-63.5 -107.5t-76.5 -102.5h-34z" />
<glyph horiz-adv-x="525" d="M483 324q16 0 16 -20q0 -24 -13.5 -67t-38 -95.5t-57.5 -107.5t-72 -104h-35q0 84 -5 166t-14 156h-1q-10 -48 -34 -103.5t-57.5 -111.5t-72.5 -107h-35q0 117 -10 213t-26 173l36 6q15 -67 25.5 -153.5t10.5 -193.5h1q59 86 98 175t47 166h39q14 -66 24 -151.5 t10 -189.5h1q59 85 98.5 176t46.5 167q8 6 18 6z" />
<glyph horiz-adv-x="306" d="M-44 -70q28 57 66 106.5t85 92.5q-14 49 -30.5 97.5t-44.5 89.5l36 8q26 -38 42.5 -82.5t30.5 -91.5q40 35 68.5 78.5t40.5 90.5q5 5 17 5q16 0 16 -17q0 -19 -19 -51t-50 -68t-65 -64q14 -52 31 -101.5t45 -92.5h-40q-25 38 -40.5 81t-28.5 88q-43 -38 -73.5 -81.5 t-51.5 -87.5h-35z" />
<glyph horiz-adv-x="345" d="M304 324q16 0 16 -18q0 -28 -16.5 -72t-45.5 -98t-66 -110.5t-79 -109t-84.5 -94.5t-82 -66.5t-71.5 -24.5q-34 0 -34 24q0 11 7 19l18 -2t14 -1q37 0 74.5 26t72 63t60.5 71q-3 102 -17.5 199.5t-40.5 185.5l35 8q28 -86 42 -169t16 -177h1q41 56 76 115.5t58.5 117 t28.5 107.5q8 6 18 6z" />
<glyph horiz-adv-x="370" d="M-19 -78l-16 20q77 74 135 131.5t102.5 107t81.5 98.5q-53 4 -98 9t-69 5q-25 0 -44.5 -8t-40.5 -28l-18 7q20 35 45 47.5t63 12.5q36 0 81 -7.5t98 -13.5q7 11 14 21q24 0 24 -14q0 -12 -27.5 -47.5t-73 -85t-100.5 -104.5t-111 -106q10 2 21 2q21 0 50 -3.5t57.5 -7.5 t47.5 -4q23 0 44 10t43 37l18 -7q-23 -44 -49 -58t-63 -14q-27 0 -59.5 4t-62.5 8t-53 4q-14 0 -22 -3t-18 -13z" />
<glyph horiz-adv-x="419" d="M92 397q0 53 19 104t53 92t80 66t100 25q15 0 39 -2.5t48 -10.5l-32 -135q-16 -67 -27 -123t-10 -123h-35q0 42 4 79t16 95q-19 -40 -46.5 -82t-60.5 -71t-70 -29q-31 0 -54.5 27t-23.5 88zM130 402q0 -41 13 -64.5t37 -23.5t49 21.5t49 56t44.5 74t35.5 76.5t22 63 q4 17 9 40q-29 9 -61 9q-40 0 -76 -22t-63.5 -58.5t-43 -81.5t-15.5 -90z" />
<glyph horiz-adv-x="430" d="M355 684q35 0 59 -27.5t24 -87.5q0 -51 -19 -102t-53 -93t-81.5 -67t-104.5 -25q-19 0 -45 3t-47 10q6 26 12.5 51.5t14 56.5t17.5 75t23 108l38 179l4 106l43 8q1 -43 -9 -104.5t-26 -132t-34 -141.5q24 51 52.5 92.5t62 66t69.5 24.5zM138 360v2q-5 -22 -9 -40 q14 -5 30.5 -7.5t30.5 -2.5q44 0 82.5 22t67 58.5t44.5 81t16 89.5q0 41 -13.5 65t-39.5 24q-25 0 -52 -21.5t-52.5 -55.5t-47 -74t-36.5 -77t-21 -64z" />
<glyph horiz-adv-x="376" d="M348 384l15 -12q-26 -40 -68.5 -65t-86.5 -25q-52 0 -82 37.5t-30 101.5q0 51 18.5 98t50 84t72.5 59t86 22q24 0 44.5 -6t34.5 -14l-14 -35q-15 11 -33 18t-39 7q-37 0 -70 -21t-58 -55.5t-39.5 -75.5t-14.5 -82q0 -47 21.5 -77t61.5 -30q37 0 71.5 21t59.5 50z" />
<glyph horiz-adv-x="429" d="M373 290h-35q-1 32 4.5 75.5t18.5 110.5q-20 -45 -49 -89.5t-65 -74.5t-77 -30q-31 0 -55 27.5t-24 89.5q0 52 20 102.5t56.5 92t85.5 66t107 24.5q9 0 20.5 -1t23.5 -3l18 85l4 106l43 8q1 -45 -9 -103t-24.5 -122t-29.5 -129.5t-24.5 -125.5t-8.5 -109zM129 404 q0 -42 14 -66t39 -24t51.5 21.5t52 56.5t46.5 74.5t35.5 75.5t19.5 61v-2l10 44q-15 5 -28 7t-24 2q-46 0 -85 -21.5t-68.5 -58t-46 -81t-16.5 -89.5z" />
<glyph horiz-adv-x="380" d="M361 384l16 -12q-27 -43 -70 -66.5t-86 -23.5q-56 0 -90 39.5t-34 105.5q0 50 18.5 96t50 82t70 57.5t78.5 21.5t62 -20t22 -54q0 -32 -24.5 -64t-81.5 -55.5t-154 -28.5q-3 -18 -3 -34q0 -52 24.5 -83.5t67.5 -31.5q37 0 71.5 20t62.5 51zM308 654q-36 0 -69.5 -23.5 t-59 -62t-37.5 -83.5q90 7 137 28t64 47.5t17 47.5t-13.5 33.5t-38.5 12.5z" />
<glyph horiz-adv-x="252" d="M36 130l-14 18q19 21 41 56.5t33 87.5l76 356l-65 2l4 20l67 6q5 22 8 41.5t6 34.5q12 59 49 93t98 34q23 0 45.5 -5t40.5 -15l-17 -34q-13 9 -32 16t-45 7q-46 0 -70 -26t-34 -70q-2 -11 -5.5 -30t-8.5 -46h116l4 -5l-7 -25l-118 2h-1l-75 -354q-12 -55 -37.5 -94.5 t-58.5 -69.5z" />
<glyph horiz-adv-x="358" d="M163 91q-68 0 -104 27t-36 67q0 31 18.5 52.5t46.5 37.5l13 -13q-18 -16 -29 -33.5t-11 -36.5q0 -29 28 -50t80 -21q56 0 94 23.5t38 57.5q0 20 -17 35t-58 33q-33 14 -53.5 27t-20.5 32t19 38t50 39v1q-4 -1 -7 -1h-7q-42 0 -69.5 27.5t-27.5 75.5q0 46 22.5 85.5 t61.5 64.5t87 25t74 1t54 7q5 -7 5 -17q0 -8 -6.5 -14.5t-24.5 -6.5q-12 0 -28.5 2.5t-34.5 6.5h-1q20 -10 32 -32t12 -56q0 -43 -17.5 -75.5t-43.5 -57t-52 -43t-43.5 -33t-17.5 -27.5q0 -9 10 -17t22 -13t18 -8q48 -19 74 -42t26 -53q0 -25 -20 -52t-59 -45t-97 -18z M328 575q0 38 -18 59.5t-48 21.5t-57 -21t-43.5 -53.5t-16.5 -68.5q0 -39 19.5 -58.5t48.5 -19.5q34 0 60 21.5t40.5 54t14.5 64.5z" />
<glyph horiz-adv-x="450" d="M144 290h-35q-1 43 10.5 113t35.5 183l38 179l5 106l43 8q1 -62 -17 -146t-38 -173h1q30 59 77 91.5t96 32.5q38 0 58.5 -22t20.5 -60q0 -24 -8 -58t-19 -87q-8 -41 -12 -68.5t-5 -50t-1 -48.5h-36q-1 50 8.5 103t19.5 101q9 41 11.5 62t2.5 31q0 35 -12 50t-41 15 q-43 0 -80 -29.5t-64.5 -80.5t-43 -116t-15.5 -136z" />
<glyph horiz-adv-x="203" d="M229 855q0 -16 -11 -32.5t-30 -16.5q-11 0 -17 7.5t-6 17.5q0 17 12.5 33t28.5 16q11 0 17 -7t6 -18zM145 290h-35q-2 46 6 96.5t21 111.5l16 72l4 106l43 8q1 -43 -7.5 -92.5t-20 -101t-20 -102.5t-7.5 -98z" />
<glyph horiz-adv-x="187" d="M229 855q0 -16 -11 -32.5t-30 -16.5q-11 0 -17 7.5t-6 17.5q0 17 12.5 33t28.5 16q11 0 17 -7t6 -18zM23 89l-14 18q19 22 41 57t33 87l69 319l5 106l43 8q0 -28 -3.5 -58t-12.5 -75t-25 -116t-40 -182q-12 -55 -37.5 -94.5t-58.5 -69.5z" />
<glyph horiz-adv-x="402" d="M428 622q0 -33 -24.5 -64.5t-62.5 -58t-78 -45.5q24 -37 60 -83.5t71 -80.5h-46q-30 32 -64 78t-63 96q39 19 78 42.5t65 51t26 57.5q0 39 -41 39q-38 0 -74.5 -33.5t-65.5 -88t-46.5 -118.5t-18.5 -124h-35q-1 43 10.5 113t35.5 183l38 179l5 106l43 8 q1 -46 -9.5 -105.5t-26 -125.5t-29.5 -132v0q32 82 83 125t102 43q34 0 50.5 -18t16.5 -44z" />
<glyph horiz-adv-x="201" d="M144 290h-35q-1 43 10.5 113t35.5 183l38 179l5 106l43 8q1 -45 -9 -103t-25 -122t-29.5 -129.5t-24.5 -125.5t-9 -109z" />
<glyph horiz-adv-x="682" d="M185 560q27 58 73.5 91t91.5 33q38 0 59.5 -23t21.5 -61q0 -15 -4 -36q29 58 73.5 89t87.5 31q41 0 62 -22t21 -62q0 -25 -7 -58.5t-18 -78.5q-13 -58 -17 -98t-3 -75h-35q-1 56 5.5 94.5t15.5 81.5q8 40 14 73.5t6 53.5q0 28 -12 43.5t-41 15.5q-48 0 -93 -44 t-73.5 -125t-27.5 -193h-35q-1 43 5.5 86t17.5 97q11 55 14.5 79.5t3.5 36.5q0 31 -12.5 47t-41.5 16q-38 0 -72.5 -28t-61.5 -77.5t-43 -115t-16 -141.5h-35q-1 34 3 69t14 84.5t26 126.5l4 106l43 8q1 -27 -3.5 -58t-12.5 -66h2z" />
<glyph horiz-adv-x="415" d="M419 546q0 -46 -14.5 -93t-42 -85.5t-66 -62t-85.5 -23.5q-55 0 -84.5 36t-29.5 103q0 47 15 93.5t42 85t65.5 61.5t84.5 23q56 0 85.5 -35.5t29.5 -102.5zM135 424q0 -54 21 -83t64 -29q38 0 68 21t50.5 55.5t31.5 75t11 79.5q0 111 -85 111q-38 0 -68 -21t-50.5 -55.5 t-31.5 -75t-11 -78.5z" />
<glyph horiz-adv-x="433" d="M104 99h-35q0 26 3.5 60.5t14 89.5t28.5 142l38 179l5 106l43 8q1 -36 -5.5 -80.5t-17.5 -94.5q20 42 47 82t60.5 66.5t71.5 26.5q35 0 59.5 -27.5t24.5 -88.5q0 -52 -19.5 -103t-54.5 -92.5t-82.5 -66t-103.5 -24.5q-26 0 -53 5q-11 -52 -18 -100t-6 -88zM350 652 q-25 0 -50.5 -19.5t-49.5 -51.5t-44.5 -70.5t-36 -76t-23.5 -67.5q-3 -12 -5.5 -23.5t-5.5 -23.5q29 -8 59 -8q44 0 82 22t66.5 58.5t44.5 81t16 89.5q0 42 -14 65.5t-39 23.5z" />
<glyph horiz-adv-x="426" d="M175 282q-34 0 -58.5 27.5t-24.5 89.5q0 52 19 102.5t54.5 92t84 66t107.5 24.5q17 0 37.5 -2.5t45.5 -10.5l-79 -344q-8 -34 -16 -75.5t-12.5 -81.5t-4.5 -71h-35q-1 28 3 66t15 95t31 143l13 54q-20 -39 -47.5 -79.5t-61 -68t-71.5 -27.5zM130 403q0 -41 14 -65t39 -24 t50.5 19t49.5 50.5t45 69t36 74.5t23 67l12 51q-13 4 -28.5 6.5t-30.5 2.5q-44 0 -82.5 -21.5t-67 -58t-44.5 -81t-16 -90.5z" />
<glyph horiz-adv-x="311" d="M144 290h-35q-1 44 6.5 95.5t20.5 112.5l16 72l4 106l43 8q1 -31 -4.5 -67t-13.5 -73h2q29 72 70 106t85 34q32 0 54 -15l-21 -31q-20 11 -42 11q-39 0 -73 -33.5t-59 -87.5t-39 -117t-14 -121z" />
<glyph horiz-adv-x="366" d="M370 664l-14 -35q-18 11 -41 18t-51 7q-48 0 -74.5 -21.5t-26.5 -52.5q0 -27 18 -43.5t45 -29t54 -26t45 -33.5t18 -53q0 -48 -43 -80.5t-111 -32.5q-24 0 -54 6t-56 19l14 35q23 -15 52 -22t52 -7q45 0 76 21.5t31 53.5q0 26 -18.5 41.5t-45.5 28t-54 26t-45.5 34 t-18.5 53.5q0 50 43.5 81.5t107.5 31.5q30 0 55 -6t42 -14z" />
<glyph horiz-adv-x="292" d="M331 649h-119q-18 -85 -29 -136.5t-17 -79.5t-8 -42t-2 -23q0 -55 55 -55q20 0 38.5 5.5t34.5 13.5l2 -28q-18 -9 -40 -15.5t-49 -6.5q-79 0 -79 74q0 10 2 24t8.5 43t18 82.5t31.5 143.5h-66l5 21l66 6l27 88l26 3l3 -4l-21 -87h116l4 -4z" />
<glyph horiz-adv-x="434" d="M112 368q0 20 11 70.5t28 131.5l5 106l42 8q2 -56 -6.5 -97t-17.5 -84q-10 -48 -16 -81.5t-6 -51.5q0 -25 12.5 -40.5t42.5 -15.5q44 0 80 32.5t61.5 85.5t38.5 115.5t11 121.5v7l35 8q2 -57 -12 -121t-27 -132q-7 -36 -12 -71.5t-4 -69.5h-35q-1 30 2.5 56t7.5 52v0 q-28 -58 -71.5 -87t-85.5 -29q-38 0 -61 22.5t-23 63.5z" />
<glyph horiz-adv-x="344" d="M162 290q-2 105 -17 201.5t-41 184.5l35 8q26 -79 41 -164.5t17 -181.5h1q42 57 77 116t58 116.5t28 107.5q8 6 18 6q16 0 16 -20q0 -25 -15.5 -68t-43.5 -96t-63.5 -107.5t-76.5 -102.5h-34z" />
<glyph horiz-adv-x="524" d="M559 684q16 0 16 -20q0 -24 -13.5 -67t-38 -95.5t-57.5 -107.5t-72 -104h-35q0 84 -5 166t-14 156h-1q-10 -48 -34 -103.5t-57.5 -111.5t-72.5 -107h-35q0 117 -10 213t-26 173l36 6q15 -67 25.5 -153.5t10.5 -193.5h1q59 86 98 175t47 166h39q14 -66 24 -151.5 t10 -189.5h1q59 85 98.5 176t46.5 167q8 6 18 6z" />
<glyph horiz-adv-x="306" d="M32 290q28 57 66 106.5t85 92.5q-14 49 -30.5 97.5t-44.5 89.5l36 8q26 -38 42.5 -82.5t30.5 -91.5q40 35 68.5 78.5t40.5 90.5q5 5 17 5q16 0 16 -17q0 -19 -19 -51t-50 -68t-65 -64q14 -52 31 -101.5t45 -92.5h-40q-25 38 -40.5 81t-28.5 88q-43 -38 -73.5 -81.5 t-51.5 -87.5h-35z" />
<glyph horiz-adv-x="345" d="M380 684q16 0 16 -18q0 -28 -16.5 -72t-45.5 -98t-66 -110.5t-79 -109t-84.5 -94.5t-82 -66.5t-71.5 -24.5q-34 0 -34 24q0 11 7 19l18 -2t14 -1q37 0 74.5 26t72 63t60.5 71q-3 102 -17.5 199.5t-40.5 185.5l35 8q28 -86 42 -169t16 -177h1q41 56 76 115.5t58.5 117 t28.5 107.5q8 6 18 6z" />
<glyph horiz-adv-x="369" d="M57 282l-16 20q77 74 135 131.5t102.5 107t81.5 98.5q-53 4 -98 9t-69 5q-25 0 -44.5 -8t-40.5 -28l-18 7q20 35 45 47.5t63 12.5q36 0 81 -7.5t98 -13.5q7 11 14 21q24 0 24 -14q0 -12 -27.5 -47.5t-73 -85t-100.5 -104.5t-111 -106q10 2 21 2q21 0 50 -4t57.5 -7.5 t47.5 -3.5q23 0 44 10t43 37l18 -7q-23 -44 -49 -58t-63 -14q-27 0 -59.5 4t-62.5 8t-53 4q-14 0 -22 -3t-18 -13z" />
<glyph horiz-adv-x="974" d="M366 119l18 -13q-40 -62 -87 -89t-94 -27q-65 0 -104.5 46.5t-39.5 131.5q0 65 22 125.5t60 108t85.5 75.5t99.5 28q19 0 35 -4q-10 18 -14.5 36t-4.5 35q0 53 35 94t96 65t138 24q19 0 33.5 -1.5t30.5 -3.5q0 -50 -10.5 -115.5t-27 -139.5t-34.5 -150h2 q37 81 92.5 120.5t109.5 39.5q44 0 68 -25.5t24 -75.5q0 -18 -3.5 -39t-11 -55t-19.5 -92q-13 -63 -18.5 -100.5t-7 -63t-1.5 -54.5h-40q0 71 11.5 129.5t22.5 108.5q14 65 20.5 101.5t6.5 60.5q0 34 -15 51.5t-50 17.5q-53 0 -97 -38t-76.5 -104t-51.5 -150.5t-21 -176.5 h-40q0 40 6.5 91t20 121t34.5 168l39 182q8 36 12 76t6 79q-19 2 -34 2q-36 0 -72.5 -9t-67 -27t-49 -45.5t-18.5 -65.5q0 -25 9.5 -53t33.5 -56l-17 -41q-17 20 -40.5 33.5t-53.5 13.5q-41 0 -79.5 -25.5t-69 -68.5t-48.5 -96t-18 -107q0 -64 27.5 -105t83.5 -41 q44 0 82 26t71 67z" />
<glyph horiz-adv-x="780" d="M366 119l18 -13q-40 -62 -87 -89t-94 -27q-65 0 -104.5 46.5t-39.5 131.5q0 65 22 125t59.5 108t86 76t100.5 28q26 0 49 -8q-7 17 -9 34.5t-2 33.5q0 52 27 92.5t70.5 64t92.5 23.5q61 0 95 -32.5t34 -81.5q0 -39 -20.5 -76t-54.5 -60h167l4 -5l-8 -28h-138 q-20 -92 -33 -153.5t-21 -99.5t-12 -59t-5.5 -33t-1.5 -21q0 -39 16 -54.5t46 -15.5q23 0 45 7t41 18l2 -33q-21 -12 -48 -20t-56 -8q-43 0 -66 21t-23 69q0 10 1.5 21.5t5.5 33.5t12.5 61.5t22 104t34.5 161.5h-76l6 23q56 17 88 57.5t32 85.5q0 40 -26 60.5t-67 20.5 q-40 0 -73.5 -19.5t-53 -53.5t-19.5 -77q0 -53 23 -96l-17 -41q-17 20 -40.5 33.5t-53.5 13.5q-41 0 -79.5 -25.5t-69 -68.5t-48.5 -96t-18 -107q0 -64 27.5 -105t83.5 -41q44 0 82 26t71 67z" />
<glyph horiz-adv-x="926" d="M500 0h-40q0 65 16.5 156t44.5 224l39 182q8 36 12 76t6 79q-19 2 -34 2q-36 0 -72.5 -9t-67 -27t-49 -45.5t-18.5 -65.5q0 -22 8.5 -45.5t30.5 -47.5l-17 -41q-21 14 -46.5 22.5t-56.5 8.5q-55 0 -89.5 -28.5t-34.5 -70.5q0 -34 21 -55t51.5 -37t61 -33.5t51.5 -42.5 t21 -66t-23.5 -74t-64.5 -52.5t-94 -19.5q-30 0 -64 7.5t-63 24.5l17 41q26 -19 60 -28t60 -9q53 0 90 29.5t37 72.5q0 33 -21 53.5t-52 36t-61.5 32.5t-51.5 42t-21 66q0 44 25 77t66.5 51.5t90.5 18.5q26 0 52 -6q-15 18 -20.5 36.5t-5.5 36.5q0 53 35 94t96 65t138 24 q19 0 33.5 -1.5t30.5 -3.5q0 -50 -10.5 -115.5t-27 -139.5t-34.5 -150h2q37 81 92.5 120.5t109.5 39.5q44 0 68 -25.5t24 -75.5q0 -18 -3.5 -39t-11 -55t-19.5 -92q-13 -63 -18.5 -100.5t-7 -63t-1.5 -54.5h-40q0 71 11.5 129.5t22.5 108.5q14 65 20.5 101t6.5 61 q0 34 -15 51.5t-50 17.5q-53 0 -97 -38t-76.5 -104t-51.5 -150.5t-21 -176.5z" />
<glyph horiz-adv-x="571" d="M41 0h-39l282 465q11 19 23.5 39t23.5 40l29 3l4 -5l99 -542h-42l-31 169h-246zM246 336l-81 -133h219l-25 133q-7 36 -13.5 79t-8.5 80h-1q-17 -37 -41 -77.5t-49 -81.5z" />
<glyph horiz-adv-x="571" d="M480 771l1 -8q-42 -46 -89.5 -82.5t-104.5 -68.5l-7 13q44 37 88.5 79t75.5 83zM41 0h-39l282 465q11 19 23.5 39t23.5 40l29 3l4 -5l99 -542h-42l-31 169h-246zM246 336l-81 -133h219l-25 133q-7 36 -13.5 79t-8.5 80h-1q-17 -37 -41 -77.5t-49 -81.5z" />
<glyph horiz-adv-x="571" d="M479 762l22 -3q-23 -58 -63 -90t-85 -32t-69.5 32t-20.5 90l23 3q2 -38 23 -60t58 -22q33 0 63 22.5t49 59.5zM41 0h-39l282 465q11 19 23.5 39t23.5 40l29 3l4 -5l99 -542h-42l-31 169h-246zM246 336l-81 -133h219l-25 133q-7 36 -13.5 79t-8.5 80h-1q-17 -37 -41 -77.5 t-49 -81.5z" />
<glyph horiz-adv-x="600" d="M492 762l11 -11q-35 -37 -68 -75t-65 -79l-44 -5q-16 42 -35.5 81.5t-42.5 77.5l15 11q27 -32 49.5 -63t44.5 -63q30 30 66 63.5t69 62.5zM41 0h-39l282 465q11 19 23.5 39t23.5 40l29 3l4 -5l99 -542h-42l-31 169h-246zM246 336l-81 -133h219l-25 133q-7 36 -13.5 79 t-8.5 80h-1q-17 -37 -41 -77.5t-49 -81.5z" />
<glyph horiz-adv-x="571" d="M265 614l-11 11q35 38 68.5 75.5t64.5 78.5l44 5q17 -42 36.5 -81.5t41.5 -77.5l-15 -11q-27 32 -49.5 63t-44.5 63q-30 -30 -66 -63.5t-69 -62.5zM41 0h-39l282 465q11 19 23.5 39t23.5 40l29 3l4 -5l99 -542h-42l-31 169h-246zM246 336l-81 -133h219l-25 133 q-7 36 -13.5 79t-8.5 80h-1q-17 -37 -41 -77.5t-49 -81.5z" />
<glyph horiz-adv-x="571" d="M325 715q0 -24 -14.5 -43t-33.5 -19q-13 0 -19.5 8.5t-6.5 21.5q0 23 15.5 41.5t33.5 18.5q25 0 25 -28zM513 715q0 -24 -14.5 -43t-33.5 -19q-13 0 -19.5 8.5t-6.5 21.5q0 23 15.5 41.5t33.5 18.5q25 0 25 -28zM41 0h-39l282 465q11 19 23.5 39t23.5 40l29 3l4 -5 l99 -542h-42l-31 169h-246zM246 336l-81 -133h219l-25 133q-7 36 -13.5 79t-8.5 80h-1q-17 -37 -41 -77.5t-49 -81.5z" />
<glyph horiz-adv-x="571" d="M41 0h-39l282 465q11 19 23.5 39t23.5 40l29 3l4 -5l99 -542h-42l-31 169h-246zM246 336l-81 -133h219l-25 133q-7 36 -13.5 79t-8.5 80h-1q-17 -37 -41 -77.5t-49 -81.5zM249 -130q0 -24 -14.5 -42.5t-34.5 -18.5q-13 0 -20 9t-7 21q0 23 15.5 41.5t33.5 18.5 q14 0 20.5 -8t6.5 -21z" />
<glyph horiz-adv-x="571" d="M440 615q-43 32 -76 68.5t-54 82.5l5 8l42 16q15 -41 40.5 -82t55.5 -80zM41 0h-39l282 465q11 19 23.5 39t23.5 40l29 3l4 -5l99 -542h-42l-31 169h-246zM246 336l-81 -133h219l-25 133q-7 36 -13.5 79t-8.5 80h-1q-17 -37 -41 -77.5t-49 -81.5z" />
</font>
</defs>
</svg>
