<?xml version="1.0" standalone="no"?>
<!DOCTYPE svg PUBLIC "-//W3C//DTD SVG 1.1//EN" "http://www.w3.org/Graphics/SVG/1.1/DTD/svg11.dtd" >
<svg xmlns="http://www.w3.org/2000/svg" xmlns:xlink="http://www.w3.org/1999/xlink" version="1.1">
<metadata></metadata>
<defs>
<font id="indivisa_text_serifblack" horiz-adv-x="620" >
<font-face units-per-em="1000" ascent="750" descent="-250" />
<missing-glyph horiz-adv-x="250" />
<glyph unicode="ff" horiz-adv-x="740" d="M268 55l55 -35l-2 -20h-296l-2 20l30 16q18 10 26.5 23.5t8.5 37.5v333h-63l-2 20l65 35v25q0 62 37 114t101 84t143 32q49 0 90.5 -11.5t70.5 -31.5q35 29 79.5 46t92.5 17q50 0 88 -17.5t60 -45.5t22 -61q0 -36 -24.5 -55.5t-59.5 -19.5q-29 0 -62 14q0 70 -9 102.5 t-38 32.5q-30 0 -47 -34t-17 -96v-100h117v-50h-117v-375l85 -35l-2 -20h-326l-2 20l30 16q18 10 26.5 23.5t8.5 37.5v333h-167v-375zM435 510q0 40 15 78q-13 41 -35 71.5t-62 30.5q-42 0 -63.5 -30t-21.5 -82v-98h158l9 5v25z" />
<glyph unicode="ffi" horiz-adv-x="1053" d="M268 55l55 -35l-2 -20h-296l-2 20l30 16q18 10 26.5 23.5t8.5 37.5v333h-63l-2 20l65 35v25q0 62 37 114t101 84t143 32q49 0 90.5 -11.5t70.5 -31.5q37 29 85 46t102 17q64 0 115 -17t81 -45.5t30 -64.5q0 -34 -21.5 -53t-55.5 -19q-23 0 -43.5 4.5t-34.5 11.5 q-7 33 -16.5 63.5t-26.5 50t-48 19.5q-81 0 -81 -120v-110h193q38 12 79.5 19.5t76.5 10.5l8 -8v-447l65 -35l-2 -20h-306l-2 20l30 16q18 10 26.5 23.5t8.5 37.5v333h-177v-375l65 -35l-2 -20h-306l-2 20l30 16q18 10 26.5 23.5t8.5 37.5v333h-168v-375zM436 510 q0 40 14 77q-13 42 -35 72.5t-62 30.5q-42 0 -63.5 -30t-21.5 -82v-98h168v30z" />
<glyph unicode="ffl" horiz-adv-x="1052" d="M268 55l65 -35l-2 -20h-306l-2 20l30 16q18 10 26.5 23.5t8.5 37.5v333h-63l-2 20l65 35v25q0 62 37 114t101 84t143 32q49 0 90.5 -11.5t70.5 -31.5q37 29 84.5 46t101.5 17q35 0 67 -5.5t58 -15.5q66 17 123 21l8 -8v-697l65 -35l-2 -20h-306l-2 20l30 16 q18 10 26.5 23.5t8.5 37.5v333h-177v-375l65 -35l-2 -20h-306l-2 20l30 16q18 10 26.5 23.5t8.5 37.5v333h-167v-375zM615 598v-118h177v147q-12 35 -33.5 59t-62.5 24q-81 0 -81 -112zM435 510q0 40 14 79q-12 41 -34 71t-62 30q-42 0 -63.5 -30t-21.5 -82v-98h167v30z" />
<glyph unicode="&#x2f;symbol&#x31;&#x2f;" horiz-adv-x="5534" d="M1865 412q-25 0 -40.5 14.5t-15.5 37.5q0 24 15.5 45t39 34.5t48.5 13.5q24 0 39 -13.5t15 -37.5t-14.5 -45.5t-37.5 -35t-49 -13.5zM1284 412q-26 0 -41.5 14.5t-15.5 37.5q0 24 15.5 45t39.5 34.5t49 13.5q24 0 38.5 -13.5t14.5 -37.5t-14.5 -45.5t-37 -35t-48.5 -13.5 zM959 0q0 21 2.5 46.5t8.5 61.5q-16 -49 -51 -82t-79 -33q-41 0 -63 30t-22 82q0 45 15.5 91t46.5 85.5t76.5 63.5t104.5 24h12.5t12.5 -1l16 73l6 102l136 7q0 -40 -9.5 -95t-23 -116.5t-27 -123.5t-23 -117.5t-9.5 -97.5h-130zM100 0l78 364q8 38 13.5 72.5t7.5 63.5 l128 7l11 -15l-104 -492h-134zM3503 492l-57 -492h-131l20 175q3 30 9 69t12.5 78t11.5 68h-3q-16 -53 -37 -107.5t-44 -107.5l-76 -175h-149l-2 175q-1 56 1 109t8 106h-2q-15 -61 -30 -115.5t-29 -99.5l-53 -175h-109l154 500l184 6l1 -137q1 -50 -2.5 -121.5 t-12.5 -137.5h2q20 65 36 111t30.5 81t27.5 67l56 131l169 7zM5316 300q-15 -74 -23 -110.5t-11 -51t-3 -21.5q0 -34 36 -34q13 0 28 5t31 13l-9 -79q-20 -11 -50 -20t-64 -9q-50 0 -77.5 25t-27.5 75q0 11 1.5 23.5t6 33.5t12.5 57.5t20 95.5l-47 1l9 44l54 14l53 95l81 6 l13 -15l-20 -86h99l6 -14l-17 -51zM336 0q0 28 4 62t13 82t24 116l6 102l137 7q0 -18 -2 -41t-5 -48h2q29 49 65.5 69t68.5 20q35 0 53.5 -19.5t18.5 -51.5q0 -23 -8 -62.5t-18 -84.5q-7 -33 -11 -57t-5.5 -45.5t-1.5 -48.5h-131q0 38 4.5 69.5t14.5 80.5q7 35 11 55.5 t4 31.5q0 24 -17 24t-34 -22.5t-30.5 -60.5t-22 -84t-9.5 -94h-131zM1170 0q0 39 7 87.5t20 105.5l14 67l6 102l137 7q0 -36 -8 -81.5t-19 -95.5t-19 -99t-8 -93h-130zM1399 362l140 7q6 -59 4.5 -137.5t-9.5 -151.5h2q23 45 42 95t32 99t17 90q17 4 28.5 4.5t21.5 0.5 q28 0 46.5 -7t18.5 -35q0 -22 -13.5 -60.5t-36.5 -85t-53.5 -94t-63.5 -87.5h-149q-2 111 -9.5 207.5t-17.5 154.5zM1752 0q0 39 7 87.5t19 105.5l15 67l6 102l137 7q0 -36 -8 -81.5t-19 -95.5t-19 -99t-8 -93h-130zM4716 0q0 28 4 62t13 82t24 116l6 102l137 7 q0 -18 -2.5 -41t-4.5 -48h2q29 49 65 69t69 20q35 0 53.5 -19.5t18.5 -51.5q0 -23 -8 -62.5t-18 -84.5q-7 -33 -11 -57t-6 -45.5t-2 -48.5h-130q0 38 4.5 69.5t14.5 80.5q7 35 11 55.5t4 31.5q0 24 -17 24q-18 0 -34.5 -22.5t-30.5 -60.5t-22.5 -84t-9.5 -94h-130zM2245 256 q-25 14 -51.5 22t-45.5 8q-17 0 -29.5 -7t-12.5 -19q0 -13 13 -22t32 -17.5t38 -20.5t32 -30.5t13 -47.5q0 -39 -25 -68t-66.5 -45t-89.5 -16q-33 0 -66.5 7.5t-51.5 20.5l27 93q27 -18 58.5 -28t52.5 -10q20 0 30 8t10 18q0 13 -13 22t-32 18t-38 21t-32 30t-13 46 q0 39 25.5 68t67.5 45.5t90 16.5q20 0 48.5 -3.5t55.5 -14.5zM2525 369q32 0 73.5 -7.5t72.5 -24.5l-29 -128q-20 -94 -25.5 -140.5t-5.5 -68.5h-130q0 20 2.5 45t9.5 67q-15 -50 -50.5 -84.5t-81.5 -34.5q-41 0 -62.5 30t-21.5 83q0 44 15.5 90.5t46.5 85.5t77.5 63 t108.5 24zM4653 51q-32 -28 -74 -43t-85 -15q-62 0 -102 33.5t-40 103.5q0 46 17.5 88.5t49.5 76.5t75 54t94 20q53 0 86 -23t33 -65q0 -56 -59 -95.5t-162 -44.5v-1q0 -29 15 -46.5t48 -17.5q22 0 45 7.5t45 20.5zM3936 0q0 28 4 62t13.5 82t24.5 116l5 102l137 7 q0 -18 -2 -41t-5 -48h2q29 49 65.5 69t68.5 20q35 0 53.5 -19.5t18.5 -51.5q0 -23 -8 -62.5t-18 -84.5q-7 -33 -11 -57t-5.5 -45.5t-1.5 -48.5h-131q0 38 4.5 69.5t14.5 80.5q8 35 11.5 55.5t3.5 31.5q0 24 -17 24t-34 -22.5t-30.5 -60.5t-22 -84t-9.5 -94h-131zM3768 369 q32 0 73 -7.5t72 -24.5l-28 -128q-20 -94 -25.5 -140.5t-5.5 -68.5h-130q0 20 2.5 45t9.5 67q-15 -50 -50.5 -84.5t-81.5 -34.5q-41 0 -63 30t-22 83q0 44 15.5 90.5t47 85.5t78 63t108.5 24zM4490 177q46 10 72.5 33.5t26.5 59.5q0 17 -5.5 24t-16.5 7q-20 0 -36 -20 t-26 -48.5t-15 -55.5zM3677 101q17 0 33 21t30 54t22 69q2 11 4.5 22t4.5 22q-16 8 -27 8q-18 0 -34.5 -16t-29 -40.5t-20 -51.5t-7.5 -48q0 -40 24 -40zM913 101q16 0 31 19.5t28.5 50t22.5 64.5l4 20l4 20l3 14q-14 8 -27 8q-18 0 -34 -16t-28.5 -40.5t-20 -51.5t-7.5 -48 q0 -40 24 -40zM2435 101q16 0 32.5 21t30 54t21.5 69q2 11 4.5 22t4.5 22q-14 8 -27 8q-18 0 -34 -16t-29 -40.5t-20 -51.5t-7 -48q0 -40 24 -40z" />
<glyph unicode="&#x2f;symbol&#x32;&#x2f;" horiz-adv-x="932" d="M494 570l52 -90l-137 -240h-103l137 240l-52 90h103zM357 570l52 -90l-138 -240h-103l138 240l-52 90h103zM752 120h-103l-137 240l51 90l137 -240h103zM683 0h-103l-137 240l51 90l138 -240h103zM100 120l51 90h275l51 -90h-274l-52 -90zM168 0l52 90h274l52 -90h-275 l-51 -90zM789 88q18 0 30.5 -13t12.5 -31t-12.5 -31t-30.5 -13t-30.5 13t-12.5 31t12.5 31t30.5 13zM829 44q0 17 -11.5 28.5t-28.5 11.5q-16 0 -28 -11.5t-12 -28.5q0 -16 12 -28t28 -12q17 0 28.5 12t11.5 28zM771 69h18h5t6 -2q5 -4 5 -11q0 -5 -3 -8q-1 -2 -2.5 -2.5 t-3.5 -1.5q7 -1 8 -9q0 -8 3 -16h-8q-1 2 -1 6t-1 7q-1 5 -2.5 7.5t-8.5 2.5h-8v-23h-7v50zM778 47h10h3.5t3.5 1q3 3 3 7q0 6 -4 7t-6 1h-10v-16z" />
<glyph unicode="&#x2f;symbol&#x33;&#x2f;" horiz-adv-x="957" d="M505 638l68 -270h270l-203 -135l136 -270l-271 135l-270 -270l135 405l-270 203l338 -68zM814 87q18 0 30.5 -12.5t12.5 -31.5q0 -18 -12.5 -30.5t-30.5 -12.5t-30.5 12.5t-12.5 30.5q0 19 12.5 31.5t30.5 12.5zM854 43q0 17 -11.5 29t-28.5 12q-16 0 -28 -12t-12 -29 q0 -16 12 -28t28 -12q17 0 28.5 12t11.5 28zM796 68h18h5.5t5.5 -2q6 -3 6 -10q0 -5 -4 -9q-3 -3 -6 -3q7 -3 8 -10q1 -4 1.5 -7.5t1.5 -8.5h-7q-1 3 -1.5 7t-1.5 7q0 9 -10 9h-9v-23h-7v50zM803 47h10h3.5t3.5 1l2 2t1 4q0 7 -4 8t-6 1h-10v-16z" />
<glyph unicode="&#x2f;symbol&#x34;&#x2f;" horiz-adv-x="2607" d="M1684 406q0 32 -2.5 63t-8.5 65l126 14l15 -15v-533h-130v406zM1889 406q0 62 -10 128l126 14l14 -15v-533h-130v406zM427 101v-101h-320v362q0 38 -1.5 72t-5.5 63l126 7l14 -14v-396zM925 21l7 109q31 -18 72 -27t72 -9q50 0 50 36q0 19 -20.5 34t-50 31t-59.5 37 t-50.5 51t-20.5 74q0 48 26 80.5t70 49.5t97 17q81 0 127 -18l-14 -111q-28 14 -55 21.5t-56 7.5q-28 0 -43 -11t-15 -29q0 -22 20.5 -38.5t50.5 -32.5t59.5 -36.5t50 -49.5t20.5 -73q0 -67 -54 -104t-139 -37q-40 0 -82.5 8t-62.5 20zM795 0l-106 -7q-7 11 -12 24t-9 25h-4 q-15 -22 -42.5 -35.5t-61.5 -13.5q-41 0 -69 22t-28 67q0 61 53.5 88.5t137.5 29.5v20q0 54 -58 54q-55 0 -108 -29l-8 97q27 10 68.5 18t81.5 8q154 0 154 -135q0 -38 -2 -69.5t-2 -69.5q0 -24 4.5 -50.5t10.5 -43.5zM1626 0l-107 -7q-7 11 -12 24t-9 25h-3 q-15 -22 -42.5 -35.5t-62.5 -13.5q-40 0 -68 22t-28 67q0 61 53 88.5t138 29.5v20q0 54 -58 54q-54 0 -109 -29l-7 97q27 10 68.5 18t81.5 8q153 0 153 -135q0 -38 -1.5 -69.5t-1.5 -69.5q0 -24 4.5 -50.5t10.5 -43.5zM2405 213v-17t-1 -19l-11 -11h-191q8 -45 33.5 -64 t64.5 -19q24 0 45.5 6t38.5 15l7 -81q-17 -11 -49.5 -20.5t-77.5 -9.5q-88 0 -143 47t-55 135q0 58 24 101t66 67.5t94 24.5q73 0 114 -43.5t41 -111.5zM2199 207l78 4q1 5 1.5 11t0.5 15q0 23 -7.5 41t-26.5 18q-23 0 -34 -25.5t-12 -63.5zM654 74v88q-27 -3 -46 -17 t-19 -40q0 -18 10.5 -29t26.5 -11t28 9zM1485 74v88q-27 -3 -46 -17t-19 -40q0 -18 10 -29t27 -11q16 0 28 9zM2464 85q18 0 30.5 -13t12.5 -31t-12.5 -31t-30.5 -13t-31 13t-13 31t13 31t31 13zM2504 41q0 17 -11.5 28.5t-28.5 11.5q-16 0 -28 -11.5t-12 -28.5 q0 -16 12 -28t28 -12q17 0 28.5 12t11.5 28zM2446 66h18q2 0 5 -0.5t6 -2.5q5 -2 5 -10q0 -4 -3 -9q-3 -3 -6 -3q7 -1 8 -10q0 -7 3 -15h-8q-1 2 -1 6t-1 7q-1 5 -2.5 7t-8.5 2h-8v-22h-7v50zM2453 44h10h3.5t3.5 1q3 3 3 7q0 6 -4 7t-6 1h-10v-16z" />
<glyph unicode="&#x2f;symbol&#x35;&#x2f;" horiz-adv-x="705" d="M232 -6l-132 136l124 234l129 -136zM474 -6l-121 234l128 136l124 -234z" />
<glyph unicode=" "  horiz-adv-x="250" />
<glyph unicode="&#x09;" horiz-adv-x="250" />
<glyph unicode="&#xa0;" horiz-adv-x="250" />
<glyph unicode="!" horiz-adv-x="346" d="M80 682l8 8l28 3q21 2 49 4.5t45 2.5q30 0 43 -12.5t13 -44.5q0 -6 -0.5 -13.5t-1.5 -15.5l-55 -395h-64zM261 87q0 -42 -28 -69.5t-70 -27.5q-35 0 -58 22.5t-23 54.5q0 39 30.5 67t71.5 28q32 0 54.5 -20.5t22.5 -54.5z" />
<glyph unicode="&#x22;" horiz-adv-x="504" d="M45 763l4 6q38 4 75.5 5.5t81.5 1.5l13 -17l-69 -339h-46l-22 155zM295 763l4 6q38 4 75.5 5.5t81.5 1.5l13 -17l-69 -339h-46l-22 155z" />
<glyph unicode="#" horiz-adv-x="760" d="M220 -10l-82 15l-8 8l39 157h-121l-8 8l12 82h140l42 170h-119l-8 8l12 82h138l45 180l82 -15l8 -8l-39 -157h145l45 180l82 -15l8 -8l-39 -157h118l8 -8l-12 -82h-137l-42 -170h121l8 -8l-12 -82h-140l-45 -180l-82 15l-8 8l39 157h-145zM288 260h145l42 170h-145z" />
<glyph unicode="$" horiz-adv-x="557" d="M304 -137l-62 -3l-8 8v122q-59 1 -108.5 10t-64.5 24q-10 10 -14.5 28.5t-4.5 41.5q0 37 10.5 75t29.5 66l30 -3q10 -49 22.5 -86.5t34.5 -62.5q20 -23 44 -33t47 -10q38 0 56.5 22t18.5 55q0 44 -21 75t-53.5 56t-69.5 48.5t-69.5 51t-53.5 64t-21 87.5q0 58 28.5 99.5 t75.5 66t103 32.5v130l62 3l8 -8v-122q56 -2 103 -13.5t60 -23.5q9 -8 11.5 -23.5t2.5 -27.5q0 -19 -4 -48t-13 -58t-23 -51l-30 2q-10 53 -22.5 87.5t-23.5 52.5q-12 20 -30.5 36.5t-51.5 16.5q-35 0 -55.5 -25t-20.5 -62q0 -44 21 -76t53.5 -56.5t69.5 -48t69.5 -50.5 t53.5 -63t21 -87q0 -57 -27.5 -96.5t-75 -62t-108.5 -30.5v-130z" />
<glyph unicode="%" horiz-adv-x="1031" d="M40 483q0 64 25 112.5t69.5 76.5t102.5 28q57 0 100 -27.5t66.5 -77t23.5 -114.5q0 -58 -25 -104.5t-69 -73.5t-103 -27q-57 0 -99.5 26t-66.5 73t-24 108zM762 700l-425 -710h-65l424 710h66zM178 482q0 -71 4 -106.5t16 -47.5t35 -12t35.5 13t17 49t4.5 104 q0 72 -5 110.5t-17 53t-33 14.5t-33.5 -16t-18 -54.5t-5.5 -107.5zM604 197q0 64 25 112.5t69.5 76.5t102.5 28q57 0 99.5 -27.5t66.5 -77t24 -114.5q0 -58 -25 -104.5t-69 -73.5t-103 -27q-57 0 -99.5 26t-66.5 73t-24 108zM742 196q0 -71 4 -106.5t16 -47.5t35 -12 t35.5 13t17 49t4.5 104q0 72 -5 110.5t-17 53t-33 14.5t-33.5 -16t-18 -54.5t-5.5 -107.5z" />
<glyph unicode="&#x26;" horiz-adv-x="810" d="M343 -10q-85 0 -149 22t-99 63.5t-35 98.5q0 66 46.5 108.5t117.5 57.5l-32 39q-17 21 -37 55.5t-20 82.5q0 51 30.5 92.5t84.5 66t124 24.5q58 0 101 -17t66.5 -46t23.5 -64q0 -34 -24 -53.5t-65 -19.5q-28 0 -46 7q2 14 3.5 27.5t1.5 24.5q-1 47 -18 69t-45 22 t-45 -18.5t-17 -50.5q0 -37 20 -74t53 -78l187 -227q4 25 4 53q0 68 -10.5 105t-24.5 56q14 14 34 22.5t41 8.5q42 0 66 -28.5t24 -83.5q0 -52 -18 -104.5t-52 -98.5q37 -31 73.5 -39.5t78.5 -8.5l4 -14q-25 -34 -64.5 -57.5t-94.5 -23.5q-34 0 -64.5 10t-58.5 28 q-35 -17 -76.5 -27t-88.5 -10zM240 199q0 -71 36.5 -115t106.5 -44q48 0 85 18q-18 15 -35 34t-34 39l-142 170q-9 -24 -13 -51t-4 -51z" />
<glyph unicode="'" horiz-adv-x="254" d="M40 763l4 6q38 4 75.5 5.5t81.5 1.5l13 -17l-69 -339h-46l-22 155z" />
<glyph unicode="(" horiz-adv-x="419" d="M399 -178l-14 -20q-146 68 -225.5 187t-79.5 292t79.5 292t225.5 187l14 -20q-132 -161 -133 -459q1 -298 133 -459z" />
<glyph unicode=")" horiz-adv-x="419" d="M20 740l14 20q146 -68 225.5 -187t79.5 -292t-79.5 -292t-225.5 -187l-14 20q132 161 133 459q-1 298 -133 459z" />
<glyph unicode="*" horiz-adv-x="416" d="M240 506q0 -14 -9 -22t-23 -8t-23 8t-9 22q0 17 6.5 38.5t10.5 47.5q-20 -17 -36 -33.5t-30 -24.5q-12 -7 -23 -3t-19 16q-7 12 -4.5 24t14.5 19q14 8 36 13.5t47 14.5q-25 9 -47 14.5t-36 13.5q-12 8 -14.5 19.5t4.5 23.5q8 12 19 16t23 -3q14 -8 30 -24.5t36 -33.5 q-4 26 -10.5 48t-6.5 38q0 14 9 22t23 8t23 -8t9 -22q0 -16 -6 -38t-11 -48q20 17 36 33.5t30 24.5q12 7 23.5 3t18.5 -16t4.5 -23.5t-14.5 -19.5q-14 -8 -36 -13.5t-47 -14.5q25 -9 47 -14.5t36 -13.5q12 -7 14.5 -19t-4.5 -24t-18.5 -16t-23.5 3q-14 8 -30 24.5t-36 33.5 q5 -26 11 -47.5t6 -38.5z" />
<glyph unicode="+" d="M530 303h-175v-178h-88l-1 178h-186v85q33 1 82 2t104 1l-1 174h90v-173q52 1 98.5 1h78.5l8 -8z" />
<glyph unicode="," horiz-adv-x="296" d="M50 -164q22 25 45 67t32 88q-39 4 -63 29.5t-24 60.5q0 30 16 55.5t43 41t58 15.5q45 0 72 -27.5t27 -72.5t-17 -87.5t-45 -79t-62 -63t-67 -40.5z" />
<glyph unicode="-" horiz-adv-x="402" d="M24 251v50h354v-50h-354z" />
<glyph unicode="." horiz-adv-x="290" d="M141 -10q-43 0 -71 27t-30 64q-1 31 14.5 56t42 40.5t57.5 15.5q39 0 67 -24.5t29 -66.5q2 -46 -30 -79t-79 -33z" />
<glyph unicode="/" horiz-adv-x="397" d="M150 -10l-82 20l-8 8l187 742l82 -20l8 -8z" />
<glyph unicode="0" horiz-adv-x="634" d="M32 340q0 107 36.5 188t102 126.5t151.5 45.5q85 0 147.5 -45t97.5 -125.5t35 -189.5q0 -103 -36.5 -182t-102 -123.5t-151.5 -44.5q-84 0 -147 43.5t-98 122.5t-35 184zM217 340q0 -114 8.5 -178.5t30 -90.5t59.5 -26t60.5 28t32 92.5t9.5 174.5q0 113 -9.5 180 t-30.5 96t-58 29q-54 0 -78 -70.5t-24 -234.5z" />
<glyph unicode="1" horiz-adv-x="396" d="M292 55l85 -35l-2 -20h-356l-2 20l30 11q32 12 48.5 26t16.5 40v488l-93 20l-2 20l267 75l8 -8v-637z" />
<glyph unicode="2" horiz-adv-x="526" d="M43 0l-13 95q81 49 140.5 106.5t92.5 118.5t33 120q0 57 -30.5 88.5t-86.5 31.5q-40 0 -74.5 -20t-60.5 -47l-20 14q20 62 58.5 105t88 65.5t102.5 22.5q63 0 109.5 -25t72.5 -68.5t26 -101.5q0 -64 -32.5 -119t-83 -102t-107.5 -85.5t-105 -68.5h239q33 0 51 13.5 t31 46.5l20 -2q0 -24 -4 -58.5t-10 -69.5t-14 -60h-423z" />
<glyph unicode="3" horiz-adv-x="514" d="M93 294l-7 48q91 10 143.5 43t52.5 91q0 38 -24.5 61t-71.5 23q-37 0 -72.5 -20t-61.5 -47l-20 14q18 59 56.5 102.5t88.5 67t103 23.5q58 0 99.5 -20.5t64.5 -54.5t23 -77q0 -56 -30.5 -93t-76 -59t-92.5 -32q59 -6 107.5 -28t77.5 -60.5t29 -95.5q0 -48 -24.5 -84 t-65.5 -59.5t-90.5 -35t-99.5 -11.5q-57 0 -104.5 11.5t-76.5 34t-29 55.5q0 22 17 38.5t44.5 26t57.5 9.5l8 -8q7 -52 29 -84.5t69 -32.5q40 0 65 28t25 77t-23.5 82.5t-60.5 51t-78 17.5h-26t-26 -2z" />
<glyph unicode="4" horiz-adv-x="575" d="M0 220l346 470l118 -10v-440h95l-8 -90h-87v-150h-180v150h-274zM94 240h190v284z" />
<glyph unicode="5" horiz-adv-x="521" d="M60 337l9 353h410q0 -46 -7.5 -98.5t-20.5 -106.5l-23 2q-1 38 -12.5 50.5t-47.5 12.5h-213l-5 -163q18 1 51 1q136 0 216 -51.5t80 -146.5q0 -62 -34 -107t-96 -69t-146 -24q-93 0 -149 27.5t-56 73.5q0 32 34.5 53t84.5 21l8 -8q15 -117 94 -117q41 0 63 29t22 81 q0 75 -68 122.5t-182 51.5z" />
<glyph unicode="6" horiz-adv-x="589" d="M565 207q0 -62 -33 -111.5t-93 -77.5t-142 -28q-80 0 -139.5 35t-92.5 98t-33 147q0 92 35.5 169t101 134t156.5 90t203 37l7 -30q-117 -45 -194.5 -120.5t-107.5 -179.5q27 10 58.5 17.5t62.5 7.5q98 0 154.5 -51t56.5 -137zM217 245q0 -52 9.5 -99t30.5 -76.5t53 -29.5 q35 0 55 34.5t20 91.5q0 69 -35 113t-91 44q-21 0 -36 -4q-6 -35 -6 -74z" />
<glyph unicode="7" horiz-adv-x="496" d="M483 690l13 -95q-74 -86 -117.5 -181t-65 -198.5t-30.5 -215.5h-185q7 79 37 156.5t73 149.5t91 134t91 110h-274q-32 0 -49 -12.5t-31 -47.5l-20 2q1 26 4.5 62.5t9.5 73t14 62.5h439z" />
<glyph unicode="8" horiz-adv-x="583" d="M559 188q0 -51 -32 -96.5t-92.5 -73.5t-145.5 -28q-76 0 -136 20t-94.5 57.5t-34.5 87.5q0 46 23.5 78.5t61 53.5t79.5 33q-34 22 -62.5 48.5t-46 60.5t-17.5 79q0 54 31 97.5t87 69t132 25.5q62 0 110.5 -20t76.5 -55t28 -82q0 -55 -35 -93.5t-91 -63.5q41 -24 77 -51 t58.5 -62.5t22.5 -84.5zM227 565q0 -36 19 -63.5t49.5 -50t66.5 -42.5q14 31 19.5 67.5t5.5 67.5q0 47 -20 76.5t-61 29.5q-34 0 -56.5 -23.5t-22.5 -61.5zM194 161q0 -56 27.5 -88.5t72.5 -32.5q40 0 65 26.5t25 68.5q0 36 -22.5 63t-58.5 50t-76 47q-33 -58 -33 -134z" />
<glyph unicode="9" horiz-adv-x="589" d="M557 410q0 -90 -35.5 -165t-101 -131t-156.5 -88t-203 -36l-7 30q115 43 192 115.5t107 173.5q-26 -10 -57 -17t-61 -7q-97 0 -154 52.5t-57 141.5q0 64 33 113.5t93 78.5t142 29q80 0 139.5 -36t92.5 -101t33 -153zM204 510q0 -67 35.5 -110t90.5 -43q20 0 35 3 q7 39 7 82q0 57 -8.5 104t-27 75.5t-47.5 28.5q-39 0 -62 -38.5t-23 -101.5z" />
<glyph unicode=":" horiz-adv-x="290" d="M141 307q-43 0 -71 27t-30 64q-1 31 14.5 56t42 40.5t57.5 15.5q39 0 67 -24.5t29 -66.5q2 -46 -30 -79t-79 -33zM141 -10q-43 0 -71 27t-30 64q-1 31 14.5 56t42 40.5t57.5 15.5q39 0 67 -24.5t29 -66.5q2 -46 -30 -79t-79 -33z" />
<glyph unicode=";" horiz-adv-x="297" d="M148 307q-43 0 -71 27t-30 64q-1 31 14.5 56t42 40.5t57.5 15.5q39 0 67 -24.5t29 -66.5q2 -46 -30 -79t-79 -33zM50 -164q22 25 45 67t32 88q-39 4 -63 29.5t-24 60.5q0 30 16 55.5t43 41t58 15.5q45 0 72 -27.5t27 -72.5t-17 -87.5t-45 -79t-62 -63t-67 -40.5z" />
<glyph unicode="&#x3c;" d="M530 93l-455 222v55l4 11q29 15 74 37t97 47t104.5 49.5t98 44.5t76.5 32v-95l-311 -148l312 -160v-95z" />
<glyph unicode="=" d="M530 403h-450v85q31 1 76 1.5t96.5 1.5t104 1.5t98 0.5h77.5l8 -8zM530 203h-450v85q31 1 76 1.5t96.5 1.5t104 1.5t98 0.5h77.5l8 -8z" />
<glyph unicode="&#x3e;" d="M90 93v95l312 160l-311 148v95q31 -12 76.5 -32t98 -44.5t104.5 -49.5t97 -47t74 -37l4 -11v-55z" />
<glyph unicode="?" horiz-adv-x="469" d="M251 227l-8 -8q-42 -4 -67 17.5t-25 54.5q0 29 14 50t35 40.5t41.5 42t34.5 53t14 73.5q0 41 -16 70.5t-51 29.5q-34 0 -52.5 -28.5t-18.5 -76.5q0 -14 2 -30.5t6 -33.5q-29 -16 -71 -16q-39 0 -64 22.5t-25 62.5q0 44 33.5 78t87.5 53t115 19q65 0 118 -19.5t84 -57.5 t31 -93q0 -40 -19.5 -73.5t-48.5 -60.5t-59.5 -46.5t-53.5 -31.5t-29 -17q-8 -6 -8 -21v-53zM302 87q0 -42 -28 -69.5t-70 -27.5q-35 0 -58 22.5t-23 54.5q0 39 30.5 67t71.5 28q32 0 54.5 -20.5t22.5 -54.5z" />
<glyph unicode="@" horiz-adv-x="1098" d="M823 69q26 0 57 19.5t59 56.5t46 90t18 120q0 77 -27.5 142t-78 112.5t-119.5 74t-152 26.5q-74 0 -149.5 -24.5t-143.5 -70.5t-122 -111.5t-85 -147t-31 -177.5q0 -83 28.5 -154t80.5 -123.5t123 -82t155 -29.5q67 0 117.5 12t90 31t74.5 39l19 -32 q-55 -43 -132.5 -71.5t-178.5 -28.5q-93 0 -172 32.5t-137.5 91t-90.5 137t-32 170.5q0 106 34 197t92.5 163.5t134.5 123.5t161 78t170 27q95 0 173.5 -30.5t135 -86t87 -130t30.5 -161.5q0 -73 -24 -138.5t-67.5 -115.5t-101.5 -79t-127 -29q-61 0 -98 24.5t-51.5 66 t-7.5 93.5q1 5 1.5 9t1.5 8h-6q-22 -55 -52 -101t-65.5 -73t-75.5 -27q-54 0 -87.5 43.5t-33.5 116.5q0 68 23 132t66.5 115.5t106 82t142.5 30.5q62 0 123 -12.5t106 -35.5l-27 -80l-38 -182q-7 -36 -5.5 -65.5t16 -47.5t46.5 -18zM449 182q0 -27 6.5 -43.5t20.5 -16.5 q19 0 39.5 25t39.5 63.5t34.5 80.5t25.5 76l19 74q-20 19 -50 19q-26 0 -50.5 -28t-43.5 -72t-30 -91.5t-11 -86.5z" />
<glyph unicode="A" horiz-adv-x="716" d="M299 690h118l211 -596q8 -24 20 -33.5t30 -19.5l30 -16l-2 -25h-337l-2 25l75 28l-47 145l-215 -3l-48 -141l75 -29l-2 -25h-195l-2 25q15 7 27 12.5t22 12.5q10 8 18 17.5t13 25.5zM196 245l184 -2l-91 278z" />
<glyph unicode="B" horiz-adv-x="719" d="M347 635h-50v-257h50q53 0 84 34t31 98q0 60 -30.5 92.5t-84.5 32.5zM352 328h-55v-273h55q66 0 105.5 38t39.5 101q0 59 -39.5 96.5t-105.5 37.5zM37 665l2 25h333q128 0 199 -45t71 -125q0 -57 -35 -97t-105 -57q185 -41 185 -171q0 -62 -36.5 -106t-101.5 -66.5 t-152 -22.5h-358l-2 25l30 15q23 11 34 23t11 34v531z" />
<glyph unicode="C" horiz-adv-x="698" d="M420 -10q-78 0 -147 22t-121.5 65t-82 108t-29.5 150q0 84 29 151.5t81 115.5t120.5 73t146.5 25q57 0 109 -7t101 -25q5 -18 7.5 -41t2.5 -50t-4.5 -65t-12.5 -70l-30 -2q-29 56 -57.5 106t-57.5 90q-11 2 -16 2.5t-19 0.5q-59 0 -107 -39t-76 -107.5t-27 -157.5 q1 -85 29 -149t75 -100t106 -36q14 0 22.5 1t18.5 2q35 39 67.5 88t62.5 99h30q5 -16 7 -40.5t2 -52.5q0 -34 -3 -69t-9 -66q-52 -10 -105.5 -16t-112.5 -6z" />
<glyph unicode="D" horiz-adv-x="762" d="M357 635h-60v-580h60q83 0 128.5 72t46.5 218t-45.5 218t-129.5 72zM722 345q0 -114 -46.5 -190.5t-127.5 -115.5t-186 -39h-323l-2 25l30 15q23 11 34 23t11 34v531l-75 37l2 25h323q106 0 187 -39t127 -115.5t46 -190.5z" />
<glyph unicode="E" horiz-adv-x="627" d="M297 365l180 10l-3 -70l-177 10v-260h89q14 0 31 1t32 3q12 16 25.5 40t26.5 51l41 90h30q8 -30 11.5 -62t3.5 -72q0 -36 -2.5 -58.5t-6.5 -47.5h-539l-2 25l30 15q23 11 34 23t11 34v531l-75 37l2 25h529q4 -25 6.5 -47.5t2.5 -58.5q0 -40 -3.5 -72t-11.5 -62h-30 l-41 90q-13 27 -26.5 51t-25.5 40q-15 2 -32 3t-31 1h-79v-270z" />
<glyph unicode="F" horiz-adv-x="583" d="M297 62l95 -37l-2 -25h-351l-2 25l30 15q23 11 34 23t11 34v531l-75 37l2 25h519q4 -25 6.5 -47.5t2.5 -58.5q0 -40 -3.5 -72t-11.5 -62h-30l-41 90q-13 27 -26.5 51t-25.5 40q-15 2 -32 3t-31 1h-69v-290l180 10l-3 -70l-177 10v-233z" />
<glyph unicode="G" horiz-adv-x="745" d="M415 -10q-75 0 -142.5 21t-120 63.5t-82.5 107.5t-30 153t31 156t86 114.5t126 70.5t152 24q56 0 110 -7.5t102 -24.5q5 -18 7.5 -41t2.5 -50t-4.5 -65t-12.5 -70l-30 -2q-30 57 -58 106.5t-57 89.5q-11 3 -22 3.5t-27 0.5q-55 0 -104.5 -36.5t-80.5 -103.5t-31 -160 t31 -157.5t80 -98.5t104 -34q25 0 45 5v203l-75 37l2 25h301l2 -25l-30 -15q-15 -7 -20 -20t-5 -37v-201q-41 -11 -76.5 -18t-75.5 -10.5t-98 -3.5z" />
<glyph unicode="H" horiz-adv-x="834" d="M297 62l75 -37l-2 -25h-331l-2 25l30 15q23 11 34 23t11 34v531l-75 37l2 25h331l2 -25l-30 -15q-23 -11 -34 -22.5t-11 -34.5v-216h240v251l-75 37l2 25h331l2 -25l-30 -15q-23 -11 -34 -22.5t-11 -34.5v-531l75 -37l-2 -25h-331l-2 25l30 15q23 11 34 23t11 34v223 h-240v-258z" />
<glyph unicode="I" horiz-adv-x="409" d="M297 62l75 -37l-2 -25h-331l-2 25l30 15q23 11 34 23t11 34v531l-75 37l2 25h331l2 -25l-30 -15q-23 -11 -34 -22.5t-11 -34.5v-531z" />
<glyph unicode="J" horiz-adv-x="393" d="M112 628l-75 37l2 25h331l2 -25l-30 -15q-23 -11 -34 -22.5t-11 -34.5v-513q0 -50 -22 -94t-58.5 -77.5t-79.5 -54t-85 -24.5l-15 20q75 96 75 270v508z" />
<glyph unicode="K" horiz-adv-x="759" d="M297 62l75 -37l-2 -25h-331l-2 25l30 15q23 11 34 23t11 34v531l-75 37l2 25h331l2 -25l-30 -15q-23 -11 -34 -22.5t-11 -34.5v-233h45l206 275l-85 30l2 25h251l2 -25q-39 -13 -66 -30q-14 -9 -27.5 -21t-28.5 -29l-128 -141l113 -194q27 -45 47 -85t41.5 -71.5 t52.5 -53.5l29 -20l-2 -20l-185 -5q-37 -1 -56 15t-36 47l-130 248h-45v-243z" />
<glyph unicode="L" horiz-adv-x="619" d="M112 628l-75 37l2 25h331l2 -25l-30 -15q-23 -11 -34 -22.5t-11 -34.5v-538h89q14 0 31 1t32 3q12 16 26 40t26 51l41 90h30q8 -30 11.5 -62t3.5 -72q0 -36 -2.5 -58.5t-6.5 -47.5h-539l-2 25l30 15q23 11 34 23t11 34v531z" />
<glyph unicode="M" horiz-adv-x="1005" d="M164 62l78 -37l-2 -25h-206l-2 25l30 15q23 11 33 23t12 34l50 531l-75 37l2 25h263l160 -441l162 441h251l2 -25l-75 -37l54 -566l38 -18l37 -19l-2 -25h-335l-2 25l30 15q23 11 35 23t10 34l-41 430l-154 -422l-35 -105h-85l-30 105l-158 426z" />
<glyph unicode="N" horiz-adv-x="748" d="M172 62l95 -37l-2 -25h-226l-2 25l30 15q23 11 34 23t11 34v531l-37 19l-38 18l2 25h233l320 -471v409l-75 37l2 25h206l2 -25l-30 -15q-23 -11 -34 -22.5t-11 -34.5v-593h-120l-360 513v-451z" />
<glyph unicode="O" horiz-adv-x="760" d="M40 345q0 86 27 152t74.5 111t109 68.5t130.5 23.5q97 0 173.5 -40t121 -117.5t44.5 -192.5t-45 -195.5t-122.5 -122.5t-173.5 -42q-98 0 -175 42t-120.5 121.5t-43.5 191.5zM230 345q-1 -137 39 -218.5t113 -81.5q49 0 81.5 39t49.5 107.5t17 158.5q1 135 -36.5 215 t-112.5 80q-72 0 -111 -81.5t-40 -218.5z" />
<glyph unicode="P" horiz-adv-x="673" d="M352 635h-55v-320h55q55 0 85 43.5t30 116.5t-30 116.5t-85 43.5zM297 62l95 -37l-2 -25h-351l-2 25l30 15q23 11 34 23t11 34v531l-75 37l2 25h328q82 0 147.5 -25t104 -73t38.5 -117t-38.5 -117t-104 -73t-147.5 -25h-70v-198z" />
<glyph unicode="Q" horiz-adv-x="760" d="M40 345q0 86 27 152t74.5 111t109 68.5t130.5 23.5q97 0 173.5 -40t121 -118t44.5 -192q0 -103 -37 -179t-101 -120.5t-146 -56.5q41 -12 91 -21.5t98.5 -15t87.5 -5.5q14 0 27 1.5t26 3.5l10 -5q8 -10 12.5 -23.5t4.5 -29.5q0 -46 -29 -70t-74 -24q-37 0 -83 16 t-94.5 43t-94.5 60.5t-83 67.5q-87 9 -153.5 53t-104 120t-37.5 180zM230 345q-1 -137 39 -218.5t113 -81.5q49 0 81.5 39t49.5 107.5t17 158.5q1 135 -36.5 215t-112.5 80q-72 0 -111 -81.5t-40 -218.5z" />
<glyph unicode="R" horiz-adv-x="759" d="M352 635h-55v-300h55q55 0 85 42t30 109q0 68 -30 108.5t-85 40.5zM297 62l75 -37l-2 -25h-331l-2 25l30 15q23 11 34 23t11 34v531l-75 37l2 25h338q132 0 206 -53.5t74 -139.5q0 -45 -18 -79t-46 -59t-59 -40l42 -69q28 -46 49 -85.5t43.5 -71t53.5 -53.5l29 -20 l-2 -20l-185 -5q-37 -1 -56 15t-36 47l-114 223h-61v-218z" />
<glyph unicode="S" horiz-adv-x="562" d="M239 -10q-42 0 -81 4t-67.5 11.5t-39.5 18.5q-10 10 -14.5 28.5t-4.5 41.5q0 37 10.5 75t29.5 66l30 -3q10 -49 22.5 -86.5t34.5 -62.5q21 -24 48.5 -33.5t52.5 -9.5q46 0 68 25t22 62q0 40 -22 69.5t-57.5 53.5t-74.5 48t-74.5 51.5t-57.5 63.5t-22 86q0 67 38.5 111.5 t102.5 67t140 22.5q41 0 79.5 -5.5t67 -14t37.5 -17.5q9 -8 11.5 -23.5t2.5 -27.5q0 -19 -4 -48t-13 -58t-23 -51l-30 2q-10 53 -22.5 87.5t-23.5 52.5q-12 21 -32 37t-55 16q-45 0 -70.5 -28t-25.5 -69q0 -39 22 -68t57.5 -53t74.5 -47.5t74.5 -52t57.5 -66.5t22 -91 q0 -67 -36 -107.5t-101 -59t-154 -18.5z" />
<glyph unicode="T" horiz-adv-x="668" d="M427 62l75 -37l-2 -25h-331l-2 25l30 15q23 11 34 23t11 34v538h-17q-14 0 -31 -1t-32 -3q-12 -16 -25.5 -40t-26.5 -51l-41 -90h-30q-7 30 -11 62t-4 72q0 36 2.5 58.5t6.5 47.5h602q4 -25 6.5 -47.5t2.5 -58.5q0 -40 -3.5 -72t-11.5 -62h-30l-41 90q-13 27 -26.5 51 t-25.5 40q-15 2 -32 3t-31 1h-16v-573z" />
<glyph unicode="U" horiz-adv-x="682" d="M75 245v383l-75 37l2 25h331l2 -25l-30 -15q-23 -11 -34 -22.5t-11 -34.5v-352q0 -94 38.5 -142.5t102.5 -48.5q67 0 105.5 47t38.5 145v386l-75 37l2 25h206l2 -25l-75 -37v-383q0 -255 -255 -255q-128 0 -201.5 64t-73.5 191z" />
<glyph unicode="V" horiz-adv-x="716" d="M417 0h-118l-211 596q-8 24 -19.5 33.5t-30.5 19.5l-30 16l2 25h337l2 -25l-75 -28l153 -468l157 467l-75 29l2 25h195l2 -25q-14 -7 -26 -12t-22 -11q-10 -7 -17.5 -17t-14.5 -28z" />
<glyph unicode="W" horiz-adv-x="1067" d="M397 0h-118l-191 596q-7 24 -19 33.5t-31 19.5l-30 16l2 25h337l2 -25l-75 -28l133 -463l100 334l-28 88q-7 24 -14 33.5t-26 19.5l-30 16l2 25h327l2 -25l-75 -28l133 -463l138 462l-76 29l2 25h195l2 -25q-14 -7 -26 -12t-23 -11q-10 -7 -17.5 -17t-13.5 -28l-191 -597 h-118l-137 426z" />
<glyph unicode="X" horiz-adv-x="731" d="M138 105l146 206l-183 285q-18 30 -33 43t-47 26l2 25h341l2 -25l-75 -28l131 -206l123 204l-75 30l2 25h241l2 -25q-20 -7 -37 -14t-32 -16q-14 -9 -27 -21t-26 -29l-142 -200l184 -291q11 -16 19.5 -26.5t18.5 -18.5q9 -7 19.5 -12.5t22.5 -11.5l-2 -25h-336l-2 25 l75 28l-137 213l-127 -211l75 -30l-2 -25h-241l-2 25q20 8 37 14.5t32 15.5t28 21t25 29z" />
<glyph unicode="Y" horiz-adv-x="701" d="M443 62l75 -37l-2 -25h-331l-2 25l30 15q23 11 34 23t11 34v203l-167 296q-16 29 -30 39t-33 20l-20 10l2 25h342l2 -25l-76 -28l142 -286l146 287l-75 27l2 25h198l2 -25q-16 -7 -27.5 -13t-20.5 -14q-18 -13 -34 -41l-168 -298v-237z" />
<glyph unicode="Z" horiz-adv-x="661" d="M594 0h-536l-10 50l357 585h-136q-14 0 -31 -1t-32 -3l-103 -181h-30q-7 30 -11 66t-4 68t2.5 56.5t6.5 49.5h536l10 -50l-356 -585h135q14 0 31 1t32 3l103 181h30q15 -57 15 -130q0 -30 -2.5 -57t-6.5 -53z" />
<glyph unicode="[" horiz-adv-x="434" d="M394 -198h-274v958h274v-33h-104v-892h104v-33z" />
<glyph unicode="\" horiz-adv-x="397" d="M247 -10l-187 742l8 8l82 20l187 -742l-8 -8z" />
<glyph unicode="]" horiz-adv-x="434" d="M40 760h274v-958h-274v33h104v892h-104v33z" />
<glyph unicode="^" horiz-adv-x="526" d="M175 210h-95l150 340h66l150 -340h-95l-90 208z" />
<glyph unicode="_" horiz-adv-x="584" d="M24 -150v70h536v-70h-536z" />
<glyph unicode="`" horiz-adv-x="381" d="M315 578l-11 -16q-69 18 -123 42.5t-84.5 52t-30.5 54.5q0 32 29 44.5t66 12.5h17t17 -1l11 -8q17 -34 47 -84.5t62 -96.5z" />
<glyph unicode="a" horiz-adv-x="575" d="M314 510q88 0 137 -44.5t49 -132.5q0 -12 -1 -38t-1.5 -56t-1.5 -55t-1 -36q0 -29 9 -48.5t37 -19.5q6 0 15 1t20 3l4 -14q-24 -40 -62.5 -60t-79.5 -20q-43 0 -73 18.5t-40 48.5q-23 -30 -63.5 -48.5t-86.5 -18.5q-58 0 -96.5 30.5t-38.5 86.5q0 76 76 118t204 44v125 q0 66 -47 66q-25 0 -40 -17.5t-15 -57.5q0 -9 1 -22.5t3 -27.5q-22 -11 -42.5 -15.5t-38.5 -4.5q-34 0 -56 13.5t-22 39.5q0 25 20.5 50t56 46t80.5 33.5t94 12.5zM220 142q0 -31 15 -46.5t40 -15.5q30 0 45 14v141q-47 -6 -73.5 -29t-26.5 -64z" />
<glyph unicode="b" horiz-adv-x="609" d="M80 -10l-8 8v656l-58 34l-2 14q30 15 70.5 27t83 20.5t78.5 10.5l8 -8v-308q25 30 61 48t79 18q55 0 96.5 -31t65 -86.5t23.5 -129.5q0 -85 -31.5 -146.5t-88.5 -94t-134 -32.5q-31 0 -61.5 6t-59.5 19zM289 40q53 0 78 51t25 142q0 86 -21.5 131.5t-67.5 45.5 q-25 0 -51 -17v-344q16 -9 37 -9z" />
<glyph unicode="c" horiz-adv-x="501" d="M493 125q-16 -34 -43.5 -65t-70.5 -50.5t-104 -19.5q-74 0 -128.5 30.5t-84.5 86t-30 129.5q0 81 34 142.5t94.5 96.5t138.5 35q57 0 98.5 -17.5t64.5 -46.5t23 -64q0 -36 -24 -56.5t-65 -20.5q-19 0 -33 4t-33 13v3q0 68 -9 101.5t-35 33.5q-31 0 -50 -44.5t-19 -117.5 q0 -97 37 -145t114 -48q36 0 62 9.5t48 22.5z" />
<glyph unicode="d" horiz-adv-x="617" d="M622 70q-22 -37 -59 -58.5t-84 -21.5q-44 0 -72 18.5t-42 51.5q-22 -31 -57.5 -50.5t-81.5 -19.5q-58 0 -102 31.5t-68 86.5t-24 127q0 86 34.5 147.5t96.5 94.5t145 33q26 0 49 -4v148l-78 34l-2 14q34 15 77 27t89 20.5t86 10.5l8 -8v-607q0 -32 11 -48.5t36 -16.5 q11 0 19.5 1.5t14.5 2.5zM217 269q0 -87 25 -138t72 -51q12 0 24 3.5t19 9.5v360q-16 7 -35 7q-51 0 -78 -50t-27 -141z" />
<glyph unicode="e" horiz-adv-x="526" d="M498 125q-17 -36 -45 -67t-70 -49.5t-102 -18.5q-75 0 -131 31t-87 87t-31 132q0 82 34 142.5t92 94t129 33.5q60 0 109 -24.5t77.5 -69t28.5 -105.5v-26.5t-1 -18.5l-15 -15h-266q8 -75 43 -110.5t99 -35.5q35 0 66.5 9.5t54.5 22.5zM280 460q-33 0 -48 -46t-15 -112 v-10l104 6q0 8 0.5 18.5t0.5 22.5q0 68 -10 94.5t-32 26.5z" />
<glyph unicode="f" horiz-adv-x="393" d="M268 55l85 -35l-2 -20h-326l-2 20l30 16q18 10 26.5 23.5t8.5 37.5v333h-63l-2 20l65 35v25q0 50 21.5 95t59.5 80t86 55t100 20q50 0 88 -17.5t60 -45.5t22 -61q0 -36 -24.5 -55.5t-59.5 -19.5q-29 0 -62 14q0 70 -9 102.5t-38 32.5q-30 0 -47 -34t-17 -96v-100h117v-50 h-117v-375z" />
<glyph unicode="g" horiz-adv-x="539" d="M32 318q0 54 30.5 97.5t84 69t121.5 25.5q82 0 138 -37q17 48 40 75t51 27q42 0 42 -57q0 -12 -2 -27.5t-4 -23.5q-4 -14 -25 -15q-13 -1 -33 -1t-39 -2q22 -22 34 -51.5t12 -64.5q0 -54 -29 -97t-80.5 -68t-120.5 -25q-25 0 -49 4q-3 -11 -3 -21q0 -19 14 -25.5t45 -8.5 l95 -6q83 -5 130.5 -40.5t47.5 -102.5q0 -58 -36.5 -104t-103.5 -72.5t-159 -26.5q-62 0 -111 12.5t-77 36t-28 54.5q0 26 18 46t46.5 31.5t59.5 11.5l8 -8q3 -62 48.5 -98t109.5 -36q51 0 81.5 21.5t30.5 52.5q0 26 -21 41t-56 19l-131 16q-71 9 -100.5 35.5t-29.5 66.5 q0 34 19 65t59 50q-58 19 -92.5 61.5t-34.5 99.5zM302 325q0 78 -10 109t-34 31q-25 0 -35.5 -31t-10.5 -105q0 -75 11 -108t36 -33q24 0 33.5 31t9.5 106z" />
<glyph unicode="h" horiz-adv-x="645" d="M260 55l65 -35l-2 -20h-306l-2 20l30 16q18 10 26.5 23.5t8.5 37.5v557l-58 34l-2 14q30 15 70.5 27t83 20.5t78.5 10.5l8 -8v-309q42 35 83.5 51t81.5 16q66 0 103 -38.5t37 -111.5v-305l65 -35l-2 -20h-231l-12 12v325q0 38 -14.5 55.5t-45.5 17.5q-30 0 -65 -17v-338z " />
<glyph unicode="i" horiz-adv-x="348" d="M269 678q0 -46 -31 -77t-77 -31q-39 0 -64.5 25t-25.5 61q0 29 15.5 52.5t41.5 38t56 14.5q35 0 60 -22.5t25 -60.5zM268 55l65 -35l-2 -20h-306l-2 20l30 16q18 10 26.5 23.5t8.5 37.5v307l-58 34l-2 14q30 15 70.5 27t83 20.5t78.5 10.5l8 -8v-447z" />
<glyph unicode="j" horiz-adv-x="332" d="M259 673q0 -46 -31 -77t-77 -31q-39 0 -64.5 25t-25.5 61q0 29 15.5 52.5t41.5 38t56 14.5q35 0 60 -22.5t25 -60.5zM5 -240q75 96 75 270v374l-58 34l-2 14q30 15 70.5 27t83 20.5t78.5 10.5l8 -8v-512q0 -50 -21.5 -94t-57 -77.5t-78 -54t-83.5 -24.5z" />
<glyph unicode="k" horiz-adv-x="635" d="M260 55l65 -35l-2 -20h-306l-2 20l30 16q18 10 26.5 23.5t8.5 37.5v557l-58 34l-2 14q30 15 70.5 27t83 20.5t78.5 10.5l8 -8v-472h42l130 165l-85 35l2 20h251l2 -20q-37 -15 -68 -34q-29 -18 -64 -50l-45 -43l136 -259q10 -19 20.5 -33t24.5 -23l29 -18l-2 -20h-160 q-39 0 -58 15t-34 47l-79 168h-42v-175z" />
<glyph unicode="l" horiz-adv-x="340" d="M260 55l65 -35l-2 -20h-306l-2 20l30 16q18 10 26.5 23.5t8.5 37.5v557l-58 34l-2 14q30 15 70.5 27t83 20.5t78.5 10.5l8 -8v-697z" />
<glyph unicode="m" horiz-adv-x="958" d="M268 55l65 -35l-2 -20h-306l-2 20l30 16q18 10 26.5 23.5t8.5 37.5v307l-58 34l-2 14q30 15 70.5 27t83 20.5t78.5 10.5l8 -8v-60q79 68 165 68q97 0 128 -78q85 78 177 78q66 0 103 -38.5t37 -111.5v-305l65 -35l-2 -20h-231l-12 12v325q0 38 -14 55.5t-45 17.5 q-17 0 -34 -5t-34 -13q2 -15 2 -32v-305l65 -35l-2 -20h-231l-12 12v325q0 38 -14 55.5t-45 17.5q-17 0 -33 -4.5t-33 -12.5v-338z" />
<glyph unicode="n" horiz-adv-x="653" d="M268 55l65 -35l-2 -20h-306l-2 20l30 16q18 10 26.5 23.5t8.5 37.5v307l-58 34l-2 14q30 15 70.5 27t83 20.5t78.5 10.5l8 -8v-60q79 68 165 68q66 0 103 -38.5t37 -111.5v-305l65 -35l-2 -20h-231l-12 12v325q0 38 -14 55.5t-45 17.5q-17 0 -33 -4.5t-33 -12.5v-338z " />
<glyph unicode="o" horiz-adv-x="564" d="M532 250q0 -77 -32.5 -135.5t-89.5 -91.5t-133 -33q-74 0 -129 32.5t-85.5 91t-30.5 136.5q0 77 32.5 135.5t90 91.5t132.5 33q74 0 129 -32.5t85.5 -90.5t30.5 -137zM217 250q0 -81 5.5 -127t19.5 -64.5t38 -18.5q38 0 52.5 46t14.5 164q0 117 -14 163.5t-49 46.5 q-36 0 -51.5 -48.5t-15.5 -161.5z" />
<glyph unicode="p" horiz-adv-x="617" d="M305 40q44 0 69.5 50.5t25.5 137.5q0 89 -21 135.5t-67 46.5q-26 0 -52 -17v-343q18 -10 45 -10zM260 -195l85 -35l-2 -20h-326l-2 20l30 16q18 10 26.5 23.5t8.5 37.5v557l-58 34l-2 14q30 15 70.5 27t83 20.5t78.5 10.5l8 -8v-58q25 30 61 48t79 18q55 0 96.5 -31 t65 -86t23.5 -128q0 -131 -75 -203t-205 -72q-23 0 -45 2v-187z" />
<glyph unicode="q" horiz-adv-x="609" d="M537 -195l65 -35l-2 -20h-306l-2 20l30 16q18 10 26.5 23.5t8.5 37.5v202q-23 -27 -57 -43.5t-73 -15.5q-86 1 -140.5 64.5t-54.5 175.5q0 92 35 154.5t93.5 94t130.5 31.5q35 0 64.5 -7t52.5 -18l121 25l8 -8v-697zM323 460q-52 0 -79 -51.5t-27 -143.5q0 -87 25 -136 t68 -49q32 0 47 13v359q-16 8 -34 8z" />
<glyph unicode="r" horiz-adv-x="458" d="M268 55l85 -35l-2 -20h-326l-2 20l30 16q18 10 26.5 23.5t8.5 37.5v307l-58 34l-2 14q30 15 70.5 27t83 20.5t78.5 10.5l8 -8v-77q30 41 60.5 63t61.5 22q29 0 48.5 -18.5t19.5 -53.5t-16.5 -62.5t-30.5 -42.5h-20q-24 15 -52 26.5t-61 18.5l-10 -4v-319z" />
<glyph unicode="s" horiz-adv-x="483" d="M205 -10q-52 0 -96 8t-58 21q-19 19 -19 63q0 29 10.5 55.5t29.5 45.5l15 -3q8 -34 21.5 -58.5t28.5 -41.5q17 -19 35 -29.5t42 -10.5q29 0 43 14.5t14 36.5q0 27 -16.5 46.5t-42.5 36.5t-55 34t-55 37t-42.5 47t-16.5 64q0 51 32 85.5t86 51.5t119 17q50 0 91 -8.5 t52 -18.5q14 -12 14 -48q0 -22 -9 -53.5t-31 -54.5l-15 2q-10 35 -20 56t-21 37q-10 14 -24 26t-40 12q-25 0 -39.5 -14t-14.5 -37q0 -26 16.5 -45.5t42.5 -36.5t55 -34t55 -37.5t42.5 -48t16.5 -66.5q0 -76 -68 -113.5t-178 -37.5z" />
<glyph unicode="t" horiz-adv-x="415" d="M407 125q-14 -32 -38.5 -63.5t-62 -51.5t-89.5 -20q-70 0 -107.5 42.5t-37.5 127.5v270h-63l-2 20l66 55l159 135l20 -2v-158h125v-50h-125v-245q0 -37 15 -58.5t49 -21.5q23 0 41.5 9t34.5 23z" />
<glyph unicode="u" horiz-adv-x="653" d="M80 145v259l-58 34l-2 14q30 15 70.5 27t83 20.5t78.5 10.5l8 -8v-336q0 -42 15.5 -61.5t49.5 -19.5q30 0 60 14v305l-58 34l-2 14q30 15 70.5 27t83 20.5t78.5 10.5l8 -8v-357q0 -30 10.5 -47.5t32.5 -17.5q19 0 38 4l4 -14q-22 -37 -59.5 -58.5t-84.5 -21.5 q-42 0 -69.5 18t-41.5 48q-31 -29 -71 -47.5t-89 -18.5q-70 0 -112.5 40t-42.5 115z" />
<glyph unicode="v" horiz-adv-x="548" d="M470 407l-147 -407h-108l-146 406q-7 19 -13.5 28.5t-14.5 17.5q-11 12 -19 17t-22 11l2 20h313l2 -20l-67 -33l88 -291l95 293l-66 31l2 20h177l2 -20q-26 -9 -46 -25q-10 -9 -18 -20.5t-14 -27.5z" />
<glyph unicode="w" horiz-adv-x="786" d="M501 500l103 -309l66 258l-70 31l2 20h182l2 -20q-13 -4 -24.5 -10.5t-22.5 -15.5q-10 -8 -18 -19.5t-13 -27.5l-117 -407h-108l-91 268l-99 -268h-108l-116 406q-4 16 -12.5 27.5t-15.5 18.5q-19 19 -41 28l2 20h308l2 -20l-62 -33l62 -257l111 310h78z" />
<glyph unicode="x" horiz-adv-x="571" d="M262 447l90 -139l80 137l-65 35l2 20h195l2 -20q-16 -6 -29 -14.5t-24 -19.5t-21 -23.5t-21 -26.5l-94 -127l114 -175q20 -32 38 -48q10 -8 20 -14t22 -12l-2 -20h-306l-2 20l55 33l-91 138l-79 -136l65 -35l-2 -20h-207l-2 20q34 13 60 34q13 11 24.5 23.5t21.5 26.5 l93 126l-117 176q-18 27 -36 45q-18 19 -41 29l2 20h308l2 -20z" />
<glyph unicode="y" horiz-adv-x="548" d="M281 0h-66l-146 406q-5 14 -13 26.5t-15 19.5q-6 7 -15 14t-26 14l2 20h308l2 -20l-62 -33l86 -284l97 285l-71 32l2 20h182l2 -20q-16 -5 -27.5 -12t-21.5 -15q-9 -8 -15.5 -19.5t-12.5 -26.5l-166 -457q-28 -79 -57 -125t-58.5 -65.5t-61.5 -19.5q-37 0 -58.5 26 t-21.5 66q0 32 14 63l10 4q16 -5 32 -7.5t27 -2.5q28 0 58 13t55 37.5t37 60.5z" />
<glyph unicode="z" horiz-adv-x="512" d="M477 78q0 -39 -9 -78h-426l-10 50l256 400h-120l-92 -134h-20q-17 54 -17 106q0 39 9 78h422l10 -50l-257 -400h125l92 134h20q17 -54 17 -106z" />
<glyph unicode="{" horiz-adv-x="459" d="M80 294q56 8 79 35t23 79q0 35 -7.5 70.5t-15.5 70.5t-8 70q0 76 62 108.5t203 32.5l3 -32q-43 0 -66.5 -24.5t-23.5 -67.5q0 -55 12.5 -109t12.5 -108q0 -56 -42 -91t-107 -48q65 -13 107 -48t42 -91q0 -32 -6 -68.5t-12.5 -74t-6.5 -74.5q0 -43 23.5 -67.5t66.5 -24.5 l-3 -32q-141 0 -203 32.5t-62 108.5q0 35 8 73t15.5 74t7.5 64q0 51 -23 79t-79 35v28z" />
<glyph unicode="|" horiz-adv-x="325" d="M128 -260l-8 8v1009l77 3l8 -8v-1009z" />
<glyph unicode="}" horiz-adv-x="459" d="M379 294v-28q-56 -7 -79 -35t-23 -79q0 -28 8 -64t15.5 -74t7.5 -73q0 -76 -62 -108.5t-203 -32.5l-3 32q43 0 66.5 24.5t23.5 67.5q0 37 -6.5 74.5t-12.5 74t-6 68.5q0 56 42 91t107 48q-65 13 -107 48t-42 91q0 54 12.5 108t12.5 109q0 43 -23.5 67.5t-66.5 24.5l3 32 q141 0 203 -32.5t62 -108.5q0 -35 -7.5 -70t-15.5 -70.5t-8 -70.5q0 -52 23 -79t79 -35z" />
<glyph unicode="~" d="M441 212q-14 0 -42.5 5t-63 12.5t-68 15t-59 12.5t-35.5 5q-8 0 -23 -17t-34 -40l-51 34q13 24 31 52t39 47.5t44 19.5q14 0 42 -5t63 -12.5t68.5 -15t59.5 -12.5t35 -5q8 0 23 17.5t34 39.5l51 -34q-13 -24 -31 -52t-38.5 -47.5t-44.5 -19.5z" />
<glyph unicode="&#xa1;" horiz-adv-x="346" d="M85 413q0 42 28 69.5t70 27.5q35 0 58 -22.5t23 -54.5q0 -39 -30.5 -67t-71.5 -28q-32 0 -54.5 20.5t-22.5 54.5zM266 -182l-8 -8l-28 -3q-21 -2 -49 -4.5t-45 -2.5q-30 0 -43 12.5t-13 44.5q0 6 0.5 13.5t1.5 15.5l55 395h64z" />
<glyph unicode="&#xa2;" horiz-adv-x="517" d="M322 -137l-62 -3l-8 8v123q-67 5 -116.5 39t-76.5 92t-27 134q0 78 27.5 139.5t77 100.5t115.5 50v131l62 3l8 -8v-123q75 -5 119 -42t44 -85q0 -36 -24 -56.5t-65 -20.5q-19 0 -33 4t-33 13v3q0 68 -9 101.5t-35 33.5q-31 0 -50 -50t-19 -132q0 -106 37 -159.5 t114 -53.5q36 0 62 9.5t48 22.5l15 -12q-21 -45 -61.5 -82.5t-109.5 -48.5v-131z" />
<glyph unicode="&#xa3;" horiz-adv-x="664" d="M79 292l8 70h114q1 22 3 44l4 44q10 91 51.5 145.5t102.5 79.5t128 25q68 0 105 -26t37 -64q0 -27 -12.5 -46.5t-31 -31.5t-36.5 -17q-12 33 -24 62.5t-26 48t-31 18.5q-24 0 -38.5 -25t-24 -68.5t-20.5 -100.5l-16 -88h145l-8 -70h-151l-8 -45q-11 -59 -40.5 -105.5 t-66.5 -78.5q60 -20 136 -38t173 -18q15 0 29.5 2t30.5 3q5 -9 8.5 -21t3.5 -27q0 -52 -28.5 -78t-77.5 -26q-41 0 -87.5 13.5t-92.5 35.5t-87.5 50t-71.5 57q-32 -18 -60.5 -27t-47.5 -9q-28 0 -41.5 15t-13.5 37q0 26 20.5 48.5t56.5 22.5q18 0 39 -5t46 -14 q10 41 13.5 95t6.5 113h-119z" />
<glyph unicode="&#xa4;" horiz-adv-x="560" d="M454 105l-69 72q-23 -15 -51 -23.5t-62 -8.5q-30 0 -55.5 6.5t-47.5 18.5l-65 -65l-64 64l63 63q-29 48 -29 106q0 67 35 120l-65 67l60 60q14 -13 31.5 -30t36.5 -37q22 13 48.5 20t57.5 7q32 0 59 -8t49 -22l70 70l64 -64l-71 -71q25 -46 25 -101q0 -58 -28 -107 q21 -22 40 -41l34 -34v-11zM274 455q-52 0 -78.5 -34t-26.5 -77q0 -26 12 -51.5t36 -41.5t58 -16q56 0 80 34t24 77q0 41 -26.5 75t-78.5 34z" />
<glyph unicode="&#xa5;" horiz-adv-x="701" d="M118 125v60h140v70h-140v60h140v3l-167 278q-17 29 -30.5 39t-32.5 20l-20 10l2 25h342l2 -25l-75 -28l139 -264l147 265l-74 27l2 25h198l2 -25q-16 -7 -27.5 -13t-20.5 -14q-10 -7 -17.5 -16.5t-16.5 -24.5l-168 -281v-1h140v-60h-140v-70h140v-60h-140v-63l75 -37 l-2 -25h-331l-2 25l30 15q23 11 34 23t11 34v28h-140z" />
<glyph unicode="&#xa6;" horiz-adv-x="325" d="M205 348l-77 -3l-8 8v404l77 3l8 -8v-404zM205 -257l-77 -3l-8 8v400l77 3l8 -8v-400z" />
<glyph unicode="&#xa7;" horiz-adv-x="584" d="M544 91q0 -56 -23 -104t-63.5 -83.5t-93 -55t-111.5 -19.5q-62 0 -110 12.5t-75.5 36.5t-27.5 58q0 28 14.5 50.5t36.5 38.5l25 -2q41 -51 78.5 -83.5t80.5 -60.5q12 5 20.5 21.5t8.5 36.5q0 39 -19 77.5t-49 78t-64 80.5t-64 84t-49 89.5t-19 96.5q0 55 24 102 t64.5 81.5t93 54t109.5 19.5q62 0 110 -12t75.5 -35.5t27.5 -56.5q0 -28 -14.5 -51.5t-36.5 -40.5l-25 2q-39 49 -74.5 82.5t-84.5 61.5q-10 -10 -19.5 -29t-9.5 -48q0 -36 19 -71.5t49 -71.5t64 -74.5t64 -80t49 -87t19 -97.5zM130 468q0 -51 18 -94t46 -82t60 -75.5 t60 -74t46 -77.5t18 -86q0 -18 -2.5 -35t-6.5 -31l10 -5q33 23 53.5 62t20.5 91q0 55 -18 99.5t-46 82.5t-59.5 73t-59.5 69.5t-46 73t-18 83.5q0 22 2.5 39t5.5 33l-10 5q-32 -21 -53 -60.5t-21 -90.5z" />
<glyph unicode="&#xa8;" horiz-adv-x="548" d="M482 677q0 -41 -28 -69t-69 -28q-34 0 -56 23t-22 54q0 40 29.5 68.5t69.5 28.5q32 0 54 -21t22 -56zM241 677q0 -41 -28 -69t-69 -28q-34 0 -56 23t-22 54q0 40 29.5 68.5t69.5 28.5q32 0 54 -21t22 -56z" />
<glyph unicode="&#xa9;" horiz-adv-x="680" d="M340 -50q-85 0 -153 39.5t-107.5 107.5t-39.5 153q0 62 23.5 116.5t64.5 95.5t95.5 64.5t116.5 23.5q64 0 118.5 -23.5t95.5 -64.5t63.5 -95.5t22.5 -116.5t-23.5 -116.5t-64.5 -95.5t-95.5 -64.5t-116.5 -23.5zM340 0q69 0 126 34t90.5 91t33.5 125q0 69 -33.5 126 t-90.5 90.5t-126 33.5q-68 0 -125 -33.5t-91 -90.5t-34 -126q0 -71 33 -127.5t89.5 -89.5t127.5 -33zM489 169q-18 -32 -52 -60.5t-90 -28.5q-41 0 -77.5 20.5t-59 58.5t-22.5 90q0 49 21.5 87.5t59 61t86.5 22.5q53 0 88 -26t35 -61q0 -22 -15 -34.5t-33 -12.5 q-14 0 -26.5 2t-25.5 9v2q0 36 -6 53.5t-23 17.5q-19 0 -30 -25t-11 -68q0 -49 21.5 -78t66.5 -29q23 0 40.5 6t32.5 13z" />
<glyph unicode="&#xaa;" horiz-adv-x="499" d="M266 700q72 0 112.5 -35t40.5 -105q0 -9 -0.5 -29t-1.5 -42.5t-1.5 -41.5t-0.5 -27q0 -30 9.5 -41.5t28.5 -11.5q10 0 28 3l4 -11q-20 -33 -51.5 -49t-66.5 -16t-60 14.5t-34 37.5q-18 -23 -51.5 -37.5t-71.5 -14.5q-47 0 -78.5 24.5t-31.5 67.5q0 60 62 92.5t167 33.5 v98q0 50 -37 50q-20 0 -32 -12.5t-12 -44.5q0 -7 0.5 -18t2.5 -22q-19 -9 -36 -12.5t-32 -3.5q-28 0 -46 10.5t-18 31.5q0 26 29 51.5t76.5 42.5t101.5 17zM190 415q0 -24 12 -36t32 -12q22 0 35 9v109q-37 -4 -58 -21.5t-21 -48.5z" />
<glyph unicode="&#xab;" horiz-adv-x="555" d="M270 31l-18 -11q-45 50 -94 97t-92 83l-6 9v90q56 53 108 102.5t87 86.5l16 -11q-21 -55 -43.5 -113t-43.5 -111q21 -49 43.5 -107t42.5 -115zM494 31l-18 -11q-45 50 -94 97t-92 83l-6 9v90q56 53 108 102.5t87 86.5l16 -11q-21 -55 -43.5 -113t-43.5 -111 q21 -49 43.5 -107t42.5 -115z" />
<glyph unicode="&#xac;" d="M530 414v-253h-90v171h-370v85q31 1 76 1.5t96.5 1.5t104 1.5t98 0.5h77.5z" />
<glyph unicode="&#xae;" horiz-adv-x="680" d="M340 -50q-85 0 -153 39.5t-107.5 107.5t-39.5 153q0 62 23.5 116.5t64.5 95.5t95.5 64.5t116.5 23.5q64 0 118.5 -23.5t95.5 -64.5t63.5 -95.5t22.5 -116.5t-23.5 -116.5t-64.5 -95.5t-95.5 -64.5t-116.5 -23.5zM351 365h-25v-113h25q27 0 40 15.5t13 42.5q0 55 -53 55z M340 0q57 0 107 24t84 65l-78 -3q-18 -1 -27.5 6t-17.5 20l-60 95h-22v-78l30 -15l-2 -24h-176l-2 24l16 8q11 5 12.5 12.5t1.5 24.5v191q0 22 -15 29l-15 7l2 24h191q71 0 109.5 -25.5t38.5 -69.5q0 -33 -18.5 -53t-40.5 -30q20 -34 39.5 -68.5t39.5 -43.5l13 -5 q19 29 29.5 63.5t10.5 71.5q0 69 -33.5 126t-90.5 90.5t-126 33.5q-68 0 -125 -33.5t-91 -90.5t-34 -126q0 -71 33 -127.5t89.5 -89.5t127.5 -33z" />
<glyph unicode="&#xaf;" horiz-adv-x="484" d="M66 612v82h352v-82h-352z" />
<glyph unicode="&#xb0;" horiz-adv-x="335" d="M164 446q-55 0 -89.5 34t-34.5 89q0 59 37 95.5t95 36.5q54 0 88.5 -34t34.5 -88q0 -58 -36.5 -95.5t-94.5 -37.5zM168 651q-34 0 -53.5 -23t-19.5 -57q0 -32 20.5 -53.5t51.5 -21.5q33 0 53 23.5t20 57.5q0 32 -19.5 53t-52.5 21z" />
<glyph unicode="&#xb1;" d="M510 398h-155v-143h-88l-1 143h-166v85q29 1 73 1.5t93 1.5l-1 139h90v-138q97 1 157 1l8 -8zM530 75h-450v85q31 1 76 1.5t96.5 1.5t104 1.5t98 0.5h77.5l8 -8z" />
<glyph unicode="&#xb2;" horiz-adv-x="381" d="M46 342l-9 76q51 13 89 40t58.5 60t20.5 63q0 31 -20 47t-55 16q-25 0 -47 -9.5t-37 -18.5l-14 11q19 65 67 99t102 34q64 0 102.5 -33.5t38.5 -86.5q0 -36 -18 -66.5t-46.5 -54.5t-60 -42t-57.5 -29h122q21 0 33 5.5t21 15.5l13 -1q0 -14 -2.5 -38t-7 -48t-9.5 -40h-284 z" />
<glyph unicode="&#xb3;" horiz-adv-x="396" d="M98 508l-5 35q57 1 90.5 15t33.5 43q0 19 -15.5 31t-44.5 12q-22 0 -44.5 -9t-37.5 -17l-14 11q12 40 37.5 69.5t60 45.5t69.5 16q59 0 93 -28t34 -66q0 -37 -20.5 -58.5t-51 -31.5t-59.5 -13q57 -6 98.5 -34t41.5 -79q0 -42 -29 -67t-73 -36t-88 -11q-38 0 -70.5 6 t-52 18.5t-19.5 32.5q0 23 27 36t60 9l8 -6q5 -20 16.5 -40t41.5 -20q21 0 35 12t14 34q0 29 -15 49t-38.5 31t-49.5 11q-7 0 -16 0.5t-17 -1.5z" />
<glyph unicode="&#xb4;" horiz-adv-x="381" d="M315 711q0 -27 -30.5 -54.5t-84 -52t-123.5 -42.5l-11 16q32 46 62.5 96.5t46.5 84.5l11 8q8 1 17 1h17q37 0 66 -12.5t29 -44.5z" />
<glyph unicode="&#xb6;" horiz-adv-x="628" d="M314 -121q53 0 81 41.5t28 105.5v609h-90v-425q-83 0 -149.5 28t-105 81.5t-38.5 130.5t38.5 130.5t104.5 81.5t147 28h256l2 -25l-30 -15q-23 -11 -34 -22.5t-11 -34.5v-518q0 -82 -28.5 -136.5t-78 -82t-112.5 -27.5q-49 0 -95 11t-75 36.5t-29 66.5q0 31 21 59t66 44 l18 -10q4 -43 16 -79t36 -57t62 -21z" />
<glyph unicode="&#xb7;" horiz-adv-x="370" d="M181 167q-43 0 -71 27t-30 64q-1 31 14.5 56t42 40.5t57.5 15.5q39 0 67 -24.5t29 -66.5q2 -46 -30 -79t-79 -33z" />
<glyph unicode="&#xb8;" horiz-adv-x="366" d="M104 -123l-6 10l20 113h61l-11 -57q63 -6 97.5 -29.5t34.5 -59.5q0 -53 -56.5 -84t-172.5 -31l-5 15q18 9 36.5 21.5t31.5 28t13 32.5q0 15 -12 26t-31 15z" />
<glyph unicode="&#xb9;" horiz-adv-x="316" d="M229 381l55 -26l-1 -13h-249l-2 13l17 6q23 10 34.5 20.5t11.5 29.5v260l-61 16l-2 14l192 59l5 -4v-375z" />
<glyph unicode="&#xba;" horiz-adv-x="476" d="M444 497q0 -59 -26.5 -105t-74 -72t-110.5 -26q-91 0 -146 56t-55 147q0 60 26.5 105.5t74 71.5t109.5 26q61 0 106.5 -25.5t70.5 -71t25 -106.5zM186 497q0 -64 4.5 -99.5t15.5 -49.5t30 -14q30 0 41.5 35.5t11.5 127.5t-10.5 127.5t-39.5 35.5q-28 0 -40.5 -37 t-12.5 -126z" />
<glyph unicode="&#xbb;" horiz-adv-x="555" d="M495 209q-56 -52 -108 -101.5t-87 -87.5l-16 11q21 55 43.5 113t43.5 111q-21 49 -43.5 107t-42.5 115l18 11q45 -49 94 -96.5t92 -83.5l6 -9v-90zM271 209q-56 -52 -108 -101.5t-87 -87.5l-16 11q21 55 43.5 113t43.5 111q-21 49 -43.5 107t-42.5 115l18 11 q45 -49 94 -96.5t92 -83.5l6 -9v-90z" />
<glyph unicode="&#xbc;" horiz-adv-x="1000" d="M715 700l-425 -710h-65l424 710h66zM287 321l55 -26l-1 -13h-249l-2 13l17 6q23 10 34.5 20.5t11.5 29.5v260l-61 16l-2 14l192 59l5 -4v-375zM524 132l229 276l88 -8v-253h59l-5 -70h-54v-77h-134v77h-177zM593 147h114v135z" />
<glyph unicode="&#xbd;" horiz-adv-x="1000" d="M715 700l-425 -710h-65l424 710h66zM287 321l55 -26l-1 -13h-249l-2 13l17 6q23 10 34.5 20.5t11.5 29.5v260l-61 16l-2 14l192 59l5 -4v-375zM597 0l-9 76q51 13 89 40t58.5 60t20.5 63q0 31 -20 47t-55 16q-25 0 -47 -9.5t-37 -18.5l-14 11q19 65 67 99t102 34 q64 0 102.5 -33.5t38.5 -86.5q0 -36 -18 -66.5t-46.5 -54.5t-60 -42t-57.5 -29h122q21 0 33 5.5t21 15.5l13 -1q0 -14 -2.5 -38t-7 -48t-9.5 -40h-284z" />
<glyph unicode="&#xbe;" horiz-adv-x="1000" d="M136 448l-5 35q57 1 90.5 15t33.5 43q0 19 -15.5 31t-44.5 12q-22 0 -44.5 -9t-37.5 -17l-14 11q12 40 38 69.5t60 45.5t69 16q59 0 93 -28t34 -66q0 -37 -20.5 -58.5t-51 -31.5t-59.5 -13q57 -6 98.5 -34t41.5 -79q0 -42 -29 -67t-73 -36t-88 -11q-38 0 -70.5 6 t-52 18.5t-19.5 32.5q0 23 27 36t60 9l8 -6q5 -20 16.5 -40t41.5 -20q21 0 35 12t14 34q0 29 -15 49t-38.5 31t-49.5 11q-7 0 -16 0.5t-17 -1.5zM745 700l-425 -710h-65l424 710h66zM524 132l229 276l88 -8v-253h59l-5 -70h-54v-77h-134v77h-177zM593 147h114v135z" />
<glyph unicode="&#xbf;" horiz-adv-x="469" d="M167 413q0 42 28 69.5t70 27.5q35 0 58 -22.5t23 -54.5q0 -39 -30.5 -67t-71.5 -28q-32 0 -54.5 20.5t-22.5 54.5zM218 273l8 8q42 4 67 -17.5t25 -54.5q0 -28 -14 -49.5t-34.5 -41t-41.5 -42t-35 -52.5t-14 -74q0 -40 16.5 -70t50.5 -30q35 0 53 28.5t18 76.5 q0 14 -1.5 31t-6.5 33q29 16 71 16q39 0 64 -22.5t25 -62.5q0 -44 -33.5 -78t-87.5 -53t-115 -19q-65 0 -118 19.5t-84 57.5t-31 93q0 40 19.5 73.5t48.5 60.5t59.5 46.5t53.5 32t29 16.5q8 6 8 21v53z" />
<glyph unicode="&#xc0;" horiz-adv-x="716" d="M500 789l-5 -19q-58 0 -112.5 3.5t-98 13.5t-69 29t-25.5 50q0 23 25 44.5t53 31.5l13 -2q23 -20 58 -46.5t77 -54t84 -50.5zM299 690h118l211 -596q8 -24 20 -33.5t30 -19.5l30 -16l-2 -25h-337l-2 25l75 28l-47 145l-215 -3l-48 -141l75 -29l-2 -25h-195l-2 25 q15 7 27 12.5t22 12.5q10 8 18 17.5t13 25.5zM196 245l184 -2l-91 278z" />
<glyph unicode="&#xc1;" horiz-adv-x="716" d="M435 940l13 2q29 -10 53.5 -31.5t24.5 -44.5q0 -31 -25.5 -50t-69 -29t-98 -13.5t-112.5 -3.5l-5 19q42 23 84 50.5t77.5 54t57.5 46.5zM299 690h118l211 -596q8 -24 20 -33.5t30 -19.5l30 -16l-2 -25h-337l-2 25l75 28l-47 145l-215 -3l-48 -141l75 -29l-2 -25h-195 l-2 25q15 7 27 12.5t22 12.5q10 8 18 17.5t13 25.5zM196 245l184 -2l-91 278z" />
<glyph unicode="&#xc2;" horiz-adv-x="716" d="M536 783l-16 -11q-36 17 -76.5 34t-79.5 32q-36 -15 -77.5 -32.5t-84.5 -33.5l-14 14q35 40 68 79t55 70l11 8h95q36 -42 67.5 -84t51.5 -76zM299 690h118l211 -596q8 -24 20 -33.5t30 -19.5l30 -16l-2 -25h-337l-2 25l75 28l-47 145l-215 -3l-48 -141l75 -29l-2 -25 h-195l-2 25q15 7 27 12.5t22 12.5q10 8 18 17.5t13 25.5zM196 245l184 -2l-91 278z" />
<glyph unicode="&#xc3;" horiz-adv-x="716" d="M179 768l-20 6q-1 8 -1.5 16t-0.5 15q0 35 11.5 66t36 50.5t61.5 19.5q39 0 77.5 -10.5t75 -23.5t69.5 -23l49 63l20 -6q1 -9 1.5 -18t0.5 -21q0 -32 -11.5 -61.5t-35.5 -48t-62 -18.5q-39 0 -77.5 10.5t-75 24t-69.5 22.5zM299 690h118l211 -596q8 -24 20 -33.5 t30 -19.5l30 -16l-2 -25h-337l-2 25l75 28l-47 145l-215 -3l-48 -141l75 -29l-2 -25h-195l-2 25q15 7 27 12.5t22 12.5q10 8 18 17.5t13 25.5zM196 245l184 -2l-91 278z" />
<glyph unicode="&#xc4;" horiz-adv-x="716" d="M578 869q0 -39 -28.5 -65t-71.5 -26q-36 0 -58.5 21t-22.5 50q0 38 30 64.5t72 26.5q33 0 56 -19.5t23 -51.5zM337 869q0 -39 -28.5 -65t-71.5 -26q-36 0 -58.5 21t-22.5 50q0 38 30 64.5t72 26.5q33 0 56 -19.5t23 -51.5zM299 690h118l211 -596q8 -24 20 -33.5t30 -19.5 l30 -16l-2 -25h-337l-2 25l75 28l-47 145l-215 -3l-48 -141l75 -29l-2 -25h-195l-2 25q15 7 27 12.5t22 12.5q10 8 18 17.5t13 25.5zM196 245l184 -2l-91 278z" />
<glyph unicode="&#xc5;" horiz-adv-x="716" d="M355 766q-51 0 -82.5 25.5t-31.5 67.5q0 45 34 73.5t88 28.5q50 0 81.5 -25.5t31.5 -66.5q0 -44 -34 -73.5t-87 -29.5zM359 922q-23 0 -37.5 -17.5t-14.5 -43.5q0 -24 14.5 -40t36.5 -16q23 0 37.5 18t14.5 44q0 23 -14 39t-37 16zM299 690h118l211 -596q8 -24 20 -33.5 t30 -19.5l30 -16l-2 -25h-337l-2 25l75 28l-47 145l-215 -3l-48 -141l75 -29l-2 -25h-195l-2 25q15 7 27 12.5t22 12.5q10 8 18 17.5t13 25.5zM196 245l184 -2l-91 278z" />
<glyph unicode="&#xc6;" horiz-adv-x="927" d="M412 635h-86l-90 -270l176 -2v272zM10 0l-2 25q15 7 27 12.5t22 12.5q10 8 18 17.5t13 25.5l189 535l-75 37l2 25h664q4 -25 6.5 -47.5t2.5 -58.5q0 -40 -3.5 -72t-11.5 -62h-30l-41 90q-13 27 -26.5 51t-25.5 40q-15 2 -32 3t-31 1h-79v-270l180 10l-3 -70l-177 10v-260 h89q14 0 31 1t32 3q12 16 25.5 40t26.5 51l41 90h30q8 -30 11.5 -62t3.5 -72q0 -36 -2.5 -58.5t-6.5 -47.5h-539l-2 25l30 15q23 11 34 23t11 34v220l-193 -2l-87 -261l75 -29l-2 -25h-195z" />
<glyph unicode="&#xc7;" horiz-adv-x="698" d="M354 -123l-6 10l19 106q-92 9 -166 50.5t-117.5 114.5t-43.5 177q0 84 29 151.5t81 115.5t120.5 73t146.5 25q57 0 109 -7t101 -25q5 -18 7.5 -41t2.5 -50t-4.5 -65t-12.5 -70l-30 -2q-29 56 -57.5 106t-57.5 90q-11 2 -16 2.5t-19 0.5q-59 0 -107 -39t-76 -107.5 t-27 -157.5q1 -85 29 -149t75 -100t106 -36q14 0 22.5 1t18.5 2q35 39 67.5 88t62.5 99h30q5 -16 7 -40.5t2 -52.5q0 -34 -3 -69t-9 -66q-50 -10 -102 -16t-109 -6l-9 -47q63 -6 97.5 -29.5t34.5 -59.5q0 -53 -56.5 -84t-172.5 -31l-5 15q18 9 36.5 21.5t31.5 28t13 32.5 q0 15 -12 26t-31 15z" />
<glyph unicode="&#xc8;" horiz-adv-x="627" d="M474 789l-5 -19q-58 0 -112.5 3.5t-98 13.5t-69 29t-25.5 50q0 23 25 44.5t53 31.5l13 -2q23 -20 58 -46.5t77 -54t84 -50.5zM297 365l180 10l-3 -70l-177 10v-260h89q14 0 31 1t32 3q12 16 25.5 40t26.5 51l41 90h30q8 -30 11.5 -62t3.5 -72q0 -36 -2.5 -58.5 t-6.5 -47.5h-539l-2 25l30 15q23 11 34 23t11 34v531l-75 37l2 25h529q4 -25 6.5 -47.5t2.5 -58.5q0 -40 -3.5 -72t-11.5 -62h-30l-41 90q-13 27 -26.5 51t-25.5 40q-15 2 -32 3t-31 1h-79v-270z" />
<glyph unicode="&#xc9;" horiz-adv-x="627" d="M409 940l13 2q29 -10 53.5 -31.5t24.5 -44.5q0 -31 -25.5 -50t-69 -29t-98 -13.5t-112.5 -3.5l-5 19q42 23 84 50.5t77.5 54t57.5 46.5zM297 365l180 10l-3 -70l-177 10v-260h89q14 0 31 1t32 3q12 16 25.5 40t26.5 51l41 90h30q8 -30 11.5 -62t3.5 -72q0 -36 -2.5 -58.5 t-6.5 -47.5h-539l-2 25l30 15q23 11 34 23t11 34v531l-75 37l2 25h529q4 -25 6.5 -47.5t2.5 -58.5q0 -40 -3.5 -72t-11.5 -62h-30l-41 90q-13 27 -26.5 51t-25.5 40q-15 2 -32 3t-31 1h-79v-270z" />
<glyph unicode="&#xca;" horiz-adv-x="627" d="M507 783l-16 -11q-36 17 -76.5 34t-79.5 32q-36 -15 -77.5 -32.5t-84.5 -33.5l-14 14q35 40 68 79t55 70l11 8h95q36 -42 67.5 -84t51.5 -76zM297 365l180 10l-3 -70l-177 10v-260h89q14 0 31 1t32 3q12 16 25.5 40t26.5 51l41 90h30q8 -30 11.5 -62t3.5 -72 q0 -36 -2.5 -58.5t-6.5 -47.5h-539l-2 25l30 15q23 11 34 23t11 34v531l-75 37l2 25h529q4 -25 6.5 -47.5t2.5 -58.5q0 -40 -3.5 -72t-11.5 -62h-30l-41 90q-13 27 -26.5 51t-25.5 40q-15 2 -32 3t-31 1h-79v-270z" />
<glyph unicode="&#xcb;" horiz-adv-x="627" d="M545 869q0 -39 -28.5 -65t-71.5 -26q-36 0 -58.5 21t-22.5 50q0 38 30 64.5t72 26.5q33 0 56 -19.5t23 -51.5zM304 869q0 -39 -28.5 -65t-71.5 -26q-36 0 -58.5 21t-22.5 50q0 38 30 64.5t72 26.5q33 0 56 -19.5t23 -51.5zM297 365l180 10l-3 -70l-177 10v-260h89 q14 0 31 1t32 3q12 16 25.5 40t26.5 51l41 90h30q8 -30 11.5 -62t3.5 -72q0 -36 -2.5 -58.5t-6.5 -47.5h-539l-2 25l30 15q23 11 34 23t11 34v531l-75 37l2 25h529q4 -25 6.5 -47.5t2.5 -58.5q0 -40 -3.5 -72t-11.5 -62h-30l-41 90q-13 27 -26.5 51t-25.5 40q-15 2 -32 3 t-31 1h-79v-270z" />
<glyph unicode="&#xcc;" horiz-adv-x="409" d="M347 789l-5 -19q-58 0 -112.5 3.5t-98 13.5t-69 29t-25.5 50q0 23 25 44.5t53 31.5l13 -2q23 -20 58 -46.5t77 -54t84 -50.5zM297 62l75 -37l-2 -25h-331l-2 25l30 15q23 11 34 23t11 34v531l-75 37l2 25h331l2 -25l-30 -15q-23 -11 -34 -22.5t-11 -34.5v-531z" />
<glyph unicode="&#xcd;" horiz-adv-x="409" d="M282 940l13 2q29 -10 53.5 -31.5t24.5 -44.5q0 -31 -25.5 -50t-69 -29t-98 -13.5t-112.5 -3.5l-5 19q42 23 84 50.5t77.5 54t57.5 46.5zM297 62l75 -37l-2 -25h-331l-2 25l30 15q23 11 34 23t11 34v531l-75 37l2 25h331l2 -25l-30 -15q-23 -11 -34 -22.5t-11 -34.5v-531z " />
<glyph unicode="&#xce;" horiz-adv-x="409" d="M380 783l-16 -11q-36 17 -76.5 34t-79.5 32q-36 -15 -77.5 -32.5t-84.5 -33.5l-14 14q35 40 68 79t55 70l11 8h95q36 -42 67.5 -84t51.5 -76zM297 62l75 -37l-2 -25h-331l-2 25l30 15q23 11 34 23t11 34v531l-75 37l2 25h331l2 -25l-30 -15q-23 -11 -34 -22.5t-11 -34.5 v-531z" />
<glyph unicode="&#xcf;" horiz-adv-x="409" d="M416 869q0 -39 -28.5 -65t-71.5 -26q-36 0 -58.5 21t-22.5 50q0 38 30 64.5t72 26.5q33 0 56 -19.5t23 -51.5zM175 869q0 -39 -28.5 -65t-71.5 -26q-36 0 -58.5 21t-22.5 50q0 38 30 64.5t72 26.5q33 0 56 -19.5t23 -51.5zM297 62l75 -37l-2 -25h-331l-2 25l30 15 q23 11 34 23t11 34v531l-75 37l2 25h331l2 -25l-30 -15q-23 -11 -34 -22.5t-11 -34.5v-531z" />
<glyph unicode="&#xd0;" horiz-adv-x="762" d="M461 323h-164v-268h60q83 0 128.5 72t46.5 218t-45.5 218t-129.5 72h-60v-262h164v-50zM722 345q0 -114 -46.5 -190.5t-127.5 -115.5t-186 -39h-323l-2 25l30 15q23 11 34 23t11 34v226h-71v50h71v255l-75 37l2 25h323q106 0 187 -39t127 -115.5t46 -190.5z" />
<glyph unicode="&#xd1;" horiz-adv-x="748" d="M231 763l-20 6q-1 8 -1.5 16t-0.5 15q0 35 11.5 66t36 50.5t61.5 19.5q39 0 77.5 -10.5t75 -23.5t69.5 -23l49 63l20 -6q1 -9 1.5 -18t0.5 -21q0 -32 -11.5 -61.5t-35.5 -48t-62 -18.5q-39 0 -77.5 10.5t-75 24t-69.5 22.5zM172 62l95 -37l-2 -25h-226l-2 25l30 15 q23 11 34 23t11 34v531l-37 19l-38 18l2 25h233l320 -471v409l-75 37l2 25h206l2 -25l-30 -15q-23 -11 -34 -22.5t-11 -34.5v-593h-120l-360 513v-451z" />
<glyph unicode="&#xd2;" horiz-adv-x="760" d="M532 789l-5 -19q-58 0 -112.5 3.5t-98 13.5t-69 29t-25.5 50q0 23 25 44.5t53 31.5l13 -2q23 -20 58 -46.5t77 -54t84 -50.5zM40 345q0 86 27 152t74.5 111t109 68.5t130.5 23.5q97 0 173.5 -40t121 -117.5t44.5 -192.5t-45 -195.5t-122.5 -122.5t-173.5 -42 q-98 0 -175 42t-120.5 121.5t-43.5 191.5zM230 345q-1 -137 39 -218.5t113 -81.5q49 0 81.5 39t49.5 107.5t17 158.5q1 135 -36.5 215t-112.5 80q-72 0 -111 -81.5t-40 -218.5z" />
<glyph unicode="&#xd3;" horiz-adv-x="760" d="M457 940l13 2q29 -10 53.5 -31.5t24.5 -44.5q0 -31 -25.5 -50t-69 -29t-98 -13.5t-112.5 -3.5l-5 19q42 23 84 50.5t77.5 54t57.5 46.5zM40 345q0 86 27 152t74.5 111t109 68.5t130.5 23.5q97 0 173.5 -40t121 -117.5t44.5 -192.5t-45 -195.5t-122.5 -122.5t-173.5 -42 q-98 0 -175 42t-120.5 121.5t-43.5 191.5zM230 345q-1 -137 39 -218.5t113 -81.5q49 0 81.5 39t49.5 107.5t17 158.5q1 135 -36.5 215t-112.5 80q-72 0 -111 -81.5t-40 -218.5z" />
<glyph unicode="&#xd4;" horiz-adv-x="760" d="M555 783l-16 -11q-36 17 -76.5 34t-79.5 32q-36 -15 -77.5 -32.5t-84.5 -33.5l-14 14q35 40 68 79t55 70l11 8h95q36 -42 67.5 -84t51.5 -76zM40 345q0 86 27 152t74.5 111t109 68.5t130.5 23.5q97 0 173.5 -40t121 -117.5t44.5 -192.5t-45 -195.5t-122.5 -122.5 t-173.5 -42q-98 0 -175 42t-120.5 121.5t-43.5 191.5zM230 345q-1 -137 39 -218.5t113 -81.5q49 0 81.5 39t49.5 107.5t17 158.5q1 135 -36.5 215t-112.5 80q-72 0 -111 -81.5t-40 -218.5z" />
<glyph unicode="&#xd5;" horiz-adv-x="760" d="M201 768l-20 6q-1 8 -1.5 16t-0.5 15q0 35 11.5 66t36 50.5t61.5 19.5q39 0 77.5 -10.5t75 -23.5t69.5 -23l49 63l20 -6q1 -9 1.5 -18t0.5 -21q0 -32 -11.5 -61.5t-35.5 -48t-62 -18.5q-39 0 -77.5 10.5t-75 24t-69.5 22.5zM40 345q0 86 27 152t74.5 111t109 68.5 t130.5 23.5q97 0 173.5 -40t121 -117.5t44.5 -192.5t-45 -195.5t-122.5 -122.5t-173.5 -42q-98 0 -175 42t-120.5 121.5t-43.5 191.5zM230 345q-1 -137 39 -218.5t113 -81.5q49 0 81.5 39t49.5 107.5t17 158.5q1 135 -36.5 215t-112.5 80q-72 0 -111 -81.5t-40 -218.5z" />
<glyph unicode="&#xd6;" horiz-adv-x="760" d="M596 869q0 -39 -28.5 -65t-71.5 -26q-36 0 -58.5 21t-22.5 50q0 38 30 64.5t72 26.5q33 0 56 -19.5t23 -51.5zM355 869q0 -39 -28.5 -65t-71.5 -26q-36 0 -58.5 21t-22.5 50q0 38 30 64.5t72 26.5q33 0 56 -19.5t23 -51.5zM40 345q0 86 27 152t74.5 111t109 68.5 t130.5 23.5q97 0 173.5 -40t121 -117.5t44.5 -192.5t-45 -195.5t-122.5 -122.5t-173.5 -42q-98 0 -175 42t-120.5 121.5t-43.5 191.5zM230 345q-1 -137 39 -218.5t113 -81.5q49 0 81.5 39t49.5 107.5t17 158.5q1 135 -36.5 215t-112.5 80q-72 0 -111 -81.5t-40 -218.5z" />
<glyph unicode="&#xd7;" d="M459 130l-148 152l-152 -152l-64 64l153 153l-149 153l60 60q27 -26 67 -66t84 -85l151 151l64 -64l-151 -151q44 -45 84 -85.5t67 -67.5v-11z" />
<glyph unicode="&#xd8;" horiz-adv-x="760" d="M40 345q0 86 27 152t74.5 111t109 68.5t130.5 23.5q127 0 214 -65l52 60l43 -35l-54 -62q39 -44 61.5 -106t22.5 -142q0 -115 -45 -195.5t-122.5 -122.5t-173.5 -42q-126 0 -213 67l-54 -62l-42 36l55 63q-40 45 -62.5 108.5t-22.5 142.5zM230 345q0 -66 9 -120l267 308 q-18 53 -49 82.5t-76 29.5q-72 0 -111 -81.5t-40 -218.5zM530 350q0 65 -8 117l-267 -307q19 -55 51 -85t76 -30q49 0 81.5 39t49.5 107.5t17 158.5z" />
<glyph unicode="&#xd9;" horiz-adv-x="682" d="M532 789l-5 -19q-58 0 -112.5 3.5t-98 13.5t-69 29t-25.5 50q0 23 25 44.5t53 31.5l13 -2q23 -20 58 -46.5t77 -54t84 -50.5zM75 245v383l-75 37l2 25h331l2 -25l-30 -15q-23 -11 -34 -22.5t-11 -34.5v-352q0 -94 38.5 -142.5t102.5 -48.5q67 0 105.5 47t38.5 145v386 l-75 37l2 25h206l2 -25l-75 -37v-383q0 -255 -255 -255q-128 0 -201.5 64t-73.5 191z" />
<glyph unicode="&#xda;" horiz-adv-x="682" d="M467 940l13 2q29 -10 53.5 -31.5t24.5 -44.5q0 -31 -25.5 -50t-69 -29t-98 -13.5t-112.5 -3.5l-5 19q42 23 84 50.5t77.5 54t57.5 46.5zM75 245v383l-75 37l2 25h331l2 -25l-30 -15q-23 -11 -34 -22.5t-11 -34.5v-352q0 -94 38.5 -142.5t102.5 -48.5q67 0 105.5 47 t38.5 145v386l-75 37l2 25h206l2 -25l-75 -37v-383q0 -255 -255 -255q-128 0 -201.5 64t-73.5 191z" />
<glyph unicode="&#xdb;" horiz-adv-x="682" d="M575 783l-16 -11q-36 17 -76.5 34t-79.5 32q-36 -15 -77.5 -32.5t-84.5 -33.5l-14 14q35 40 68 79t55 70l11 8h95q36 -42 67.5 -84t51.5 -76zM75 245v383l-75 37l2 25h331l2 -25l-30 -15q-23 -11 -34 -22.5t-11 -34.5v-352q0 -94 38.5 -142.5t102.5 -48.5q67 0 105.5 47 t38.5 145v386l-75 37l2 25h206l2 -25l-75 -37v-383q0 -255 -255 -255q-128 0 -201.5 64t-73.5 191z" />
<glyph unicode="&#xdc;" horiz-adv-x="682" d="M611 869q0 -39 -28.5 -65t-71.5 -26q-36 0 -58.5 21t-22.5 50q0 38 30 64.5t72 26.5q33 0 56 -19.5t23 -51.5zM370 869q0 -39 -28.5 -65t-71.5 -26q-36 0 -58.5 21t-22.5 50q0 38 30 64.5t72 26.5q33 0 56 -19.5t23 -51.5zM75 245v383l-75 37l2 25h331l2 -25l-30 -15 q-23 -11 -34 -22.5t-11 -34.5v-352q0 -94 38.5 -142.5t102.5 -48.5q67 0 105.5 47t38.5 145v386l-75 37l2 25h206l2 -25l-75 -37v-383q0 -255 -255 -255q-128 0 -201.5 64t-73.5 191z" />
<glyph unicode="&#xdd;" horiz-adv-x="701" d="M475 940l13 2q29 -10 53.5 -31.5t24.5 -44.5q0 -31 -25.5 -50t-69 -29t-98 -13.5t-112.5 -3.5l-5 19q42 23 84 50.5t77.5 54t57.5 46.5zM443 62l75 -37l-2 -25h-331l-2 25l30 15q23 11 34 23t11 34v203l-167 296q-16 29 -30 39t-33 20l-20 10l2 25h342l2 -25l-76 -28 l142 -286l146 287l-75 27l2 25h198l2 -25q-16 -7 -27.5 -13t-20.5 -14q-18 -13 -34 -41l-168 -298v-237z" />
<glyph unicode="&#xde;" horiz-adv-x="673" d="M297 62l95 -37l-2 -25h-351l-2 25l30 15q23 11 34 23t11 34v531l-75 37l2 25h331l2 -25l-30 -15q-23 -11 -34 -22.5t-11 -34.5v-30h70q82 0 147.5 -25t104 -73t38.5 -117t-38.5 -117t-104 -73t-147.5 -25h-70v-71zM352 508h-55v-320h55q55 0 85 43.5t30 116.5t-30 116.5 t-85 43.5z" />
<glyph unicode="&#xdf;" horiz-adv-x="682" d="M238 0h-221l-2 20l30 16q18 10 26.5 23.5t8.5 37.5v333h-63l-2 20l65 35v5q0 73 32 134t93 98.5t146 37.5q107 0 165.5 -44.5t58.5 -125.5q0 -56 -33 -97.5t-94 -60.5q93 -21 147.5 -84.5t54.5 -156.5q0 -94 -64 -147.5t-171 -53.5q-37 0 -66 14.5t-45.5 37.5t-16.5 50 q0 35 20.5 54t49.5 19q21 0 46 -14q0 -57 5.5 -84t22.5 -27t25.5 35.5t8.5 98.5q0 95 -36 153.5t-111 74.5v40q31 5 53.5 26t35 50.5t12.5 61.5q0 62 -21 96t-60 34q-78 0 -78 -170v-502z" />
<glyph unicode="&#xe0;" horiz-adv-x="575" d="M415 578l-11 -16q-69 18 -123 42.5t-84.5 52t-30.5 54.5q0 32 29 44.5t66 12.5h17t17 -1l11 -8q17 -34 47 -84.5t62 -96.5zM314 510q88 0 137 -44.5t49 -132.5q0 -12 -1 -38t-1.5 -56t-1.5 -55t-1 -36q0 -29 9 -48.5t37 -19.5q6 0 15 1t20 3l4 -14q-24 -40 -62.5 -60 t-79.5 -20q-43 0 -73 18.5t-40 48.5q-23 -30 -63.5 -48.5t-86.5 -18.5q-58 0 -96.5 30.5t-38.5 86.5q0 76 76 118t204 44v125q0 66 -47 66q-25 0 -40 -17.5t-15 -57.5q0 -9 1 -22.5t3 -27.5q-22 -11 -42.5 -15.5t-38.5 -4.5q-34 0 -56 13.5t-22 39.5q0 25 20.5 50t56 46 t80.5 33.5t94 12.5zM220 142q0 -31 15 -46.5t40 -15.5q30 0 45 14v141q-47 -6 -73.5 -29t-26.5 -64z" />
<glyph unicode="&#xe1;" horiz-adv-x="575" d="M441 711q0 -27 -30.5 -54.5t-84 -52t-123.5 -42.5l-11 16q32 46 62.5 96.5t46.5 84.5l11 8q8 1 17 1h17q37 0 66 -12.5t29 -44.5zM314 510q88 0 137 -44.5t49 -132.5q0 -12 -1 -38t-1.5 -56t-1.5 -55t-1 -36q0 -29 9 -48.5t37 -19.5q6 0 15 1t20 3l4 -14 q-24 -40 -62.5 -60t-79.5 -20q-43 0 -73 18.5t-40 48.5q-23 -30 -63.5 -48.5t-86.5 -18.5q-58 0 -96.5 30.5t-38.5 86.5q0 76 76 118t204 44v125q0 66 -47 66q-25 0 -40 -17.5t-15 -57.5q0 -9 1 -22.5t3 -27.5q-22 -11 -42.5 -15.5t-38.5 -4.5q-34 0 -56 13.5t-22 39.5 q0 25 20.5 50t56 46t80.5 33.5t94 12.5zM220 142q0 -31 15 -46.5t40 -15.5q30 0 45 14v141q-47 -6 -73.5 -29t-26.5 -64z" />
<glyph unicode="&#xe2;" horiz-adv-x="575" d="M463 577l-16 -11q-34 22 -71.5 45t-74.5 42q-34 -20 -73 -42.5t-79 -44.5l-14 14q32 47 62 93t51 82l11 8h95q33 -49 61.5 -98t47.5 -88zM314 510q88 0 137 -44.5t49 -132.5q0 -12 -1 -38t-1.5 -56t-1.5 -55t-1 -36q0 -29 9 -48.5t37 -19.5q6 0 15 1t20 3l4 -14 q-24 -40 -62.5 -60t-79.5 -20q-43 0 -73 18.5t-40 48.5q-23 -30 -63.5 -48.5t-86.5 -18.5q-58 0 -96.5 30.5t-38.5 86.5q0 76 76 118t204 44v125q0 66 -47 66q-25 0 -40 -17.5t-15 -57.5q0 -9 1 -22.5t3 -27.5q-22 -11 -42.5 -15.5t-38.5 -4.5q-34 0 -56 13.5t-22 39.5 q0 25 20.5 50t56 46t80.5 33.5t94 12.5zM220 142q0 -31 15 -46.5t40 -15.5q30 0 45 14v141q-47 -6 -73.5 -29t-26.5 -64z" />
<glyph unicode="&#xe3;" horiz-adv-x="575" d="M131 594l-20 6q-1 7 -1.5 13.5t-0.5 13.5q0 34 11.5 64t36 49t61.5 19q36 0 71 -10.5t68 -23.5t63 -23l49 55l20 -6q1 -8 1.5 -16t0.5 -19q0 -31 -11.5 -59.5t-35.5 -46.5t-62 -18q-35 0 -70.5 10.5t-68.5 24t-63 22.5zM314 510q88 0 137 -44.5t49 -132.5q0 -12 -1 -38 t-1.5 -56t-1.5 -55t-1 -36q0 -29 9 -48.5t37 -19.5q6 0 15 1t20 3l4 -14q-24 -40 -62.5 -60t-79.5 -20q-43 0 -73 18.5t-40 48.5q-23 -30 -63.5 -48.5t-86.5 -18.5q-58 0 -96.5 30.5t-38.5 86.5q0 76 76 118t204 44v125q0 66 -47 66q-25 0 -40 -17.5t-15 -57.5q0 -9 1 -22.5 t3 -27.5q-22 -11 -42.5 -15.5t-38.5 -4.5q-34 0 -56 13.5t-22 39.5q0 25 20.5 50t56 46t80.5 33.5t94 12.5zM220 142q0 -31 15 -46.5t40 -15.5q30 0 45 14v141q-47 -6 -73.5 -29t-26.5 -64z" />
<glyph unicode="&#xe4;" horiz-adv-x="575" d="M510 677q0 -41 -28 -69t-69 -28q-34 0 -56 23t-22 54q0 40 29.5 68.5t69.5 28.5q32 0 54 -21t22 -56zM269 677q0 -41 -28 -69t-69 -28q-34 0 -56 23t-22 54q0 40 29.5 68.5t69.5 28.5q32 0 54 -21t22 -56zM314 510q88 0 137 -44.5t49 -132.5q0 -12 -1 -38t-1.5 -56 t-1.5 -55t-1 -36q0 -29 9 -48.5t37 -19.5q6 0 15 1t20 3l4 -14q-24 -40 -62.5 -60t-79.5 -20q-43 0 -73 18.5t-40 48.5q-23 -30 -63.5 -48.5t-86.5 -18.5q-58 0 -96.5 30.5t-38.5 86.5q0 76 76 118t204 44v125q0 66 -47 66q-25 0 -40 -17.5t-15 -57.5q0 -9 1 -22.5t3 -27.5 q-22 -11 -42.5 -15.5t-38.5 -4.5q-34 0 -56 13.5t-22 39.5q0 25 20.5 50t56 46t80.5 33.5t94 12.5zM220 142q0 -31 15 -46.5t40 -15.5q30 0 45 14v141q-47 -6 -73.5 -29t-26.5 -64z" />
<glyph unicode="&#xe5;" horiz-adv-x="575" d="M294 568q-51 0 -82.5 25.5t-31.5 67.5q0 45 34 73.5t88 28.5q50 0 81.5 -25.5t31.5 -66.5q0 -44 -34 -73.5t-87 -29.5zM298 724q-23 0 -37.5 -17.5t-14.5 -43.5q0 -24 14.5 -40t36.5 -16q23 0 37.5 18t14.5 44q0 23 -14 39t-37 16zM314 510q88 0 137 -44.5t49 -132.5 q0 -12 -1 -38t-1.5 -56t-1.5 -55t-1 -36q0 -29 9 -48.5t37 -19.5q6 0 15 1t20 3l4 -14q-24 -40 -62.5 -60t-79.5 -20q-43 0 -73 18.5t-40 48.5q-23 -30 -63.5 -48.5t-86.5 -18.5q-58 0 -96.5 30.5t-38.5 86.5q0 76 76 118t204 44v125q0 66 -47 66q-25 0 -40 -17.5t-15 -57.5 q0 -9 1 -22.5t3 -27.5q-22 -11 -42.5 -15.5t-38.5 -4.5q-34 0 -56 13.5t-22 39.5q0 25 20.5 50t56 46t80.5 33.5t94 12.5zM220 142q0 -31 15 -46.5t40 -15.5q30 0 45 14v141q-47 -6 -73.5 -29t-26.5 -64z" />
<glyph unicode="&#xe6;" horiz-adv-x="799" d="M320 394q0 66 -47 66q-25 0 -40 -17.5t-15 -57.5q0 -9 1 -22.5t3 -27.5q-22 -11 -42.5 -15.5t-38.5 -4.5q-34 0 -56 13.5t-22 39.5q0 25 19.5 50t52.5 46t75.5 33.5t88.5 12.5q82 0 126 -45q64 45 145 45q57 0 103.5 -24.5t74 -69t27.5 -105.5v-26.5t-1 -18.5l-15 -15 h-266q8 -75 43 -110.5t99 -35.5q35 0 66.5 9.5t54.5 22.5l15 -12q-16 -36 -42.5 -67t-67 -49.5t-97.5 -18.5q-64 0 -114 23.5t-82 65.5q-30 -40 -79.5 -64.5t-107.5 -24.5q-62 0 -101.5 30t-39.5 87q0 76 76 118t204 44v125zM553 460q-33 0 -48 -46t-15 -112v-10l104 6 q0 8 0.5 18.5t0.5 22.5q0 68 -10 94.5t-32 26.5zM220 142q0 -31 16 -46.5t43 -15.5q38 0 66 36q-26 55 -26 119q-47 -6 -73 -29t-26 -64z" />
<glyph unicode="&#xe7;" horiz-adv-x="501" d="M228 -123l-6 10l19 105q-97 10 -153 75.5t-56 168.5q0 81 34 142.5t94.5 96.5t138.5 35q57 0 98.5 -17.5t64.5 -46.5t23 -64q0 -36 -24 -56.5t-65 -20.5q-19 0 -33 4t-33 13v3q0 68 -9 101.5t-35 33.5q-31 0 -50 -44.5t-19 -117.5q0 -97 37 -145t114 -48q36 0 62 9.5 t48 22.5l15 -12q-15 -32 -39.5 -61t-62 -49t-90.5 -24l-9 -48q63 -6 97.5 -29.5t34.5 -59.5q0 -53 -56.5 -84t-172.5 -31l-5 15q18 9 36.5 21.5t31.5 28t13 32.5q0 15 -12 26t-31 15z" />
<glyph unicode="&#xe8;" horiz-adv-x="526" d="M394 578l-11 -16q-69 18 -123 42.5t-84.5 52t-30.5 54.5q0 32 29 44.5t66 12.5h17t17 -1l11 -8q17 -34 47 -84.5t62 -96.5zM498 125q-17 -36 -45 -67t-70 -49.5t-102 -18.5q-75 0 -131 31t-87 87t-31 132q0 82 34 142.5t92 94t129 33.5q60 0 109 -24.5t77.5 -69 t28.5 -105.5v-26.5t-1 -18.5l-15 -15h-266q8 -75 43 -110.5t99 -35.5q35 0 66.5 9.5t54.5 22.5zM280 460q-33 0 -48 -46t-15 -112v-10l104 6q0 8 0.5 18.5t0.5 22.5q0 68 -10 94.5t-32 26.5z" />
<glyph unicode="&#xe9;" horiz-adv-x="526" d="M410 711q0 -27 -30.5 -54.5t-84 -52t-123.5 -42.5l-11 16q32 46 62.5 96.5t46.5 84.5l11 8q8 1 17 1h17q37 0 66 -12.5t29 -44.5zM498 125q-17 -36 -45 -67t-70 -49.5t-102 -18.5q-75 0 -131 31t-87 87t-31 132q0 82 34 142.5t92 94t129 33.5q60 0 109 -24.5t77.5 -69 t28.5 -105.5v-26.5t-1 -18.5l-15 -15h-266q8 -75 43 -110.5t99 -35.5q35 0 66.5 9.5t54.5 22.5zM280 460q-33 0 -48 -46t-15 -112v-10l104 6q0 8 0.5 18.5t0.5 22.5q0 68 -10 94.5t-32 26.5z" />
<glyph unicode="&#xea;" horiz-adv-x="526" d="M442 577l-16 -11q-34 22 -71.5 45t-74.5 42q-34 -20 -73 -42.5t-79 -44.5l-14 14q32 47 62 93t51 82l11 8h95q33 -49 61.5 -98t47.5 -88zM498 125q-17 -36 -45 -67t-70 -49.5t-102 -18.5q-75 0 -131 31t-87 87t-31 132q0 82 34 142.5t92 94t129 33.5q60 0 109 -24.5 t77.5 -69t28.5 -105.5v-26.5t-1 -18.5l-15 -15h-266q8 -75 43 -110.5t99 -35.5q35 0 66.5 9.5t54.5 22.5zM280 460q-33 0 -48 -46t-15 -112v-10l104 6q0 8 0.5 18.5t0.5 22.5q0 68 -10 94.5t-32 26.5z" />
<glyph unicode="&#xeb;" horiz-adv-x="526" d="M489 677q0 -41 -28 -69t-69 -28q-34 0 -56 23t-22 54q0 40 29.5 68.5t69.5 28.5q32 0 54 -21t22 -56zM248 677q0 -41 -28 -69t-69 -28q-34 0 -56 23t-22 54q0 40 29.5 68.5t69.5 28.5q32 0 54 -21t22 -56zM498 125q-17 -36 -45 -67t-70 -49.5t-102 -18.5q-75 0 -131 31 t-87 87t-31 132q0 82 34 142.5t92 94t129 33.5q60 0 109 -24.5t77.5 -69t28.5 -105.5v-26.5t-1 -18.5l-15 -15h-266q8 -75 43 -110.5t99 -35.5q35 0 66.5 9.5t54.5 22.5zM280 460q-33 0 -48 -46t-15 -112v-10l104 6q0 8 0.5 18.5t0.5 22.5q0 68 -10 94.5t-32 26.5z" />
<glyph unicode="&#xec;" horiz-adv-x="348" d="M286 578l-11 -16q-69 18 -123 42.5t-84.5 52t-30.5 54.5q0 32 29 44.5t66 12.5h17t17 -1l11 -8q17 -34 47 -84.5t62 -96.5zM268 55l65 -35l-2 -20h-306l-2 20l30 16q18 10 26.5 23.5t8.5 37.5v307l-58 34l-2 14q30 15 70.5 27t83 20.5t78.5 10.5l8 -8v-447z" />
<glyph unicode="&#xed;" horiz-adv-x="348" d="M312 711q0 -27 -30.5 -54.5t-84 -52t-123.5 -42.5l-11 16q32 46 62.5 96.5t46.5 84.5l11 8q8 1 17 1h17q37 0 66 -12.5t29 -44.5zM268 55l65 -35l-2 -20h-306l-2 20l30 16q18 10 26.5 23.5t8.5 37.5v307l-58 34l-2 14q30 15 70.5 27t83 20.5t78.5 10.5l8 -8v-447z" />
<glyph unicode="&#xee;" horiz-adv-x="348" d="M291 565l-16 -11q-25 21 -52 41.5t-54 38.5q-26 -19 -54.5 -39.5t-57.5 -40.5l-14 14q21 48 40.5 96t32.5 85l11 8h95q21 -50 39 -100.5t30 -91.5zM268 55l65 -35l-2 -20h-306l-2 20l30 16q18 10 26.5 23.5t8.5 37.5v307l-58 34l-2 14q30 15 70.5 27t83 20.5t78.5 10.5 l8 -8v-447z" />
<glyph unicode="&#xef;" horiz-adv-x="348" d="M343 669q0 -41 -23.5 -69t-60.5 -28q-30 0 -47.5 23t-17.5 54q0 40 24.5 68.5t61.5 28.5q27 0 45 -21t18 -56zM144 669q0 -41 -23.5 -69t-60.5 -28q-30 0 -47.5 23t-17.5 54q0 40 24.5 68.5t61.5 28.5q27 0 45 -21t18 -56zM268 55l65 -35l-2 -20h-306l-2 20l30 16 q18 10 26.5 23.5t8.5 37.5v307l-58 34l-2 14q30 15 70.5 27t83 20.5t78.5 10.5l8 -8v-447z" />
<glyph unicode="&#xf0;" horiz-adv-x="564" d="M276 -10q-73 0 -128 32.5t-85.5 91t-30.5 136.5q0 77 28.5 135.5t79.5 91.5t117 33q34 0 64 -12q-19 43 -52 84l-141 -66l-23 50l126 58q-33 32 -70.5 59t-78.5 47l7 30q72 -3 136 -25t117 -59l156 73l24 -50l-134 -62q68 -64 106 -155t38 -200q0 -138 -67.5 -215 t-188.5 -77zM284 460q-36 0 -51.5 -48.5t-15.5 -161.5q0 -81 5 -127t18 -64.5t36 -18.5q25 0 40.5 19t23 65.5t7.5 130.5q0 36 -2 72t-8.5 66t-19 48.5t-33.5 18.5z" />
<glyph unicode="&#xf1;" horiz-adv-x="653" d="M161 594l-20 6q-1 7 -1.5 13.5t-0.5 13.5q0 34 11.5 64t36 49t61.5 19q36 0 71 -10.5t68 -23.5t63 -23l49 55l20 -6q1 -8 1.5 -16t0.5 -19q0 -31 -11.5 -59.5t-35.5 -46.5t-62 -18q-35 0 -70.5 10.5t-68.5 24t-63 22.5zM268 55l65 -35l-2 -20h-306l-2 20l30 16 q18 10 26.5 23.5t8.5 37.5v307l-58 34l-2 14q30 15 70.5 27t83 20.5t78.5 10.5l8 -8v-60q79 68 165 68q66 0 103 -38.5t37 -111.5v-305l65 -35l-2 -20h-231l-12 12v325q0 38 -14 55.5t-45 17.5q-17 0 -33 -4.5t-33 -12.5v-338z" />
<glyph unicode="&#xf2;" horiz-adv-x="564" d="M399 578l-11 -16q-69 18 -123 42.5t-84.5 52t-30.5 54.5q0 32 29 44.5t66 12.5h17t17 -1l11 -8q17 -34 47 -84.5t62 -96.5zM532 250q0 -77 -32.5 -135.5t-89.5 -91.5t-133 -33q-74 0 -129 32.5t-85.5 91t-30.5 136.5q0 77 32.5 135.5t90 91.5t132.5 33q74 0 129 -32.5 t85.5 -90.5t30.5 -137zM217 250q0 -81 5.5 -127t19.5 -64.5t38 -18.5q38 0 52.5 46t14.5 164q0 117 -14 163.5t-49 46.5q-36 0 -51.5 -48.5t-15.5 -161.5z" />
<glyph unicode="&#xf3;" horiz-adv-x="564" d="M430 711q0 -27 -30.5 -54.5t-84 -52t-123.5 -42.5l-11 16q32 46 62.5 96.5t46.5 84.5l11 8q8 1 17 1h17q37 0 66 -12.5t29 -44.5zM532 250q0 -77 -32.5 -135.5t-89.5 -91.5t-133 -33q-74 0 -129 32.5t-85.5 91t-30.5 136.5q0 77 32.5 135.5t90 91.5t132.5 33 q74 0 129 -32.5t85.5 -90.5t30.5 -137zM217 250q0 -81 5.5 -127t19.5 -64.5t38 -18.5q38 0 52.5 46t14.5 164q0 117 -14 163.5t-49 46.5q-36 0 -51.5 -48.5t-15.5 -161.5z" />
<glyph unicode="&#xf4;" horiz-adv-x="564" d="M452 577l-16 -11q-34 22 -71.5 45t-74.5 42q-34 -20 -73 -42.5t-79 -44.5l-14 14q32 47 62 93t51 82l11 8h95q33 -49 61.5 -98t47.5 -88zM532 250q0 -77 -32.5 -135.5t-89.5 -91.5t-133 -33q-74 0 -129 32.5t-85.5 91t-30.5 136.5q0 77 32.5 135.5t90 91.5t132.5 33 q74 0 129 -32.5t85.5 -90.5t30.5 -137zM217 250q0 -81 5.5 -127t19.5 -64.5t38 -18.5q38 0 52.5 46t14.5 164q0 117 -14 163.5t-49 46.5q-36 0 -51.5 -48.5t-15.5 -161.5z" />
<glyph unicode="&#xf5;" horiz-adv-x="564" d="M115 594l-20 6q-1 7 -1.5 13.5t-0.5 13.5q0 34 11.5 64t36 49t61.5 19q36 0 71 -10.5t68 -23.5t63 -23l49 55l20 -6q1 -8 1.5 -16t0.5 -19q0 -31 -11.5 -59.5t-35.5 -46.5t-62 -18q-35 0 -70.5 10.5t-68.5 24t-63 22.5zM532 250q0 -77 -32.5 -135.5t-89.5 -91.5t-133 -33 q-74 0 -129 32.5t-85.5 91t-30.5 136.5q0 77 32.5 135.5t90 91.5t132.5 33q74 0 129 -32.5t85.5 -90.5t30.5 -137zM217 250q0 -81 5.5 -127t19.5 -64.5t38 -18.5q38 0 52.5 46t14.5 164q0 117 -14 163.5t-49 46.5q-36 0 -51.5 -48.5t-15.5 -161.5z" />
<glyph unicode="&#xf6;" horiz-adv-x="564" d="M499 677q0 -41 -28 -69t-69 -28q-34 0 -56 23t-22 54q0 40 29.5 68.5t69.5 28.5q32 0 54 -21t22 -56zM258 677q0 -41 -28 -69t-69 -28q-34 0 -56 23t-22 54q0 40 29.5 68.5t69.5 28.5q32 0 54 -21t22 -56zM532 250q0 -77 -32.5 -135.5t-89.5 -91.5t-133 -33 q-74 0 -129 32.5t-85.5 91t-30.5 136.5q0 77 32.5 135.5t90 91.5t132.5 33q74 0 129 -32.5t85.5 -90.5t30.5 -137zM217 250q0 -81 5.5 -127t19.5 -64.5t38 -18.5q38 0 52.5 46t14.5 164q0 117 -14 163.5t-49 46.5q-36 0 -51.5 -48.5t-15.5 -161.5z" />
<glyph unicode="&#xf7;" d="M388 543q0 -37 -24.5 -62t-62.5 -25q-31 0 -50.5 20.5t-19.5 48.5q0 36 26 61.5t63 25.5q29 0 48.5 -19t19.5 -50zM530 303h-450v85q31 1 76 1.5t96.5 1.5t104 1.5t98 0.5h77.5l8 -8zM389 171q0 -37 -24.5 -62t-62.5 -25q-31 0 -50.5 20.5t-19.5 48.5q0 36 26 61.5 t63 25.5q29 0 48.5 -19t19.5 -50z" />
<glyph unicode="&#xf8;" horiz-adv-x="564" d="M532 250q0 -77 -32.5 -135.5t-89.5 -91.5t-133 -33q-91 0 -154 50l-41 -44l-40 38l42 45q-25 33 -38.5 76t-13.5 95q0 77 32.5 135.5t90 91.5t132.5 33q91 0 154 -49l40 43l41 -37l-42 -45q25 -33 38.5 -76.5t13.5 -95.5zM217 250v-28l126 134q-5 57 -19 80.5t-40 23.5 q-36 0 -51.5 -48.5t-15.5 -161.5zM347 250v29l-127 -135q5 -59 19 -81.5t41 -22.5q38 0 52.5 46t14.5 164z" />
<glyph unicode="&#xf9;" horiz-adv-x="653" d="M447 578l-11 -16q-69 18 -123 42.5t-84.5 52t-30.5 54.5q0 32 29 44.5t66 12.5h17t17 -1l11 -8q17 -34 47 -84.5t62 -96.5zM80 145v259l-58 34l-2 14q30 15 70.5 27t83 20.5t78.5 10.5l8 -8v-336q0 -42 15.5 -61.5t49.5 -19.5q30 0 60 14v305l-58 34l-2 14q30 15 70.5 27 t83 20.5t78.5 10.5l8 -8v-357q0 -30 10.5 -47.5t32.5 -17.5q19 0 38 4l4 -14q-22 -37 -59.5 -58.5t-84.5 -21.5q-42 0 -69.5 18t-41.5 48q-31 -29 -71 -47.5t-89 -18.5q-70 0 -112.5 40t-42.5 115z" />
<glyph unicode="&#xfa;" horiz-adv-x="653" d="M493 711q0 -27 -30.5 -54.5t-84 -52t-123.5 -42.5l-11 16q32 46 62.5 96.5t46.5 84.5l11 8q8 1 17 1h17q37 0 66 -12.5t29 -44.5zM80 145v259l-58 34l-2 14q30 15 70.5 27t83 20.5t78.5 10.5l8 -8v-336q0 -42 15.5 -61.5t49.5 -19.5q30 0 60 14v305l-58 34l-2 14 q30 15 70.5 27t83 20.5t78.5 10.5l8 -8v-357q0 -30 10.5 -47.5t32.5 -17.5q19 0 38 4l4 -14q-22 -37 -59.5 -58.5t-84.5 -21.5q-42 0 -69.5 18t-41.5 48q-31 -29 -71 -47.5t-89 -18.5q-70 0 -112.5 40t-42.5 115z" />
<glyph unicode="&#xfb;" horiz-adv-x="653" d="M505 577l-16 -11q-34 22 -71.5 45t-74.5 42q-34 -20 -73 -42.5t-79 -44.5l-14 14q32 47 62 93t51 82l11 8h95q33 -49 61.5 -98t47.5 -88zM80 145v259l-58 34l-2 14q30 15 70.5 27t83 20.5t78.5 10.5l8 -8v-336q0 -42 15.5 -61.5t49.5 -19.5q30 0 60 14v305l-58 34l-2 14 q30 15 70.5 27t83 20.5t78.5 10.5l8 -8v-357q0 -30 10.5 -47.5t32.5 -17.5q19 0 38 4l4 -14q-22 -37 -59.5 -58.5t-84.5 -21.5q-42 0 -69.5 18t-41.5 48q-31 -29 -71 -47.5t-89 -18.5q-70 0 -112.5 40t-42.5 115z" />
<glyph unicode="&#xfc;" horiz-adv-x="653" d="M542 677q0 -41 -28 -69t-69 -28q-34 0 -56 23t-22 54q0 40 29.5 68.5t69.5 28.5q32 0 54 -21t22 -56zM301 677q0 -41 -28 -69t-69 -28q-34 0 -56 23t-22 54q0 40 29.5 68.5t69.5 28.5q32 0 54 -21t22 -56zM80 145v259l-58 34l-2 14q30 15 70.5 27t83 20.5t78.5 10.5l8 -8 v-336q0 -42 15.5 -61.5t49.5 -19.5q30 0 60 14v305l-58 34l-2 14q30 15 70.5 27t83 20.5t78.5 10.5l8 -8v-357q0 -30 10.5 -47.5t32.5 -17.5q19 0 38 4l4 -14q-22 -37 -59.5 -58.5t-84.5 -21.5q-42 0 -69.5 18t-41.5 48q-31 -29 -71 -47.5t-89 -18.5q-70 0 -112.5 40 t-42.5 115z" />
<glyph unicode="&#xfd;" horiz-adv-x="548" d="M437 711q0 -27 -30.5 -54.5t-84 -52t-123.5 -42.5l-11 16q32 46 62.5 96.5t46.5 84.5l11 8q8 1 17 1h17q37 0 66 -12.5t29 -44.5zM281 0h-66l-146 406q-5 14 -13 26.5t-15 19.5q-6 7 -15 14t-26 14l2 20h308l2 -20l-62 -33l86 -284l97 285l-71 32l2 20h182l2 -20 q-16 -5 -27.5 -12t-21.5 -15q-9 -8 -15.5 -19.5t-12.5 -26.5l-166 -457q-28 -79 -57 -125t-58.5 -65.5t-61.5 -19.5q-37 0 -58.5 26t-21.5 66q0 32 14 63l10 4q16 -5 32 -7.5t27 -2.5q28 0 58 13t55 37.5t37 60.5z" />
<glyph unicode="&#xfe;" horiz-adv-x="617" d="M260 -195l85 -35l-2 -20h-326l-2 20l30 16q18 10 26.5 23.5t8.5 37.5v807l-58 34l-2 14q30 15 70.5 27t83 20.5t78.5 10.5l8 -8v-308q25 30 61 48t79 18q55 0 96.5 -31t65 -86t23.5 -128q0 -131 -75 -203t-205 -72q-23 0 -45 2v-187zM305 40q44 0 69.5 50.5t25.5 137.5 q0 89 -21 135.5t-67 46.5q-26 0 -52 -17v-343q18 -10 45 -10z" />
<glyph unicode="&#xff;" horiz-adv-x="548" d="M506 677q0 -41 -28 -69t-69 -28q-34 0 -56 23t-22 54q0 40 29.5 68.5t69.5 28.5q32 0 54 -21t22 -56zM265 677q0 -41 -28 -69t-69 -28q-34 0 -56 23t-22 54q0 40 29.5 68.5t69.5 28.5q32 0 54 -21t22 -56zM281 0h-66l-146 406q-5 14 -13 26.5t-15 19.5q-6 7 -15 14 t-26 14l2 20h308l2 -20l-62 -33l86 -284l97 285l-71 32l2 20h182l2 -20q-16 -5 -27.5 -12t-21.5 -15q-9 -8 -15.5 -19.5t-12.5 -26.5l-166 -457q-28 -79 -57 -125t-58.5 -65.5t-61.5 -19.5q-37 0 -58.5 26t-21.5 66q0 32 14 63l10 4q16 -5 32 -7.5t27 -2.5q28 0 58 13 t55 37.5t37 60.5z" />
<glyph unicode="&#x100;" horiz-adv-x="716" d="M182 815v86h352v-86h-352zM299 690h118l211 -596q8 -24 20 -33.5t30 -19.5l30 -16l-2 -25h-337l-2 25l75 28l-47 145l-215 -3l-48 -141l75 -29l-2 -25h-195l-2 25q15 7 27 12.5t22 12.5q10 8 18 17.5t13 25.5zM196 245l184 -2l-91 278z" />
<glyph unicode="&#x101;" horiz-adv-x="575" d="M122 612v82h352v-82h-352zM314 510q88 0 137 -44.5t49 -132.5q0 -12 -1 -38t-1.5 -56t-1.5 -55t-1 -36q0 -29 9 -48.5t37 -19.5q6 0 15 1t20 3l4 -14q-24 -40 -62.5 -60t-79.5 -20q-43 0 -73 18.5t-40 48.5q-23 -30 -63.5 -48.5t-86.5 -18.5q-58 0 -96.5 30.5t-38.5 86.5 q0 76 76 118t204 44v125q0 66 -47 66q-25 0 -40 -17.5t-15 -57.5q0 -9 1 -22.5t3 -27.5q-22 -11 -42.5 -15.5t-38.5 -4.5q-34 0 -56 13.5t-22 39.5q0 25 20.5 50t56 46t80.5 33.5t94 12.5zM220 142q0 -31 15 -46.5t40 -15.5q30 0 45 14v141q-47 -6 -73.5 -29t-26.5 -64z" />
<glyph unicode="&#x102;" horiz-adv-x="716" d="M489 938l5 2l19 -6q-9 -73 -50 -114t-103 -41q-59 0 -96 42t-41 115l23 5q8 -27 39.5 -43t80.5 -16q47 0 80 15t43 41zM299 690h118l211 -596q8 -24 20 -33.5t30 -19.5l30 -16l-2 -25h-337l-2 25l75 28l-47 145l-215 -3l-48 -141l75 -29l-2 -25h-195l-2 25q15 7 27 12.5 t22 12.5q10 8 18 17.5t13 25.5zM196 245l184 -2l-91 278z" />
<glyph unicode="&#x103;" horiz-adv-x="575" d="M425 754l5 2l19 -4q-5 -79 -47 -127t-106 -48t-103 48.5t-40 127.5l23 4q8 -33 41 -52.5t85 -19.5q47 0 80 18.5t43 50.5zM314 510q88 0 137 -44.5t49 -132.5q0 -12 -1 -38t-1.5 -56t-1.5 -55t-1 -36q0 -29 9 -48.5t37 -19.5q6 0 15 1t20 3l4 -14q-24 -40 -62.5 -60 t-79.5 -20q-43 0 -73 18.5t-40 48.5q-23 -30 -63.5 -48.5t-86.5 -18.5q-58 0 -96.5 30.5t-38.5 86.5q0 76 76 118t204 44v125q0 66 -47 66q-25 0 -40 -17.5t-15 -57.5q0 -9 1 -22.5t3 -27.5q-22 -11 -42.5 -15.5t-38.5 -4.5q-34 0 -56 13.5t-22 39.5q0 25 20.5 50t56 46 t80.5 33.5t94 12.5zM220 142q0 -31 15 -46.5t40 -15.5q30 0 45 14v141q-47 -6 -73.5 -29t-26.5 -64z" />
<glyph unicode="&#x104;" horiz-adv-x="716" d="M682 -182q-19 -37 -53 -57.5t-76 -20.5q-46 0 -76 28t-30 73q0 58 49 98.5t139 60.5h-266l-2 25l75 28l-47 145l-215 -3l-48 -141l75 -29l-2 -25h-195l-2 25q15 7 27 12.5t22 12.5q10 8 18 17.5t13 25.5l211 597h118l211 -596q8 -24 20 -33.5t30 -19.5l30 -16l-2 -25 q-56 -18 -87.5 -53t-31.5 -72q0 -22 12.5 -34.5t34.5 -12.5q23 0 44 4zM196 245l184 -2l-91 278z" />
<glyph unicode="&#x105;" horiz-adv-x="575" d="M541 -182q-18 -35 -50 -56.5t-75 -21.5q-48 0 -79 26.5t-31 69.5q0 38 23.5 66t61 50t81.5 41q-17 -3 -34 -3q-43 0 -73 18.5t-40 48.5q-23 -30 -63.5 -48.5t-86.5 -18.5q-58 0 -96.5 30.5t-38.5 86.5q0 76 76 118t204 44v125q0 66 -47 66q-25 0 -40 -17.5t-15 -57.5 q0 -9 1 -22.5t3 -27.5q-22 -11 -42.5 -15.5t-38.5 -4.5q-34 0 -56 13.5t-22 39.5q0 25 20.5 50t56 46t80.5 33.5t94 12.5q88 0 137 -44.5t49 -132.5q0 -12 -1 -38t-1.5 -56t-1.5 -55t-1 -36q0 -29 9 -48.5t37 -19.5q6 0 15 1t20 3l4 -14l-8 -12q-24 -35 -53.5 -64.5 t-51 -57.5t-21.5 -61q0 -47 54 -47q10 0 19.5 1t17.5 3zM220 142q0 -31 15 -46.5t40 -15.5q30 0 45 14v141q-47 -6 -73.5 -29t-26.5 -64z" />
<glyph unicode="&#x106;" horiz-adv-x="698" d="M484 940l13 2q29 -10 53.5 -31.5t24.5 -44.5q0 -31 -25.5 -50t-69 -29t-98 -13.5t-112.5 -3.5l-5 19q42 23 84 50.5t77.5 54t57.5 46.5zM420 -10q-78 0 -147 22t-121.5 65t-82 108t-29.5 150q0 84 29 151.5t81 115.5t120.5 73t146.5 25q57 0 109 -7t101 -25 q5 -18 7.5 -41t2.5 -50t-4.5 -65t-12.5 -70l-30 -2q-29 56 -57.5 106t-57.5 90q-11 2 -16 2.5t-19 0.5q-59 0 -107 -39t-76 -107.5t-27 -157.5q1 -85 29 -149t75 -100t106 -36q14 0 22.5 1t18.5 2q35 39 67.5 88t62.5 99h30q5 -16 7 -40.5t2 -52.5q0 -34 -3 -69t-9 -66 q-52 -10 -105.5 -16t-112.5 -6z" />
<glyph unicode="&#x107;" horiz-adv-x="501" d="M418 711q0 -27 -30.5 -54.5t-84 -52t-123.5 -42.5l-11 16q32 46 62.5 96.5t46.5 84.5l11 8q8 1 17 1h17q37 0 66 -12.5t29 -44.5zM493 125q-16 -34 -43.5 -65t-70.5 -50.5t-104 -19.5q-74 0 -128.5 30.5t-84.5 86t-30 129.5q0 81 34 142.5t94.5 96.5t138.5 35 q57 0 98.5 -17.5t64.5 -46.5t23 -64q0 -36 -24 -56.5t-65 -20.5q-19 0 -33 4t-33 13v3q0 68 -9 101.5t-35 33.5q-31 0 -50 -44.5t-19 -117.5q0 -97 37 -145t114 -48q36 0 62 9.5t48 22.5z" />
<glyph unicode="&#x108;" horiz-adv-x="698" d="M582 783l-16 -11q-36 17 -76.5 34t-79.5 32q-36 -15 -77.5 -32.5t-84.5 -33.5l-14 14q35 40 68 79t55 70l11 8h95q36 -42 67.5 -84t51.5 -76zM420 -10q-78 0 -147 22t-121.5 65t-82 108t-29.5 150q0 84 29 151.5t81 115.5t120.5 73t146.5 25q57 0 109 -7t101 -25 q5 -18 7.5 -41t2.5 -50t-4.5 -65t-12.5 -70l-30 -2q-29 56 -57.5 106t-57.5 90q-11 2 -16 2.5t-19 0.5q-59 0 -107 -39t-76 -107.5t-27 -157.5q1 -85 29 -149t75 -100t106 -36q14 0 22.5 1t18.5 2q35 39 67.5 88t62.5 99h30q5 -16 7 -40.5t2 -52.5q0 -34 -3 -69t-9 -66 q-52 -10 -105.5 -16t-112.5 -6z" />
<glyph unicode="&#x109;" horiz-adv-x="501" d="M450 577l-16 -11q-34 22 -71.5 45t-74.5 42q-34 -20 -73 -42.5t-79 -44.5l-14 14q32 47 62 93t51 82l11 8h95q33 -49 61.5 -98t47.5 -88zM493 125q-16 -34 -43.5 -65t-70.5 -50.5t-104 -19.5q-74 0 -128.5 30.5t-84.5 86t-30 129.5q0 81 34 142.5t94.5 96.5t138.5 35 q57 0 98.5 -17.5t64.5 -46.5t23 -64q0 -36 -24 -56.5t-65 -20.5q-19 0 -33 4t-33 13v3q0 68 -9 101.5t-35 33.5q-31 0 -50 -44.5t-19 -117.5q0 -97 37 -145t114 -48q36 0 62 9.5t48 22.5z" />
<glyph unicode="&#x10a;" horiz-adv-x="698" d="M511 870q0 -45 -32.5 -74.5t-79.5 -29.5q-40 0 -67 24t-27 58q0 28 16 50.5t43 36.5t58 14q37 0 63 -21.5t26 -57.5zM420 -10q-78 0 -147 22t-121.5 65t-82 108t-29.5 150q0 84 29 151.5t81 115.5t120.5 73t146.5 25q57 0 109 -7t101 -25q5 -18 7.5 -41t2.5 -50t-4.5 -65 t-12.5 -70l-30 -2q-29 56 -57.5 106t-57.5 90q-11 2 -16 2.5t-19 0.5q-59 0 -107 -39t-76 -107.5t-27 -157.5q1 -85 29 -149t75 -100t106 -36q14 0 22.5 1t18.5 2q35 39 67.5 88t62.5 99h30q5 -16 7 -40.5t2 -52.5q0 -34 -3 -69t-9 -66q-52 -10 -105.5 -16t-112.5 -6z" />
<glyph unicode="&#x10b;" horiz-adv-x="501" d="M385 678q0 -46 -31 -77t-77 -31q-39 0 -64.5 25t-25.5 61q0 29 15.5 52.5t41.5 38t56 14.5q35 0 60 -22.5t25 -60.5zM493 125q-16 -34 -43.5 -65t-70.5 -50.5t-104 -19.5q-74 0 -128.5 30.5t-84.5 86t-30 129.5q0 81 34 142.5t94.5 96.5t138.5 35q57 0 98.5 -17.5 t64.5 -46.5t23 -64q0 -36 -24 -56.5t-65 -20.5q-19 0 -33 4t-33 13v3q0 68 -9 101.5t-35 33.5q-31 0 -50 -44.5t-19 -117.5q0 -97 37 -145t114 -48q36 0 62 9.5t48 22.5z" />
<glyph unicode="&#x10c;" horiz-adv-x="698" d="M458 780l-11 -8h-95q-36 42 -67.5 84t-51.5 76l16 11q36 -17 76.5 -34t79.5 -32q36 15 77.5 32.5t84.5 33.5l14 -14q-35 -40 -67.5 -79t-55.5 -70zM420 -10q-78 0 -147 22t-121.5 65t-82 108t-29.5 150q0 84 29 151.5t81 115.5t120.5 73t146.5 25q57 0 109 -7t101 -25 q5 -18 7.5 -41t2.5 -50t-4.5 -65t-12.5 -70l-30 -2q-29 56 -57.5 106t-57.5 90q-11 2 -16 2.5t-19 0.5q-59 0 -107 -39t-76 -107.5t-27 -157.5q1 -85 29 -149t75 -100t106 -36q14 0 22.5 1t18.5 2q35 39 67.5 88t62.5 99h30q5 -16 7 -40.5t2 -52.5q0 -34 -3 -69t-9 -66 q-52 -10 -105.5 -16t-112.5 -6z" />
<glyph unicode="&#x10d;" horiz-adv-x="501" d="M338 575l-11 -8h-95q-33 49 -61.5 98t-47.5 88l16 11q34 -22 71.5 -45t74.5 -42q34 20 73 42.5t79 44.5l14 -14q-32 -46 -62 -92.5t-51 -82.5zM493 125q-16 -34 -43.5 -65t-70.5 -50.5t-104 -19.5q-74 0 -128.5 30.5t-84.5 86t-30 129.5q0 81 34 142.5t94.5 96.5 t138.5 35q57 0 98.5 -17.5t64.5 -46.5t23 -64q0 -36 -24 -56.5t-65 -20.5q-19 0 -33 4t-33 13v3q0 68 -9 101.5t-35 33.5q-31 0 -50 -44.5t-19 -117.5q0 -97 37 -145t114 -48q36 0 62 9.5t48 22.5z" />
<glyph unicode="&#x10e;" horiz-adv-x="762" d="M442 780l-11 -8h-95q-36 42 -67.5 84t-51.5 76l16 11q36 -17 76.5 -34t79.5 -32q36 15 77.5 32.5t84.5 33.5l14 -14q-35 -40 -67.5 -79t-55.5 -70zM357 635h-60v-580h60q83 0 128.5 72t46.5 218t-45.5 218t-129.5 72zM722 345q0 -114 -46.5 -190.5t-127.5 -115.5 t-186 -39h-323l-2 25l30 15q23 11 34 23t11 34v531l-75 37l2 25h323q106 0 187 -39t127 -115.5t46 -190.5z" />
<glyph unicode="&#x10f;" horiz-adv-x="791" d="M622 70q-22 -37 -59 -58.5t-84 -21.5q-44 0 -72 18.5t-42 51.5q-22 -31 -57.5 -50.5t-81.5 -19.5q-58 0 -102 31.5t-68 86.5t-24 127q0 86 34.5 147.5t96.5 94.5t145 33q26 0 49 -4v148l-78 34l-2 14q34 15 77 27t89 20.5t86 10.5l8 -8v-607q0 -32 11 -48.5t36 -16.5 q11 0 19.5 1.5t14.5 2.5zM759 688q0 -34 -18 -66t-45.5 -56t-55.5 -35l-10 9q11 14 22.5 38t16.5 51q-24 4 -38 20.5t-14 38.5q0 32 20 52t50 20q33 0 52.5 -19.5t19.5 -52.5zM217 269q0 -87 25 -138t72 -51q12 0 24 3.5t19 9.5v360q-16 7 -35 7q-51 0 -78 -50t-27 -141z " />
<glyph unicode="&#x110;" horiz-adv-x="762" d="M461 323h-164v-268h60q83 0 128.5 72t46.5 218t-45.5 218t-129.5 72h-60v-262h164v-50zM722 345q0 -114 -46.5 -190.5t-127.5 -115.5t-186 -39h-323l-2 25l30 15q23 11 34 23t11 34v226h-71v50h71v255l-75 37l2 25h323q106 0 187 -39t127 -115.5t46 -190.5z" />
<glyph unicode="&#x111;" horiz-adv-x="617" d="M622 70q-22 -37 -59 -58.5t-84 -21.5q-44 0 -72 18.5t-42 51.5q-22 -31 -57.5 -50.5t-81.5 -19.5q-58 0 -102 31.5t-68 86.5t-24 127q0 86 34.5 147.5t96.5 94.5t145 33q26 0 49 -4v48h-155v50h155v50l-78 34l-2 14q34 15 77 27t89 20.5t86 10.5l8 -8v-148h85v-50h-85 v-409q0 -32 11 -48.5t36 -16.5q11 0 19.5 1.5t14.5 2.5zM217 269q0 -87 25 -138t72 -51q12 0 24 3.5t19 9.5v360q-16 7 -35 7q-51 0 -78 -50t-27 -141z" />
<glyph unicode="&#x112;" horiz-adv-x="627" d="M156 815v86h352v-86h-352zM297 365l180 10l-3 -70l-177 10v-260h89q14 0 31 1t32 3q12 16 25.5 40t26.5 51l41 90h30q8 -30 11.5 -62t3.5 -72q0 -36 -2.5 -58.5t-6.5 -47.5h-539l-2 25l30 15q23 11 34 23t11 34v531l-75 37l2 25h529q4 -25 6.5 -47.5t2.5 -58.5 q0 -40 -3.5 -72t-11.5 -62h-30l-41 90q-13 27 -26.5 51t-25.5 40q-15 2 -32 3t-31 1h-79v-270z" />
<glyph unicode="&#x113;" horiz-adv-x="526" d="M101 612v82h352v-82h-352zM498 125q-17 -36 -45 -67t-70 -49.5t-102 -18.5q-75 0 -131 31t-87 87t-31 132q0 82 34 142.5t92 94t129 33.5q60 0 109 -24.5t77.5 -69t28.5 -105.5v-26.5t-1 -18.5l-15 -15h-266q8 -75 43 -110.5t99 -35.5q35 0 66.5 9.5t54.5 22.5zM280 460 q-33 0 -48 -46t-15 -112v-10l104 6q0 8 0.5 18.5t0.5 22.5q0 68 -10 94.5t-32 26.5z" />
<glyph unicode="&#x114;" horiz-adv-x="627" d="M453 938l5 2l19 -6q-9 -73 -50 -114t-103 -41q-59 0 -96 42t-41 115l23 5q8 -27 39.5 -43t80.5 -16q47 0 80 15t43 41zM297 365l180 10l-3 -70l-177 10v-260h89q14 0 31 1t32 3q12 16 25.5 40t26.5 51l41 90h30q8 -30 11.5 -62t3.5 -72q0 -36 -2.5 -58.5t-6.5 -47.5h-539 l-2 25l30 15q23 11 34 23t11 34v531l-75 37l2 25h529q4 -25 6.5 -47.5t2.5 -58.5q0 -40 -3.5 -72t-11.5 -62h-30l-41 90q-13 27 -26.5 51t-25.5 40q-15 2 -32 3t-31 1h-79v-270z" />
<glyph unicode="&#x115;" horiz-adv-x="526" d="M404 754l5 2l19 -4q-5 -79 -47 -127t-106 -48t-103 48.5t-40 127.5l23 4q8 -33 41 -52.5t85 -19.5q47 0 80 18.5t43 50.5zM498 125q-17 -36 -45 -67t-70 -49.5t-102 -18.5q-75 0 -131 31t-87 87t-31 132q0 82 34 142.5t92 94t129 33.5q60 0 109 -24.5t77.5 -69 t28.5 -105.5v-26.5t-1 -18.5l-15 -15h-266q8 -75 43 -110.5t99 -35.5q35 0 66.5 9.5t54.5 22.5zM280 460q-33 0 -48 -46t-15 -112v-10l104 6q0 8 0.5 18.5t0.5 22.5q0 68 -10 94.5t-32 26.5z" />
<glyph unicode="&#x116;" horiz-adv-x="627" d="M436 870q0 -45 -32.5 -74.5t-79.5 -29.5q-40 0 -67 24t-27 58q0 28 16 50.5t43 36.5t58 14q37 0 63 -21.5t26 -57.5zM297 365l180 10l-3 -70l-177 10v-260h89q14 0 31 1t32 3q12 16 25.5 40t26.5 51l41 90h30q8 -30 11.5 -62t3.5 -72q0 -36 -2.5 -58.5t-6.5 -47.5h-539 l-2 25l30 15q23 11 34 23t11 34v531l-75 37l2 25h529q4 -25 6.5 -47.5t2.5 -58.5q0 -40 -3.5 -72t-11.5 -62h-30l-41 90q-13 27 -26.5 51t-25.5 40q-15 2 -32 3t-31 1h-79v-270z" />
<glyph unicode="&#x117;" horiz-adv-x="526" d="M382 678q0 -46 -31 -77t-77 -31q-39 0 -64.5 25t-25.5 61q0 29 15.5 52.5t41.5 38t56 14.5q35 0 60 -22.5t25 -60.5zM498 125q-17 -36 -45 -67t-70 -49.5t-102 -18.5q-75 0 -131 31t-87 87t-31 132q0 82 34 142.5t92 94t129 33.5q60 0 109 -24.5t77.5 -69t28.5 -105.5 v-26.5t-1 -18.5l-15 -15h-266q8 -75 43 -110.5t99 -35.5q35 0 66.5 9.5t54.5 22.5zM280 460q-33 0 -48 -46t-15 -112v-10l104 6q0 8 0.5 18.5t0.5 22.5q0 68 -10 94.5t-32 26.5z" />
<glyph unicode="&#x118;" horiz-adv-x="627" d="M297 365l180 10l-3 -70l-177 10v-260h89q14 0 31 1t32 3q12 16 25.5 40t26.5 51l41 90h30q8 -30 11.5 -62t3.5 -72q0 -36 -2.5 -58.5t-6.5 -47.5q-56 -18 -87.5 -53t-31.5 -72q0 -22 12.5 -34.5t34.5 -12.5q23 0 44 4l4 -14q-19 -37 -53 -57.5t-76 -20.5q-46 0 -76 28 t-30 73q0 58 49 98.5t139 60.5h-468l-2 25l30 15q23 11 34 23t11 34v531l-75 37l2 25h529q4 -25 6.5 -47.5t2.5 -58.5q0 -40 -3.5 -72t-11.5 -62h-30l-41 90q-13 27 -26.5 51t-25.5 40q-15 2 -32 3t-31 1h-79v-270z" />
<glyph unicode="&#x119;" horiz-adv-x="526" d="M405 -182q-18 -31 -50 -54.5t-75 -23.5q-48 0 -79 26.5t-31 69.5q0 37 23 66.5t60 52t80 39.5q-24 -4 -52 -4q-75 0 -131 31t-87 87t-31 132q0 82 34 142.5t92 94t129 33.5q60 0 109 -24.5t77.5 -69t28.5 -105.5v-26.5t-1 -18.5l-15 -15h-266q8 -75 43 -110.5t99 -35.5 q35 0 66.5 9.5t54.5 22.5l15 -12q-9 -20 -21.5 -38.5t-28.5 -33.5q-32 -35 -64 -63t-53 -55t-21 -58q0 -49 54 -49q10 0 19.5 1t17.5 3zM280 460q-33 0 -48 -46t-15 -112v-10l104 6q0 8 0.5 18.5t0.5 22.5q0 68 -10 94.5t-32 26.5z" />
<glyph unicode="&#x11a;" horiz-adv-x="627" d="M383 780l-11 -8h-95q-36 42 -67.5 84t-51.5 76l16 11q36 -17 76.5 -34t79.5 -32q36 15 77.5 32.5t84.5 33.5l14 -14q-35 -40 -67.5 -79t-55.5 -70zM297 365l180 10l-3 -70l-177 10v-260h89q14 0 31 1t32 3q12 16 25.5 40t26.5 51l41 90h30q8 -30 11.5 -62t3.5 -72 q0 -36 -2.5 -58.5t-6.5 -47.5h-539l-2 25l30 15q23 11 34 23t11 34v531l-75 37l2 25h529q4 -25 6.5 -47.5t2.5 -58.5q0 -40 -3.5 -72t-11.5 -62h-30l-41 90q-13 27 -26.5 51t-25.5 40q-15 2 -32 3t-31 1h-79v-270z" />
<glyph unicode="&#x11b;" horiz-adv-x="526" d="M335 575l-11 -8h-95q-33 49 -61.5 98t-47.5 88l16 11q34 -22 71.5 -45t74.5 -42q34 20 73 42.5t79 44.5l14 -14q-32 -46 -62 -92.5t-51 -82.5zM498 125q-17 -36 -45 -67t-70 -49.5t-102 -18.5q-75 0 -131 31t-87 87t-31 132q0 82 34 142.5t92 94t129 33.5q60 0 109 -24.5 t77.5 -69t28.5 -105.5v-26.5t-1 -18.5l-15 -15h-266q8 -75 43 -110.5t99 -35.5q35 0 66.5 9.5t54.5 22.5zM280 460q-33 0 -48 -46t-15 -112v-10l104 6q0 8 0.5 18.5t0.5 22.5q0 68 -10 94.5t-32 26.5z" />
<glyph unicode="&#x11c;" horiz-adv-x="745" d="M600 783l-16 -11q-36 17 -76.5 34t-79.5 32q-36 -15 -77.5 -32.5t-84.5 -33.5l-14 14q35 40 68 79t55 70l11 8h95q36 -42 67.5 -84t51.5 -76zM415 -10q-75 0 -142.5 21t-120 63.5t-82.5 107.5t-30 153t31 156t86 114.5t126 70.5t152 24q56 0 110 -7.5t102 -24.5 q5 -18 7.5 -41t2.5 -50t-4.5 -65t-12.5 -70l-30 -2q-30 57 -58 106.5t-57 89.5q-11 3 -22 3.5t-27 0.5q-55 0 -104.5 -36.5t-80.5 -103.5t-31 -160t31 -157.5t80 -98.5t104 -34q25 0 45 5v203l-75 37l2 25h301l2 -25l-30 -15q-15 -7 -20 -20t-5 -37v-201q-41 -11 -76.5 -18 t-75.5 -10.5t-98 -3.5z" />
<glyph unicode="&#x11d;" horiz-adv-x="539" d="M429 577l-16 -11q-34 22 -71.5 45t-74.5 42q-34 -20 -73 -42.5t-79 -44.5l-14 14q32 47 62 93t51 82l11 8h95q33 -49 61.5 -98t47.5 -88zM32 318q0 54 30.5 97.5t84 69t121.5 25.5q82 0 138 -37q17 48 40 75t51 27q42 0 42 -57q0 -12 -2 -27.5t-4 -23.5q-4 -14 -25 -15 q-13 -1 -33 -1t-39 -2q22 -22 34 -51.5t12 -64.5q0 -54 -29 -97t-80.5 -68t-120.5 -25q-25 0 -49 4q-3 -11 -3 -21q0 -19 14 -25.5t45 -8.5l95 -6q83 -5 130.5 -40.5t47.5 -102.5q0 -58 -36.5 -104t-103.5 -72.5t-159 -26.5q-62 0 -111 12.5t-77 36t-28 54.5q0 26 18 46 t46.5 31.5t59.5 11.5l8 -8q3 -62 48.5 -98t109.5 -36q51 0 81.5 21.5t30.5 52.5q0 26 -21 41t-56 19l-131 16q-71 9 -100.5 35.5t-29.5 66.5q0 34 19 65t59 50q-58 19 -92.5 61.5t-34.5 99.5zM302 325q0 78 -10 109t-34 31q-25 0 -35.5 -31t-10.5 -105q0 -75 11 -108t36 -33 q24 0 33.5 31t9.5 106z" />
<glyph unicode="&#x11e;" horiz-adv-x="745" d="M546 938l5 2l19 -6q-9 -73 -50 -114t-103 -41q-59 0 -96 42t-41 115l23 5q8 -27 39.5 -43t80.5 -16q47 0 80 15t43 41zM415 -10q-75 0 -142.5 21t-120 63.5t-82.5 107.5t-30 153t31 156t86 114.5t126 70.5t152 24q56 0 110 -7.5t102 -24.5q5 -18 7.5 -41t2.5 -50 t-4.5 -65t-12.5 -70l-30 -2q-30 57 -58 106.5t-57 89.5q-11 3 -22 3.5t-27 0.5q-55 0 -104.5 -36.5t-80.5 -103.5t-31 -160t31 -157.5t80 -98.5t104 -34q25 0 45 5v203l-75 37l2 25h301l2 -25l-30 -15q-15 -7 -20 -20t-5 -37v-201q-41 -11 -76.5 -18t-75.5 -10.5t-98 -3.5z " />
<glyph unicode="&#x11f;" horiz-adv-x="539" d="M391 754l5 2l19 -4q-5 -79 -47 -127t-106 -48t-103 48.5t-40 127.5l23 4q8 -33 41 -52.5t85 -19.5q47 0 80 18.5t43 50.5zM32 318q0 54 30.5 97.5t84 69t121.5 25.5q82 0 138 -37q17 48 40 75t51 27q42 0 42 -57q0 -12 -2 -27.5t-4 -23.5q-4 -14 -25 -15q-13 -1 -33 -1 t-39 -2q22 -22 34 -51.5t12 -64.5q0 -54 -29 -97t-80.5 -68t-120.5 -25q-25 0 -49 4q-3 -11 -3 -21q0 -19 14 -25.5t45 -8.5l95 -6q83 -5 130.5 -40.5t47.5 -102.5q0 -58 -36.5 -104t-103.5 -72.5t-159 -26.5q-62 0 -111 12.5t-77 36t-28 54.5q0 26 18 46t46.5 31.5 t59.5 11.5l8 -8q3 -62 48.5 -98t109.5 -36q51 0 81.5 21.5t30.5 52.5q0 26 -21 41t-56 19l-131 16q-71 9 -100.5 35.5t-29.5 66.5q0 34 19 65t59 50q-58 19 -92.5 61.5t-34.5 99.5zM302 325q0 78 -10 109t-34 31q-25 0 -35.5 -31t-10.5 -105q0 -75 11 -108t36 -33 q24 0 33.5 31t9.5 106z" />
<glyph unicode="&#x120;" horiz-adv-x="745" d="M529 870q0 -45 -32.5 -74.5t-79.5 -29.5q-40 0 -67 24t-27 58q0 28 16 50.5t43 36.5t58 14q37 0 63 -21.5t26 -57.5zM415 -10q-75 0 -142.5 21t-120 63.5t-82.5 107.5t-30 153t31 156t86 114.5t126 70.5t152 24q56 0 110 -7.5t102 -24.5q5 -18 7.5 -41t2.5 -50t-4.5 -65 t-12.5 -70l-30 -2q-30 57 -58 106.5t-57 89.5q-11 3 -22 3.5t-27 0.5q-55 0 -104.5 -36.5t-80.5 -103.5t-31 -160t31 -157.5t80 -98.5t104 -34q25 0 45 5v203l-75 37l2 25h301l2 -25l-30 -15q-15 -7 -20 -20t-5 -37v-201q-41 -11 -76.5 -18t-75.5 -10.5t-98 -3.5z" />
<glyph unicode="&#x121;" horiz-adv-x="539" d="M364 678q0 -46 -31 -77t-77 -31q-39 0 -64.5 25t-25.5 61q0 29 15.5 52.5t41.5 38t56 14.5q35 0 60 -22.5t25 -60.5zM32 318q0 54 30.5 97.5t84 69t121.5 25.5q82 0 138 -37q17 48 40 75t51 27q42 0 42 -57q0 -12 -2 -27.5t-4 -23.5q-4 -14 -25 -15q-13 -1 -33 -1t-39 -2 q22 -22 34 -51.5t12 -64.5q0 -54 -29 -97t-80.5 -68t-120.5 -25q-25 0 -49 4q-3 -11 -3 -21q0 -19 14 -25.5t45 -8.5l95 -6q83 -5 130.5 -40.5t47.5 -102.5q0 -58 -36.5 -104t-103.5 -72.5t-159 -26.5q-62 0 -111 12.5t-77 36t-28 54.5q0 26 18 46t46.5 31.5t59.5 11.5l8 -8 q3 -62 48.5 -98t109.5 -36q51 0 81.5 21.5t30.5 52.5q0 26 -21 41t-56 19l-131 16q-71 9 -100.5 35.5t-29.5 66.5q0 34 19 65t59 50q-58 19 -92.5 61.5t-34.5 99.5zM302 325q0 78 -10 109t-34 31q-25 0 -35.5 -31t-10.5 -105q0 -75 11 -108t36 -33q24 0 33.5 31t9.5 106z " />
<glyph unicode="&#x122;" horiz-adv-x="745" d="M415 -10q-75 0 -142.5 21t-120 63.5t-82.5 107.5t-30 153t31 156t86 114.5t126 70.5t152 24q56 0 110 -7.5t102 -24.5q5 -18 7.5 -41t2.5 -50t-4.5 -65t-12.5 -70l-30 -2q-30 57 -58 106.5t-57 89.5q-11 3 -22 3.5t-27 0.5q-55 0 -104.5 -36.5t-80.5 -103.5t-31 -160 t31 -157.5t80 -98.5t104 -34q25 0 45 5v203l-75 37l2 25h301l2 -25l-30 -15q-15 -7 -20 -20t-5 -37v-201q-41 -11 -76.5 -18t-75.5 -10.5t-98 -3.5zM502 -160q0 -43 -22 -83t-55 -70.5t-67 -43.5l-12 11q13 18 27 48.5t21 63.5q-29 6 -46.5 26.5t-17.5 48.5q0 40 24.5 65 t60.5 25q40 0 63.5 -24.5t23.5 -66.5z" />
<glyph unicode="&#x123;" horiz-adv-x="539" d="M179 662q0 43 22 83.5t55 70.5t67 43l12 -11q-13 -18 -27 -48.5t-21 -63.5q29 -6 46.5 -26.5t17.5 -48.5q0 -40 -24.5 -65t-60.5 -25q-40 0 -63.5 24.5t-23.5 66.5zM32 318q0 54 30.5 97.5t84 69t121.5 25.5q82 0 138 -37q17 48 40 75t51 27q42 0 42 -57q0 -12 -2 -27.5 t-4 -23.5q-4 -14 -25 -15q-13 -1 -33 -1t-39 -2q22 -22 34 -51.5t12 -64.5q0 -54 -29 -97t-80.5 -68t-120.5 -25q-25 0 -49 4q-3 -11 -3 -21q0 -19 14 -25.5t45 -8.5l95 -6q83 -5 130.5 -40.5t47.5 -102.5q0 -58 -36.5 -104t-103.5 -72.5t-159 -26.5q-62 0 -111 12.5t-77 36 t-28 54.5q0 26 18 46t46.5 31.5t59.5 11.5l8 -8q3 -62 48.5 -98t109.5 -36q51 0 81.5 21.5t30.5 52.5q0 26 -21 41t-56 19l-131 16q-71 9 -100.5 35.5t-29.5 66.5q0 34 19 65t59 50q-58 19 -92.5 61.5t-34.5 99.5zM302 325q0 78 -10 109t-34 31q-25 0 -35.5 -31t-10.5 -105 q0 -75 11 -108t36 -33q24 0 33.5 31t9.5 106z" />
<glyph unicode="&#x124;" horiz-adv-x="834" d="M592 783l-16 -11q-36 17 -76.5 34t-79.5 32q-36 -15 -77.5 -32.5t-84.5 -33.5l-14 14q35 40 68 79t55 70l11 8h95q36 -42 67.5 -84t51.5 -76zM297 62l75 -37l-2 -25h-331l-2 25l30 15q23 11 34 23t11 34v531l-75 37l2 25h331l2 -25l-30 -15q-23 -11 -34 -22.5t-11 -34.5 v-216h240v251l-75 37l2 25h331l2 -25l-30 -15q-23 -11 -34 -22.5t-11 -34.5v-531l75 -37l-2 -25h-331l-2 25l30 15q23 11 34 23t11 34v223h-240v-258z" />
<glyph unicode="&#x125;" horiz-adv-x="645" d="M344 804l-16 -11q-36 17 -76.5 34t-79.5 32q-36 -15 -77.5 -32.5t-84.5 -33.5l-14 14q35 40 68 79t55 70l11 8h95q36 -42 67.5 -84t51.5 -76zM260 55l65 -35l-2 -20h-306l-2 20l30 16q18 10 26.5 23.5t8.5 37.5v557l-58 34l-2 14q30 15 70.5 27t83 20.5t78.5 10.5l8 -8 v-309q42 35 83.5 51t81.5 16q66 0 103 -38.5t37 -111.5v-305l65 -35l-2 -20h-231l-12 12v325q0 38 -14.5 55.5t-45.5 17.5q-30 0 -65 -17v-338z" />
<glyph unicode="&#x126;" horiz-adv-x="834" d="M297 377h240v106h-240v-106zM297 62l75 -37l-2 -25h-331l-2 25l30 15q23 11 34 23t11 34v386h-70v50h70v95l-75 37l2 25h331l2 -25l-30 -15q-23 -11 -34 -22.5t-11 -34.5v-60h240v95l-75 37l2 25h331l2 -25l-30 -15q-23 -11 -34 -22.5t-11 -34.5v-60h70v-50h-70v-421 l75 -37l-2 -25h-331l-2 25l30 15q23 11 34 23t11 34v223h-240v-258z" />
<glyph unicode="&#x127;" horiz-adv-x="645" d="M260 55l65 -35l-2 -20h-306l-2 20l30 16q18 10 26.5 23.5t8.5 37.5v457h-83v50h83v50l-58 34l-2 14q30 15 70.5 27t83 20.5t78.5 10.5l8 -8v-148h157v-50h-157v-111q42 35 83.5 51t81.5 16q66 0 103 -38.5t37 -111.5v-305l65 -35l-2 -20h-231l-12 12v325q0 38 -14.5 55.5 t-45.5 17.5q-30 0 -65 -17v-338z" />
<glyph unicode="&#x128;" horiz-adv-x="409" d="M26 768l-20 6q-1 8 -1.5 16t-0.5 15q0 35 11.5 66t36 50.5t61.5 19.5q39 0 77.5 -10.5t75 -23.5t69.5 -23l49 63l20 -6q1 -9 1.5 -18t0.5 -21q0 -32 -11.5 -61.5t-35.5 -48t-62 -18.5q-39 0 -77.5 10.5t-75 24t-69.5 22.5zM297 62l75 -37l-2 -25h-331l-2 25l30 15 q23 11 34 23t11 34v531l-75 37l2 25h331l2 -25l-30 -15q-23 -11 -34 -22.5t-11 -34.5v-531z" />
<glyph unicode="&#x129;" horiz-adv-x="348" d="M89 641l-49 -45l-20 6q-1 5 -1.5 11t-0.5 11q0 30 11.5 57t36 43.5t61.5 16.5q32 0 63.5 -17.5t58.5 -29.5l49 45l20 -6q1 -7 1.5 -14t0.5 -16q0 -41 -26.5 -75t-82.5 -34q-32 0 -63.5 17.5t-58.5 29.5zM268 55l65 -35l-2 -20h-306l-2 20l30 16q18 10 26.5 23.5t8.5 37.5 v307l-58 34l-2 14q30 15 70.5 27t83 20.5t78.5 10.5l8 -8v-447z" />
<glyph unicode="&#x12a;" horiz-adv-x="409" d="M29 815v86h352v-86h-352zM297 62l75 -37l-2 -25h-331l-2 25l30 15q23 11 34 23t11 34v531l-75 37l2 25h331l2 -25l-30 -15q-23 -11 -34 -22.5t-11 -34.5v-531z" />
<glyph unicode="&#x12b;" horiz-adv-x="348" d="M27 604v82h284v-82h-284zM268 55l65 -35l-2 -20h-306l-2 20l30 16q18 10 26.5 23.5t8.5 37.5v307l-58 34l-2 14q30 15 70.5 27t83 20.5t78.5 10.5l8 -8v-447z" />
<glyph unicode="&#x12c;" horiz-adv-x="409" d="M326 938l5 2l19 -6q-9 -73 -50 -114t-103 -41q-59 0 -96 42t-41 115l23 5q8 -27 39.5 -43t80.5 -16q47 0 80 15t43 41zM297 62l75 -37l-2 -25h-331l-2 25l30 15q23 11 34 23t11 34v531l-75 37l2 25h331l2 -25l-30 -15q-23 -11 -34 -22.5t-11 -34.5v-531z" />
<glyph unicode="&#x12d;" horiz-adv-x="348" d="M303 743q-8 -80 -46 -124.5t-96 -44.5q-55 0 -88.5 45.5t-37.5 125.5l23 5q7 -30 36 -48t73 -18q43 0 73 17t39 46l5 2zM268 55l65 -35l-2 -20h-306l-2 20l30 16q18 10 26.5 23.5t8.5 37.5v307l-58 34l-2 14q30 15 70.5 27t83 20.5t78.5 10.5l8 -8v-447z" />
<glyph unicode="&#x12e;" horiz-adv-x="409" d="M297 62l75 -37l-2 -25q-56 -18 -87.5 -53t-31.5 -72q0 -22 12.5 -34.5t34.5 -12.5q23 0 44 4l4 -14q-19 -37 -53 -57.5t-76 -20.5q-46 0 -76 28t-30 73q0 58 49 98.5t139 60.5h-260l-2 25l30 15q23 11 34 23t11 34v531l-75 37l2 25h331l2 -25l-30 -15q-23 -11 -34 -22.5 t-11 -34.5v-531z" />
<glyph unicode="&#x12f;" horiz-adv-x="348" d="M269 678q0 -46 -31 -77t-77 -31q-39 0 -64.5 25t-25.5 61q0 29 15.5 52.5t41.5 38t56 14.5q35 0 60 -22.5t25 -60.5zM268 55l65 -35l-2 -20q-56 -18 -87.5 -53t-31.5 -72q0 -22 12.5 -34.5t34.5 -12.5q23 0 44 4l4 -14q-19 -37 -53 -57.5t-76 -20.5q-46 0 -76 28t-30 73 q0 58 49 98.5t139 60.5h-235l-2 20l30 16q18 10 26.5 23.5t8.5 37.5v307l-58 34l-2 14q30 15 70.5 27t83 20.5t78.5 10.5l8 -8v-447z" />
<glyph unicode="&#x130;" horiz-adv-x="409" d="M319 870q0 -45 -32.5 -74.5t-79.5 -29.5q-40 0 -67 24t-27 58q0 28 16 50.5t43 36.5t58 14q37 0 63 -21.5t26 -57.5zM297 62l75 -37l-2 -25h-331l-2 25l30 15q23 11 34 23t11 34v531l-75 37l2 25h331l2 -25l-30 -15q-23 -11 -34 -22.5t-11 -34.5v-531z" />
<glyph unicode="&#x131;" horiz-adv-x="348" d="M268 55l65 -35l-2 -20h-306l-2 20l30 16q18 10 26.5 23.5t8.5 37.5v307l-58 34l-2 14q30 15 70.5 27t83 20.5t78.5 10.5l8 -8v-447z" />
<glyph unicode="&#x132;" horiz-adv-x="802" d="M297 62l75 -37l-2 -25h-331l-2 25l30 15q23 11 34 23t11 34v531l-75 37l2 25h331l2 -25l-30 -15q-23 -11 -34 -22.5t-11 -34.5v-531zM521 628l-75 37l2 25h331l2 -25l-30 -15q-23 -11 -34 -22.5t-11 -34.5v-513q0 -50 -22 -94t-58.5 -77.5t-79.5 -54t-85 -24.5l-15 20 q75 96 75 270v508z" />
<glyph unicode="&#x133;" horiz-adv-x="680" d="M269 678q0 -46 -31 -77t-77 -31q-39 0 -64.5 25t-25.5 61q0 29 15.5 52.5t41.5 38t56 14.5q35 0 60 -22.5t25 -60.5zM607 673q0 -46 -31 -77t-77 -31q-39 0 -64.5 25t-25.5 61q0 29 15.5 52.5t41.5 38t56 14.5q35 0 60 -22.5t25 -60.5zM268 55l65 -35l-2 -20h-306l-2 20 l30 16q18 10 26.5 23.5t8.5 37.5v307l-58 34l-2 14q30 15 70.5 27t83 20.5t78.5 10.5l8 -8v-447zM353 -240q75 96 75 270v374l-58 34l-2 14q30 15 70.5 27t83 20.5t78.5 10.5l8 -8v-512q0 -50 -21.5 -94t-57 -77.5t-78 -54t-83.5 -24.5z" />
<glyph unicode="&#x134;" horiz-adv-x="393" d="M376 778l-16 -11q-36 17 -76.5 34t-79.5 32q-36 -15 -77.5 -32.5t-84.5 -33.5l-14 14q35 40 68 79t55 70l11 8h95q36 -42 67.5 -84t51.5 -76zM112 628l-75 37l2 25h331l2 -25l-30 -15q-23 -11 -34 -22.5t-11 -34.5v-513q0 -50 -22 -94t-58.5 -77.5t-79.5 -54t-85 -24.5 l-15 20q75 96 75 270v508z" />
<glyph unicode="&#x135;" horiz-adv-x="332" d="M282 560l-16 -11q-25 21 -52 41.5t-54 38.5q-26 -19 -54.5 -39.5t-57.5 -40.5l-14 14q21 48 40.5 96t32.5 85l11 8h95q21 -50 39 -100.5t30 -91.5zM5 -240q75 96 75 270v374l-58 34l-2 14q30 15 70.5 27t83 20.5t78.5 10.5l8 -8v-512q0 -50 -21.5 -94t-57 -77.5t-78 -54 t-83.5 -24.5z" />
<glyph unicode="&#x136;" horiz-adv-x="759" d="M297 62l75 -37l-2 -25h-331l-2 25l30 15q23 11 34 23t11 34v531l-75 37l2 25h331l2 -25l-30 -15q-23 -11 -34 -22.5t-11 -34.5v-233h45l206 275l-85 30l2 25h251l2 -25q-39 -13 -66 -30q-14 -9 -27.5 -21t-28.5 -29l-128 -141l113 -194q27 -45 47 -85t41.5 -71.5 t52.5 -53.5l29 -20l-2 -20l-185 -5q-37 -1 -56 15t-36 47l-130 248h-45v-243zM480 -160q0 -43 -22 -83t-55 -70.5t-67 -43.5l-12 11q13 18 27 48.5t21 63.5q-29 6 -46.5 26.5t-17.5 48.5q0 40 24.5 65t60.5 25q40 0 63.5 -24.5t23.5 -66.5z" />
<glyph unicode="&#x137;" horiz-adv-x="635" d="M260 55l65 -35l-2 -20h-306l-2 20l30 16q18 10 26.5 23.5t8.5 37.5v557l-58 34l-2 14q30 15 70.5 27t83 20.5t78.5 10.5l8 -8v-472h42l130 165l-85 35l2 20h251l2 -20q-37 -15 -68 -34q-29 -18 -64 -50l-45 -43l136 -259q10 -19 20.5 -33t24.5 -23l29 -18l-2 -20h-160 q-39 0 -58 15t-34 47l-79 168h-42v-175zM436 -160q0 -43 -22 -83t-55 -70.5t-67 -43.5l-12 11q13 18 27 48.5t21 63.5q-29 6 -46.5 26.5t-17.5 48.5q0 40 24.5 65t60.5 25q40 0 63.5 -24.5t23.5 -66.5z" />
<glyph unicode="&#x138;" horiz-adv-x="631" d="M268 55l65 -35l-2 -20h-306l-2 20l30 16q18 10 26.5 23.5t8.5 37.5v307l-58 34l-2 14q30 15 70.5 27t83 20.5t78.5 10.5l8 -8v-237h22l159 187l-73 26l2 22h216l2 -22q-20 -6 -34.5 -14t-25.5 -17q-10 -7 -22 -18t-25 -23l-72 -69l96 -157q28 -46 52 -84t55 -58l25 -16 l-1 -22l-180 -6q-31 -1 -46.5 10.5t-29.5 35.5l-98 175h-22v-160z" />
<glyph unicode="&#x139;" horiz-adv-x="619" d="M293 940l13 2q29 -10 53.5 -31.5t24.5 -44.5q0 -31 -25.5 -50t-69 -29t-98 -13.5t-112.5 -3.5l-5 19q42 23 84 50.5t77.5 54t57.5 46.5zM112 628l-75 37l2 25h331l2 -25l-30 -15q-23 -11 -34 -22.5t-11 -34.5v-538h89q14 0 31 1t32 3q12 16 26 40t26 51l41 90h30 q8 -30 11.5 -62t3.5 -72q0 -36 -2.5 -58.5t-6.5 -47.5h-539l-2 25l30 15q23 11 34 23t11 34v531z" />
<glyph unicode="&#x13a;" horiz-adv-x="340" d="M243 991l13 2q29 -10 53.5 -31.5t24.5 -44.5q0 -31 -25.5 -50t-69 -29t-98 -13.5t-112.5 -3.5l-5 19q42 23 84 50.5t77.5 54t57.5 46.5zM260 55l65 -35l-2 -20h-306l-2 20l30 16q18 10 26.5 23.5t8.5 37.5v557l-58 34l-2 14q30 15 70.5 27t83 20.5t78.5 10.5l8 -8v-697z " />
<glyph unicode="&#x13b;" horiz-adv-x="619" d="M112 628l-75 37l2 25h331l2 -25l-30 -15q-23 -11 -34 -22.5t-11 -34.5v-538h89q14 0 31 1t32 3q12 16 26 40t26 51l41 90h30q8 -30 11.5 -62t3.5 -72q0 -36 -2.5 -58.5t-6.5 -47.5h-539l-2 25l30 15q23 11 34 23t11 34v531zM416 -160q0 -43 -22 -83t-55 -70.5t-67 -43.5 l-12 11q13 18 27 48.5t21 63.5q-29 6 -46.5 26.5t-17.5 48.5q0 40 24.5 65t60.5 25q40 0 63.5 -24.5t23.5 -66.5z" />
<glyph unicode="&#x13c;" horiz-adv-x="340" d="M260 55l65 -35l-2 -20h-306l-2 20l30 16q18 10 26.5 23.5t8.5 37.5v557l-58 34l-2 14q30 15 70.5 27t83 20.5t78.5 10.5l8 -8v-697zM254 -160q0 -43 -22 -83t-55 -70.5t-67 -43.5l-12 11q13 18 27 48.5t21 63.5q-29 6 -46.5 26.5t-17.5 48.5q0 40 24.5 65t60.5 25 q40 0 63.5 -24.5t23.5 -66.5z" />
<glyph unicode="&#x13d;" horiz-adv-x="619" d="M586 688q0 -34 -18 -66t-45.5 -56t-55.5 -35l-10 9q11 14 22.5 38t16.5 51q-24 4 -38 20.5t-14 38.5q0 32 20 52t50 20q33 0 52.5 -19.5t19.5 -52.5zM112 628l-75 37l2 25h331l2 -25l-30 -15q-23 -11 -34 -22.5t-11 -34.5v-538h89q14 0 31 1t32 3q12 16 26 40t26 51 l41 90h30q8 -30 11.5 -62t3.5 -72q0 -36 -2.5 -58.5t-6.5 -47.5h-539l-2 25l30 15q23 11 34 23t11 34v531z" />
<glyph unicode="&#x13e;" horiz-adv-x="511" d="M260 55l65 -35l-2 -20h-306l-2 20l30 16q18 10 26.5 23.5t8.5 37.5v557l-58 34l-2 14q30 15 70.5 27t83 20.5t78.5 10.5l8 -8v-697zM479 688q0 -34 -18 -66t-45.5 -56t-55.5 -35l-10 9q11 14 22.5 38t16.5 51q-24 4 -38 20.5t-14 38.5q0 32 20 52t50 20q33 0 52.5 -19.5 t19.5 -52.5z" />
<glyph unicode="&#x13f;" horiz-adv-x="619" d="M112 628l-75 37l2 25h331l2 -25l-30 -15q-23 -11 -34 -22.5t-11 -34.5v-538h89q14 0 31 1t32 3q12 16 26 40t26 51l41 90h30q8 -30 11.5 -62t3.5 -72q0 -36 -2.5 -58.5t-6.5 -47.5h-539l-2 25l30 15q23 11 34 23t11 34v531zM604 431q0 -46 -31 -77t-77 -31 q-39 0 -64.5 25t-25.5 61q0 29 15.5 52.5t41.5 38t56 14.5q35 0 60 -22.5t25 -60.5z" />
<glyph unicode="&#x140;" horiz-adv-x="490" d="M260 55l65 -35l-2 -20h-306l-2 20l30 16q18 10 26.5 23.5t8.5 37.5v557l-58 34l-2 14q30 15 70.5 27t83 20.5t78.5 10.5l8 -8v-697zM514 398q0 -46 -31 -77t-77 -31q-39 0 -64.5 25t-25.5 61q0 29 15.5 52.5t41.5 38t56 14.5q35 0 60 -22.5t25 -60.5z" />
<glyph unicode="&#x141;" horiz-adv-x="619" d="M408 426l-111 -61v-310h89q14 0 31 1t32 3q12 16 26 40t26 51l41 90h30q8 -30 11.5 -62t3.5 -72q0 -36 -2.5 -58.5t-6.5 -47.5h-539l-2 25l30 15q23 11 34 23t11 34v165l-84 -46l-26 48l110 61v303l-75 37l2 25h331l2 -25l-30 -15q-23 -11 -34 -22.5t-11 -34.5v-166 l84 47z" />
<glyph unicode="&#x142;" horiz-adv-x="340" d="M260 55l65 -35l-2 -20h-306l-2 20l30 16q18 10 26.5 23.5t8.5 37.5v202l-88 -49l-26 48l114 63v293l-58 34l-2 14q30 15 70.5 27t83 20.5t78.5 10.5l8 -8v-291l85 47l27 -48l-112 -62v-343z" />
<glyph unicode="&#x143;" horiz-adv-x="748" d="M487 935l13 2q29 -10 53.5 -31.5t24.5 -44.5q0 -31 -25.5 -50t-69 -29t-98 -13.5t-112.5 -3.5l-5 19q42 23 84 50.5t77.5 54t57.5 46.5zM172 62l95 -37l-2 -25h-226l-2 25l30 15q23 11 34 23t11 34v531l-37 19l-38 18l2 25h233l320 -471v409l-75 37l2 25h206l2 -25 l-30 -15q-23 -11 -34 -22.5t-11 -34.5v-593h-120l-360 513v-451z" />
<glyph unicode="&#x144;" horiz-adv-x="653" d="M471 711q0 -27 -30.5 -54.5t-84 -52t-123.5 -42.5l-11 16q32 46 62.5 96.5t46.5 84.5l11 8q8 1 17 1h17q37 0 66 -12.5t29 -44.5zM268 55l65 -35l-2 -20h-306l-2 20l30 16q18 10 26.5 23.5t8.5 37.5v307l-58 34l-2 14q30 15 70.5 27t83 20.5t78.5 10.5l8 -8v-60 q79 68 165 68q66 0 103 -38.5t37 -111.5v-305l65 -35l-2 -20h-231l-12 12v325q0 38 -14 55.5t-45 17.5q-17 0 -33 -4.5t-33 -12.5v-338z" />
<glyph unicode="&#x145;" horiz-adv-x="748" d="M172 62l95 -37l-2 -25h-226l-2 25l30 15q23 11 34 23t11 34v531l-37 19l-38 18l2 25h233l320 -471v409l-75 37l2 25h206l2 -25l-30 -15q-23 -11 -34 -22.5t-11 -34.5v-593h-120l-360 513v-451zM462 -160q0 -43 -22 -83t-55 -70.5t-67 -43.5l-12 11q13 18 27 48.5t21 63.5 q-29 6 -46.5 26.5t-17.5 48.5q0 40 24.5 65t60.5 25q40 0 63.5 -24.5t23.5 -66.5z" />
<glyph unicode="&#x146;" horiz-adv-x="653" d="M268 55l65 -35l-2 -20h-306l-2 20l30 16q18 10 26.5 23.5t8.5 37.5v307l-58 34l-2 14q30 15 70.5 27t83 20.5t78.5 10.5l8 -8v-60q79 68 165 68q66 0 103 -38.5t37 -111.5v-305l65 -35l-2 -20h-231l-12 12v325q0 38 -14 55.5t-45 17.5q-17 0 -33 -4.5t-33 -12.5v-338z M414 -160q0 -43 -22 -83t-55 -70.5t-67 -43.5l-12 11q13 18 27 48.5t21 63.5q-29 6 -46.5 26.5t-17.5 48.5q0 40 24.5 65t60.5 25q40 0 63.5 -24.5t23.5 -66.5z" />
<glyph unicode="&#x147;" horiz-adv-x="748" d="M461 775l-11 -8h-95q-36 42 -67.5 84t-51.5 76l16 11q36 -17 76.5 -34t79.5 -32q36 15 77.5 32.5t84.5 33.5l14 -14q-35 -40 -67.5 -79t-55.5 -70zM172 62l95 -37l-2 -25h-226l-2 25l30 15q23 11 34 23t11 34v531l-37 19l-38 18l2 25h233l320 -471v409l-75 37l2 25h206 l2 -25l-30 -15q-23 -11 -34 -22.5t-11 -34.5v-593h-120l-360 513v-451z" />
<glyph unicode="&#x148;" horiz-adv-x="653" d="M381 575l-11 -8h-95q-33 49 -61.5 98t-47.5 88l16 11q34 -22 71.5 -45t74.5 -42q34 20 73 42.5t79 44.5l14 -14q-32 -46 -62 -92.5t-51 -82.5zM268 55l65 -35l-2 -20h-306l-2 20l30 16q18 10 26.5 23.5t8.5 37.5v307l-58 34l-2 14q30 15 70.5 27t83 20.5t78.5 10.5l8 -8 v-60q79 68 165 68q66 0 103 -38.5t37 -111.5v-305l65 -35l-2 -20h-231l-12 12v325q0 38 -14 55.5t-45 17.5q-17 0 -33 -4.5t-33 -12.5v-338z" />
<glyph unicode="&#x14a;" horiz-adv-x="748" d="M172 62l95 -37l-2 -25h-226l-2 25l30 15q23 11 34 23t11 34v531l-37 19l-38 18l2 25h233l320 -471v409l-75 37l2 25h206l2 -25l-30 -15q-23 -11 -34 -22.5t-11 -34.5v-518q0 -63 -16.5 -104t-49.5 -73t-85 -68l-17 17q35 39 60 72t37 81h-49l-360 513v-451z" />
<glyph unicode="&#x14b;" horiz-adv-x="645" d="M268 55l65 -35l-2 -20h-306l-2 20l30 16q18 10 26.5 23.5t8.5 37.5v307l-58 34l-2 14q30 15 70.5 27t83 20.5t78.5 10.5l8 -8v-60q79 68 165 68q66 0 103 -38.5t37 -111.5v-370q0 -50 -21.5 -94t-57 -77.5t-78 -54t-83.5 -24.5l-15 20q75 96 75 270v307q0 38 -14 55.5 t-45 17.5q-17 0 -33 -4.5t-33 -12.5v-338z" />
<glyph unicode="&#x14c;" horiz-adv-x="760" d="M204 815v86h352v-86h-352zM40 345q0 86 27 152t74.5 111t109 68.5t130.5 23.5q97 0 173.5 -40t121 -117.5t44.5 -192.5t-45 -195.5t-122.5 -122.5t-173.5 -42q-98 0 -175 42t-120.5 121.5t-43.5 191.5zM230 345q-1 -137 39 -218.5t113 -81.5q49 0 81.5 39t49.5 107.5 t17 158.5q1 135 -36.5 215t-112.5 80q-72 0 -111 -81.5t-40 -218.5z" />
<glyph unicode="&#x14d;" horiz-adv-x="564" d="M111 612v82h352v-82h-352zM532 250q0 -77 -32.5 -135.5t-89.5 -91.5t-133 -33q-74 0 -129 32.5t-85.5 91t-30.5 136.5q0 77 32.5 135.5t90 91.5t132.5 33q74 0 129 -32.5t85.5 -90.5t30.5 -137zM217 250q0 -81 5.5 -127t19.5 -64.5t38 -18.5q38 0 52.5 46t14.5 164 q0 117 -14 163.5t-49 46.5q-36 0 -51.5 -48.5t-15.5 -161.5z" />
<glyph unicode="&#x14e;" horiz-adv-x="760" d="M506 938l5 2l19 -6q-9 -73 -50 -114t-103 -41q-59 0 -96 42t-41 115l23 5q8 -27 39.5 -43t80.5 -16q47 0 80 15t43 41zM40 345q0 86 27 152t74.5 111t109 68.5t130.5 23.5q97 0 173.5 -40t121 -117.5t44.5 -192.5t-45 -195.5t-122.5 -122.5t-173.5 -42q-98 0 -175 42 t-120.5 121.5t-43.5 191.5zM230 345q-1 -137 39 -218.5t113 -81.5q49 0 81.5 39t49.5 107.5t17 158.5q1 135 -36.5 215t-112.5 80q-72 0 -111 -81.5t-40 -218.5z" />
<glyph unicode="&#x14f;" horiz-adv-x="564" d="M414 754l5 2l19 -4q-5 -79 -47 -127t-106 -48t-103 48.5t-40 127.5l23 4q8 -33 41 -52.5t85 -19.5q47 0 80 18.5t43 50.5zM532 250q0 -77 -32.5 -135.5t-89.5 -91.5t-133 -33q-74 0 -129 32.5t-85.5 91t-30.5 136.5q0 77 32.5 135.5t90 91.5t132.5 33q74 0 129 -32.5 t85.5 -90.5t30.5 -137zM217 250q0 -81 5.5 -127t19.5 -64.5t38 -18.5q38 0 52.5 46t14.5 164q0 117 -14 163.5t-49 46.5q-36 0 -51.5 -48.5t-15.5 -161.5z" />
<glyph unicode="&#x150;" horiz-adv-x="760" d="M314 944l13 2q25 -10 46.5 -31.5t21.5 -44.5q0 -31 -20.5 -50t-55.5 -29t-78.5 -13.5t-90.5 -3.5l-5 19q33 23 65 50.5t59.5 54t44.5 46.5zM554 944l13 2q25 -10 46.5 -31.5t21.5 -44.5q0 -31 -20.5 -50t-55.5 -29t-78.5 -13.5t-90.5 -3.5l-5 19q33 23 65 50.5t59.5 54 t44.5 46.5zM40 345q0 86 27 152t74.5 111t109 68.5t130.5 23.5q97 0 173.5 -40t121 -117.5t44.5 -192.5t-45 -195.5t-122.5 -122.5t-173.5 -42q-98 0 -175 42t-120.5 121.5t-43.5 191.5zM230 345q-1 -137 39 -218.5t113 -81.5q49 0 81.5 39t49.5 107.5t17 158.5 q1 135 -36.5 215t-112.5 80q-72 0 -111 -81.5t-40 -218.5z" />
<glyph unicode="&#x151;" horiz-adv-x="564" d="M321 711q0 -27 -26 -54.5t-72.5 -52t-106.5 -42.5l-11 16q32 46 61 96.5t45 84.5l11 8q8 1 17 1h17q26 0 45.5 -12.5t19.5 -44.5zM511 711q0 -27 -26.5 -54.5t-72.5 -52t-106 -42.5l-11 16q32 46 61 96.5t45 84.5l11 8q8 1 17 1h17q26 0 45.5 -12.5t19.5 -44.5zM532 250 q0 -77 -32.5 -135.5t-89.5 -91.5t-133 -33q-74 0 -129 32.5t-85.5 91t-30.5 136.5q0 77 32.5 135.5t90 91.5t132.5 33q74 0 129 -32.5t85.5 -90.5t30.5 -137zM217 250q0 -81 5.5 -127t19.5 -64.5t38 -18.5q38 0 52.5 46t14.5 164q0 117 -14 163.5t-49 46.5 q-36 0 -51.5 -48.5t-15.5 -161.5z" />
<glyph unicode="&#x152;" horiz-adv-x="991" d="M230 345q-1 -137 49 -218.5t143 -81.5q30 0 54 15v571q-25 14 -55 14q-91 0 -140.5 -81.5t-50.5 -218.5zM661 365l180 10l-3 -70l-177 10v-260h89q14 0 31 1t32 3q12 16 25.5 40t26.5 51l41 90h30q8 -30 11.5 -62t3.5 -72q0 -36 -2.5 -58.5t-6.5 -47.5h-466v1 q-34 -11 -72 -11q-105 0 -187.5 42t-129.5 121.5t-47 191.5q0 86 29.5 152t80.5 111t117 68.5t139 23.5q37 0 71 -10h455q4 -25 6.5 -47.5t2.5 -58.5q0 -40 -3.5 -72t-11.5 -62h-30l-41 90q-13 27 -26.5 51t-25.5 40q-15 2 -32 3t-31 1h-79v-270z" />
<glyph unicode="&#x153;" horiz-adv-x="846" d="M812 125q-16 -36 -42.5 -67t-67 -49.5t-97.5 -18.5t-103 18.5t-78 52.5q-31 -34 -73.5 -52.5t-94.5 -18.5q-68 0 -118.5 32.5t-78.5 91t-28 136.5q0 77 30 135.5t83 91.5t122 33q52 0 94.5 -19.5t71.5 -55.5q34 36 80 55.5t99 19.5q57 0 103.5 -24.5t74 -69t27.5 -105.5 v-26.5t-1 -18.5l-15 -15h-266q8 -75 43 -110.5t99 -35.5q35 0 66.5 9.5t54.5 22.5zM216 250q0 -81 5.5 -127t19.5 -64.5t38 -18.5q38 0 52.5 46t14.5 164q0 117 -14 163.5t-49 46.5q-36 0 -51.5 -48.5t-15.5 -161.5zM594 460q-33 0 -48 -46t-15 -112v-10l104 6q0 8 0.5 18.5 t0.5 22.5q0 68 -10 94.5t-32 26.5z" />
<glyph unicode="&#x154;" horiz-adv-x="759" d="M444 940l13 2q29 -10 53.5 -31.5t24.5 -44.5q0 -31 -25.5 -50t-69 -29t-98 -13.5t-112.5 -3.5l-5 19q42 23 84 50.5t77.5 54t57.5 46.5zM352 635h-55v-300h55q55 0 85 42t30 109q0 68 -30 108.5t-85 40.5zM297 62l75 -37l-2 -25h-331l-2 25l30 15q23 11 34 23t11 34v531 l-75 37l2 25h338q132 0 206 -53.5t74 -139.5q0 -45 -18 -79t-46 -59t-59 -40l42 -69q28 -46 49 -85.5t43.5 -71t53.5 -53.5l29 -20l-2 -20l-185 -5q-37 -1 -56 15t-36 47l-114 223h-61v-218z" />
<glyph unicode="&#x155;" horiz-adv-x="458" d="M389 711q0 -27 -30.5 -54.5t-84 -52t-123.5 -42.5l-11 16q32 46 62.5 96.5t46.5 84.5l11 8q8 1 17 1h17q37 0 66 -12.5t29 -44.5zM268 55l85 -35l-2 -20h-326l-2 20l30 16q18 10 26.5 23.5t8.5 37.5v307l-58 34l-2 14q30 15 70.5 27t83 20.5t78.5 10.5l8 -8v-77 q30 41 60.5 63t61.5 22q29 0 48.5 -18.5t19.5 -53.5t-16.5 -62.5t-30.5 -42.5h-20q-24 15 -52 26.5t-61 18.5l-10 -4v-319z" />
<glyph unicode="&#x156;" horiz-adv-x="759" d="M352 635h-55v-300h55q55 0 85 42t30 109q0 68 -30 108.5t-85 40.5zM483 -160q0 -43 -22 -83t-55 -70.5t-67 -43.5l-12 11q13 18 27 48.5t21 63.5q-29 6 -46.5 26.5t-17.5 48.5q0 40 24.5 65t60.5 25q40 0 63.5 -24.5t23.5 -66.5zM297 62l75 -37l-2 -25h-331l-2 25l30 15 q23 11 34 23t11 34v531l-75 37l2 25h338q132 0 206 -53.5t74 -139.5q0 -45 -18 -79t-46 -59t-59 -40l42 -69q28 -46 49 -85.5t43.5 -71t53.5 -53.5l29 -20l-2 -20l-185 -5q-37 -1 -56 15t-36 47l-114 223h-61v-218z" />
<glyph unicode="&#x157;" horiz-adv-x="458" d="M268 55l85 -35l-2 -20h-326l-2 20l30 16q18 10 26.5 23.5t8.5 37.5v307l-58 34l-2 14q30 15 70.5 27t83 20.5t78.5 10.5l8 -8v-77q30 41 60.5 63t61.5 22q29 0 48.5 -18.5t19.5 -53.5t-16.5 -62.5t-30.5 -42.5h-20q-24 15 -52 26.5t-61 18.5l-10 -4v-319zM263 -160 q0 -43 -22 -83t-55 -70.5t-67 -43.5l-12 11q13 18 27 48.5t21 63.5q-29 6 -46.5 26.5t-17.5 48.5q0 40 24.5 65t60.5 25q40 0 63.5 -24.5t23.5 -66.5z" />
<glyph unicode="&#x158;" horiz-adv-x="759" d="M428 780l-11 -8h-95q-36 42 -67.5 84t-51.5 76l16 11q36 -17 76.5 -34t79.5 -32q36 15 77.5 32.5t84.5 33.5l14 -14q-35 -40 -67.5 -79t-55.5 -70zM352 635h-55v-300h55q55 0 85 42t30 109q0 68 -30 108.5t-85 40.5zM297 62l75 -37l-2 -25h-331l-2 25l30 15q23 11 34 23 t11 34v531l-75 37l2 25h338q132 0 206 -53.5t74 -139.5q0 -45 -18 -79t-46 -59t-59 -40l42 -69q28 -46 49 -85.5t43.5 -71t53.5 -53.5l29 -20l-2 -20l-185 -5q-37 -1 -56 15t-36 47l-114 223h-61v-218z" />
<glyph unicode="&#x159;" horiz-adv-x="458" d="M299 575l-11 -8h-95q-33 49 -61.5 98t-47.5 88l16 11q34 -22 71.5 -45t74.5 -42q34 20 73 42.5t79 44.5l14 -14q-32 -46 -62 -92.5t-51 -82.5zM268 55l85 -35l-2 -20h-326l-2 20l30 16q18 10 26.5 23.5t8.5 37.5v307l-58 34l-2 14q30 15 70.5 27t83 20.5t78.5 10.5l8 -8 v-77q30 41 60.5 63t61.5 22q29 0 48.5 -18.5t19.5 -53.5t-16.5 -62.5t-30.5 -42.5h-20q-24 15 -52 26.5t-61 18.5l-10 -4v-319z" />
<glyph unicode="&#x15a;" horiz-adv-x="562" d="M378 940l13 2q29 -10 53.5 -31.5t24.5 -44.5q0 -31 -25.5 -50t-69 -29t-98 -13.5t-112.5 -3.5l-5 19q42 23 84 50.5t77.5 54t57.5 46.5zM239 -10q-42 0 -81 4t-67.5 11.5t-39.5 18.5q-10 10 -14.5 28.5t-4.5 41.5q0 37 10.5 75t29.5 66l30 -3q10 -49 22.5 -86.5 t34.5 -62.5q21 -24 48.5 -33.5t52.5 -9.5q46 0 68 25t22 62q0 40 -22 69.5t-57.5 53.5t-74.5 48t-74.5 51.5t-57.5 63.5t-22 86q0 67 38.5 111.5t102.5 67t140 22.5q41 0 79.5 -5.5t67 -14t37.5 -17.5q9 -8 11.5 -23.5t2.5 -27.5q0 -19 -4 -48t-13 -58t-23 -51l-30 2 q-10 53 -22.5 87.5t-23.5 52.5q-12 21 -32 37t-55 16q-45 0 -70.5 -28t-25.5 -69q0 -39 22 -68t57.5 -53t74.5 -47.5t74.5 -52t57.5 -66.5t22 -91q0 -67 -36 -107.5t-101 -59t-154 -18.5z" />
<glyph unicode="&#x15b;" horiz-adv-x="483" d="M397 711q0 -27 -30.5 -54.5t-84 -52t-123.5 -42.5l-11 16q32 46 62.5 96.5t46.5 84.5l11 8q8 1 17 1h17q37 0 66 -12.5t29 -44.5zM205 -10q-52 0 -96 8t-58 21q-19 19 -19 63q0 29 10.5 55.5t29.5 45.5l15 -3q8 -34 21.5 -58.5t28.5 -41.5q17 -19 35 -29.5t42 -10.5 q29 0 43 14.5t14 36.5q0 27 -16.5 46.5t-42.5 36.5t-55 34t-55 37t-42.5 47t-16.5 64q0 51 32 85.5t86 51.5t119 17q50 0 91 -8.5t52 -18.5q14 -12 14 -48q0 -22 -9 -53.5t-31 -54.5l-15 2q-10 35 -20 56t-21 37q-10 14 -24 26t-40 12q-25 0 -39.5 -14t-14.5 -37 q0 -26 16.5 -45.5t42.5 -36.5t55 -34t55 -37.5t42.5 -48t16.5 -66.5q0 -76 -68 -113.5t-178 -37.5z" />
<glyph unicode="&#x15c;" horiz-adv-x="562" d="M486 783l-16 -11q-36 17 -76.5 34t-79.5 32q-36 -15 -77.5 -32.5t-84.5 -33.5l-14 14q35 40 68 79t55 70l11 8h95q36 -42 67.5 -84t51.5 -76zM239 -10q-42 0 -81 4t-67.5 11.5t-39.5 18.5q-10 10 -14.5 28.5t-4.5 41.5q0 37 10.5 75t29.5 66l30 -3q10 -49 22.5 -86.5 t34.5 -62.5q21 -24 48.5 -33.5t52.5 -9.5q46 0 68 25t22 62q0 40 -22 69.5t-57.5 53.5t-74.5 48t-74.5 51.5t-57.5 63.5t-22 86q0 67 38.5 111.5t102.5 67t140 22.5q41 0 79.5 -5.5t67 -14t37.5 -17.5q9 -8 11.5 -23.5t2.5 -27.5q0 -19 -4 -48t-13 -58t-23 -51l-30 2 q-10 53 -22.5 87.5t-23.5 52.5q-12 21 -32 37t-55 16q-45 0 -70.5 -28t-25.5 -69q0 -39 22 -68t57.5 -53t74.5 -47.5t74.5 -52t57.5 -66.5t22 -91q0 -67 -36 -107.5t-101 -59t-154 -18.5z" />
<glyph unicode="&#x15d;" horiz-adv-x="483" d="M419 577l-16 -11q-34 22 -71.5 45t-74.5 42q-34 -20 -73 -42.5t-79 -44.5l-14 14q32 47 62 93t51 82l11 8h95q33 -49 61.5 -98t47.5 -88zM205 -10q-52 0 -96 8t-58 21q-19 19 -19 63q0 29 10.5 55.5t29.5 45.5l15 -3q8 -34 21.5 -58.5t28.5 -41.5q17 -19 35 -29.5 t42 -10.5q29 0 43 14.5t14 36.5q0 27 -16.5 46.5t-42.5 36.5t-55 34t-55 37t-42.5 47t-16.5 64q0 51 32 85.5t86 51.5t119 17q50 0 91 -8.5t52 -18.5q14 -12 14 -48q0 -22 -9 -53.5t-31 -54.5l-15 2q-10 35 -20 56t-21 37q-10 14 -24 26t-40 12q-25 0 -39.5 -14t-14.5 -37 q0 -26 16.5 -45.5t42.5 -36.5t55 -34t55 -37.5t42.5 -48t16.5 -66.5q0 -76 -68 -113.5t-178 -37.5z" />
<glyph unicode="&#x15e;" horiz-adv-x="562" d="M239 -10q-42 0 -81 4t-67.5 11.5t-39.5 18.5q-10 10 -14.5 28.5t-4.5 41.5q0 37 10.5 75t29.5 66l30 -3q10 -49 22.5 -86.5t34.5 -62.5q21 -24 48.5 -33.5t52.5 -9.5q46 0 68 25t22 62q0 40 -22 69.5t-57.5 53.5t-74.5 48t-74.5 51.5t-57.5 63.5t-22 86q0 67 38.5 111.5 t102.5 67t140 22.5q41 0 79.5 -5.5t67 -14t37.5 -17.5q9 -8 11.5 -23.5t2.5 -27.5q0 -19 -4 -48t-13 -58t-23 -51l-30 2q-10 53 -22.5 87.5t-23.5 52.5q-12 21 -32 37t-55 16q-45 0 -70.5 -28t-25.5 -69q0 -39 22 -68t57.5 -53t74.5 -47.5t74.5 -52t57.5 -66.5t22 -91 q0 -86 -59.5 -129t-161.5 -53l-10 -50q63 -6 97.5 -29.5t34.5 -59.5q0 -53 -56.5 -84t-172.5 -31l-5 15q18 9 36.5 21.5t31.5 28t13 32.5q0 15 -12 26t-31 15l-6 10l18 103h-8z" />
<glyph unicode="&#x15f;" horiz-adv-x="483" d="M177 -123l-6 10l18 103q-47 1 -86 9t-52 20q-19 19 -19 63q0 29 10.5 55.5t29.5 45.5l15 -3q8 -34 21.5 -58.5t28.5 -41.5q17 -19 35 -29.5t42 -10.5q29 0 43 14.5t14 36.5q0 27 -16.5 46.5t-42.5 36.5t-55 34t-55 37t-42.5 47t-16.5 64q0 51 32 85.5t86 51.5t119 17 q50 0 91 -8.5t52 -18.5q14 -12 14 -48q0 -22 -9 -53.5t-31 -54.5l-15 2q-10 35 -20 56t-21 37q-10 14 -24 26t-40 12q-25 0 -39.5 -14t-14.5 -37q0 -26 16.5 -45.5t42.5 -36.5t55 -34t55 -37.5t42.5 -48t16.5 -66.5q0 -68 -54.5 -105t-146.5 -44l-9 -49q63 -6 97.5 -29.5 t34.5 -59.5q0 -53 -56.5 -84t-172.5 -31l-5 15q18 9 36.5 21.5t31.5 28t13 32.5q0 15 -12 26t-31 15z" />
<glyph unicode="&#x160;" horiz-adv-x="562" d="M362 780l-11 -8h-95q-36 42 -67.5 84t-51.5 76l16 11q36 -17 76.5 -34t79.5 -32q36 15 77.5 32.5t84.5 33.5l14 -14q-35 -40 -67.5 -79t-55.5 -70zM239 -10q-42 0 -81 4t-67.5 11.5t-39.5 18.5q-10 10 -14.5 28.5t-4.5 41.5q0 37 10.5 75t29.5 66l30 -3 q10 -49 22.5 -86.5t34.5 -62.5q21 -24 48.5 -33.5t52.5 -9.5q46 0 68 25t22 62q0 40 -22 69.5t-57.5 53.5t-74.5 48t-74.5 51.5t-57.5 63.5t-22 86q0 67 38.5 111.5t102.5 67t140 22.5q41 0 79.5 -5.5t67 -14t37.5 -17.5q9 -8 11.5 -23.5t2.5 -27.5q0 -19 -4 -48t-13 -58 t-23 -51l-30 2q-10 53 -22.5 87.5t-23.5 52.5q-12 21 -32 37t-55 16q-45 0 -70.5 -28t-25.5 -69q0 -39 22 -68t57.5 -53t74.5 -47.5t74.5 -52t57.5 -66.5t22 -91q0 -67 -36 -107.5t-101 -59t-154 -18.5z" />
<glyph unicode="&#x161;" horiz-adv-x="483" d="M317 575l-11 -8h-95q-33 49 -61.5 98t-47.5 88l16 11q34 -22 71.5 -45t74.5 -42q34 20 73 42.5t79 44.5l14 -14q-32 -46 -62 -92.5t-51 -82.5zM205 -10q-52 0 -96 8t-58 21q-19 19 -19 63q0 29 10.5 55.5t29.5 45.5l15 -3q8 -34 21.5 -58.5t28.5 -41.5q17 -19 35 -29.5 t42 -10.5q29 0 43 14.5t14 36.5q0 27 -16.5 46.5t-42.5 36.5t-55 34t-55 37t-42.5 47t-16.5 64q0 51 32 85.5t86 51.5t119 17q50 0 91 -8.5t52 -18.5q14 -12 14 -48q0 -22 -9 -53.5t-31 -54.5l-15 2q-10 35 -20 56t-21 37q-10 14 -24 26t-40 12q-25 0 -39.5 -14t-14.5 -37 q0 -26 16.5 -45.5t42.5 -36.5t55 -34t55 -37.5t42.5 -48t16.5 -66.5q0 -76 -68 -113.5t-178 -37.5z" />
<glyph unicode="&#x162;" horiz-adv-x="668" d="M272 -123l-6 10l20 113h-117l-2 25l30 15q23 11 34 23t11 34v538h-17q-14 0 -31 -1t-32 -3q-12 -16 -25.5 -40t-26.5 -51l-41 -90h-30q-7 30 -11 62t-4 72q0 36 2.5 58.5t6.5 47.5h602q4 -25 6.5 -47.5t2.5 -58.5q0 -40 -3.5 -72t-11.5 -62h-30l-41 90q-13 27 -26.5 51 t-25.5 40q-15 2 -32 3t-31 1h-16v-573l75 -37l-2 -25h-153l-11 -57q63 -6 97.5 -29.5t34.5 -59.5q0 -53 -56.5 -84t-172.5 -31l-5 15q18 9 36.5 21.5t31.5 28t13 32.5q0 15 -12 26t-31 15z" />
<glyph unicode="&#x163;" horiz-adv-x="415" d="M178 -123l-6 10l19 105q-58 7 -88.5 49t-30.5 119v270h-63l-2 20l66 55l159 135l20 -2v-158h125v-50h-125v-245q0 -37 15 -58.5t49 -21.5q23 0 41.5 9t34.5 23l15 -12q-19 -43 -56 -82.5t-99 -49.5l-10 -50q63 -6 97.5 -29.5t34.5 -59.5q0 -53 -56.5 -84t-172.5 -31 l-5 15q18 9 36.5 21.5t31.5 28t13 32.5q0 15 -12 26t-31 15z" />
<glyph unicode="&#x164;" horiz-adv-x="668" d="M389 780l-11 -8h-95q-36 42 -67.5 84t-51.5 76l16 11q36 -17 76.5 -34t79.5 -32q36 15 77.5 32.5t84.5 33.5l14 -14q-35 -40 -67.5 -79t-55.5 -70zM427 62l75 -37l-2 -25h-331l-2 25l30 15q23 11 34 23t11 34v538h-17q-14 0 -31 -1t-32 -3q-12 -16 -25.5 -40t-26.5 -51 l-41 -90h-30q-7 30 -11 62t-4 72q0 36 2.5 58.5t6.5 47.5h602q4 -25 6.5 -47.5t2.5 -58.5q0 -40 -3.5 -72t-11.5 -62h-30l-41 90q-13 27 -26.5 51t-25.5 40q-15 2 -32 3t-31 1h-16v-573z" />
<glyph unicode="&#x165;" horiz-adv-x="415" d="M450 688q0 -34 -18 -66t-45.5 -56t-55.5 -35l-10 9q11 14 22.5 38t16.5 51q-24 4 -38 20.5t-14 38.5q0 32 20 52t50 20q33 0 52.5 -19.5t19.5 -52.5zM407 125q-14 -32 -38.5 -63.5t-62 -51.5t-89.5 -20q-70 0 -107.5 42.5t-37.5 127.5v270h-63l-2 20l66 55l159 135l20 -2 v-158h125v-50h-125v-245q0 -37 15 -58.5t49 -21.5q23 0 41.5 9t34.5 23z" />
<glyph unicode="&#x166;" horiz-adv-x="668" d="M427 62l75 -37l-2 -25h-331l-2 25l30 15q23 11 34 23t11 34v223h-145v50h145v265h-17q-14 0 -31 -1t-32 -3q-12 -16 -25.5 -40t-26.5 -51l-41 -90h-30q-7 30 -11 62t-4 72q0 36 2.5 58.5t6.5 47.5h602q4 -25 6.5 -47.5t2.5 -58.5q0 -40 -3.5 -72t-11.5 -62h-30l-41 90 q-13 27 -26.5 51t-25.5 40q-15 2 -32 3t-31 1h-16v-265h120v-50h-120v-258z" />
<glyph unicode="&#x167;" horiz-adv-x="415" d="M377 306h-125v-121q0 -37 15 -58.5t49 -21.5q23 0 41.5 9t34.5 23l15 -12q-14 -32 -38.5 -63.5t-62 -51.5t-89.5 -20q-70 0 -107.5 42.5t-37.5 127.5v146h-65v50h65v74h-63l-2 20l66 55l159 135l20 -2v-158h125v-50h-125v-74h125v-50z" />
<glyph unicode="&#x168;" horiz-adv-x="682" d="M221 768l-20 6q-1 8 -1.5 16t-0.5 15q0 35 11.5 66t36 50.5t61.5 19.5q39 0 77.5 -10.5t75 -23.5t69.5 -23l49 63l20 -6q1 -9 1.5 -18t0.5 -21q0 -32 -11.5 -61.5t-35.5 -48t-62 -18.5q-39 0 -77.5 10.5t-75 24t-69.5 22.5zM75 245v383l-75 37l2 25h331l2 -25l-30 -15 q-23 -11 -34 -22.5t-11 -34.5v-352q0 -94 38.5 -142.5t102.5 -48.5q67 0 105.5 47t38.5 145v386l-75 37l2 25h206l2 -25l-75 -37v-383q0 -255 -255 -255q-128 0 -201.5 64t-73.5 191z" />
<glyph unicode="&#x169;" horiz-adv-x="653" d="M163 594l-20 6q-1 7 -1.5 13.5t-0.5 13.5q0 34 11.5 64t36 49t61.5 19q36 0 71 -10.5t68 -23.5t63 -23l49 55l20 -6q1 -8 1.5 -16t0.5 -19q0 -31 -11.5 -59.5t-35.5 -46.5t-62 -18q-35 0 -70.5 10.5t-68.5 24t-63 22.5zM80 145v259l-58 34l-2 14q30 15 70.5 27t83 20.5 t78.5 10.5l8 -8v-336q0 -42 15.5 -61.5t49.5 -19.5q30 0 60 14v305l-58 34l-2 14q30 15 70.5 27t83 20.5t78.5 10.5l8 -8v-357q0 -30 10.5 -47.5t32.5 -17.5q19 0 38 4l4 -14q-22 -37 -59.5 -58.5t-84.5 -21.5q-42 0 -69.5 18t-41.5 48q-31 -29 -71 -47.5t-89 -18.5 q-70 0 -112.5 40t-42.5 115z" />
<glyph unicode="&#x16a;" horiz-adv-x="682" d="M214 815v86h352v-86h-352zM75 245v383l-75 37l2 25h331l2 -25l-30 -15q-23 -11 -34 -22.5t-11 -34.5v-352q0 -94 38.5 -142.5t102.5 -48.5q67 0 105.5 47t38.5 145v386l-75 37l2 25h206l2 -25l-75 -37v-383q0 -255 -255 -255q-128 0 -201.5 64t-73.5 191z" />
<glyph unicode="&#x16b;" horiz-adv-x="653" d="M154 612v82h352v-82h-352zM80 145v259l-58 34l-2 14q30 15 70.5 27t83 20.5t78.5 10.5l8 -8v-336q0 -42 15.5 -61.5t49.5 -19.5q30 0 60 14v305l-58 34l-2 14q30 15 70.5 27t83 20.5t78.5 10.5l8 -8v-357q0 -30 10.5 -47.5t32.5 -17.5q19 0 38 4l4 -14 q-22 -37 -59.5 -58.5t-84.5 -21.5q-42 0 -69.5 18t-41.5 48q-31 -29 -71 -47.5t-89 -18.5q-70 0 -112.5 40t-42.5 115z" />
<glyph unicode="&#x16c;" horiz-adv-x="682" d="M531 938l5 2l19 -6q-9 -73 -50 -114t-103 -41q-59 0 -96 42t-41 115l23 5q8 -27 39.5 -43t80.5 -16q47 0 80 15t43 41zM75 245v383l-75 37l2 25h331l2 -25l-30 -15q-23 -11 -34 -22.5t-11 -34.5v-352q0 -94 38.5 -142.5t102.5 -48.5q67 0 105.5 47t38.5 145v386l-75 37 l2 25h206l2 -25l-75 -37v-383q0 -255 -255 -255q-128 0 -201.5 64t-73.5 191z" />
<glyph unicode="&#x16d;" horiz-adv-x="653" d="M467 754l5 2l19 -4q-5 -79 -47 -127t-106 -48t-103 48.5t-40 127.5l23 4q8 -33 41 -52.5t85 -19.5q47 0 80 18.5t43 50.5zM80 145v259l-58 34l-2 14q30 15 70.5 27t83 20.5t78.5 10.5l8 -8v-336q0 -42 15.5 -61.5t49.5 -19.5q30 0 60 14v305l-58 34l-2 14q30 15 70.5 27 t83 20.5t78.5 10.5l8 -8v-357q0 -30 10.5 -47.5t32.5 -17.5q19 0 38 4l4 -14q-22 -37 -59.5 -58.5t-84.5 -21.5q-42 0 -69.5 18t-41.5 48q-31 -29 -71 -47.5t-89 -18.5q-70 0 -112.5 40t-42.5 115z" />
<glyph unicode="&#x16e;" horiz-adv-x="682" d="M397 766q-51 0 -82.5 25.5t-31.5 67.5q0 45 34 73.5t88 28.5q50 0 81.5 -25.5t31.5 -66.5q0 -44 -34 -73.5t-87 -29.5zM401 922q-23 0 -37.5 -17.5t-14.5 -43.5q0 -24 14.5 -40t36.5 -16q23 0 37.5 18t14.5 44q0 23 -14 39t-37 16zM75 245v383l-75 37l2 25h331l2 -25 l-30 -15q-23 -11 -34 -22.5t-11 -34.5v-352q0 -94 38.5 -142.5t102.5 -48.5q67 0 105.5 47t38.5 145v386l-75 37l2 25h206l2 -25l-75 -37v-383q0 -255 -255 -255q-128 0 -201.5 64t-73.5 191z" />
<glyph unicode="&#x16f;" horiz-adv-x="653" d="M336 568q-51 0 -82.5 25.5t-31.5 67.5q0 45 34 73.5t88 28.5q50 0 81.5 -25.5t31.5 -66.5q0 -44 -34 -73.5t-87 -29.5zM340 724q-23 0 -37.5 -17.5t-14.5 -43.5q0 -24 14.5 -40t36.5 -16q23 0 37.5 18t14.5 44q0 23 -14 39t-37 16zM80 145v259l-58 34l-2 14 q30 15 70.5 27t83 20.5t78.5 10.5l8 -8v-336q0 -42 15.5 -61.5t49.5 -19.5q30 0 60 14v305l-58 34l-2 14q30 15 70.5 27t83 20.5t78.5 10.5l8 -8v-357q0 -30 10.5 -47.5t32.5 -17.5q19 0 38 4l4 -14q-22 -37 -59.5 -58.5t-84.5 -21.5q-42 0 -69.5 18t-41.5 48 q-31 -29 -71 -47.5t-89 -18.5q-70 0 -112.5 40t-42.5 115z" />
<glyph unicode="&#x170;" horiz-adv-x="682" d="M314 944l13 2q25 -10 46.5 -31.5t21.5 -44.5q0 -31 -20.5 -50t-55.5 -29t-78.5 -13.5t-90.5 -3.5l-5 19q33 23 65 50.5t59.5 54t44.5 46.5zM554 944l13 2q25 -10 46.5 -31.5t21.5 -44.5q0 -31 -20.5 -50t-55.5 -29t-78.5 -13.5t-90.5 -3.5l-5 19q33 23 65 50.5t59.5 54 t44.5 46.5zM75 245v383l-75 37l2 25h331l2 -25l-30 -15q-23 -11 -34 -22.5t-11 -34.5v-352q0 -94 38.5 -142.5t102.5 -48.5q67 0 105.5 47t38.5 145v386l-75 37l2 25h206l2 -25l-75 -37v-383q0 -255 -255 -255q-128 0 -201.5 64t-73.5 191z" />
<glyph unicode="&#x171;" horiz-adv-x="653" d="M359 711q0 -27 -26 -54.5t-72.5 -52t-106.5 -42.5l-11 16q32 46 61 96.5t45 84.5l11 8q8 1 17 1h17q26 0 45.5 -12.5t19.5 -44.5zM549 711q0 -27 -26.5 -54.5t-72.5 -52t-106 -42.5l-11 16q32 46 61 96.5t45 84.5l11 8q8 1 17 1h17q26 0 45.5 -12.5t19.5 -44.5zM80 145 v259l-58 34l-2 14q30 15 70.5 27t83 20.5t78.5 10.5l8 -8v-336q0 -42 15.5 -61.5t49.5 -19.5q30 0 60 14v305l-58 34l-2 14q30 15 70.5 27t83 20.5t78.5 10.5l8 -8v-357q0 -30 10.5 -47.5t32.5 -17.5q19 0 38 4l4 -14q-22 -37 -59.5 -58.5t-84.5 -21.5q-42 0 -69.5 18 t-41.5 48q-31 -29 -71 -47.5t-89 -18.5q-70 0 -112.5 40t-42.5 115z" />
<glyph unicode="&#x172;" horiz-adv-x="682" d="M75 245v383l-75 37l2 25h331l2 -25l-30 -15q-23 -11 -34 -22.5t-11 -34.5v-352q0 -94 38.5 -142.5t102.5 -48.5q67 0 105.5 47t38.5 145v386l-75 37l2 25h206l2 -25l-75 -37v-383q0 -134 -70 -198q-29 -31 -58 -59.5t-48.5 -56t-19.5 -56.5q0 -25 16.5 -36t38.5 -11 q12 0 18 1l18 3l4 -14q-19 -37 -53 -57.5t-76 -20.5q-41 0 -73.5 24t-32.5 69q0 52 43 91t119 74q-37 -8 -81 -8q-128 0 -201.5 64t-73.5 191z" />
<glyph unicode="&#x173;" horiz-adv-x="653" d="M80 145v259l-58 34l-2 14q30 15 70.5 27t83 20.5t78.5 10.5l8 -8v-336q0 -42 15.5 -61.5t49.5 -19.5q30 0 60 14v305l-58 34l-2 14q30 15 70.5 27t83 20.5t78.5 10.5l8 -8v-357q0 -30 10.5 -47.5t32.5 -17.5q19 0 38 4l4 -14q-3 -5 -6 -9q-25 -37 -54.5 -66.5t-51.5 -58 t-22 -61.5q0 -47 54 -47q10 0 19.5 1t17.5 3l4 -14q-18 -35 -50 -56.5t-75 -21.5q-48 0 -79 26.5t-31 69.5q0 38 23.5 66t61.5 50.5t81 41.5q-17 -4 -36 -4q-42 0 -69.5 18t-41.5 48q-31 -29 -71 -47.5t-89 -18.5q-70 0 -112.5 40t-42.5 115z" />
<glyph unicode="&#x174;" horiz-adv-x="1067" d="M748 783l-16 -11q-36 17 -76.5 34t-79.5 32q-36 -15 -77.5 -32.5t-84.5 -33.5l-14 14q35 40 68 79t55 70l11 8h95q36 -42 67.5 -84t51.5 -76zM397 0h-118l-191 596q-7 24 -19 33.5t-31 19.5l-30 16l2 25h337l2 -25l-75 -28l133 -463l100 334l-28 88q-7 24 -14 33.5 t-26 19.5l-30 16l2 25h327l2 -25l-75 -28l133 -463l138 462l-76 29l2 25h195l2 -25q-14 -7 -26 -12t-23 -11q-10 -7 -17.5 -17t-13.5 -28l-191 -597h-118l-137 426z" />
<glyph unicode="&#x175;" horiz-adv-x="786" d="M608 577l-16 -11q-34 22 -71.5 45t-74.5 42q-34 -20 -73 -42.5t-79 -44.5l-14 14q32 47 62 93t51 82l11 8h95q33 -49 61.5 -98t47.5 -88zM501 500l103 -309l66 258l-70 31l2 20h182l2 -20q-13 -4 -24.5 -10.5t-22.5 -15.5q-10 -8 -18 -19.5t-13 -27.5l-117 -407h-108 l-91 268l-99 -268h-108l-116 406q-4 16 -12.5 27.5t-15.5 18.5q-19 19 -41 28l2 20h308l2 -20l-62 -33l62 -257l111 310h78z" />
<glyph unicode="&#x176;" horiz-adv-x="701" d="M573 783l-16 -11q-36 17 -76.5 34t-79.5 32q-36 -15 -77.5 -32.5t-84.5 -33.5l-14 14q35 40 68 79t55 70l11 8h95q36 -42 67.5 -84t51.5 -76zM443 62l75 -37l-2 -25h-331l-2 25l30 15q23 11 34 23t11 34v203l-167 296q-16 29 -30 39t-33 20l-20 10l2 25h342l2 -25 l-76 -28l142 -286l146 287l-75 27l2 25h198l2 -25q-16 -7 -27.5 -13t-20.5 -14q-18 -13 -34 -41l-168 -298v-237z" />
<glyph unicode="&#x177;" horiz-adv-x="548" d="M459 577l-16 -11q-34 22 -71.5 45t-74.5 42q-34 -20 -73 -42.5t-79 -44.5l-14 14q32 47 62 93t51 82l11 8h95q33 -49 61.5 -98t47.5 -88zM281 0h-66l-146 406q-5 14 -13 26.5t-15 19.5q-6 7 -15 14t-26 14l2 20h308l2 -20l-62 -33l86 -284l97 285l-71 32l2 20h182l2 -20 q-16 -5 -27.5 -12t-21.5 -15q-9 -8 -15.5 -19.5t-12.5 -26.5l-166 -457q-28 -79 -57 -125t-58.5 -65.5t-61.5 -19.5q-37 0 -58.5 26t-21.5 66q0 32 14 63l10 4q16 -5 32 -7.5t27 -2.5q28 0 58 13t55 37.5t37 60.5z" />
<glyph unicode="&#x178;" horiz-adv-x="701" d="M619 869q0 -39 -28.5 -65t-71.5 -26q-36 0 -58.5 21t-22.5 50q0 38 30 64.5t72 26.5q33 0 56 -19.5t23 -51.5zM378 869q0 -39 -28.5 -65t-71.5 -26q-36 0 -58.5 21t-22.5 50q0 38 30 64.5t72 26.5q33 0 56 -19.5t23 -51.5zM443 62l75 -37l-2 -25h-331l-2 25l30 15 q23 11 34 23t11 34v203l-167 296q-16 29 -30 39t-33 20l-20 10l2 25h342l2 -25l-76 -28l142 -286l146 287l-75 27l2 25h198l2 -25q-16 -7 -27.5 -13t-20.5 -14q-18 -13 -34 -41l-168 -298v-237z" />
<glyph unicode="&#x179;" horiz-adv-x="661" d="M418 940l13 2q29 -10 53.5 -31.5t24.5 -44.5q0 -31 -25.5 -50t-69 -29t-98 -13.5t-112.5 -3.5l-5 19q42 23 84 50.5t77.5 54t57.5 46.5zM594 0h-536l-10 50l357 585h-136q-14 0 -31 -1t-32 -3l-103 -181h-30q-7 30 -11 66t-4 68t2.5 56.5t6.5 49.5h536l10 -50l-356 -585 h135q14 0 31 1t32 3l103 181h30q15 -57 15 -130q0 -30 -2.5 -57t-6.5 -53z" />
<glyph unicode="&#x17a;" horiz-adv-x="512" d="M409 711q0 -27 -30.5 -54.5t-84 -52t-123.5 -42.5l-11 16q32 46 62.5 96.5t46.5 84.5l11 8q8 1 17 1h17q37 0 66 -12.5t29 -44.5zM477 78q0 -39 -9 -78h-426l-10 50l256 400h-120l-92 -134h-20q-17 54 -17 106q0 39 9 78h422l10 -50l-257 -400h125l92 134h20 q17 -54 17 -106z" />
<glyph unicode="&#x17b;" horiz-adv-x="661" d="M445 870q0 -45 -32.5 -74.5t-79.5 -29.5q-40 0 -67 24t-27 58q0 28 16 50.5t43 36.5t58 14q37 0 63 -21.5t26 -57.5zM594 0h-536l-10 50l357 585h-136q-14 0 -31 -1t-32 -3l-103 -181h-30q-7 30 -11 66t-4 68t2.5 56.5t6.5 49.5h536l10 -50l-356 -585h135q14 0 31 1t32 3 l103 181h30q15 -57 15 -130q0 -30 -2.5 -57t-6.5 -53z" />
<glyph unicode="&#x17c;" horiz-adv-x="512" d="M366 678q0 -46 -31 -77t-77 -31q-39 0 -64.5 25t-25.5 61q0 29 15.5 52.5t41.5 38t56 14.5q35 0 60 -22.5t25 -60.5zM477 78q0 -39 -9 -78h-426l-10 50l256 400h-120l-92 -134h-20q-17 54 -17 106q0 39 9 78h422l10 -50l-257 -400h125l92 134h20q17 -54 17 -106z" />
<glyph unicode="&#x17d;" horiz-adv-x="661" d="M392 780l-11 -8h-95q-36 42 -67.5 84t-51.5 76l16 11q36 -17 76.5 -34t79.5 -32q36 15 77.5 32.5t84.5 33.5l14 -14q-35 -40 -67.5 -79t-55.5 -70zM594 0h-536l-10 50l357 585h-136q-14 0 -31 -1t-32 -3l-103 -181h-30q-7 30 -11 66t-4 68t2.5 56.5t6.5 49.5h536l10 -50 l-356 -585h135q14 0 31 1t32 3l103 181h30q15 -57 15 -130q0 -30 -2.5 -57t-6.5 -53z" />
<glyph unicode="&#x17e;" horiz-adv-x="512" d="M319 575l-11 -8h-95q-33 49 -61.5 98t-47.5 88l16 11q34 -22 71.5 -45t74.5 -42q34 20 73 42.5t79 44.5l14 -14q-32 -46 -62 -92.5t-51 -82.5zM477 78q0 -39 -9 -78h-426l-10 50l256 400h-120l-92 -134h-20q-17 54 -17 106q0 39 9 78h422l10 -50l-257 -400h125l92 134h20 q17 -54 17 -106z" />
<glyph unicode="&#x18f;" horiz-adv-x="734" d="M360 -10q-85 0 -154.5 35t-110 99t-40.5 152v32.5t1 22.5l18 18h436q-3 151 -38.5 222.5t-109.5 71.5q-58 0 -94 -32.5t-36 -105.5q0 -9 1 -23.5t4 -29.5q-25 -13 -47.5 -18.5t-42.5 -5.5q-37 0 -61.5 15.5t-24.5 46.5q0 39 25.5 76.5t69.5 67.5t98 48t111 18 q102 0 177.5 -42t117.5 -119t42 -182q0 -83 -26.5 -150.5t-73 -116t-108.5 -74.5t-134 -26zM509 304l-262 -12q-1 -8 -1 -18v-21q0 -98 32 -152t90 -54q48 0 79 35.5t46.5 96.5t16.5 135z" />
<glyph unicode="&#x192;" horiz-adv-x="633" d="M79 292l8 70h115l6 88q6 88 48 143t104.5 81t129.5 26q68 0 105.5 -26t37.5 -64q0 -27 -12.5 -46.5t-31 -31.5t-36.5 -17q-12 33 -24.5 62.5t-26.5 48t-31 18.5q-24 0 -38.5 -25t-24 -68.5t-20.5 -100.5l-16 -88h165l-8 -70h-170l-34 -182q-10 -52 -37.5 -97.5t-67 -79.5 t-86 -53.5t-94.5 -19.5q-40 0 -65 20.5t-25 54.5q0 29 17 51t43 38q19 -37 44.5 -67.5t53.5 -30.5q27 0 43 29t24 72t10 83l12 182h-118z" />
<glyph unicode="&#x19d;" horiz-adv-x="748" d="M21 -170l-17 17q25 28 45 52.5t34 52t21.5 64t7.5 88.5v524l-37 19l-38 18l2 25h233l320 -471v409l-75 37l2 25h206l2 -25l-30 -15q-23 -11 -34 -22.5t-11 -34.5v-593h-120l-360 513v-438q0 -63 -16.5 -104t-49.5 -73t-85 -68z" />
<glyph unicode="&#x1cd;" horiz-adv-x="716" d="M419 780l-11 -8h-95q-36 42 -67.5 84t-51.5 76l16 11q36 -17 76.5 -34t79.5 -32q36 15 77.5 32.5t84.5 33.5l14 -14q-35 -40 -67.5 -79t-55.5 -70zM299 690h118l211 -596q8 -24 20 -33.5t30 -19.5l30 -16l-2 -25h-337l-2 25l75 28l-47 145l-215 -3l-48 -141l75 -29 l-2 -25h-195l-2 25q15 7 27 12.5t22 12.5q10 8 18 17.5t13 25.5zM196 245l184 -2l-91 278z" />
<glyph unicode="&#x1ce;" horiz-adv-x="575" d="M351 575l-11 -8h-95q-33 49 -61.5 98t-47.5 88l16 11q34 -22 71.5 -45t74.5 -42q34 20 73 42.5t79 44.5l14 -14q-32 -46 -62 -92.5t-51 -82.5zM314 510q88 0 137 -44.5t49 -132.5q0 -12 -1 -38t-1.5 -56t-1.5 -55t-1 -36q0 -29 9 -48.5t37 -19.5q6 0 15 1t20 3l4 -14 q-24 -40 -62.5 -60t-79.5 -20q-43 0 -73 18.5t-40 48.5q-23 -30 -63.5 -48.5t-86.5 -18.5q-58 0 -96.5 30.5t-38.5 86.5q0 76 76 118t204 44v125q0 66 -47 66q-25 0 -40 -17.5t-15 -57.5q0 -9 1 -22.5t3 -27.5q-22 -11 -42.5 -15.5t-38.5 -4.5q-34 0 -56 13.5t-22 39.5 q0 25 20.5 50t56 46t80.5 33.5t94 12.5zM220 142q0 -31 15 -46.5t40 -15.5q30 0 45 14v141q-47 -6 -73.5 -29t-26.5 -64z" />
<glyph unicode="&#x1cf;" horiz-adv-x="409" d="M256 780l-11 -8h-95q-36 42 -67.5 84t-51.5 76l16 11q36 -17 76.5 -34t79.5 -32q36 15 77.5 32.5t84.5 33.5l14 -14q-35 -40 -67.5 -79t-55.5 -70zM297 62l75 -37l-2 -25h-331l-2 25l30 15q23 11 34 23t11 34v531l-75 37l2 25h331l2 -25l-30 -15q-23 -11 -34 -22.5 t-11 -34.5v-531z" />
<glyph unicode="&#x1d0;" horiz-adv-x="348" d="M221 563l-11 -8h-95q-21 50 -39 101t-30 91l16 11q25 -21 52 -41.5t54 -38.5q26 19 54.5 39.5t57.5 40.5l14 -14q-21 -48 -40 -95.5t-33 -85.5zM268 55l65 -35l-2 -20h-306l-2 20l30 16q18 10 26.5 23.5t8.5 37.5v307l-58 34l-2 14q30 15 70.5 27t83 20.5t78.5 10.5l8 -8 v-447z" />
<glyph unicode="&#x1d1;" horiz-adv-x="760" d="M436 780l-11 -8h-95q-36 42 -67.5 84t-51.5 76l16 11q36 -17 76.5 -34t79.5 -32q36 15 77.5 32.5t84.5 33.5l14 -14q-35 -40 -67.5 -79t-55.5 -70zM40 345q0 86 27 152t74.5 111t109 68.5t130.5 23.5q97 0 173.5 -40t121 -117.5t44.5 -192.5t-45 -195.5t-122.5 -122.5 t-173.5 -42q-98 0 -175 42t-120.5 121.5t-43.5 191.5zM230 345q-1 -137 39 -218.5t113 -81.5q49 0 81.5 39t49.5 107.5t17 158.5q1 135 -36.5 215t-112.5 80q-72 0 -111 -81.5t-40 -218.5z" />
<glyph unicode="&#x1d2;" horiz-adv-x="564" d="M340 575l-11 -8h-95q-33 49 -61.5 98t-47.5 88l16 11q34 -22 71.5 -45t74.5 -42q34 20 73 42.5t79 44.5l14 -14q-32 -46 -62 -92.5t-51 -82.5zM532 250q0 -77 -32.5 -135.5t-89.5 -91.5t-133 -33q-74 0 -129 32.5t-85.5 91t-30.5 136.5q0 77 32.5 135.5t90 91.5t132.5 33 q74 0 129 -32.5t85.5 -90.5t30.5 -137zM217 250q0 -81 5.5 -127t19.5 -64.5t38 -18.5q38 0 52.5 46t14.5 164q0 117 -14 163.5t-49 46.5q-36 0 -51.5 -48.5t-15.5 -161.5z" />
<glyph unicode="&#x1d3;" horiz-adv-x="682" d="M461 780l-11 -8h-95q-36 42 -67.5 84t-51.5 76l16 11q36 -17 76.5 -34t79.5 -32q36 15 77.5 32.5t84.5 33.5l14 -14q-35 -40 -67.5 -79t-55.5 -70zM75 245v383l-75 37l2 25h331l2 -25l-30 -15q-23 -11 -34 -22.5t-11 -34.5v-352q0 -94 38.5 -142.5t102.5 -48.5 q67 0 105.5 47t38.5 145v386l-75 37l2 25h206l2 -25l-75 -37v-383q0 -255 -255 -255q-128 0 -201.5 64t-73.5 191z" />
<glyph unicode="&#x1d4;" horiz-adv-x="653" d="M393 575l-11 -8h-95q-33 49 -61.5 98t-47.5 88l16 11q34 -22 71.5 -45t74.5 -42q34 20 73 42.5t79 44.5l14 -14q-32 -46 -62 -92.5t-51 -82.5zM80 145v259l-58 34l-2 14q30 15 70.5 27t83 20.5t78.5 10.5l8 -8v-336q0 -42 15.5 -61.5t49.5 -19.5q30 0 60 14v305l-58 34 l-2 14q30 15 70.5 27t83 20.5t78.5 10.5l8 -8v-357q0 -30 10.5 -47.5t32.5 -17.5q19 0 38 4l4 -14q-22 -37 -59.5 -58.5t-84.5 -21.5q-42 0 -69.5 18t-41.5 48q-31 -29 -71 -47.5t-89 -18.5q-70 0 -112.5 40t-42.5 115z" />
<glyph unicode="&#x1d5;" horiz-adv-x="682" d="M220 1045v86h352v-86h-352zM611 869q0 -39 -28.5 -65t-71.5 -26q-36 0 -58.5 21t-22.5 50q0 38 30 64.5t72 26.5q33 0 56 -19.5t23 -51.5zM370 869q0 -39 -28.5 -65t-71.5 -26q-36 0 -58.5 21t-22.5 50q0 38 30 64.5t72 26.5q33 0 56 -19.5t23 -51.5zM75 245v383l-75 37 l2 25h331l2 -25l-30 -15q-23 -11 -34 -22.5t-11 -34.5v-352q0 -94 38.5 -142.5t102.5 -48.5q67 0 105.5 47t38.5 145v386l-75 37l2 25h206l2 -25l-75 -37v-383q0 -255 -255 -255q-128 0 -201.5 64t-73.5 191z" />
<glyph unicode="&#x1d6;" horiz-adv-x="653" d="M157 852v82h352v-82h-352zM542 677q0 -41 -28 -69t-69 -28q-34 0 -56 23t-22 54q0 40 29.5 68.5t69.5 28.5q32 0 54 -21t22 -56zM301 677q0 -41 -28 -69t-69 -28q-34 0 -56 23t-22 54q0 40 29.5 68.5t69.5 28.5q32 0 54 -21t22 -56zM80 145v259l-58 34l-2 14 q30 15 70.5 27t83 20.5t78.5 10.5l8 -8v-336q0 -42 15.5 -61.5t49.5 -19.5q30 0 60 14v305l-58 34l-2 14q30 15 70.5 27t83 20.5t78.5 10.5l8 -8v-357q0 -30 10.5 -47.5t32.5 -17.5q19 0 38 4l4 -14q-22 -37 -59.5 -58.5t-84.5 -21.5q-42 0 -69.5 18t-41.5 48 q-31 -29 -71 -47.5t-89 -18.5q-70 0 -112.5 40t-42.5 115z" />
<glyph unicode="&#x1d7;" horiz-adv-x="682" d="M463 1180l13 2q29 -10 53.5 -31.5t24.5 -44.5q0 -31 -25.5 -50t-69 -29t-98 -13.5t-112.5 -3.5l-5 19q42 23 84 50.5t77.5 54t57.5 46.5zM611 869q0 -39 -28.5 -65t-71.5 -26q-36 0 -58.5 21t-22.5 50q0 38 30 64.5t72 26.5q33 0 56 -19.5t23 -51.5zM370 869 q0 -39 -28.5 -65t-71.5 -26q-36 0 -58.5 21t-22.5 50q0 38 30 64.5t72 26.5q33 0 56 -19.5t23 -51.5zM75 245v383l-75 37l2 25h331l2 -25l-30 -15q-23 -11 -34 -22.5t-11 -34.5v-352q0 -94 38.5 -142.5t102.5 -48.5q67 0 105.5 47t38.5 145v386l-75 37l2 25h206l2 -25 l-75 -37v-383q0 -255 -255 -255q-128 0 -201.5 64t-73.5 191z" />
<glyph unicode="&#x1d8;" horiz-adv-x="653" d="M476 951q0 -27 -30.5 -54.5t-84 -52t-123.5 -42.5l-11 16q32 46 62.5 96.5t46.5 84.5l11 8q8 1 17 1h17q37 0 66 -12.5t29 -44.5zM542 677q0 -41 -28 -69t-69 -28q-34 0 -56 23t-22 54q0 40 29.5 68.5t69.5 28.5q32 0 54 -21t22 -56zM301 677q0 -41 -28 -69t-69 -28 q-34 0 -56 23t-22 54q0 40 29.5 68.5t69.5 28.5q32 0 54 -21t22 -56zM80 145v259l-58 34l-2 14q30 15 70.5 27t83 20.5t78.5 10.5l8 -8v-336q0 -42 15.5 -61.5t49.5 -19.5q30 0 60 14v305l-58 34l-2 14q30 15 70.5 27t83 20.5t78.5 10.5l8 -8v-357q0 -30 10.5 -47.5 t32.5 -17.5q19 0 38 4l4 -14q-22 -37 -59.5 -58.5t-84.5 -21.5q-42 0 -69.5 18t-41.5 48q-31 -29 -71 -47.5t-89 -18.5q-70 0 -112.5 40t-42.5 115z" />
<glyph unicode="&#x1d9;" horiz-adv-x="682" d="M456 1020l-11 -8h-95q-36 42 -67.5 84t-51.5 76l16 11q36 -17 76.5 -34t79.5 -32q36 15 77.5 32.5t84.5 33.5l14 -14q-35 -40 -67.5 -79t-55.5 -70zM611 869q0 -39 -28.5 -65t-71.5 -26q-36 0 -58.5 21t-22.5 50q0 38 30 64.5t72 26.5q33 0 56 -19.5t23 -51.5zM370 869 q0 -39 -28.5 -65t-71.5 -26q-36 0 -58.5 21t-22.5 50q0 38 30 64.5t72 26.5q33 0 56 -19.5t23 -51.5zM75 245v383l-75 37l2 25h331l2 -25l-30 -15q-23 -11 -34 -22.5t-11 -34.5v-352q0 -94 38.5 -142.5t102.5 -48.5q67 0 105.5 47t38.5 145v386l-75 37l2 25h206l2 -25 l-75 -37v-383q0 -255 -255 -255q-128 0 -201.5 64t-73.5 191z" />
<glyph unicode="&#x1da;" horiz-adv-x="653" d="M386 815l-11 -8h-95q-33 49 -61.5 98t-47.5 88l16 11q34 -22 71.5 -45t74.5 -42q34 20 73 42.5t79 44.5l14 -14q-32 -46 -62 -92.5t-51 -82.5zM542 677q0 -41 -28 -69t-69 -28q-34 0 -56 23t-22 54q0 40 29.5 68.5t69.5 28.5q32 0 54 -21t22 -56zM301 677q0 -41 -28 -69 t-69 -28q-34 0 -56 23t-22 54q0 40 29.5 68.5t69.5 28.5q32 0 54 -21t22 -56zM80 145v259l-58 34l-2 14q30 15 70.5 27t83 20.5t78.5 10.5l8 -8v-336q0 -42 15.5 -61.5t49.5 -19.5q30 0 60 14v305l-58 34l-2 14q30 15 70.5 27t83 20.5t78.5 10.5l8 -8v-357q0 -30 10.5 -47.5 t32.5 -17.5q19 0 38 4l4 -14q-22 -37 -59.5 -58.5t-84.5 -21.5q-42 0 -69.5 18t-41.5 48q-31 -29 -71 -47.5t-89 -18.5q-70 0 -112.5 40t-42.5 115z" />
<glyph unicode="&#x1db;" horiz-adv-x="682" d="M548 1029l-5 -19q-58 0 -112.5 3.5t-98 13.5t-69 29t-25.5 50q0 23 25 44.5t53 31.5l13 -2q23 -20 58 -46.5t77 -54t84 -50.5zM611 869q0 -39 -28.5 -65t-71.5 -26q-36 0 -58.5 21t-22.5 50q0 38 30 64.5t72 26.5q33 0 56 -19.5t23 -51.5zM370 869q0 -39 -28.5 -65 t-71.5 -26q-36 0 -58.5 21t-22.5 50q0 38 30 64.5t72 26.5q33 0 56 -19.5t23 -51.5zM75 245v383l-75 37l2 25h331l2 -25l-30 -15q-23 -11 -34 -22.5t-11 -34.5v-352q0 -94 38.5 -142.5t102.5 -48.5q67 0 105.5 47t38.5 145v386l-75 37l2 25h206l2 -25l-75 -37v-383 q0 -255 -255 -255q-128 0 -201.5 64t-73.5 191z" />
<glyph unicode="&#x1dc;" horiz-adv-x="653" d="M450 818l-11 -16q-69 18 -123 42.5t-84.5 52t-30.5 54.5q0 32 29 44.5t66 12.5h17t17 -1l11 -8q17 -34 47 -84.5t62 -96.5zM542 677q0 -41 -28 -69t-69 -28q-34 0 -56 23t-22 54q0 40 29.5 68.5t69.5 28.5q32 0 54 -21t22 -56zM301 677q0 -41 -28 -69t-69 -28 q-34 0 -56 23t-22 54q0 40 29.5 68.5t69.5 28.5q32 0 54 -21t22 -56zM80 145v259l-58 34l-2 14q30 15 70.5 27t83 20.5t78.5 10.5l8 -8v-336q0 -42 15.5 -61.5t49.5 -19.5q30 0 60 14v305l-58 34l-2 14q30 15 70.5 27t83 20.5t78.5 10.5l8 -8v-357q0 -30 10.5 -47.5 t32.5 -17.5q19 0 38 4l4 -14q-22 -37 -59.5 -58.5t-84.5 -21.5q-42 0 -69.5 18t-41.5 48q-31 -29 -71 -47.5t-89 -18.5q-70 0 -112.5 40t-42.5 115z" />
<glyph unicode="&#x1e6;" horiz-adv-x="745" d="M476 780l-11 -8h-95q-36 42 -67.5 84t-51.5 76l16 11q36 -17 76.5 -34t79.5 -32q36 15 77.5 32.5t84.5 33.5l14 -14q-35 -40 -67.5 -79t-55.5 -70zM415 -10q-75 0 -142.5 21t-120 63.5t-82.5 107.5t-30 153t31 156t86 114.5t126 70.5t152 24q56 0 110 -7.5t102 -24.5 q5 -18 7.5 -41t2.5 -50t-4.5 -65t-12.5 -70l-30 -2q-30 57 -58 106.5t-57 89.5q-11 3 -22 3.5t-27 0.5q-55 0 -104.5 -36.5t-80.5 -103.5t-31 -160t31 -157.5t80 -98.5t104 -34q25 0 45 5v203l-75 37l2 25h301l2 -25l-30 -15q-15 -7 -20 -20t-5 -37v-201q-41 -11 -76.5 -18 t-75.5 -10.5t-98 -3.5z" />
<glyph unicode="&#x1e7;" horiz-adv-x="539" d="M317 575l-11 -8h-95q-33 49 -61.5 98t-47.5 88l16 11q34 -22 71.5 -45t74.5 -42q34 20 73 42.5t79 44.5l14 -14q-32 -46 -62 -92.5t-51 -82.5zM32 318q0 54 30.5 97.5t84 69t121.5 25.5q82 0 138 -37q17 48 40 75t51 27q42 0 42 -57q0 -12 -2 -27.5t-4 -23.5 q-4 -14 -25 -15q-13 -1 -33 -1t-39 -2q22 -22 34 -51.5t12 -64.5q0 -54 -29 -97t-80.5 -68t-120.5 -25q-25 0 -49 4q-3 -11 -3 -21q0 -19 14 -25.5t45 -8.5l95 -6q83 -5 130.5 -40.5t47.5 -102.5q0 -58 -36.5 -104t-103.5 -72.5t-159 -26.5q-62 0 -111 12.5t-77 36t-28 54.5 q0 26 18 46t46.5 31.5t59.5 11.5l8 -8q3 -62 48.5 -98t109.5 -36q51 0 81.5 21.5t30.5 52.5q0 26 -21 41t-56 19l-131 16q-71 9 -100.5 35.5t-29.5 66.5q0 34 19 65t59 50q-58 19 -92.5 61.5t-34.5 99.5zM302 325q0 78 -10 109t-34 31q-25 0 -35.5 -31t-10.5 -105 q0 -75 11 -108t36 -33q24 0 33.5 31t9.5 106z" />
<glyph unicode="&#x1ea;" horiz-adv-x="760" d="M40 345q0 86 27 152t74.5 111t109 68.5t130.5 23.5q97 0 173.5 -40t121 -117.5t44.5 -192.5q0 -120 -49.5 -202.5t-130.5 -122.5q-35 -20 -64.5 -46.5t-48 -53.5t-18.5 -50q0 -25 16.5 -36t38.5 -11q12 0 18 1l18 3l4 -14q-19 -37 -53 -57.5t-76 -20.5q-41 0 -73.5 24 t-32.5 69q0 52 42.5 89t116.5 71q-24 -3 -49 -3q-98 0 -175 42t-120.5 121.5t-43.5 191.5zM230 345q-1 -137 39 -218.5t113 -81.5q49 0 81.5 39t49.5 107.5t17 158.5q1 135 -36.5 215t-112.5 80q-72 0 -111 -81.5t-40 -218.5z" />
<glyph unicode="&#x1eb;" horiz-adv-x="564" d="M409 -182q-18 -35 -50 -56.5t-75 -21.5q-48 0 -79 26.5t-31 69.5q0 39 24.5 69t64.5 53t84 40q-33 -8 -70 -8q-74 0 -129 32.5t-85.5 91t-30.5 136.5q0 77 32.5 135.5t90 91.5t132.5 33q74 0 129 -32.5t85.5 -90.5t30.5 -137q0 -58 -19 -106.5t-53 -82.5v0 q-35 -36 -69 -65.5t-55.5 -57.5t-21.5 -61q0 -49 54 -49q10 0 19.5 1t17.5 3zM217 250q0 -81 5.5 -127t19.5 -64.5t38 -18.5q38 0 52.5 46t14.5 164q0 117 -14 163.5t-49 46.5q-36 0 -51.5 -48.5t-15.5 -161.5z" />
<glyph unicode="&#x1f4;" horiz-adv-x="745" d="M492 940l13 2q29 -10 53.5 -31.5t24.5 -44.5q0 -31 -25.5 -50t-69 -29t-98 -13.5t-112.5 -3.5l-5 19q42 23 84 50.5t77.5 54t57.5 46.5zM415 -10q-75 0 -142.5 21t-120 63.5t-82.5 107.5t-30 153t31 156t86 114.5t126 70.5t152 24q56 0 110 -7.5t102 -24.5q5 -18 7.5 -41 t2.5 -50t-4.5 -65t-12.5 -70l-30 -2q-30 57 -58 106.5t-57 89.5q-11 3 -22 3.5t-27 0.5q-55 0 -104.5 -36.5t-80.5 -103.5t-31 -160t31 -157.5t80 -98.5t104 -34q25 0 45 5v203l-75 37l2 25h301l2 -25l-30 -15q-15 -7 -20 -20t-5 -37v-201q-41 -11 -76.5 -18t-75.5 -10.5 t-98 -3.5z" />
<glyph unicode="&#x1f5;" horiz-adv-x="539" d="M407 711q0 -27 -30.5 -54.5t-84 -52t-123.5 -42.5l-11 16q32 46 62.5 96.5t46.5 84.5l11 8q8 1 17 1h17q37 0 66 -12.5t29 -44.5zM32 318q0 54 30.5 97.5t84 69t121.5 25.5q82 0 138 -37q17 48 40 75t51 27q42 0 42 -57q0 -12 -2 -27.5t-4 -23.5q-4 -14 -25 -15 q-13 -1 -33 -1t-39 -2q22 -22 34 -51.5t12 -64.5q0 -54 -29 -97t-80.5 -68t-120.5 -25q-25 0 -49 4q-3 -11 -3 -21q0 -19 14 -25.5t45 -8.5l95 -6q83 -5 130.5 -40.5t47.5 -102.5q0 -58 -36.5 -104t-103.5 -72.5t-159 -26.5q-62 0 -111 12.5t-77 36t-28 54.5q0 26 18 46 t46.5 31.5t59.5 11.5l8 -8q3 -62 48.5 -98t109.5 -36q51 0 81.5 21.5t30.5 52.5q0 26 -21 41t-56 19l-131 16q-71 9 -100.5 35.5t-29.5 66.5q0 34 19 65t59 50q-58 19 -92.5 61.5t-34.5 99.5zM302 325q0 78 -10 109t-34 31q-25 0 -35.5 -31t-10.5 -105q0 -75 11 -108t36 -33 q24 0 33.5 31t9.5 106z" />
<glyph unicode="&#x1fa;" horiz-adv-x="716" d="M440 1190l13 2q29 -10 53.5 -31.5t24.5 -44.5q0 -31 -25.5 -50t-69 -29t-98 -13.5t-112.5 -3.5l-5 19q42 23 84 50.5t77.5 54t57.5 46.5zM355 766q-51 0 -82.5 25.5t-31.5 67.5q0 45 34 73.5t88 28.5q50 0 81.5 -25.5t31.5 -66.5q0 -44 -34 -73.5t-87 -29.5zM359 922 q-23 0 -37.5 -17.5t-14.5 -43.5q0 -24 14.5 -40t36.5 -16q23 0 37.5 18t14.5 44q0 23 -14 39t-37 16zM299 690h118l211 -596q8 -24 20 -33.5t30 -19.5l30 -16l-2 -25h-337l-2 25l75 28l-47 145l-215 -3l-48 -141l75 -29l-2 -25h-195l-2 25q15 7 27 12.5t22 12.5 q10 8 18 17.5t13 25.5zM196 245l184 -2l-91 278z" />
<glyph unicode="&#x1fb;" horiz-adv-x="575" d="M430 951q0 -27 -30.5 -54.5t-84 -52t-123.5 -42.5l-11 16q32 46 62.5 96.5t46.5 84.5l11 8q8 1 17 1h17q37 0 66 -12.5t29 -44.5zM294 568q-51 0 -82.5 25.5t-31.5 67.5q0 45 34 73.5t88 28.5q50 0 81.5 -25.5t31.5 -66.5q0 -44 -34 -73.5t-87 -29.5zM298 724 q-23 0 -37.5 -17.5t-14.5 -43.5q0 -24 14.5 -40t36.5 -16q23 0 37.5 18t14.5 44q0 23 -14 39t-37 16zM314 510q88 0 137 -44.5t49 -132.5q0 -12 -1 -38t-1.5 -56t-1.5 -55t-1 -36q0 -29 9 -48.5t37 -19.5q6 0 15 1t20 3l4 -14q-24 -40 -62.5 -60t-79.5 -20q-43 0 -73 18.5 t-40 48.5q-23 -30 -63.5 -48.5t-86.5 -18.5q-58 0 -96.5 30.5t-38.5 86.5q0 76 76 118t204 44v125q0 66 -47 66q-25 0 -40 -17.5t-15 -57.5q0 -9 1 -22.5t3 -27.5q-22 -11 -42.5 -15.5t-38.5 -4.5q-34 0 -56 13.5t-22 39.5q0 25 20.5 50t56 46t80.5 33.5t94 12.5zM220 142 q0 -31 15 -46.5t40 -15.5q30 0 45 14v141q-47 -6 -73.5 -29t-26.5 -64z" />
<glyph unicode="&#x1fc;" horiz-adv-x="927" d="M607 940l13 2q29 -10 53.5 -31.5t24.5 -44.5q0 -31 -25.5 -50t-69 -29t-98 -13.5t-112.5 -3.5l-5 19q42 23 84 50.5t77.5 54t57.5 46.5zM412 635h-86l-90 -270l176 -2v272zM10 0l-2 25q15 7 27 12.5t22 12.5q10 8 18 17.5t13 25.5l189 535l-75 37l2 25h664 q4 -25 6.5 -47.5t2.5 -58.5q0 -40 -3.5 -72t-11.5 -62h-30l-41 90q-13 27 -26.5 51t-25.5 40q-15 2 -32 3t-31 1h-79v-270l180 10l-3 -70l-177 10v-260h89q14 0 31 1t32 3q12 16 25.5 40t26.5 51l41 90h30q8 -30 11.5 -62t3.5 -72q0 -36 -2.5 -58.5t-6.5 -47.5h-539l-2 25 l30 15q23 11 34 23t11 34v220l-193 -2l-87 -261l75 -29l-2 -25h-195z" />
<glyph unicode="&#x1fd;" horiz-adv-x="799" d="M584 711q0 -27 -30.5 -54.5t-84 -52t-123.5 -42.5l-11 16q32 46 62.5 96.5t46.5 84.5l11 8q8 1 17 1h17q37 0 66 -12.5t29 -44.5zM320 394q0 66 -47 66q-25 0 -40 -17.5t-15 -57.5q0 -9 1 -22.5t3 -27.5q-22 -11 -42.5 -15.5t-38.5 -4.5q-34 0 -56 13.5t-22 39.5 q0 25 19.5 50t52.5 46t75.5 33.5t88.5 12.5q82 0 126 -45q64 45 145 45q57 0 103.5 -24.5t74 -69t27.5 -105.5v-26.5t-1 -18.5l-15 -15h-266q8 -75 43 -110.5t99 -35.5q35 0 66.5 9.5t54.5 22.5l15 -12q-16 -36 -42.5 -67t-67 -49.5t-97.5 -18.5q-64 0 -114 23.5t-82 65.5 q-30 -40 -79.5 -64.5t-107.5 -24.5q-62 0 -101.5 30t-39.5 87q0 76 76 118t204 44v125zM553 460q-33 0 -48 -46t-15 -112v-10l104 6q0 8 0.5 18.5t0.5 22.5q0 68 -10 94.5t-32 26.5zM220 142q0 -31 16 -46.5t43 -15.5q38 0 66 36q-26 55 -26 119q-47 -6 -73 -29t-26 -64z " />
<glyph unicode="&#x1fe;" horiz-adv-x="760" d="M457 940l13 2q29 -10 53.5 -31.5t24.5 -44.5q0 -31 -25.5 -50t-69 -29t-98 -13.5t-112.5 -3.5l-5 19q42 23 84 50.5t77.5 54t57.5 46.5zM40 345q0 86 27 152t74.5 111t109 68.5t130.5 23.5q127 0 214 -65l52 60l43 -35l-54 -62q39 -44 61.5 -106t22.5 -142 q0 -115 -45 -195.5t-122.5 -122.5t-173.5 -42q-126 0 -213 67l-54 -62l-42 36l55 63q-40 45 -62.5 108.5t-22.5 142.5zM230 345q0 -66 9 -120l267 308q-18 53 -49 82.5t-76 29.5q-72 0 -111 -81.5t-40 -218.5zM530 350q0 65 -8 117l-267 -307q19 -55 51 -85t76 -30 q49 0 81.5 39t49.5 107.5t17 158.5z" />
<glyph unicode="&#x1ff;" horiz-adv-x="564" d="M425 711q0 -27 -30.5 -54.5t-84 -52t-123.5 -42.5l-11 16q32 46 62.5 96.5t46.5 84.5l11 8q8 1 17 1h17q37 0 66 -12.5t29 -44.5zM532 250q0 -77 -32.5 -135.5t-89.5 -91.5t-133 -33q-91 0 -154 50l-41 -44l-40 38l42 45q-25 33 -38.5 76t-13.5 95q0 77 32.5 135.5 t90 91.5t132.5 33q91 0 154 -49l40 43l41 -37l-42 -45q25 -33 38.5 -76.5t13.5 -95.5zM217 250v-28l126 134q-5 57 -19 80.5t-40 23.5q-36 0 -51.5 -48.5t-15.5 -161.5zM347 250v29l-127 -135q5 -59 19 -81.5t41 -22.5q38 0 52.5 46t14.5 164z" />
<glyph unicode="&#x218;" horiz-adv-x="562" d="M239 -10q-42 0 -81 4t-67.5 11.5t-39.5 18.5q-10 10 -14.5 28.5t-4.5 41.5q0 37 10.5 75t29.5 66l30 -3q10 -49 22.5 -86.5t34.5 -62.5q21 -24 48.5 -33.5t52.5 -9.5q46 0 68 25t22 62q0 40 -22 69.5t-57.5 53.5t-74.5 48t-74.5 51.5t-57.5 63.5t-22 86q0 67 38.5 111.5 t102.5 67t140 22.5q41 0 79.5 -5.5t67 -14t37.5 -17.5q9 -8 11.5 -23.5t2.5 -27.5q0 -19 -4 -48t-13 -58t-23 -51l-30 2q-10 53 -22.5 87.5t-23.5 52.5q-12 21 -32 37t-55 16q-45 0 -70.5 -28t-25.5 -69q0 -39 22 -68t57.5 -53t74.5 -47.5t74.5 -52t57.5 -66.5t22 -91 q0 -67 -36 -107.5t-101 -59t-154 -18.5zM368 -160q0 -43 -22 -83t-55 -70.5t-67 -43.5l-12 11q13 18 27 48.5t21 63.5q-29 6 -46.5 26.5t-17.5 48.5q0 40 24.5 65t60.5 25q40 0 63.5 -24.5t23.5 -66.5z" />
<glyph unicode="&#x219;" horiz-adv-x="483" d="M205 -10q-52 0 -96 8t-58 21q-19 19 -19 63q0 29 10.5 55.5t29.5 45.5l15 -3q8 -34 21.5 -58.5t28.5 -41.5q17 -19 35 -29.5t42 -10.5q29 0 43 14.5t14 36.5q0 27 -16.5 46.5t-42.5 36.5t-55 34t-55 37t-42.5 47t-16.5 64q0 51 32 85.5t86 51.5t119 17q50 0 91 -8.5 t52 -18.5q14 -12 14 -48q0 -22 -9 -53.5t-31 -54.5l-15 2q-10 35 -20 56t-21 37q-10 14 -24 26t-40 12q-25 0 -39.5 -14t-14.5 -37q0 -26 16.5 -45.5t42.5 -36.5t55 -34t55 -37.5t42.5 -48t16.5 -66.5q0 -76 -68 -113.5t-178 -37.5zM330 -160q0 -43 -22 -83t-55 -70.5 t-67 -43.5l-12 11q13 18 27 48.5t21 63.5q-29 6 -46.5 26.5t-17.5 48.5q0 40 24.5 65t60.5 25q40 0 63.5 -24.5t23.5 -66.5z" />
<glyph unicode="&#x21a;" horiz-adv-x="668" d="M427 62l75 -37l-2 -25h-331l-2 25l30 15q23 11 34 23t11 34v538h-17q-14 0 -31 -1t-32 -3q-12 -16 -25.5 -40t-26.5 -51l-41 -90h-30q-7 30 -11 62t-4 72q0 36 2.5 58.5t6.5 47.5h602q4 -25 6.5 -47.5t2.5 -58.5q0 -40 -3.5 -72t-11.5 -62h-30l-41 90q-13 27 -26.5 51 t-25.5 40q-15 2 -32 3t-31 1h-16v-573zM405 -160q0 -43 -22 -83t-55 -70.5t-67 -43.5l-12 11q13 18 27 48.5t21 63.5q-29 6 -46.5 26.5t-17.5 48.5q0 40 24.5 65t60.5 25q40 0 63.5 -24.5t23.5 -66.5z" />
<glyph unicode="&#x21b;" horiz-adv-x="415" d="M407 125q-14 -32 -38.5 -63.5t-62 -51.5t-89.5 -20q-70 0 -107.5 42.5t-37.5 127.5v270h-63l-2 20l66 55l159 135l20 -2v-158h125v-50h-125v-245q0 -37 15 -58.5t49 -21.5q23 0 41.5 9t34.5 23zM311 -160q0 -43 -22 -83t-55 -70.5t-67 -43.5l-12 11q13 18 27 48.5 t21 63.5q-29 6 -46.5 26.5t-17.5 48.5q0 40 24.5 65t60.5 25q40 0 63.5 -24.5t23.5 -66.5z" />
<glyph unicode="&#x232;" horiz-adv-x="701" d="M222 815v86h352v-86h-352zM443 62l75 -37l-2 -25h-331l-2 25l30 15q23 11 34 23t11 34v203l-167 296q-16 29 -30 39t-33 20l-20 10l2 25h342l2 -25l-76 -28l142 -286l146 287l-75 27l2 25h198l2 -25q-16 -7 -27.5 -13t-20.5 -14q-18 -13 -34 -41l-168 -298v-237z" />
<glyph unicode="&#x233;" horiz-adv-x="548" d="M118 612v82h352v-82h-352zM281 0h-66l-146 406q-5 14 -13 26.5t-15 19.5q-6 7 -15 14t-26 14l2 20h308l2 -20l-62 -33l86 -284l97 285l-71 32l2 20h182l2 -20q-16 -5 -27.5 -12t-21.5 -15q-9 -8 -15.5 -19.5t-12.5 -26.5l-166 -457q-28 -79 -57 -125t-58.5 -65.5 t-61.5 -19.5q-37 0 -58.5 26t-21.5 66q0 32 14 63l10 4q16 -5 32 -7.5t27 -2.5q28 0 58 13t55 37.5t37 60.5z" />
<glyph unicode="&#x237;" horiz-adv-x="332" d="M5 -240q75 96 75 270v374l-58 34l-2 14q30 15 70.5 27t83 20.5t78.5 10.5l8 -8v-512q0 -50 -21.5 -94t-57 -77.5t-78 -54t-83.5 -24.5z" />
<glyph unicode="&#x259;" horiz-adv-x="530" d="M247 -10q-60 0 -108.5 24.5t-77.5 70t-29 106.5v28t1 19l15 15h268q-2 107 -19 157t-50 50q-25 0 -40 -17t-15 -56q0 -8 1 -20.5t3 -25.5q-22 -11 -42.5 -15.5t-38.5 -4.5q-34 0 -56 13.5t-22 39.5q0 32 30.5 63t79.5 52t105 21q76 0 132 -31t87 -87t31 -132 q0 -81 -34 -142t-92 -94.5t-129 -33.5zM212 163q0 -70 10 -96.5t32 -26.5t36 22.5t20.5 61.5t6.5 86v2l-104 -6q0 -9 -0.5 -19.5t-0.5 -23.5z" />
<glyph unicode="&#x272;" horiz-adv-x="645" d="M565 55l65 -35l-2 -20h-306l-2 20l30 16q18 10 26.5 23.5t8.5 37.5v240q0 38 -14 55.5t-45 17.5q-17 0 -33 -4.5t-33 -12.5v-403q0 -50 -21.5 -94t-57 -77.5t-78 -54t-83.5 -24.5l-15 20q75 96 75 270v374l-58 34l-2 14q30 15 70.5 27t83 20.5t78.5 10.5l8 -8v-60 q79 68 165 68q66 0 103 -38.5t37 -111.5v-305z" />
<glyph unicode="&#x2c6;" horiz-adv-x="460" d="M394 577l-16 -11q-34 22 -71.5 45t-74.5 42q-34 -20 -73 -42.5t-79 -44.5l-14 14q32 47 62 93t51 82l11 8h95q33 -49 61.5 -98t47.5 -88z" />
<glyph unicode="&#x2c7;" horiz-adv-x="460" d="M281 575l-11 -8h-95q-33 49 -61.5 98t-47.5 88l16 11q34 -22 71.5 -45t74.5 -42q34 20 73 42.5t79 44.5l14 -14q-32 -46 -62 -92.5t-51 -82.5z" />
<glyph unicode="&#x2d8;" horiz-adv-x="428" d="M338 754l5 2l19 -4q-5 -79 -47 -127t-106 -48t-103 48.5t-40 127.5l23 4q8 -33 41 -52.5t85 -19.5q47 0 80 18.5t43 50.5z" />
<glyph unicode="&#x2d9;" horiz-adv-x="330" d="M264 677q0 -46 -31 -77t-77 -31q-39 0 -64.5 25t-25.5 61q0 29 15.5 52.5t41.5 38t56 14.5q35 0 60 -22.5t25 -60.5z" />
<glyph unicode="&#x2da;" horiz-adv-x="367" d="M180 568q-51 0 -82.5 25.5t-31.5 67.5q0 45 34 73.5t88 28.5q50 0 81.5 -25.5t31.5 -66.5q0 -44 -34 -73.5t-87 -29.5zM184 724q-23 0 -37.5 -17.5t-14.5 -43.5q0 -24 14.5 -40t36.5 -16q23 0 37.5 18t14.5 44q0 23 -14 39t-37 16z" />
<glyph unicode="&#x2db;" horiz-adv-x="391" d="M301 -182q-19 -37 -53 -57.5t-76 -20.5q-46 0 -76 28t-30 73q0 68 67 112t188 58l4 -11q-56 -18 -87.5 -53t-31.5 -72q0 -22 12.5 -34.5t34.5 -12.5q23 0 44 4z" />
<glyph unicode="&#x2dc;" horiz-adv-x="514" d="M88 594l-20 6q-1 7 -1.5 13.5t-0.5 13.5q0 34 11.5 64t36 49t61.5 19q36 0 71 -10.5t68 -23.5t63 -23l49 55l20 -6q1 -8 1.5 -16t0.5 -19q0 -31 -11.5 -59.5t-35.5 -46.5t-62 -18q-35 0 -70.5 10.5t-68.5 24t-63 22.5z" />
<glyph unicode="&#x2dd;" horiz-adv-x="538" d="M282 711q0 -27 -26 -54.5t-72.5 -52t-106.5 -42.5l-11 16q32 46 61 96.5t45 84.5l11 8q8 1 17 1h17q26 0 45.5 -12.5t19.5 -44.5zM472 711q0 -27 -26.5 -54.5t-72.5 -52t-106 -42.5l-11 16q32 46 61 96.5t45 84.5l11 8q8 1 17 1h17q26 0 45.5 -12.5t19.5 -44.5z" />
<glyph unicode="&#x326;" horiz-adv-x="304" d="M238 -160q0 -43 -22 -83t-55 -70.5t-67 -43.5l-12 11q13 18 27 48.5t21 63.5q-29 6 -46.5 26.5t-17.5 48.5q0 40 24.5 65t60.5 25q40 0 63.5 -24.5t23.5 -66.5z" />
<glyph unicode="&#x394;" horiz-adv-x="608" d="M245 690h118l237 -670l-2 -20h-588l-2 20zM389 50l-154 471l-159 -471h313z" />
<glyph unicode="&#x3bc;" horiz-adv-x="656" d="M259 -215q0 -18 -17 -25.5t-54.5 -10.5t-97.5 -9l-8 8q-2 177 -1.5 350t7.5 367q1 14 5 21.5t17 9.5q18 3 46 5.5t57.5 5t49.5 3.5l8 -8q-4 -35 -6 -73.5t-2 -89v-123.5q0 -56 16 -74t53 -18q27 0 55 14q0 22 0.5 46t0.5 46q0 53 1 102t2 85t1 48q0 14 4.5 21t17.5 10 q17 4 45.5 6.5t58.5 4.5t50 3l8 -8q-3 -31 -5 -65t-2.5 -83t-0.5 -124q0 -82 7.5 -116t39.5 -34q12 0 20 1.5t14 2.5l4 -14q-20 -34 -57.5 -57t-85.5 -23q-50 0 -78.5 26t-37.5 60q-2 6 -3 14q-10 -46 -33.5 -73t-56.5 -27q-26 0 -50 22.5t-34 69.5l-5 -1l14 -79 q4 -23 9.5 -57t11 -68.5t9 -60t3.5 -31.5z" />
<glyph unicode="&#x3c0;" horiz-adv-x="604" d="M222 47q-7 -34 -26 -45.5t-57 -11.5q-32 0 -59 10l-8 8q26 88 50.5 179.5t34.5 172.5h-27h-29q-28 0 -44.5 -15t-28.5 -45l-20 2q2 53 8.5 106t19.5 97q26 3 54.5 4t58.5 1q32 0 81.5 -1.5t104 -3.5t101.5 -3.5t72 -1.5q36 0 48.5 8t19.5 27l20 -2q-1 -43 -9.5 -93.5 t-21.5 -94.5q-49 4 -93 7q-2 -19 -3.5 -41.5t-1.5 -49.5q0 -101 18.5 -141t64.5 -40q8 0 16 1.5t15 2.5l4 -14q-18 -29 -50 -54.5t-75 -25.5q-60 0 -83 44.5t-23 141.5q0 38 3 83t8 98q-28 1 -54.5 1.5t-52.5 1.5q-6 -99 -15.5 -183t-20.5 -130z" />
<glyph unicode="&#x1e0c;" horiz-adv-x="762" d="M357 635h-60v-580h60q83 0 128.5 72t46.5 218t-45.5 218t-129.5 72zM479 -152q0 -46 -31 -77t-77 -31q-39 0 -64.5 25t-25.5 61q0 29 15.5 52.5t41.5 38t56 14.5q35 0 60 -22.5t25 -60.5zM722 345q0 -114 -46.5 -190.5t-127.5 -115.5t-186 -39h-323l-2 25l30 15 q23 11 34 23t11 34v531l-75 37l2 25h323q106 0 187 -39t127 -115.5t46 -190.5z" />
<glyph unicode="&#x1e0d;" horiz-adv-x="617" d="M622 70q-22 -37 -59 -58.5t-84 -21.5q-44 0 -72 18.5t-42 51.5q-22 -31 -57.5 -50.5t-81.5 -19.5q-58 0 -102 31.5t-68 86.5t-24 127q0 86 34.5 147.5t96.5 94.5t145 33q26 0 49 -4v148l-78 34l-2 14q34 15 77 27t89 20.5t86 10.5l8 -8v-607q0 -32 11 -48.5t36 -16.5 q11 0 19.5 1.5t14.5 2.5zM217 269q0 -87 25 -138t72 -51q12 0 24 3.5t19 9.5v360q-16 7 -35 7q-51 0 -78 -50t-27 -141zM422 -152q0 -46 -31 -77t-77 -31q-39 0 -64.5 25t-25.5 61q0 29 15.5 52.5t41.5 38t56 14.5q35 0 60 -22.5t25 -60.5z" />
<glyph unicode="&#x1e24;" horiz-adv-x="834" d="M297 62l75 -37l-2 -25h-331l-2 25l30 15q23 11 34 23t11 34v531l-75 37l2 25h331l2 -25l-30 -15q-23 -11 -34 -22.5t-11 -34.5v-216h240v251l-75 37l2 25h331l2 -25l-30 -15q-23 -11 -34 -22.5t-11 -34.5v-531l75 -37l-2 -25h-331l-2 25l30 15q23 11 34 23t11 34v223 h-240v-258zM505 -152q0 -46 -31 -77t-77 -31q-39 0 -64.5 25t-25.5 61q0 29 15.5 52.5t41.5 38t56 14.5q35 0 60 -22.5t25 -60.5z" />
<glyph unicode="&#x1e25;" horiz-adv-x="645" d="M260 55l65 -35l-2 -20h-306l-2 20l30 16q18 10 26.5 23.5t8.5 37.5v557l-58 34l-2 14q30 15 70.5 27t83 20.5t78.5 10.5l8 -8v-309q42 35 83.5 51t81.5 16q66 0 103 -38.5t37 -111.5v-305l65 -35l-2 -20h-231l-12 12v325q0 38 -14.5 55.5t-45.5 17.5q-30 0 -65 -17v-338z M408 -152q0 -46 -31 -77t-77 -31q-39 0 -64.5 25t-25.5 61q0 29 15.5 52.5t41.5 38t56 14.5q35 0 60 -22.5t25 -60.5z" />
<glyph unicode="&#x1e44;" horiz-adv-x="748" d="M514 865q0 -45 -32.5 -74.5t-79.5 -29.5q-40 0 -67 24t-27 58q0 28 16 50.5t43 36.5t58 14q37 0 63 -21.5t26 -57.5zM172 62l95 -37l-2 -25h-226l-2 25l30 15q23 11 34 23t11 34v531l-37 19l-38 18l2 25h233l320 -471v409l-75 37l2 25h206l2 -25l-30 -15 q-23 -11 -34 -22.5t-11 -34.5v-593h-120l-360 513v-451z" />
<glyph unicode="&#x1e45;" horiz-adv-x="653" d="M428 678q0 -46 -31 -77t-77 -31q-39 0 -64.5 25t-25.5 61q0 29 15.5 52.5t41.5 38t56 14.5q35 0 60 -22.5t25 -60.5zM268 55l65 -35l-2 -20h-306l-2 20l30 16q18 10 26.5 23.5t8.5 37.5v307l-58 34l-2 14q30 15 70.5 27t83 20.5t78.5 10.5l8 -8v-60q79 68 165 68 q66 0 103 -38.5t37 -111.5v-305l65 -35l-2 -20h-231l-12 12v325q0 38 -14 55.5t-45 17.5q-17 0 -33 -4.5t-33 -12.5v-338z" />
<glyph unicode="&#x1e5a;" horiz-adv-x="759" d="M352 635h-55v-300h55q55 0 85 42t30 109q0 68 -30 108.5t-85 40.5zM495 -152q0 -46 -31 -77t-77 -31q-39 0 -64.5 25t-25.5 61q0 29 15.5 52.5t41.5 38t56 14.5q35 0 60 -22.5t25 -60.5zM297 62l75 -37l-2 -25h-331l-2 25l30 15q23 11 34 23t11 34v531l-75 37l2 25h338 q132 0 206 -53.5t74 -139.5q0 -45 -18 -79t-46 -59t-59 -40l42 -69q28 -46 49 -85.5t43.5 -71t53.5 -53.5l29 -20l-2 -20l-185 -5q-37 -1 -56 15t-36 47l-114 223h-61v-218z" />
<glyph unicode="&#x1e5b;" horiz-adv-x="458" d="M268 55l85 -35l-2 -20h-326l-2 20l30 16q18 10 26.5 23.5t8.5 37.5v307l-58 34l-2 14q30 15 70.5 27t83 20.5t78.5 10.5l8 -8v-77q30 41 60.5 63t61.5 22q29 0 48.5 -18.5t19.5 -53.5t-16.5 -62.5t-30.5 -42.5h-20q-24 15 -52 26.5t-61 18.5l-10 -4v-319zM275 -152 q0 -46 -31 -77t-77 -31q-39 0 -64.5 25t-25.5 61q0 29 15.5 52.5t41.5 38t56 14.5q35 0 60 -22.5t25 -60.5z" />
<glyph unicode="&#x1e62;" horiz-adv-x="562" d="M239 -10q-42 0 -81 4t-67.5 11.5t-39.5 18.5q-10 10 -14.5 28.5t-4.5 41.5q0 37 10.5 75t29.5 66l30 -3q10 -49 22.5 -86.5t34.5 -62.5q21 -24 48.5 -33.5t52.5 -9.5q46 0 68 25t22 62q0 40 -22 69.5t-57.5 53.5t-74.5 48t-74.5 51.5t-57.5 63.5t-22 86q0 67 38.5 111.5 t102.5 67t140 22.5q41 0 79.5 -5.5t67 -14t37.5 -17.5q9 -8 11.5 -23.5t2.5 -27.5q0 -19 -4 -48t-13 -58t-23 -51l-30 2q-10 53 -22.5 87.5t-23.5 52.5q-12 21 -32 37t-55 16q-45 0 -70.5 -28t-25.5 -69q0 -39 22 -68t57.5 -53t74.5 -47.5t74.5 -52t57.5 -66.5t22 -91 q0 -67 -36 -107.5t-101 -59t-154 -18.5zM380 -152q0 -46 -31 -77t-77 -31q-39 0 -64.5 25t-25.5 61q0 29 15.5 52.5t41.5 38t56 14.5q35 0 60 -22.5t25 -60.5z" />
<glyph unicode="&#x1e63;" horiz-adv-x="483" d="M205 -10q-52 0 -96 8t-58 21q-19 19 -19 63q0 29 10.5 55.5t29.5 45.5l15 -3q8 -34 21.5 -58.5t28.5 -41.5q17 -19 35 -29.5t42 -10.5q29 0 43 14.5t14 36.5q0 27 -16.5 46.5t-42.5 36.5t-55 34t-55 37t-42.5 47t-16.5 64q0 51 32 85.5t86 51.5t119 17q50 0 91 -8.5 t52 -18.5q14 -12 14 -48q0 -22 -9 -53.5t-31 -54.5l-15 2q-10 35 -20 56t-21 37q-10 14 -24 26t-40 12q-25 0 -39.5 -14t-14.5 -37q0 -26 16.5 -45.5t42.5 -36.5t55 -34t55 -37.5t42.5 -48t16.5 -66.5q0 -76 -68 -113.5t-178 -37.5zM342 -152q0 -46 -31 -77t-77 -31 q-39 0 -64.5 25t-25.5 61q0 29 15.5 52.5t41.5 38t56 14.5q35 0 60 -22.5t25 -60.5z" />
<glyph unicode="&#x1e6c;" horiz-adv-x="668" d="M427 62l75 -37l-2 -25h-331l-2 25l30 15q23 11 34 23t11 34v538h-17q-14 0 -31 -1t-32 -3q-12 -16 -25.5 -40t-26.5 -51l-41 -90h-30q-7 30 -11 62t-4 72q0 36 2.5 58.5t6.5 47.5h602q4 -25 6.5 -47.5t2.5 -58.5q0 -40 -3.5 -72t-11.5 -62h-30l-41 90q-13 27 -26.5 51 t-25.5 40q-15 2 -32 3t-31 1h-16v-573zM417 -152q0 -46 -31 -77t-77 -31q-39 0 -64.5 25t-25.5 61q0 29 15.5 52.5t41.5 38t56 14.5q35 0 60 -22.5t25 -60.5z" />
<glyph unicode="&#x1e6d;" horiz-adv-x="415" d="M407 125q-14 -32 -38.5 -63.5t-62 -51.5t-89.5 -20q-70 0 -107.5 42.5t-37.5 127.5v270h-63l-2 20l66 55l159 135l20 -2v-158h125v-50h-125v-245q0 -37 15 -58.5t49 -21.5q23 0 41.5 9t34.5 23zM323 -152q0 -46 -31 -77t-77 -31q-39 0 -64.5 25t-25.5 61q0 29 15.5 52.5 t41.5 38t56 14.5q35 0 60 -22.5t25 -60.5z" />
<glyph unicode="&#x1e80;" horiz-adv-x="1067" d="M725 789l-5 -19q-58 0 -112.5 3.5t-98 13.5t-69 29t-25.5 50q0 23 25 44.5t53 31.5l13 -2q23 -20 58 -46.5t77 -54t84 -50.5zM397 0h-118l-191 596q-7 24 -19 33.5t-31 19.5l-30 16l2 25h337l2 -25l-75 -28l133 -463l100 334l-28 88q-7 24 -14 33.5t-26 19.5l-30 16l2 25 h327l2 -25l-75 -28l133 -463l138 462l-76 29l2 25h195l2 -25q-14 -7 -26 -12t-23 -11q-10 -7 -17.5 -17t-13.5 -28l-191 -597h-118l-137 426z" />
<glyph unicode="&#x1e81;" horiz-adv-x="786" d="M550 578l-11 -16q-69 18 -123 42.5t-84.5 52t-30.5 54.5q0 32 29 44.5t66 12.5h17t17 -1l11 -8q17 -34 47 -84.5t62 -96.5zM501 500l103 -309l66 258l-70 31l2 20h182l2 -20q-13 -4 -24.5 -10.5t-22.5 -15.5q-10 -8 -18 -19.5t-13 -27.5l-117 -407h-108l-91 268l-99 -268 h-108l-116 406q-4 16 -12.5 27.5t-15.5 18.5q-19 19 -41 28l2 20h308l2 -20l-62 -33l62 -257l111 310h78z" />
<glyph unicode="&#x1e82;" horiz-adv-x="1067" d="M650 940l13 2q29 -10 53.5 -31.5t24.5 -44.5q0 -31 -25.5 -50t-69 -29t-98 -13.5t-112.5 -3.5l-5 19q42 23 84 50.5t77.5 54t57.5 46.5zM397 0h-118l-191 596q-7 24 -19 33.5t-31 19.5l-30 16l2 25h337l2 -25l-75 -28l133 -463l100 334l-28 88q-7 24 -14 33.5t-26 19.5 l-30 16l2 25h327l2 -25l-75 -28l133 -463l138 462l-76 29l2 25h195l2 -25q-14 -7 -26 -12t-23 -11q-10 -7 -17.5 -17t-13.5 -28l-191 -597h-118l-137 426z" />
<glyph unicode="&#x1e83;" horiz-adv-x="786" d="M586 711q0 -27 -30.5 -54.5t-84 -52t-123.5 -42.5l-11 16q32 46 62.5 96.5t46.5 84.5l11 8q8 1 17 1h17q37 0 66 -12.5t29 -44.5zM501 500l103 -309l66 258l-70 31l2 20h182l2 -20q-13 -4 -24.5 -10.5t-22.5 -15.5q-10 -8 -18 -19.5t-13 -27.5l-117 -407h-108l-91 268 l-99 -268h-108l-116 406q-4 16 -12.5 27.5t-15.5 18.5q-19 19 -41 28l2 20h308l2 -20l-62 -33l62 -257l111 310h78z" />
<glyph unicode="&#x1e84;" horiz-adv-x="1067" d="M784 869q0 -39 -28.5 -65t-71.5 -26q-36 0 -58.5 21t-22.5 50q0 38 30 64.5t72 26.5q33 0 56 -19.5t23 -51.5zM543 869q0 -39 -28.5 -65t-71.5 -26q-36 0 -58.5 21t-22.5 50q0 38 30 64.5t72 26.5q33 0 56 -19.5t23 -51.5zM397 0h-118l-191 596q-7 24 -19 33.5t-31 19.5 l-30 16l2 25h337l2 -25l-75 -28l133 -463l100 334l-28 88q-7 24 -14 33.5t-26 19.5l-30 16l2 25h327l2 -25l-75 -28l133 -463l138 462l-76 29l2 25h195l2 -25q-14 -7 -26 -12t-23 -11q-10 -7 -17.5 -17t-13.5 -28l-191 -597h-118l-137 426z" />
<glyph unicode="&#x1e85;" horiz-adv-x="786" d="M655 677q0 -41 -28 -69t-69 -28q-34 0 -56 23t-22 54q0 40 29.5 68.5t69.5 28.5q32 0 54 -21t22 -56zM414 677q0 -41 -28 -69t-69 -28q-34 0 -56 23t-22 54q0 40 29.5 68.5t69.5 28.5q32 0 54 -21t22 -56zM501 500l103 -309l66 258l-70 31l2 20h182l2 -20 q-13 -4 -24.5 -10.5t-22.5 -15.5q-10 -8 -18 -19.5t-13 -27.5l-117 -407h-108l-91 268l-99 -268h-108l-116 406q-4 16 -12.5 27.5t-15.5 18.5q-19 19 -41 28l2 20h308l2 -20l-62 -33l62 -257l111 310h78z" />
<glyph unicode="&#x1e92;" horiz-adv-x="661" d="M594 0h-536l-10 50l357 585h-136q-14 0 -31 -1t-32 -3l-103 -181h-30q-7 30 -11 66t-4 68t2.5 56.5t6.5 49.5h536l10 -50l-356 -585h135q14 0 31 1t32 3l103 181h30q15 -57 15 -130q0 -30 -2.5 -57t-6.5 -53zM430 -152q0 -46 -31 -77t-77 -31q-39 0 -64.5 25t-25.5 61 q0 29 15.5 52.5t41.5 38t56 14.5q35 0 60 -22.5t25 -60.5z" />
<glyph unicode="&#x1e93;" horiz-adv-x="512" d="M477 78q0 -39 -9 -78h-426l-10 50l256 400h-120l-92 -134h-20q-17 54 -17 106q0 39 9 78h422l10 -50l-257 -400h125l92 134h20q17 -54 17 -106zM355 -152q0 -46 -31 -77t-77 -31q-39 0 -64.5 25t-25.5 61q0 29 15.5 52.5t41.5 38t56 14.5q35 0 60 -22.5t25 -60.5z" />
<glyph unicode="&#x1e9e;" horiz-adv-x="812" d="M780 170q0 -86 -67.5 -133t-191.5 -47q-50 0 -93.5 9t-56.5 25q-10 10 -14.5 28.5t-4.5 41.5q0 32 10.5 64.5t29.5 56.5l30 -3q6 -42 15.5 -73t21.5 -52q28 -47 73 -47q34 0 51 20.5t17 51.5q0 75 -48 133.5t-169 94.5l-2 39l143 184q-15 36 -43.5 61.5t-68.5 25.5 q-34 0 -60 -23.5t-40.5 -64t-14.5 -92.5v-434l-33 -36h-225l-2 25l30 15q23 11 34 23t11 34v343q0 74 41 133t112 93t160 34q77 0 139.5 -19.5t96.5 -54.5l4 -33l-123 -152q238 -100 238 -271z" />
<glyph unicode="&#x1ea0;" horiz-adv-x="716" d="M299 690h118l211 -596q8 -24 20 -33.5t30 -19.5l30 -16l-2 -25h-337l-2 25l75 28l-47 145l-215 -3l-48 -141l75 -29l-2 -25h-195l-2 25q15 7 27 12.5t22 12.5q10 8 18 17.5t13 25.5zM196 245l184 -2l-91 278zM381 -152q0 -46 -31 -77t-77 -31q-39 0 -64.5 25t-25.5 61 q0 29 15.5 52.5t41.5 38t56 14.5q35 0 60 -22.5t25 -60.5z" />
<glyph unicode="&#x1ea1;" horiz-adv-x="575" d="M314 510q88 0 137 -44.5t49 -132.5q0 -12 -1 -38t-1.5 -56t-1.5 -55t-1 -36q0 -29 9 -48.5t37 -19.5q6 0 15 1t20 3l4 -14q-24 -40 -62.5 -60t-79.5 -20q-43 0 -73 18.5t-40 48.5q-23 -30 -63.5 -48.5t-86.5 -18.5q-58 0 -96.5 30.5t-38.5 86.5q0 76 76 118t204 44v125 q0 66 -47 66q-25 0 -40 -17.5t-15 -57.5q0 -9 1 -22.5t3 -27.5q-22 -11 -42.5 -15.5t-38.5 -4.5q-34 0 -56 13.5t-22 39.5q0 25 20.5 50t56 46t80.5 33.5t94 12.5zM220 142q0 -31 15 -46.5t40 -15.5q30 0 45 14v141q-47 -6 -73.5 -29t-26.5 -64zM397 -152q0 -46 -31 -77 t-77 -31q-39 0 -64.5 25t-25.5 61q0 29 15.5 52.5t41.5 38t56 14.5q35 0 60 -22.5t25 -60.5z" />
<glyph unicode="&#x1eb8;" horiz-adv-x="627" d="M297 365l180 10l-3 -70l-177 10v-260h89q14 0 31 1t32 3q12 16 25.5 40t26.5 51l41 90h30q8 -30 11.5 -62t3.5 -72q0 -36 -2.5 -58.5t-6.5 -47.5h-539l-2 25l30 15q23 11 34 23t11 34v531l-75 37l2 25h529q4 -25 6.5 -47.5t2.5 -58.5q0 -40 -3.5 -72t-11.5 -62h-30 l-41 90q-13 27 -26.5 51t-25.5 40q-15 2 -32 3t-31 1h-79v-270zM411 -152q0 -46 -31 -77t-77 -31q-39 0 -64.5 25t-25.5 61q0 29 15.5 52.5t41.5 38t56 14.5q35 0 60 -22.5t25 -60.5z" />
<glyph unicode="&#x1eb9;" horiz-adv-x="526" d="M498 125q-17 -36 -45 -67t-70 -49.5t-102 -18.5q-75 0 -131 31t-87 87t-31 132q0 82 34 142.5t92 94t129 33.5q60 0 109 -24.5t77.5 -69t28.5 -105.5v-26.5t-1 -18.5l-15 -15h-266q8 -75 43 -110.5t99 -35.5q35 0 66.5 9.5t54.5 22.5zM280 460q-33 0 -48 -46t-15 -112 v-10l104 6q0 8 0.5 18.5t0.5 22.5q0 68 -10 94.5t-32 26.5zM366 -152q0 -46 -31 -77t-77 -31q-39 0 -64.5 25t-25.5 61q0 29 15.5 52.5t41.5 38t56 14.5q35 0 60 -22.5t25 -60.5z" />
<glyph unicode="&#x1ebc;" horiz-adv-x="627" d="M153 768l-20 6q-1 8 -1.5 16t-0.5 15q0 35 11.5 66t36 50.5t61.5 19.5q39 0 77.5 -10.5t75 -23.5t69.5 -23l49 63l20 -6q1 -9 1.5 -18t0.5 -21q0 -32 -11.5 -61.5t-35.5 -48t-62 -18.5q-39 0 -77.5 10.5t-75 24t-69.5 22.5zM297 365l180 10l-3 -70l-177 10v-260h89 q14 0 31 1t32 3q12 16 25.5 40t26.5 51l41 90h30q8 -30 11.5 -62t3.5 -72q0 -36 -2.5 -58.5t-6.5 -47.5h-539l-2 25l30 15q23 11 34 23t11 34v531l-75 37l2 25h529q4 -25 6.5 -47.5t2.5 -58.5q0 -40 -3.5 -72t-11.5 -62h-30l-41 90q-13 27 -26.5 51t-25.5 40q-15 2 -32 3 t-31 1h-79v-270z" />
<glyph unicode="&#x1ebd;" horiz-adv-x="526" d="M110 594l-20 6q-1 7 -1.5 13.5t-0.5 13.5q0 34 11.5 64t36 49t61.5 19q36 0 71 -10.5t68 -23.5t63 -23l49 55l20 -6q1 -8 1.5 -16t0.5 -19q0 -31 -11.5 -59.5t-35.5 -46.5t-62 -18q-35 0 -70.5 10.5t-68.5 24t-63 22.5zM498 125q-17 -36 -45 -67t-70 -49.5t-102 -18.5 q-75 0 -131 31t-87 87t-31 132q0 82 34 142.5t92 94t129 33.5q60 0 109 -24.5t77.5 -69t28.5 -105.5v-26.5t-1 -18.5l-15 -15h-266q8 -75 43 -110.5t99 -35.5q35 0 66.5 9.5t54.5 22.5zM280 460q-33 0 -48 -46t-15 -112v-10l104 6q0 8 0.5 18.5t0.5 22.5q0 68 -10 94.5 t-32 26.5z" />
<glyph unicode="&#x1eca;" horiz-adv-x="409" d="M297 62l75 -37l-2 -25h-331l-2 25l30 15q23 11 34 23t11 34v531l-75 37l2 25h331l2 -25l-30 -15q-23 -11 -34 -22.5t-11 -34.5v-531zM294 -152q0 -46 -31 -77t-77 -31q-39 0 -64.5 25t-25.5 61q0 29 15.5 52.5t41.5 38t56 14.5q35 0 60 -22.5t25 -60.5z" />
<glyph unicode="&#x1ecb;" horiz-adv-x="348" d="M269 678q0 -46 -31 -77t-77 -31q-39 0 -64.5 25t-25.5 61q0 29 15.5 52.5t41.5 38t56 14.5q35 0 60 -22.5t25 -60.5zM268 55l65 -35l-2 -20h-306l-2 20l30 16q18 10 26.5 23.5t8.5 37.5v307l-58 34l-2 14q30 15 70.5 27t83 20.5t78.5 10.5l8 -8v-447zM264 -152 q0 -46 -31 -77t-77 -31q-39 0 -64.5 25t-25.5 61q0 29 15.5 52.5t41.5 38t56 14.5q35 0 60 -22.5t25 -60.5z" />
<glyph unicode="&#x1ecc;" horiz-adv-x="760" d="M40 345q0 86 27 152t74.5 111t109 68.5t130.5 23.5q97 0 173.5 -40t121 -117.5t44.5 -192.5t-45 -195.5t-122.5 -122.5t-173.5 -42q-98 0 -175 42t-120.5 121.5t-43.5 191.5zM230 345q-1 -137 39 -218.5t113 -81.5q49 0 81.5 39t49.5 107.5t17 158.5q1 135 -36.5 215 t-112.5 80q-72 0 -111 -81.5t-40 -218.5zM474 -152q0 -46 -31 -77t-77 -31q-39 0 -64.5 25t-25.5 61q0 29 15.5 52.5t41.5 38t56 14.5q35 0 60 -22.5t25 -60.5z" />
<glyph unicode="&#x1ecd;" horiz-adv-x="564" d="M532 250q0 -77 -32.5 -135.5t-89.5 -91.5t-133 -33q-74 0 -129 32.5t-85.5 91t-30.5 136.5q0 77 32.5 135.5t90 91.5t132.5 33q74 0 129 -32.5t85.5 -90.5t30.5 -137zM217 250q0 -81 5.5 -127t19.5 -64.5t38 -18.5q38 0 52.5 46t14.5 164q0 117 -14 163.5t-49 46.5 q-36 0 -51.5 -48.5t-15.5 -161.5zM376 -152q0 -46 -31 -77t-77 -31q-39 0 -64.5 25t-25.5 61q0 29 15.5 52.5t41.5 38t56 14.5q35 0 60 -22.5t25 -60.5z" />
<glyph unicode="&#x1ee4;" horiz-adv-x="682" d="M75 245v383l-75 37l2 25h331l2 -25l-30 -15q-23 -11 -34 -22.5t-11 -34.5v-352q0 -94 38.5 -142.5t102.5 -48.5q67 0 105.5 47t38.5 145v386l-75 37l2 25h206l2 -25l-75 -37v-383q0 -255 -255 -255q-128 0 -201.5 64t-73.5 191zM455 -152q0 -46 -31 -77t-77 -31 q-39 0 -64.5 25t-25.5 61q0 29 15.5 52.5t41.5 38t56 14.5q35 0 60 -22.5t25 -60.5z" />
<glyph unicode="&#x1ee5;" horiz-adv-x="653" d="M80 145v259l-58 34l-2 14q30 15 70.5 27t83 20.5t78.5 10.5l8 -8v-336q0 -42 15.5 -61.5t49.5 -19.5q30 0 60 14v305l-58 34l-2 14q30 15 70.5 27t83 20.5t78.5 10.5l8 -8v-357q0 -30 10.5 -47.5t32.5 -17.5q19 0 38 4l4 -14q-22 -37 -59.5 -58.5t-84.5 -21.5 q-42 0 -69.5 18t-41.5 48q-31 -29 -71 -47.5t-89 -18.5q-70 0 -112.5 40t-42.5 115zM442 -152q0 -46 -31 -77t-77 -31q-39 0 -64.5 25t-25.5 61q0 29 15.5 52.5t41.5 38t56 14.5q35 0 60 -22.5t25 -60.5z" />
<glyph unicode="&#x1ef2;" horiz-adv-x="701" d="M540 789l-5 -19q-58 0 -112.5 3.5t-98 13.5t-69 29t-25.5 50q0 23 25 44.5t53 31.5l13 -2q23 -20 58 -46.5t77 -54t84 -50.5zM443 62l75 -37l-2 -25h-331l-2 25l30 15q23 11 34 23t11 34v203l-167 296q-16 29 -30 39t-33 20l-20 10l2 25h342l2 -25l-76 -28l142 -286 l146 287l-75 27l2 25h198l2 -25q-16 -7 -27.5 -13t-20.5 -14q-18 -13 -34 -41l-168 -298v-237z" />
<glyph unicode="&#x1ef3;" horiz-adv-x="548" d="M411 578l-11 -16q-69 18 -123 42.5t-84.5 52t-30.5 54.5q0 32 29 44.5t66 12.5h17t17 -1l11 -8q17 -34 47 -84.5t62 -96.5zM281 0h-66l-146 406q-5 14 -13 26.5t-15 19.5q-6 7 -15 14t-26 14l2 20h308l2 -20l-62 -33l86 -284l97 285l-71 32l2 20h182l2 -20 q-16 -5 -27.5 -12t-21.5 -15q-9 -8 -15.5 -19.5t-12.5 -26.5l-166 -457q-28 -79 -57 -125t-58.5 -65.5t-61.5 -19.5q-37 0 -58.5 26t-21.5 66q0 32 14 63l10 4q16 -5 32 -7.5t27 -2.5q28 0 58 13t55 37.5t37 60.5z" />
<glyph unicode="&#x1ef8;" horiz-adv-x="701" d="M219 768l-20 6q-1 8 -1.5 16t-0.5 15q0 35 11.5 66t36 50.5t61.5 19.5q39 0 77.5 -10.5t75 -23.5t69.5 -23l49 63l20 -6q1 -9 1.5 -18t0.5 -21q0 -32 -11.5 -61.5t-35.5 -48t-62 -18.5q-39 0 -77.5 10.5t-75 24t-69.5 22.5zM443 62l75 -37l-2 -25h-331l-2 25l30 15 q23 11 34 23t11 34v203l-167 296q-16 29 -30 39t-33 20l-20 10l2 25h342l2 -25l-76 -28l142 -286l146 287l-75 27l2 25h198l2 -25q-16 -7 -27.5 -13t-20.5 -14q-18 -13 -34 -41l-168 -298v-237z" />
<glyph unicode="&#x1ef9;" horiz-adv-x="548" d="M117 594l-20 6q-1 7 -1.5 13.5t-0.5 13.5q0 34 11.5 64t36 49t61.5 19q36 0 71 -10.5t68 -23.5t63 -23l49 55l20 -6q1 -8 1.5 -16t0.5 -19q0 -31 -11.5 -59.5t-35.5 -46.5t-62 -18q-35 0 -70.5 10.5t-68.5 24t-63 22.5zM281 0h-66l-146 406q-5 14 -13 26.5t-15 19.5 q-6 7 -15 14t-26 14l2 20h308l2 -20l-62 -33l86 -284l97 285l-71 32l2 20h182l2 -20q-16 -5 -27.5 -12t-21.5 -15q-9 -8 -15.5 -19.5t-12.5 -26.5l-166 -457q-28 -79 -57 -125t-58.5 -65.5t-61.5 -19.5q-37 0 -58.5 26t-21.5 66q0 32 14 63l10 4q16 -5 32 -7.5t27 -2.5 q28 0 58 13t55 37.5t37 60.5z" />
<glyph unicode="&#x2007;" />
<glyph unicode="&#x2013;" horiz-adv-x="584" d="M24 251v50h536v-50h-536z" />
<glyph unicode="&#x2014;" horiz-adv-x="912" d="M24 251v50h864v-50h-864z" />
<glyph unicode="&#x2018;" horiz-adv-x="296" d="M246 747q-22 -25 -45 -67t-32 -88q39 -4 63 -29.5t24 -60.5q0 -30 -16 -55.5t-42.5 -41t-58.5 -15.5q-45 0 -72 27.5t-27 72.5t17 87.5t45 79t62 63.5t67 40z" />
<glyph unicode="&#x2019;" horiz-adv-x="296" d="M50 403q22 25 45 67t32 88q-39 4 -63 29.5t-24 60.5q0 30 16 55.5t43 41t58 15.5q45 0 72 -27.5t27 -72.5t-17 -87.5t-45 -79t-62 -63t-67 -40.5z" />
<glyph unicode="&#x201a;" horiz-adv-x="296" d="M50 -164q22 25 45 67t32 88q-39 4 -63 29.5t-24 60.5q0 30 16 55.5t43 41t58 15.5q45 0 72 -27.5t27 -72.5t-17 -87.5t-45 -79t-62 -63t-67 -40.5z" />
<glyph unicode="&#x201c;" horiz-adv-x="566" d="M246 747q-22 -25 -45 -67t-32 -88q39 -4 63 -29.5t24 -60.5q0 -30 -16 -55.5t-42.5 -41t-58.5 -15.5q-45 0 -72 27.5t-27 72.5t17 87.5t45 79t62 63.5t67 40zM516 747q-22 -25 -45 -67t-32 -88q39 -4 63 -29.5t24 -60.5q0 -30 -16 -55.5t-42.5 -41t-58.5 -15.5 q-45 0 -72 27.5t-27 72.5t17 87.5t45 79t62 63.5t67 40z" />
<glyph unicode="&#x201d;" horiz-adv-x="566" d="M320 403q22 25 45 67t32 88q-39 4 -63 29.5t-24 60.5q0 30 16 55.5t43 41t58 15.5q45 0 72 -27.5t27 -72.5t-17 -87.5t-45 -79t-62 -63t-67 -40.5zM50 403q22 25 45 67t32 88q-39 4 -63 29.5t-24 60.5q0 30 16 55.5t43 41t58 15.5q45 0 72 -27.5t27 -72.5t-17 -87.5 t-45 -79t-62 -63t-67 -40.5z" />
<glyph unicode="&#x201e;" horiz-adv-x="566" d="M320 -164q22 25 45 67t32 88q-39 4 -63 29.5t-24 60.5q0 30 16 55.5t43 41t58 15.5q45 0 72 -27.5t27 -72.5t-17 -87.5t-45 -79t-62 -63t-67 -40.5zM50 -164q22 25 45 67t32 88q-39 4 -63 29.5t-24 60.5q0 30 16 55.5t43 41t58 15.5q45 0 72 -27.5t27 -72.5t-17 -87.5 t-45 -79t-62 -63t-67 -40.5z" />
<glyph unicode="&#x2020;" horiz-adv-x="506" d="M358 124l-80 -124h-50l-80 124l72 324l-169 -48l-4 3q-3 32 -5 74.5t-2 82.5l14 8l160 -47l-66 168l3 4q40 3 94.5 5t104.5 2l8 -8l-66 -171l163 47l4 -3q2 -31 4.5 -74t2.5 -83l-14 -8l-166 48z" />
<glyph unicode="&#x2021;" horiz-adv-x="506" d="M151 693q40 3 94.5 5t104.5 2l8 -8l-66 -171l163 47l4 -3q2 -31 4.5 -74t2.5 -83l-14 -8l-161 47q8 -27 15 -54.5t7 -51.5t-6.5 -49t-15.5 -49l164 47l4 -3q3 -31 5 -74t2 -83l-14 -8l-160 47l66 -168l-3 -4q-40 -3 -94.5 -5t-104.5 -2l-8 8l66 171l-163 -47l-4 3 q-2 32 -4.5 74.5t-2.5 82.5l14 8l160 -47q-8 24 -14.5 49.5t-6.5 48.5q0 24 7 51.5t15 54.5l-164 -47l-4 3q-3 32 -5 74.5t-2 82.5l14 8l160 -47l-66 168z" />
<glyph unicode="&#x2022;" horiz-adv-x="484" d="M236 88q-45 0 -79.5 19t-54.5 51t-22 70q-1 47 23 86.5t64.5 63t88.5 23.5q60 0 103 -37.5t45 -102.5q2 -48 -19.5 -87t-60.5 -62.5t-88 -23.5z" />
<glyph unicode="&#x2026;" horiz-adv-x="830" d="M141 -10q-43 0 -71 27t-30 64q-1 31 14.5 56t42 40.5t57.5 15.5q39 0 67 -24.5t29 -66.5q2 -46 -30 -79t-79 -33zM411 -10q-43 0 -71 27t-30 64q-1 31 14.5 56t42 40.5t57.5 15.5q39 0 67 -24.5t29 -66.5q2 -46 -30 -79t-79 -33zM681 -10q-43 0 -71 27t-30 64 q-1 31 14.5 56t42 40.5t57.5 15.5q39 0 67 -24.5t29 -66.5q2 -46 -30 -79t-79 -33z" />
<glyph unicode="&#x2030;" horiz-adv-x="1498" d="M40 483q0 64 25 112.5t69.5 76.5t102.5 28q57 0 100 -27.5t66.5 -77t23.5 -114.5q0 -58 -25 -104.5t-69 -73.5t-103 -27q-57 0 -99.5 26t-66.5 73t-24 108zM762 700l-425 -710h-65l424 710h66zM178 482q0 -71 4 -106.5t16 -47.5t35 -12t35.5 13t17 49t4.5 104 q0 72 -5 110.5t-17 53t-33 14.5t-33.5 -16t-18 -54.5t-5.5 -107.5zM604 197q0 64 25 112.5t69.5 76.5t102.5 28q57 0 99.5 -27.5t66.5 -77t24 -114.5q0 -58 -25 -104.5t-69 -73.5t-103 -27q-57 0 -99.5 26t-66.5 73t-24 108zM1071 197q0 64 25 112.5t69.5 76.5t102.5 28 q57 0 99.5 -27.5t66.5 -77t24 -114.5q0 -58 -25 -104.5t-69 -73.5t-103 -27q-57 0 -99.5 26t-66.5 73t-24 108zM742 196q0 -71 4 -106.5t16 -47.5t35 -12t35.5 13t17 49t4.5 104q0 72 -5 110.5t-17 53t-33 14.5t-33.5 -16t-18 -54.5t-5.5 -107.5zM1209 196q0 -71 4 -106.5 t16 -47.5t35 -12t35.5 13t17 49t4.5 104q0 72 -5 110.5t-17 53t-33 14.5t-33.5 -16t-18 -54.5t-5.5 -107.5z" />
<glyph unicode="&#x2039;" horiz-adv-x="331" d="M270 31l-18 -11q-45 50 -94 97t-92 83l-6 9v90q56 53 108 102.5t87 86.5l16 -11q-21 -55 -43.5 -113t-43.5 -111q21 -49 43.5 -107t42.5 -115z" />
<glyph unicode="&#x203a;" horiz-adv-x="331" d="M271 209q-56 -52 -108 -101.5t-87 -87.5l-16 11q21 55 43.5 113t43.5 111q-21 49 -43.5 107t-42.5 115l18 11q45 -49 94 -96.5t92 -83.5l6 -9v-90z" />
<glyph unicode="&#x2044;" horiz-adv-x="250" d="M370 700l-425 -710h-65l424 710h66z" />
<glyph unicode="&#x2070;" horiz-adv-x="451" d="M32 543q0 64 25 112.5t69.5 76.5t102.5 28q57 0 100 -27.5t66.5 -77t23.5 -114.5q0 -58 -25 -104.5t-69 -73.5t-103 -27q-57 0 -99.5 26t-66.5 73t-24 108zM170 542q0 -71 4 -106.5t16 -47.5t35 -12t35.5 13t17 49t4.5 104q0 72 -5 110.5t-17 53t-33 14.5t-33.5 -16 t-18 -54.5t-5.5 -107.5z" />
<glyph unicode="&#x2071;" horiz-adv-x="318" d="M156 806q-35 0 -57.5 22t-22.5 52q0 37 30 64t70 27q31 0 53 -20t22 -52q0 -40 -27.5 -66.5t-67.5 -26.5zM238 414l54 -28l-2 -16h-253l-2 16l25 12q14 8 21 19.5t7 30.5v234l-47 28l-2 11q38 18 92.5 31t100.5 16l6 -6v-348z" />
<glyph unicode="&#x2074;" horiz-adv-x="440" d="M32 484l229 276l88 -8v-253h59l-5 -70h-54v-77h-134v77h-177zM101 499h114v135z" />
<glyph unicode="&#x2075;" horiz-adv-x="389" d="M68 750h278q0 -30 -5.5 -65.5t-14.5 -75.5l-16 2q-1 13 -8.5 18t-31.5 5h-141l-3 -65h35q91 0 143.5 -30.5t52.5 -83.5q0 -57 -51 -88t-137 -31q-62 0 -99.5 15.5t-37.5 40.5q0 22 25 36t62 10l8 -6q5 -24 17.5 -42t36.5 -18q46 0 46 47q0 37 -43.5 66.5t-114.5 34.5 l-8 9z" />
<glyph unicode="&#x2076;" horiz-adv-x="428" d="M396 467q0 -54 -49 -92.5t-135 -38.5q-54 0 -94.5 21.5t-63 59.5t-22.5 86q0 74 42 132.5t118.5 92t179.5 32.5l5 -19q-140 -60 -187 -164q15 -1 32 -0.5t33 0.5q65 0 103 -29.5t38 -80.5zM170 483q0 -23 5 -49.5t16.5 -44.5t30.5 -18t29.5 17t10.5 43q0 41 -22.5 66 t-56.5 25q-5 0 -9 3q-4 -21 -4 -42z" />
<glyph unicode="&#x2077;" horiz-adv-x="388" d="M347 750l9 -76q-50 -54 -77.5 -105.5t-40.5 -106.5t-19 -120h-137q5 45 25.5 87t49.5 79.5t61.5 69t61.5 56.5h-179q-21 0 -33 -4.5t-23 -15.5l-13 2q1 17 3.5 42.5t7.5 50.5t11 41h293z" />
<glyph unicode="&#x2078;" horiz-adv-x="430" d="M398 463q0 -31 -21.5 -60.5t-62.5 -48t-100 -18.5q-79 0 -130.5 26.5t-51.5 72.5q0 28 15 46t39 27.5t51 13.5q-33 21 -56.5 48t-23.5 66q0 53 46.5 88.5t125.5 35.5q63 0 105 -26t42 -68q0 -30 -22 -49.5t-59 -33.5q39 -21 71 -48.5t32 -71.5zM179 688q0 -29 26 -49.5 t60 -39.5q6 20 7 39t1 29q0 26 -11.5 42t-36.5 16q-19 0 -32.5 -10t-13.5 -27zM158 438q0 -31 16 -49t43 -18q23 0 37 12.5t14 30.5q0 28 -31 48.5t-69 41.5q-6 -17 -8 -33t-2 -33z" />
<glyph unicode="&#x2079;" horiz-adv-x="428" d="M396 577q0 -70 -43 -125.5t-119.5 -86.5t-179.5 -29l-4 19q139 55 186 154q-15 1 -31 0.5t-32 -0.5q-66 0 -103.5 32t-37.5 85q1 56 50 95t134 39q82 0 131 -51t49 -132zM246 564q4 0 8 -2q4 21 4 44q1 29 -3.5 56.5t-14.5 45t-26 17.5q-22 0 -34.5 -19t-13.5 -52 q0 -40 23 -65t57 -25z" />
<glyph unicode="&#x207f;" horiz-adv-x="569" d="M238 414l54 -28l-2 -16h-253l-2 16l25 12q14 8 21 19.5t7 30.5v234l-47 28l-2 11q38 18 92.5 31t100.5 16l6 -6v-47q65 53 136 53q54 0 84.5 -30t30.5 -87v-237l53 -28l-2 -16h-191l-10 10v252q0 29 -11.5 42t-36.5 13q-14 0 -27 -3.5t-26 -9.5v-260z" />
<glyph unicode="&#x2080;" horiz-adv-x="451" d="M32 121q0 64 25 112.5t69.5 76.5t102.5 28q57 0 100 -27.5t66.5 -77t23.5 -114.5q0 -58 -25 -104.5t-69 -73.5t-103 -27q-57 0 -99.5 26t-66.5 73t-24 108zM170 120q0 -71 4 -106.5t16 -47.5t35 -12t35.5 13t17 49t4.5 104q0 72 -5 110.5t-17 53t-33 14.5t-33.5 -16 t-18 -54.5t-5.5 -107.5z" />
<glyph unicode="&#x2081;" horiz-adv-x="316" d="M229 -41l55 -26l-1 -13h-249l-2 13l17 6q23 10 34.5 20.5t11.5 29.5v260l-61 16l-2 14l192 59l5 -4v-375z" />
<glyph unicode="&#x2082;" horiz-adv-x="381" d="M46 -80l-9 76q51 12 89 39.5t58.5 60.5t20.5 63q0 31 -20 47t-55 16q-25 0 -47 -9.5t-37 -18.5l-14 11q19 65 67 99t102 34q64 0 102.5 -33.5t38.5 -86.5q0 -36 -18 -66.5t-46.5 -54.5t-60 -42t-57.5 -29h122q21 0 33 5.5t21 15.5l13 -1q0 -14 -2.5 -38t-7 -48t-9.5 -40 h-284z" />
<glyph unicode="&#x2083;" horiz-adv-x="396" d="M98 86l-5 35q57 1 90.5 15t33.5 43q0 19 -15.5 31t-44.5 12q-22 0 -44.5 -9t-37.5 -17l-14 11q12 40 37.5 69.5t60 45.5t69.5 16q59 0 93 -28t34 -66q0 -37 -20.5 -58.5t-51 -31.5t-59.5 -13q57 -6 98.5 -34t41.5 -79q0 -42 -29 -67t-73 -36t-88 -11q-38 0 -70.5 6 t-52 18.5t-19.5 32.5q0 23 27 36t60 9l8 -6q5 -20 16.5 -40t41.5 -20q21 0 35 12t14 34q0 29 -15 49t-38.5 31t-49.5 11q-7 0 -16 0.5t-17 -1.5z" />
<glyph unicode="&#x2084;" horiz-adv-x="440" d="M32 62l229 276l88 -8v-253h59l-5 -70h-54v-77h-134v77h-177zM101 77h114v135z" />
<glyph unicode="&#x2085;" horiz-adv-x="389" d="M68 328h278q0 -30 -5.5 -65.5t-14.5 -75.5l-16 2q-1 13 -8.5 18t-31.5 5h-141l-3 -65h35q91 0 143.5 -30.5t52.5 -83.5q0 -57 -51 -88t-137 -31q-62 0 -99.5 15.5t-37.5 40.5q0 22 25 36t62 10l8 -6q5 -24 17.5 -42t36.5 -18q46 0 46 47q0 37 -43.5 66.5t-114.5 34.5 l-8 9z" />
<glyph unicode="&#x2086;" horiz-adv-x="428" d="M396 45q0 -54 -49 -92.5t-135 -38.5q-54 0 -94.5 21.5t-63 59.5t-22.5 86q0 74 42 132.5t118.5 92t179.5 32.5l5 -19q-140 -60 -187 -164q15 -1 32 -0.5t33 0.5q65 0 103 -29.5t38 -80.5zM170 61q0 -23 5 -49.5t16.5 -44.5t30.5 -18t29.5 17t10.5 43q0 41 -22.5 66 t-56.5 25q-5 0 -9 3q-4 -21 -4 -42z" />
<glyph unicode="&#x2087;" horiz-adv-x="388" d="M347 328l9 -76q-50 -54 -77.5 -105.5t-40.5 -106.5t-19 -120h-137q5 45 25.5 87t49.5 79.5t61.5 69t61.5 56.5h-179q-21 0 -33 -4.5t-23 -15.5l-13 2q1 17 3.5 42.5t7.5 50.5t11 41h293z" />
<glyph unicode="&#x2088;" horiz-adv-x="430" d="M398 41q0 -31 -21.5 -60.5t-62.5 -48t-100 -18.5q-79 0 -130.5 26.5t-51.5 72.5q0 28 15 46t39 27.5t51 13.5q-33 21 -56.5 48t-23.5 66q0 53 46.5 88.5t125.5 35.5q63 0 105 -26t42 -68q0 -30 -22 -49.5t-59 -33.5q39 -21 71 -48.5t32 -71.5zM179 266q0 -29 26 -49.5 t60 -39.5q6 20 7 39t1 29q0 26 -11.5 42t-36.5 16q-19 0 -32.5 -10t-13.5 -27zM158 16q0 -31 16 -49t43 -18q23 0 37 12.5t14 30.5q0 28 -31 48.5t-69 41.5q-6 -17 -8 -33t-2 -33z" />
<glyph unicode="&#x2089;" horiz-adv-x="428" d="M396 155q0 -70 -43 -125.5t-119.5 -86.5t-179.5 -29l-4 19q139 55 186 154q-15 1 -31 0.5t-32 -0.5q-66 0 -103.5 32t-37.5 85q1 56 50 95t134 39q82 0 131 -51t49 -132zM246 142q4 0 8 -2q4 21 4 44q1 29 -3.5 56.5t-14.5 45t-26 17.5q-22 0 -34.5 -19t-13.5 -52 q0 -40 23 -65t57 -25z" />
<glyph unicode="&#x2090;" horiz-adv-x="497" d="M266 328q72 0 112.5 -35t40.5 -105q0 -9 -0.5 -29t-1.5 -42.5t-1.5 -41.5t-0.5 -27q0 -30 9.5 -41.5t28.5 -11.5q10 0 28 3l4 -11q-20 -33 -51.5 -49t-66.5 -16t-60 14.5t-34 37.5q-18 -23 -51.5 -37.5t-71.5 -14.5q-47 0 -78.5 24.5t-31.5 67.5q0 60 62 92.5t167 33.5 v98q0 50 -37 50q-20 0 -32 -12.5t-12 -44.5q0 -7 0.5 -18t2.5 -22q-19 -9 -36 -12.5t-32 -3.5q-28 0 -46 10.5t-18 31.5q0 26 29 51.5t76.5 42.5t101.5 17zM190 43q0 -24 12 -36t32 -12q22 0 35 9v109q-37 -4 -58 -21.5t-21 -48.5z" />
<glyph unicode="&#x2091;" horiz-adv-x="443" d="M416 30q-21 -43 -63 -75.5t-116 -32.5q-93 0 -149 53.5t-56 141.5q0 64 28 111.5t76 73.5t106 26q50 0 90 -19t63.5 -54t23.5 -83v-20.5t-1 -14.5l-12 -12h-218q8 -57 36 -83t80 -26q29 0 54.5 7t44.5 17zM236 288q-26 0 -38 -35t-12 -85v-9l82 4q1 14 1 32q0 53 -8 73 t-25 20z" />
<glyph unicode="&#x2092;" horiz-adv-x="476" d="M444 125q0 -59 -26.5 -105t-74 -72t-110.5 -26q-91 0 -146 56t-55 147q0 60 26.5 105.5t74 71.5t109.5 26q61 0 106.5 -25.5t70.5 -71t25 -106.5zM186 125q0 -64 4.5 -99.5t15.5 -49.5t30 -14q30 0 41.5 35.5t11.5 127.5t-10.5 127.5t-39.5 35.5q-28 0 -40.5 -37 t-12.5 -126z" />
<glyph unicode="&#x2093;" horiz-adv-x="469" d="M217 278l73 -107l65 105l-53 28l1 16h161l1 -16q-25 -10 -43 -28q-10 -8 -18.5 -18t-16.5 -21l-76 -97l93 -135q16 -24 31 -38q15 -12 34 -21l-1 -16h-253l-2 16l45 26l-75 107l-63 -105l53 -28l-1 -16h-171l-1 16q28 10 49 27q11 9 20 19t18 21l75 96l-95 136 q-15 21 -30 36q-16 16 -33 23l1 16h255l2 -16z" />
<glyph unicode="&#x2095;" horiz-adv-x="561" d="M230 -26l54 -28l-2 -16h-253l-2 16l25 12q14 8 21 19.5t7 30.5v429l-47 28l-2 11q38 18 92.5 31t100.5 16l6 -6v-242q34 28 68.5 40.5t67.5 12.5q54 0 84.5 -30t30.5 -87v-237l53 -28l-2 -16h-191l-10 10v252q0 29 -12 42t-37 13q-24 0 -52 -13v-260z" />
<glyph unicode="&#x2096;" horiz-adv-x="538" d="M230 -26l54 -28l-2 -16h-253l-2 16l25 12q14 8 21 19.5t7 30.5v429l-47 28l-2 11q38 18 92.5 31t100.5 16l6 -6v-369h33l108 128l-70 28l1 16h207l2 -16q-16 -6 -29.5 -12.5t-26.5 -14.5q-13 -7 -25.5 -17t-27.5 -23l-34 -31l110 -203q8 -14 16.5 -24.5t20.5 -18.5 l23 -14l-1 -16h-134q-31 0 -47 11.5t-28 36.5l-64 130h-34v-134z" />
<glyph unicode="&#x2097;" horiz-adv-x="310" d="M230 -26l54 -28l-2 -16h-253l-2 16l25 12q14 8 21 19.5t7 30.5v429l-47 28l-2 11q38 18 92.5 31t100.5 16l6 -6v-543z" />
<glyph unicode="&#x2098;" horiz-adv-x="819" d="M238 -26l54 -28l-2 -16h-253l-2 16l25 12q14 8 21 19.5t7 30.5v234l-47 28l-2 11q38 18 92.5 31t100.5 16l6 -6v-47q65 53 136 53q80 0 105 -62q69 62 145 62q55 0 85 -30t30 -87v-237l53 -28l-2 -16h-191l-10 10v252q0 29 -11 42t-36 13q-14 0 -27.5 -3.5t-26.5 -9.5 q1 -11 1 -23v-237l53 -28l-2 -16h-191l-10 10v252q0 29 -11.5 42t-36.5 13q-14 0 -27 -3.5t-26 -9.5v-260z" />
<glyph unicode="&#x2099;" horiz-adv-x="569" d="M238 -26l54 -28l-2 -16h-253l-2 16l25 12q14 8 21 19.5t7 30.5v234l-47 28l-2 11q38 18 92.5 31t100.5 16l6 -6v-47q65 53 136 53q54 0 84.5 -30t30.5 -87v-237l53 -28l-2 -16h-191l-10 10v252q0 29 -11.5 42t-36.5 13q-14 0 -27 -3.5t-26 -9.5v-260z" />
<glyph unicode="&#x209a;" horiz-adv-x="529" d="M266 -38q35 0 55.5 39t20.5 106q0 69 -16.5 104.5t-54.5 35.5q-20 0 -41 -11v-267q14 -7 36 -7zM230 -221l70 -28l-2 -16h-269l-2 16l24 12q15 8 22 19t7 30v430l-47 28l-2 11q38 18 92.5 31t100.5 16l6 -6v-46q20 23 50 37.5t65 14.5q45 0 79.5 -24t53.5 -67t19 -100 q0 -103 -62 -159t-169 -56q-19 0 -36 1v-144z" />
<glyph unicode="&#x209b;" horiz-adv-x="409" d="M174 -78q-43 0 -79 6.5t-48 16.5q-15 15 -15 50q0 23 8.5 43.5t24.5 36.5l12 -3q7 -25 18 -44.5t24 -33.5q14 -15 29 -23.5t34 -8.5q23 0 34 11t11 27q0 24 -19 41.5t-46.5 33t-55 33t-46.5 41.5t-19 58q0 41 26.5 67.5t71 40t97.5 13.5q42 0 75.5 -6.5t42.5 -14.5 q12 -10 12 -38q0 -17 -7.5 -42t-26.5 -43l-12 2q-8 26 -16 42.5t-18 29.5q-7 11 -19 20.5t-33 9.5q-19 0 -31 -10t-12 -27q0 -24 19 -41.5t46.5 -32.5t55 -33t46.5 -42.5t19 -60.5q0 -60 -55.5 -89.5t-147.5 -29.5z" />
<glyph unicode="&#x209c;" horiz-adv-x="354" d="M346 30q-11 -25 -31.5 -50t-51 -41.5t-74.5 -16.5q-57 0 -88 33.5t-31 100.5v208h-51l-2 16l53 45l134 104l16 -1v-124h101v-40h-101v-188q0 -27 12 -43.5t40 -16.5q19 0 34 7t28 17z" />
<glyph unicode="&#x20ac;" horiz-adv-x="660" d="M32 230l7 60h69q-1 18 -1 36q0 17 1 34h-62l7 60h63q17 84 62 147t108 98t136 35q60 0 104.5 -17.5t69 -46.5t24.5 -64q0 -34 -22 -53t-57 -19q-12 0 -24.5 1t-20.5 3q-8 34 -18.5 67.5t-27.5 56t-43 22.5q-49 0 -79.5 -63t-34.5 -167h177l-7 -60h-171q2 -38 7 -70h157 l-7 -60h-136q40 -125 162 -125q41 0 76.5 13t61.5 29l15 -12q-15 -32 -43.5 -66t-72 -56.5t-105.5 -22.5q-114 0 -190.5 64.5t-99.5 175.5h-85z" />
<glyph unicode="&#x2122;" horiz-adv-x="665" d="M195 485l25 -13l-2 -12h-118l-2 12l12 6q13 6 13 24v167h-30q-3 -4 -7.5 -13t-9.5 -18l-18 -36h-12q-3 11 -4.5 25.5t-1.5 26.5t1 19.5t2 16.5h231q2 -9 2.5 -16.5t0.5 -19.5t-2 -26t-4 -26h-12l-18 37l-8.5 17t-8.5 13h-29v-184zM308 690h87l60 -137l59 137h92l2 -12 l-25 -14l17 -179l25 -13l-2 -12h-119l-2 12l9 5q10 5 13.5 10.5t2.5 15.5l-12 124l-71 -167h-25l-68 161l-13 -136l24 -13l-2 -12h-69l-2 12l8 4q16 8 17 23l17 165l-25 14z" />
<glyph unicode="&#x2202;" horiz-adv-x="673" d="M327 760q80 0 138 -29.5t95 -81.5t55 -120.5t18 -145.5q0 -50 -9.5 -105t-32 -106t-60 -92t-94 -65.5t-133.5 -24.5q-81 0 -140 28.5t-91.5 80t-32.5 120.5q0 70 35 128.5t102.5 94t166.5 35.5q29 0 54 -4t46 -11q-11 89 -53 141t-117 52q-48 0 -90 -19t-71 -44l-37 38 q21 28 56.5 58t84.5 51t110 21zM220 218q0 -79 29 -123.5t77 -44.5q55 0 88.5 74.5t33.5 222.5v45v11q-33 14 -80 14q-72 0 -110 -56t-38 -143z" />
<glyph unicode="&#x220f;" horiz-adv-x="769" d="M295 -132l-8 -8h-245l-2 25l30 15q23 11 34 23t11 34v671l-75 37l2 25h685l2 -25l-30 -15q-23 -11 -34 -22.5t-11 -34.5v-671l75 -37l-2 -25h-244l-8 8v767h-180v-767z" />
<glyph unicode="&#x2211;" horiz-adv-x="611" d="M26 -140l-10 50l258 310l-258 420l10 50h536q4 -25 6.5 -49.5t2.5 -56.5t-3.5 -68t-11.5 -66h-30l-103 181q-15 2 -32 3t-31 1h-136l203 -335l-321 -385h254q14 0 31 1t32 3l103 181h30q8 -30 11.5 -66t3.5 -68t-2.5 -56.5t-6.5 -49.5h-536z" />
<glyph unicode="&#x2212;" d="M530 303h-450v85q31 1 76 1.5t96.5 1.5t104 1.5t98 0.5h77.5l8 -8z" />
<glyph unicode="&#x221a;" horiz-adv-x="637" d="M0 500h260l132 -366l175 626l70 -20l-216 -740h-165l-174 445h-82v55z" />
<glyph unicode="&#x221e;" horiz-adv-x="840" d="M780 346q0 -56 -23 -100.5t-64.5 -70t-96.5 -25.5q-61 0 -101.5 30t-71.5 72q-35 -48 -82 -75t-104 -27q-52 0 -92 25t-62.5 69t-22.5 100t23 100.5t64.5 70t96.5 25.5q61 0 102.5 -29.5t71.5 -70.5q36 48 81.5 74t103.5 26q53 0 92.5 -25t62 -68.5t22.5 -100.5zM587 450 q-38 0 -71 -25t-52 -60l2 -4q28 -52 59 -86.5t74 -34.5q38 0 62 29t24 78q0 47 -27.5 75t-70.5 28zM155 347q0 -49 27 -77.5t71 -28.5q25 0 48.5 12.5t43.5 32t31 39.5l-2 4q-32 53 -60.5 87t-72.5 34q-37 0 -61.5 -27t-24.5 -76z" />
<glyph unicode="&#x222b;" horiz-adv-x="469" d="M288 712q-15 -13 -22 -30t-7 -46q0 -43 15.5 -131t39.5 -241q17 -111 28.5 -181t11.5 -117q0 -71 -23.5 -115.5t-62 -68.5t-82.5 -33t-85 -9q-55 0 -88 20.5t-33 50.5q0 27 24.5 47t61.5 31l9 -7q19 -40 43.5 -67t42.5 -27q15 13 22 30t7 46q0 43 -15 131.5t-39 242.5 q-17 109 -29 179.5t-12 116.5q0 71 23.5 115.5t62 68.5t82.5 33t85 9q56 0 88.5 -20.5t32.5 -50.5q0 -27 -24 -47t-62 -31l-9 7q-19 41 -43.5 67.5t-42.5 26.5z" />
<glyph unicode="&#x2248;" d="M441 387q-14 0 -42.5 5t-63 12.5t-68 15t-59 12.5t-35.5 5q-8 0 -23 -17t-34 -40l-51 34q13 24 31 52t39 47.5t44 19.5q14 0 42 -5t63 -12.5t68.5 -15t59.5 -12.5t35 -5q8 0 23 17.5t34 39.5l51 -34q-13 -24 -31 -52t-38.5 -47.5t-44.5 -19.5zM441 163q-14 0 -42.5 5 t-63 12.5t-68 15t-59 12.5t-35.5 5q-8 0 -23 -17t-34 -40l-51 34q13 24 31 52t39 47.5t44 19.5q14 0 42 -5t63 -12.5t68.5 -15t59.5 -12.5t35 -5q8 0 23 17.5t34 39.5l51 -34q-13 -24 -31 -52t-38.5 -47.5t-44.5 -19.5z" />
<glyph unicode="&#x2260;" d="M147 125l37 78h-104v85q27 1 65 1.5t81 1.5l54 112h-200v85q41 1 107 2t135 2l53 110l11 3l73 -40l-35 -72h108l8 -8l-10 -82h-149l-53 -111q59 0 113.5 0.5t90.5 0.5l8 -8l-10 -82h-245l-55 -115l-10 -3z" />
<glyph unicode="&#x2264;" d="M539 634v-90l-311 -113l312 -118v-90l-465 177v55l6 11q29 11 74.5 28t99 37t107.5 39.5t100.5 36.5t76.5 27zM530 74h-450v85q31 1 76 1.5t96.5 1.5t104 1.5t98 0.5h77.5l8 -8z" />
<glyph unicode="&#x2265;" d="M80 223v90l312 118l-311 113v90q30 -11 76.5 -27.5t100.5 -36t107.5 -39.5t99 -37t74.5 -28l6 -11v-55zM535 74h-450v85q31 1 76 1.5t96.5 1.5t104 1.5t98 0.5h77.5l8 -8z" />
<glyph unicode="&#x25ca;" horiz-adv-x="603" d="M40 319v46l209 325l97 10l217 -336v-45l-213 -319l-96 -10zM128 342l172 -280l175 280l-175 287z" />
<glyph unicode="&#x25fc;" horiz-adv-x="500" d="M0 500h500v-500h-500v500z" />
<glyph unicode="&#x2c7c;" horiz-adv-x="302" d="M148 366q-35 0 -57.5 21.5t-22.5 52.5q0 37 30 63.5t70 26.5q31 0 53 -20t22 -52q0 -39 -27.5 -65.5t-67.5 -26.5zM19 -257q31 37 46 91t15 120v288l-47 28l-2 11q38 18 92.5 31t100.5 16l6 -6v-400q0 -39 -18 -73.5t-47.5 -61.5t-64.5 -42.5t-69 -17.5z" />
<glyph unicode="&#xa7b6;" horiz-adv-x="886" d="M368 0h-343q-4 24 -6.5 48.5t-2.5 53.5q0 35 4 61t11 47h30l47 -80q11 -19 23 -38t23 -33q14 -2 30.5 -3t32.5 -1h91q-91 55 -146.5 135t-54.5 190q-1 93 40 165t117.5 113.5t179.5 41.5q102 0 177 -41.5t116.5 -113.5t41.5 -165q0 -110 -55.5 -190t-145.5 -135h91 q14 0 31 1t32 3q10 13 22 32t24 39l47 80h30q6 -19 10.5 -46.5t4.5 -61.5q0 -30 -2.5 -54.5t-6.5 -47.5h-343l-27 58q42 51 70 124.5t28 179.5q0 130 -34.5 206.5t-108.5 76.5q-77 0 -113.5 -76.5t-35.5 -206.5q-1 -106 27 -179.5t71 -124.5z" />
<glyph unicode="&#xfb01;" horiz-adv-x="705" d="M268 55l65 -35l-2 -20h-306l-2 20l30 16q18 10 26.5 23.5t8.5 37.5v333h-63l-2 20l65 35v25q0 50 21.5 95t59.5 80t89 55t111 20q64 0 115 -17t81 -45.5t30 -64.5q0 -34 -21.5 -53t-55.5 -19q-23 0 -43.5 4.5t-34.5 11.5q-7 33 -16.5 63.5t-26.5 50t-48 19.5 q-81 0 -81 -120v-110h193q38 12 79.5 19.5t76.5 10.5l8 -8v-447l65 -35l-2 -20h-306l-2 20l30 16q18 10 26.5 23.5t8.5 37.5v333h-177v-375z" />
<glyph unicode="&#xfb02;" horiz-adv-x="705" d="M268 55l65 -35l-2 -20h-306l-2 20l30 16q18 10 26.5 23.5t8.5 37.5v333h-63l-2 20l65 35v25q0 50 21.5 95t59.5 80t89 55t111 20q35 0 67 -5.5t58 -15.5q66 17 123 21l8 -8v-697l65 -35l-2 -20h-306l-2 20l30 16q18 10 26.5 23.5t8.5 37.5v333h-177v-375zM268 598v-118 h177v147q-12 35 -33.5 59t-62.5 24q-81 0 -81 -112z" />
<glyph unicode="&#xfb06;" horiz-adv-x="891" d="M730 570q0 -25 -5.5 -49t-11.5 -41h140v-50h-125v-245q0 -37 15 -58.5t49 -21.5q23 0 41.5 9t34.5 23l15 -12q-14 -32 -38.5 -63.5t-62 -51.5t-89.5 -20q-70 0 -107.5 42.5t-37.5 127.5v270h-63l-2 20q40 23 61.5 50.5t21.5 65.5q0 35 -24 59.5t-65 24.5q-35 0 -62.5 -20 t-44.5 -54t-22 -74q45 -13 71 -38.5t26 -55.5q0 -26 -17.5 -42t-44.5 -16q-30 0 -56 27t-29 81q-8 2 -16 2q-27 0 -43 -14.5t-16 -36.5q0 -26 16.5 -45.5t42.5 -36.5t55 -34t55 -37.5t42.5 -48t16.5 -66.5q0 -76 -68 -113.5t-178 -37.5q-52 0 -96 8t-58 21q-19 19 -19 63 q0 29 10.5 55.5t29.5 45.5l15 -3q8 -34 21.5 -58.5t28.5 -41.5q17 -19 35 -29.5t42 -10.5q29 0 43 14.5t14 36.5q0 27 -16.5 47t-42.5 37.5t-55 34.5t-55 37.5t-42.5 48t-16.5 64.5q0 48 33 81.5t87 51t118 17.5q10 0 20 -1q9 61 42 111t85 80t118 30q85 0 134.5 -44.5 t49.5 -115.5z" />
<glyph horiz-adv-x="520" d="M78 -78l-6 7v508l-47 28l-2 11q25 12 58.5 22t68.5 16.5t65 8.5l7 -6v-240q21 23 50.5 37t64.5 14q68 0 109.5 -53t41.5 -139q0 -100 -57 -157t-152 -57q-25 0 -50 4.5t-48 15.5zM251 -38q43 0 63 39.5t20 109.5q0 66 -17 101t-55 35q-19 0 -40 -11v-268q13 -6 29 -6z " />
<glyph horiz-adv-x="419" d="M405 228q0 -28 -20 -45t-54 -17q-14 0 -25 2.5t-19 6.5l-11 4q0 56 -7 82.5t-28 26.5q-25 0 -40 -33.5t-15 -89.5q0 -149 123 -149q30 0 51 7t39 17l12 -10q-13 -27 -35.5 -51.5t-57.5 -40.5t-86 -16q-91 0 -145.5 52.5t-54.5 139.5q0 63 28 111.5t77.5 75.5t114.5 27 q70 0 111.5 -29.5t41.5 -70.5z" />
<glyph horiz-adv-x="530" d="M259 328q21 0 39 -3v112l-64 28l-1 11q41 18 99.5 31t109.5 16l6 -6v-472q0 -50 39 -50q11 0 27 3l4 -11q-19 -31 -50 -48t-69 -17q-36 0 -59.5 14.5t-34.5 40.5q-18 -25 -47 -40t-67 -15q-48 0 -83.5 24.5t-55.5 68t-20 98.5q0 101 62 158t165 57zM271 288 q-42 0 -63.5 -38.5t-21.5 -107.5q0 -67 20 -107t58 -40q9 0 18 1.5t16 6.5v280q-12 5 -27 5z" />
<glyph horiz-adv-x="329" d="M238 -26l70 -28l-2 -16h-269l-2 16l25 12q14 8 21 19.5t7 30.5v256h-51l-2 16l53 28v20q0 52 31.5 96.5t82 71.5t107.5 27q41 0 72.5 -14t49.5 -36.5t18 -48.5q0 -29 -20.5 -45t-49.5 -16q-12 0 -25 3.5t-26 8.5q0 56 -7.5 82t-30.5 26q-24 0 -38 -25.5t-14 -72.5v-81h96 v-40h-96v-290z" />
<glyph horiz-adv-x="462" d="M44 178q0 42 25.5 76t69.5 54t100 20q68 0 115 -29q13 39 31.5 60.5t41.5 21.5q35 0 35 -46q0 -10 -1.5 -22t-3.5 -19q-2 -11 -20 -12q-10 -1 -26.5 -1t-31.5 -1q37 -37 37 -90q0 -42 -24 -76t-66.5 -53.5t-99.5 -19.5q-21 0 -41 3q-2 -8 -2 -14q0 -15 11.5 -19.5 t37.5 -6.5l78 -5q68 -4 107 -31.5t39 -80.5q0 -45 -30 -81.5t-85 -57.5t-131 -21q-77 0 -127.5 21t-50.5 58q0 31 32 50.5t71 17.5l7 -6v4q2 -49 40 -77t90 -28q41 0 66 16t25 39q0 20 -17 30.5t-46 14.5l-108 13q-59 7 -83.5 28t-24.5 53q0 27 16 51.5t49 39.5 q-48 16 -76.5 48.5t-28.5 77.5zM266 184q0 61 -8 84.5t-27 23.5q-20 0 -28.5 -23t-8.5 -82t8.5 -84.5t29.5 -25.5q19 0 26.5 24t7.5 83z" />
<glyph horiz-adv-x="318" d="M156 366q-35 0 -57.5 22t-22.5 52q0 37 30 64t70 27q31 0 53 -20t22 -52q0 -40 -27.5 -66.5t-67.5 -26.5zM238 -26l54 -28l-2 -16h-253l-2 16l25 12q14 8 21 19.5t7 30.5v234l-47 28l-2 11q38 18 92.5 31t100.5 16l6 -6v-348z" />
<glyph horiz-adv-x="520" d="M448 -221l53 -28l-1 -16h-253l-2 16l24 12q15 8 22 19t7 30v156q-19 -22 -47 -34.5t-59 -11.5q-71 1 -115.5 50.5t-44.5 136.5q0 72 28.5 121t77 73.5t107.5 24.5q29 0 52.5 -5.5t42.5 -14.5l102 20l6 -6v-543zM271 288q-42 0 -63.5 -40t-21.5 -110q0 -67 20 -105t55 -38 q28 0 37 8v279q-13 6 -27 6z" />
<glyph horiz-adv-x="394" d="M238 -26l70 -28l-2 -16h-269l-2 16l25 12q14 8 21 19.5t7 30.5v234l-47 28l-2 11q38 18 92.5 31t100.5 16l6 -6v-62q25 33 50 50.5t50 17.5q23 0 39.5 -14t16.5 -43q0 -28 -14 -50.5t-25 -35.5h-17q-40 25 -93 35l-2 -0.5t-5 -1.5v-244z" />
<glyph horiz-adv-x="569" d="M79 42v200l-47 28l-2 11q38 18 92.5 31t100.5 16l6 -6v-262q0 -31 12 -46t40 -15q24 0 48 10v233l-47 28l-2 11q38 18 92.5 31t100.5 16l6 -6v-277q0 -22 8.5 -36t26.5 -14q15 0 31 3l4 -11q-19 -30 -49.5 -47.5t-70.5 -17.5q-34 0 -57 14t-34 38q-26 -23 -59 -37.5 t-73 -14.5q-58 0 -92.5 31t-34.5 89z" />
<glyph horiz-adv-x="450" d="M386 246l-121 -316h-89l-120 315q-5 15 -11 22.5t-12 14.5q-9 10 -15.5 14t-17.5 8l1 16h259l2 -16l-55 -26l72 -223l76 224l-53 25l1 16h145l2 -16l-20 -8t-18 -12q-7 -7 -14 -16t-12 -22z" />
<glyph horiz-adv-x="644" d="M412 320l83 -237l54 196l-57 25l1 16h149l2 -16q-10 -4 -20 -8.5t-19 -11.5q-8 -7 -14.5 -16.5t-10.5 -21.5l-96 -316h-89l-74 203l-80 -203h-90l-95 315q-4 13 -11 22.5t-12 14.5q-8 8 -16 13t-17 9l1 16h255l2 -16l-51 -26l50 -194l90 236h65z" />
<glyph horiz-adv-x="451" d="M232 -70v0l-56 1l-119 314q-4 11 -11 21t-12 16q-5 5 -12.5 11t-21.5 11l2 16h255l1 -16l-50 -26l70 -218l78 218l-58 26l2 16h149l2 -16q-26 -9 -40 -21q-15 -15 -23 -37l-137 -358q-35 -92 -70.5 -126.5t-73.5 -34.5q-31 0 -48.5 20.5t-17.5 53.5q0 14 3 26t8 25l9 3 q13 -4 26 -5t22 -1q34 0 71 20.5t52 60.5z" />
<glyph horiz-adv-x="433" d="M398 -9q0 -32 -7 -61h-351l-8 40l209 310h-97l-76 -105h-16q-15 42 -15 84q0 29 8 61h347l9 -40l-211 -310h102l76 105h16q14 -42 14 -84z" />
</font>
</defs>
</svg>
