<?xml version="1.0" standalone="no"?>
<!DOCTYPE svg PUBLIC "-//W3C//DTD SVG 1.1//EN" "http://www.w3.org/Graphics/SVG/1.1/DTD/svg11.dtd" >
<svg xmlns="http://www.w3.org/2000/svg" xmlns:xlink="http://www.w3.org/1999/xlink" version="1.1">
<metadata></metadata>
<defs>
<font id="indivisa_text_serifBlkIt" horiz-adv-x="620" >
<font-face units-per-em="1000" ascent="750" descent="-250" />
<missing-glyph horiz-adv-x="250" />
<glyph unicode="ff" horiz-adv-x="719" d="M255 20q-19 -92 -63 -154.5t-102.5 -94t-123.5 -31.5q-55 0 -88.5 21t-33.5 55q0 20 10.5 33.5t26.5 20.5q30 -37 70 -37q41 0 71 37.5t47 119.5l93 440h-63l3 20l72 35l5 25q11 47 40 89t70 73.5t89.5 49.5t98.5 18q52 0 90 -15t57 -39q41 34 90.5 54t100.5 20 q60 0 96.5 -26t36.5 -64q0 -27 -12.5 -46.5t-30.5 -31.5t-35 -17q-21 38 -48.5 68.5t-61.5 30.5q-24 0 -35.5 -15.5t-16 -40.5t-7 -53.5t-8.5 -54.5l-6 -30h117l-11 -50h-117l-87 -410q-19 -92 -60.5 -154.5t-96.5 -94t-117 -31.5q-48 0 -77.5 21t-29.5 55q0 20 10.5 33.5 t26.5 20.5q24 -37 55 -37q36 0 61 37.5t42 119.5l93 440h-154zM354 486l-1 -6h154l6 30q8 37 27 73q-16 29 -43 50t-65 21q-30 0 -44 -14t-18.5 -38t-6.5 -54t-9 -62z" />
<glyph unicode="ffi" horiz-adv-x="981" d="M255 20q-19 -92 -63 -154.5t-102.5 -94t-123.5 -31.5q-55 0 -88.5 21t-33.5 55q0 20 10.5 33.5t26.5 20.5q30 -37 70 -37q41 0 71 37.5t47 119.5l93 440h-63l3 20l72 35l5 25q11 47 40 89t70 73.5t89.5 49.5t98.5 18q53 0 91 -15.5t57 -40.5q43 35 97 55.5t113 20.5 q78 0 125.5 -31.5t47.5 -78.5q0 -36 -36 -59.5t-92 -25.5q-22 56 -50.5 82.5t-59.5 26.5q-29 0 -45 -18.5t-23.5 -48t-10.5 -63t-6 -64.5h159q68 0 105 -26.5t37 -74.5q0 -14 -3.5 -34t-12 -58t-24.5 -107q-4 -18 -7.5 -36.5t-3.5 -28.5q0 -19 17 -19q15 0 35.5 14t36.5 27 l10 -10q-17 -32 -44 -64t-62 -52.5t-76 -20.5q-47 0 -73 26.5t-26 74.5q0 17 3.5 40.5t9.5 48.5q17 79 26.5 122.5t13.5 64t4 30.5q0 33 -45 33h-89l-87 -410q-19 -92 -60.5 -154.5t-96.5 -94t-117 -31.5q-48 0 -77.5 21t-29.5 55q0 20 10.5 33.5t26.5 20.5q24 -37 55 -37 q36 0 61 37.5t42 119.5l93 440h-154zM354 486l-1 -6h154l6 30q8 37 27 72q-16 30 -43 51t-65 21q-30 0 -44 -14t-18.5 -38t-6.5 -54t-9 -62z" />
<glyph unicode="ffl" horiz-adv-x="1005" d="M255 20q-19 -92 -63 -154.5t-102.5 -94t-123.5 -31.5q-55 0 -88.5 21t-33.5 55q0 20 10.5 33.5t26.5 20.5q30 -37 70 -37q41 0 71 37.5t47 119.5l93 440h-63l3 20l72 35l5 25q11 47 40 89t70 73.5t89.5 49.5t98.5 18q52 0 90 -15t57 -39q41 34 90.5 54t100.5 20 q28 0 51 -6t40 -17q41 9 82.5 15t73.5 8l8 -10l-124 -570q-4 -18 -7.5 -36.5t-3.5 -28.5q0 -19 17 -19q15 0 35.5 14t36.5 27l10 -10q-17 -32 -44 -64t-62 -52.5t-76 -20.5q-47 0 -73 26.5t-26 74.5q0 17 3.5 40.5t9.5 48.5l93 436q-15 22 -40.5 40t-58.5 18 q-24 0 -35.5 -15.5t-16 -40.5t-7 -53.5t-8.5 -54.5l-6 -30h107l-11 -50h-107l-87 -410q-19 -92 -63 -154.5t-102.5 -94t-123.5 -31.5q-55 0 -88.5 21t-33.5 55q0 20 10.5 33.5t26.5 20.5q30 -37 70 -37q41 0 71 37.5t47 119.5l93 440h-154zM354 486l-1 -6h154l6 30 q8 37 27 73q-16 29 -43 50t-65 21q-30 0 -44 -14t-18.5 -38t-6.5 -54t-9 -62z" />
<glyph unicode="&#x2f;symbol&#x31;&#x2f;" horiz-adv-x="5534" d="M1865 412q-25 0 -40.5 14.5t-15.5 37.5q0 24 15.5 45t39 34.5t48.5 13.5q24 0 39 -13.5t15 -37.5t-14.5 -45.5t-37.5 -35t-49 -13.5zM1284 412q-26 0 -41.5 14.5t-15.5 37.5q0 24 15.5 45t39.5 34.5t49 13.5q24 0 38.5 -13.5t14.5 -37.5t-14.5 -45.5t-37 -35t-48.5 -13.5 zM959 0q0 21 2.5 46.5t8.5 61.5q-16 -49 -51 -82t-79 -33q-41 0 -63 30t-22 82q0 45 15.5 91t46.5 85.5t76.5 63.5t104.5 24h12.5t12.5 -1l16 73l6 102l136 7q0 -40 -9.5 -95t-23 -116.5t-27 -123.5t-23 -117.5t-9.5 -97.5h-130zM100 0l78 364q8 38 13.5 72.5t7.5 63.5 l128 7l11 -15l-104 -492h-134zM3503 492l-57 -492h-131l20 175q3 30 9 69t12.5 78t11.5 68h-3q-16 -53 -37 -107.5t-44 -107.5l-76 -175h-149l-2 175q-1 56 1 109t8 106h-2q-15 -61 -30 -115.5t-29 -99.5l-53 -175h-109l154 500l184 6l1 -137q1 -50 -2.5 -121.5 t-12.5 -137.5h2q20 65 36 111t30.5 81t27.5 67l56 131l169 7zM5316 300q-15 -74 -23 -110.5t-11 -51t-3 -21.5q0 -34 36 -34q13 0 28 5t31 13l-9 -79q-20 -11 -50 -20t-64 -9q-50 0 -77.5 25t-27.5 75q0 11 1.5 23.5t6 33.5t12.5 57.5t20 95.5l-47 1l9 44l54 14l53 95l81 6 l13 -15l-20 -86h99l6 -14l-17 -51zM336 0q0 28 4 62t13 82t24 116l6 102l137 7q0 -18 -2 -41t-5 -48h2q29 49 65.5 69t68.5 20q35 0 53.5 -19.5t18.5 -51.5q0 -23 -8 -62.5t-18 -84.5q-7 -33 -11 -57t-5.5 -45.5t-1.5 -48.5h-131q0 38 4.5 69.5t14.5 80.5q7 35 11 55.5 t4 31.5q0 24 -17 24t-34 -22.5t-30.5 -60.5t-22 -84t-9.5 -94h-131zM1170 0q0 39 7 87.5t20 105.5l14 67l6 102l137 7q0 -36 -8 -81.5t-19 -95.5t-19 -99t-8 -93h-130zM1399 362l140 7q6 -59 4.5 -137.5t-9.5 -151.5h2q23 45 42 95t32 99t17 90q17 4 28.5 4.5t21.5 0.5 q28 0 46.5 -7t18.5 -35q0 -22 -13.5 -60.5t-36.5 -85t-53.5 -94t-63.5 -87.5h-149q-2 111 -9.5 207.5t-17.5 154.5zM1752 0q0 39 7 87.5t19 105.5l15 67l6 102l137 7q0 -36 -8 -81.5t-19 -95.5t-19 -99t-8 -93h-130zM4716 0q0 28 4 62t13 82t24 116l6 102l137 7 q0 -18 -2.5 -41t-4.5 -48h2q29 49 65 69t69 20q35 0 53.5 -19.5t18.5 -51.5q0 -23 -8 -62.5t-18 -84.5q-7 -33 -11 -57t-6 -45.5t-2 -48.5h-130q0 38 4.5 69.5t14.5 80.5q7 35 11 55.5t4 31.5q0 24 -17 24q-18 0 -34.5 -22.5t-30.5 -60.5t-22.5 -84t-9.5 -94h-130zM2245 256 q-25 14 -51.5 22t-45.5 8q-17 0 -29.5 -7t-12.5 -19q0 -13 13 -22t32 -17.5t38 -20.5t32 -30.5t13 -47.5q0 -39 -25 -68t-66.5 -45t-89.5 -16q-33 0 -66.5 7.5t-51.5 20.5l27 93q27 -18 58.5 -28t52.5 -10q20 0 30 8t10 18q0 13 -13 22t-32 18t-38 21t-32 30t-13 46 q0 39 25.5 68t67.5 45.5t90 16.5q20 0 48.5 -3.5t55.5 -14.5zM2525 369q32 0 73.5 -7.5t72.5 -24.5l-29 -128q-20 -94 -25.5 -140.5t-5.5 -68.5h-130q0 20 2.5 45t9.5 67q-15 -50 -50.5 -84.5t-81.5 -34.5q-41 0 -62.5 30t-21.5 83q0 44 15.5 90.5t46.5 85.5t77.5 63 t108.5 24zM4653 51q-32 -28 -74 -43t-85 -15q-62 0 -102 33.5t-40 103.5q0 46 17.5 88.5t49.5 76.5t75 54t94 20q53 0 86 -23t33 -65q0 -56 -59 -95.5t-162 -44.5v-1q0 -29 15 -46.5t48 -17.5q22 0 45 7.5t45 20.5zM3936 0q0 28 4 62t13.5 82t24.5 116l5 102l137 7 q0 -18 -2 -41t-5 -48h2q29 49 65.5 69t68.5 20q35 0 53.5 -19.5t18.5 -51.5q0 -23 -8 -62.5t-18 -84.5q-7 -33 -11 -57t-5.5 -45.5t-1.5 -48.5h-131q0 38 4.5 69.5t14.5 80.5q8 35 11.5 55.5t3.5 31.5q0 24 -17 24t-34 -22.5t-30.5 -60.5t-22 -84t-9.5 -94h-131zM3768 369 q32 0 73 -7.5t72 -24.5l-28 -128q-20 -94 -25.5 -140.5t-5.5 -68.5h-130q0 20 2.5 45t9.5 67q-15 -50 -50.5 -84.5t-81.5 -34.5q-41 0 -63 30t-22 83q0 44 15.5 90.5t47 85.5t78 63t108.5 24zM4490 177q46 10 72.5 33.5t26.5 59.5q0 17 -5.5 24t-16.5 7q-20 0 -36 -20 t-26 -48.5t-15 -55.5zM3677 101q17 0 33 21t30 54t22 69q2 11 4.5 22t4.5 22q-16 8 -27 8q-18 0 -34.5 -16t-29 -40.5t-20 -51.5t-7.5 -48q0 -40 24 -40zM913 101q16 0 31 19.5t28.5 50t22.5 64.5l4 20l4 20l3 14q-14 8 -27 8q-18 0 -34 -16t-28.5 -40.5t-20 -51.5t-7.5 -48 q0 -40 24 -40zM2435 101q16 0 32.5 21t30 54t21.5 69q2 11 4.5 22t4.5 22q-14 8 -27 8q-18 0 -34 -16t-29 -40.5t-20 -51.5t-7 -48q0 -40 24 -40z" />
<glyph unicode="&#x2f;symbol&#x32;&#x2f;" horiz-adv-x="932" d="M494 570l52 -90l-137 -240h-103l137 240l-52 90h103zM357 570l52 -90l-138 -240h-103l138 240l-52 90h103zM752 120h-103l-137 240l51 90l137 -240h103zM683 0h-103l-137 240l51 90l138 -240h103zM100 120l51 90h275l51 -90h-274l-52 -90zM168 0l52 90h274l52 -90h-275 l-51 -90zM789 88q18 0 30.5 -13t12.5 -31t-12.5 -31t-30.5 -13t-30.5 13t-12.5 31t12.5 31t30.5 13zM829 44q0 17 -11.5 28.5t-28.5 11.5q-16 0 -28 -11.5t-12 -28.5q0 -16 12 -28t28 -12q17 0 28.5 12t11.5 28zM771 69h18h5t6 -2q5 -4 5 -11q0 -5 -3 -8q-1 -2 -2.5 -2.5 t-3.5 -1.5q7 -1 8 -9q0 -8 3 -16h-8q-1 2 -1 6t-1 7q-1 5 -2.5 7.5t-8.5 2.5h-8v-23h-7v50zM778 47h10h3.5t3.5 1q3 3 3 7q0 6 -4 7t-6 1h-10v-16z" />
<glyph unicode="&#x2f;symbol&#x33;&#x2f;" horiz-adv-x="957" d="M505 638l68 -270h270l-203 -135l136 -270l-271 135l-270 -270l135 405l-270 203l338 -68zM814 87q18 0 30.5 -12.5t12.5 -31.5q0 -18 -12.5 -30.5t-30.5 -12.5t-30.5 12.5t-12.5 30.5q0 19 12.5 31.5t30.5 12.5zM854 43q0 17 -11.5 29t-28.5 12q-16 0 -28 -12t-12 -29 q0 -16 12 -28t28 -12q17 0 28.5 12t11.5 28zM796 68h18h5.5t5.5 -2q6 -3 6 -10q0 -5 -4 -9q-3 -3 -6 -3q7 -3 8 -10q1 -4 1.5 -7.5t1.5 -8.5h-7q-1 3 -1.5 7t-1.5 7q0 9 -10 9h-9v-23h-7v50zM803 47h10h3.5t3.5 1l2 2t1 4q0 7 -4 8t-6 1h-10v-16z" />
<glyph unicode="&#x2f;symbol&#x34;&#x2f;" horiz-adv-x="2607" d="M1684 406q0 32 -2.5 63t-8.5 65l126 14l15 -15v-533h-130v406zM1889 406q0 62 -10 128l126 14l14 -15v-533h-130v406zM427 101v-101h-320v362q0 38 -1.5 72t-5.5 63l126 7l14 -14v-396zM925 21l7 109q31 -18 72 -27t72 -9q50 0 50 36q0 19 -20.5 34t-50 31t-59.5 37 t-50.5 51t-20.5 74q0 48 26 80.5t70 49.5t97 17q81 0 127 -18l-14 -111q-28 14 -55 21.5t-56 7.5q-28 0 -43 -11t-15 -29q0 -22 20.5 -38.5t50.5 -32.5t59.5 -36.5t50 -49.5t20.5 -73q0 -67 -54 -104t-139 -37q-40 0 -82.5 8t-62.5 20zM795 0l-106 -7q-7 11 -12 24t-9 25h-4 q-15 -22 -42.5 -35.5t-61.5 -13.5q-41 0 -69 22t-28 67q0 61 53.5 88.5t137.5 29.5v20q0 54 -58 54q-55 0 -108 -29l-8 97q27 10 68.5 18t81.5 8q154 0 154 -135q0 -38 -2 -69.5t-2 -69.5q0 -24 4.5 -50.5t10.5 -43.5zM1626 0l-107 -7q-7 11 -12 24t-9 25h-3 q-15 -22 -42.5 -35.5t-62.5 -13.5q-40 0 -68 22t-28 67q0 61 53 88.5t138 29.5v20q0 54 -58 54q-54 0 -109 -29l-7 97q27 10 68.5 18t81.5 8q153 0 153 -135q0 -38 -1.5 -69.5t-1.5 -69.5q0 -24 4.5 -50.5t10.5 -43.5zM2405 213v-17t-1 -19l-11 -11h-191q8 -45 33.5 -64 t64.5 -19q24 0 45.5 6t38.5 15l7 -81q-17 -11 -49.5 -20.5t-77.5 -9.5q-88 0 -143 47t-55 135q0 58 24 101t66 67.5t94 24.5q73 0 114 -43.5t41 -111.5zM2199 207l78 4q1 5 1.5 11t0.5 15q0 23 -7.5 41t-26.5 18q-23 0 -34 -25.5t-12 -63.5zM654 74v88q-27 -3 -46 -17 t-19 -40q0 -18 10.5 -29t26.5 -11t28 9zM1485 74v88q-27 -3 -46 -17t-19 -40q0 -18 10 -29t27 -11q16 0 28 9zM2464 85q18 0 30.5 -13t12.5 -31t-12.5 -31t-30.5 -13t-31 13t-13 31t13 31t31 13zM2504 41q0 17 -11.5 28.5t-28.5 11.5q-16 0 -28 -11.5t-12 -28.5 q0 -16 12 -28t28 -12q17 0 28.5 12t11.5 28zM2446 66h18q2 0 5 -0.5t6 -2.5q5 -2 5 -10q0 -4 -3 -9q-3 -3 -6 -3q7 -1 8 -10q0 -7 3 -15h-8q-1 2 -1 6t-1 7q-1 5 -2.5 7t-8.5 2h-8v-22h-7v50zM2453 44h10h3.5t3.5 1q3 3 3 7q0 6 -4 7t-6 1h-10v-16z" />
<glyph unicode="&#x2f;symbol&#x35;&#x2f;" horiz-adv-x="705" d="M232 -6l-132 136l124 234l129 -136zM474 -6l-121 234l128 136l124 -234z" />
<glyph unicode=" "  horiz-adv-x="250" />
<glyph unicode="&#x09;" horiz-adv-x="250" />
<glyph unicode="&#xa0;" horiz-adv-x="250" />
<glyph unicode="!" horiz-adv-x="349" d="M213 680l10 8q32 5 64 7.5t56 2.5q26 0 38.5 -7.5t12.5 -26.5q0 -9 -2.5 -21t-6.5 -23l-140 -401h-64zM166 -10q-31 0 -51.5 19t-20.5 51q0 28 15.5 51t40.5 37t53 14q31 0 51 -18.5t20 -50.5q0 -28 -15.5 -51.5t-40 -37.5t-52.5 -14z" />
<glyph unicode="&#x22;" horiz-adv-x="484" d="M193 754l6 6q27 0 57 -3.5t56.5 -9.5t40.5 -13l6 -17l-171 -306l-46 10l26 156zM423 754l6 6q27 0 57 -3.5t56.5 -9.5t40.5 -13l6 -17l-171 -306l-46 10l26 156z" />
<glyph unicode="#" horiz-adv-x="700" d="M254 -10l-82 15l-8 8l39 157h-121l-8 8l12 82h140l42 170h-119l-8 8l12 82h138l45 180l82 -15l8 -8l-39 -157h145l45 180l82 -15l8 -8l-39 -157h118l8 -8l-12 -82h-137l-42 -170h121l8 -8l-12 -82h-140l-45 -180l-82 15l-8 8l39 157h-145zM322 260h145l42 170h-145z" />
<glyph unicode="$" horiz-adv-x="577" d="M292 -137l-63 -3l-6 8l26 122q-42 1 -79.5 5t-64 11t-34.5 18q-8 13 -8 34q0 24 9 53.5t25.5 59t36.5 52.5l30 -3v-10q0 -42 6.5 -73t21.5 -54q27 -43 88 -43q45 0 77 29.5t32 81.5q0 33 -18 59.5t-46 50t-59.5 47.5t-59.5 51t-46 61t-18 77q0 61 37 104.5t96.5 68 t127.5 29.5l27 128l63 3l6 -8l-26 -123q56 -3 93.5 -13.5t49.5 -20.5q8 -6 9.5 -12.5t1.5 -17.5q0 -21 -10 -51.5t-27 -61t-38 -55.5l-29 2v13q0 35 -3 62t-11 45q-10 26 -30 43.5t-58 17.5q-43 0 -73.5 -29t-30.5 -76q0 -34 18 -62t46 -52.5t59.5 -48.5t59.5 -50t46 -57.5 t18 -71.5q0 -92 -66.5 -147t-178.5 -64z" />
<glyph unicode="%" horiz-adv-x="1061" d="M549 544q0 -60 -22 -108.5t-58.5 -82.5t-81 -52.5t-89.5 -18.5q-77 0 -121 44.5t-44 121.5q0 60 22 108.5t58.5 82.5t81 52.5t89.5 18.5q77 0 121 -44.5t44 -121.5zM907 700l-575 -710h-71l574 710h72zM267 398q0 -34 10 -55t27 -21q24 0 44.5 26.5t35.5 69t23.5 90.5 t8.5 90q0 33 -10 52.5t-27 19.5q-24 0 -44.5 -26.5t-35.5 -68t-23.5 -88.5t-8.5 -89zM1059 252q0 -60 -22 -108.5t-58.5 -82.5t-81 -52.5t-89.5 -18.5q-77 0 -121 44.5t-44 121.5q0 60 22 108.5t58.5 82.5t81 52.5t89.5 18.5q77 0 121 -44.5t44 -121.5zM777 106 q0 -34 10 -55t27 -21q24 0 44.5 26.5t35.5 69t23.5 90.5t8.5 90q0 33 -10 52.5t-27 19.5q-24 0 -44.5 -26.5t-35.5 -68t-23.5 -88.5t-8.5 -89z" />
<glyph unicode="&#x26;" horiz-adv-x="875" d="M820 98q0 -54 -27 -81t-65 -27q-43 0 -76 22l-11 23q18 25 30.5 51t21.5 51q-40 9 -75 20q-48 -76 -122 -121.5t-180 -45.5q-104 0 -167 47t-63 126q0 63 49 115.5t141 71.5q-35 53 -35 116q0 67 34 119.5t94 83.5t137 31q83 0 130 -26t47 -72q0 -35 -22 -63t-61 -43 q55 -4 101 -4q102 0 157 18l14 -3q8 -11 13 -28t5 -34q0 -25 -17 -43t-52 -18q-60 0 -119 9q-6 -35 -14.5 -68.5t-20.5 -64.5q22 -11 47 -21q106 -43 106 -141zM425 520q0 -69 44.5 -124.5t140.5 -106.5q19 53 26 116q-59 13 -126 36l-10 16q19 26 34.5 61t15.5 75 q0 57 -49 57q-22 0 -39 -18t-27 -47.5t-10 -64.5zM271 215q0 -48 34 -79t89 -31q44 0 83 19t70 55q-79 26 -140 59t-100 73q-17 -21 -26.5 -44.5t-9.5 -51.5z" />
<glyph unicode="'" horiz-adv-x="254" d="M188 754l6 6q27 0 57 -3.5t56.5 -9.5t40.5 -13l6 -17l-171 -306l-46 10l26 156z" />
<glyph unicode="(" horiz-adv-x="427" d="M356 -178l-18 -20q-105 59 -161.5 153.5t-56.5 226.5q0 130 51.5 242t146.5 198t224 138l10 -20q-61 -54 -108.5 -126.5t-80.5 -155t-50 -167t-17 -162.5q0 -184 60 -307z" />
<glyph unicode=")" horiz-adv-x="427" d="M166 740l18 20q105 -59 161.5 -153.5t56.5 -226.5q0 -129 -51.5 -241.5t-146 -198.5t-224.5 -138l-10 20q61 54 108.5 126.5t80.5 155t50 167t17 162.5q0 184 -60 307z" />
<glyph unicode="*" horiz-adv-x="418" d="M340 521q0 -19 -8 -32t-32 -13q-27 0 -27 26q0 17 11.5 41.5t22.5 49.5q-34 -24 -55 -43.5t-40 -19.5q-10 0 -17.5 9t-7.5 19q0 20 21 32q16 8 39.5 13.5t49.5 14.5q-22 9 -42 14t-32.5 12t-12.5 21q0 17 11 29t26 12q17 0 33 -20t38 -42v8q0 11 -0.5 24.5t-0.5 38.5 q0 20 8 32.5t32 12.5q27 0 27 -26q0 -16 -11 -40l-22 -48q33 24 52.5 42t38.5 18q14 0 19.5 -10t5.5 -18q0 -20 -21 -32q-16 -9 -39 -14t-49 -14q21 -8 41.5 -13.5t33.5 -12.5t13 -22q0 -16 -11.5 -28t-26.5 -12q-17 0 -32 19.5t-37 40.5v-6q0 -10 0.5 -24t0.5 -39z" />
<glyph unicode="+" d="M285 125l-5 6l36 172h-181l18 85q32 1 80 2t102 1l36 174h84l5 -6l-36 -167q53 1 101 1h81l7 -8l-28 -82h-180l-38 -178h-82z" />
<glyph unicode="," horiz-adv-x="312" d="M0 -181l-8 11q89 82 123 170q-24 12 -36 33.5t-12 46.5q0 30 16.5 56t44 42t59.5 16q38 0 64.5 -25t26.5 -70q0 -38 -22.5 -79t-61.5 -79.5t-89 -70t-105 -51.5z" />
<glyph unicode="-" horiz-adv-x="404" d="M67 251l9 50h355l-10 -50h-354z" />
<glyph unicode="." horiz-adv-x="290" d="M258 109q0 -33 -16.5 -60t-43.5 -43t-59 -16q-42 0 -67 25.5t-25 62.5q0 31 17.5 57.5t45.5 42.5t61 16q37 0 62 -23.5t25 -61.5z" />
<glyph unicode="/" horiz-adv-x="402" d="M139 -11l-11 -3l-75 37l344 736l12 3l75 -37z" />
<glyph unicode="0" horiz-adv-x="638" d="M680 455q0 -105 -30.5 -190.5t-83 -147t-119 -94.5t-138.5 -33q-65 0 -115.5 29.5t-79.5 84t-29 130.5q0 96 30.5 180.5t82.5 148.5t119 100.5t139 36.5q73 0 123 -31.5t75.5 -86.5t25.5 -127zM253 143q2 -45 20 -71.5t51 -26.5t61.5 34.5t52 90.5t40 121.5t25.5 129.5 t9 113q0 111 -68 111q-36 0 -66 -33.5t-54 -89t-40.5 -122t-24.5 -134t-6 -123.5z" />
<glyph unicode="1" horiz-adv-x="401" d="M366 0h-353l-2 20l34 11q35 11 54 25.5t25 40.5l103 488l-88 20l2 20l283 75l6 -8l-126 -595l-9 -42l77 -35z" />
<glyph unicode="2" horiz-adv-x="518" d="M50 -10l-17 94q127 96 201.5 167t107 123t32.5 90q0 42 -23 69t-67 27q-42 0 -81.5 -21.5t-65.5 -55.5l-17 9q21 61 62 107.5t94 73.5t110 27q84 0 133.5 -47.5t49.5 -127.5q0 -75 -42 -134t-114 -109.5t-162 -102.5q-24 -13 -46.5 -26.5t-46.5 -24.5q27 6 57.5 9t56.5 3 q51 0 96.5 -2.5t77.5 -2.5q22 0 43 33q4 6 8.5 13t8.5 14l15 -6q-7 -29 -14 -57t-15 -53q-13 -39 -32 -64t-48 -25q-50 0 -111.5 12.5t-131.5 12.5q-34 0 -64.5 -7t-54.5 -18z" />
<glyph unicode="3" horiz-adv-x="460" d="M472 229q0 -103 -127 -163.5t-357 -75.5l-1 30q60 18 115.5 39.5t99 47t69 56.5t25.5 67q0 35 -25 54t-69 19q-34 0 -59 -5l-7 48q98 14 150.5 52.5t52.5 96.5q0 29 -20.5 47t-60.5 18q-34 0 -72 -17t-65 -50l-17 9q29 61 73.5 105t96.5 68.5t102 24.5q71 0 109.5 -35.5 t38.5 -88.5q0 -57 -33.5 -100t-87 -71t-114.5 -44q91 -5 137 -40t46 -92z" />
<glyph unicode="4" horiz-adv-x="554" d="M463 698l117 -14l-93 -441l94 3l-25 -90l-88 1l-33 -157h-180l34 160l-255 4l4 56zM364 517l-235 -285l176 5z" />
<glyph unicode="5" horiz-adv-x="485" d="M515 241q0 -109 -126 -172t-353 -79l-1 30q56 19 108 41.5t93 49.5t64.5 58.5t23.5 67.5q0 41 -27.5 64t-75.5 23q-24 0 -47.5 -3.5t-42.5 -8.5l-12 13l84 369q78 -3 157 -5.5t141 -2.5q24 0 37 4.5t22.5 17t20.5 36.5l15 -3q-9 -67 -22.5 -114.5t-38.5 -72t-69 -24.5 q-29 0 -65.5 2.5t-73.5 7t-67 10.5l-38 -164q21 5 42.5 7.5t42.5 2.5q95 0 151.5 -40t56.5 -115z" />
<glyph unicode="6" horiz-adv-x="593" d="M76 203q0 85 30.5 159.5t85 135t127 105t157 69.5t173.5 28l1 -30q-122 -43 -221 -127t-152 -197q62 64 156 64q160 0 160 -154q0 -52 -21.5 -100t-61 -85.5t-92 -59t-115.5 -21.5q-105 0 -166 57t-61 156zM408 251q0 40 -12.5 63.5t-38.5 23.5q-31 0 -56 -29t-40 -77.5 t-15 -107.5q0 -40 12.5 -62t35.5 -22q32 0 57.5 30.5t41 79t15.5 101.5z" />
<glyph unicode="7" horiz-adv-x="464" d="M342 35q-11 -22 -32 -33.5t-48 -11.5q-22 0 -46.5 12.5t-44 32.5t-28.5 43q63 84 116 156.5t98.5 139t87.5 134.5q-65 8 -129.5 15t-116.5 7q-23 0 -36.5 -4.5t-22.5 -16.5t-21 -37l-15 3q14 108 40 166.5t80 58.5q89 0 159 -32.5t117 -72.5q29 49 60 103q15 -2 22 -9.5 t7 -16.5q0 -13 -9.5 -42.5t-29.5 -80.5q-21 -51 -46 -114t-50.5 -127t-48.5 -121t-39.5 -97.5t-23.5 -54.5z" />
<glyph unicode="8" horiz-adv-x="578" d="M583 203q0 -66 -37 -114t-103.5 -73.5t-156.5 -25.5q-71 0 -124.5 18t-83.5 51.5t-30 79.5q0 52 30.5 89.5t80 60.5t105.5 31q-30 23 -55.5 48.5t-41.5 57t-16 71.5q0 49 23.5 87t63.5 63.5t90 39t102 13.5q89 0 144 -37t55 -97q0 -46 -23.5 -81.5t-64 -60.5t-91.5 -38 q33 -25 63.5 -51.5t50 -58.5t19.5 -73zM326 545q0 -42 28 -74.5t67 -62.5q20 19 36 49t25 62t9 57q0 34 -16.5 54t-51.5 20q-40 0 -68.5 -29t-28.5 -76zM218 134q0 -44 23 -69t63 -25q43 0 73.5 29.5t30.5 81.5q0 31 -16.5 56t-43.5 47.5t-57 44.5q-33 -27 -53 -74.5 t-20 -90.5z" />
<glyph unicode="9" horiz-adv-x="593" d="M638 487q0 -85 -30.5 -159.5t-85 -135t-127 -105t-157 -69.5t-173.5 -28l-1 30q122 43 221 127t152 197q-62 -64 -156 -64q-160 0 -160 154q0 52 21.5 100t61 85.5t92 59t115.5 21.5q105 0 166 -57t61 -156zM306 439q0 -40 13 -63.5t38 -23.5q31 0 56 29t40 77.5 t15 107.5q0 40 -12.5 62t-35.5 22q-31 0 -57 -30.5t-41.5 -79t-15.5 -101.5z" />
<glyph unicode=":" horiz-adv-x="290" d="M325 426q0 -33 -16.5 -60t-43.5 -43t-59 -16q-42 0 -67 25.5t-25 62.5q0 31 17 57.5t45.5 42.5t61.5 16q37 0 62 -23.5t25 -61.5zM258 109q0 -33 -16.5 -60t-43.5 -43t-59 -16q-42 0 -67 25.5t-25 62.5q0 31 17.5 57.5t45.5 42.5t61 16q37 0 62 -23.5t25 -61.5z" />
<glyph unicode=";" horiz-adv-x="290" d="M325 426q0 -33 -16.5 -60t-43.5 -43t-59 -16q-42 0 -67 25.5t-25 62.5q0 31 17 57.5t45.5 42.5t61.5 16q37 0 62 -23.5t25 -61.5zM-20 -181l-8 11q89 82 123 170q-24 12 -36 33.5t-12 46.5q0 30 16.5 56t44 42t59.5 16q38 0 64.5 -25t26.5 -70q0 -38 -22.5 -79 t-61.5 -79.5t-89 -70t-105 -51.5z" />
<glyph unicode="&#x3c;" d="M647 591l-21 -100l-349 -159l283 -149l-19 -90q-28 13 -69 33t-88.5 44.5t-95 49.5t-87.5 46.5t-66 36.5l-2 11l12 55z" />
<glyph unicode="=" d="M607 403h-449l18 85q31 1 76 1.5t96.5 1.5t104 1.5t98 0.5h77.5l6 -8zM564 203h-449l18 85q31 1 76 1.5t97 1.5t104 1.5t97.5 0.5h77.5l7 -8z" />
<glyph unicode="&#x3e;" d="M101 93l21 100l349 159l-283 149l19 90q28 -13 69 -33t88.5 -44.5t95 -49.5t87.5 -46.5t66 -36.5l2 -11l-12 -55z" />
<glyph unicode="?" horiz-adv-x="452" d="M316 227l-8 -10q-53 0 -85 18.5t-32 60.5q0 39 19 66t47.5 49.5t56.5 46.5t47 54.5t19 75.5q0 62 -45 62q-28 0 -47 -22.5t-28.5 -56t-9.5 -65.5q0 -7 0.5 -13t0.5 -12q-32 -16 -75 -16q-34 0 -53.5 17t-19.5 47q0 37 21.5 68.5t57.5 54.5t80.5 35.5t90.5 12.5 q98 0 149.5 -36t51.5 -110q0 -41 -19 -72.5t-49 -55t-63.5 -43t-63.5 -37t-49 -36t-19 -40.5q0 -26 25 -43zM196 -10q-31 0 -51.5 19t-20.5 51q0 28 15.5 51t40.5 37t53 14q31 0 51 -18.5t20 -50.5q0 -28 -15.5 -51.5t-40 -37.5t-52.5 -14z" />
<glyph unicode="@" horiz-adv-x="1082" d="M821 -160q-55 -43 -132.5 -71.5t-178.5 -28.5q-93 0 -172 32.5t-137.5 91t-90.5 137t-32 170.5q0 106 34 197t92.5 163.5t134.5 123.5t161 78t170 27q95 0 173.5 -30.5t135 -86t87 -130t30.5 -161.5q0 -73 -24 -138.5t-67.5 -115.5t-101.5 -79t-127 -29q-61 0 -98 24.5 t-51.5 65.5t-7.5 93q1 5 1.5 9.5t1.5 8.5h-6q-22 -55 -51.5 -101t-65.5 -73t-76 -27q-54 0 -87.5 43.5t-33.5 116.5q0 68 23 132t66.5 115.5t106 82t142.5 30.5q62 0 123 -12.5t106 -35.5l-27 -80l-38 -182q-7 -36 -5.5 -65.5t16 -47.5t46.5 -18q26 0 57 19.5t59 56.5t46 90 t18 120q0 77 -27.5 142t-78 112.5t-119.5 74t-152 26.5q-74 0 -149.5 -24.5t-143.5 -70.5t-122 -111.5t-85 -147t-31 -177.5q0 -83 28.5 -154t80.5 -123.5t123 -82t155 -29.5q67 0 117.5 12t90 31t74.5 39zM487 182q0 -27 6.5 -43.5t20.5 -16.5q19 0 39.5 25t39.5 63.5 t34.5 80.5t25.5 76l19 74q-20 19 -50 19q-26 0 -50.5 -28t-43.5 -72t-30 -91.5t-11 -86.5z" />
<glyph unicode="A" horiz-adv-x="723" d="M449 690h115l74 -595q3 -27 12 -38.5t27 -20.5l31 -16l-2 -20h-320l-4 20l75 33l-17 145l-216 -3l-78 -142l75 -33l-4 -20h-210l-4 20l58 25q18 8 28.5 18t21.5 30zM251 245l184 -2l-32 278z" />
<glyph unicode="B" horiz-adv-x="712" d="M414 593l-46 -215h37q39 0 72.5 21t54 57.5t20.5 82.5t-27.5 71t-79.5 25h-22zM397 328h-40l-49 -231l-9 -42h33q49 0 92 18.5t70 55t27 91.5q0 49 -34 78.5t-90 29.5zM710 200q0 -59 -37.5 -104t-108 -70.5t-169.5 -25.5h-352l-2 20l34 21q18 11 31 22.5t17 33.5 l106 496l9 42l-57 35l4 20h302q113 0 179 -37t66 -113q0 -50 -26.5 -87t-70.5 -60t-98 -33q47 -7 86.5 -27t63 -53t23.5 -80z" />
<glyph unicode="C" horiz-adv-x="663" d="M406 -10q-147 0 -226.5 75.5t-79.5 214.5q0 86 33 161.5t90.5 134t132.5 91.5t160 33q62 0 111.5 -9t84.5 -23q-1 -36 -9.5 -78t-20.5 -81t-25 -69h-30q-17 54 -29.5 90t-23 61t-21.5 45q-13 3 -27 3q-49 0 -91.5 -29t-75 -80t-51 -117.5t-18.5 -142.5q0 -64 17 -114 t48 -78t72 -28q14 0 24 3q35 31 75 75.5t94 111.5h30q-3 -53 -17 -113t-34 -115q-50 -12 -95 -17t-98 -5z" />
<glyph unicode="D" horiz-adv-x="758" d="M287 0h-244l-2 20l34 21q18 11 31 22.5t17 33.5l108 496h-1l9 42l-57 35l4 20h311q85 0 150.5 -29.5t103.5 -87.5t38 -145q0 -82 -28 -158.5t-83.5 -137.5t-138 -96.5t-191.5 -35.5h-61l11 50h46q55 0 101.5 35t81 94t53.5 133t19 152q0 86 -31 131t-97 45h-46l-10 -47 l-107 -496z" />
<glyph unicode="E" horiz-adv-x="637" d="M414 593l-48 -225l181 7l-18 -69l-174 10l-47 -219l-10 -48h98q20 0 34 1t29 4q11 11 25.5 29.5t39.5 55.5t68 101h30q3 -57 -9.5 -123t-35.5 -117h-534l-2 20l34 21q18 11 31 22.5t17 33.5l106 496l9 42l-57 35l4 20h514q0 -58 -15.5 -120.5t-41.5 -119.5h-30 q-15 64 -25 100t-16.5 55t-12.5 31q-7 2 -24.5 2.5t-37.5 0.5h-72z" />
<glyph unicode="F" horiz-adv-x="588" d="M298 55l77 -35l-4 -20h-329l-2 20l34 21q18 11 31 22.5t17 33.5h1l105 496l9 42l-57 35l4 20h516q0 -58 -15.5 -120.5t-41.5 -119.5h-30l-22 90q-7 28 -15 53t-17 43q-13 2 -30.5 2.5t-31.5 0.5l-74 1l-10 -47l-53 -248l182 8l-18 -69l-175 10l-42 -197z" />
<glyph unicode="G" horiz-adv-x="738" d="M436 50q30 0 58 6l36 167l9 42l-57 35l4 20h299l2 -20l-34 -16q-19 -9 -31 -22.5t-17 -38.5l-43 -201q-49 -16 -112.5 -24t-131.5 -8q-153 0 -236 75.5t-83 214.5q0 86 35 161.5t97 134t142.5 91.5t170.5 33q65 0 117.5 -9t89.5 -23q-1 -36 -12.5 -80t-26 -83.5 t-26.5 -64.5h-30q-25 78 -41 121.5t-33 74.5q-15 3 -32 3q-49 0 -95.5 -27t-84 -75.5t-59.5 -115t-22 -146.5q0 -66 18.5 -116.5t51.5 -79.5t77 -29z" />
<glyph unicode="H" horiz-adv-x="833" d="M299 55l57 -35l-4 -20h-309l-2 20l34 21q18 11 31 22.5t17 33.5l105 496l9 42l-57 35l4 20h309l2 -20l-34 -21q-18 -11 -30.5 -22t-17.5 -34l-46 -216h241l46 216l9 42l-57 35l4 20h309l2 -20l-34 -21q-18 -11 -30.5 -22t-17.5 -34l-105 -496l-9 -42l57 -35l-4 -20h-309 l-2 20l34 21q18 11 31 22.5t17 33.5l47 223h-241l-47 -223z" />
<glyph unicode="I" horiz-adv-x="413" d="M299 55l57 -35l-4 -20h-309l-2 20l34 21q18 11 31 22.5t17 33.5l105 496l9 42l-57 35l4 20h309l2 -20l-34 -21q-18 -11 -30.5 -22t-17.5 -34l-105 -496z" />
<glyph unicode="J" horiz-adv-x="400" d="M237 635l-57 35l4 20h309l2 -20l-34 -21q-18 -11 -30.5 -22t-17.5 -34l-109 -513q-10 -50 -41.5 -94t-75 -77.5t-91 -54t-90.5 -24.5l-11 20q48 48 81 116.5t52 153.5l100 473z" />
<glyph unicode="K" horiz-adv-x="760" d="M299 55l57 -35l-4 -20h-309l-2 20l34 21q18 11 31 22.5t17 33.5l105 496l9 42l-57 35l4 20h309l2 -20l-34 -21q-18 -11 -30.5 -22t-17.5 -34l-47 -223h57l250 265l-75 35l4 20h251l2 -20l-70 -30q-19 -8 -37 -22t-38 -33l-151 -143l64 -192q22 -65 37.5 -107t30.5 -66.5 t33 -36.5l31 -20l-6 -20l-184 -5q-37 -1 -53.5 15t-25.5 47l-75 258h-57l-46 -218z" />
<glyph unicode="L" horiz-adv-x="618" d="M237 635l-57 35l4 20h309l2 -20l-34 -21q-18 -11 -30.5 -22t-17.5 -34l-105 -496l-10 -47h89q14 0 31 1t32 3q13 13 28 32.5t39.5 55.5t65.5 98h30q0 -58 -11 -120t-34 -120h-525l-2 20l34 21q18 11 31 22.5t17 33.5l105 496z" />
<glyph unicode="M" horiz-adv-x="987" d="M219 690h253l71 -440l246 440h242l2 -20l-78 -42l-64 -565l72 -43l-4 -20h-318l-2 20l33 21q33 19 39 56l49 429l-238 -421l-51 -105h-76l-18 105l-67 426l-145 -469l85 -42l-5 -20h-226l-3 20l42 21q25 13 38 23.5t20 32.5l161 538l-62 35z" />
<glyph unicode="N" horiz-adv-x="727" d="M175 62l65 -37l-5 -25h-206l-3 25l40 20q24 12 38.5 21.5t18.5 30.5l112 531l-65 37l5 25h214l219 -472l80 375l8 35l-85 37l5 25h226l3 -25l-40 -20q-24 -12 -38 -21.5t-19 -30.5l-126 -593h-115l-236 511l-88 -414z" />
<glyph unicode="O" horiz-adv-x="702" d="M734 439q0 -101 -31.5 -183.5t-86 -142t-123 -91.5t-142.5 -32t-132 31t-91 89.5t-33 139.5q0 93 31.5 174.5t85.5 143.5t122.5 97t143.5 35q84 0 141 -33.5t86 -92.5t29 -135zM285 143q0 -45 17.5 -71.5t50.5 -26.5q26 0 50 26t45.5 70t39 98t30 110.5t19.5 108.5t7 91 q0 96 -65 96q-33 0 -62 -33.5t-53.5 -89t-42 -122t-27 -134t-9.5 -123.5z" />
<glyph unicode="P" horiz-adv-x="660" d="M413 593l-59 -278h40q45 0 80 29t55.5 75.5t20.5 100.5q0 57 -25.5 86t-72.5 29h-30zM298 55l77 -35l-4 -20h-329l-2 20l34 21q18 11 31 22.5t17 33.5h1l105 496l9 42l-57 35l4 20h295q118 0 188.5 -49t70.5 -136q0 -54 -26 -99t-71.5 -78t-105.5 -50.5t-128 -17.5h-65 l-35 -163z" />
<glyph unicode="Q" horiz-adv-x="679" d="M725 -88q0 -61 -49 -94t-130 -33q-134 0 -260 40t-236 113l25 50h1q105 0 188 38.5t140.5 108.5t88 164t30.5 205q0 79 -17.5 110.5t-52.5 31.5q-37 0 -68.5 -35.5t-55 -92.5t-36 -124.5t-12.5 -131.5q0 -41 4 -78.5t8 -70.5l-75 -40q-29 23 -55 58.5t-42.5 83.5 t-16.5 105q0 79 28.5 148t77.5 121.5t111.5 82t130.5 29.5q85 0 143 -34t88 -93t30 -134q0 -111 -45.5 -199t-125 -151.5t-184 -100.5t-222.5 -47q62 -13 133 -18t142 -5q72 0 131 9t101 20.5t60 18.5q9 -8 15.5 -21.5t6.5 -33.5z" />
<glyph unicode="R" horiz-adv-x="761" d="M414 593l-55 -258h36q48 0 85.5 25.5t59 69t21.5 95.5q0 55 -26.5 82.5t-71.5 27.5h-40zM299 55l57 -35l-4 -20h-309l-2 20l34 21q18 11 31 22.5t17 33.5l106 496l9 42l-57 35l4 20h305q125 0 192 -46t67 -129q0 -57 -44 -106t-106 -82l25 -77q16 -46 30.5 -89 t31.5 -74.5t39 -46.5l31 -20l-6 -20l-184 -5q-37 -1 -53.5 15t-25.5 47l-65 223h-4h-71l-39 -183z" />
<glyph unicode="S" horiz-adv-x="567" d="M273 -10q-47 0 -92.5 3.5t-78 11t-41.5 19.5q-8 13 -8 34q0 24 9 53.5t25.5 59t36.5 52.5l30 -3v-10q0 -42 6.5 -73t21.5 -54q28 -43 93 -43q47 0 80.5 29.5t33.5 81.5q0 33 -18.5 59.5t-48 50t-62 47.5t-62 51t-48 61t-18.5 77q0 49 25 87t68 63.5t96 39t108 13.5 q74 0 123.5 -12t64.5 -23q8 -6 9.5 -12.5t1.5 -17.5q0 -21 -10 -51.5t-27 -61t-38 -55.5l-29 2v13q0 35 -3 62t-11 45q-11 26 -32 43.5t-62 17.5q-46 0 -77.5 -29t-31.5 -76q0 -34 18.5 -62t48 -52.5t62 -48.5t62 -50t48 -57.5t18.5 -71.5q0 -66 -36.5 -114t-101.5 -73.5 t-153 -25.5z" />
<glyph unicode="T" horiz-adv-x="666" d="M426 55l57 -35l-4 -20h-309l-2 20l34 21q18 11 31 22.5t17 33.5l114 538h-17q-14 0 -31 -1t-33 -3q-15 -16 -34 -40t-37 -51l-60 -90h-30q-3 57 11.5 122.5t33.5 117.5h602q-3 -52 -17 -117.5t-40 -122.5h-30l-22 90q-7 27 -15.5 51t-17.5 40q-14 2 -31 3t-31 1h-16 l-114 -538z" />
<glyph unicode="U" horiz-adv-x="694" d="M211 635l-57 35l4 20h309l2 -20l-34 -21q-18 -11 -30.5 -22t-17.5 -34l-72 -338q-4 -18 -5.5 -35.5t-1.5 -33.5q0 -64 28.5 -100t83.5 -36q65 0 108 49.5t65 152.5l76 351l5 25l-84 37l5 25h226l3 -25l-90 -37l-5 -25l-74 -348q-17 -83 -51 -142.5t-91 -91t-146 -31.5 q-111 0 -176.5 52t-65.5 151q0 13 1.5 31t5.5 37l70 332z" />
<glyph unicode="V" horiz-adv-x="724" d="M403 0h-115l-74 595q-3 27 -12 38.5t-27 20.5l-31 16l2 20h320l4 -20l-75 -33l53 -460l250 462l-77 31l4 20h220l4 -20l-58 -25q-18 -7 -28.5 -17.5t-21.5 -30.5z" />
<glyph unicode="W" horiz-adv-x="1096" d="M394 0h-115l-65 595q-3 27 -12 38.5t-27 20.5l-31 16l2 20h320l4 -20l-75 -33l44 -450l175 329l-9 79q-3 27 -12 38.5t-27 20.5l-33 16l4 20h320l4 -20l-75 -33l43 -450l241 452l-77 31l4 20h220l4 -20l-58 -25q-18 -7 -28.5 -17.5t-21.5 -30.5l-329 -597h-115l-45 419z " />
<glyph unicode="X" horiz-adv-x="745" d="M271 0h-250l-4 20q24 8 43.5 16.5t38.5 18.5q17 9 31 19.5t32 30.5l187 211l-122 280q-7 17 -12 27.5t-12 17.5q-8 9 -20 15t-31 14l2 20h327l4 -20l-75 -33l92 -210l173 208l-75 35l4 20h249l4 -20q-21 -7 -38.5 -14t-34.5 -16q-19 -10 -37 -23t-35 -32l-187 -211 l122 -280q13 -30 28 -45q11 -10 21.5 -16t25.5 -13l-2 -20h-327l-4 20l75 33l-92 210l-172 -208l75 -35z" />
<glyph unicode="Y" horiz-adv-x="700" d="M424 55l57 -35l-4 -20h-309l-2 20l34 21q18 11 31 22.5t17 33.5l30 142q7 33 6 79t-8 94t-18.5 89.5t-26 67t-30.5 25.5t-35.5 -17t-35.5 -34l-20 16q37 69 85.5 105t97.5 36q63 0 98 -45t50 -122.5t18 -175.5q49 97 97 174.5t91 123t78 45.5q27 0 44 -21t27 -53t14 -67 l-22 -6q-11 17 -24.5 29t-30.5 12q-25 0 -57.5 -26.5t-67 -70.5t-66.5 -98t-56 -111t-35 -108l-18 -83z" />
<glyph unicode="Z" horiz-adv-x="675" d="M605 0h-556l1 50l475 585h-130q-14 0 -31 -1t-33 -3l-141 -181h-30q-3 60 11.5 125.5t33.5 114.5h550l-1 -50l-475 -585h136q14 0 31 1t33 3l141 181h30q3 -52 -10 -116t-35 -124z" />
<glyph unicode="[" horiz-adv-x="434" d="M340 -198h-274l204 958h274l-7 -33h-104l-190 -892h104z" />
<glyph unicode="\" horiz-adv-x="476" d="M314 -10l-108 751l8 8l84 11l108 -751l-8 -8z" />
<glyph unicode="]" horiz-adv-x="434" d="M190 760h274l-204 -958h-274l7 33h104l190 892h-104z" />
<glyph unicode="^" horiz-adv-x="526" d="M142 210h-98l222 340h66l78 -340h-92l-46 207z" />
<glyph unicode="_" horiz-adv-x="559" d="M-19 -150l14 70h510l-14 -70h-510z" />
<glyph unicode="`" horiz-adv-x="392" d="M396 577l-13 -15q-63 18 -112.5 42.5t-77.5 52t-28 54.5q0 32 29 44.5t66 12.5h17t17 -1l11 -8q14 -34 39 -85t52 -97z" />
<glyph unicode="a" d="M561 180q-4 -18 -7.5 -36.5t-3.5 -28.5q0 -19 17 -19q15 0 35.5 14t36.5 27l10 -10q-17 -32 -44 -64t-62 -52.5t-76 -20.5q-47 0 -73 26.5t-26 74.5q0 17 3.5 40.5t9.5 48.5l3 11h-6q-22 -55 -51.5 -101t-65.5 -73t-76 -27q-54 0 -87.5 43.5t-33.5 116.5q0 68 23 132 t66.5 115.5t106 82t142.5 30.5q62 0 123 -12.5t106 -35.5l-27 -80zM249 182q0 -27 6.5 -43.5t20.5 -16.5q19 0 39.5 25t39.5 63.5t34.5 80.5t25.5 76l19 74q-20 19 -50 19q-26 0 -50.5 -28t-43.5 -72t-30 -91.5t-11 -86.5z" />
<glyph unicode="b" horiz-adv-x="590" d="M505 510q57 0 83.5 -44t26.5 -106q0 -71 -20.5 -137.5t-61 -119t-101 -83t-140.5 -30.5q-66 0 -129 12.5t-110 35.5l27 80l107 502l12 54l-71 35v12q37 10 84 18t94 13.5t83 7.5l8 -10l-30 -130q-19 -85 -44 -169t-50 -170h4q18 42 42.5 82.5t54.5 73.5t63 53t68 20z M404 377q-14 0 -33 -18.5t-38 -47.5t-34.5 -62t-23.5 -61l-28 -130q12 -8 26.5 -13t31.5 -5q24 0 46.5 30t40.5 76t28 95.5t10 88.5q0 20 -5.5 33.5t-20.5 13.5z" />
<glyph unicode="c" horiz-adv-x="490" d="M369 510q73 0 120 -36.5t47 -93.5q0 -52 -31 -81t-75 -29q-19 0 -36 6t-31 14q6 23 14.5 58.5t8.5 61.5q0 50 -33 50q-19 0 -36.5 -20t-31 -53t-21.5 -73t-8 -79q0 -70 28.5 -100t72.5 -30q33 0 71.5 15.5t66.5 40.5l10 -10q-39 -76 -103 -118.5t-144 -42.5 q-85 0 -136 55t-51 146q0 65 24 122.5t65.5 101.5t95.5 69.5t113 25.5z" />
<glyph unicode="d" d="M561 180q-4 -18 -7.5 -36.5t-3.5 -28.5q0 -19 17 -19q15 0 35.5 14t36.5 27l10 -10q-17 -32 -44 -64t-62 -52.5t-76 -20.5q-47 0 -73 26.5t-26 74.5q0 17 3.5 40.5t9.5 48.5l3 11h-6q-22 -55 -51.5 -101t-65.5 -73t-76 -27q-54 0 -87.5 43.5t-33.5 116.5q0 68 23 132 t66.5 115.5t106 82t142.5 30.5q23 0 48 -2l28 112l11 52l-90 37v12q39 10 89.5 18.5t102 14t89.5 6.5l8 -10l-30 -130zM249 182q0 -27 6.5 -43.5t20.5 -16.5q18 0 37.5 23t38 58.5t34 75.5t25.5 75l22 87q-19 19 -49 19q-26 0 -50.5 -28t-43.5 -72t-30 -91.5t-11 -86.5z" />
<glyph unicode="e" horiz-adv-x="498" d="M505 151q-39 -76 -103 -118.5t-144 -42.5q-85 0 -136 55t-51 146q0 65 24 122.5t65.5 101.5t95.5 69.5t113 25.5q46 0 82.5 -16t58 -45t21.5 -69q0 -45 -28 -83.5t-88.5 -60t-158.5 -16.5q1 -59 29 -87t72 -28q33 0 71.5 15.5t66.5 40.5zM353 460q-22 0 -42.5 -28 t-34.5 -74t-19 -100q37 2 64.5 24t43.5 56.5t16 75.5q0 46 -28 46z" />
<glyph unicode="f" horiz-adv-x="385" d="M255 20q-19 -92 -63 -154.5t-102.5 -94t-123.5 -31.5q-55 0 -88.5 21t-33.5 55q0 20 10.5 33.5t26.5 20.5q30 -37 70 -37q41 0 71 37.5t47 119.5l93 440h-63l3 20l72 35l5 25q11 51 40 96.5t71 80t91 54t100 19.5q60 0 96.5 -26t36.5 -64q0 -27 -12.5 -46.5t-30.5 -31.5 t-35 -17q-21 38 -48.5 68.5t-61.5 30.5q-24 0 -35.5 -15.5t-16 -40.5t-7 -53.5t-8.5 -54.5l-6 -30h117l-11 -50h-117z" />
<glyph unicode="g" horiz-adv-x="518" d="M332 510q86 0 155 1t112 12q10 -15 10 -42q0 -21 -11 -38t-37 -17q-22 0 -54.5 13t-64.5 26l-3 -5q32 -17 54 -46.5t22 -73.5q0 -57 -23 -95t-56.5 -62t-67.5 -40t-57 -28t-23 -26q0 -15 19 -24.5t47 -20.5q31 -12 59 -27t46.5 -38.5t18.5 -61.5q0 -51 -36 -91t-97.5 -63 t-140.5 -23q-116 0 -180 34.5t-64 83.5q0 27 17.5 48t46.5 36.5t61 24.5l14 -11q-1 -3 -1.5 -6.5t-0.5 -8.5q0 -41 17 -77t49 -58.5t77 -22.5q32 0 57 17.5t25 48.5q0 26 -31 44t-69 38q-37 19 -67 41t-30 57q0 30 31 55t103 50q-80 5 -129.5 48t-49.5 110q0 60 32.5 109.5 t89.5 79t130 29.5zM246 286q0 -49 8 -75t30 -26q16 0 28 21t20.5 55t12.5 71.5t4 70.5q0 64 -34 64q-16 0 -29 -17.5t-22 -45t-13.5 -59t-4.5 -59.5z" />
<glyph unicode="h" horiz-adv-x="630" d="M59 19l34 161l94 440l12 54l-71 35v12q37 10 84 18t94 13.5t83 7.5l8 -10l-30 -130q-21 -88 -44.5 -171t-49.5 -168h4q16 35 39.5 74.5t55 74.5t68.5 57.5t80 22.5q50 0 76 -28t26 -66q0 -28 -9 -69.5t-21 -85.5t-21 -81q-4 -18 -7.5 -36.5t-3.5 -28.5q0 -19 17 -19 q15 0 35.5 14t36.5 27l10 -10q-17 -32 -44 -64t-62 -52.5t-76 -20.5q-47 0 -73 26.5t-26 74.5q0 17 3.5 40.5t9.5 48.5q9 36 18.5 71.5t16 64.5t6.5 44q0 27 -20 27q-16 0 -37 -21.5t-42 -54t-37 -68t-23 -63.5l-38 -180l-83 -3q-18 -1 -43.5 -2t-35.5 -1q-19 0 -14 25z" />
<glyph unicode="i" horiz-adv-x="362" d="M268 569q-34 0 -56.5 21t-22.5 57q0 31 17 56.5t45 41t59 15.5q34 0 56.5 -21t22.5 -56q0 -31 -17 -57t-44.5 -41.5t-59.5 -15.5zM297 180q-4 -18 -7.5 -36.5t-3.5 -28.5q0 -19 17 -19q15 0 35.5 14t36.5 27l10 -10q-17 -32 -44 -64t-62 -52.5t-76 -20.5q-47 0 -73 26.5 t-26 74.5q0 17 3.5 40.5t9.5 48.5q8 35 15.5 70t14.5 70q4 18 7.5 36.5t3.5 28.5q0 19 -17 19q-15 0 -35 -13.5t-37 -27.5l-10 10q17 33 44 64.5t62 52t76 20.5q47 0 73 -26.5t26 -74.5q0 -17 -3.5 -40t-9.5 -49q-7 -35 -14.5 -70t-15.5 -70z" />
<glyph unicode="j" horiz-adv-x="332" d="M257 569q-34 0 -56.5 21t-22.5 57q0 31 17 56.5t45 41t59 15.5q34 0 56.5 -21t22.5 -56q0 -31 -17 -57t-44.5 -41.5t-59.5 -15.5zM138 320q4 18 7.5 36.5t3.5 28.5q0 19 -17 19q-15 0 -35 -13.5t-37 -27.5l-10 10q17 33 44 64.5t62 52t76 20.5q47 0 73 -26.5t26 -74.5 q0 -17 -3.5 -40t-9.5 -49l-62 -300q-19 -92 -62.5 -154.5t-102.5 -94t-124 -31.5q-55 0 -88.5 21t-33.5 55q0 20 10.5 33.5t26.5 20.5q30 -37 70 -37q41 0 71 37.5t47 119.5z" />
<glyph unicode="k" horiz-adv-x="610" d="M59 19l34 161l94 440l12 54l-71 35v12q37 10 84 18t94 13.5t83 7.5l8 -10l-30 -130q-21 -88 -44.5 -171t-49.5 -168h4q16 35 39.5 74.5t54.5 74.5t69 57.5t83 22.5q51 0 77.5 -28t26.5 -66q0 -44 -23 -80.5t-55 -63t-59 -42.5q13 -36 25.5 -66.5t25 -49t24.5 -18.5 q15 0 34 14t35 27l10 -10q-17 -32 -44 -64t-62.5 -52.5t-77.5 -20.5q-46 0 -69.5 25.5t-37 69t-29.5 95.5l3 12q60 38 90 83.5t30 79.5q0 32 -25 32q-19 0 -42 -21.5t-45 -54.5t-38.5 -68t-23.5 -63l-38 -180l-83 -3q-18 -1 -43.5 -2t-35.5 -1q-19 0 -14 25z" />
<glyph unicode="l" horiz-adv-x="332" d="M273 180q-4 -18 -7.5 -36.5t-3.5 -28.5q0 -19 17 -19q15 0 35.5 14t36.5 27l10 -10q-17 -32 -44 -64t-62 -52.5t-76 -20.5q-47 0 -73 26.5t-26 74.5q0 17 3.5 40.5t9.5 48.5l94 440l12 54l-71 35v12q37 10 84 18t94 13.5t83 7.5l8 -10l-30 -130z" />
<glyph unicode="m" horiz-adv-x="952" d="M83 19l34 161l29 133q6 26 9.5 44.5t3.5 25.5q0 21 -17 21q-15 0 -35 -13.5t-37 -27.5l-10 10q18 32 44 63.5t59.5 52.5t72.5 21q44 0 68.5 -23.5t24.5 -61.5q0 -25 -10.5 -64t-21.5 -79l4 -1q16 35 39 74.5t53.5 74.5t67 57.5t78.5 22.5q40 0 64 -23.5t24 -61.5 q0 -25 -10.5 -64t-21.5 -79l4 -1q16 35 39 74.5t53.5 74.5t67 57.5t78.5 22.5q50 0 76 -28t26 -66q0 -28 -8 -69.5t-18.5 -85.5t-19.5 -81q-4 -18 -7.5 -36.5t-3.5 -28.5q0 -19 17 -19q15 0 35.5 14t36.5 27l10 -10q-17 -32 -44 -64t-62 -52.5t-76 -20.5q-47 0 -73 26.5 t-26 74.5q0 17 3.5 40.5t9.5 48.5q9 36 18.5 73.5t16 67.5t6.5 43q0 23 -20 23q-16 0 -37.5 -21.5t-42 -54t-36.5 -68t-23 -63.5l-38 -180l-83 -3q-18 -1 -43.5 -2t-35.5 -1q-19 0 -14 25l34 161q9 40 18.5 77.5t16 65.5t6.5 41q0 23 -20 23q-16 0 -37.5 -21.5t-42 -54 t-36.5 -68t-23 -63.5l-38 -180l-83 -3q-18 -1 -43.5 -2t-35.5 -1q-19 0 -14 25z" />
<glyph unicode="n" horiz-adv-x="654" d="M83 19l34 161q8 39 16 73t14 60q5 26 8.5 44.5t3.5 25.5q0 21 -17 21q-15 0 -35 -13.5t-37 -27.5l-10 10q18 32 44 63.5t59.5 52.5t72.5 21q44 0 68.5 -23.5t24.5 -61.5q0 -25 -10.5 -64t-21.5 -79l4 -1q16 35 39 74.5t53.5 74.5t67 57.5t78.5 22.5q50 0 76 -28t26 -66 q0 -28 -8 -69.5t-18.5 -85.5t-19.5 -81q-4 -18 -7.5 -36.5t-3.5 -28.5q0 -19 17 -19q15 0 35.5 14t36.5 27l10 -10q-17 -32 -44 -64t-62 -52.5t-76 -20.5q-47 0 -73 26.5t-26 74.5q0 17 3.5 40.5t9.5 48.5q9 36 18.5 71.5t16 64.5t6.5 44q0 27 -20 27q-16 0 -37.5 -21.5 t-42 -54t-36.5 -68t-23 -63.5l-38 -180l-83 -3q-18 -1 -43.5 -2t-35.5 -1q-19 0 -14 25z" />
<glyph unicode="o" horiz-adv-x="562" d="M578 309q0 -74 -24.5 -133t-66 -100.5t-94 -63.5t-109.5 -22q-62 0 -110 23.5t-75.5 69t-27.5 109.5q0 67 24 124.5t65.5 101t94.5 67.5t111 24q101 0 156.5 -55t55.5 -145zM256 111q0 -34 7 -55t26 -21q17 0 33 27.5t29 71t22.5 93t14.5 95.5t5 76q0 68 -33 68 q-17 0 -33 -25t-29 -65.5t-22.5 -88.5t-14.5 -94.5t-5 -81.5z" />
<glyph unicode="p" horiz-adv-x="614" d="M29 -235l34 161l54 254q10 45 19.5 87t16 73.5t6.5 42.5q0 21 -17 21q-15 0 -35 -13.5t-37 -27.5l-10 10q18 32 44 63.5t59.5 52.5t72.5 21q44 0 68.5 -23.5t24.5 -61.5q0 -27 -11.5 -66t-20.5 -77l4 -1q18 42 42.5 82.5t54.5 73.5t63 53t68 20q57 0 83.5 -44t26.5 -106 q0 -71 -20.5 -137.5t-61 -119t-101 -83t-140.5 -30.5q-29 0 -59 2l-14 -66l-38 -180l-83 -3q-18 -1 -43.5 -2t-35.5 -1q-19 0 -14 25zM428 377q-15 0 -34.5 -20t-39 -50.5t-35 -64.5t-22.5 -62l-26 -122q12 -8 26.5 -13t31.5 -5q24 0 46.5 30t40.5 76t28 95.5t10 88.5 q0 20 -5.5 33.5t-20.5 13.5z" />
<glyph unicode="q" horiz-adv-x="604" d="M293 -235l34 161l57 265h-6q-22 -55 -51.5 -101t-65.5 -73t-76 -27q-54 0 -87.5 43.5t-33.5 116.5q0 68 23 132t66.5 115.5t106 82t142.5 30.5q62 0 123 -12.5t106 -35.5l-27 -80l-97 -456l-38 -180l-83 -3q-18 -1 -43.5 -2t-35.5 -1q-19 0 -14 25zM249 182 q0 -27 6.5 -43.5t20.5 -16.5q19 0 39.5 25t39.5 63.5t34.5 80.5t25.5 76l19 74q-20 19 -50 19q-26 0 -50.5 -28t-43.5 -72t-30 -91.5t-11 -86.5z" />
<glyph unicode="r" horiz-adv-x="499" d="M83 19l34 161q17 78 29.5 132.5t12.5 70.5q0 21 -17 21q-15 0 -35 -13.5t-37 -27.5l-10 10q18 32 44 63.5t59.5 52.5t72.5 21q44 0 68.5 -23.5t24.5 -61.5q0 -25 -10.5 -64t-21.5 -79l4 -1q17 36 39 76t47.5 75t53 56.5t55.5 21.5q26 0 39.5 -17t13.5 -43q0 -30 -9 -61.5 t-22 -57.5t-24 -41q-17 12 -35.5 21t-42.5 9q-28 0 -52 -20.5t-41 -52.5t-26 -67l-38 -180l-83 -3q-18 -1 -43.5 -2t-35.5 -1q-19 0 -14 25z" />
<glyph unicode="s" horiz-adv-x="469" d="M456 149q0 -71 -58.5 -115t-172.5 -44q-49 0 -91 9.5t-67.5 29t-25.5 50.5q0 34 29.5 57t69.5 30l13 -10q3 -10 5.5 -19t5.5 -18q13 -38 29.5 -62t45.5 -24q23 0 36.5 15t13.5 37q0 28 -18.5 51t-46 45.5t-55.5 47t-46.5 55.5t-18.5 71q0 47 29.5 81.5t80.5 54t113 19.5 q90 0 133.5 -27.5t43.5 -66.5q0 -30 -25 -53t-65 -29l-12 9q-3 13 -6 25t-6 22q-10 36 -25 56.5t-41 20.5q-22 0 -36 -13.5t-14 -35.5q0 -28 18.5 -52t45.5 -47t54 -48t45.5 -55t18.5 -67z" />
<glyph unicode="t" horiz-adv-x="411" d="M206 -10q-57 0 -85.5 35t-28.5 88q0 11 1 23t4 24l57 270h-63l2 20l266 190l19 -2l-33 -158h125l-11 -50h-125l-52 -245q-1 -8 -2.5 -16t-1.5 -15q0 -49 42 -49q29 0 58 17.5t54 38.5l10 -10q-21 -41 -54.5 -78t-79 -60t-102.5 -23z" />
<glyph unicode="u" horiz-adv-x="658" d="M147 320q4 18 7.5 36.5t3.5 28.5q0 19 -17 19q-15 0 -35 -13.5t-37 -27.5l-10 10q17 33 44 64.5t62 52t76 20.5q47 0 73 -26.5t26 -74.5q0 -17 -3.5 -40t-9.5 -49q-18 -67 -26.5 -108t-8.5 -59q0 -31 22 -31q20 0 46.5 33t54 92.5t48.5 138.5l-1 -4l26 122l83 3 q18 1 43.5 2t35.5 1q19 0 14 -25l-34 -161l-31 -144q-4 -18 -7.5 -36.5t-3.5 -28.5q0 -19 17 -19q15 0 35.5 14t36.5 27l10 -10q-17 -32 -44 -64t-62 -52.5t-76 -20.5q-47 0 -73 26.5t-26 74.5q0 17 3.5 40.5t9.5 48.5l3 11h-7q-39 -94 -91.5 -147.5t-111.5 -53.5 q-48 0 -76.5 29t-28.5 83q0 39 13.5 95t26.5 123z" />
<glyph unicode="v" horiz-adv-x="538" d="M267 -10l-115 9q1 30 2 58t1 52q0 119 -4.5 183t-14.5 88t-28 24q-15 0 -33 -13.5t-33 -28.5l-12 11q18 33 46 64.5t64 52t75 20.5q54 0 82 -43t28 -149q0 -103 -19 -247q39 60 62 121.5t32.5 117t9.5 96.5q0 27 -3 48t-8 37q11 7 33 13t41 6q49 0 78 -25.5t29 -76.5 t-28.5 -106.5t-75 -111t-101.5 -107t-108 -93.5z" />
<glyph unicode="w" horiz-adv-x="806" d="M848 408q0 -51 -28.5 -106.5t-75 -111t-101.5 -107t-108 -93.5l-115 9q1 30 2 58t1 52v38.5v34.5q-63 -122 -156 -192l-115 9q1 30 2 58t1 52q0 119 -4.5 183t-14.5 88t-28 24q-15 0 -33 -13.5t-33 -28.5l-12 11q18 33 46 64.5t64 52t75 20.5q54 0 82 -43t28 -149 q0 -103 -19 -247q40 61 64 122.5t34.5 116.5t10.5 96q0 27 -3 48t-8 37q12 7 33 13t44 6q62 0 87 -45t25 -147q0 -103 -19 -247q39 60 62 121.5t32.5 117t9.5 96.5q0 27 -3 48t-8 37q11 7 33 13t41 6q49 0 78 -25.5t29 -76.5z" />
<glyph unicode="x" horiz-adv-x="533" d="M431 180q20 -47 29.5 -65.5t20.5 -18.5t28.5 13.5t31.5 27.5l10 -10q-15 -31 -38.5 -62.5t-54.5 -53t-69 -21.5t-59.5 22.5t-38.5 64.5t-42 103l-14 33q-18 -44 -24 -84t-6 -69q0 -18 2 -31t4 -24q-15 -7 -33.5 -11t-38.5 -4q-44 0 -74 20t-30 60q0 39 27.5 72.5t70 60 t87.5 46.5l-25 61q-21 50 -31.5 72t-23.5 22t-29.5 -13.5t-30.5 -27.5l-10 10q16 33 40.5 64.5t56.5 52t69 20.5q36 0 57 -23.5t39 -68.5t44 -108l10 -23q18 44 24 84t6 69q0 18 -2 31.5t-4 23.5q15 7 34 11t38 4q44 0 74 -20t30 -60q0 -39 -27.5 -72.5t-70 -60t-87.5 -46.5 z" />
<glyph unicode="y" horiz-adv-x="575" d="M227 510q59 0 89.5 -37t30.5 -123q0 -76 -16.5 -160t-46.5 -162q59 66 91 135.5t44.5 132.5t12.5 110q0 27 -3 48t-8 37q11 7 31.5 13t42.5 6q51 0 79 -29t28 -88q0 -122 -90.5 -235t-258.5 -203q-30 -62 -68.5 -110.5t-82.5 -76.5t-93 -28q-50 0 -81 21t-31 55 q0 20 10.5 33.5t26.5 20.5q14 -17 26 -27t29 -10q24 0 46 26t42 69.5t36 94.5q17 52 29 105.5t18.5 101.5t6.5 80q0 44 -11 69t-36 25q-15 0 -33 -13.5t-33 -28.5l-12 11q18 33 46 64.5t64 52t75 20.5z" />
<glyph unicode="z" horiz-adv-x="464" d="M155 15q-31 0 -59 -7t-51 -18l-31 45q80 76 154.5 147t140.5 143q-35 6 -70.5 10.5t-63.5 4.5q-31 0 -45.5 -8.5t-31.5 -41.5l-15 3q13 104 39 160.5t78 56.5q38 0 70.5 -16.5t58 -42.5t43.5 -53q23 27 44 55t41 57q23 -7 43 -24t20 -40q0 -25 -14 -43.5t-51 -47.5 l-128 -100l-128 -100q20 3 40.5 4t40.5 1q37 0 70 -2.5t56 -2.5q14 0 23.5 6.5t19.5 19.5q4 5 8.5 11t8.5 13l15 -6q-7 -30 -15.5 -66t-21.5 -68t-30.5 -53.5t-43.5 -21.5q-14 0 -41 4t-59.5 8.5t-63 8.5t-51.5 4z" />
<glyph unicode="{" horiz-adv-x="460" d="M372 -168l-10 -32q-124 0 -181.5 24t-57.5 79q0 35 12.5 73.5t29.5 77t29.5 73t12.5 62.5q0 33 -19 52t-63 25l6 28q51 6 78.5 27t39 53t14.5 69q2 23 1.5 47.5t-0.5 51.5q0 88 32 135t99 65t171 18l-4 -32q-43 0 -71.5 -24.5t-37.5 -67.5q-12 -55 -11 -109t-10 -108 q-12 -56 -61.5 -91t-118.5 -48q56 -11 89.5 -39.5t33.5 -73.5q0 -23 -11.5 -58t-27 -74t-27 -74t-11.5 -58q0 -33 19 -52t55 -19z" />
<glyph unicode="|" horiz-adv-x="325" d="M61 -260l-7 8l214 1005l78 7l7 -8l-214 -1005z" />
<glyph unicode="}" horiz-adv-x="460" d="M183 728l10 32q125 0 182 -24t57 -79q0 -35 -12.5 -73.5t-29.5 -77t-29.5 -73t-12.5 -62.5q0 -33 19.5 -52t62.5 -25l-6 -28q-50 -6 -78 -27t-39.5 -52.5t-14.5 -69.5q-1 -22 -1 -47v-52q0 -87 -32 -134.5t-99 -65.5t-171 -18l4 32q43 0 71.5 24.5t37.5 67.5 q12 55 11 109t10 108q12 56 61.5 91t118.5 48q-56 11 -89.5 39.5t-33.5 73.5q0 23 11.5 58t27 74t27 74t11.5 58q0 33 -19 52t-55 19z" />
<glyph unicode="~" d="M174 262q-8 0 -27 -17t-42 -40l-44 34q19 25 42.5 52.5t49 47t48.5 19.5q13 0 39 -5t57.5 -12.5t62 -15t54 -12.5t32.5 -5q8 0 27 17.5t42 39.5l44 -34q-18 -24 -42 -52t-49 -47.5t-49 -19.5q-13 0 -39 5t-57 12.5t-61.5 15t-54 12.5t-33.5 5z" />
<glyph unicode="&#xa1;" horiz-adv-x="348" d="M266 510q30 0 50.5 -19t20.5 -51q0 -27 -15.5 -50.5t-40.5 -37.5t-53 -14q-31 0 -51 19t-20 50q0 28 15.5 51.5t40.5 37.5t53 14zM218 -180l-10 -8q-32 -4 -64 -7t-56 -3q-26 0 -38.5 7.5t-12.5 26.5q0 9 2.5 21t6.5 23l140 401h64z" />
<glyph unicode="&#xa2;" horiz-adv-x="520" d="M286 -137l-62 -3l-6 8l26 124q-84 11 -128 64.5t-44 134.5q0 67 22.5 127t62.5 108t92.5 79.5t111.5 41.5l29 130l62 3l6 -8l-26 -123q62 -7 101.5 -42t39.5 -87t-32.5 -81t-77.5 -29q-19 0 -36 6t-31 14q6 23 14.5 58.5t8.5 61.5q0 50 -32 50q-23 0 -44.5 -23.5 t-38.5 -62.5t-27 -85.5t-10 -93.5q0 -65 27 -97.5t70 -32.5q33 0 71.5 15.5t66.5 40.5l10 -10q-32 -68 -83 -109.5t-115 -49.5z" />
<glyph unicode="&#xa3;" horiz-adv-x="685" d="M565 292h-149l-15 -59q-14 -54 -46.5 -101t-72.5 -81q41 -21 90 -42t107.5 -35t127.5 -14q15 0 29.5 2t30.5 3q5 -9 8.5 -21t3.5 -27q0 -52 -28.5 -78t-77.5 -26q-68 0 -157.5 54.5t-182.5 147.5q-58 -35 -107 -35q-28 0 -41.5 15t-13.5 37q0 26 20.5 48.5t56.5 22.5 q18 0 39 -7.5t45 -19.5q9 33 14 74.5t9 85.5l2 28l2 28h-124l15 70h115q2 25 5 47.5t7 40.5q15 88 57 143t102 81t129 26q65 0 101 -26t36 -64q0 -41 -30 -65t-64 -30q-9 64 -21 96.5t-35 32.5q-22 0 -38 -25t-29 -69t-28 -100l-23 -88h146z" />
<glyph unicode="&#xa4;" horiz-adv-x="562" d="M545 156l-70 -47l-52 69q-27 -15 -58 -24t-63 -9q-30 0 -54.5 7t-44.5 19l-80 -66l-55 70l78 65q-15 35 -15 78q0 40 17.5 78t46.5 68l-48 63l70 58q11 -13 24.5 -29.5t28.5 -36.5q25 12 52 19t55 7q32 0 58 -8t47 -22l85 70l55 -71l-86 -71q12 -33 12 -71 q0 -37 -14.5 -72t-40.5 -64q16 -20 29.5 -37.5t24.5 -31.5zM231 323q0 -34 22 -61t67 -27q37 0 65.5 19.5t45.5 50t17 62.5q0 35 -22 61.5t-67 26.5q-36 0 -65 -19.5t-46 -49.5t-17 -63z" />
<glyph unicode="&#xa5;" horiz-adv-x="716" d="M127 125l13 60h134l13 61q1 4 2 9h-135l13 60h126q0 45 -7 94t-19 91t-27 68t-31 26t-35.5 -17t-35.5 -34l-20 16q37 69 85.5 105t97.5 36q63 0 98.5 -44t50.5 -120t18 -172q49 95 96.5 171t90.5 120.5t78 44.5q27 0 44 -21t27 -53t14 -67l-22 -6q-11 17 -24.5 29 t-30.5 12q-24 0 -54.5 -23.5t-63.5 -63.5t-63.5 -89.5t-54.5 -102.5h127l-13 -60h-139q-13 -36 -20 -68v-2h145l-13 -60h-145l-6 -28l-9 -42l57 -35l-4 -20h-309l-2 20l34 21q18 11 31 22.5t17 33.5l6 28h-135z" />
<glyph unicode="&#xa6;" horiz-adv-x="326" d="M269 352l-79 -7l-6 8l85 400l78 7l7 -8zM140 -253l-78 -7l-7 8l84 396l79 7l6 -8z" />
<glyph unicode="&#xa7;" horiz-adv-x="585" d="M557 142q0 -64 -30 -120.5t-83 -100t-122 -68t-147 -24.5q-73 0 -117.5 24t-44.5 68q0 30 22 59.5t50 44.5l25 -2q30 -48 56.5 -79.5t57.5 -57.5q58 21 58 92q0 41 -18 80.5t-43 81.5q-15 24 -30 49t-29 50q-19 36 -31.5 74.5t-12.5 78.5q0 63 30 118.5t83 98.5t121.5 67 t146.5 24q73 0 117.5 -23t44.5 -66q0 -32 -21.5 -62t-50.5 -45l-25 2q-28 47 -56 79.5t-63 60.5q-57 -24 -57 -100q0 -37 18.5 -74.5t43.5 -76.5q14 -21 28 -42.5t27 -44.5q22 -38 37 -79t15 -87zM326 -87l7 -7q67 34 97.5 91t30.5 121q0 41 -11.5 75.5t-28.5 65.5 q-13 23 -28 45t-29 44q-23 36 -40.5 73t-17.5 80q0 29 9.5 58t30.5 55l-7 7q-64 -31 -95 -86.5t-31 -117.5q0 -36 10 -68.5t26 -62.5q13 -25 27.5 -49t29.5 -47q24 -40 42.5 -80.5t18.5 -87.5q0 -24 -9 -55.5t-32 -53.5z" />
<glyph unicode="&#xa8;" horiz-adv-x="546" d="M572 678q0 -41 -29 -69.5t-70 -28.5q-36 0 -58 22.5t-22 54.5q0 40 30 68.5t73 28.5q31 0 53.5 -20.5t22.5 -55.5zM331 678q0 -41 -29 -69.5t-70 -28.5q-36 0 -58 22.5t-22 54.5q0 40 30 68.5t73 28.5q31 0 53.5 -20.5t22.5 -55.5z" />
<glyph unicode="&#xa9;" horiz-adv-x="697" d="M342 -50q-79 0 -138.5 32.5t-92 90t-32.5 131.5q0 71 28.5 133.5t78 110t114.5 75t138 27.5q80 0 139 -32.5t91.5 -89.5t32.5 -132q0 -70 -28.5 -133t-78 -110.5t-114.5 -75t-138 -27.5zM433 500q-62 0 -116.5 -23.5t-96.5 -64.5t-66 -94.5t-24 -113.5q0 -59 27 -105.5 t76 -72.5t114 -26q62 0 116.5 23.5t96.5 64.5t66 94.5t24 113.5t-27 106t-75.5 72t-114.5 26zM521 191q-26 -52 -66.5 -81.5t-90.5 -29.5q-58 0 -94 36.5t-36 94.5q0 56 28.5 103.5t74.5 76.5t100 29q50 0 80 -22t30 -55q0 -25 -18 -41t-47 -16q-13 0 -24 4t-20 9 q2 8 4.5 19t2.5 19q0 33 -21 33q-16 0 -31 -20t-24 -49.5t-9 -60.5q0 -70 72 -70q20 0 41.5 8t39.5 21z" />
<glyph unicode="&#xaa;" horiz-adv-x="562" d="M608 459q-13 -25 -34.5 -50t-49.5 -41t-61 -16q-38 0 -60 21.5t-22 60.5q0 14 3 32.5t7 38.5h-3q-26 -66 -64.5 -109.5t-85.5 -43.5q-45 0 -73 36.5t-28 96.5q0 51 18 99.5t52.5 88t84 62.5t113.5 23q51 0 101 -10.5t87 -29.5l-22 -67l-30 -146q-3 -14 -5.5 -28.5 t-2.5 -22.5q0 -15 13 -15q11 0 26.5 9.5t27.5 19.5zM293 507q0 -20 5 -33t16 -13q15 0 30 19.5t29 49.5t25.5 62.5t18.5 58.5v0l13 50q-15 13 -38 13q-20 0 -38 -21.5t-31.5 -54.5t-21.5 -68t-8 -63z" />
<glyph unicode="&#xab;" horiz-adv-x="557" d="M265 29l-17 -9q-35 50 -75 97t-76 83l-5 9l20 90q67 53 129.5 102.5t105.5 86.5l15 -12q-34 -59 -71.5 -121t-71.5 -118q12 -47 24 -100.5t22 -107.5zM489 29l-17 -9q-35 50 -75 97t-76 83l-5 9l20 90q67 53 129.5 102.5t105.5 86.5l15 -12q-34 -59 -71.5 -121 t-71.5 -118q12 -47 24 -100.5t22 -107.5z" />
<glyph unicode="&#xac;" d="M609 414l-54 -253h-90l37 171h-370l18 85q31 1 76 1.5t97 1.5t104.5 1.5t98 0.5h77.5z" />
<glyph unicode="&#xae;" horiz-adv-x="697" d="M342 -50q-79 0 -138.5 32.5t-92 90t-32.5 131.5q0 71 28.5 133.5t78 110t114.5 75t138 27.5q80 0 139 -32.5t91.5 -89.5t32.5 -132q0 -70 -28.5 -133t-78 -110.5t-114.5 -75t-138 -27.5zM388 350l-21 -98h25q34 0 51 22.5t17 49.5q0 41 -44 41h-25zM364 90h-178l-2 20 l22 12q11 6 14.5 13t7.5 24l40 191l5 26l-26 14l4 20h180q70 0 106.5 -23t36.5 -63q0 -34 -22 -57t-53 -37q9 -23 18 -48t19 -43.5t24 -21.5l22 -6q32 38 50 85.5t18 99.5q0 60 -27 106t-75.5 72t-114.5 26q-62 0 -116.5 -23.5t-96.5 -64.5t-66 -94.5t-24 -113.5 q0 -59 27 -105.5t76 -72.5t114 -26q63 0 118.5 24t96.5 65l-99 -3q-19 -1 -28.5 6.5t-16.5 23.5l-38 91h-23l-10 -48l-7 -34l28 -15z" />
<glyph unicode="&#xaf;" horiz-adv-x="501" d="M161 612l18 82h332l-18 -82h-332z" />
<glyph unicode="&#xb0;" horiz-adv-x="342" d="M416 596q0 -42 -20.5 -76t-55 -54t-77.5 -20q-49 0 -80 28.5t-31 76.5q0 42 20.5 76t55 54t77.5 20q50 0 80.5 -28.5t30.5 -76.5zM210 562q0 -29 17.5 -47.5t46.5 -18.5q38 0 61 25t23 64q0 29 -17.5 47.5t-46.5 18.5q-38 0 -61 -25t-23 -64z" />
<glyph unicode="&#xb1;" d="M585 398h-160l-30 -143h-88l29 143h-161l18 85q28 1 71 1.5t90 1.5l29 139h90l-29 -138q48 1 90.5 1h71.5l7 -8zM537 75h-450l19 85q31 1 76 1.5t97 1.5t104.5 1.5t98 0.5h77.5l6 -8z" />
<glyph unicode="&#xb2;" horiz-adv-x="379" d="M204 345q-23 0 -44 -4t-38 -9l-11 80q119 55 168.5 100.5t49.5 87.5q0 20 -13.5 34.5t-40.5 14.5q-28 0 -54 -12t-43 -29l-12 6q14 42 42 75t64.5 52t75.5 19q57 0 90.5 -30.5t33.5 -78.5q0 -52 -31.5 -95t-93.5 -71q-24 -11 -53.5 -21.5t-64.5 -23.5q27 4 50 4 q29 0 52.5 -2.5t41.5 -2.5t30 9t21 25l13 -5q-4 -21 -8 -41.5t-11 -37.5q-10 -25 -22.5 -41t-32.5 -16q-33 0 -72.5 6.5t-86.5 6.5z" />
<glyph unicode="&#xb3;" horiz-adv-x="389" d="M446 468q0 -62 -90 -93.5t-257 -42.5l-1 20q86 24 140.5 53.5t54.5 64.5q0 17 -14 29t-41 12q-20 0 -34 -3l-5 34q57 8 87.5 29t30.5 50q0 20 -11.5 31.5t-34.5 11.5q-19 0 -41.5 -9t-39.5 -27l-12 6q30 59 80 92.5t108 33.5q54 0 83 -25t29 -59q0 -36 -22 -61.5 t-57.5 -41.5t-74.5 -25q64 -3 93 -24.5t29 -55.5z" />
<glyph unicode="&#xb4;" horiz-adv-x="391" d="M291 763l13 6q8 -1 17 -1.5t17 -2.5q44 -8 64 -21t20 -32q0 -21 -22.5 -44.5t-61 -45.5t-88 -38t-104.5 -22l-10 16q32 30 61.5 64t54 66t39.5 55z" />
<glyph unicode="&#xb6;" horiz-adv-x="635" d="M514 37q-13 -60 -47 -107t-84.5 -74t-114.5 -27q-50 0 -94.5 11t-72 34t-27.5 59q0 37 27 67.5t84 45.5l15 -10q-3 -28 -3 -55q0 -44 18.5 -73t64.5 -29q50 0 89.5 44t55.5 120l117 550l9 42h-90l-91 -425q-115 0 -181.5 55.5t-66.5 151.5q0 80 47.5 141.5t131.5 96.5 t192 35h230l2 -20l-45 -21q-18 -8 -30.5 -20.5t-17.5 -35.5z" />
<glyph unicode="&#xb7;" horiz-adv-x="369" d="M335 286q0 -33 -16.5 -60t-43.5 -43t-59 -16q-42 0 -67 25.5t-25 62.5q0 31 17 57.5t45.5 42.5t61.5 16q37 0 62 -23.5t25 -61.5z" />
<glyph unicode="&#xb8;" horiz-adv-x="366" d="M218 -131q0 -33 -32.5 -60.5t-89.5 -45t-133 -23.5l-2 16q44 15 72 40t28 49t-35 32l-4 10l44 113h61l-23 -57q114 -11 114 -74z" />
<glyph unicode="&#xb9;" horiz-adv-x="314" d="M344 342h-245l-1 13l19 6q49 15 56 50l58 260l-58 16l2 14l202 59l5 -5l-80 -374l46 -26z" />
<glyph unicode="&#xba;" horiz-adv-x="478" d="M556 602q0 -77 -36.5 -133.5t-94 -86.5t-121.5 -30q-75 0 -123 40t-48 115q0 53 21 99t57 80t81 53t94 19q82 0 126 -43t44 -113zM289 434q0 -43 25 -43q15 0 28 21.5t23.5 55.5t18.5 73.5t12 76t4 61.5q0 40 -22 40q-18 0 -34 -29t-28.5 -74t-19.5 -93.5t-7 -88.5z" />
<glyph unicode="&#xbb;" horiz-adv-x="557" d="M376 479l17 9q35 -49 75 -96.5t76 -83.5l5 -9l-20 -90q-67 -52 -129 -101.5t-106 -87.5l-15 12q34 59 71.5 121t71.5 118q-12 47 -24 100.5t-22 107.5zM152 479l17 9q35 -49 75 -96.5t76 -83.5l5 -9l-20 -90q-67 -52 -129 -101.5t-106 -87.5l-15 12q34 59 71.5 121 t71.5 118q-12 47 -24 100.5t-22 107.5z" />
<glyph unicode="&#xbc;" horiz-adv-x="1000" d="M390 282h-245l-1 13l19 6q49 15 56 50l58 260l-58 16l2 14l202 59l5 -5l-80 -374l46 -26zM860 700l-575 -710h-71l574 710h72zM814 418l94 -11l-54 -251l59 2l-18 -69l-55 1l-19 -90h-135l20 92l-166 3l4 43zM749 288l-137 -141l107 4z" />
<glyph unicode="&#xbd;" horiz-adv-x="1000" d="M860 700l-575 -710h-71l574 710h72zM390 282h-245l-1 13l19 6q49 15 56 50l58 260l-58 16l2 14l202 59l5 -5l-80 -374l46 -26zM682 3q-23 0 -44 -4t-38 -9l-11 80q119 55 168.5 100.5t49.5 87.5q0 20 -13.5 34.5t-40.5 14.5q-28 0 -54 -12t-43 -29l-12 6q14 42 42 75 t64.5 52t75.5 19q57 0 90.5 -30.5t33.5 -78.5q0 -52 -31.5 -95t-93.5 -71q-24 -11 -53.5 -21.5t-64.5 -23.5q27 4 50 4q29 0 52.5 -2.5t41.5 -2.5t30 9t21 25l13 -5q-4 -21 -8 -41.5t-11 -37.5q-10 -25 -22.5 -41t-32.5 -16q-33 0 -72.5 6.5t-86.5 6.5z" />
<glyph unicode="&#xbe;" horiz-adv-x="1000" d="M471 408q0 -62 -90 -93.5t-257 -42.5l-1 20q86 24 140.5 53.5t54.5 64.5q0 17 -14 29t-41 12q-20 0 -34 -3l-5 34q57 8 87.5 29t30.5 50q0 20 -11.5 31.5t-34.5 11.5q-19 0 -41.5 -9t-39.5 -27l-12 6q30 59 80 92.5t108 33.5q54 0 83 -25t29 -59q0 -36 -22 -61.5 t-57.5 -41.5t-74.5 -25q64 -3 93 -24.5t29 -55.5zM870 700l-575 -710h-71l574 710h72zM814 418l94 -11l-54 -251l59 2l-18 -69l-55 1l-19 -90h-135l20 92l-166 3l4 43zM749 288l-137 -141l107 4z" />
<glyph unicode="&#xbf;" horiz-adv-x="452" d="M339 510q30 0 50.5 -19t20.5 -51q0 -27 -15.5 -50.5t-40.5 -37.5t-53 -14q-31 0 -51 19t-20 50q0 28 15.5 51.5t40.5 37.5t53 14zM218 273l8 10q53 0 85 -18.5t32 -60.5q0 -39 -19 -66t-47 -49.5t-56.5 -46.5t-47.5 -54.5t-19 -75.5q0 -62 45 -62q28 0 47 22.5t28.5 56 t9.5 65.5q0 7 -0.5 13t-0.5 12q32 16 75 16q34 0 53.5 -17t19.5 -47q0 -37 -21.5 -68.5t-57.5 -54.5t-80.5 -35.5t-90.5 -12.5q-98 0 -149.5 36.5t-51.5 109.5q0 41 19 72.5t49 55t63.5 43t63.5 37t49 36t19 40.5q0 26 -25 43z" />
<glyph unicode="&#xc0;" horiz-adv-x="723" d="M672 796l-9 -19q-51 0 -98.5 3.5t-85.5 12t-60 25t-22 43.5q0 21 16 39t38 30.5t41 18.5l13 -2q16 -20 42.5 -46.5t59 -54t65.5 -50.5zM449 690h115l74 -595q3 -27 12 -38.5t27 -20.5l31 -16l-2 -20h-320l-4 20l75 33l-17 145l-216 -3l-78 -142l75 -33l-4 -20h-210l-4 20 l58 25q18 8 28.5 18t21.5 30zM251 245l184 -2l-32 278z" />
<glyph unicode="&#xc1;" horiz-adv-x="723" d="M610 946l13 2q38 -19 54 -36t16 -37q0 -46 -81.5 -72.5t-230.5 -26.5l-6 19q45 22 90 49t83 54t62 48zM449 690h115l74 -595q3 -27 12 -38.5t27 -20.5l31 -16l-2 -20h-320l-4 20l75 33l-17 145l-216 -3l-78 -142l75 -33l-4 -20h-210l-4 20l58 25q18 8 28.5 18t21.5 30z M251 245l184 -2l-32 278z" />
<glyph unicode="&#xc2;" horiz-adv-x="723" d="M707 787l-18 -11q-33 18 -69.5 36t-73.5 33q-39 -16 -84.5 -34t-90.5 -35l-11 14q41 40 80 80t67 71l13 8h95q31 -43 55 -85.5t37 -76.5zM449 690h115l74 -595q3 -27 12 -38.5t27 -20.5l31 -16l-2 -20h-320l-4 20l75 33l-17 145l-216 -3l-78 -142l75 -33l-4 -20h-210 l-4 20l58 25q18 8 28.5 18t21.5 30zM251 245l184 -2l-32 278z" />
<glyph unicode="&#xc3;" horiz-adv-x="723" d="M398 833q-18 -10 -36.5 -25t-35.5 -29l-17 8q20 77 66 119.5t105 42.5q41 0 74.5 -12.5t65.5 -26.5t66 -18q18 11 36.5 26t35.5 28l17 -8q-20 -76 -66 -119t-105 -43q-40 0 -74 13t-66 27t-66 17zM449 690h115l74 -595q3 -27 12 -38.5t27 -20.5l31 -16l-2 -20h-320l-4 20 l75 33l-17 145l-216 -3l-78 -142l75 -33l-4 -20h-210l-4 20l58 25q18 8 28.5 18t21.5 30zM251 245l184 -2l-32 278z" />
<glyph unicode="&#xc4;" horiz-adv-x="723" d="M748 870q0 -39 -29 -65.5t-71 -26.5q-37 0 -59 20.5t-22 50.5q0 38 30.5 64.5t73.5 26.5q32 0 54.5 -19t22.5 -51zM499 870q0 -39 -29 -65.5t-71 -26.5q-37 0 -59 20.5t-22 50.5q0 38 30.5 64.5t73.5 26.5q32 0 54.5 -19t22.5 -51zM449 690h115l74 -595q3 -27 12 -38.5 t27 -20.5l31 -16l-2 -20h-320l-4 20l75 33l-17 145l-216 -3l-78 -142l75 -33l-4 -20h-210l-4 20l58 25q18 8 28.5 18t21.5 30zM251 245l184 -2l-32 278z" />
<glyph unicode="&#xc5;" horiz-adv-x="723" d="M654 879q0 -32 -19 -58t-51.5 -41.5t-72.5 -15.5q-45 0 -71.5 22t-26.5 59q0 32 19 58t51.5 41t72.5 15q45 0 71.5 -21.5t26.5 -58.5zM480 846q0 -19 11 -31t30 -12q28 0 47 22t19 53q0 20 -11 31t-30 11q-28 0 -47 -21.5t-19 -52.5zM449 690h115l74 -595q3 -27 12 -38.5 t27 -20.5l31 -16l-2 -20h-320l-4 20l75 33l-17 145l-216 -3l-78 -142l75 -33l-4 -20h-210l-4 20l58 25q18 8 28.5 18t21.5 30zM251 245l184 -2l-32 278z" />
<glyph unicode="&#xc6;" horiz-adv-x="952" d="M414 628l-67 37l7 25h660q0 -58 -15.5 -120.5t-41.5 -119.5h-30q-15 64 -25 100t-16.5 55t-12.5 31q-13 2 -30.5 2.5t-31.5 0.5l-75 1l-58 -273l184 8l-18 -69l-176 10l-47 -219l-10 -47l100 -1q30 0 63 5q11 11 25.5 29.5t39.5 55.5t68 101h30q3 -57 -9.5 -123 t-35.5 -117h-536l-2 20l34 21q18 11 31 22.5t17 33.5l47 220l-192 -2l-143 -261l68 -29l-7 -25h-195l3 25q17 7 30 12.5t24 12.5q11 8 21.5 17.5t18.5 25.5zM550 635h-83l-149 -270l174 -2z" />
<glyph unicode="&#xc7;" horiz-adv-x="663" d="M511 -131q0 -33 -32.5 -60.5t-89.5 -45t-133 -23.5l-2 16q44 15 72 40t28 49t-35 32l-4 10l41 105q-123 13 -189.5 87t-66.5 201q0 86 33 161.5t90.5 134t132.5 91.5t160 33q62 0 111.5 -9t84.5 -23q-1 -36 -9.5 -78t-20.5 -81t-25 -69h-30q-17 54 -29.5 90t-23 61 t-21.5 45q-13 3 -27 3q-49 0 -91.5 -29t-75 -80t-51 -117.5t-18.5 -142.5q0 -64 17 -114t48 -78t72 -28q14 0 24 3q35 31 75 75.5t94 111.5h30q-3 -53 -17 -113t-34 -115q-48 -11 -91 -16.5t-92 -5.5l-19 -47q114 -11 114 -74z" />
<glyph unicode="&#xc8;" horiz-adv-x="637" d="M628 796l-9 -19q-51 0 -98.5 3.5t-85.5 12t-60 25t-22 43.5q0 21 16 39t38 30.5t41 18.5l13 -2q16 -20 42.5 -46.5t59 -54t65.5 -50.5zM414 593l-48 -225l181 7l-18 -69l-174 10l-47 -219l-10 -48h98q20 0 34 1t29 4q11 11 25.5 29.5t39.5 55.5t68 101h30 q3 -57 -9.5 -123t-35.5 -117h-534l-2 20l34 21q18 11 31 22.5t17 33.5l106 496l9 42l-57 35l4 20h514q0 -58 -15.5 -120.5t-41.5 -119.5h-30q-15 64 -25 100t-16.5 55t-12.5 31q-7 2 -24.5 2.5t-37.5 0.5h-72z" />
<glyph unicode="&#xc9;" horiz-adv-x="637" d="M556 946l13 2q38 -19 54 -36t16 -37q0 -46 -81.5 -72.5t-230.5 -26.5l-6 19q45 22 90 49t83 54t62 48zM414 593l-48 -225l181 7l-18 -69l-174 10l-47 -219l-10 -48h98q20 0 34 1t29 4q11 11 25.5 29.5t39.5 55.5t68 101h30q3 -57 -9.5 -123t-35.5 -117h-534l-2 20l34 21 q18 11 31 22.5t17 33.5l106 496l9 42l-57 35l4 20h514q0 -58 -15.5 -120.5t-41.5 -119.5h-30q-15 64 -25 100t-16.5 55t-12.5 31q-7 2 -24.5 2.5t-37.5 0.5h-72z" />
<glyph unicode="&#xca;" horiz-adv-x="637" d="M663 787l-18 -11q-33 18 -69.5 36t-73.5 33q-39 -16 -84.5 -34t-90.5 -35l-11 14q41 40 80 80t67 71l13 8h95q31 -43 55 -85.5t37 -76.5zM414 593l-48 -225l181 7l-18 -69l-174 10l-47 -219l-10 -48h98q20 0 34 1t29 4q11 11 25.5 29.5t39.5 55.5t68 101h30 q3 -57 -9.5 -123t-35.5 -117h-534l-2 20l34 21q18 11 31 22.5t17 33.5l106 496l9 42l-57 35l4 20h514q0 -58 -15.5 -120.5t-41.5 -119.5h-30q-15 64 -25 100t-16.5 55t-12.5 31q-7 2 -24.5 2.5t-37.5 0.5h-72z" />
<glyph unicode="&#xcb;" horiz-adv-x="637" d="M704 870q0 -39 -29 -65.5t-71 -26.5q-37 0 -59 20.5t-22 50.5q0 38 30.5 64.5t73.5 26.5q32 0 54.5 -19t22.5 -51zM455 870q0 -39 -29 -65.5t-71 -26.5q-37 0 -59 20.5t-22 50.5q0 38 30.5 64.5t73.5 26.5q32 0 54.5 -19t22.5 -51zM414 593l-48 -225l181 7l-18 -69 l-174 10l-47 -219l-10 -48h98q20 0 34 1t29 4q11 11 25.5 29.5t39.5 55.5t68 101h30q3 -57 -9.5 -123t-35.5 -117h-534l-2 20l34 21q18 11 31 22.5t17 33.5l106 496l9 42l-57 35l4 20h514q0 -58 -15.5 -120.5t-41.5 -119.5h-30q-15 64 -25 100t-16.5 55t-12.5 31 q-7 2 -24.5 2.5t-37.5 0.5h-72z" />
<glyph unicode="&#xcc;" horiz-adv-x="413" d="M516 796l-9 -19q-51 0 -98.5 3.5t-85.5 12t-60 25t-22 43.5q0 21 16 39t38 30.5t41 18.5l13 -2q16 -20 42.5 -46.5t59 -54t65.5 -50.5zM299 55l57 -35l-4 -20h-309l-2 20l34 21q18 11 31 22.5t17 33.5l105 496l9 42l-57 35l4 20h309l2 -20l-34 -21q-18 -11 -30.5 -22 t-17.5 -34l-105 -496z" />
<glyph unicode="&#xcd;" horiz-adv-x="413" d="M446 946l13 2q38 -19 54 -36t16 -37q0 -46 -81.5 -72.5t-230.5 -26.5l-6 19q45 22 90 49t83 54t62 48zM299 55l57 -35l-4 -20h-309l-2 20l34 21q18 11 31 22.5t17 33.5l105 496l9 42l-57 35l4 20h309l2 -20l-34 -21q-18 -11 -30.5 -22t-17.5 -34l-105 -496z" />
<glyph unicode="&#xce;" horiz-adv-x="413" d="M532 787l-18 -11q-33 18 -69.5 36t-73.5 33q-39 -16 -84.5 -34t-90.5 -35l-11 14q41 40 80 80t67 71l13 8h95q31 -43 55 -85.5t37 -76.5zM299 55l57 -35l-4 -20h-309l-2 20l34 21q18 11 31 22.5t17 33.5l105 496l9 42l-57 35l4 20h309l2 -20l-34 -21q-18 -11 -30.5 -22 t-17.5 -34l-105 -496z" />
<glyph unicode="&#xcf;" horiz-adv-x="413" d="M592 870q0 -39 -29 -65.5t-71 -26.5q-37 0 -59 20.5t-22 50.5q0 38 30.5 64.5t73.5 26.5q32 0 54.5 -19t22.5 -51zM343 870q0 -39 -29 -65.5t-71 -26.5q-37 0 -59 20.5t-22 50.5q0 38 30.5 64.5t73.5 26.5q32 0 54.5 -19t22.5 -51zM299 55l57 -35l-4 -20h-309l-2 20 l34 21q18 11 31 22.5t17 33.5l105 496l9 42l-57 35l4 20h309l2 -20l-34 -21q-18 -11 -30.5 -22t-17.5 -34l-105 -496z" />
<glyph unicode="&#xd0;" horiz-adv-x="758" d="M287 0h-244l-2 20l34 21q18 11 31 22.5t17 33.5l49 226h-94l10 50h95l48 220h-1l9 42l-57 35l4 20h311q85 0 150.5 -29.5t103.5 -87.5t38 -145q0 -82 -28 -158.5t-83.5 -137.5t-138 -96.5t-191.5 -35.5h-61l11 50h46q55 0 101.5 35t81 94t53.5 133t19 152q0 86 -31 131 t-97 45h-46l-10 -47l-47 -220h124l-11 -50h-124l-49 -226z" />
<glyph unicode="&#xd1;" horiz-adv-x="727" d="M412 833q-18 -10 -36.5 -25t-35.5 -29l-17 8q20 77 66 119.5t105 42.5q41 0 74.5 -12.5t65.5 -26.5t66 -18q18 11 36.5 26t35.5 28l17 -8q-20 -76 -66 -119t-105 -43q-40 0 -74 13t-66 27t-66 17zM175 62l65 -37l-5 -25h-206l-3 25l40 20q24 12 38.5 21.5t18.5 30.5 l112 531l-65 37l5 25h214l219 -472l80 375l8 35l-85 37l5 25h226l3 -25l-40 -20q-24 -12 -38 -21.5t-19 -30.5l-126 -593h-115l-236 511l-88 -414z" />
<glyph unicode="&#xd2;" horiz-adv-x="702" d="M663 796l-9 -19q-51 0 -98.5 3.5t-85.5 12t-60 25t-22 43.5q0 21 16 39t38 30.5t41 18.5l13 -2q16 -20 42.5 -46.5t59 -54t65.5 -50.5zM734 439q0 -101 -31.5 -183.5t-86 -142t-123 -91.5t-142.5 -32t-132 31t-91 89.5t-33 139.5q0 93 31.5 174.5t85.5 143.5t122.5 97 t143.5 35q84 0 141 -33.5t86 -92.5t29 -135zM285 143q0 -45 17.5 -71.5t50.5 -26.5q26 0 50 26t45.5 70t39 98t30 110.5t19.5 108.5t7 91q0 96 -65 96q-33 0 -62 -33.5t-53.5 -89t-42 -122t-27 -134t-9.5 -123.5z" />
<glyph unicode="&#xd3;" horiz-adv-x="702" d="M612 946l13 2q38 -19 54 -36t16 -37q0 -46 -81.5 -72.5t-230.5 -26.5l-6 19q45 22 90 49t83 54t62 48zM734 439q0 -101 -31.5 -183.5t-86 -142t-123 -91.5t-142.5 -32t-132 31t-91 89.5t-33 139.5q0 93 31.5 174.5t85.5 143.5t122.5 97t143.5 35q84 0 141 -33.5t86 -92.5 t29 -135zM285 143q0 -45 17.5 -71.5t50.5 -26.5q26 0 50 26t45.5 70t39 98t30 110.5t19.5 108.5t7 91q0 96 -65 96q-33 0 -62 -33.5t-53.5 -89t-42 -122t-27 -134t-9.5 -123.5z" />
<glyph unicode="&#xd4;" horiz-adv-x="702" d="M679 787l-18 -11q-33 18 -69.5 36t-73.5 33q-39 -16 -84.5 -34t-90.5 -35l-11 14q41 40 80 80t67 71l13 8h95q31 -43 55 -85.5t37 -76.5zM734 439q0 -101 -31.5 -183.5t-86 -142t-123 -91.5t-142.5 -32t-132 31t-91 89.5t-33 139.5q0 93 31.5 174.5t85.5 143.5t122.5 97 t143.5 35q84 0 141 -33.5t86 -92.5t29 -135zM285 143q0 -45 17.5 -71.5t50.5 -26.5q26 0 50 26t45.5 70t39 98t30 110.5t19.5 108.5t7 91q0 96 -65 96q-33 0 -62 -33.5t-53.5 -89t-42 -122t-27 -134t-9.5 -123.5z" />
<glyph unicode="&#xd5;" horiz-adv-x="702" d="M381 833q-18 -10 -36.5 -25t-35.5 -29l-17 8q20 77 66 119.5t105 42.5q41 0 74.5 -12.5t65.5 -26.5t66 -18q18 11 36.5 26t35.5 28l17 -8q-20 -76 -66 -119t-105 -43q-40 0 -74 13t-66 27t-66 17zM734 439q0 -101 -31.5 -183.5t-86 -142t-123 -91.5t-142.5 -32t-132 31 t-91 89.5t-33 139.5q0 93 31.5 174.5t85.5 143.5t122.5 97t143.5 35q84 0 141 -33.5t86 -92.5t29 -135zM285 143q0 -45 17.5 -71.5t50.5 -26.5q26 0 50 26t45.5 70t39 98t30 110.5t19.5 108.5t7 91q0 96 -65 96q-33 0 -62 -33.5t-53.5 -89t-42 -122t-27 -134t-9.5 -123.5z " />
<glyph unicode="&#xd6;" horiz-adv-x="702" d="M739 870q0 -39 -29 -65.5t-71 -26.5q-37 0 -59 20.5t-22 50.5q0 38 30.5 64.5t73.5 26.5q32 0 54.5 -19t22.5 -51zM490 870q0 -39 -29 -65.5t-71 -26.5q-37 0 -59 20.5t-22 50.5q0 38 30.5 64.5t73.5 26.5q32 0 54.5 -19t22.5 -51zM734 439q0 -101 -31.5 -183.5t-86 -142 t-123 -91.5t-142.5 -32t-132 31t-91 89.5t-33 139.5q0 93 31.5 174.5t85.5 143.5t122.5 97t143.5 35q84 0 141 -33.5t86 -92.5t29 -135zM285 143q0 -45 17.5 -71.5t50.5 -26.5q26 0 50 26t45.5 70t39 98t30 110.5t19.5 108.5t7 91q0 96 -65 96q-33 0 -62 -33.5t-53.5 -89 t-42 -122t-27 -134t-9.5 -123.5z" />
<glyph unicode="&#xd7;" d="M487 130l-122 153l-188 -153l-49 69l184 150l-120 151l68 60q22 -26 55 -66.5t69 -85.5l187 152l49 -69l-183 -149q35 -44 66 -83.5t53 -66.5l-2 -11z" />
<glyph unicode="&#xd8;" horiz-adv-x="702" d="M734 439q0 -101 -31.5 -183.5t-86 -142t-123 -91.5t-142.5 -32q-115 0 -186 72l-67 -67l-35 36l71 70q-19 31 -29 68t-10 81q0 93 31.5 174.5t85.5 143.5t122.5 97t143.5 35q61 0 108 -18.5t79 -51.5l66 65l36 -35l-71 -70q38 -63 38 -151zM479 645q-33 0 -62.5 -34.5 t-54 -91t-42 -124.5t-26.5 -135l248 247q2 23 2 42q0 96 -65 96zM285 143q0 -45 17.5 -71.5t50.5 -26.5q31 0 59 35.5t51.5 92.5t41.5 124t28 130l-247 -245q-1 -20 -1 -39z" />
<glyph unicode="&#xd9;" horiz-adv-x="694" d="M696 796l-9 -19q-51 0 -98.5 3.5t-85.5 12t-60 25t-22 43.5q0 21 16 39t38 30.5t41 18.5l13 -2q16 -20 42.5 -46.5t59 -54t65.5 -50.5zM211 635l-57 35l4 20h309l2 -20l-34 -21q-18 -11 -30.5 -22t-17.5 -34l-72 -338q-4 -18 -5.5 -35.5t-1.5 -33.5q0 -64 28.5 -100 t83.5 -36q65 0 108 49.5t65 152.5l76 351l5 25l-84 37l5 25h226l3 -25l-90 -37l-5 -25l-74 -348q-17 -83 -51 -142.5t-91 -91t-146 -31.5q-111 0 -176.5 52t-65.5 151q0 13 1.5 31t5.5 37l70 332z" />
<glyph unicode="&#xda;" horiz-adv-x="694" d="M624 946l13 2q38 -19 54 -36t16 -37q0 -46 -81.5 -72.5t-230.5 -26.5l-6 19q45 22 90 49t83 54t62 48zM211 635l-57 35l4 20h309l2 -20l-34 -21q-18 -11 -30.5 -22t-17.5 -34l-72 -338q-4 -18 -5.5 -35.5t-1.5 -33.5q0 -64 28.5 -100t83.5 -36q65 0 108 49.5t65 152.5 l76 351l5 25l-84 37l5 25h226l3 -25l-90 -37l-5 -25l-74 -348q-17 -83 -51 -142.5t-91 -91t-146 -31.5q-111 0 -176.5 52t-65.5 151q0 13 1.5 31t5.5 37l70 332z" />
<glyph unicode="&#xdb;" horiz-adv-x="694" d="M721 787l-18 -11q-33 18 -69.5 36t-73.5 33q-39 -16 -84.5 -34t-90.5 -35l-11 14q41 40 80 80t67 71l13 8h95q31 -43 55 -85.5t37 -76.5zM211 635l-57 35l4 20h309l2 -20l-34 -21q-18 -11 -30.5 -22t-17.5 -34l-72 -338q-4 -18 -5.5 -35.5t-1.5 -33.5q0 -64 28.5 -100 t83.5 -36q65 0 108 49.5t65 152.5l76 351l5 25l-84 37l5 25h226l3 -25l-90 -37l-5 -25l-74 -348q-17 -83 -51 -142.5t-91 -91t-146 -31.5q-111 0 -176.5 52t-65.5 151q0 13 1.5 31t5.5 37l70 332z" />
<glyph unicode="&#xdc;" horiz-adv-x="694" d="M772 870q0 -39 -29 -65.5t-71 -26.5q-37 0 -59 20.5t-22 50.5q0 38 30.5 64.5t73.5 26.5q32 0 54.5 -19t22.5 -51zM523 870q0 -39 -29 -65.5t-71 -26.5q-37 0 -59 20.5t-22 50.5q0 38 30.5 64.5t73.5 26.5q32 0 54.5 -19t22.5 -51zM211 635l-57 35l4 20h309l2 -20 l-34 -21q-18 -11 -30.5 -22t-17.5 -34l-72 -338q-4 -18 -5.5 -35.5t-1.5 -33.5q0 -64 28.5 -100t83.5 -36q65 0 108 49.5t65 152.5l76 351l5 25l-84 37l5 25h226l3 -25l-90 -37l-5 -25l-74 -348q-17 -83 -51 -142.5t-91 -91t-146 -31.5q-111 0 -176.5 52t-65.5 151 q0 13 1.5 31t5.5 37l70 332z" />
<glyph unicode="&#xdd;" horiz-adv-x="700" d="M623 946l13 2q38 -19 54 -36t16 -37q0 -46 -81.5 -72.5t-230.5 -26.5l-6 19q45 22 90 49t83 54t62 48zM424 55l57 -35l-4 -20h-309l-2 20l34 21q18 11 31 22.5t17 33.5l30 142q7 33 6 79t-8 94t-18.5 89.5t-26 67t-30.5 25.5t-35.5 -17t-35.5 -34l-20 16q37 69 85.5 105 t97.5 36q63 0 98 -45t50 -122.5t18 -175.5q49 97 97 174.5t91 123t78 45.5q27 0 44 -21t27 -53t14 -67l-22 -6q-11 17 -24.5 29t-30.5 12q-25 0 -57.5 -26.5t-67 -70.5t-66.5 -98t-56 -111t-35 -108l-18 -83z" />
<glyph unicode="&#xde;" horiz-adv-x="660" d="M298 55l77 -35l-4 -20h-329l-2 20l34 21q18 11 31 22.5t17 33.5h1l105 496l9 42l-57 35l4 20h309l2 -20l-34 -21q-18 -11 -30.5 -22t-17.5 -34l-6 -30h45q118 0 188.5 -49t70.5 -136q0 -54 -26 -99t-71.5 -78t-105.5 -50.5t-128 -17.5h-65l-8 -36zM425 508h-30l-69 -320 h41q45 0 80 29t55.5 75.5t20.5 100.5q0 57 -25.5 86t-72.5 29z" />
<glyph unicode="&#xdf;" horiz-adv-x="660" d="M255 20q-19 -92 -63 -154.5t-102.5 -94t-123.5 -31.5q-55 0 -88.5 21t-33.5 55q0 20 10.5 33.5t26.5 20.5q30 -37 70 -37q41 0 71 37.5t47 119.5l101 478q27 141 111 216.5t213 75.5q89 0 135.5 -36.5t46.5 -104.5q0 -70 -51.5 -116.5t-129.5 -61.5q173 -77 173 -224 q0 -63 -33 -114.5t-88.5 -82t-123.5 -30.5q-49 0 -80 21t-31 55q0 20 10.5 33.5t26.5 20.5q22 -37 54 -37q34 0 57 41t23 100q0 74 -23.5 119.5t-70.5 74.5l9 40q36 6 63.5 30.5t43 60.5t15.5 74q0 87 -49 87q-38 0 -65 -47.5t-47 -152.5z" />
<glyph unicode="&#xe0;" d="M507 577l-13 -15q-63 18 -112.5 42.5t-77.5 52t-28 54.5q0 32 29 44.5t66 12.5h17t17 -1l11 -8q14 -34 39 -85t52 -97zM561 180q-4 -18 -7.5 -36.5t-3.5 -28.5q0 -19 17 -19q15 0 35.5 14t36.5 27l10 -10q-17 -32 -44 -64t-62 -52.5t-76 -20.5q-47 0 -73 26.5t-26 74.5 q0 17 3.5 40.5t9.5 48.5l3 11h-6q-22 -55 -51.5 -101t-65.5 -73t-76 -27q-54 0 -87.5 43.5t-33.5 116.5q0 68 23 132t66.5 115.5t106 82t142.5 30.5q62 0 123 -12.5t106 -35.5l-27 -80zM249 182q0 -27 6.5 -43.5t20.5 -16.5q19 0 39.5 25t39.5 63.5t34.5 80.5t25.5 76l19 74 q-20 19 -50 19q-26 0 -50.5 -28t-43.5 -72t-30 -91.5t-11 -86.5z" />
<glyph unicode="&#xe1;" d="M455 763l13 6q8 -1 17 -1.5t17 -2.5q44 -8 64 -21t20 -32q0 -21 -22.5 -44.5t-61 -45.5t-88 -38t-104.5 -22l-10 16q32 30 61.5 64t54 66t39.5 55zM561 180q-4 -18 -7.5 -36.5t-3.5 -28.5q0 -19 17 -19q15 0 35.5 14t36.5 27l10 -10q-17 -32 -44 -64t-62 -52.5t-76 -20.5 q-47 0 -73 26.5t-26 74.5q0 17 3.5 40.5t9.5 48.5l3 11h-6q-22 -55 -51.5 -101t-65.5 -73t-76 -27q-54 0 -87.5 43.5t-33.5 116.5q0 68 23 132t66.5 115.5t106 82t142.5 30.5q62 0 123 -12.5t106 -35.5l-27 -80zM249 182q0 -27 6.5 -43.5t20.5 -16.5q19 0 39.5 25t39.5 63.5 t34.5 80.5t25.5 76l19 74q-20 19 -50 19q-26 0 -50.5 -28t-43.5 -72t-30 -91.5t-11 -86.5z" />
<glyph unicode="&#xe2;" d="M577 577l-18 -11q-29 22 -62 44.5t-66 41.5q-36 -20 -77.5 -42t-82.5 -44l-11 14q37 47 72 93t60 82l13 8h95q26 -49 46 -98t31 -88zM561 180q-4 -18 -7.5 -36.5t-3.5 -28.5q0 -19 17 -19q15 0 35.5 14t36.5 27l10 -10q-17 -32 -44 -64t-62 -52.5t-76 -20.5 q-47 0 -73 26.5t-26 74.5q0 17 3.5 40.5t9.5 48.5l3 11h-6q-22 -55 -51.5 -101t-65.5 -73t-76 -27q-54 0 -87.5 43.5t-33.5 116.5q0 68 23 132t66.5 115.5t106 82t142.5 30.5q62 0 123 -12.5t106 -35.5l-27 -80zM249 182q0 -27 6.5 -43.5t20.5 -16.5q19 0 39.5 25t39.5 63.5 t34.5 80.5t25.5 76l19 74q-20 19 -50 19q-26 0 -50.5 -28t-43.5 -72t-30 -91.5t-11 -86.5z" />
<glyph unicode="&#xe3;" d="M283 629q-18 -12 -36.5 -28t-35.5 -30l-13 6q20 82 66.5 127.5t105.5 45.5q38 0 70 -13.5t62 -28.5t62 -19q18 12 36.5 28t35.5 30l13 -6q-20 -82 -66.5 -127.5t-105.5 -45.5q-38 0 -70 14t-62 29t-62 18zM561 180q-4 -18 -7.5 -36.5t-3.5 -28.5q0 -19 17 -19 q15 0 35.5 14t36.5 27l10 -10q-17 -32 -44 -64t-62 -52.5t-76 -20.5q-47 0 -73 26.5t-26 74.5q0 17 3.5 40.5t9.5 48.5l3 11h-6q-22 -55 -51.5 -101t-65.5 -73t-76 -27q-54 0 -87.5 43.5t-33.5 116.5q0 68 23 132t66.5 115.5t106 82t142.5 30.5q62 0 123 -12.5t106 -35.5 l-27 -80zM249 182q0 -27 6.5 -43.5t20.5 -16.5q19 0 39.5 25t39.5 63.5t34.5 80.5t25.5 76l19 74q-20 19 -50 19q-26 0 -50.5 -28t-43.5 -72t-30 -91.5t-11 -86.5z" />
<glyph unicode="&#xe4;" d="M632 678q0 -41 -29 -69.5t-70 -28.5q-36 0 -58 22.5t-22 54.5q0 40 30 68.5t73 28.5q31 0 53.5 -20.5t22.5 -55.5zM391 678q0 -41 -29 -69.5t-70 -28.5q-36 0 -58 22.5t-22 54.5q0 40 30 68.5t73 28.5q31 0 53.5 -20.5t22.5 -55.5zM561 180q-4 -18 -7.5 -36.5t-3.5 -28.5 q0 -19 17 -19q15 0 35.5 14t36.5 27l10 -10q-17 -32 -44 -64t-62 -52.5t-76 -20.5q-47 0 -73 26.5t-26 74.5q0 17 3.5 40.5t9.5 48.5l3 11h-6q-22 -55 -51.5 -101t-65.5 -73t-76 -27q-54 0 -87.5 43.5t-33.5 116.5q0 68 23 132t66.5 115.5t106 82t142.5 30.5q62 0 123 -12.5 t106 -35.5l-27 -80zM249 182q0 -27 6.5 -43.5t20.5 -16.5q19 0 39.5 25t39.5 63.5t34.5 80.5t25.5 76l19 74q-20 19 -50 19q-26 0 -50.5 -28t-43.5 -72t-30 -91.5t-11 -86.5z" />
<glyph unicode="&#xe5;" d="M553 683q0 -32 -19 -58t-51.5 -41.5t-72.5 -15.5q-45 0 -71.5 22t-26.5 59q0 32 19 58t51.5 41t72.5 15q45 0 71.5 -21.5t26.5 -58.5zM379 650q0 -19 11 -31t30 -12q28 0 47 22t19 53q0 20 -11 31t-30 11q-28 0 -47 -21.5t-19 -52.5zM561 180q-4 -18 -7.5 -36.5 t-3.5 -28.5q0 -19 17 -19q15 0 35.5 14t36.5 27l10 -10q-17 -32 -44 -64t-62 -52.5t-76 -20.5q-47 0 -73 26.5t-26 74.5q0 17 3.5 40.5t9.5 48.5l3 11h-6q-22 -55 -51.5 -101t-65.5 -73t-76 -27q-54 0 -87.5 43.5t-33.5 116.5q0 68 23 132t66.5 115.5t106 82t142.5 30.5 q62 0 123 -12.5t106 -35.5l-27 -80zM249 182q0 -27 6.5 -43.5t20.5 -16.5q19 0 39.5 25t39.5 63.5t34.5 80.5t25.5 76l19 74q-20 19 -50 19q-26 0 -50.5 -28t-43.5 -72t-30 -91.5t-11 -86.5z" />
<glyph unicode="&#xe6;" horiz-adv-x="811" d="M818 151q-39 -76 -103 -118.5t-144 -42.5q-85 0 -136 55t-51 146h-6q-22 -55 -51.5 -101t-65.5 -73t-76 -27q-54 0 -87.5 43.5t-33.5 116.5q0 68 23 132t66.5 115.5t106 82t142.5 30.5q89 0 169 -25q54 25 111 25q46 0 82.5 -16t58 -45t21.5 -69q0 -45 -28 -83.5 t-88.5 -60t-158.5 -16.5q1 -59 29 -87t72 -28q33 0 71.5 15.5t66.5 40.5zM249 182q0 -27 6.5 -43.5t20.5 -16.5q19 0 39.5 25t39.5 63.5t34.5 80.5t25.5 76l19 74q-20 19 -50 19q-26 0 -50.5 -28t-43.5 -72t-30 -91.5t-11 -86.5zM666 460q-22 0 -42.5 -28t-34.5 -74 t-19 -100q37 2 64.5 24t43.5 56.5t16 75.5q0 46 -28 46z" />
<glyph unicode="&#xe7;" horiz-adv-x="490" d="M379 -131q0 -33 -32.5 -60.5t-89.5 -45t-133 -23.5l-2 16q44 15 72 40t28 49t-35 32l-4 10l41 106q-70 10 -111.5 63.5t-41.5 134.5q0 65 24 122.5t65.5 101.5t95.5 69.5t113 25.5q73 0 120 -36.5t47 -93.5q0 -52 -31 -81t-75 -29q-19 0 -36 6t-31 14q6 23 14.5 58.5 t8.5 61.5q0 50 -33 50q-19 0 -36.5 -20t-31 -53t-21.5 -73t-8 -79q0 -70 28.5 -100t72.5 -30q33 0 71.5 15.5t66.5 40.5l10 -10q-36 -69 -92.5 -111t-127.5 -49l-20 -48q114 -11 114 -74z" />
<glyph unicode="&#xe8;" horiz-adv-x="498" d="M463 577l-13 -15q-63 18 -112.5 42.5t-77.5 52t-28 54.5q0 32 29 44.5t66 12.5h17t17 -1l11 -8q14 -34 39 -85t52 -97zM505 151q-39 -76 -103 -118.5t-144 -42.5q-85 0 -136 55t-51 146q0 65 24 122.5t65.5 101.5t95.5 69.5t113 25.5q46 0 82.5 -16t58 -45t21.5 -69 q0 -45 -28 -83.5t-88.5 -60t-158.5 -16.5q1 -59 29 -87t72 -28q33 0 71.5 15.5t66.5 40.5zM353 460q-22 0 -42.5 -28t-34.5 -74t-19 -100q37 2 64.5 24t43.5 56.5t16 75.5q0 46 -28 46z" />
<glyph unicode="&#xe9;" horiz-adv-x="498" d="M411 763l13 6q8 -1 17 -1.5t17 -2.5q44 -8 64 -21t20 -32q0 -21 -22.5 -44.5t-61 -45.5t-88 -38t-104.5 -22l-10 16q32 30 61.5 64t54 66t39.5 55zM505 151q-39 -76 -103 -118.5t-144 -42.5q-85 0 -136 55t-51 146q0 65 24 122.5t65.5 101.5t95.5 69.5t113 25.5 q46 0 82.5 -16t58 -45t21.5 -69q0 -45 -28 -83.5t-88.5 -60t-158.5 -16.5q1 -59 29 -87t72 -28q33 0 71.5 15.5t66.5 40.5zM353 460q-22 0 -42.5 -28t-34.5 -74t-19 -100q37 2 64.5 24t43.5 56.5t16 75.5q0 46 -28 46z" />
<glyph unicode="&#xea;" horiz-adv-x="498" d="M543 577l-18 -11q-29 22 -62 44.5t-66 41.5q-36 -20 -77.5 -42t-82.5 -44l-11 14q37 47 72 93t60 82l13 8h95q26 -49 46 -98t31 -88zM505 151q-39 -76 -103 -118.5t-144 -42.5q-85 0 -136 55t-51 146q0 65 24 122.5t65.5 101.5t95.5 69.5t113 25.5q46 0 82.5 -16t58 -45 t21.5 -69q0 -45 -28 -83.5t-88.5 -60t-158.5 -16.5q1 -59 29 -87t72 -28q33 0 71.5 15.5t66.5 40.5zM353 460q-22 0 -42.5 -28t-34.5 -74t-19 -100q37 2 64.5 24t43.5 56.5t16 75.5q0 46 -28 46z" />
<glyph unicode="&#xeb;" horiz-adv-x="498" d="M598 678q0 -41 -29 -69.5t-70 -28.5q-36 0 -58 22.5t-22 54.5q0 40 30 68.5t73 28.5q31 0 53.5 -20.5t22.5 -55.5zM357 678q0 -41 -29 -69.5t-70 -28.5q-36 0 -58 22.5t-22 54.5q0 40 30 68.5t73 28.5q31 0 53.5 -20.5t22.5 -55.5zM505 151q-39 -76 -103 -118.5 t-144 -42.5q-85 0 -136 55t-51 146q0 65 24 122.5t65.5 101.5t95.5 69.5t113 25.5q46 0 82.5 -16t58 -45t21.5 -69q0 -45 -28 -83.5t-88.5 -60t-158.5 -16.5q1 -59 29 -87t72 -28q33 0 71.5 15.5t66.5 40.5zM353 460q-22 0 -42.5 -28t-34.5 -74t-19 -100q37 2 64.5 24 t43.5 56.5t16 75.5q0 46 -28 46z" />
<glyph unicode="&#xec;" horiz-adv-x="362" d="M373 577l-13 -15q-63 18 -112.5 42.5t-77.5 52t-28 54.5q0 32 29 44.5t66 12.5h17t17 -1l11 -8q14 -34 39 -85t52 -97zM297 180q-4 -18 -7.5 -36.5t-3.5 -28.5q0 -19 17 -19q15 0 35.5 14t36.5 27l10 -10q-17 -32 -44 -64t-62 -52.5t-76 -20.5q-47 0 -73 26.5t-26 74.5 q0 17 3.5 40.5t9.5 48.5q8 35 15.5 70t14.5 70q4 18 7.5 36.5t3.5 28.5q0 19 -17 19q-15 0 -35 -13.5t-37 -27.5l-10 10q17 33 44 64.5t62 52t76 20.5q47 0 73 -26.5t26 -74.5q0 -17 -3.5 -40t-9.5 -49q-7 -35 -14.5 -70t-15.5 -70z" />
<glyph unicode="&#xed;" horiz-adv-x="362" d="M301 763l13 6q8 -1 17 -1.5t17 -2.5q44 -8 64 -21t20 -32q0 -21 -22.5 -44.5t-61 -45.5t-88 -38t-104.5 -22l-10 16q32 30 61.5 64t54 66t39.5 55zM297 180q-4 -18 -7.5 -36.5t-3.5 -28.5q0 -19 17 -19q15 0 35.5 14t36.5 27l10 -10q-17 -32 -44 -64t-62 -52.5t-76 -20.5 q-47 0 -73 26.5t-26 74.5q0 17 3.5 40.5t9.5 48.5q8 35 15.5 70t14.5 70q4 18 7.5 36.5t3.5 28.5q0 19 -17 19q-15 0 -35 -13.5t-37 -27.5l-10 10q17 33 44 64.5t62 52t76 20.5q47 0 73 -26.5t26 -74.5q0 -17 -3.5 -40t-9.5 -49q-7 -35 -14.5 -70t-15.5 -70z" />
<glyph unicode="&#xee;" horiz-adv-x="362" d="M378 577l-18 -11q-21 19 -45.5 38.5t-49.5 37.5q-59 -37 -123 -76l-11 14q27 47 53 93t44 82l13 8h95q14 -49 25 -98t17 -88zM297 180q-4 -18 -7.5 -36.5t-3.5 -28.5q0 -19 17 -19q15 0 35.5 14t36.5 27l10 -10q-17 -32 -44 -64t-62 -52.5t-76 -20.5q-47 0 -73 26.5 t-26 74.5q0 17 3.5 40.5t9.5 48.5q8 35 15.5 70t14.5 70q4 18 7.5 36.5t3.5 28.5q0 19 -17 19q-15 0 -35 -13.5t-37 -27.5l-10 10q17 33 44 64.5t62 52t76 20.5q47 0 73 -26.5t26 -74.5q0 -17 -3.5 -40t-9.5 -49q-7 -35 -14.5 -70t-15.5 -70z" />
<glyph unicode="&#xef;" horiz-adv-x="362" d="M460 687q0 -45 -26.5 -76t-64.5 -31q-28 0 -44 18t-16 49q0 45 27 76t66 31q27 0 42.5 -18t15.5 -49zM261 687q0 -45 -26.5 -76t-64.5 -31q-28 0 -44 18t-16 49q0 45 27 76t66 31q27 0 42.5 -18t15.5 -49zM297 180q-4 -18 -7.5 -36.5t-3.5 -28.5q0 -19 17 -19 q15 0 35.5 14t36.5 27l10 -10q-17 -32 -44 -64t-62 -52.5t-76 -20.5q-47 0 -73 26.5t-26 74.5q0 17 3.5 40.5t9.5 48.5q8 35 15.5 70t14.5 70q4 18 7.5 36.5t3.5 28.5q0 19 -17 19q-15 0 -35 -13.5t-37 -27.5l-10 10q17 33 44 64.5t62 52t76 20.5q47 0 73 -26.5t26 -74.5 q0 -17 -3.5 -40t-9.5 -49q-7 -35 -14.5 -70t-15.5 -70z" />
<glyph unicode="&#xf0;" horiz-adv-x="549" d="M284 -10q-61 0 -109 23.5t-75.5 69t-27.5 109.5q0 67 23 125t63.5 101t91.5 67.5t106 24.5q17 0 33 -2q-12 44 -34 84l-190 -81l-13 54l171 73q-48 60 -117 92l14 30q121 -26 200 -80l141 60l14 -54l-107 -46q104 -102 104 -281q0 -88 -24 -157t-64.5 -116t-92 -71.5 t-107.5 -24.5zM360 466q-18 0 -34 -25.5t-29 -66t-22 -88t-14 -94t-5 -81.5q0 -34 7 -55t26 -21q17 0 33 27.5t29 71t22.5 93t14.5 95.5t5 76q0 68 -33 68z" />
<glyph unicode="&#xf1;" horiz-adv-x="654" d="M314 629q-18 -12 -36.5 -28t-35.5 -30l-13 6q20 82 66.5 127.5t105.5 45.5q38 0 70 -13.5t62 -28.5t62 -19q18 12 36.5 28t35.5 30l13 -6q-20 -82 -66.5 -127.5t-105.5 -45.5q-38 0 -70 14t-62 29t-62 18zM83 19l34 161q8 39 16 73t14 60q5 26 8.5 44.5t3.5 25.5 q0 21 -17 21q-15 0 -35 -13.5t-37 -27.5l-10 10q18 32 44 63.5t59.5 52.5t72.5 21q44 0 68.5 -23.5t24.5 -61.5q0 -25 -10.5 -64t-21.5 -79l4 -1q16 35 39 74.5t53.5 74.5t67 57.5t78.5 22.5q50 0 76 -28t26 -66q0 -28 -8 -69.5t-18.5 -85.5t-19.5 -81q-4 -18 -7.5 -36.5 t-3.5 -28.5q0 -19 17 -19q15 0 35.5 14t36.5 27l10 -10q-17 -32 -44 -64t-62 -52.5t-76 -20.5q-47 0 -73 26.5t-26 74.5q0 17 3.5 40.5t9.5 48.5q9 36 18.5 71.5t16 64.5t6.5 44q0 27 -20 27q-16 0 -37.5 -21.5t-42 -54t-36.5 -68t-23 -63.5l-38 -180l-83 -3 q-18 -1 -43.5 -2t-35.5 -1q-19 0 -14 25z" />
<glyph unicode="&#xf2;" horiz-adv-x="562" d="M495 577l-13 -15q-63 18 -112.5 42.5t-77.5 52t-28 54.5q0 32 29 44.5t66 12.5h17t17 -1l11 -8q14 -34 39 -85t52 -97zM578 309q0 -74 -24.5 -133t-66 -100.5t-94 -63.5t-109.5 -22q-62 0 -110 23.5t-75.5 69t-27.5 109.5q0 67 24 124.5t65.5 101t94.5 67.5t111 24 q101 0 156.5 -55t55.5 -145zM256 111q0 -34 7 -55t26 -21q17 0 33 27.5t29 71t22.5 93t14.5 95.5t5 76q0 68 -33 68q-17 0 -33 -25t-29 -65.5t-22.5 -88.5t-14.5 -94.5t-5 -81.5z" />
<glyph unicode="&#xf3;" horiz-adv-x="562" d="M413 763l13 6q8 -1 17 -1.5t17 -2.5q44 -8 64 -21t20 -32q0 -21 -22.5 -44.5t-61 -45.5t-88 -38t-104.5 -22l-10 16q32 30 61.5 64t54 66t39.5 55zM578 309q0 -74 -24.5 -133t-66 -100.5t-94 -63.5t-109.5 -22q-62 0 -110 23.5t-75.5 69t-27.5 109.5q0 67 24 124.5 t65.5 101t94.5 67.5t111 24q101 0 156.5 -55t55.5 -145zM256 111q0 -34 7 -55t26 -21q17 0 33 27.5t29 71t22.5 93t14.5 95.5t5 76q0 68 -33 68q-17 0 -33 -25t-29 -65.5t-22.5 -88.5t-14.5 -94.5t-5 -81.5z" />
<glyph unicode="&#xf4;" horiz-adv-x="562" d="M545 577l-18 -11q-29 22 -62 44.5t-66 41.5q-36 -20 -77.5 -42t-82.5 -44l-11 14q37 47 72 93t60 82l13 8h95q26 -49 46 -98t31 -88zM578 309q0 -74 -24.5 -133t-66 -100.5t-94 -63.5t-109.5 -22q-62 0 -110 23.5t-75.5 69t-27.5 109.5q0 67 24 124.5t65.5 101t94.5 67.5 t111 24q101 0 156.5 -55t55.5 -145zM256 111q0 -34 7 -55t26 -21q17 0 33 27.5t29 71t22.5 93t14.5 95.5t5 76q0 68 -33 68q-17 0 -33 -25t-29 -65.5t-22.5 -88.5t-14.5 -94.5t-5 -81.5z" />
<glyph unicode="&#xf5;" horiz-adv-x="562" d="M261 629q-18 -12 -36.5 -28t-35.5 -30l-13 6q20 82 66.5 127.5t105.5 45.5q38 0 70 -13.5t62 -28.5t62 -19q18 12 36.5 28t35.5 30l13 -6q-20 -82 -66.5 -127.5t-105.5 -45.5q-38 0 -70 14t-62 29t-62 18zM578 309q0 -74 -24.5 -133t-66 -100.5t-94 -63.5t-109.5 -22 q-62 0 -110 23.5t-75.5 69t-27.5 109.5q0 67 24 124.5t65.5 101t94.5 67.5t111 24q101 0 156.5 -55t55.5 -145zM256 111q0 -34 7 -55t26 -21q17 0 33 27.5t29 71t22.5 93t14.5 95.5t5 76q0 68 -33 68q-17 0 -33 -25t-29 -65.5t-22.5 -88.5t-14.5 -94.5t-5 -81.5z" />
<glyph unicode="&#xf6;" horiz-adv-x="562" d="M610 678q0 -41 -29 -69.5t-70 -28.5q-36 0 -58 22.5t-22 54.5q0 40 30 68.5t73 28.5q31 0 53.5 -20.5t22.5 -55.5zM369 678q0 -41 -29 -69.5t-70 -28.5q-36 0 -58 22.5t-22 54.5q0 40 30 68.5t73 28.5q31 0 53.5 -20.5t22.5 -55.5zM578 309q0 -74 -24.5 -133t-66 -100.5 t-94 -63.5t-109.5 -22q-62 0 -110 23.5t-75.5 69t-27.5 109.5q0 67 24 124.5t65.5 101t94.5 67.5t111 24q101 0 156.5 -55t55.5 -145zM256 111q0 -34 7 -55t26 -21q17 0 33 27.5t29 71t22.5 93t14.5 95.5t5 76q0 68 -33 68q-17 0 -33 -25t-29 -65.5t-22.5 -88.5t-14.5 -94.5 t-5 -81.5z" />
<glyph unicode="&#xf7;" d="M397 456q-28 0 -46.5 17t-18.5 47q0 25 14 46t37 33.5t49 12.5q28 0 46 -17t18 -46q0 -38 -30 -65.5t-69 -27.5zM585 303h-450l19 85q31 1 76 1.5t97 1.5t104.5 1.5t98 0.5h77.5l6 -8zM317 84q-28 0 -46.5 17t-18.5 47q0 25 14 46t37 33.5t49 12.5q28 0 46 -17t18 -46 q0 -38 -30 -65.5t-69 -27.5z" />
<glyph unicode="&#xf8;" horiz-adv-x="562" d="M578 309q0 -74 -24.5 -133t-66 -100.5t-94 -63.5t-109.5 -22q-95 0 -152 52l-51 -46l-32 38l51 46q-29 47 -29 112q0 67 24 124.5t65.5 101t94.5 67.5t111 24q48 0 86.5 -13t65.5 -38l50 46l33 -37l-52 -47q29 -47 29 -111zM360 466q-16 0 -30 -20.5t-26.5 -55t-22 -76 t-15.5 -83.5l124 112q3 32 3 55q0 68 -33 68zM256 111q0 -34 7 -55t26 -21q15 0 28.5 20.5t25.5 54.5t21.5 75t15.5 82l-122 -111q-2 -25 -2 -45z" />
<glyph unicode="&#xf9;" horiz-adv-x="658" d="M496 577l-13 -15q-63 18 -112.5 42.5t-77.5 52t-28 54.5q0 32 29 44.5t66 12.5h17t17 -1l11 -8q14 -34 39 -85t52 -97zM147 320q4 18 7.5 36.5t3.5 28.5q0 19 -17 19q-15 0 -35 -13.5t-37 -27.5l-10 10q17 33 44 64.5t62 52t76 20.5q47 0 73 -26.5t26 -74.5 q0 -17 -3.5 -40t-9.5 -49q-18 -67 -26.5 -108t-8.5 -59q0 -31 22 -31q20 0 46.5 33t54 92.5t48.5 138.5l-1 -4l26 122l83 3q18 1 43.5 2t35.5 1q19 0 14 -25l-34 -161l-31 -144q-4 -18 -7.5 -36.5t-3.5 -28.5q0 -19 17 -19q15 0 35.5 14t36.5 27l10 -10q-17 -32 -44 -64 t-62 -52.5t-76 -20.5q-47 0 -73 26.5t-26 74.5q0 17 3.5 40.5t9.5 48.5l3 11h-7q-39 -94 -91.5 -147.5t-111.5 -53.5q-48 0 -76.5 29t-28.5 83q0 39 13.5 95t26.5 123z" />
<glyph unicode="&#xfa;" horiz-adv-x="658" d="M474 763l13 6q8 -1 17 -1.5t17 -2.5q44 -8 64 -21t20 -32q0 -21 -22.5 -44.5t-61 -45.5t-88 -38t-104.5 -22l-10 16q32 30 61.5 64t54 66t39.5 55zM147 320q4 18 7.5 36.5t3.5 28.5q0 19 -17 19q-15 0 -35 -13.5t-37 -27.5l-10 10q17 33 44 64.5t62 52t76 20.5 q47 0 73 -26.5t26 -74.5q0 -17 -3.5 -40t-9.5 -49q-18 -67 -26.5 -108t-8.5 -59q0 -31 22 -31q20 0 46.5 33t54 92.5t48.5 138.5l-1 -4l26 122l83 3q18 1 43.5 2t35.5 1q19 0 14 -25l-34 -161l-31 -144q-4 -18 -7.5 -36.5t-3.5 -28.5q0 -19 17 -19q15 0 35.5 14t36.5 27 l10 -10q-17 -32 -44 -64t-62 -52.5t-76 -20.5q-47 0 -73 26.5t-26 74.5q0 17 3.5 40.5t9.5 48.5l3 11h-7q-39 -94 -91.5 -147.5t-111.5 -53.5q-48 0 -76.5 29t-28.5 83q0 39 13.5 95t26.5 123z" />
<glyph unicode="&#xfb;" horiz-adv-x="658" d="M583 573l-18 -11q-29 22 -62 44.5t-66 41.5q-36 -20 -77.5 -42t-82.5 -44l-11 14q37 47 72 93t60 82l13 8h95q26 -49 46 -98t31 -88zM147 320q4 18 7.5 36.5t3.5 28.5q0 19 -17 19q-15 0 -35 -13.5t-37 -27.5l-10 10q17 33 44 64.5t62 52t76 20.5q47 0 73 -26.5t26 -74.5 q0 -17 -3.5 -40t-9.5 -49q-18 -67 -26.5 -108t-8.5 -59q0 -31 22 -31q20 0 46.5 33t54 92.5t48.5 138.5l-1 -4l26 122l83 3q18 1 43.5 2t35.5 1q19 0 14 -25l-34 -161l-31 -144q-4 -18 -7.5 -36.5t-3.5 -28.5q0 -19 17 -19q15 0 35.5 14t36.5 27l10 -10q-17 -32 -44 -64 t-62 -52.5t-76 -20.5q-47 0 -73 26.5t-26 74.5q0 17 3.5 40.5t9.5 48.5l3 11h-7q-39 -94 -91.5 -147.5t-111.5 -53.5q-48 0 -76.5 29t-28.5 83q0 39 13.5 95t26.5 123z" />
<glyph unicode="&#xfc;" horiz-adv-x="658" d="M641 678q0 -41 -29 -69.5t-70 -28.5q-36 0 -58 22.5t-22 54.5q0 40 30 68.5t73 28.5q31 0 53.5 -20.5t22.5 -55.5zM400 678q0 -41 -29 -69.5t-70 -28.5q-36 0 -58 22.5t-22 54.5q0 40 30 68.5t73 28.5q31 0 53.5 -20.5t22.5 -55.5zM147 320q4 18 7.5 36.5t3.5 28.5 q0 19 -17 19q-15 0 -35 -13.5t-37 -27.5l-10 10q17 33 44 64.5t62 52t76 20.5q47 0 73 -26.5t26 -74.5q0 -17 -3.5 -40t-9.5 -49q-18 -67 -26.5 -108t-8.5 -59q0 -31 22 -31q20 0 46.5 33t54 92.5t48.5 138.5l-1 -4l26 122l83 3q18 1 43.5 2t35.5 1q19 0 14 -25l-34 -161 l-31 -144q-4 -18 -7.5 -36.5t-3.5 -28.5q0 -19 17 -19q15 0 35.5 14t36.5 27l10 -10q-17 -32 -44 -64t-62 -52.5t-76 -20.5q-47 0 -73 26.5t-26 74.5q0 17 3.5 40.5t9.5 48.5l3 11h-7q-39 -94 -91.5 -147.5t-111.5 -53.5q-48 0 -76.5 29t-28.5 83q0 39 13.5 95t26.5 123z " />
<glyph unicode="&#xfd;" horiz-adv-x="575" d="M410 763l13 6q8 -1 17 -1.5t17 -2.5q44 -8 64 -21t20 -32q0 -21 -22.5 -44.5t-61 -45.5t-88 -38t-104.5 -22l-10 16q32 30 61.5 64t54 66t39.5 55zM227 510q59 0 89.5 -37t30.5 -123q0 -76 -16.5 -160t-46.5 -162q59 66 91 135.5t44.5 132.5t12.5 110q0 27 -3 48t-8 37 q11 7 31.5 13t42.5 6q51 0 79 -29t28 -88q0 -122 -90.5 -235t-258.5 -203q-30 -62 -68.5 -110.5t-82.5 -76.5t-93 -28q-50 0 -81 21t-31 55q0 20 10.5 33.5t26.5 20.5q14 -17 26 -27t29 -10q24 0 46 26t42 69.5t36 94.5q17 52 29 105.5t18.5 101.5t6.5 80q0 44 -11 69 t-36 25q-15 0 -33 -13.5t-33 -28.5l-12 11q18 33 46 64.5t64 52t75 20.5z" />
<glyph unicode="&#xfe;" horiz-adv-x="614" d="M29 -235l34 161l148 694l12 54l-71 35v12q37 10 84 18t94 13.5t83 7.5l8 -10l-30 -130l-59 -276q25 44 56.5 82t67 61t73.5 23q57 0 83.5 -44t26.5 -106q0 -71 -20.5 -137.5t-61 -119t-101 -83t-140.5 -30.5q-29 0 -59 2l-14 -66l-38 -180l-83 -3q-18 -1 -43.5 -2 t-35.5 -1q-19 0 -14 25zM428 377q-15 0 -34.5 -19.5t-39 -50t-35 -63.5t-21.5 -60l-27 -126q12 -8 26.5 -13t31.5 -5q24 0 46.5 30t40.5 76t28 95.5t10 88.5q0 20 -5.5 33.5t-20.5 13.5z" />
<glyph unicode="&#xff;" horiz-adv-x="575" d="M607 678q0 -41 -29 -69.5t-70 -28.5q-36 0 -58 22.5t-22 54.5q0 40 30 68.5t73 28.5q31 0 53.5 -20.5t22.5 -55.5zM366 678q0 -41 -29 -69.5t-70 -28.5q-36 0 -58 22.5t-22 54.5q0 40 30 68.5t73 28.5q31 0 53.5 -20.5t22.5 -55.5zM227 510q59 0 89.5 -37t30.5 -123 q0 -76 -16.5 -160t-46.5 -162q59 66 91 135.5t44.5 132.5t12.5 110q0 27 -3 48t-8 37q11 7 31.5 13t42.5 6q51 0 79 -29t28 -88q0 -122 -90.5 -235t-258.5 -203q-30 -62 -68.5 -110.5t-82.5 -76.5t-93 -28q-50 0 -81 21t-31 55q0 20 10.5 33.5t26.5 20.5q14 -17 26 -27 t29 -10q24 0 46 26t42 69.5t36 94.5q17 52 29 105.5t18.5 101.5t6.5 80q0 44 -11 69t-36 25q-15 0 -33 -13.5t-33 -28.5l-12 11q18 33 46 64.5t64 52t75 20.5z" />
<glyph unicode="&#x100;" horiz-adv-x="723" d="M353 818l18 82h342l-18 -82h-342zM449 690h115l74 -595q3 -27 12 -38.5t27 -20.5l31 -16l-2 -20h-320l-4 20l75 33l-17 145l-216 -3l-78 -142l75 -33l-4 -20h-210l-4 20l58 25q18 8 28.5 18t21.5 30zM251 245l184 -2l-32 278z" />
<glyph unicode="&#x101;" d="M261 612l18 82h332l-18 -82h-332zM561 180q-4 -18 -7.5 -36.5t-3.5 -28.5q0 -19 17 -19q15 0 35.5 14t36.5 27l10 -10q-17 -32 -44 -64t-62 -52.5t-76 -20.5q-47 0 -73 26.5t-26 74.5q0 17 3.5 40.5t9.5 48.5l3 11h-6q-22 -55 -51.5 -101t-65.5 -73t-76 -27 q-54 0 -87.5 43.5t-33.5 116.5q0 68 23 132t66.5 115.5t106 82t142.5 30.5q62 0 123 -12.5t106 -35.5l-27 -80zM249 182q0 -27 6.5 -43.5t20.5 -16.5q19 0 39.5 25t39.5 63.5t34.5 80.5t25.5 76l19 74q-20 19 -50 19q-26 0 -50.5 -28t-43.5 -72t-30 -91.5t-11 -86.5z" />
<glyph unicode="&#x102;" horiz-adv-x="723" d="M686 938l6 2l19 -4q-22 -76 -69.5 -116.5t-114.5 -40.5q-46 0 -71.5 22.5t-33 59t0.5 76.5l23 4q5 -27 31.5 -43t69.5 -16q104 0 139 56zM449 690h115l74 -595q3 -27 12 -38.5t27 -20.5l31 -16l-2 -20h-320l-4 20l75 33l-17 145l-216 -3l-78 -142l75 -33l-4 -20h-210 l-4 20l58 25q18 8 28.5 18t21.5 30zM251 245l184 -2l-32 278z" />
<glyph unicode="&#x103;" d="M574 754l6 2l19 -4q-21 -80 -72.5 -127.5t-115.5 -47.5q-42 0 -67 25.5t-32.5 65.5t-0.5 85l23 4q5 -33 31.5 -52.5t69.5 -19.5q49 0 86 17.5t53 51.5zM561 180q-4 -18 -7.5 -36.5t-3.5 -28.5q0 -19 17 -19q15 0 35.5 14t36.5 27l10 -10q-17 -32 -44 -64t-62 -52.5 t-76 -20.5q-47 0 -73 26.5t-26 74.5q0 17 3.5 40.5t9.5 48.5l3 11h-6q-22 -55 -51.5 -101t-65.5 -73t-76 -27q-54 0 -87.5 43.5t-33.5 116.5q0 68 23 132t66.5 115.5t106 82t142.5 30.5q62 0 123 -12.5t106 -35.5l-27 -80zM249 182q0 -27 6.5 -43.5t20.5 -16.5q19 0 39.5 25 t39.5 63.5t34.5 80.5t25.5 76l19 74q-20 19 -50 19q-26 0 -50.5 -28t-43.5 -72t-30 -91.5t-11 -86.5z" />
<glyph unicode="&#x104;" horiz-adv-x="723" d="M706 0q-38 -22 -67.5 -57t-29.5 -70q0 -27 20 -27q9 0 23.5 12t26.5 29l10 -10q-46 -137 -150 -137q-79 0 -79 82q0 39 23 74.5t62.5 62.5t87.5 41h-247l-4 20l75 33l-17 145l-216 -3l-78 -142l75 -33l-4 -20h-210l-4 20l58 25q18 8 28.5 18t21.5 30l338 597h115l74 -595 q3 -27 12 -38.5t27 -20.5l31 -16zM251 245l184 -2l-32 278z" />
<glyph unicode="&#x105;" d="M561 180q-4 -18 -7.5 -36.5t-3.5 -28.5q0 -19 17 -19q15 0 35.5 14t36.5 27l10 -10q-9 -17 -21 -34.5t-26 -33.5q-64 -76 -95 -118.5t-31 -70.5q0 -24 20 -24q11 0 24.5 12.5t25.5 28.5l10 -10q-22 -64 -60.5 -100.5t-89.5 -36.5q-33 0 -56 19.5t-23 55.5q0 34 21 64.5 t56 58t76 53.5q-6 -1 -13 -1q-47 0 -73 26.5t-26 74.5q0 17 3.5 40.5t9.5 48.5l3 11h-6q-22 -55 -51.5 -101t-65.5 -73t-76 -27q-54 0 -87.5 43.5t-33.5 116.5q0 68 23 132t66.5 115.5t106 82t142.5 30.5q62 0 123 -12.5t106 -35.5l-27 -80zM249 182q0 -27 6.5 -43.5 t20.5 -16.5q19 0 39.5 25t39.5 63.5t34.5 80.5t25.5 76l19 74q-20 19 -50 19q-26 0 -50.5 -28t-43.5 -72t-30 -91.5t-11 -86.5z" />
<glyph unicode="&#x106;" horiz-adv-x="663" d="M622 946l13 2q38 -19 54 -36t16 -37q0 -46 -81.5 -72.5t-230.5 -26.5l-6 19q45 22 90 49t83 54t62 48zM406 -10q-147 0 -226.5 75.5t-79.5 214.5q0 86 33 161.5t90.5 134t132.5 91.5t160 33q62 0 111.5 -9t84.5 -23q-1 -36 -9.5 -78t-20.5 -81t-25 -69h-30 q-17 54 -29.5 90t-23 61t-21.5 45q-13 3 -27 3q-49 0 -91.5 -29t-75 -80t-51 -117.5t-18.5 -142.5q0 -64 17 -114t48 -78t72 -28q14 0 24 3q35 31 75 75.5t94 111.5h30q-3 -53 -17 -113t-34 -115q-50 -12 -95 -17t-98 -5z" />
<glyph unicode="&#x107;" horiz-adv-x="490" d="M411 763l13 6q8 -1 17 -1.5t17 -2.5q44 -8 64 -21t20 -32q0 -21 -22.5 -44.5t-61 -45.5t-88 -38t-104.5 -22l-10 16q32 30 61.5 64t54 66t39.5 55zM369 510q73 0 120 -36.5t47 -93.5q0 -52 -31 -81t-75 -29q-19 0 -36 6t-31 14q6 23 14.5 58.5t8.5 61.5q0 50 -33 50 q-19 0 -36.5 -20t-31 -53t-21.5 -73t-8 -79q0 -70 28.5 -100t72.5 -30q33 0 71.5 15.5t66.5 40.5l10 -10q-39 -76 -103 -118.5t-144 -42.5q-85 0 -136 55t-51 146q0 65 24 122.5t65.5 101.5t95.5 69.5t113 25.5z" />
<glyph unicode="&#x108;" horiz-adv-x="663" d="M699 787l-18 -11q-33 18 -69.5 36t-73.5 33q-39 -16 -84.5 -34t-90.5 -35l-11 14q41 40 80 80t67 71l13 8h95q31 -43 55 -85.5t37 -76.5zM406 -10q-147 0 -226.5 75.5t-79.5 214.5q0 86 33 161.5t90.5 134t132.5 91.5t160 33q62 0 111.5 -9t84.5 -23q-1 -36 -9.5 -78 t-20.5 -81t-25 -69h-30q-17 54 -29.5 90t-23 61t-21.5 45q-13 3 -27 3q-49 0 -91.5 -29t-75 -80t-51 -117.5t-18.5 -142.5q0 -64 17 -114t48 -78t72 -28q14 0 24 3q35 31 75 75.5t94 111.5h30q-3 -53 -17 -113t-34 -115q-50 -12 -95 -17t-98 -5z" />
<glyph unicode="&#x109;" horiz-adv-x="490" d="M533 577l-18 -11q-29 22 -62 44.5t-66 41.5q-36 -20 -77.5 -42t-82.5 -44l-11 14q37 47 72 93t60 82l13 8h95q26 -49 46 -98t31 -88zM369 510q73 0 120 -36.5t47 -93.5q0 -52 -31 -81t-75 -29q-19 0 -36 6t-31 14q6 23 14.5 58.5t8.5 61.5q0 50 -33 50q-19 0 -36.5 -20 t-31 -53t-21.5 -73t-8 -79q0 -70 28.5 -100t72.5 -30q33 0 71.5 15.5t66.5 40.5l10 -10q-39 -76 -103 -118.5t-144 -42.5q-85 0 -136 55t-51 146q0 65 24 122.5t65.5 101.5t95.5 69.5t113 25.5z" />
<glyph unicode="&#x10a;" horiz-adv-x="663" d="M643 875q0 -46 -35.5 -77.5t-85.5 -31.5q-39 0 -63.5 21t-23.5 53q1 46 36 77.5t84 31.5q39 0 63.5 -21t24.5 -53zM406 -10q-147 0 -226.5 75.5t-79.5 214.5q0 86 33 161.5t90.5 134t132.5 91.5t160 33q62 0 111.5 -9t84.5 -23q-1 -36 -9.5 -78t-20.5 -81t-25 -69h-30 q-17 54 -29.5 90t-23 61t-21.5 45q-13 3 -27 3q-49 0 -91.5 -29t-75 -80t-51 -117.5t-18.5 -142.5q0 -64 17 -114t48 -78t72 -28q14 0 24 3q35 31 75 75.5t94 111.5h30q-3 -53 -17 -113t-34 -115q-50 -12 -95 -17t-98 -5z" />
<glyph unicode="&#x10b;" horiz-adv-x="490" d="M368 569q-34 0 -56.5 21t-22.5 57q0 31 17 56.5t45 41t59 15.5q34 0 56.5 -21t22.5 -56q0 -31 -17 -57t-44.5 -41.5t-59.5 -15.5zM369 510q73 0 120 -36.5t47 -93.5q0 -52 -31 -81t-75 -29q-19 0 -36 6t-31 14q6 23 14.5 58.5t8.5 61.5q0 50 -33 50q-19 0 -36.5 -20 t-31 -53t-21.5 -73t-8 -79q0 -70 28.5 -100t72.5 -30q33 0 71.5 15.5t66.5 40.5l10 -10q-39 -76 -103 -118.5t-144 -42.5q-85 0 -136 55t-51 146q0 65 24 122.5t65.5 101.5t95.5 69.5t113 25.5z" />
<glyph unicode="&#x10c;" horiz-adv-x="663" d="M583 780l-13 -8h-95q-25 44 -46 88t-33 78l18 11q28 -18 60.5 -36.5t64.5 -34.5q43 17 93 35.5t100 35.5l11 -14q-45 -41 -87 -82t-73 -73zM406 -10q-147 0 -226.5 75.5t-79.5 214.5q0 86 33 161.5t90.5 134t132.5 91.5t160 33q62 0 111.5 -9t84.5 -23q-1 -36 -9.5 -78 t-20.5 -81t-25 -69h-30q-17 54 -29.5 90t-23 61t-21.5 45q-13 3 -27 3q-49 0 -91.5 -29t-75 -80t-51 -117.5t-18.5 -142.5q0 -64 17 -114t48 -78t72 -28q14 0 24 3q35 31 75 75.5t94 111.5h30q-3 -53 -17 -113t-34 -115q-50 -12 -95 -17t-98 -5z" />
<glyph unicode="&#x10d;" horiz-adv-x="490" d="M435 574l-13 -8h-95q-22 49 -40 98t-29 88l18 11q27 -22 57.5 -44.5t61.5 -42.5q40 20 86 42.5t93 44.5l11 -14q-42 -46 -81.5 -92.5t-68.5 -82.5zM369 510q73 0 120 -36.5t47 -93.5q0 -52 -31 -81t-75 -29q-19 0 -36 6t-31 14q6 23 14.5 58.5t8.5 61.5q0 50 -33 50 q-19 0 -36.5 -20t-31 -53t-21.5 -73t-8 -79q0 -70 28.5 -100t72.5 -30q33 0 71.5 15.5t66.5 40.5l10 -10q-39 -76 -103 -118.5t-144 -42.5q-85 0 -136 55t-51 146q0 65 24 122.5t65.5 101.5t95.5 69.5t113 25.5z" />
<glyph unicode="&#x10e;" horiz-adv-x="758" d="M603 780l-13 -8h-95q-25 44 -46 88t-33 78l18 11q28 -18 60.5 -36.5t64.5 -34.5q43 17 93 35.5t100 35.5l11 -14q-45 -41 -87 -82t-73 -73zM287 0h-244l-2 20l34 21q18 11 31 22.5t17 33.5l108 496h-1l9 42l-57 35l4 20h311q85 0 150.5 -29.5t103.5 -87.5t38 -145 q0 -82 -28 -158.5t-83.5 -137.5t-138 -96.5t-191.5 -35.5h-61l11 50h46q55 0 101.5 35t81 94t53.5 133t19 152q0 86 -31 131t-97 45h-46l-10 -47l-107 -496z" />
<glyph unicode="&#x10f;" d="M561 180q-4 -18 -7.5 -36.5t-3.5 -28.5q0 -19 17 -19q15 0 35.5 14t36.5 27l10 -10q-17 -32 -44 -64t-62 -52.5t-76 -20.5q-47 0 -73 26.5t-26 74.5q0 17 3.5 40.5t9.5 48.5l3 11h-6q-22 -55 -51.5 -101t-65.5 -73t-76 -27q-54 0 -87.5 43.5t-33.5 116.5q0 68 23 132 t66.5 115.5t106 82t142.5 30.5q23 0 48 -2l28 112l11 52l-90 37v12q39 10 89.5 18.5t102 14t89.5 6.5l8 -10l-30 -130zM864 698q0 -32 -20.5 -65.5t-55.5 -60.5t-78 -41l-8 9q42 44 58 89q-18 4 -29.5 18t-11.5 33q0 34 24.5 57t59.5 23q27 0 44 -17.5t17 -44.5zM249 182 q0 -27 6.5 -43.5t20.5 -16.5q18 0 37.5 23t38 58.5t34 75.5t25.5 75l22 87q-19 19 -49 19q-26 0 -50.5 -28t-43.5 -72t-30 -91.5t-11 -86.5z" />
<glyph unicode="&#x110;" horiz-adv-x="758" d="M287 0h-244l-2 20l34 21q18 11 31 22.5t17 33.5l49 226h-94l10 50h95l48 220h-1l9 42l-57 35l4 20h311q85 0 150.5 -29.5t103.5 -87.5t38 -145q0 -82 -28 -158.5t-83.5 -137.5t-138 -96.5t-191.5 -35.5h-61l11 50h46q55 0 101.5 35t81 94t53.5 133t19 152q0 86 -31 131 t-97 45h-46l-10 -47l-47 -220h124l-11 -50h-124l-49 -226z" />
<glyph unicode="&#x111;" d="M561 180q-4 -18 -7.5 -36.5t-3.5 -28.5q0 -19 17 -19q15 0 35.5 14t36.5 27l10 -10q-17 -32 -44 -64t-62 -52.5t-76 -20.5q-47 0 -73 26.5t-26 74.5q0 17 3.5 40.5t9.5 48.5l3 11h-6q-22 -55 -51.5 -101t-65.5 -73t-76 -27q-54 0 -87.5 43.5t-33.5 116.5q0 68 23 132 t66.5 115.5t106 82t142.5 30.5q23 0 48 -2l17 68h-140l11 50h141l10 46l-90 37v12q39 10 89.5 18.5t102 14t89.5 6.5l8 -10l-29 -124h99l-11 -50h-99zM249 182q0 -27 6.5 -43.5t20.5 -16.5q18 0 37.5 23t38 58.5t34 75.5t25.5 75l22 87q-19 19 -49 19q-26 0 -50.5 -28 t-43.5 -72t-30 -91.5t-11 -86.5z" />
<glyph unicode="&#x112;" horiz-adv-x="637" d="M309 818l18 82h342l-18 -82h-342zM414 593l-48 -225l181 7l-18 -69l-174 10l-47 -219l-10 -48h98q20 0 34 1t29 4q11 11 25.5 29.5t39.5 55.5t68 101h30q3 -57 -9.5 -123t-35.5 -117h-534l-2 20l34 21q18 11 31 22.5t17 33.5l106 496l9 42l-57 35l4 20h514 q0 -58 -15.5 -120.5t-41.5 -119.5h-30q-15 64 -25 100t-16.5 55t-12.5 31q-7 2 -24.5 2.5t-37.5 0.5h-72z" />
<glyph unicode="&#x113;" horiz-adv-x="498" d="M217 612l18 82h332l-18 -82h-332zM505 151q-39 -76 -103 -118.5t-144 -42.5q-85 0 -136 55t-51 146q0 65 24 122.5t65.5 101.5t95.5 69.5t113 25.5q46 0 82.5 -16t58 -45t21.5 -69q0 -45 -28 -83.5t-88.5 -60t-158.5 -16.5q1 -59 29 -87t72 -28q33 0 71.5 15.5t66.5 40.5 zM353 460q-22 0 -42.5 -28t-34.5 -74t-19 -100q37 2 64.5 24t43.5 56.5t16 75.5q0 46 -28 46z" />
<glyph unicode="&#x114;" horiz-adv-x="637" d="M610 938l6 2l19 -4q-22 -76 -69.5 -116.5t-114.5 -40.5q-46 0 -71.5 22.5t-33 59t0.5 76.5l23 4q5 -27 31.5 -43t69.5 -16q104 0 139 56zM414 593l-48 -225l181 7l-18 -69l-174 10l-47 -219l-10 -48h98q20 0 34 1t29 4q11 11 25.5 29.5t39.5 55.5t68 101h30 q3 -57 -9.5 -123t-35.5 -117h-534l-2 20l34 21q18 11 31 22.5t17 33.5l106 496l9 42l-57 35l4 20h514q0 -58 -15.5 -120.5t-41.5 -119.5h-30q-15 64 -25 100t-16.5 55t-12.5 31q-7 2 -24.5 2.5t-37.5 0.5h-72z" />
<glyph unicode="&#x115;" horiz-adv-x="498" d="M540 754l6 2l19 -4q-21 -80 -72.5 -127.5t-115.5 -47.5q-42 0 -67 25.5t-32.5 65.5t-0.5 85l23 4q5 -33 31.5 -52.5t69.5 -19.5q49 0 86 17.5t53 51.5zM505 151q-39 -76 -103 -118.5t-144 -42.5q-85 0 -136 55t-51 146q0 65 24 122.5t65.5 101.5t95.5 69.5t113 25.5 q46 0 82.5 -16t58 -45t21.5 -69q0 -45 -28 -83.5t-88.5 -60t-158.5 -16.5q1 -59 29 -87t72 -28q33 0 71.5 15.5t66.5 40.5zM353 460q-22 0 -42.5 -28t-34.5 -74t-19 -100q37 2 64.5 24t43.5 56.5t16 75.5q0 46 -28 46z" />
<glyph unicode="&#x116;" horiz-adv-x="637" d="M593 875q0 -46 -35.5 -77.5t-85.5 -31.5q-39 0 -63.5 21t-23.5 53q1 46 36 77.5t84 31.5q39 0 63.5 -21t24.5 -53zM414 593l-48 -225l181 7l-18 -69l-174 10l-47 -219l-10 -48h98q20 0 34 1t29 4q11 11 25.5 29.5t39.5 55.5t68 101h30q3 -57 -9.5 -123t-35.5 -117h-534 l-2 20l34 21q18 11 31 22.5t17 33.5l106 496l9 42l-57 35l4 20h514q0 -58 -15.5 -120.5t-41.5 -119.5h-30q-15 64 -25 100t-16.5 55t-12.5 31q-7 2 -24.5 2.5t-37.5 0.5h-72z" />
<glyph unicode="&#x117;" horiz-adv-x="498" d="M368 569q-34 0 -56.5 21t-22.5 57q0 31 17 56.5t45 41t59 15.5q34 0 56.5 -21t22.5 -56q0 -31 -17 -57t-44.5 -41.5t-59.5 -15.5zM505 151q-39 -76 -103 -118.5t-144 -42.5q-85 0 -136 55t-51 146q0 65 24 122.5t65.5 101.5t95.5 69.5t113 25.5q46 0 82.5 -16t58 -45 t21.5 -69q0 -45 -28 -83.5t-88.5 -60t-158.5 -16.5q1 -59 29 -87t72 -28q33 0 71.5 15.5t66.5 40.5zM353 460q-22 0 -42.5 -28t-34.5 -74t-19 -100q37 2 64.5 24t43.5 56.5t16 75.5q0 46 -28 46z" />
<glyph unicode="&#x118;" horiz-adv-x="637" d="M577 0q-38 -22 -67.5 -57t-29.5 -70q0 -27 20 -27q9 0 23.5 12t26.5 29l10 -10q-46 -137 -150 -137q-79 0 -79 82q0 39 23 74.5t62.5 62.5t87.5 41h-461l-2 20l34 21q18 11 31 22.5t17 33.5l106 496l9 42l-57 35l4 20h514q0 -58 -15.5 -120.5t-41.5 -119.5h-30 q-15 64 -25 100t-16.5 55t-12.5 31q-7 2 -24.5 2.5t-37.5 0.5h-72l-10 -46l-48 -225l181 7l-18 -69l-174 10l-47 -219l-10 -48h98q20 0 34 1t29 4q11 11 25.5 29.5t39.5 55.5t68 101h30q3 -57 -9.5 -123t-35.5 -117z" />
<glyph unicode="&#x119;" horiz-adv-x="498" d="M505 151q-27 -52 -65 -89q-51 -52 -85.5 -85.5t-52.5 -57t-18 -46.5q0 -27 20 -27q9 0 23.5 12t26.5 29l10 -10q-46 -137 -150 -137q-37 0 -58 21.5t-21 58.5q0 36 24 66.5t63 57t84 50.5q-24 -4 -48 -4q-85 0 -136 55t-51 146q0 65 24 122.5t65.5 101.5t95.5 69.5 t113 25.5q46 0 82.5 -16t58 -45t21.5 -69q0 -45 -28 -83.5t-88.5 -60t-158.5 -16.5q1 -59 29 -87t72 -28q33 0 71.5 15.5t66.5 40.5zM353 460q-22 0 -42.5 -28t-34.5 -74t-19 -100q37 2 64.5 24t43.5 56.5t16 75.5q0 46 -28 46z" />
<glyph unicode="&#x11a;" horiz-adv-x="637" d="M527 780l-13 -8h-95q-25 44 -46 88t-33 78l18 11q28 -18 60.5 -36.5t64.5 -34.5q43 17 93 35.5t100 35.5l11 -14q-45 -41 -87 -82t-73 -73zM414 593l-48 -225l181 7l-18 -69l-174 10l-47 -219l-10 -48h98q20 0 34 1t29 4q11 11 25.5 29.5t39.5 55.5t68 101h30 q3 -57 -9.5 -123t-35.5 -117h-534l-2 20l34 21q18 11 31 22.5t17 33.5l106 496l9 42l-57 35l4 20h514q0 -58 -15.5 -120.5t-41.5 -119.5h-30q-15 64 -25 100t-16.5 55t-12.5 31q-7 2 -24.5 2.5t-37.5 0.5h-72z" />
<glyph unicode="&#x11b;" horiz-adv-x="498" d="M435 574l-13 -8h-95q-22 49 -40 98t-29 88l18 11q27 -22 57.5 -44.5t61.5 -42.5q40 20 86 42.5t93 44.5l11 -14q-42 -46 -81.5 -92.5t-68.5 -82.5zM505 151q-39 -76 -103 -118.5t-144 -42.5q-85 0 -136 55t-51 146q0 65 24 122.5t65.5 101.5t95.5 69.5t113 25.5 q46 0 82.5 -16t58 -45t21.5 -69q0 -45 -28 -83.5t-88.5 -60t-158.5 -16.5q1 -59 29 -87t72 -28q33 0 71.5 15.5t66.5 40.5zM353 460q-22 0 -42.5 -28t-34.5 -74t-19 -100q37 2 64.5 24t43.5 56.5t16 75.5q0 46 -28 46z" />
<glyph unicode="&#x11c;" horiz-adv-x="738" d="M734 787l-18 -11q-33 18 -69.5 36t-73.5 33q-39 -16 -84.5 -34t-90.5 -35l-11 14q41 40 80 80t67 71l13 8h95q31 -43 55 -85.5t37 -76.5zM436 50q30 0 58 6l36 167l9 42l-57 35l4 20h299l2 -20l-34 -16q-19 -9 -31 -22.5t-17 -38.5l-43 -201q-49 -16 -112.5 -24 t-131.5 -8q-153 0 -236 75.5t-83 214.5q0 86 35 161.5t97 134t142.5 91.5t170.5 33q65 0 117.5 -9t89.5 -23q-1 -36 -12.5 -80t-26 -83.5t-26.5 -64.5h-30q-25 78 -41 121.5t-33 74.5q-15 3 -32 3q-49 0 -95.5 -27t-84 -75.5t-59.5 -115t-22 -146.5q0 -66 18.5 -116.5 t51.5 -79.5t77 -29z" />
<glyph unicode="&#x11d;" horiz-adv-x="518" d="M507 577l-18 -11q-29 22 -62 44.5t-66 41.5q-36 -20 -77.5 -42t-82.5 -44l-11 14q37 47 72 93t60 82l13 8h95q26 -49 46 -98t31 -88zM332 510q86 0 155 1t112 12q10 -15 10 -42q0 -21 -11 -38t-37 -17q-22 0 -54.5 13t-64.5 26l-3 -5q32 -17 54 -46.5t22 -73.5 q0 -57 -23 -95t-56.5 -62t-67.5 -40t-57 -28t-23 -26q0 -15 19 -24.5t47 -20.5q31 -12 59 -27t46.5 -38.5t18.5 -61.5q0 -51 -36 -91t-97.5 -63t-140.5 -23q-116 0 -180 34.5t-64 83.5q0 27 17.5 48t46.5 36.5t61 24.5l14 -11q-1 -3 -1.5 -6.5t-0.5 -8.5q0 -41 17 -77 t49 -58.5t77 -22.5q32 0 57 17.5t25 48.5q0 26 -31 44t-69 38q-37 19 -67 41t-30 57q0 30 31 55t103 50q-80 5 -129.5 48t-49.5 110q0 60 32.5 109.5t89.5 79t130 29.5zM246 286q0 -49 8 -75t30 -26q16 0 28 21t20.5 55t12.5 71.5t4 70.5q0 64 -34 64q-16 0 -29 -17.5 t-22 -45t-13.5 -59t-4.5 -59.5z" />
<glyph unicode="&#x11e;" horiz-adv-x="738" d="M711 938l6 2l19 -4q-22 -76 -69.5 -116.5t-114.5 -40.5q-46 0 -71.5 22.5t-33 59t0.5 76.5l23 4q5 -27 31.5 -43t69.5 -16q104 0 139 56zM436 50q30 0 58 6l36 167l9 42l-57 35l4 20h299l2 -20l-34 -16q-19 -9 -31 -22.5t-17 -38.5l-43 -201q-49 -16 -112.5 -24 t-131.5 -8q-153 0 -236 75.5t-83 214.5q0 86 35 161.5t97 134t142.5 91.5t170.5 33q65 0 117.5 -9t89.5 -23q-1 -36 -12.5 -80t-26 -83.5t-26.5 -64.5h-30q-25 78 -41 121.5t-33 74.5q-15 3 -32 3q-49 0 -95.5 -27t-84 -75.5t-59.5 -115t-22 -146.5q0 -66 18.5 -116.5 t51.5 -79.5t77 -29z" />
<glyph unicode="&#x11f;" horiz-adv-x="518" d="M504 754l6 2l19 -4q-21 -80 -72.5 -127.5t-115.5 -47.5q-42 0 -67 25.5t-32.5 65.5t-0.5 85l23 4q5 -33 31.5 -52.5t69.5 -19.5q49 0 86 17.5t53 51.5zM332 510q86 0 155 1t112 12q10 -15 10 -42q0 -21 -11 -38t-37 -17q-22 0 -54.5 13t-64.5 26l-3 -5q32 -17 54 -46.5 t22 -73.5q0 -57 -23 -95t-56.5 -62t-67.5 -40t-57 -28t-23 -26q0 -15 19 -24.5t47 -20.5q31 -12 59 -27t46.5 -38.5t18.5 -61.5q0 -51 -36 -91t-97.5 -63t-140.5 -23q-116 0 -180 34.5t-64 83.5q0 27 17.5 48t46.5 36.5t61 24.5l14 -11q-1 -3 -1.5 -6.5t-0.5 -8.5 q0 -41 17 -77t49 -58.5t77 -22.5q32 0 57 17.5t25 48.5q0 26 -31 44t-69 38q-37 19 -67 41t-30 57q0 30 31 55t103 50q-80 5 -129.5 48t-49.5 110q0 60 32.5 109.5t89.5 79t130 29.5zM246 286q0 -49 8 -75t30 -26q16 0 28 21t20.5 55t12.5 71.5t4 70.5q0 64 -34 64 q-16 0 -29 -17.5t-22 -45t-13.5 -59t-4.5 -59.5z" />
<glyph unicode="&#x120;" horiz-adv-x="738" d="M669 875q0 -46 -35.5 -77.5t-85.5 -31.5q-39 0 -63.5 21t-23.5 53q1 46 36 77.5t84 31.5q39 0 63.5 -21t24.5 -53zM436 50q30 0 58 6l36 167l9 42l-57 35l4 20h299l2 -20l-34 -16q-19 -9 -31 -22.5t-17 -38.5l-43 -201q-49 -16 -112.5 -24t-131.5 -8q-153 0 -236 75.5 t-83 214.5q0 86 35 161.5t97 134t142.5 91.5t170.5 33q65 0 117.5 -9t89.5 -23q-1 -36 -12.5 -80t-26 -83.5t-26.5 -64.5h-30q-25 78 -41 121.5t-33 74.5q-15 3 -32 3q-49 0 -95.5 -27t-84 -75.5t-59.5 -115t-22 -146.5q0 -66 18.5 -116.5t51.5 -79.5t77 -29z" />
<glyph unicode="&#x121;" horiz-adv-x="518" d="M342 569q-34 0 -56.5 21t-22.5 57q0 31 17 56.5t45 41t59 15.5q34 0 56.5 -21t22.5 -56q0 -31 -17 -57t-44.5 -41.5t-59.5 -15.5zM332 510q86 0 155 1t112 12q10 -15 10 -42q0 -21 -11 -38t-37 -17q-22 0 -54.5 13t-64.5 26l-3 -5q32 -17 54 -46.5t22 -73.5 q0 -57 -23 -95t-56.5 -62t-67.5 -40t-57 -28t-23 -26q0 -15 19 -24.5t47 -20.5q31 -12 59 -27t46.5 -38.5t18.5 -61.5q0 -51 -36 -91t-97.5 -63t-140.5 -23q-116 0 -180 34.5t-64 83.5q0 27 17.5 48t46.5 36.5t61 24.5l14 -11q-1 -3 -1.5 -6.5t-0.5 -8.5q0 -41 17 -77 t49 -58.5t77 -22.5q32 0 57 17.5t25 48.5q0 26 -31 44t-69 38q-37 19 -67 41t-30 57q0 30 31 55t103 50q-80 5 -129.5 48t-49.5 110q0 60 32.5 109.5t89.5 79t130 29.5zM246 286q0 -49 8 -75t30 -26q16 0 28 21t20.5 55t12.5 71.5t4 70.5q0 64 -34 64q-16 0 -29 -17.5 t-22 -45t-13.5 -59t-4.5 -59.5z" />
<glyph unicode="&#x122;" horiz-adv-x="738" d="M436 50q30 0 58 6l36 167l9 42l-57 35l4 20h299l2 -20l-34 -16q-19 -9 -31 -22.5t-17 -38.5l-43 -201q-49 -16 -112.5 -24t-131.5 -8q-153 0 -236 75.5t-83 214.5q0 86 35 161.5t97 134t142.5 91.5t170.5 33q65 0 117.5 -9t89.5 -23q-1 -36 -12.5 -80t-26 -83.5 t-26.5 -64.5h-30q-25 78 -41 121.5t-33 74.5q-15 3 -32 3q-49 0 -95.5 -27t-84 -75.5t-59.5 -115t-22 -146.5q0 -66 18.5 -116.5t51.5 -79.5t77 -29zM474 -147q0 -40 -24.5 -82t-66 -76t-92.5 -52l-10 11q48 55 68 113q-21 6 -34.5 23t-13.5 42q0 41 29.5 70t70.5 29 q32 0 52.5 -22t20.5 -56z" />
<glyph unicode="&#x123;" horiz-adv-x="518" d="M279 647q0 41 24.5 82.5t66 75.5t92.5 52l10 -11q-48 -55 -68 -113q21 -6 34.5 -23t13.5 -42q0 -41 -29.5 -70t-70.5 -29q-32 0 -52.5 22t-20.5 56zM332 510q86 0 155 1t112 12q10 -15 10 -42q0 -21 -11 -38t-37 -17q-22 0 -54.5 13t-64.5 26l-3 -5q32 -17 54 -46.5 t22 -73.5q0 -57 -23 -95t-56.5 -62t-67.5 -40t-57 -28t-23 -26q0 -15 19 -24.5t47 -20.5q31 -12 59 -27t46.5 -38.5t18.5 -61.5q0 -51 -36 -91t-97.5 -63t-140.5 -23q-116 0 -180 34.5t-64 83.5q0 27 17.5 48t46.5 36.5t61 24.5l14 -11q-1 -3 -1.5 -6.5t-0.5 -8.5 q0 -41 17 -77t49 -58.5t77 -22.5q32 0 57 17.5t25 48.5q0 26 -31 44t-69 38q-37 19 -67 41t-30 57q0 30 31 55t103 50q-80 5 -129.5 48t-49.5 110q0 60 32.5 109.5t89.5 79t130 29.5zM246 286q0 -49 8 -75t30 -26q16 0 28 21t20.5 55t12.5 71.5t4 70.5q0 64 -34 64 q-16 0 -29 -17.5t-22 -45t-13.5 -59t-4.5 -59.5z" />
<glyph unicode="&#x124;" horiz-adv-x="833" d="M764 787l-18 -11q-33 18 -69.5 36t-73.5 33q-39 -16 -84.5 -34t-90.5 -35l-11 14q41 40 80 80t67 71l13 8h95q31 -43 55 -85.5t37 -76.5zM299 55l57 -35l-4 -20h-309l-2 20l34 21q18 11 31 22.5t17 33.5l105 496l9 42l-57 35l4 20h309l2 -20l-34 -21q-18 -11 -30.5 -22 t-17.5 -34l-46 -216h241l46 216l9 42l-57 35l4 20h309l2 -20l-34 -21q-18 -11 -30.5 -22t-17.5 -34l-105 -496l-9 -42l57 -35l-4 -20h-309l-2 20l34 21q18 11 31 22.5t17 33.5l47 223h-241l-47 -223z" />
<glyph unicode="&#x125;" horiz-adv-x="630" d="M469 808l-18 -11q-33 18 -69.5 36t-73.5 33q-39 -16 -84.5 -34t-90.5 -35l-11 14q41 40 80 80t67 71l13 8h95q31 -43 55 -85.5t37 -76.5zM59 19l34 161l94 440l12 54l-71 35v12q37 10 84 18t94 13.5t83 7.5l8 -10l-30 -130q-21 -88 -44.5 -171t-49.5 -168h4 q16 35 39.5 74.5t55 74.5t68.5 57.5t80 22.5q50 0 76 -28t26 -66q0 -28 -9 -69.5t-21 -85.5t-21 -81q-4 -18 -7.5 -36.5t-3.5 -28.5q0 -19 17 -19q15 0 35.5 14t36.5 27l10 -10q-17 -32 -44 -64t-62 -52.5t-76 -20.5q-47 0 -73 26.5t-26 74.5q0 17 3.5 40.5t9.5 48.5 q9 36 18.5 71.5t16 64.5t6.5 44q0 27 -20 27q-16 0 -37 -21.5t-42 -54t-37 -68t-23 -63.5l-38 -180l-83 -3q-18 -1 -43.5 -2t-35.5 -1q-19 0 -14 25z" />
<glyph unicode="&#x126;" horiz-adv-x="833" d="M299 55l57 -35l-4 -20h-309l-2 20l34 21q18 11 31 22.5t17 33.5l82 386h-76l9 50h77l13 60l9 42l-57 35l4 20h309l2 -20l-34 -21q-18 -11 -30.5 -22t-17.5 -34l-13 -60h241l13 60l9 42l-57 35l4 20h309l2 -20l-34 -21q-18 -11 -30.5 -22t-17.5 -34l-13 -60h77l-9 -50h-78 l-82 -386l-9 -42l57 -35l-4 -20h-309l-2 20l34 21q18 11 31 22.5t17 33.5l47 223h-241l-47 -223zM367 377h241l23 106h-241z" />
<glyph unicode="&#x127;" horiz-adv-x="630" d="M59 19l34 161l85 396h-99l11 50h98l11 48l-71 35v12q37 10 84 18t94 13.5t83 7.5l8 -10l-29 -124h142l-11 -50h-143q-19 -76 -39.5 -148.5t-43.5 -146.5h4q16 35 39.5 74.5t55 74.5t68.5 57.5t80 22.5q50 0 76 -28t26 -66q0 -28 -9 -69.5t-21 -85.5t-21 -81 q-4 -18 -7.5 -36.5t-3.5 -28.5q0 -19 17 -19q15 0 35.5 14t36.5 27l10 -10q-17 -32 -44 -64t-62 -52.5t-76 -20.5q-47 0 -73 26.5t-26 74.5q0 17 3.5 40.5t9.5 48.5q9 36 18.5 71.5t16 64.5t6.5 44q0 27 -20 27q-16 0 -37 -21.5t-42 -54t-37 -68t-23 -63.5l-38 -180l-83 -3 q-18 -1 -43.5 -2t-35.5 -1q-19 0 -14 25z" />
<glyph unicode="&#x128;" horiz-adv-x="413" d="M234 833q-18 -10 -36.5 -25t-35.5 -29l-17 8q20 77 66 119.5t105 42.5q41 0 74.5 -12.5t65.5 -26.5t66 -18q18 11 36.5 26t35.5 28l17 -8q-20 -76 -66 -119t-105 -43q-40 0 -74 13t-66 27t-66 17zM299 55l57 -35l-4 -20h-309l-2 20l34 21q18 11 31 22.5t17 33.5l105 496 l9 42l-57 35l4 20h309l2 -20l-34 -21q-18 -11 -30.5 -22t-17.5 -34l-105 -496z" />
<glyph unicode="&#x129;" horiz-adv-x="362" d="M172 629q-18 -12 -36.5 -28t-35.5 -30l-13 6q19 82 63 127.5t99 45.5q28 0 52 -13.5t46 -28.5t42 -19q18 12 36.5 28t35.5 30l13 -6q-19 -82 -62.5 -127.5t-99.5 -45.5q-27 0 -51.5 14t-46.5 29t-42 18zM297 180q-4 -18 -7.5 -36.5t-3.5 -28.5q0 -19 17 -19q15 0 35.5 14 t36.5 27l10 -10q-17 -32 -44 -64t-62 -52.5t-76 -20.5q-47 0 -73 26.5t-26 74.5q0 17 3.5 40.5t9.5 48.5q8 35 15.5 70t14.5 70q4 18 7.5 36.5t3.5 28.5q0 19 -17 19q-15 0 -35 -13.5t-37 -27.5l-10 10q17 33 44 64.5t62 52t76 20.5q47 0 73 -26.5t26 -74.5q0 -17 -3.5 -40 t-9.5 -49q-7 -35 -14.5 -70t-15.5 -70z" />
<glyph unicode="&#x12a;" horiz-adv-x="413" d="M197 818l18 82h342l-18 -82h-342zM299 55l57 -35l-4 -20h-309l-2 20l34 21q18 11 31 22.5t17 33.5l105 496l9 42l-57 35l4 20h309l2 -20l-34 -21q-18 -11 -30.5 -22t-17.5 -34l-105 -496z" />
<glyph unicode="&#x12b;" horiz-adv-x="362" d="M136 612l18 82h282l-18 -82h-282zM297 180q-4 -18 -7.5 -36.5t-3.5 -28.5q0 -19 17 -19q15 0 35.5 14t36.5 27l10 -10q-17 -32 -44 -64t-62 -52.5t-76 -20.5q-47 0 -73 26.5t-26 74.5q0 17 3.5 40.5t9.5 48.5q8 35 15.5 70t14.5 70q4 18 7.5 36.5t3.5 28.5q0 19 -17 19 q-15 0 -35 -13.5t-37 -27.5l-10 10q17 33 44 64.5t62 52t76 20.5q47 0 73 -26.5t26 -74.5q0 -17 -3.5 -40t-9.5 -49q-7 -35 -14.5 -70t-15.5 -70z" />
<glyph unicode="&#x12c;" horiz-adv-x="413" d="M518 938l6 2l19 -4q-22 -76 -69.5 -116.5t-114.5 -40.5q-46 0 -71.5 22.5t-33 59t0.5 76.5l23 4q5 -27 31.5 -43t69.5 -16q104 0 139 56zM299 55l57 -35l-4 -20h-309l-2 20l34 21q18 11 31 22.5t17 33.5l105 496l9 42l-57 35l4 20h309l2 -20l-34 -21q-18 -11 -30.5 -22 t-17.5 -34l-105 -496z" />
<glyph unicode="&#x12d;" horiz-adv-x="362" d="M402 754l6 2l19 -4q-17 -80 -66.5 -127.5t-109.5 -47.5q-37 0 -59.5 25.5t-29.5 65.5t1 85l23 4q2 -33 26.5 -52.5t62.5 -19.5q44 0 79 17.5t48 51.5zM297 180q-4 -18 -7.5 -36.5t-3.5 -28.5q0 -19 17 -19q15 0 35.5 14t36.5 27l10 -10q-17 -32 -44 -64t-62 -52.5 t-76 -20.5q-47 0 -73 26.5t-26 74.5q0 17 3.5 40.5t9.5 48.5q8 35 15.5 70t14.5 70q4 18 7.5 36.5t3.5 28.5q0 19 -17 19q-15 0 -35 -13.5t-37 -27.5l-10 10q17 33 44 64.5t62 52t76 20.5q47 0 73 -26.5t26 -74.5q0 -17 -3.5 -40t-9.5 -49q-7 -35 -14.5 -70t-15.5 -70z" />
<glyph unicode="&#x12e;" horiz-adv-x="413" d="M299 55l57 -35l-4 -20q-38 -22 -67.5 -57t-29.5 -70q0 -27 20 -27q9 0 23.5 12t26.5 29l10 -10q-46 -137 -150 -137q-79 0 -79 82q0 39 23 74.5t62.5 62.5t87.5 41h-236l-2 20l34 21q18 11 31 22.5t17 33.5l105 496l9 42l-57 35l4 20h309l2 -20l-34 -21 q-18 -11 -30.5 -22t-17.5 -34l-105 -496z" />
<glyph unicode="&#x12f;" horiz-adv-x="362" d="M268 569q-34 0 -56.5 21t-22.5 57q0 31 17 56.5t45 41t59 15.5q34 0 56.5 -21t22.5 -56q0 -31 -17 -57t-44.5 -41.5t-59.5 -15.5zM297 180q-4 -18 -7.5 -36.5t-3.5 -28.5q0 -19 17 -19q15 0 35.5 14t36.5 27l10 -10q-9 -17 -21 -34.5t-26 -33.5q-64 -76 -95 -118.5 t-31 -70.5q0 -24 20 -24q11 0 24.5 12.5t25.5 28.5l10 -10q-22 -64 -60.5 -100.5t-89.5 -36.5q-33 0 -56 19.5t-23 55.5q0 34 21 64.5t56 58t76 53.5q-6 -1 -13 -1q-47 0 -73 26.5t-26 74.5q0 17 3.5 40.5t9.5 48.5q8 35 15.5 70t14.5 70q4 18 7.5 36.5t3.5 28.5 q0 19 -17 19q-15 0 -35 -13.5t-37 -27.5l-10 10q17 33 44 64.5t62 52t76 20.5q47 0 73 -26.5t26 -74.5q0 -17 -3.5 -40t-9.5 -49q-7 -35 -14.5 -70t-15.5 -70z" />
<glyph unicode="&#x130;" horiz-adv-x="413" d="M483 875q0 -46 -35.5 -77.5t-85.5 -31.5q-39 0 -63.5 21t-23.5 53q1 46 36 77.5t84 31.5q39 0 63.5 -21t24.5 -53zM299 55l57 -35l-4 -20h-309l-2 20l34 21q18 11 31 22.5t17 33.5l105 496l9 42l-57 35l4 20h309l2 -20l-34 -21q-18 -11 -30.5 -22t-17.5 -34l-105 -496z " />
<glyph unicode="&#x131;" horiz-adv-x="362" d="M297 180q-4 -18 -7.5 -36.5t-3.5 -28.5q0 -19 17 -19q15 0 35.5 14t36.5 27l10 -10q-17 -32 -44 -64t-62 -52.5t-76 -20.5q-47 0 -73 26.5t-26 74.5q0 17 3.5 40.5t9.5 48.5q8 35 15.5 70t14.5 70q4 18 7.5 36.5t3.5 28.5q0 19 -17 19q-15 0 -35 -13.5t-37 -27.5l-10 10 q17 33 44 64.5t62 52t76 20.5q47 0 73 -26.5t26 -74.5q0 -17 -3.5 -40t-9.5 -49q-7 -35 -14.5 -70t-15.5 -70z" />
<glyph unicode="&#x132;" horiz-adv-x="808" d="M299 55l57 -35l-4 -20h-309l-2 20l34 21q18 11 31 22.5t17 33.5l105 496l9 42l-57 35l4 20h309l2 -20l-34 -21q-18 -11 -30.5 -22t-17.5 -34l-105 -496zM646 635l-57 35l4 20h309l2 -20l-34 -21q-18 -11 -30.5 -22t-17.5 -34l-109 -513q-10 -50 -41.5 -94t-75 -77.5 t-91 -54t-90.5 -24.5l-11 20q48 48 81 116.5t52 153.5l100 473z" />
<glyph unicode="&#x133;" horiz-adv-x="685" d="M268 569q-34 0 -56.5 21t-22.5 57q0 31 17 56.5t45 41t59 15.5q34 0 56.5 -21t22.5 -56q0 -31 -17 -57t-44.5 -41.5t-59.5 -15.5zM589 569q-34 0 -56.5 21t-22.5 57q0 31 17 56.5t45 41t59 15.5q34 0 56.5 -21t22.5 -56q0 -31 -17 -57t-44.5 -41.5t-59.5 -15.5zM297 180 q-4 -18 -7.5 -36.5t-3.5 -28.5q0 -19 17 -19q15 0 35.5 14t36.5 27l10 -10q-17 -32 -44 -64t-62 -52.5t-76 -20.5q-47 0 -73 26.5t-26 74.5q0 17 3.5 40.5t9.5 48.5q8 35 15.5 70t14.5 70q4 18 7.5 36.5t3.5 28.5q0 19 -17 19q-15 0 -35 -13.5t-37 -27.5l-10 10 q17 33 44 64.5t62 52t76 20.5q47 0 73 -26.5t26 -74.5q0 -17 -3.5 -40t-9.5 -49q-7 -35 -14.5 -70t-15.5 -70zM470 320q4 18 7.5 36.5t3.5 28.5q0 19 -17 19q-15 0 -35 -13.5t-37 -27.5l-10 10q17 33 44 64.5t62 52t76 20.5q47 0 73 -26.5t26 -74.5q0 -17 -3.5 -40t-9.5 -49 l-62 -300q-19 -92 -62.5 -154.5t-102.5 -94t-124 -31.5q-55 0 -88.5 21t-33.5 55q0 20 10.5 33.5t26.5 20.5q30 -37 70 -37q41 0 71 37.5t47 119.5z" />
<glyph unicode="&#x134;" horiz-adv-x="400" d="M537 787l-18 -11q-33 18 -69.5 36t-73.5 33q-39 -16 -84.5 -34t-90.5 -35l-11 14q41 40 80 80t67 71l13 8h95q31 -43 55 -85.5t37 -76.5zM237 635l-57 35l4 20h309l2 -20l-34 -21q-18 -11 -30.5 -22t-17.5 -34l-109 -513q-10 -50 -41.5 -94t-75 -77.5t-91 -54 t-90.5 -24.5l-11 20q48 48 81 116.5t52 153.5l100 473z" />
<glyph unicode="&#x135;" horiz-adv-x="332" d="M362 577l-18 -11q-21 19 -45.5 38.5t-49.5 37.5q-59 -37 -123 -76l-11 14q27 47 53 93t44 82l13 8h95q14 -49 25 -98t17 -88zM138 320q4 18 7.5 36.5t3.5 28.5q0 19 -17 19q-15 0 -35 -13.5t-37 -27.5l-10 10q17 33 44 64.5t62 52t76 20.5q47 0 73 -26.5t26 -74.5 q0 -17 -3.5 -40t-9.5 -49l-62 -300q-19 -92 -62.5 -154.5t-102.5 -94t-124 -31.5q-55 0 -88.5 21t-33.5 55q0 20 10.5 33.5t26.5 20.5q30 -37 70 -37q41 0 71 37.5t47 119.5z" />
<glyph unicode="&#x136;" horiz-adv-x="760" d="M299 55l57 -35l-4 -20h-309l-2 20l34 21q18 11 31 22.5t17 33.5l105 496l9 42l-57 35l4 20h309l2 -20l-34 -21q-18 -11 -30.5 -22t-17.5 -34l-47 -223h57l250 265l-75 35l4 20h251l2 -20l-70 -30q-19 -8 -37 -22t-38 -33l-151 -143l64 -192q22 -65 37.5 -107t30.5 -66.5 t33 -36.5l31 -20l-6 -20l-184 -5q-37 -1 -53.5 15t-25.5 47l-75 258h-57l-46 -218zM456 -147q0 -40 -24.5 -82t-66 -76t-92.5 -52l-10 11q48 55 68 113q-21 6 -34.5 23t-13.5 42q0 41 29.5 70t70.5 29q32 0 52.5 -22t20.5 -56z" />
<glyph unicode="&#x137;" horiz-adv-x="610" d="M59 19l34 161l94 440l12 54l-71 35v12q37 10 84 18t94 13.5t83 7.5l8 -10l-30 -130q-21 -88 -44.5 -171t-49.5 -168h4q16 35 39.5 74.5t54.5 74.5t69 57.5t83 22.5q51 0 77.5 -28t26.5 -66q0 -44 -23 -80.5t-55 -63t-59 -42.5q13 -36 25.5 -66.5t25 -49t24.5 -18.5 q15 0 34 14t35 27l10 -10q-17 -32 -44 -64t-62.5 -52.5t-77.5 -20.5q-46 0 -69.5 25.5t-37 69t-29.5 95.5l3 12q60 38 90 83.5t30 79.5q0 32 -25 32q-19 0 -42 -21.5t-45 -54.5t-38.5 -68t-23.5 -63l-38 -180l-83 -3q-18 -1 -43.5 -2t-35.5 -1q-19 0 -14 25zM356 -147 q0 -40 -24.5 -82t-66 -76t-92.5 -52l-10 11q48 55 68 113q-21 6 -34.5 23t-13.5 42q0 41 29.5 70t70.5 29q32 0 52.5 -22t20.5 -56z" />
<glyph unicode="&#x138;" horiz-adv-x="632" d="M84 19l34 161l30 140q4 18 7.5 36.5t3.5 28.5q0 19 -17 19q-15 0 -35 -13.5t-37 -27.5l-10 10q17 33 44 64.5t62 52t76 20.5q47 0 73 -26.5t26 -74.5q0 -17 -3.5 -40t-9.5 -49l-12 -55h30q83 128 145 186.5t116 58.5q26 0 39.5 -17t13.5 -43q0 -33 -12 -66.5t-23 -50.5 q-23 29 -58 29q-45 0 -86 -24l8 -29q18 -60 34.5 -108t32.5 -76.5t31 -28.5t34 14t35 27l10 -10q-17 -32 -44 -64t-61.5 -52.5t-76.5 -20.5q-48 0 -74 30t-40.5 81t-30.5 114h-33l-8 -35l-38 -180l-83 -3q-18 -1 -43.5 -2t-35.5 -1q-19 0 -14 25z" />
<glyph unicode="&#x139;" horiz-adv-x="618" d="M444 946l13 2q38 -19 54 -36t16 -37q0 -46 -81.5 -72.5t-230.5 -26.5l-6 19q45 22 90 49t83 54t62 48zM237 635l-57 35l4 20h309l2 -20l-34 -21q-18 -11 -30.5 -22t-17.5 -34l-105 -496l-10 -47h89q14 0 31 1t32 3q13 13 28 32.5t39.5 55.5t65.5 98h30q0 -58 -11 -120 t-34 -120h-525l-2 20l34 21q18 11 31 22.5t17 33.5l105 496z" />
<glyph unicode="&#x13a;" horiz-adv-x="332" d="M394 1006l13 2q38 -19 54 -36t16 -37q0 -46 -81.5 -72.5t-230.5 -26.5l-6 19q45 22 90 49t83 54t62 48zM273 180q-4 -18 -7.5 -36.5t-3.5 -28.5q0 -19 17 -19q15 0 35.5 14t36.5 27l10 -10q-17 -32 -44 -64t-62 -52.5t-76 -20.5q-47 0 -73 26.5t-26 74.5q0 17 3.5 40.5 t9.5 48.5l94 440l12 54l-71 35v12q37 10 84 18t94 13.5t83 7.5l8 -10l-30 -130z" />
<glyph unicode="&#x13b;" horiz-adv-x="618" d="M237 635l-57 35l4 20h309l2 -20l-34 -21q-18 -11 -30.5 -22t-17.5 -34l-105 -496l-10 -47h89q14 0 31 1t32 3q13 13 28 32.5t39.5 55.5t65.5 98h30q0 -58 -11 -120t-34 -120h-525l-2 20l34 21q18 11 31 22.5t17 33.5l105 496zM394 -147q0 -40 -24.5 -82t-66 -76 t-92.5 -52l-10 11q48 55 68 113q-21 6 -34.5 23t-13.5 42q0 41 29.5 70t70.5 29q32 0 52.5 -22t20.5 -56z" />
<glyph unicode="&#x13c;" horiz-adv-x="332" d="M273 180q-4 -18 -7.5 -36.5t-3.5 -28.5q0 -19 17 -19q15 0 35.5 14t36.5 27l10 -10q-17 -32 -44 -64t-62 -52.5t-76 -20.5q-47 0 -73 26.5t-26 74.5q0 17 3.5 40.5t9.5 48.5l94 440l12 54l-71 35v12q37 10 84 18t94 13.5t83 7.5l8 -10l-30 -130zM207 -147 q0 -40 -24.5 -82t-66 -76t-92.5 -52l-10 11q48 55 68 113q-21 6 -34.5 23t-13.5 42q0 41 29.5 70t70.5 29q32 0 52.5 -22t20.5 -56z" />
<glyph unicode="&#x13d;" horiz-adv-x="618" d="M722 638q0 -32 -20.5 -65.5t-55.5 -60.5t-78 -41l-8 9q42 44 58 89q-18 4 -29.5 18t-11.5 33q0 34 24.5 57t59.5 23q27 0 44 -17.5t17 -44.5zM237 635l-57 35l4 20h309l2 -20l-34 -21q-18 -11 -30.5 -22t-17.5 -34l-105 -496l-10 -47h89q14 0 31 1t32 3q13 13 28 32.5 t39.5 55.5t65.5 98h30q0 -58 -11 -120t-34 -120h-525l-2 20l34 21q18 11 31 22.5t17 33.5l105 496z" />
<glyph unicode="&#x13e;" horiz-adv-x="433" d="M273 180q-4 -18 -7.5 -36.5t-3.5 -28.5q0 -19 17 -19q15 0 35.5 14t36.5 27l10 -10q-17 -32 -44 -64t-62 -52.5t-76 -20.5q-47 0 -73 26.5t-26 74.5q0 17 3.5 40.5t9.5 48.5l94 440l12 54l-71 35v12q37 10 84 18t94 13.5t83 7.5l8 -10l-30 -130zM570 698 q0 -32 -20.5 -65.5t-55.5 -60.5t-78 -41l-8 9q42 44 58 89q-18 4 -29.5 18t-11.5 33q0 34 24.5 57t59.5 23q27 0 44 -17.5t17 -44.5z" />
<glyph unicode="&#x13f;" horiz-adv-x="618" d="M237 635l-57 35l4 20h309l2 -20l-34 -21q-18 -11 -30.5 -22t-17.5 -34l-105 -496l-10 -47h89q14 0 31 1t32 3q13 13 28 32.5t39.5 55.5t65.5 98h30q0 -58 -11 -120t-34 -120h-525l-2 20l34 21q18 11 31 22.5t17 33.5l105 496zM549 323q-34 0 -56.5 21t-22.5 57 q0 31 17 56.5t45 41t59 15.5q34 0 56.5 -21t22.5 -56q0 -31 -17 -57t-44.5 -41.5t-59.5 -15.5z" />
<glyph unicode="&#x140;" horiz-adv-x="490" d="M273 180q-4 -18 -7.5 -36.5t-3.5 -28.5q0 -19 17 -19q15 0 35.5 14t36.5 27l10 -10q-17 -32 -44 -64t-62 -52.5t-76 -20.5q-47 0 -73 26.5t-26 74.5q0 17 3.5 40.5t9.5 48.5l94 440l12 54l-71 35v12q37 10 84 18t94 13.5t83 7.5l8 -10l-30 -130zM452 290q-34 0 -56.5 21 t-22.5 57q0 31 17 56.5t45 41t59 15.5q34 0 56.5 -21t22.5 -56q0 -31 -17 -57t-44.5 -41.5t-59.5 -15.5z" />
<glyph unicode="&#x141;" horiz-adv-x="618" d="M475 423l-110 -59l-57 -267l-10 -47h89q14 0 31 1t32 3q13 13 28 32.5t39.5 55.5t65.5 98h30q0 -58 -11 -120t-34 -120h-525l-2 20l34 21q18 11 31 22.5t17 33.5l33 156l-75 -40l-18 54l108 58l57 268l9 42l-57 35l4 20h309l2 -20l-34 -21q-18 -11 -30.5 -22t-17.5 -34 l-33 -157l76 41z" />
<glyph unicode="&#x142;" horiz-adv-x="332" d="M273 180q-4 -18 -7.5 -36.5t-3.5 -28.5q0 -19 17 -19q15 0 35.5 14t36.5 27l10 -10q-17 -32 -44 -64t-62 -52.5t-76 -20.5q-47 0 -73 26.5t-26 74.5q0 17 3.5 40.5t9.5 48.5l32 150l-80 -43l-18 54l113 61l47 218l12 54l-71 35v12q37 10 84 18t94 13.5t83 7.5l8 -10 l-30 -130l-23 -110l76 41l19 -54l-111 -59z" />
<glyph unicode="&#x143;" horiz-adv-x="727" d="M622 946l13 2q38 -19 54 -36t16 -37q0 -46 -81.5 -72.5t-230.5 -26.5l-6 19q45 22 90 49t83 54t62 48zM175 62l65 -37l-5 -25h-206l-3 25l40 20q24 12 38.5 21.5t18.5 30.5l112 531l-65 37l5 25h214l219 -472l80 375l8 35l-85 37l5 25h226l3 -25l-40 -20 q-24 -12 -38 -21.5t-19 -30.5l-126 -593h-115l-236 511l-88 -414z" />
<glyph unicode="&#x144;" horiz-adv-x="654" d="M466 763l13 6q8 -1 17 -1.5t17 -2.5q44 -8 64 -21t20 -32q0 -21 -22.5 -44.5t-61 -45.5t-88 -38t-104.5 -22l-10 16q32 30 61.5 64t54 66t39.5 55zM83 19l34 161q8 39 16 73t14 60q5 26 8.5 44.5t3.5 25.5q0 21 -17 21q-15 0 -35 -13.5t-37 -27.5l-10 10q18 32 44 63.5 t59.5 52.5t72.5 21q44 0 68.5 -23.5t24.5 -61.5q0 -25 -10.5 -64t-21.5 -79l4 -1q16 35 39 74.5t53.5 74.5t67 57.5t78.5 22.5q50 0 76 -28t26 -66q0 -28 -8 -69.5t-18.5 -85.5t-19.5 -81q-4 -18 -7.5 -36.5t-3.5 -28.5q0 -19 17 -19q15 0 35.5 14t36.5 27l10 -10 q-17 -32 -44 -64t-62 -52.5t-76 -20.5q-47 0 -73 26.5t-26 74.5q0 17 3.5 40.5t9.5 48.5q9 36 18.5 71.5t16 64.5t6.5 44q0 27 -20 27q-16 0 -37.5 -21.5t-42 -54t-36.5 -68t-23 -63.5l-38 -180l-83 -3q-18 -1 -43.5 -2t-35.5 -1q-19 0 -14 25z" />
<glyph unicode="&#x145;" horiz-adv-x="727" d="M175 62l65 -37l-5 -25h-206l-3 25l40 20q24 12 38.5 21.5t18.5 30.5l112 531l-65 37l5 25h214l219 -472l80 375l8 35l-85 37l5 25h226l3 -25l-40 -20q-24 -12 -38 -21.5t-19 -30.5l-126 -593h-115l-236 511l-88 -414zM419 -147q0 -40 -24.5 -82t-66 -76t-92.5 -52l-10 11 q48 55 68 113q-21 6 -34.5 23t-13.5 42q0 41 29.5 70t70.5 29q32 0 52.5 -22t20.5 -56z" />
<glyph unicode="&#x146;" horiz-adv-x="654" d="M83 19l34 161q8 39 16 73t14 60q5 26 8.5 44.5t3.5 25.5q0 21 -17 21q-15 0 -35 -13.5t-37 -27.5l-10 10q18 32 44 63.5t59.5 52.5t72.5 21q44 0 68.5 -23.5t24.5 -61.5q0 -25 -10.5 -64t-21.5 -79l4 -1q16 35 39 74.5t53.5 74.5t67 57.5t78.5 22.5q50 0 76 -28t26 -66 q0 -28 -8 -69.5t-18.5 -85.5t-19.5 -81q-4 -18 -7.5 -36.5t-3.5 -28.5q0 -19 17 -19q15 0 35.5 14t36.5 27l10 -10q-17 -32 -44 -64t-62 -52.5t-76 -20.5q-47 0 -73 26.5t-26 74.5q0 17 3.5 40.5t9.5 48.5q9 36 18.5 71.5t16 64.5t6.5 44q0 27 -20 27q-16 0 -37.5 -21.5 t-42 -54t-36.5 -68t-23 -63.5l-38 -180l-83 -3q-18 -1 -43.5 -2t-35.5 -1q-19 0 -14 25zM400 -147q0 -40 -24.5 -82t-66 -76t-92.5 -52l-10 11q48 55 68 113q-21 6 -34.5 23t-13.5 42q0 41 29.5 70t70.5 29q32 0 52.5 -22t20.5 -56z" />
<glyph unicode="&#x147;" horiz-adv-x="727" d="M593 780l-13 -8h-95q-25 44 -46 88t-33 78l18 11q28 -18 60.5 -36.5t64.5 -34.5q43 17 93 35.5t100 35.5l11 -14q-45 -41 -87 -82t-73 -73zM175 62l65 -37l-5 -25h-206l-3 25l40 20q24 12 38.5 21.5t18.5 30.5l112 531l-65 37l5 25h214l219 -472l80 375l8 35l-85 37l5 25 h226l3 -25l-40 -20q-24 -12 -38 -21.5t-19 -30.5l-126 -593h-115l-236 511l-88 -414z" />
<glyph unicode="&#x148;" horiz-adv-x="654" d="M490 574l-13 -8h-95q-22 49 -40 98t-29 88l18 11q27 -22 57.5 -44.5t61.5 -42.5q40 20 86 42.5t93 44.5l11 -14q-42 -46 -81.5 -92.5t-68.5 -82.5zM83 19l34 161q8 39 16 73t14 60q5 26 8.5 44.5t3.5 25.5q0 21 -17 21q-15 0 -35 -13.5t-37 -27.5l-10 10q18 32 44 63.5 t59.5 52.5t72.5 21q44 0 68.5 -23.5t24.5 -61.5q0 -25 -10.5 -64t-21.5 -79l4 -1q16 35 39 74.5t53.5 74.5t67 57.5t78.5 22.5q50 0 76 -28t26 -66q0 -28 -8 -69.5t-18.5 -85.5t-19.5 -81q-4 -18 -7.5 -36.5t-3.5 -28.5q0 -19 17 -19q15 0 35.5 14t36.5 27l10 -10 q-17 -32 -44 -64t-62 -52.5t-76 -20.5q-47 0 -73 26.5t-26 74.5q0 17 3.5 40.5t9.5 48.5q9 36 18.5 71.5t16 64.5t6.5 44q0 27 -20 27q-16 0 -37.5 -21.5t-42 -54t-36.5 -68t-23 -63.5l-38 -180l-83 -3q-18 -1 -43.5 -2t-35.5 -1q-19 0 -14 25z" />
<glyph unicode="&#x14a;" horiz-adv-x="726" d="M174 62l65 -37l-5 -25h-206l-3 25l40 20q24 12 38.5 21.5t18.5 30.5l112 531l-16 10t-16 9l-35 18l8 25h213l219 -472l80 375l8 35l-85 37l5 25h226l3 -25l-40 -20q-24 -12 -38 -21.5t-19 -30.5l-110 -518q-15 -63 -37.5 -104t-57 -73t-84.5 -68l-15 19q36 38 62.5 70.5 t46.5 80.5h-46l-236 511l-88 -414z" />
<glyph unicode="&#x14b;" horiz-adv-x="644" d="M83 19l34 161q8 39 16 73t14 60q5 26 8.5 44.5t3.5 25.5q0 21 -17 21q-15 0 -35 -13.5t-37 -27.5l-10 10q18 32 44 63.5t59.5 52.5t72.5 21q44 0 68.5 -23.5t24.5 -61.5q0 -25 -10.5 -64t-21.5 -79l4 -1q16 35 39.5 74.5t54 74.5t67 57.5t78.5 22.5q51 0 77.5 -29.5 t26.5 -69.5q0 -20 -11 -77.5t-28.5 -139t-39.5 -174.5q-21 -92 -65 -154.5t-102.5 -94t-123.5 -31.5q-55 0 -88.5 21t-33.5 55q0 20 10.5 33.5t26.5 20.5q30 -37 70 -37q41 0 71 37.5t49 119.5q21 91 38.5 168.5t28 131t10.5 70.5q0 27 -20 27q-16 0 -37.5 -21.5t-42 -54 t-36.5 -68t-23 -63.5l-38 -180l-83 -3q-18 -1 -43.5 -2t-35.5 -1q-19 0 -14 25z" />
<glyph unicode="&#x14c;" horiz-adv-x="702" d="M342 818l18 82h342l-18 -82h-342zM734 439q0 -101 -31.5 -183.5t-86 -142t-123 -91.5t-142.5 -32t-132 31t-91 89.5t-33 139.5q0 93 31.5 174.5t85.5 143.5t122.5 97t143.5 35q84 0 141 -33.5t86 -92.5t29 -135zM285 143q0 -45 17.5 -71.5t50.5 -26.5q26 0 50 26t45.5 70 t39 98t30 110.5t19.5 108.5t7 91q0 96 -65 96q-33 0 -62 -33.5t-53.5 -89t-42 -122t-27 -134t-9.5 -123.5z" />
<glyph unicode="&#x14d;" horiz-adv-x="562" d="M219 612l18 82h332l-18 -82h-332zM578 309q0 -74 -24.5 -133t-66 -100.5t-94 -63.5t-109.5 -22q-62 0 -110 23.5t-75.5 69t-27.5 109.5q0 67 24 124.5t65.5 101t94.5 67.5t111 24q101 0 156.5 -55t55.5 -145zM256 111q0 -34 7 -55t26 -21q17 0 33 27.5t29 71t22.5 93 t14.5 95.5t5 76q0 68 -33 68q-17 0 -33 -25t-29 -65.5t-22.5 -88.5t-14.5 -94.5t-5 -81.5z" />
<glyph unicode="&#x14e;" horiz-adv-x="702" d="M665 938l6 2l19 -4q-22 -76 -69.5 -116.5t-114.5 -40.5q-46 0 -71.5 22.5t-33 59t0.5 76.5l23 4q5 -27 31.5 -43t69.5 -16q104 0 139 56zM734 439q0 -101 -31.5 -183.5t-86 -142t-123 -91.5t-142.5 -32t-132 31t-91 89.5t-33 139.5q0 93 31.5 174.5t85.5 143.5t122.5 97 t143.5 35q84 0 141 -33.5t86 -92.5t29 -135zM285 143q0 -45 17.5 -71.5t50.5 -26.5q26 0 50 26t45.5 70t39 98t30 110.5t19.5 108.5t7 91q0 96 -65 96q-33 0 -62 -33.5t-53.5 -89t-42 -122t-27 -134t-9.5 -123.5z" />
<glyph unicode="&#x14f;" horiz-adv-x="562" d="M538 754l6 2l19 -4q-21 -80 -72.5 -127.5t-115.5 -47.5q-42 0 -67 25.5t-32.5 65.5t-0.5 85l23 4q5 -33 31.5 -52.5t69.5 -19.5q49 0 86 17.5t53 51.5zM578 309q0 -74 -24.5 -133t-66 -100.5t-94 -63.5t-109.5 -22q-62 0 -110 23.5t-75.5 69t-27.5 109.5q0 67 24 124.5 t65.5 101t94.5 67.5t111 24q101 0 156.5 -55t55.5 -145zM256 111q0 -34 7 -55t26 -21q17 0 33 27.5t29 71t22.5 93t14.5 95.5t5 76q0 68 -33 68q-17 0 -33 -25t-29 -65.5t-22.5 -88.5t-14.5 -94.5t-5 -81.5z" />
<glyph unicode="&#x150;" horiz-adv-x="702" d="M469 946l13 3q36 -6 60.5 -23t24.5 -43q0 -30 -39 -53t-107.5 -36.5t-157.5 -13.5l-7 17q42 23 82 50t74.5 53.5t56.5 45.5zM771 946l13 3q36 -6 60.5 -23t24.5 -43q0 -30 -39 -53t-107.5 -36.5t-157.5 -13.5l-7 17q42 23 82 50t74.5 53.5t56.5 45.5zM734 439 q0 -101 -31.5 -183.5t-86 -142t-123 -91.5t-142.5 -32t-132 31t-91 89.5t-33 139.5q0 93 31.5 174.5t85.5 143.5t122.5 97t143.5 35q84 0 141 -33.5t86 -92.5t29 -135zM285 143q0 -45 17.5 -71.5t50.5 -26.5q26 0 50 26t45.5 70t39 98t30 110.5t19.5 108.5t7 91q0 96 -65 96 q-33 0 -62 -33.5t-53.5 -89t-42 -122t-27 -134t-9.5 -123.5z" />
<glyph unicode="&#x151;" horiz-adv-x="562" d="M315 763l13 6q8 -1 17 -1.5t17 -2.5q34 -8 49 -21t15 -32q0 -21 -20.5 -44.5t-56.5 -45.5t-82 -38t-97 -22l-10 16q32 30 61.5 64t54 66t39.5 55zM535 763l13 6q8 -1 17 -1.5t17 -2.5q34 -9 49 -21.5t15 -31.5q0 -21 -20.5 -44.5t-56.5 -45.5t-82 -38t-97 -22l-10 16 q32 30 61.5 64t54 66t39.5 55zM578 309q0 -74 -24.5 -133t-66 -100.5t-94 -63.5t-109.5 -22q-62 0 -110 23.5t-75.5 69t-27.5 109.5q0 67 24 124.5t65.5 101t94.5 67.5t111 24q101 0 156.5 -55t55.5 -145zM256 111q0 -34 7 -55t26 -21q17 0 33 27.5t29 71t22.5 93t14.5 95.5 t5 76q0 68 -33 68q-17 0 -33 -25t-29 -65.5t-22.5 -88.5t-14.5 -94.5t-5 -81.5z" />
<glyph unicode="&#x152;" horiz-adv-x="967" d="M907 0h-423q-47 -10 -95 -10q-88 0 -156.5 36t-108 103.5t-39.5 160.5q0 85 35 159t96 130.5t138.5 88.5t161.5 32q48 0 90 -10h423q0 -58 -15.5 -120.5t-41.5 -119.5h-30q-15 64 -25 100t-16.5 55t-12.5 31q-7 2 -24.5 2.5t-37.5 0.5h-72l-58 -271l181 7l-18 -69 l-174 10l-57 -267h98q20 0 34 1t29 4q11 11 25.5 29.5t39.5 55.5t68 101h30q3 -57 -9.5 -123t-35.5 -117zM275 233q0 -86 30 -137t86 -51q27 0 54 14l123 574q-22 12 -51 12q-41 0 -77.5 -25t-66.5 -67.5t-52 -95.5t-34 -111t-12 -113z" />
<glyph unicode="&#x153;" horiz-adv-x="793" d="M345 510q52 0 91 -20.5t62 -56.5q37 36 83.5 56.5t96.5 20.5q62 0 105 -35t43 -95q0 -45 -28 -83.5t-88.5 -60t-158.5 -16.5q1 -59 29 -87t72 -28q33 0 71.5 15.5t66.5 40.5l10 -10q-37 -76 -97 -118.5t-136 -42.5q-43 0 -77.5 18t-57.5 51q-73 -69 -169 -69 q-83 0 -137.5 52.5t-54.5 149.5q0 67 22.5 125t61 101t87.5 67.5t103 24.5zM359 466q-17 0 -33 -25t-29 -65.5t-22.5 -88.5t-14.5 -94.5t-5 -81.5q0 -34 7 -55t26 -21q17 0 33 27.5t29 71t22.5 93t14.5 95.5t5 76q0 68 -33 68zM648 460q-22 0 -42.5 -28t-34.5 -74t-19 -100 q37 2 64.5 24t43.5 56.5t16 75.5q0 46 -28 46z" />
<glyph unicode="&#x154;" horiz-adv-x="761" d="M594 946l13 2q38 -19 54 -36t16 -37q0 -46 -81.5 -72.5t-230.5 -26.5l-6 19q45 22 90 49t83 54t62 48zM414 593l-55 -258h36q48 0 85.5 25.5t59 69t21.5 95.5q0 55 -26.5 82.5t-71.5 27.5h-40zM299 55l57 -35l-4 -20h-309l-2 20l34 21q18 11 31 22.5t17 33.5l106 496 l9 42l-57 35l4 20h305q125 0 192 -46t67 -129q0 -57 -44 -106t-106 -82l25 -77q16 -46 30.5 -89t31.5 -74.5t39 -46.5l31 -20l-6 -20l-184 -5q-37 -1 -53.5 15t-25.5 47l-65 223h-4h-71l-39 -183z" />
<glyph unicode="&#x155;" horiz-adv-x="499" d="M406 763l13 6q8 -1 17 -1.5t17 -2.5q44 -8 64 -21t20 -32q0 -21 -22.5 -44.5t-61 -45.5t-88 -38t-104.5 -22l-10 16q32 30 61.5 64t54 66t39.5 55zM83 19l34 161q17 78 29.5 132.5t12.5 70.5q0 21 -17 21q-15 0 -35 -13.5t-37 -27.5l-10 10q18 32 44 63.5t59.5 52.5 t72.5 21q44 0 68.5 -23.5t24.5 -61.5q0 -25 -10.5 -64t-21.5 -79l4 -1q17 36 39 76t47.5 75t53 56.5t55.5 21.5q26 0 39.5 -17t13.5 -43q0 -30 -9 -61.5t-22 -57.5t-24 -41q-17 12 -35.5 21t-42.5 9q-28 0 -52 -20.5t-41 -52.5t-26 -67l-38 -180l-83 -3q-18 -1 -43.5 -2 t-35.5 -1q-19 0 -14 25z" />
<glyph unicode="&#x156;" horiz-adv-x="761" d="M414 593l-55 -258h36q48 0 85.5 25.5t59 69t21.5 95.5q0 55 -26.5 82.5t-71.5 27.5h-40zM464 -147q0 -40 -24.5 -82t-66 -76t-92.5 -52l-10 11q48 55 68 113q-21 6 -34.5 23t-13.5 42q0 41 29.5 70t70.5 29q32 0 52.5 -22t20.5 -56zM299 55l57 -35l-4 -20h-309l-2 20 l34 21q18 11 31 22.5t17 33.5l106 496l9 42l-57 35l4 20h305q125 0 192 -46t67 -129q0 -57 -44 -106t-106 -82l25 -77q16 -46 30.5 -89t31.5 -74.5t39 -46.5l31 -20l-6 -20l-184 -5q-37 -1 -53.5 15t-25.5 47l-65 223h-4h-71l-39 -183z" />
<glyph unicode="&#x157;" horiz-adv-x="499" d="M83 19l34 161q17 78 29.5 132.5t12.5 70.5q0 21 -17 21q-15 0 -35 -13.5t-37 -27.5l-10 10q18 32 44 63.5t59.5 52.5t72.5 21q44 0 68.5 -23.5t24.5 -61.5q0 -25 -10.5 -64t-21.5 -79l4 -1q17 36 39 76t47.5 75t53 56.5t55.5 21.5q26 0 39.5 -17t13.5 -43q0 -30 -9 -61.5 t-22 -57.5t-24 -41q-17 12 -35.5 21t-42.5 9q-28 0 -52 -20.5t-41 -52.5t-26 -67l-38 -180l-83 -3q-18 -1 -43.5 -2t-35.5 -1q-19 0 -14 25zM225 -147q0 -40 -24.5 -82t-66 -76t-92.5 -52l-10 11q48 55 68 113q-21 6 -34.5 23t-13.5 42q0 41 29.5 70t70.5 29q32 0 52.5 -22 t20.5 -56z" />
<glyph unicode="&#x158;" horiz-adv-x="761" d="M555 780l-13 -8h-95q-25 44 -46 88t-33 78l18 11q28 -18 60.5 -36.5t64.5 -34.5q43 17 93 35.5t100 35.5l11 -14q-45 -41 -87 -82t-73 -73zM414 593l-55 -258h36q48 0 85.5 25.5t59 69t21.5 95.5q0 55 -26.5 82.5t-71.5 27.5h-40zM299 55l57 -35l-4 -20h-309l-2 20l34 21 q18 11 31 22.5t17 33.5l106 496l9 42l-57 35l4 20h305q125 0 192 -46t67 -129q0 -57 -44 -106t-106 -82l25 -77q16 -46 30.5 -89t31.5 -74.5t39 -46.5l31 -20l-6 -20l-184 -5q-37 -1 -53.5 15t-25.5 47l-65 223h-4h-71l-39 -183z" />
<glyph unicode="&#x159;" horiz-adv-x="499" d="M430 574l-13 -8h-95q-22 49 -40 98t-29 88l18 11q27 -22 57.5 -44.5t61.5 -42.5q40 20 86 42.5t93 44.5l11 -14q-42 -46 -81.5 -92.5t-68.5 -82.5zM83 19l34 161q17 78 29.5 132.5t12.5 70.5q0 21 -17 21q-15 0 -35 -13.5t-37 -27.5l-10 10q18 32 44 63.5t59.5 52.5 t72.5 21q44 0 68.5 -23.5t24.5 -61.5q0 -25 -10.5 -64t-21.5 -79l4 -1q17 36 39 76t47.5 75t53 56.5t55.5 21.5q26 0 39.5 -17t13.5 -43q0 -30 -9 -61.5t-22 -57.5t-24 -41q-17 12 -35.5 21t-42.5 9q-28 0 -52 -20.5t-41 -52.5t-26 -67l-38 -180l-83 -3q-18 -1 -43.5 -2 t-35.5 -1q-19 0 -14 25z" />
<glyph unicode="&#x15a;" horiz-adv-x="567" d="M518 946l13 2q38 -19 54 -36t16 -37q0 -46 -81.5 -72.5t-230.5 -26.5l-6 19q45 22 90 49t83 54t62 48zM273 -10q-47 0 -92.5 3.5t-78 11t-41.5 19.5q-8 13 -8 34q0 24 9 53.5t25.5 59t36.5 52.5l30 -3v-10q0 -42 6.5 -73t21.5 -54q28 -43 93 -43q47 0 80.5 29.5 t33.5 81.5q0 33 -18.5 59.5t-48 50t-62 47.5t-62 51t-48 61t-18.5 77q0 49 25 87t68 63.5t96 39t108 13.5q74 0 123.5 -12t64.5 -23q8 -6 9.5 -12.5t1.5 -17.5q0 -21 -10 -51.5t-27 -61t-38 -55.5l-29 2v13q0 35 -3 62t-11 45q-11 26 -32 43.5t-62 17.5q-46 0 -77.5 -29 t-31.5 -76q0 -34 18.5 -62t48 -52.5t62 -48.5t62 -50t48 -57.5t18.5 -71.5q0 -66 -36.5 -114t-101.5 -73.5t-153 -25.5z" />
<glyph unicode="&#x15b;" horiz-adv-x="469" d="M404 763l13 6q8 -1 17 -1.5t17 -2.5q44 -8 64 -21t20 -32q0 -21 -22.5 -44.5t-61 -45.5t-88 -38t-104.5 -22l-10 16q32 30 61.5 64t54 66t39.5 55zM456 149q0 -71 -58.5 -115t-172.5 -44q-49 0 -91 9.5t-67.5 29t-25.5 50.5q0 34 29.5 57t69.5 30l13 -10q3 -10 5.5 -19 t5.5 -18q13 -38 29.5 -62t45.5 -24q23 0 36.5 15t13.5 37q0 28 -18.5 51t-46 45.5t-55.5 47t-46.5 55.5t-18.5 71q0 47 29.5 81.5t80.5 54t113 19.5q90 0 133.5 -27.5t43.5 -66.5q0 -30 -25 -53t-65 -29l-12 9q-3 13 -6 25t-6 22q-10 36 -25 56.5t-41 20.5q-22 0 -36 -13.5 t-14 -35.5q0 -28 18.5 -52t45.5 -47t54 -48t45.5 -55t18.5 -67z" />
<glyph unicode="&#x15c;" horiz-adv-x="567" d="M625 787l-18 -11q-33 18 -69.5 36t-73.5 33q-39 -16 -84.5 -34t-90.5 -35l-11 14q41 40 80 80t67 71l13 8h95q31 -43 55 -85.5t37 -76.5zM273 -10q-47 0 -92.5 3.5t-78 11t-41.5 19.5q-8 13 -8 34q0 24 9 53.5t25.5 59t36.5 52.5l30 -3v-10q0 -42 6.5 -73t21.5 -54 q28 -43 93 -43q47 0 80.5 29.5t33.5 81.5q0 33 -18.5 59.5t-48 50t-62 47.5t-62 51t-48 61t-18.5 77q0 49 25 87t68 63.5t96 39t108 13.5q74 0 123.5 -12t64.5 -23q8 -6 9.5 -12.5t1.5 -17.5q0 -21 -10 -51.5t-27 -61t-38 -55.5l-29 2v13q0 35 -3 62t-11 45q-11 26 -32 43.5 t-62 17.5q-46 0 -77.5 -29t-31.5 -76q0 -34 18.5 -62t48 -52.5t62 -48.5t62 -50t48 -57.5t18.5 -71.5q0 -66 -36.5 -114t-101.5 -73.5t-153 -25.5z" />
<glyph unicode="&#x15d;" horiz-adv-x="469" d="M506 577l-18 -11q-29 22 -62 44.5t-66 41.5q-36 -20 -77.5 -42t-82.5 -44l-11 14q37 47 72 93t60 82l13 8h95q26 -49 46 -98t31 -88zM456 149q0 -71 -58.5 -115t-172.5 -44q-49 0 -91 9.5t-67.5 29t-25.5 50.5q0 34 29.5 57t69.5 30l13 -10q3 -10 5.5 -19t5.5 -18 q13 -38 29.5 -62t45.5 -24q23 0 36.5 15t13.5 37q0 28 -18.5 51t-46 45.5t-55.5 47t-46.5 55.5t-18.5 71q0 47 29.5 81.5t80.5 54t113 19.5q90 0 133.5 -27.5t43.5 -66.5q0 -30 -25 -53t-65 -29l-12 9q-3 13 -6 25t-6 22q-10 36 -25 56.5t-41 20.5q-22 0 -36 -13.5 t-14 -35.5q0 -28 18.5 -52t45.5 -47t54 -48t45.5 -55t18.5 -67z" />
<glyph unicode="&#x15e;" horiz-adv-x="567" d="M389 -131q0 -33 -32.5 -60.5t-89.5 -45t-133 -23.5l-2 16q44 15 72 40t28 49t-35 32l-4 10l40 104q-40 1 -76.5 5t-62 11t-33.5 17q-8 13 -8 34q0 24 9 53.5t25.5 59t36.5 52.5l30 -3v-10q0 -42 6.5 -73t21.5 -54q28 -43 93 -43q47 0 80.5 29.5t33.5 81.5 q0 33 -18.5 59.5t-48 50t-62 47.5t-62 51t-48 61t-18.5 77q0 49 25 87t68 63.5t96 39t108 13.5q74 0 123.5 -12t64.5 -23q8 -6 9.5 -12.5t1.5 -17.5q0 -21 -10 -51.5t-27 -61t-38 -55.5l-29 2v13q0 35 -3 62t-11 45q-11 26 -32 43.5t-62 17.5q-46 0 -77.5 -29t-31.5 -76 q0 -34 18.5 -62t48 -52.5t62 -48.5t62 -50t48 -57.5t18.5 -71.5q0 -64 -33.5 -110.5t-94 -72.5t-142.5 -30l-19 -47q114 -11 114 -74z" />
<glyph unicode="&#x15f;" horiz-adv-x="469" d="M351 -131q0 -33 -32.5 -60.5t-89.5 -45t-133 -23.5l-2 16q44 15 72 40t28 49t-35 32l-4 10l40 104q-64 4 -109 25t-45 63q0 34 29.5 57t69.5 30l13 -10q3 -10 5.5 -19t5.5 -18q13 -38 29.5 -62t45.5 -24q23 0 36.5 15t13.5 37q0 28 -18.5 51t-46 45.5t-55.5 47 t-46.5 55.5t-18.5 71q0 47 29.5 81.5t80.5 54t113 19.5q90 0 133.5 -27.5t43.5 -66.5q0 -30 -25 -53t-65 -29l-12 9q-3 13 -6 25t-6 22q-10 36 -25 56.5t-41 20.5q-22 0 -36 -13.5t-14 -35.5q0 -28 18.5 -52t45.5 -47t54 -48t45.5 -55t18.5 -67q0 -66 -50.5 -109t-149.5 -49 l-19 -48q114 -11 114 -74z" />
<glyph unicode="&#x160;" horiz-adv-x="567" d="M489 780l-13 -8h-95q-25 44 -46 88t-33 78l18 11q28 -18 60.5 -36.5t64.5 -34.5q43 17 93 35.5t100 35.5l11 -14q-45 -41 -87 -82t-73 -73zM273 -10q-47 0 -92.5 3.5t-78 11t-41.5 19.5q-8 13 -8 34q0 24 9 53.5t25.5 59t36.5 52.5l30 -3v-10q0 -42 6.5 -73t21.5 -54 q28 -43 93 -43q47 0 80.5 29.5t33.5 81.5q0 33 -18.5 59.5t-48 50t-62 47.5t-62 51t-48 61t-18.5 77q0 49 25 87t68 63.5t96 39t108 13.5q74 0 123.5 -12t64.5 -23q8 -6 9.5 -12.5t1.5 -17.5q0 -21 -10 -51.5t-27 -61t-38 -55.5l-29 2v13q0 35 -3 62t-11 45q-11 26 -32 43.5 t-62 17.5q-46 0 -77.5 -29t-31.5 -76q0 -34 18.5 -62t48 -52.5t62 -48.5t62 -50t48 -57.5t18.5 -71.5q0 -66 -36.5 -114t-101.5 -73.5t-153 -25.5z" />
<glyph unicode="&#x161;" horiz-adv-x="469" d="M428 574l-13 -8h-95q-22 49 -40 98t-29 88l18 11q27 -22 57.5 -44.5t61.5 -42.5q40 20 86 42.5t93 44.5l11 -14q-42 -46 -81.5 -92.5t-68.5 -82.5zM456 149q0 -71 -58.5 -115t-172.5 -44q-49 0 -91 9.5t-67.5 29t-25.5 50.5q0 34 29.5 57t69.5 30l13 -10q3 -10 5.5 -19 t5.5 -18q13 -38 29.5 -62t45.5 -24q23 0 36.5 15t13.5 37q0 28 -18.5 51t-46 45.5t-55.5 47t-46.5 55.5t-18.5 71q0 47 29.5 81.5t80.5 54t113 19.5q90 0 133.5 -27.5t43.5 -66.5q0 -30 -25 -53t-65 -29l-12 9q-3 13 -6 25t-6 22q-10 36 -25 56.5t-41 20.5q-22 0 -36 -13.5 t-14 -35.5q0 -28 18.5 -52t45.5 -47t54 -48t45.5 -55t18.5 -67z" />
<glyph unicode="&#x162;" horiz-adv-x="666" d="M426 55l57 -35l-4 -20h-127l-23 -57q114 -11 114 -74q0 -33 -32.5 -60.5t-89.5 -45t-133 -23.5l-2 16q44 15 72 40t28 49t-35 32l-4 10l44 113h-121l-2 20l34 21q18 11 31 22.5t17 33.5l114 538h-17q-14 0 -31 -1t-33 -3q-15 -16 -34 -40t-37 -51l-60 -90h-30 q-3 57 11.5 122.5t33.5 117.5h602q-3 -52 -17 -117.5t-40 -122.5h-30l-22 90q-7 27 -15.5 51t-17.5 40q-14 2 -31 3t-31 1h-16l-114 -538z" />
<glyph unicode="&#x163;" horiz-adv-x="411" d="M341 -131q0 -33 -32.5 -60.5t-89.5 -45t-133 -23.5l-2 16q44 15 72 40t28 49t-35 32l-4 10l41 104q-47 7 -70.5 40.5t-23.5 81.5q0 11 1 23t4 24l57 270h-63l2 20l266 190l19 -2l-33 -158h125l-11 -50h-125l-52 -245q-1 -8 -2.5 -16t-1.5 -15q0 -49 42 -49q29 0 58 17.5 t54 38.5l10 -10q-28 -54 -77 -99.5t-118 -57.5l-20 -51q114 -11 114 -74z" />
<glyph unicode="&#x164;" horiz-adv-x="666" d="M538 780l-13 -8h-95q-25 44 -46 88t-33 78l18 11q28 -18 60.5 -36.5t64.5 -34.5q43 17 93 35.5t100 35.5l11 -14q-45 -41 -87 -82t-73 -73zM426 55l57 -35l-4 -20h-309l-2 20l34 21q18 11 31 22.5t17 33.5l114 538h-17q-14 0 -31 -1t-33 -3q-15 -16 -34 -40t-37 -51 l-60 -90h-30q-3 57 11.5 122.5t33.5 117.5h602q-3 -52 -17 -117.5t-40 -122.5h-30l-22 90q-7 27 -15.5 51t-17.5 40q-14 2 -31 3t-31 1h-16l-114 -538z" />
<glyph unicode="&#x165;" horiz-adv-x="411" d="M559 698q0 -32 -20.5 -65.5t-55.5 -60.5t-78 -41l-8 9q42 44 58 89q-18 4 -29.5 18t-11.5 33q0 34 24.5 57t59.5 23q27 0 44 -17.5t17 -44.5zM206 -10q-57 0 -85.5 35t-28.5 88q0 11 1 23t4 24l57 270h-63l2 20l266 190l19 -2l-33 -158h125l-11 -50h-125l-52 -245 q-1 -8 -2.5 -16t-1.5 -15q0 -49 42 -49q29 0 58 17.5t54 38.5l10 -10q-21 -41 -54.5 -78t-79 -60t-102.5 -23z" />
<glyph unicode="&#x166;" horiz-adv-x="666" d="M426 55l57 -35l-4 -20h-309l-2 20l34 21q18 11 31 22.5t17 33.5l51 240h-115l11 50h114l53 248h-17q-14 0 -31 -1t-33 -3q-15 -16 -34 -40t-37 -51l-60 -90h-30q-3 57 11.5 122.5t33.5 117.5h602q-3 -52 -17 -117.5t-40 -122.5h-30l-22 90q-7 27 -15.5 51t-17.5 40 q-14 2 -31 3t-31 1h-16l-53 -248h121l-11 -50h-120l-51 -240z" />
<glyph unicode="&#x167;" horiz-adv-x="411" d="M206 -10q-57 0 -85.5 35t-28.5 88q0 11 1 23t4 24l23 106h-58l10 50h58l24 114h-63l2 20l266 190l19 -2l-33 -158h125l-11 -50h-125l-24 -114h132l-10 -50h-133l-17 -81q-1 -8 -2.5 -16t-1.5 -15q0 -49 42 -49q29 0 58 17.5t54 38.5l10 -10q-21 -41 -54.5 -78t-79 -60 t-102.5 -23z" />
<glyph unicode="&#x168;" horiz-adv-x="694" d="M404 833q-18 -10 -36.5 -25t-35.5 -29l-17 8q20 77 66 119.5t105 42.5q41 0 74.5 -12.5t65.5 -26.5t66 -18q18 11 36.5 26t35.5 28l17 -8q-20 -76 -66 -119t-105 -43q-40 0 -74 13t-66 27t-66 17zM211 635l-57 35l4 20h309l2 -20l-34 -21q-18 -11 -30.5 -22t-17.5 -34 l-72 -338q-4 -18 -5.5 -35.5t-1.5 -33.5q0 -64 28.5 -100t83.5 -36q65 0 108 49.5t65 152.5l76 351l5 25l-84 37l5 25h226l3 -25l-90 -37l-5 -25l-74 -348q-17 -83 -51 -142.5t-91 -91t-146 -31.5q-111 0 -176.5 52t-65.5 151q0 13 1.5 31t5.5 37l70 332z" />
<glyph unicode="&#x169;" horiz-adv-x="658" d="M292 629q-18 -12 -36.5 -28t-35.5 -30l-13 6q20 82 66.5 127.5t105.5 45.5q38 0 70 -13.5t62 -28.5t62 -19q18 12 36.5 28t35.5 30l13 -6q-20 -82 -66.5 -127.5t-105.5 -45.5q-38 0 -70 14t-62 29t-62 18zM147 320q4 18 7.5 36.5t3.5 28.5q0 19 -17 19q-15 0 -35 -13.5 t-37 -27.5l-10 10q17 33 44 64.5t62 52t76 20.5q47 0 73 -26.5t26 -74.5q0 -17 -3.5 -40t-9.5 -49q-18 -67 -26.5 -108t-8.5 -59q0 -31 22 -31q20 0 46.5 33t54 92.5t48.5 138.5l-1 -4l26 122l83 3q18 1 43.5 2t35.5 1q19 0 14 -25l-34 -161l-31 -144q-4 -18 -7.5 -36.5 t-3.5 -28.5q0 -19 17 -19q15 0 35.5 14t36.5 27l10 -10q-17 -32 -44 -64t-62 -52.5t-76 -20.5q-47 0 -73 26.5t-26 74.5q0 17 3.5 40.5t9.5 48.5l3 11h-7q-39 -94 -91.5 -147.5t-111.5 -53.5q-48 0 -76.5 29t-28.5 83q0 39 13.5 95t26.5 123z" />
<glyph unicode="&#x16a;" horiz-adv-x="694" d="M387 818l18 82h342l-18 -82h-342zM211 635l-57 35l4 20h309l2 -20l-34 -21q-18 -11 -30.5 -22t-17.5 -34l-72 -338q-4 -18 -5.5 -35.5t-1.5 -33.5q0 -64 28.5 -100t83.5 -36q65 0 108 49.5t65 152.5l76 351l5 25l-84 37l5 25h226l3 -25l-90 -37l-5 -25l-74 -348 q-17 -83 -51 -142.5t-91 -91t-146 -31.5q-111 0 -176.5 52t-65.5 151q0 13 1.5 31t5.5 37l70 332z" />
<glyph unicode="&#x16b;" horiz-adv-x="658" d="M250 612l18 82h332l-18 -82h-332zM147 320q4 18 7.5 36.5t3.5 28.5q0 19 -17 19q-15 0 -35 -13.5t-37 -27.5l-10 10q17 33 44 64.5t62 52t76 20.5q47 0 73 -26.5t26 -74.5q0 -17 -3.5 -40t-9.5 -49q-18 -67 -26.5 -108t-8.5 -59q0 -31 22 -31q20 0 46.5 33t54 92.5 t48.5 138.5l-1 -4l26 122l83 3q18 1 43.5 2t35.5 1q19 0 14 -25l-34 -161l-31 -144q-4 -18 -7.5 -36.5t-3.5 -28.5q0 -19 17 -19q15 0 35.5 14t36.5 27l10 -10q-17 -32 -44 -64t-62 -52.5t-76 -20.5q-47 0 -73 26.5t-26 74.5q0 17 3.5 40.5t9.5 48.5l3 11h-7 q-39 -94 -91.5 -147.5t-111.5 -53.5q-48 0 -76.5 29t-28.5 83q0 39 13.5 95t26.5 123z" />
<glyph unicode="&#x16c;" horiz-adv-x="694" d="M703 938l6 2l19 -4q-22 -76 -69.5 -116.5t-114.5 -40.5q-46 0 -71.5 22.5t-33 59t0.5 76.5l23 4q5 -27 31.5 -43t69.5 -16q104 0 139 56zM211 635l-57 35l4 20h309l2 -20l-34 -21q-18 -11 -30.5 -22t-17.5 -34l-72 -338q-4 -18 -5.5 -35.5t-1.5 -33.5q0 -64 28.5 -100 t83.5 -36q65 0 108 49.5t65 152.5l76 351l5 25l-84 37l5 25h226l3 -25l-90 -37l-5 -25l-74 -348q-17 -83 -51 -142.5t-91 -91t-146 -31.5q-111 0 -176.5 52t-65.5 151q0 13 1.5 31t5.5 37l70 332z" />
<glyph unicode="&#x16d;" horiz-adv-x="658" d="M583 754l6 2l19 -4q-21 -80 -72.5 -127.5t-115.5 -47.5q-42 0 -67 25.5t-32.5 65.5t-0.5 85l23 4q5 -33 31.5 -52.5t69.5 -19.5q49 0 86 17.5t53 51.5zM147 320q4 18 7.5 36.5t3.5 28.5q0 19 -17 19q-15 0 -35 -13.5t-37 -27.5l-10 10q17 33 44 64.5t62 52t76 20.5 q47 0 73 -26.5t26 -74.5q0 -17 -3.5 -40t-9.5 -49q-18 -67 -26.5 -108t-8.5 -59q0 -31 22 -31q20 0 46.5 33t54 92.5t48.5 138.5l-1 -4l26 122l83 3q18 1 43.5 2t35.5 1q19 0 14 -25l-34 -161l-31 -144q-4 -18 -7.5 -36.5t-3.5 -28.5q0 -19 17 -19q15 0 35.5 14t36.5 27 l10 -10q-17 -32 -44 -64t-62 -52.5t-76 -20.5q-47 0 -73 26.5t-26 74.5q0 17 3.5 40.5t9.5 48.5l3 11h-7q-39 -94 -91.5 -147.5t-111.5 -53.5q-48 0 -76.5 29t-28.5 83q0 39 13.5 95t26.5 123z" />
<glyph unicode="&#x16e;" horiz-adv-x="694" d="M688 879q0 -32 -19 -58t-51.5 -41.5t-72.5 -15.5q-45 0 -71.5 22t-26.5 59q0 32 19 58t51.5 41t72.5 15q45 0 71.5 -21.5t26.5 -58.5zM514 846q0 -19 11 -31t30 -12q28 0 47 22t19 53q0 20 -11 31t-30 11q-28 0 -47 -21.5t-19 -52.5zM211 635l-57 35l4 20h309l2 -20 l-34 -21q-18 -11 -30.5 -22t-17.5 -34l-72 -338q-4 -18 -5.5 -35.5t-1.5 -33.5q0 -64 28.5 -100t83.5 -36q65 0 108 49.5t65 152.5l76 351l5 25l-84 37l5 25h226l3 -25l-90 -37l-5 -25l-74 -348q-17 -83 -51 -142.5t-91 -91t-146 -31.5q-111 0 -176.5 52t-65.5 151 q0 13 1.5 31t5.5 37l70 332z" />
<glyph unicode="&#x16f;" horiz-adv-x="658" d="M552 683q0 -32 -19 -58t-51.5 -41.5t-72.5 -15.5q-45 0 -71.5 22t-26.5 59q0 32 19 58t51.5 41t72.5 15q45 0 71.5 -21.5t26.5 -58.5zM378 650q0 -19 11 -31t30 -12q28 0 47 22t19 53q0 20 -11 31t-30 11q-28 0 -47 -21.5t-19 -52.5zM147 320q4 18 7.5 36.5t3.5 28.5 q0 19 -17 19q-15 0 -35 -13.5t-37 -27.5l-10 10q17 33 44 64.5t62 52t76 20.5q47 0 73 -26.5t26 -74.5q0 -17 -3.5 -40t-9.5 -49q-18 -67 -26.5 -108t-8.5 -59q0 -31 22 -31q20 0 46.5 33t54 92.5t48.5 138.5l-1 -4l26 122l83 3q18 1 43.5 2t35.5 1q19 0 14 -25l-34 -161 l-31 -144q-4 -18 -7.5 -36.5t-3.5 -28.5q0 -19 17 -19q15 0 35.5 14t36.5 27l10 -10q-17 -32 -44 -64t-62 -52.5t-76 -20.5q-47 0 -73 26.5t-26 74.5q0 17 3.5 40.5t9.5 48.5l3 11h-7q-39 -94 -91.5 -147.5t-111.5 -53.5q-48 0 -76.5 29t-28.5 83q0 39 13.5 95t26.5 123z " />
<glyph unicode="&#x170;" horiz-adv-x="694" d="M492 946l13 3q36 -6 60.5 -23t24.5 -43q0 -30 -39 -53t-107.5 -36.5t-157.5 -13.5l-7 17q42 23 82 50t74.5 53.5t56.5 45.5zM794 946l13 3q36 -6 60.5 -23t24.5 -43q0 -30 -39 -53t-107.5 -36.5t-157.5 -13.5l-7 17q42 23 82 50t74.5 53.5t56.5 45.5zM211 635l-57 35 l4 20h309l2 -20l-34 -21q-18 -11 -30.5 -22t-17.5 -34l-72 -338q-4 -18 -5.5 -35.5t-1.5 -33.5q0 -64 28.5 -100t83.5 -36q65 0 108 49.5t65 152.5l76 351l5 25l-84 37l5 25h226l3 -25l-90 -37l-5 -25l-74 -348q-17 -83 -51 -142.5t-91 -91t-146 -31.5q-111 0 -176.5 52 t-65.5 151q0 13 1.5 31t5.5 37l70 332z" />
<glyph unicode="&#x171;" horiz-adv-x="658" d="M336 763l13 6q8 -1 17 -1.5t17 -2.5q34 -8 49 -21t15 -32q0 -21 -20.5 -44.5t-56.5 -45.5t-82 -38t-97 -22l-10 16q32 30 61.5 64t54 66t39.5 55zM556 763l13 6q8 -1 17 -1.5t17 -2.5q34 -9 49 -21.5t15 -31.5q0 -21 -20.5 -44.5t-56.5 -45.5t-82 -38t-97 -22l-10 16 q32 30 61.5 64t54 66t39.5 55zM147 320q4 18 7.5 36.5t3.5 28.5q0 19 -17 19q-15 0 -35 -13.5t-37 -27.5l-10 10q17 33 44 64.5t62 52t76 20.5q47 0 73 -26.5t26 -74.5q0 -17 -3.5 -40t-9.5 -49q-18 -67 -26.5 -108t-8.5 -59q0 -31 22 -31q20 0 46.5 33t54 92.5t48.5 138.5 l-1 -4l26 122l83 3q18 1 43.5 2t35.5 1q19 0 14 -25l-34 -161l-31 -144q-4 -18 -7.5 -36.5t-3.5 -28.5q0 -19 17 -19q15 0 35.5 14t36.5 27l10 -10q-17 -32 -44 -64t-62 -52.5t-76 -20.5q-47 0 -73 26.5t-26 74.5q0 17 3.5 40.5t9.5 48.5l3 11h-7q-39 -94 -91.5 -147.5 t-111.5 -53.5q-48 0 -76.5 29t-28.5 83q0 39 13.5 95t26.5 123z" />
<glyph unicode="&#x172;" horiz-adv-x="694" d="M541 40v0q-9 -7 -18 -12q-79 -54 -117 -92t-38 -68q0 -22 19 -22q11 0 25 12t26 29l10 -10q-22 -65 -61.5 -101t-86.5 -36q-34 0 -57.5 21t-23.5 61q0 55 48 96.5t128 72.5q-13 -1 -28 -1q-111 0 -176.5 52t-65.5 151q0 13 1.5 31t5.5 37l70 332l9 42l-57 35l4 20h309 l2 -20l-34 -21q-18 -11 -30.5 -22t-17.5 -34l-72 -338q-4 -18 -5.5 -35.5t-1.5 -33.5q0 -64 28.5 -100t83.5 -36q65 0 108 49.5t65 152.5l76 351l5 25l-84 37l5 25h226l3 -25l-90 -37l-5 -25l-74 -348q-15 -72 -42 -126.5t-72 -88.5v0z" />
<glyph unicode="&#x173;" horiz-adv-x="658" d="M147 320q4 18 7.5 36.5t3.5 28.5q0 19 -17 19q-15 0 -35 -13.5t-37 -27.5l-10 10q17 33 44 64.5t62 52t76 20.5q47 0 73 -26.5t26 -74.5q0 -17 -3.5 -40t-9.5 -49q-18 -67 -26.5 -108t-8.5 -59q0 -31 22 -31q20 0 46.5 33t54 92.5t48.5 138.5l-1 -4l26 122l83 3 q18 1 43.5 2t35.5 1q19 0 14 -25l-34 -161l-31 -144q-4 -18 -7.5 -36.5t-3.5 -28.5q0 -19 17 -19q15 0 35.5 14t36.5 27l10 -10q-9 -17 -21 -34.5t-26 -33.5q-64 -76 -95 -118.5t-31 -70.5q0 -24 20 -24q11 0 24.5 12.5t25.5 28.5l10 -10q-22 -64 -60.5 -100.5t-89.5 -36.5 q-33 0 -56 19.5t-23 55.5q0 34 21 64.5t56 58t76 53.5q-6 -1 -13 -1q-47 0 -73 26.5t-26 74.5q0 17 3.5 40.5t9.5 48.5l3 11h-7q-39 -94 -91.5 -147.5t-111.5 -53.5q-48 0 -76.5 29t-28.5 83q0 39 13.5 95t26.5 123z" />
<glyph unicode="&#x174;" horiz-adv-x="1096" d="M909 787l-18 -11q-33 18 -69.5 36t-73.5 33q-39 -16 -84.5 -34t-90.5 -35l-11 14q41 40 80 80t67 71l13 8h95q31 -43 55 -85.5t37 -76.5zM394 0h-115l-65 595q-3 27 -12 38.5t-27 20.5l-31 16l2 20h320l4 -20l-75 -33l44 -450l175 329l-9 79q-3 27 -12 38.5t-27 20.5 l-33 16l4 20h320l4 -20l-75 -33l43 -450l241 452l-77 31l4 20h220l4 -20l-58 -25q-18 -7 -28.5 -17.5t-21.5 -30.5l-329 -597h-115l-45 419z" />
<glyph unicode="&#x175;" horiz-adv-x="806" d="M640 577l-18 -11q-29 22 -62 44.5t-66 41.5q-36 -20 -77.5 -42t-82.5 -44l-11 14q37 47 72 93t60 82l13 8h95q26 -49 46 -98t31 -88zM848 408q0 -51 -28.5 -106.5t-75 -111t-101.5 -107t-108 -93.5l-115 9q1 30 2 58t1 52v38.5v34.5q-63 -122 -156 -192l-115 9q1 30 2 58 t1 52q0 119 -4.5 183t-14.5 88t-28 24q-15 0 -33 -13.5t-33 -28.5l-12 11q18 33 46 64.5t64 52t75 20.5q54 0 82 -43t28 -149q0 -103 -19 -247q40 61 64 122.5t34.5 116.5t10.5 96q0 27 -3 48t-8 37q12 7 33 13t44 6q62 0 87 -45t25 -147q0 -103 -19 -247q39 60 62 121.5 t32.5 117t9.5 96.5q0 27 -3 48t-8 37q11 7 33 13t41 6q49 0 78 -25.5t29 -76.5z" />
<glyph unicode="&#x176;" horiz-adv-x="700" d="M700 787l-18 -11q-33 18 -69.5 36t-73.5 33q-39 -16 -84.5 -34t-90.5 -35l-11 14q41 40 80 80t67 71l13 8h95q31 -43 55 -85.5t37 -76.5zM424 55l57 -35l-4 -20h-309l-2 20l34 21q18 11 31 22.5t17 33.5l30 142q7 33 6 79t-8 94t-18.5 89.5t-26 67t-30.5 25.5t-35.5 -17 t-35.5 -34l-20 16q37 69 85.5 105t97.5 36q63 0 98 -45t50 -122.5t18 -175.5q49 97 97 174.5t91 123t78 45.5q27 0 44 -21t27 -53t14 -67l-22 -6q-11 17 -24.5 29t-30.5 12q-25 0 -57.5 -26.5t-67 -70.5t-66.5 -98t-56 -111t-35 -108l-18 -83z" />
<glyph unicode="&#x177;" horiz-adv-x="575" d="M542 577l-18 -11q-29 22 -62 44.5t-66 41.5q-36 -20 -77.5 -42t-82.5 -44l-11 14q37 47 72 93t60 82l13 8h95q26 -49 46 -98t31 -88zM227 510q59 0 89.5 -37t30.5 -123q0 -76 -16.5 -160t-46.5 -162q59 66 91 135.5t44.5 132.5t12.5 110q0 27 -3 48t-8 37q11 7 31.5 13 t42.5 6q51 0 79 -29t28 -88q0 -122 -90.5 -235t-258.5 -203q-30 -62 -68.5 -110.5t-82.5 -76.5t-93 -28q-50 0 -81 21t-31 55q0 20 10.5 33.5t26.5 20.5q14 -17 26 -27t29 -10q24 0 46 26t42 69.5t36 94.5q17 52 29 105.5t18.5 101.5t6.5 80q0 44 -11 69t-36 25 q-15 0 -33 -13.5t-33 -28.5l-12 11q18 33 46 64.5t64 52t75 20.5z" />
<glyph unicode="&#x178;" horiz-adv-x="700" d="M751 870q0 -39 -29 -65.5t-71 -26.5q-37 0 -59 20.5t-22 50.5q0 38 30.5 64.5t73.5 26.5q32 0 54.5 -19t22.5 -51zM502 870q0 -39 -29 -65.5t-71 -26.5q-37 0 -59 20.5t-22 50.5q0 38 30.5 64.5t73.5 26.5q32 0 54.5 -19t22.5 -51zM424 55l57 -35l-4 -20h-309l-2 20 l34 21q18 11 31 22.5t17 33.5l30 142q7 33 6 79t-8 94t-18.5 89.5t-26 67t-30.5 25.5t-35.5 -17t-35.5 -34l-20 16q37 69 85.5 105t97.5 36q63 0 98 -45t50 -122.5t18 -175.5q49 97 97 174.5t91 123t78 45.5q27 0 44 -21t27 -53t14 -67l-22 -6q-11 17 -24.5 29t-30.5 12 q-25 0 -57.5 -26.5t-67 -70.5t-66.5 -98t-56 -111t-35 -108l-18 -83z" />
<glyph unicode="&#x179;" horiz-adv-x="675" d="M581 946l13 2q38 -19 54 -36t16 -37q0 -46 -81.5 -72.5t-230.5 -26.5l-6 19q45 22 90 49t83 54t62 48zM605 0h-556l1 50l475 585h-130q-14 0 -31 -1t-33 -3l-141 -181h-30q-3 60 11.5 125.5t33.5 114.5h550l-1 -50l-475 -585h136q14 0 31 1t33 3l141 181h30 q3 -52 -10 -116t-35 -124z" />
<glyph unicode="&#x17a;" horiz-adv-x="464" d="M359 763l13 6q8 -1 17 -1.5t17 -2.5q44 -8 64 -21t20 -32q0 -21 -22.5 -44.5t-61 -45.5t-88 -38t-104.5 -22l-10 16q32 30 61.5 64t54 66t39.5 55zM155 15q-31 0 -59 -7t-51 -18l-31 45q80 76 154.5 147t140.5 143q-35 6 -70.5 10.5t-63.5 4.5q-31 0 -45.5 -8.5 t-31.5 -41.5l-15 3q13 104 39 160.5t78 56.5q38 0 70.5 -16.5t58 -42.5t43.5 -53q23 27 44 55t41 57q23 -7 43 -24t20 -40q0 -25 -14 -43.5t-51 -47.5l-128 -100l-128 -100q20 3 40.5 4t40.5 1q37 0 70 -2.5t56 -2.5q14 0 23.5 6.5t19.5 19.5q4 5 8.5 11t8.5 13l15 -6 q-7 -30 -15.5 -66t-21.5 -68t-30.5 -53.5t-43.5 -21.5q-14 0 -41 4t-59.5 8.5t-63 8.5t-51.5 4z" />
<glyph unicode="&#x17b;" horiz-adv-x="675" d="M618 875q0 -46 -35.5 -77.5t-85.5 -31.5q-39 0 -63.5 21t-23.5 53q1 46 36 77.5t84 31.5q39 0 63.5 -21t24.5 -53zM605 0h-556l1 50l475 585h-130q-14 0 -31 -1t-33 -3l-141 -181h-30q-3 60 11.5 125.5t33.5 114.5h550l-1 -50l-475 -585h136q14 0 31 1t33 3l141 181h30 q3 -52 -10 -116t-35 -124z" />
<glyph unicode="&#x17c;" horiz-adv-x="464" d="M326 569q-34 0 -56.5 21t-22.5 57q0 31 17 56.5t45 41t59 15.5q34 0 56.5 -21t22.5 -56q0 -31 -17 -57t-44.5 -41.5t-59.5 -15.5zM155 15q-31 0 -59 -7t-51 -18l-31 45q80 76 154.5 147t140.5 143q-35 6 -70.5 10.5t-63.5 4.5q-31 0 -45.5 -8.5t-31.5 -41.5l-15 3 q13 104 39 160.5t78 56.5q38 0 70.5 -16.5t58 -42.5t43.5 -53q23 27 44 55t41 57q23 -7 43 -24t20 -40q0 -25 -14 -43.5t-51 -47.5l-128 -100l-128 -100q20 3 40.5 4t40.5 1q37 0 70 -2.5t56 -2.5q14 0 23.5 6.5t19.5 19.5q4 5 8.5 11t8.5 13l15 -6q-7 -30 -15.5 -66 t-21.5 -68t-30.5 -53.5t-43.5 -21.5q-14 0 -41 4t-59.5 8.5t-63 8.5t-51.5 4z" />
<glyph unicode="&#x17d;" horiz-adv-x="675" d="M552 780l-13 -8h-95q-25 44 -46 88t-33 78l18 11q28 -18 60.5 -36.5t64.5 -34.5q43 17 93 35.5t100 35.5l11 -14q-45 -41 -87 -82t-73 -73zM605 0h-556l1 50l475 585h-130q-14 0 -31 -1t-33 -3l-141 -181h-30q-3 60 11.5 125.5t33.5 114.5h550l-1 -50l-475 -585h136 q14 0 31 1t33 3l141 181h30q3 -52 -10 -116t-35 -124z" />
<glyph unicode="&#x17e;" horiz-adv-x="464" d="M383 574l-13 -8h-95q-22 49 -40 98t-29 88l18 11q27 -22 57.5 -44.5t61.5 -42.5q40 20 86 42.5t93 44.5l11 -14q-42 -46 -81.5 -92.5t-68.5 -82.5zM155 15q-31 0 -59 -7t-51 -18l-31 45q80 76 154.5 147t140.5 143q-35 6 -70.5 10.5t-63.5 4.5q-31 0 -45.5 -8.5 t-31.5 -41.5l-15 3q13 104 39 160.5t78 56.5q38 0 70.5 -16.5t58 -42.5t43.5 -53q23 27 44 55t41 57q23 -7 43 -24t20 -40q0 -25 -14 -43.5t-51 -47.5l-128 -100l-128 -100q20 3 40.5 4t40.5 1q37 0 70 -2.5t56 -2.5q14 0 23.5 6.5t19.5 19.5q4 5 8.5 11t8.5 13l15 -6 q-7 -30 -15.5 -66t-21.5 -68t-30.5 -53.5t-43.5 -21.5q-14 0 -41 4t-59.5 8.5t-63 8.5t-51.5 4z" />
<glyph unicode="&#x18f;" horiz-adv-x="638" d="M664 439q0 -94 -31 -175.5t-86.5 -143t-129 -96t-157.5 -34.5q-65 0 -114.5 27t-77 78t-27.5 121q0 21 6 54.5t15 60.5l22 18h367q11 54 17 106t6 94q0 94 -74 94q-43 0 -72 -26.5t-43 -67t-15 -82.5v-3q-28 -13 -51.5 -18.5t-43.5 -5.5q-31 0 -52.5 12.5t-21.5 37.5 q0 39 26 76.5t70.5 67.5t100 48t113.5 18q82 0 138 -33.5t85.5 -92.5t29.5 -135zM223 162q0 -55 14.5 -85t42.5 -30q36 0 66.5 36t54.5 94.5t40 126.5l-197 -12q-8 -30 -14.5 -67.5t-6.5 -62.5z" />
<glyph unicode="&#x192;" horiz-adv-x="511" d="M268 -10q-18 -73 -61 -129.5t-101.5 -88.5t-126.5 -32q-40 0 -65 20.5t-25 54.5q0 29 20 51.5t54 37.5q19 -49 36 -73.5t42 -24.5q39 0 56 49t31 135l51 302h-111l15 70h107l15 88q13 88 55 143t103 81t130 26q65 0 101 -26t36 -64q0 -41 -30 -65t-64 -30q-9 64 -21 96.5 t-35 32.5q-22 0 -38 -25t-29 -69t-28 -100l-22 -88h170l-15 -70h-173z" />
<glyph unicode="&#x19d;" horiz-adv-x="726" d="M-2 -170l-15 19q35 37 61 69t45.5 74.5t33.5 111.5l111 524q-8 5 -17 10t-17 9l-33 18l8 25h213l219 -472l80 375l8 35l-85 37l5 25h226l3 -25l-40 -20q-24 -12 -38 -21.5t-19 -30.5l-126 -593h-115l-236 512l-93 -437q-13 -64 -36 -105t-58 -72.5t-85 -67.5z" />
<glyph unicode="&#x1cd;" horiz-adv-x="723" d="M580 780l-13 -8h-95q-25 44 -46 88t-33 78l18 11q28 -18 60.5 -36.5t64.5 -34.5q43 17 93 35.5t100 35.5l11 -14q-45 -41 -87 -82t-73 -73zM449 690h115l74 -595q3 -27 12 -38.5t27 -20.5l31 -16l-2 -20h-320l-4 20l75 33l-17 145l-216 -3l-78 -142l75 -33l-4 -20h-210 l-4 20l58 25q18 8 28.5 18t21.5 30zM251 245l184 -2l-32 278z" />
<glyph unicode="&#x1ce;" d="M469 574l-13 -8h-95q-22 49 -40 98t-29 88l18 11q27 -22 57.5 -44.5t61.5 -42.5q40 20 86 42.5t93 44.5l11 -14q-42 -46 -81.5 -92.5t-68.5 -82.5zM561 180q-4 -18 -7.5 -36.5t-3.5 -28.5q0 -19 17 -19q15 0 35.5 14t36.5 27l10 -10q-17 -32 -44 -64t-62 -52.5t-76 -20.5 q-47 0 -73 26.5t-26 74.5q0 17 3.5 40.5t9.5 48.5l3 11h-6q-22 -55 -51.5 -101t-65.5 -73t-76 -27q-54 0 -87.5 43.5t-33.5 116.5q0 68 23 132t66.5 115.5t106 82t142.5 30.5q62 0 123 -12.5t106 -35.5l-27 -80zM249 182q0 -27 6.5 -43.5t20.5 -16.5q19 0 39.5 25t39.5 63.5 t34.5 80.5t25.5 76l19 74q-20 19 -50 19q-26 0 -50.5 -28t-43.5 -72t-30 -91.5t-11 -86.5z" />
<glyph unicode="&#x1cf;" horiz-adv-x="413" d="M416 780l-13 -8h-95q-25 44 -46 88t-33 78l18 11q28 -18 60.5 -36.5t64.5 -34.5q43 17 93 35.5t100 35.5l11 -14q-45 -41 -87 -82t-73 -73zM299 55l57 -35l-4 -20h-309l-2 20l34 21q18 11 31 22.5t17 33.5l105 496l9 42l-57 35l4 20h309l2 -20l-34 -21q-18 -11 -30.5 -22 t-17.5 -34l-105 -496z" />
<glyph unicode="&#x1d0;" horiz-adv-x="362" d="M309 574l-13 -8h-95q-10 49 -17 98t-12 88l18 11q19 -21 39.5 -41.5t41.5 -38.5q31 19 66 39.5t71 40.5l11 -14q-31 -46 -60 -92.5t-50 -82.5zM297 180q-4 -18 -7.5 -36.5t-3.5 -28.5q0 -19 17 -19q15 0 35.5 14t36.5 27l10 -10q-17 -32 -44 -64t-62 -52.5t-76 -20.5 q-47 0 -73 26.5t-26 74.5q0 17 3.5 40.5t9.5 48.5q8 35 15.5 70t14.5 70q4 18 7.5 36.5t3.5 28.5q0 19 -17 19q-15 0 -35 -13.5t-37 -27.5l-10 10q17 33 44 64.5t62 52t76 20.5q47 0 73 -26.5t26 -74.5q0 -17 -3.5 -40t-9.5 -49q-7 -35 -14.5 -70t-15.5 -70z" />
<glyph unicode="&#x1d1;" horiz-adv-x="702" d="M561 780l-13 -8h-95q-25 44 -46 88t-33 78l18 11q28 -18 60.5 -36.5t64.5 -34.5q43 17 93 35.5t100 35.5l11 -14q-45 -41 -87 -82t-73 -73zM734 439q0 -101 -31.5 -183.5t-86 -142t-123 -91.5t-142.5 -32t-132 31t-91 89.5t-33 139.5q0 93 31.5 174.5t85.5 143.5 t122.5 97t143.5 35q84 0 141 -33.5t86 -92.5t29 -135zM285 143q0 -45 17.5 -71.5t50.5 -26.5q26 0 50 26t45.5 70t39 98t30 110.5t19.5 108.5t7 91q0 96 -65 96q-33 0 -62 -33.5t-53.5 -89t-42 -122t-27 -134t-9.5 -123.5z" />
<glyph unicode="&#x1d2;" horiz-adv-x="562" d="M433 574l-13 -8h-95q-22 49 -40 98t-29 88l18 11q27 -22 57.5 -44.5t61.5 -42.5q40 20 86 42.5t93 44.5l11 -14q-42 -46 -81.5 -92.5t-68.5 -82.5zM578 309q0 -74 -24.5 -133t-66 -100.5t-94 -63.5t-109.5 -22q-62 0 -110 23.5t-75.5 69t-27.5 109.5q0 67 24 124.5 t65.5 101t94.5 67.5t111 24q101 0 156.5 -55t55.5 -145zM256 111q0 -34 7 -55t26 -21q17 0 33 27.5t29 71t22.5 93t14.5 95.5t5 76q0 68 -33 68q-17 0 -33 -25t-29 -65.5t-22.5 -88.5t-14.5 -94.5t-5 -81.5z" />
<glyph unicode="&#x1d3;" horiz-adv-x="694" d="M605 780l-13 -8h-95q-25 44 -46 88t-33 78l18 11q28 -18 60.5 -36.5t64.5 -34.5q43 17 93 35.5t100 35.5l11 -14q-45 -41 -87 -82t-73 -73zM211 635l-57 35l4 20h309l2 -20l-34 -21q-18 -11 -30.5 -22t-17.5 -34l-72 -338q-4 -18 -5.5 -35.5t-1.5 -33.5q0 -64 28.5 -100 t83.5 -36q65 0 108 49.5t65 152.5l76 351l5 25l-84 37l5 25h226l3 -25l-90 -37l-5 -25l-74 -348q-17 -83 -51 -142.5t-91 -91t-146 -31.5q-111 0 -176.5 52t-65.5 151q0 13 1.5 31t5.5 37l70 332z" />
<glyph unicode="&#x1d4;" horiz-adv-x="658" d="M478 574l-13 -8h-95q-22 49 -40 98t-29 88l18 11q27 -22 57.5 -44.5t61.5 -42.5q40 20 86 42.5t93 44.5l11 -14q-42 -46 -81.5 -92.5t-68.5 -82.5zM147 320q4 18 7.5 36.5t3.5 28.5q0 19 -17 19q-15 0 -35 -13.5t-37 -27.5l-10 10q17 33 44 64.5t62 52t76 20.5 q47 0 73 -26.5t26 -74.5q0 -17 -3.5 -40t-9.5 -49q-18 -67 -26.5 -108t-8.5 -59q0 -31 22 -31q20 0 46.5 33t54 92.5t48.5 138.5l-1 -4l26 122l83 3q18 1 43.5 2t35.5 1q19 0 14 -25l-34 -161l-31 -144q-4 -18 -7.5 -36.5t-3.5 -28.5q0 -19 17 -19q15 0 35.5 14t36.5 27 l10 -10q-17 -32 -44 -64t-62 -52.5t-76 -20.5q-47 0 -73 26.5t-26 74.5q0 17 3.5 40.5t9.5 48.5l3 11h-7q-39 -94 -91.5 -147.5t-111.5 -53.5q-48 0 -76.5 29t-28.5 83q0 39 13.5 95t26.5 123z" />
<glyph unicode="&#x1d5;" horiz-adv-x="694" d="M428 1039l18 82h342l-18 -82h-342zM772 870q0 -39 -29 -65.5t-71 -26.5q-37 0 -59 20.5t-22 50.5q0 38 30.5 64.5t73.5 26.5q32 0 54.5 -19t22.5 -51zM523 870q0 -39 -29 -65.5t-71 -26.5q-37 0 -59 20.5t-22 50.5q0 38 30.5 64.5t73.5 26.5q32 0 54.5 -19t22.5 -51z M211 635l-57 35l4 20h309l2 -20l-34 -21q-18 -11 -30.5 -22t-17.5 -34l-72 -338q-4 -18 -5.5 -35.5t-1.5 -33.5q0 -64 28.5 -100t83.5 -36q65 0 108 49.5t65 152.5l76 351l5 25l-84 37l5 25h226l3 -25l-90 -37l-5 -25l-74 -348q-17 -83 -51 -142.5t-91 -91t-146 -31.5 q-111 0 -176.5 52t-65.5 151q0 13 1.5 31t5.5 37l70 332z" />
<glyph unicode="&#x1d6;" horiz-adv-x="658" d="M302 852l18 82h332l-18 -82h-332zM641 678q0 -41 -29 -69.5t-70 -28.5q-36 0 -58 22.5t-22 54.5q0 40 30 68.5t73 28.5q31 0 53.5 -20.5t22.5 -55.5zM400 678q0 -41 -29 -69.5t-70 -28.5q-36 0 -58 22.5t-22 54.5q0 40 30 68.5t73 28.5q31 0 53.5 -20.5t22.5 -55.5z M147 320q4 18 7.5 36.5t3.5 28.5q0 19 -17 19q-15 0 -35 -13.5t-37 -27.5l-10 10q17 33 44 64.5t62 52t76 20.5q47 0 73 -26.5t26 -74.5q0 -17 -3.5 -40t-9.5 -49q-18 -67 -26.5 -108t-8.5 -59q0 -31 22 -31q20 0 46.5 33t54 92.5t48.5 138.5l-1 -4l26 122l83 3q18 1 43.5 2 t35.5 1q19 0 14 -25l-34 -161l-31 -144q-4 -18 -7.5 -36.5t-3.5 -28.5q0 -19 17 -19q15 0 35.5 14t36.5 27l10 -10q-17 -32 -44 -64t-62 -52.5t-76 -20.5q-47 0 -73 26.5t-26 74.5q0 17 3.5 40.5t9.5 48.5l3 11h-7q-39 -94 -91.5 -147.5t-111.5 -53.5q-48 0 -76.5 29 t-28.5 83q0 39 13.5 95t26.5 123z" />
<glyph unicode="&#x1d7;" horiz-adv-x="694" d="M675 1167l13 2q38 -19 54 -36t16 -37q0 -46 -81.5 -72.5t-230.5 -26.5l-6 19q45 22 90 49t83 54t62 48zM523 870q0 -39 -29 -65.5t-71 -26.5q-37 0 -59 20.5t-22 50.5q0 38 30.5 64.5t73.5 26.5q32 0 54.5 -19t22.5 -51zM772 870q0 -39 -29 -65.5t-71 -26.5 q-37 0 -59 20.5t-22 50.5q0 38 30.5 64.5t73.5 26.5q32 0 54.5 -19t22.5 -51zM211 635l-57 35l4 20h309l2 -20l-34 -21q-18 -11 -30.5 -22t-17.5 -34l-72 -338q-4 -18 -5.5 -35.5t-1.5 -33.5q0 -64 28.5 -100t83.5 -36q65 0 108 49.5t65 152.5l76 351l5 25l-84 37l5 25h226 l3 -25l-90 -37l-5 -25l-74 -348q-17 -83 -51 -142.5t-91 -91t-146 -31.5q-111 0 -176.5 52t-65.5 151q0 13 1.5 31t5.5 37l70 332z" />
<glyph unicode="&#x1d8;" horiz-adv-x="658" d="M496 1003l13 6q8 -1 17 -1.5t17 -2.5q44 -8 64 -21t20 -32q0 -21 -22.5 -44.5t-61 -45.5t-88 -38t-104.5 -22l-10 16q32 30 61.5 64t54 66t39.5 55zM641 678q0 -41 -29 -69.5t-70 -28.5q-36 0 -58 22.5t-22 54.5q0 40 30 68.5t73 28.5q31 0 53.5 -20.5t22.5 -55.5z M400 678q0 -41 -29 -69.5t-70 -28.5q-36 0 -58 22.5t-22 54.5q0 40 30 68.5t73 28.5q31 0 53.5 -20.5t22.5 -55.5zM147 320q4 18 7.5 36.5t3.5 28.5q0 19 -17 19q-15 0 -35 -13.5t-37 -27.5l-10 10q17 33 44 64.5t62 52t76 20.5q47 0 73 -26.5t26 -74.5q0 -17 -3.5 -40 t-9.5 -49q-18 -67 -26.5 -108t-8.5 -59q0 -31 22 -31q20 0 46.5 33t54 92.5t48.5 138.5l-1 -4l26 122l83 3q18 1 43.5 2t35.5 1q19 0 14 -25l-34 -161l-31 -144q-4 -18 -7.5 -36.5t-3.5 -28.5q0 -19 17 -19q15 0 35.5 14t36.5 27l10 -10q-17 -32 -44 -64t-62 -52.5 t-76 -20.5q-47 0 -73 26.5t-26 74.5q0 17 3.5 40.5t9.5 48.5l3 11h-7q-39 -94 -91.5 -147.5t-111.5 -53.5q-48 0 -76.5 29t-28.5 83q0 39 13.5 95t26.5 123z" />
<glyph unicode="&#x1d9;" horiz-adv-x="694" d="M636 1001l-13 -8h-95q-25 44 -46 88t-33 78l18 11q28 -18 60.5 -36.5t64.5 -34.5q43 17 93 35.5t100 35.5l11 -14q-45 -41 -87 -82t-73 -73zM772 870q0 -39 -29 -65.5t-71 -26.5q-37 0 -59 20.5t-22 50.5q0 38 30.5 64.5t73.5 26.5q32 0 54.5 -19t22.5 -51zM523 870 q0 -39 -29 -65.5t-71 -26.5q-37 0 -59 20.5t-22 50.5q0 38 30.5 64.5t73.5 26.5q32 0 54.5 -19t22.5 -51zM211 635l-57 35l4 20h309l2 -20l-34 -21q-18 -11 -30.5 -22t-17.5 -34l-72 -338q-4 -18 -5.5 -35.5t-1.5 -33.5q0 -64 28.5 -100t83.5 -36q65 0 108 49.5t65 152.5 l76 351l5 25l-84 37l5 25h226l3 -25l-90 -37l-5 -25l-74 -348q-17 -83 -51 -142.5t-91 -91t-146 -31.5q-111 0 -176.5 52t-65.5 151q0 13 1.5 31t5.5 37l70 332z" />
<glyph unicode="&#x1da;" horiz-adv-x="658" d="M510 814l-13 -8h-95q-22 49 -40 98t-29 88l18 11q27 -22 57.5 -44.5t61.5 -42.5q40 20 86 42.5t93 44.5l11 -14q-42 -46 -81.5 -92.5t-68.5 -82.5zM641 678q0 -41 -29 -69.5t-70 -28.5q-36 0 -58 22.5t-22 54.5q0 40 30 68.5t73 28.5q31 0 53.5 -20.5t22.5 -55.5z M400 678q0 -41 -29 -69.5t-70 -28.5q-36 0 -58 22.5t-22 54.5q0 40 30 68.5t73 28.5q31 0 53.5 -20.5t22.5 -55.5zM147 320q4 18 7.5 36.5t3.5 28.5q0 19 -17 19q-15 0 -35 -13.5t-37 -27.5l-10 10q17 33 44 64.5t62 52t76 20.5q47 0 73 -26.5t26 -74.5q0 -17 -3.5 -40 t-9.5 -49q-18 -67 -26.5 -108t-8.5 -59q0 -31 22 -31q20 0 46.5 33t54 92.5t48.5 138.5l-1 -4l26 122l83 3q18 1 43.5 2t35.5 1q19 0 14 -25l-34 -161l-31 -144q-4 -18 -7.5 -36.5t-3.5 -28.5q0 -19 17 -19q15 0 35.5 14t36.5 27l10 -10q-17 -32 -44 -64t-62 -52.5 t-76 -20.5q-47 0 -73 26.5t-26 74.5q0 17 3.5 40.5t9.5 48.5l3 11h-7q-39 -94 -91.5 -147.5t-111.5 -53.5q-48 0 -76.5 29t-28.5 83q0 39 13.5 95t26.5 123z" />
<glyph unicode="&#x1db;" horiz-adv-x="694" d="M737 1017l-9 -19q-51 0 -98.5 3.5t-85.5 12t-60 25t-22 43.5q0 21 16 39t38 30.5t41 18.5l13 -2q16 -20 42.5 -46.5t59 -54t65.5 -50.5zM772 870q0 -39 -29 -65.5t-71 -26.5q-37 0 -59 20.5t-22 50.5q0 38 30.5 64.5t73.5 26.5q32 0 54.5 -19t22.5 -51zM523 870 q0 -39 -29 -65.5t-71 -26.5q-37 0 -59 20.5t-22 50.5q0 38 30.5 64.5t73.5 26.5q32 0 54.5 -19t22.5 -51zM211 635l-57 35l4 20h309l2 -20l-34 -21q-18 -11 -30.5 -22t-17.5 -34l-72 -338q-4 -18 -5.5 -35.5t-1.5 -33.5q0 -64 28.5 -100t83.5 -36q65 0 108 49.5t65 152.5 l76 351l5 25l-84 37l5 25h226l3 -25l-90 -37l-5 -25l-74 -348q-17 -83 -51 -142.5t-91 -91t-146 -31.5q-111 0 -176.5 52t-65.5 151q0 13 1.5 31t5.5 37l70 332z" />
<glyph unicode="&#x1dc;" horiz-adv-x="658" d="M538 817l-13 -15q-63 18 -112.5 42.5t-77.5 52t-28 54.5q0 32 29 44.5t66 12.5h17t17 -1l11 -8q14 -34 39 -85t52 -97zM641 678q0 -41 -29 -69.5t-70 -28.5q-36 0 -58 22.5t-22 54.5q0 40 30 68.5t73 28.5q31 0 53.5 -20.5t22.5 -55.5zM400 678q0 -41 -29 -69.5 t-70 -28.5q-36 0 -58 22.5t-22 54.5q0 40 30 68.5t73 28.5q31 0 53.5 -20.5t22.5 -55.5zM147 320q4 18 7.5 36.5t3.5 28.5q0 19 -17 19q-15 0 -35 -13.5t-37 -27.5l-10 10q17 33 44 64.5t62 52t76 20.5q47 0 73 -26.5t26 -74.5q0 -17 -3.5 -40t-9.5 -49q-18 -67 -26.5 -108 t-8.5 -59q0 -31 22 -31q20 0 46.5 33t54 92.5t48.5 138.5l-1 -4l26 122l83 3q18 1 43.5 2t35.5 1q19 0 14 -25l-34 -161l-31 -144q-4 -18 -7.5 -36.5t-3.5 -28.5q0 -19 17 -19q15 0 35.5 14t36.5 27l10 -10q-17 -32 -44 -64t-62 -52.5t-76 -20.5q-47 0 -73 26.5t-26 74.5 q0 17 3.5 40.5t9.5 48.5l3 11h-7q-39 -94 -91.5 -147.5t-111.5 -53.5q-48 0 -76.5 29t-28.5 83q0 39 13.5 95t26.5 123z" />
<glyph unicode="&#x1e6;" horiz-adv-x="738" d="M625 780l-13 -8h-95q-25 44 -46 88t-33 78l18 11q28 -18 60.5 -36.5t64.5 -34.5q43 17 93 35.5t100 35.5l11 -14q-45 -41 -87 -82t-73 -73zM436 50q30 0 58 6l36 167l9 42l-57 35l4 20h299l2 -20l-34 -16q-19 -9 -31 -22.5t-17 -38.5l-43 -201q-49 -16 -112.5 -24 t-131.5 -8q-153 0 -236 75.5t-83 214.5q0 86 35 161.5t97 134t142.5 91.5t170.5 33q65 0 117.5 -9t89.5 -23q-1 -36 -12.5 -80t-26 -83.5t-26.5 -64.5h-30q-25 78 -41 121.5t-33 74.5q-15 3 -32 3q-49 0 -95.5 -27t-84 -75.5t-59.5 -115t-22 -146.5q0 -66 18.5 -116.5 t51.5 -79.5t77 -29z" />
<glyph unicode="&#x1e7;" horiz-adv-x="518" d="M399 574l-13 -8h-95q-22 49 -40 98t-29 88l18 11q27 -22 57.5 -44.5t61.5 -42.5q40 20 86 42.5t93 44.5l11 -14q-42 -46 -81.5 -92.5t-68.5 -82.5zM332 510q86 0 155 1t112 12q10 -15 10 -42q0 -21 -11 -38t-37 -17q-22 0 -54.5 13t-64.5 26l-3 -5q32 -17 54 -46.5 t22 -73.5q0 -57 -23 -95t-56.5 -62t-67.5 -40t-57 -28t-23 -26q0 -15 19 -24.5t47 -20.5q31 -12 59 -27t46.5 -38.5t18.5 -61.5q0 -51 -36 -91t-97.5 -63t-140.5 -23q-116 0 -180 34.5t-64 83.5q0 27 17.5 48t46.5 36.5t61 24.5l14 -11q-1 -3 -1.5 -6.5t-0.5 -8.5 q0 -41 17 -77t49 -58.5t77 -22.5q32 0 57 17.5t25 48.5q0 26 -31 44t-69 38q-37 19 -67 41t-30 57q0 30 31 55t103 50q-80 5 -129.5 48t-49.5 110q0 60 32.5 109.5t89.5 79t130 29.5zM246 286q0 -49 8 -75t30 -26q16 0 28 21t20.5 55t12.5 71.5t4 70.5q0 64 -34 64 q-16 0 -29 -17.5t-22 -45t-13.5 -59t-4.5 -59.5z" />
<glyph unicode="&#x1ea;" horiz-adv-x="702" d="M734 439q0 -94 -28 -172.5t-76 -137t-109 -93.5q-92 -58 -129.5 -99t-37.5 -69q0 -22 19 -22q11 0 25 12t26 29l10 -10q-22 -65 -60 -101t-84 -36q-35 0 -60 21t-25 60q0 55 48.5 97.5t130.5 73.5q-17 -2 -33 -2q-74 0 -132 31t-91 89.5t-33 139.5q0 93 31.5 174.5 t85.5 143.5t122.5 97t143.5 35q84 0 141 -33.5t86 -92.5t29 -135zM285 143q0 -45 17.5 -71.5t50.5 -26.5q26 0 50 26t45.5 70t39 98t30 110.5t19.5 108.5t7 91q0 96 -65 96q-33 0 -62 -33.5t-53.5 -89t-42 -122t-27 -134t-9.5 -123.5z" />
<glyph unicode="&#x1eb;" horiz-adv-x="562" d="M578 309q0 -82 -30.5 -146t-79.5 -105q-76 -72 -115.5 -111.5t-39.5 -73.5q0 -27 20 -27q9 0 23.5 12t26.5 29l10 -10q-46 -137 -150 -137q-37 0 -58 21.5t-21 58.5q0 36 24.5 66.5t64.5 57t85 51.5q-27 -5 -54 -5q-62 0 -110 23.5t-75.5 69t-27.5 109.5q0 67 24 124.5 t65.5 101t94.5 67.5t111 24q101 0 156.5 -55t55.5 -145zM256 111q0 -34 7 -55t26 -21q17 0 33 27.5t29 71t22.5 93t14.5 95.5t5 76q0 68 -33 68q-17 0 -33 -25t-29 -65.5t-22.5 -88.5t-14.5 -94.5t-5 -81.5z" />
<glyph unicode="&#x1f4;" horiz-adv-x="738" d="M637 946l13 2q38 -19 54 -36t16 -37q0 -46 -81.5 -72.5t-230.5 -26.5l-6 19q45 22 90 49t83 54t62 48zM436 50q30 0 58 6l36 167l9 42l-57 35l4 20h299l2 -20l-34 -16q-19 -9 -31 -22.5t-17 -38.5l-43 -201q-49 -16 -112.5 -24t-131.5 -8q-153 0 -236 75.5t-83 214.5 q0 86 35 161.5t97 134t142.5 91.5t170.5 33q65 0 117.5 -9t89.5 -23q-1 -36 -12.5 -80t-26 -83.5t-26.5 -64.5h-30q-25 78 -41 121.5t-33 74.5q-15 3 -32 3q-49 0 -95.5 -27t-84 -75.5t-59.5 -115t-22 -146.5q0 -66 18.5 -116.5t51.5 -79.5t77 -29z" />
<glyph unicode="&#x1f5;" horiz-adv-x="518" d="M385 763l13 6q8 -1 17 -1.5t17 -2.5q44 -8 64 -21t20 -32q0 -21 -22.5 -44.5t-61 -45.5t-88 -38t-104.5 -22l-10 16q32 30 61.5 64t54 66t39.5 55zM332 510q86 0 155 1t112 12q10 -15 10 -42q0 -21 -11 -38t-37 -17q-22 0 -54.5 13t-64.5 26l-3 -5q32 -17 54 -46.5 t22 -73.5q0 -57 -23 -95t-56.5 -62t-67.5 -40t-57 -28t-23 -26q0 -15 19 -24.5t47 -20.5q31 -12 59 -27t46.5 -38.5t18.5 -61.5q0 -51 -36 -91t-97.5 -63t-140.5 -23q-116 0 -180 34.5t-64 83.5q0 27 17.5 48t46.5 36.5t61 24.5l14 -11q-1 -3 -1.5 -6.5t-0.5 -8.5 q0 -41 17 -77t49 -58.5t77 -22.5q32 0 57 17.5t25 48.5q0 26 -31 44t-69 38q-37 19 -67 41t-30 57q0 30 31 55t103 50q-80 5 -129.5 48t-49.5 110q0 60 32.5 109.5t89.5 79t130 29.5zM246 286q0 -49 8 -75t30 -26q16 0 28 21t20.5 55t12.5 71.5t4 70.5q0 64 -34 64 q-16 0 -29 -17.5t-22 -45t-13.5 -59t-4.5 -59.5z" />
<glyph unicode="&#x1fa;" horiz-adv-x="723" d="M661 1181l13 2q38 -19 54 -36t16 -37q0 -46 -81.5 -72.5t-230.5 -26.5l-6 19q45 22 90 49t83 54t62 48zM654 879q0 -32 -19 -58t-51.5 -41.5t-72.5 -15.5q-45 0 -71.5 22t-26.5 59q0 32 19 58t51.5 41t72.5 15q45 0 71.5 -21.5t26.5 -58.5zM480 846q0 -19 11 -31t30 -12 q28 0 47 22t19 53q0 20 -11 31t-30 11q-28 0 -47 -21.5t-19 -52.5zM449 690h115l74 -595q3 -27 12 -38.5t27 -20.5l31 -16l-2 -20h-320l-4 20l75 33l-17 145l-216 -3l-78 -142l75 -33l-4 -20h-210l-4 20l58 25q18 8 28.5 18t21.5 30zM251 245l184 -2l-32 278z" />
<glyph unicode="&#x1fb;" d="M503 1013l13 6q8 -1 17 -1.5t17 -2.5q44 -8 64 -21t20 -32q0 -21 -22.5 -44.5t-61 -45.5t-88 -38t-104.5 -22l-10 16q32 30 61.5 64t54 66t39.5 55zM553 683q0 -32 -19 -58t-51.5 -41.5t-72.5 -15.5q-45 0 -71.5 22t-26.5 59q0 32 19 58t51.5 41t72.5 15q45 0 71.5 -21.5 t26.5 -58.5zM379 650q0 -19 11 -31t30 -12q28 0 47 22t19 53q0 20 -11 31t-30 11q-28 0 -47 -21.5t-19 -52.5zM561 180q-4 -18 -7.5 -36.5t-3.5 -28.5q0 -19 17 -19q15 0 35.5 14t36.5 27l10 -10q-17 -32 -44 -64t-62 -52.5t-76 -20.5q-47 0 -73 26.5t-26 74.5 q0 17 3.5 40.5t9.5 48.5l3 11h-6q-22 -55 -51.5 -101t-65.5 -73t-76 -27q-54 0 -87.5 43.5t-33.5 116.5q0 68 23 132t66.5 115.5t106 82t142.5 30.5q62 0 123 -12.5t106 -35.5l-27 -80zM249 182q0 -27 6.5 -43.5t20.5 -16.5q19 0 39.5 25t39.5 63.5t34.5 80.5t25.5 76l19 74 q-20 19 -50 19q-26 0 -50.5 -28t-43.5 -72t-30 -91.5t-11 -86.5z" />
<glyph unicode="&#x1fc;" horiz-adv-x="952" d="M784 946l13 2q38 -19 54 -36t16 -37q0 -46 -81.5 -72.5t-230.5 -26.5l-6 19q45 22 90 49t83 54t62 48zM414 628l-67 37l7 25h660q0 -58 -15.5 -120.5t-41.5 -119.5h-30q-15 64 -25 100t-16.5 55t-12.5 31q-13 2 -30.5 2.5t-31.5 0.5l-75 1l-58 -273l184 8l-18 -69 l-176 10l-47 -219l-10 -47l100 -1q30 0 63 5q11 11 25.5 29.5t39.5 55.5t68 101h30q3 -57 -9.5 -123t-35.5 -117h-536l-2 20l34 21q18 11 31 22.5t17 33.5l47 220l-192 -2l-143 -261l68 -29l-7 -25h-195l3 25q17 7 30 12.5t24 12.5q11 8 21.5 17.5t18.5 25.5zM550 635h-83 l-149 -270l174 -2z" />
<glyph unicode="&#x1fd;" horiz-adv-x="811" d="M587 763l13 6q8 -1 17 -1.5t17 -2.5q44 -8 64 -21t20 -32q0 -21 -22.5 -44.5t-61 -45.5t-88 -38t-104.5 -22l-10 16q32 30 61.5 64t54 66t39.5 55zM818 151q-39 -76 -103 -118.5t-144 -42.5q-85 0 -136 55t-51 146h-6q-22 -55 -51.5 -101t-65.5 -73t-76 -27 q-54 0 -87.5 43.5t-33.5 116.5q0 68 23 132t66.5 115.5t106 82t142.5 30.5q89 0 169 -25q54 25 111 25q46 0 82.5 -16t58 -45t21.5 -69q0 -45 -28 -83.5t-88.5 -60t-158.5 -16.5q1 -59 29 -87t72 -28q33 0 71.5 15.5t66.5 40.5zM249 182q0 -27 6.5 -43.5t20.5 -16.5 q19 0 39.5 25t39.5 63.5t34.5 80.5t25.5 76l19 74q-20 19 -50 19q-26 0 -50.5 -28t-43.5 -72t-30 -91.5t-11 -86.5zM666 460q-22 0 -42.5 -28t-34.5 -74t-19 -100q37 2 64.5 24t43.5 56.5t16 75.5q0 46 -28 46z" />
<glyph unicode="&#x1fe;" horiz-adv-x="702" d="M534 953l13 6q8 -1 17 -1.5t17 -2.5q44 -8 64 -21t20 -32q0 -21 -22.5 -44.5t-61 -45.5t-88 -38t-104.5 -22l-10 16q32 30 61.5 64t54 66t39.5 55zM734 439q0 -101 -31.5 -183.5t-86 -142t-123 -91.5t-142.5 -32q-115 0 -186 72l-67 -67l-35 36l71 70q-19 31 -29 68 t-10 81q0 93 31.5 174.5t85.5 143.5t122.5 97t143.5 35q61 0 108 -18.5t79 -51.5l66 65l36 -35l-71 -70q38 -63 38 -151zM479 645q-33 0 -62.5 -34.5t-54 -91t-42 -124.5t-26.5 -135l248 247q2 23 2 42q0 96 -65 96zM285 143q0 -45 17.5 -71.5t50.5 -26.5q31 0 59 35.5 t51.5 92.5t41.5 124t28 130l-247 -245q-1 -20 -1 -39z" />
<glyph unicode="&#x1ff;" horiz-adv-x="562" d="M399 763l13 6q8 -1 17 -1.5t17 -2.5q44 -8 64 -21t20 -32q0 -21 -22.5 -44.5t-61 -45.5t-88 -38t-104.5 -22l-10 16q32 30 61.5 64t54 66t39.5 55zM578 309q0 -74 -24.5 -133t-66 -100.5t-94 -63.5t-109.5 -22q-95 0 -152 52l-51 -46l-32 38l51 46q-29 47 -29 112 q0 67 24 124.5t65.5 101t94.5 67.5t111 24q48 0 86.5 -13t65.5 -38l50 46l33 -37l-52 -47q29 -47 29 -111zM360 466q-16 0 -30 -20.5t-26.5 -55t-22 -76t-15.5 -83.5l124 112q3 32 3 55q0 68 -33 68zM256 111q0 -34 7 -55t26 -21q15 0 28.5 20.5t25.5 54.5t21.5 75t15.5 82 l-122 -111q-2 -25 -2 -45z" />
<glyph unicode="&#x218;" horiz-adv-x="567" d="M273 -10q-47 0 -92.5 3.5t-78 11t-41.5 19.5q-8 13 -8 34q0 24 9 53.5t25.5 59t36.5 52.5l30 -3v-10q0 -42 6.5 -73t21.5 -54q28 -43 93 -43q47 0 80.5 29.5t33.5 81.5q0 33 -18.5 59.5t-48 50t-62 47.5t-62 51t-48 61t-18.5 77q0 49 25 87t68 63.5t96 39t108 13.5 q74 0 123.5 -12t64.5 -23q8 -6 9.5 -12.5t1.5 -17.5q0 -21 -10 -51.5t-27 -61t-38 -55.5l-29 2v13q0 35 -3 62t-11 45q-11 26 -32 43.5t-62 17.5q-46 0 -77.5 -29t-31.5 -76q0 -34 18.5 -62t48 -52.5t62 -48.5t62 -50t48 -57.5t18.5 -71.5q0 -66 -36.5 -114t-101.5 -73.5 t-153 -25.5zM326 -147q0 -40 -24.5 -82t-66 -76t-92.5 -52l-10 11q48 55 68 113q-21 6 -34.5 23t-13.5 42q0 41 29.5 70t70.5 29q32 0 52.5 -22t20.5 -56z" />
<glyph unicode="&#x219;" horiz-adv-x="469" d="M456 149q0 -71 -58.5 -115t-172.5 -44q-49 0 -91 9.5t-67.5 29t-25.5 50.5q0 34 29.5 57t69.5 30l13 -10q3 -10 5.5 -19t5.5 -18q13 -38 29.5 -62t45.5 -24q23 0 36.5 15t13.5 37q0 28 -18.5 51t-46 45.5t-55.5 47t-46.5 55.5t-18.5 71q0 47 29.5 81.5t80.5 54t113 19.5 q90 0 133.5 -27.5t43.5 -66.5q0 -30 -25 -53t-65 -29l-12 9q-3 13 -6 25t-6 22q-10 36 -25 56.5t-41 20.5q-22 0 -36 -13.5t-14 -35.5q0 -28 18.5 -52t45.5 -47t54 -48t45.5 -55t18.5 -67zM293 -147q0 -40 -24.5 -82t-66 -76t-92.5 -52l-10 11q48 55 68 113q-21 6 -34.5 23 t-13.5 42q0 41 29.5 70t70.5 29q32 0 52.5 -22t20.5 -56z" />
<glyph unicode="&#x21a;" horiz-adv-x="666" d="M426 55l57 -35l-4 -20h-309l-2 20l34 21q18 11 31 22.5t17 33.5l114 538h-17q-14 0 -31 -1t-33 -3q-15 -16 -34 -40t-37 -51l-60 -90h-30q-3 57 11.5 122.5t33.5 117.5h602q-3 -52 -17 -117.5t-40 -122.5h-30l-22 90q-7 27 -15.5 51t-17.5 40q-14 2 -31 3t-31 1h-16 l-114 -538zM376 -147q0 -40 -24.5 -82t-66 -76t-92.5 -52l-10 11q48 55 68 113q-21 6 -34.5 23t-13.5 42q0 41 29.5 70t70.5 29q32 0 52.5 -22t20.5 -56z" />
<glyph unicode="&#x21b;" horiz-adv-x="411" d="M206 -10q-57 0 -85.5 35t-28.5 88q0 11 1 23t4 24l57 270h-63l2 20l266 190l19 -2l-33 -158h125l-11 -50h-125l-52 -245q-1 -8 -2.5 -16t-1.5 -15q0 -49 42 -49q29 0 58 17.5t54 38.5l10 -10q-21 -41 -54.5 -78t-79 -60t-102.5 -23zM278 -147q0 -40 -24.5 -82t-66 -76 t-92.5 -52l-10 11q48 55 68 113q-21 6 -34.5 23t-13.5 42q0 41 29.5 70t70.5 29q32 0 52.5 -22t20.5 -56z" />
<glyph unicode="&#x232;" horiz-adv-x="700" d="M361 818l18 82h342l-18 -82h-342zM424 55l57 -35l-4 -20h-309l-2 20l34 21q18 11 31 22.5t17 33.5l30 142q7 33 6 79t-8 94t-18.5 89.5t-26 67t-30.5 25.5t-35.5 -17t-35.5 -34l-20 16q37 69 85.5 105t97.5 36q63 0 98 -45t50 -122.5t18 -175.5q49 97 97 174.5t91 123 t78 45.5q27 0 44 -21t27 -53t14 -67l-22 -6q-11 17 -24.5 29t-30.5 12q-25 0 -57.5 -26.5t-67 -70.5t-66.5 -98t-56 -111t-35 -108l-18 -83z" />
<glyph unicode="&#x233;" horiz-adv-x="575" d="M216 612l18 82h332l-18 -82h-332zM227 510q59 0 89.5 -37t30.5 -123q0 -76 -16.5 -160t-46.5 -162q59 66 91 135.5t44.5 132.5t12.5 110q0 27 -3 48t-8 37q11 7 31.5 13t42.5 6q51 0 79 -29t28 -88q0 -122 -90.5 -235t-258.5 -203q-30 -62 -68.5 -110.5t-82.5 -76.5 t-93 -28q-50 0 -81 21t-31 55q0 20 10.5 33.5t26.5 20.5q14 -17 26 -27t29 -10q24 0 46 26t42 69.5t36 94.5q17 52 29 105.5t18.5 101.5t6.5 80q0 44 -11 69t-36 25q-15 0 -33 -13.5t-33 -28.5l-12 11q18 33 46 64.5t64 52t75 20.5z" />
<glyph unicode="&#x237;" horiz-adv-x="332" d="M138 320q4 18 7.5 36.5t3.5 28.5q0 19 -17 19q-15 0 -35 -13.5t-37 -27.5l-10 10q17 33 44 64.5t62 52t76 20.5q47 0 73 -26.5t26 -74.5q0 -17 -3.5 -40t-9.5 -49l-62 -300q-19 -92 -62.5 -154.5t-102.5 -94t-124 -31.5q-55 0 -88.5 21t-33.5 55q0 20 10.5 33.5 t26.5 20.5q30 -37 70 -37q41 0 71 37.5t47 119.5z" />
<glyph unicode="&#x259;" horiz-adv-x="512" d="M530 309q0 -64 -24 -122t-65.5 -102t-95.5 -69.5t-113 -25.5q-68 0 -115 30.5t-47 82.5q0 46 29 84.5t90.5 60t161.5 16.5q4 46 4 94q0 50 -8.5 76t-34.5 26q-22 0 -41.5 -30t-30.5 -95q-19 -8 -39.5 -14t-40.5 -6q-28 0 -43.5 12t-15.5 34q0 28 20 54.5t54 48t76.5 34 t87.5 12.5q86 0 138.5 -55t52.5 -146zM220 77q0 -37 32 -37q23 0 41.5 24.5t31.5 66.5t21 94q-37 -3 -65.5 -24.5t-44.5 -54t-16 -69.5z" />
<glyph unicode="&#x272;" horiz-adv-x="654" d="M58 373q18 32 44.5 63.5t60.5 52.5t73 21q44 0 68.5 -23.5t24.5 -61.5q0 -25 -10.5 -64t-21.5 -79l4 -1q16 34 39.5 73.5t53.5 75t66.5 58t78.5 22.5q50 0 76 -28t26 -66q0 -28 -8 -69.5t-18.5 -85.5t-19.5 -81q-4 -18 -7.5 -36.5t-3.5 -28.5q0 -19 17 -19q15 0 35.5 14 t36.5 27l10 -10q-17 -32 -44 -64t-62 -52.5t-76 -20.5q-47 0 -73 26.5t-26 74.5q0 17 3.5 40.5t9.5 48.5q9 36 18.5 71.5t16 64.5t6.5 44q0 27 -20 27q-16 0 -37.5 -21.5t-42 -54t-36.5 -68t-23 -63.5l-33 -160q-19 -93 -62.5 -155t-102.5 -93.5t-124 -31.5q-55 0 -88.5 21 t-33.5 55q0 20 10.5 33.5t26.5 20.5q30 -37 70 -37q41 0 71 37.5t47 119.5l68 330q4 18 8 37t4 26q0 21 -18 21q-15 0 -35 -13.5t-37 -27.5z" />
<glyph unicode="&#x2c6;" horiz-adv-x="459" d="M463 577l-18 -11q-29 22 -62 44.5t-66 41.5q-36 -20 -77.5 -42t-82.5 -44l-11 14q37 47 72 93t60 82l13 8h95q26 -49 46 -98t31 -88z" />
<glyph unicode="&#x2c7;" horiz-adv-x="460" d="M350 574l-13 -8h-95q-22 49 -40 98t-29 88l18 11q27 -22 57.5 -44.5t61.5 -42.5q40 20 86 42.5t93 44.5l11 -14q-42 -46 -81.5 -92.5t-68.5 -82.5z" />
<glyph unicode="&#x2d8;" horiz-adv-x="420" d="M436 754l6 2l19 -4q-21 -80 -72.5 -127.5t-115.5 -47.5q-42 0 -67 25.5t-32.5 65.5t-0.5 85l23 4q5 -33 31.5 -52.5t69.5 -19.5q49 0 86 17.5t53 51.5z" />
<glyph unicode="&#x2d9;" horiz-adv-x="329" d="M232 569q-34 0 -56.5 21t-22.5 57q0 31 17 56.5t45 41t59 15.5q34 0 56.5 -21t22.5 -56q0 -31 -17 -57t-44.5 -41.5t-59.5 -15.5z" />
<glyph unicode="&#x2da;" horiz-adv-x="600" d="M394 683q0 -32 -19 -58t-51.5 -41.5t-72.5 -15.5q-45 0 -71.5 22t-26.5 59q0 32 19 58t51.5 41t72.5 15q45 0 71.5 -21.5t26.5 -58.5zM220 650q0 -19 11 -31t30 -12q28 0 47 22t19 53q0 20 -11 31t-30 11q-28 0 -47 -21.5t-19 -52.5z" />
<glyph unicode="&#x2db;" horiz-adv-x="390" d="M262 0q-38 -22 -67.5 -57t-29.5 -70q0 -27 20 -27q9 0 23.5 12t26.5 29l10 -10q-46 -137 -150 -137q-79 0 -79 82q0 36 20 69.5t54.5 59.5t78.5 42.5t92 17.5z" />
<glyph unicode="&#x2dc;" horiz-adv-x="579" d="M241 629q-18 -12 -36.5 -28t-35.5 -30l-13 6q20 82 66.5 127.5t105.5 45.5q38 0 70 -13.5t62 -28.5t62 -19q18 12 36.5 28t35.5 30l13 -6q-20 -82 -66.5 -127.5t-105.5 -45.5q-38 0 -70 14t-62 29t-62 18z" />
<glyph unicode="&#x2dd;" horiz-adv-x="591" d="M291 763l13 6q8 -1 17 -1.5t17 -2.5q34 -8 49 -21t15 -32q0 -21 -20.5 -44.5t-56.5 -45.5t-82 -38t-97 -22l-10 16q32 30 61.5 64t54 66t39.5 55zM511 763l13 6q8 -1 17 -1.5t17 -2.5q34 -9 49 -21.5t15 -31.5q0 -21 -20.5 -44.5t-56.5 -45.5t-82 -38t-97 -22l-10 16 q32 30 61.5 64t54 66t39.5 55z" />
<glyph unicode="&#x326;" horiz-adv-x="305" d="M156 -147q0 -40 -24.5 -82t-66 -76t-92.5 -52l-10 11q48 55 68 113q-21 6 -34.5 23t-13.5 42q0 41 29.5 70t70.5 29q32 0 52.5 -22t20.5 -56z" />
<glyph unicode="&#x394;" horiz-adv-x="609" d="M592 0h-589v20l379 670h118l95 -670zM78 50h312l-53 472z" />
<glyph unicode="&#x3bc;" horiz-adv-x="670" d="M205 -215q-1 -18 -19.5 -25.5t-57 -10.5t-98.5 -9l-6 8q29 144 57 285t59 291q10 45 19 90t19 90l83 3q18 1 43.5 2t35.5 1q19 0 14 -25q-7 -33 -18 -76.5t-21.5 -90t-17.5 -90t-7 -75.5q0 -31 22 -31q20 0 46.5 33t54 92.5t48.5 138.5l-1 -4l26 122l83 3q18 1 43.5 2 t35.5 1q19 0 14 -25l-34 -161l-31 -144q-4 -18 -7.5 -36.5t-3.5 -28.5q0 -19 17 -19q15 0 35.5 14t36.5 27l10 -10q-17 -32 -44 -64t-62 -52.5t-76 -20.5q-47 0 -73 26.5t-26 74.5q0 17 3.5 40.5t9.5 48.5l3 11h-1q-27 -88 -62 -144.5t-75 -56.5q-25 0 -42.5 19.5 t-23.5 71.5h-5q2 -30 2.5 -72t-0.5 -83.5t-3 -70.5q-1 -16 -2 -33.5t-3 -36.5z" />
<glyph unicode="&#x3c0;" horiz-adv-x="604" d="M223 47q-15 -34 -36 -45.5t-59 -11.5q-31 0 -57 10l-6 8q45 88 88.5 179.5t71.5 172.5h-56q-28 0 -48 -15t-38 -45l-20 2q13 53 31.5 106t40.5 97q26 3 55 4t59 1t76.5 -1.5t98 -3.5t97.5 -3.5t74 -1.5q43 0 58 7t28 28l19 -2q-10 -43 -29 -93.5t-41 -94.5q-47 4 -91 6 q-16 -55 -28 -114t-12 -102q0 -39 27 -39q14 0 33 14t35 27l10 -10q-14 -32 -37.5 -64t-54 -52.5t-66.5 -20.5t-56 23t-20 64q0 33 9 79t23 98t30 102q-50 2 -107 3q-27 -98 -54 -182t-48 -130z" />
<glyph unicode="&#x1e0c;" horiz-adv-x="758" d="M287 0h-244l-2 20l34 21q18 11 31 22.5t17 33.5l108 496h-1l9 42l-57 35l4 20h311q85 0 150.5 -29.5t103.5 -87.5t38 -145q0 -82 -28 -158.5t-83.5 -137.5t-138 -96.5t-191.5 -35.5h-61l11 50h46q55 0 101.5 35t81 94t53.5 133t19 152q0 86 -31 131t-97 45h-46l-10 -47 l-107 -496zM302 -260q-34 0 -56.5 21t-22.5 57q0 31 17 56.5t45 41t59 15.5q34 0 56.5 -21t22.5 -56q0 -31 -17 -57t-44.5 -41.5t-59.5 -15.5z" />
<glyph unicode="&#x1e0d;" d="M561 180q-4 -18 -7.5 -36.5t-3.5 -28.5q0 -19 17 -19q15 0 35.5 14t36.5 27l10 -10q-17 -32 -44 -64t-62 -52.5t-76 -20.5q-47 0 -73 26.5t-26 74.5q0 17 3.5 40.5t9.5 48.5l3 11h-6q-22 -55 -51.5 -101t-65.5 -73t-76 -27q-54 0 -87.5 43.5t-33.5 116.5q0 68 23 132 t66.5 115.5t106 82t142.5 30.5q23 0 48 -2l28 112l11 52l-90 37v12q39 10 89.5 18.5t102 14t89.5 6.5l8 -10l-30 -130zM249 182q0 -27 6.5 -43.5t20.5 -16.5q18 0 37.5 23t38 58.5t34 75.5t25.5 75l22 87q-19 19 -49 19q-26 0 -50.5 -28t-43.5 -72t-30 -91.5t-11 -86.5z M271 -260q-34 0 -56.5 21t-22.5 57q0 31 17 56.5t45 41t59 15.5q34 0 56.5 -21t22.5 -56q0 -31 -17 -57t-44.5 -41.5t-59.5 -15.5z" />
<glyph unicode="&#x1e24;" horiz-adv-x="833" d="M299 55l57 -35l-4 -20h-309l-2 20l34 21q18 11 31 22.5t17 33.5l105 496l9 42l-57 35l4 20h309l2 -20l-34 -21q-18 -11 -30.5 -22t-17.5 -34l-46 -216h241l46 216l9 42l-57 35l4 20h309l2 -20l-34 -21q-18 -11 -30.5 -22t-17.5 -34l-105 -496l-9 -42l57 -35l-4 -20h-309 l-2 20l34 21q18 11 31 22.5t17 33.5l47 223h-241l-47 -223zM349 -260q-34 0 -56.5 21t-22.5 57q0 31 17 56.5t45 41t59 15.5q34 0 56.5 -21t22.5 -56q0 -31 -17 -57t-44.5 -41.5t-59.5 -15.5z" />
<glyph unicode="&#x1e25;" horiz-adv-x="630" d="M59 19l34 161l94 440l12 54l-71 35v12q37 10 84 18t94 13.5t83 7.5l8 -10l-30 -130q-21 -88 -44.5 -171t-49.5 -168h4q16 35 39.5 74.5t55 74.5t68.5 57.5t80 22.5q50 0 76 -28t26 -66q0 -28 -9 -69.5t-21 -85.5t-21 -81q-4 -18 -7.5 -36.5t-3.5 -28.5q0 -19 17 -19 q15 0 35.5 14t36.5 27l10 -10q-17 -32 -44 -64t-62 -52.5t-76 -20.5q-47 0 -73 26.5t-26 74.5q0 17 3.5 40.5t9.5 48.5q9 36 18.5 71.5t16 64.5t6.5 44q0 27 -20 27q-16 0 -37 -21.5t-42 -54t-37 -68t-23 -63.5l-38 -180l-83 -3q-18 -1 -43.5 -2t-35.5 -1q-19 0 -14 25z M275 -260q-34 0 -56.5 21t-22.5 57q0 31 17 56.5t45 41t59 15.5q34 0 56.5 -21t22.5 -56q0 -31 -17 -57t-44.5 -41.5t-59.5 -15.5z" />
<glyph unicode="&#x1e44;" horiz-adv-x="727" d="M659 875q0 -46 -35.5 -77.5t-85.5 -31.5q-39 0 -63.5 21t-23.5 53q1 46 36 77.5t84 31.5q39 0 63.5 -21t24.5 -53zM175 62l65 -37l-5 -25h-206l-3 25l40 20q24 12 38.5 21.5t18.5 30.5l112 531l-65 37l5 25h214l219 -472l80 375l8 35l-85 37l5 25h226l3 -25l-40 -20 q-24 -12 -38 -21.5t-19 -30.5l-126 -593h-115l-236 511l-88 -414z" />
<glyph unicode="&#x1e45;" horiz-adv-x="654" d="M433 569q-34 0 -56.5 21t-22.5 57q0 31 17 56.5t45 41t59 15.5q34 0 56.5 -21t22.5 -56q0 -31 -17 -57t-44.5 -41.5t-59.5 -15.5zM83 19l34 161q8 39 16 73t14 60q5 26 8.5 44.5t3.5 25.5q0 21 -17 21q-15 0 -35 -13.5t-37 -27.5l-10 10q18 32 44 63.5t59.5 52.5t72.5 21 q44 0 68.5 -23.5t24.5 -61.5q0 -25 -10.5 -64t-21.5 -79l4 -1q16 35 39 74.5t53.5 74.5t67 57.5t78.5 22.5q50 0 76 -28t26 -66q0 -28 -8 -69.5t-18.5 -85.5t-19.5 -81q-4 -18 -7.5 -36.5t-3.5 -28.5q0 -19 17 -19q15 0 35.5 14t36.5 27l10 -10q-17 -32 -44 -64t-62 -52.5 t-76 -20.5q-47 0 -73 26.5t-26 74.5q0 17 3.5 40.5t9.5 48.5q9 36 18.5 71.5t16 64.5t6.5 44q0 27 -20 27q-16 0 -37.5 -21.5t-42 -54t-36.5 -68t-23 -63.5l-38 -180l-83 -3q-18 -1 -43.5 -2t-35.5 -1q-19 0 -14 25z" />
<glyph unicode="&#x1e5a;" horiz-adv-x="761" d="M414 593l-55 -258h36q48 0 85.5 25.5t59 69t21.5 95.5q0 55 -26.5 82.5t-71.5 27.5h-40zM349 -260q-34 0 -56.5 21t-22.5 57q0 31 17 56.5t45 41t59 15.5q34 0 56.5 -21t22.5 -56q0 -31 -17 -57t-44.5 -41.5t-59.5 -15.5zM299 55l57 -35l-4 -20h-309l-2 20l34 21 q18 11 31 22.5t17 33.5l106 496l9 42l-57 35l4 20h305q125 0 192 -46t67 -129q0 -57 -44 -106t-106 -82l25 -77q16 -46 30.5 -89t31.5 -74.5t39 -46.5l31 -20l-6 -20l-184 -5q-37 -1 -53.5 15t-25.5 47l-65 223h-4h-71l-39 -183z" />
<glyph unicode="&#x1e5b;" horiz-adv-x="499" d="M83 19l34 161q17 78 29.5 132.5t12.5 70.5q0 21 -17 21q-15 0 -35 -13.5t-37 -27.5l-10 10q18 32 44 63.5t59.5 52.5t72.5 21q44 0 68.5 -23.5t24.5 -61.5q0 -25 -10.5 -64t-21.5 -79l4 -1q17 36 39 76t47.5 75t53 56.5t55.5 21.5q26 0 39.5 -17t13.5 -43q0 -30 -9 -61.5 t-22 -57.5t-24 -41q-17 12 -35.5 21t-42.5 9q-28 0 -52 -20.5t-41 -52.5t-26 -67l-38 -180l-83 -3q-18 -1 -43.5 -2t-35.5 -1q-19 0 -14 25zM110 -260q-34 0 -56.5 21t-22.5 57q0 31 17 56.5t45 41t59 15.5q34 0 56.5 -21t22.5 -56q0 -31 -17 -57t-44.5 -41.5t-59.5 -15.5z " />
<glyph unicode="&#x1e62;" horiz-adv-x="567" d="M273 -10q-47 0 -92.5 3.5t-78 11t-41.5 19.5q-8 13 -8 34q0 24 9 53.5t25.5 59t36.5 52.5l30 -3v-10q0 -42 6.5 -73t21.5 -54q28 -43 93 -43q47 0 80.5 29.5t33.5 81.5q0 33 -18.5 59.5t-48 50t-62 47.5t-62 51t-48 61t-18.5 77q0 49 25 87t68 63.5t96 39t108 13.5 q74 0 123.5 -12t64.5 -23q8 -6 9.5 -12.5t1.5 -17.5q0 -21 -10 -51.5t-27 -61t-38 -55.5l-29 2v13q0 35 -3 62t-11 45q-11 26 -32 43.5t-62 17.5q-46 0 -77.5 -29t-31.5 -76q0 -34 18.5 -62t48 -52.5t62 -48.5t62 -50t48 -57.5t18.5 -71.5q0 -66 -36.5 -114t-101.5 -73.5 t-153 -25.5zM211 -260q-34 0 -56.5 21t-22.5 57q0 31 17 56.5t45 41t59 15.5q34 0 56.5 -21t22.5 -56q0 -31 -17 -57t-44.5 -41.5t-59.5 -15.5z" />
<glyph unicode="&#x1e63;" horiz-adv-x="469" d="M456 149q0 -71 -58.5 -115t-172.5 -44q-49 0 -91 9.5t-67.5 29t-25.5 50.5q0 34 29.5 57t69.5 30l13 -10q3 -10 5.5 -19t5.5 -18q13 -38 29.5 -62t45.5 -24q23 0 36.5 15t13.5 37q0 28 -18.5 51t-46 45.5t-55.5 47t-46.5 55.5t-18.5 71q0 47 29.5 81.5t80.5 54t113 19.5 q90 0 133.5 -27.5t43.5 -66.5q0 -30 -25 -53t-65 -29l-12 9q-3 13 -6 25t-6 22q-10 36 -25 56.5t-41 20.5q-22 0 -36 -13.5t-14 -35.5q0 -28 18.5 -52t45.5 -47t54 -48t45.5 -55t18.5 -67zM178 -260q-34 0 -56.5 21t-22.5 57q0 31 17 56.5t45 41t59 15.5q34 0 56.5 -21 t22.5 -56q0 -31 -17 -57t-44.5 -41.5t-59.5 -15.5z" />
<glyph unicode="&#x1e6c;" horiz-adv-x="666" d="M426 55l57 -35l-4 -20h-309l-2 20l34 21q18 11 31 22.5t17 33.5l114 538h-17q-14 0 -31 -1t-33 -3q-15 -16 -34 -40t-37 -51l-60 -90h-30q-3 57 11.5 122.5t33.5 117.5h602q-3 -52 -17 -117.5t-40 -122.5h-30l-22 90q-7 27 -15.5 51t-17.5 40q-14 2 -31 3t-31 1h-16 l-114 -538zM266 -260q-34 0 -56.5 21t-22.5 57q0 31 17 56.5t45 41t59 15.5q34 0 56.5 -21t22.5 -56q0 -31 -17 -57t-44.5 -41.5t-59.5 -15.5z" />
<glyph unicode="&#x1e6d;" horiz-adv-x="411" d="M206 -10q-57 0 -85.5 35t-28.5 88q0 11 1 23t4 24l57 270h-63l2 20l266 190l19 -2l-33 -158h125l-11 -50h-125l-52 -245q-1 -8 -2.5 -16t-1.5 -15q0 -49 42 -49q29 0 58 17.5t54 38.5l10 -10q-21 -41 -54.5 -78t-79 -60t-102.5 -23zM163 -260q-34 0 -56.5 21t-22.5 57 q0 31 17 56.5t45 41t59 15.5q34 0 56.5 -21t22.5 -56q0 -31 -17 -57t-44.5 -41.5t-59.5 -15.5z" />
<glyph unicode="&#x1e80;" horiz-adv-x="1096" d="M864 796l-9 -19q-51 0 -98.5 3.5t-85.5 12t-60 25t-22 43.5q0 21 16 39t38 30.5t41 18.5l13 -2q16 -20 42.5 -46.5t59 -54t65.5 -50.5zM394 0h-115l-65 595q-3 27 -12 38.5t-27 20.5l-31 16l2 20h320l4 -20l-75 -33l44 -450l175 329l-9 79q-3 27 -12 38.5t-27 20.5 l-33 16l4 20h320l4 -20l-75 -33l43 -450l241 452l-77 31l4 20h220l4 -20l-58 -25q-18 -7 -28.5 -17.5t-21.5 -30.5l-329 -597h-115l-45 419z" />
<glyph unicode="&#x1e81;" horiz-adv-x="806" d="M560 577l-13 -15q-63 18 -112.5 42.5t-77.5 52t-28 54.5q0 32 29 44.5t66 12.5h17t17 -1l11 -8q14 -34 39 -85t52 -97zM848 408q0 -51 -28.5 -106.5t-75 -111t-101.5 -107t-108 -93.5l-115 9q1 30 2 58t1 52v38.5v34.5q-63 -122 -156 -192l-115 9q1 30 2 58t1 52 q0 119 -4.5 183t-14.5 88t-28 24q-15 0 -33 -13.5t-33 -28.5l-12 11q18 33 46 64.5t64 52t75 20.5q54 0 82 -43t28 -149q0 -103 -19 -247q40 61 64 122.5t34.5 116.5t10.5 96q0 27 -3 48t-8 37q12 7 33 13t44 6q62 0 87 -45t25 -147q0 -103 -19 -247q39 60 62 121.5 t32.5 117t9.5 96.5q0 27 -3 48t-8 37q11 7 33 13t41 6q49 0 78 -25.5t29 -76.5z" />
<glyph unicode="&#x1e82;" horiz-adv-x="1096" d="M812 946l13 2q38 -19 54 -36t16 -37q0 -46 -81.5 -72.5t-230.5 -26.5l-6 19q45 22 90 49t83 54t62 48zM394 0h-115l-65 595q-3 27 -12 38.5t-27 20.5l-31 16l2 20h320l4 -20l-75 -33l44 -450l175 329l-9 79q-3 27 -12 38.5t-27 20.5l-33 16l4 20h320l4 -20l-75 -33 l43 -450l241 452l-77 31l4 20h220l4 -20l-58 -25q-18 -7 -28.5 -17.5t-21.5 -30.5l-329 -597h-115l-45 419z" />
<glyph unicode="&#x1e83;" horiz-adv-x="806" d="M518 763l13 6q8 -1 17 -1.5t17 -2.5q44 -8 64 -21t20 -32q0 -21 -22.5 -44.5t-61 -45.5t-88 -38t-104.5 -22l-10 16q32 30 61.5 64t54 66t39.5 55zM848 408q0 -51 -28.5 -106.5t-75 -111t-101.5 -107t-108 -93.5l-115 9q1 30 2 58t1 52v38.5v34.5q-63 -122 -156 -192 l-115 9q1 30 2 58t1 52q0 119 -4.5 183t-14.5 88t-28 24q-15 0 -33 -13.5t-33 -28.5l-12 11q18 33 46 64.5t64 52t75 20.5q54 0 82 -43t28 -149q0 -103 -19 -247q40 61 64 122.5t34.5 116.5t10.5 96q0 27 -3 48t-8 37q12 7 33 13t44 6q62 0 87 -45t25 -147q0 -103 -19 -247 q39 60 62 121.5t32.5 117t9.5 96.5q0 27 -3 48t-8 37q11 7 33 13t41 6q49 0 78 -25.5t29 -76.5z" />
<glyph unicode="&#x1e84;" horiz-adv-x="1096" d="M950 870q0 -39 -29 -65.5t-71 -26.5q-37 0 -59 20.5t-22 50.5q0 38 30.5 64.5t73.5 26.5q32 0 54.5 -19t22.5 -51zM701 870q0 -39 -29 -65.5t-71 -26.5q-37 0 -59 20.5t-22 50.5q0 38 30.5 64.5t73.5 26.5q32 0 54.5 -19t22.5 -51zM394 0h-115l-65 595q-3 27 -12 38.5 t-27 20.5l-31 16l2 20h320l4 -20l-75 -33l44 -450l175 329l-9 79q-3 27 -12 38.5t-27 20.5l-33 16l4 20h320l4 -20l-75 -33l43 -450l241 452l-77 31l4 20h220l4 -20l-58 -25q-18 -7 -28.5 -17.5t-21.5 -30.5l-329 -597h-115l-45 419z" />
<glyph unicode="&#x1e85;" horiz-adv-x="806" d="M715 678q0 -41 -29 -69.5t-70 -28.5q-36 0 -58 22.5t-22 54.5q0 40 30 68.5t73 28.5q31 0 53.5 -20.5t22.5 -55.5zM474 678q0 -41 -29 -69.5t-70 -28.5q-36 0 -58 22.5t-22 54.5q0 40 30 68.5t73 28.5q31 0 53.5 -20.5t22.5 -55.5zM848 408q0 -51 -28.5 -106.5t-75 -111 t-101.5 -107t-108 -93.5l-115 9q1 30 2 58t1 52v38.5v34.5q-63 -122 -156 -192l-115 9q1 30 2 58t1 52q0 119 -4.5 183t-14.5 88t-28 24q-15 0 -33 -13.5t-33 -28.5l-12 11q18 33 46 64.5t64 52t75 20.5q54 0 82 -43t28 -149q0 -103 -19 -247q40 61 64 122.5t34.5 116.5 t10.5 96q0 27 -3 48t-8 37q12 7 33 13t44 6q62 0 87 -45t25 -147q0 -103 -19 -247q39 60 62 121.5t32.5 117t9.5 96.5q0 27 -3 48t-8 37q11 7 33 13t41 6q49 0 78 -25.5t29 -76.5z" />
<glyph unicode="&#x1e92;" horiz-adv-x="675" d="M605 0h-556l1 50l475 585h-130q-14 0 -31 -1t-33 -3l-141 -181h-30q-3 60 11.5 125.5t33.5 114.5h550l-1 -50l-475 -585h136q14 0 31 1t33 3l141 181h30q3 -52 -10 -116t-35 -124zM284 -260q-34 0 -56.5 21t-22.5 57q0 31 17 56.5t45 41t59 15.5q34 0 56.5 -21t22.5 -56 q0 -31 -17 -57t-44.5 -41.5t-59.5 -15.5z" />
<glyph unicode="&#x1e93;" horiz-adv-x="464" d="M155 15q-31 0 -59 -7t-51 -18l-31 45q80 76 154.5 147t140.5 143q-35 6 -70.5 10.5t-63.5 4.5q-31 0 -45.5 -8.5t-31.5 -41.5l-15 3q13 104 39 160.5t78 56.5q38 0 70.5 -16.5t58 -42.5t43.5 -53q23 27 44 55t41 57q23 -7 43 -24t20 -40q0 -25 -14 -43.5t-51 -47.5 l-128 -100l-128 -100q20 3 40.5 4t40.5 1q37 0 70 -2.5t56 -2.5q14 0 23.5 6.5t19.5 19.5q4 5 8.5 11t8.5 13l15 -6q-7 -30 -15.5 -66t-21.5 -68t-30.5 -53.5t-43.5 -21.5q-14 0 -41 4t-59.5 8.5t-63 8.5t-51.5 4zM172 -260q-34 0 -56.5 21t-22.5 57q0 31 17 56.5t45 41 t59 15.5q34 0 56.5 -21t22.5 -56q0 -31 -17 -57t-44.5 -41.5t-59.5 -15.5z" />
<glyph unicode="&#x1e9e;" horiz-adv-x="734" d="M759 182q0 -62 -35 -105t-96 -65t-139 -22q-48 0 -87.5 9t-47.5 25q-9 11 -9 34q0 25 9.5 54t25.5 56.5t35 46.5l30 -3q-3 -42 0.5 -80t16.5 -63q16 -29 48 -29q27 0 43 15.5t23.5 39.5t7.5 50q0 40 -20.5 73t-54 65t-73.5 68l5 37l162 163q-5 46 -28 72.5t-59 26.5 q-49 0 -87 -48.5t-54 -131.5l-93 -434l-40 -36h-225l3 25l33 15q26 11 39.5 23t17.5 34l73 343q12 56 44.5 103t80.5 82.5t107.5 55t123.5 19.5q75 0 131 -26t82 -73l-3 -33l-149 -142q41 -39 77.5 -76.5t59 -78t22.5 -89.5z" />
<glyph unicode="&#x1ea0;" horiz-adv-x="723" d="M449 690h115l74 -595q3 -27 12 -38.5t27 -20.5l31 -16l-2 -20h-320l-4 20l75 33l-17 145l-216 -3l-78 -142l75 -33l-4 -20h-210l-4 20l58 25q18 8 28.5 18t21.5 30zM251 245l184 -2l-32 278zM247 -260q-34 0 -56.5 21t-22.5 57q0 31 17 56.5t45 41t59 15.5q34 0 56.5 -21 t22.5 -56q0 -31 -17 -57t-44.5 -41.5t-59.5 -15.5z" />
<glyph unicode="&#x1ea1;" d="M561 180q-4 -18 -7.5 -36.5t-3.5 -28.5q0 -19 17 -19q15 0 35.5 14t36.5 27l10 -10q-17 -32 -44 -64t-62 -52.5t-76 -20.5q-47 0 -73 26.5t-26 74.5q0 17 3.5 40.5t9.5 48.5l3 11h-6q-22 -55 -51.5 -101t-65.5 -73t-76 -27q-54 0 -87.5 43.5t-33.5 116.5q0 68 23 132 t66.5 115.5t106 82t142.5 30.5q62 0 123 -12.5t106 -35.5l-27 -80zM249 182q0 -27 6.5 -43.5t20.5 -16.5q19 0 39.5 25t39.5 63.5t34.5 80.5t25.5 76l19 74q-20 19 -50 19q-26 0 -50.5 -28t-43.5 -72t-30 -91.5t-11 -86.5zM263 -260q-34 0 -56.5 21t-22.5 57q0 31 17 56.5 t45 41t59 15.5q34 0 56.5 -21t22.5 -56q0 -31 -17 -57t-44.5 -41.5t-59.5 -15.5z" />
<glyph unicode="&#x1eb8;" horiz-adv-x="637" d="M414 593l-48 -225l181 7l-18 -69l-174 10l-47 -219l-10 -48h98q20 0 34 1t29 4q11 11 25.5 29.5t39.5 55.5t68 101h30q3 -57 -9.5 -123t-35.5 -117h-534l-2 20l34 21q18 11 31 22.5t17 33.5l106 496l9 42l-57 35l4 20h514q0 -58 -15.5 -120.5t-41.5 -119.5h-30 q-15 64 -25 100t-16.5 55t-12.5 31q-7 2 -24.5 2.5t-37.5 0.5h-72zM271 -260q-34 0 -56.5 21t-22.5 57q0 31 17 56.5t45 41t59 15.5q34 0 56.5 -21t22.5 -56q0 -31 -17 -57t-44.5 -41.5t-59.5 -15.5z" />
<glyph unicode="&#x1eb9;" horiz-adv-x="498" d="M505 151q-39 -76 -103 -118.5t-144 -42.5q-85 0 -136 55t-51 146q0 65 24 122.5t65.5 101.5t95.5 69.5t113 25.5q46 0 82.5 -16t58 -45t21.5 -69q0 -45 -28 -83.5t-88.5 -60t-158.5 -16.5q1 -59 29 -87t72 -28q33 0 71.5 15.5t66.5 40.5zM353 460q-22 0 -42.5 -28 t-34.5 -74t-19 -100q37 2 64.5 24t43.5 56.5t16 75.5q0 46 -28 46zM190 -260q-34 0 -56.5 21t-22.5 57q0 31 17 56.5t45 41t59 15.5q34 0 56.5 -21t22.5 -56q0 -31 -17 -57t-44.5 -41.5t-59.5 -15.5z" />
<glyph unicode="&#x1ebc;" horiz-adv-x="637" d="M346 833q-18 -10 -36.5 -25t-35.5 -29l-17 8q20 77 66 119.5t105 42.5q41 0 74.5 -12.5t65.5 -26.5t66 -18q18 11 36.5 26t35.5 28l17 -8q-20 -76 -66 -119t-105 -43q-40 0 -74 13t-66 27t-66 17zM414 593l-48 -225l181 7l-18 -69l-174 10l-47 -219l-10 -48h98q20 0 34 1 t29 4q11 11 25.5 29.5t39.5 55.5t68 101h30q3 -57 -9.5 -123t-35.5 -117h-534l-2 20l34 21q18 11 31 22.5t17 33.5l106 496l9 42l-57 35l4 20h514q0 -58 -15.5 -120.5t-41.5 -119.5h-30q-15 64 -25 100t-16.5 55t-12.5 31q-7 2 -24.5 2.5t-37.5 0.5h-72z" />
<glyph unicode="&#x1ebd;" horiz-adv-x="498" d="M249 629q-18 -12 -36.5 -28t-35.5 -30l-13 6q20 82 66.5 127.5t105.5 45.5q38 0 70 -13.5t62 -28.5t62 -19q18 12 36.5 28t35.5 30l13 -6q-20 -82 -66.5 -127.5t-105.5 -45.5q-38 0 -70 14t-62 29t-62 18zM505 151q-39 -76 -103 -118.5t-144 -42.5q-85 0 -136 55t-51 146 q0 65 24 122.5t65.5 101.5t95.5 69.5t113 25.5q46 0 82.5 -16t58 -45t21.5 -69q0 -45 -28 -83.5t-88.5 -60t-158.5 -16.5q1 -59 29 -87t72 -28q33 0 71.5 15.5t66.5 40.5zM353 460q-22 0 -42.5 -28t-34.5 -74t-19 -100q37 2 64.5 24t43.5 56.5t16 75.5q0 46 -28 46z" />
<glyph unicode="&#x1eca;" horiz-adv-x="413" d="M299 55l57 -35l-4 -20h-309l-2 20l34 21q18 11 31 22.5t17 33.5l105 496l9 42l-57 35l4 20h309l2 -20l-34 -21q-18 -11 -30.5 -22t-17.5 -34l-105 -496zM136 -260q-34 0 -56.5 21t-22.5 57q0 31 17 56.5t45 41t59 15.5q34 0 56.5 -21t22.5 -56q0 -31 -17 -57t-44.5 -41.5 t-59.5 -15.5z" />
<glyph unicode="&#x1ecb;" horiz-adv-x="316" d="M268 569q-34 0 -56.5 21t-22.5 57q0 31 17 56.5t45 41t59 15.5q34 0 56.5 -21t22.5 -56q0 -31 -17 -57t-44.5 -41.5t-59.5 -15.5zM297 180q-4 -18 -7.5 -36.5t-3.5 -28.5q0 -19 17 -19q15 0 35.5 14t36.5 27l10 -10q-17 -32 -44 -64t-62 -52.5t-76 -20.5q-47 0 -73 26.5 t-26 74.5q0 17 3.5 40.5t9.5 48.5q8 35 15.5 70t14.5 70q4 18 7.5 36.5t3.5 28.5q0 19 -17 19q-15 0 -35 -13.5t-37 -27.5l-10 10q17 33 44 64.5t62 52t76 20.5q47 0 73 -26.5t26 -74.5q0 -17 -3.5 -40t-9.5 -49q-7 -35 -14.5 -70t-15.5 -70zM141 -260q-34 0 -56.5 21 t-22.5 57q0 31 17 56.5t45 41t59 15.5q34 0 56.5 -21t22.5 -56q0 -31 -17 -57t-44.5 -41.5t-59.5 -15.5z" />
<glyph unicode="&#x1ecc;" horiz-adv-x="702" d="M734 439q0 -101 -31.5 -183.5t-86 -142t-123 -91.5t-142.5 -32t-132 31t-91 89.5t-33 139.5q0 93 31.5 174.5t85.5 143.5t122.5 97t143.5 35q84 0 141 -33.5t86 -92.5t29 -135zM285 143q0 -45 17.5 -71.5t50.5 -26.5q26 0 50 26t45.5 70t39 98t30 110.5t19.5 108.5t7 91 q0 96 -65 96q-33 0 -62 -33.5t-53.5 -89t-42 -122t-27 -134t-9.5 -123.5zM278 -260q-34 0 -56.5 21t-22.5 57q0 31 17 56.5t45 41t59 15.5q34 0 56.5 -21t22.5 -56q0 -31 -17 -57t-44.5 -41.5t-59.5 -15.5z" />
<glyph unicode="&#x1ecd;" horiz-adv-x="562" d="M578 309q0 -74 -24.5 -133t-66 -100.5t-94 -63.5t-109.5 -22q-62 0 -110 23.5t-75.5 69t-27.5 109.5q0 67 24 124.5t65.5 101t94.5 67.5t111 24q101 0 156.5 -55t55.5 -145zM256 111q0 -34 7 -55t26 -21q17 0 33 27.5t29 71t22.5 93t14.5 95.5t5 76q0 68 -33 68 q-17 0 -33 -25t-29 -65.5t-22.5 -88.5t-14.5 -94.5t-5 -81.5zM216 -260q-34 0 -56.5 21t-22.5 57q0 31 17 56.5t45 41t59 15.5q34 0 56.5 -21t22.5 -56q0 -31 -17 -57t-44.5 -41.5t-59.5 -15.5z" />
<glyph unicode="&#x1ee4;" horiz-adv-x="694" d="M211 635l-57 35l4 20h309l2 -20l-34 -21q-18 -11 -30.5 -22t-17.5 -34l-72 -338q-4 -18 -5.5 -35.5t-1.5 -33.5q0 -64 28.5 -100t83.5 -36q65 0 108 49.5t65 152.5l76 351l5 25l-84 37l5 25h226l3 -25l-90 -37l-5 -25l-74 -348q-17 -83 -51 -142.5t-91 -91t-146 -31.5 q-111 0 -176.5 52t-65.5 151q0 13 1.5 31t5.5 37l70 332zM306 -260q-34 0 -56.5 21t-22.5 57q0 31 17 56.5t45 41t59 15.5q34 0 56.5 -21t22.5 -56q0 -31 -17 -57t-44.5 -41.5t-59.5 -15.5z" />
<glyph unicode="&#x1ee5;" horiz-adv-x="658" d="M147 320q4 18 7.5 36.5t3.5 28.5q0 19 -17 19q-15 0 -35 -13.5t-37 -27.5l-10 10q17 33 44 64.5t62 52t76 20.5q47 0 73 -26.5t26 -74.5q0 -17 -3.5 -40t-9.5 -49q-18 -67 -26.5 -108t-8.5 -59q0 -31 22 -31q20 0 46.5 33t54 92.5t48.5 138.5l-1 -4l26 122l83 3 q18 1 43.5 2t35.5 1q19 0 14 -25l-34 -161l-31 -144q-4 -18 -7.5 -36.5t-3.5 -28.5q0 -19 17 -19q15 0 35.5 14t36.5 27l10 -10q-17 -32 -44 -64t-62 -52.5t-76 -20.5q-47 0 -73 26.5t-26 74.5q0 17 3.5 40.5t9.5 48.5l3 11h-7q-39 -94 -91.5 -147.5t-111.5 -53.5 q-48 0 -76.5 29t-28.5 83q0 39 13.5 95t26.5 123zM285 -260q-34 0 -56.5 21t-22.5 57q0 31 17 56.5t45 41t59 15.5q34 0 56.5 -21t22.5 -56q0 -31 -17 -57t-44.5 -41.5t-59.5 -15.5z" />
<glyph unicode="&#x1ef2;" horiz-adv-x="700" d="M665 796l-9 -19q-51 0 -98.5 3.5t-85.5 12t-60 25t-22 43.5q0 21 16 39t38 30.5t41 18.5l13 -2q16 -20 42.5 -46.5t59 -54t65.5 -50.5zM424 55l57 -35l-4 -20h-309l-2 20l34 21q18 11 31 22.5t17 33.5l30 142q7 33 6 79t-8 94t-18.5 89.5t-26 67t-30.5 25.5t-35.5 -17 t-35.5 -34l-20 16q37 69 85.5 105t97.5 36q63 0 98 -45t50 -122.5t18 -175.5q49 97 97 174.5t91 123t78 45.5q27 0 44 -21t27 -53t14 -67l-22 -6q-11 17 -24.5 29t-30.5 12q-25 0 -57.5 -26.5t-67 -70.5t-66.5 -98t-56 -111t-35 -108l-18 -83z" />
<glyph unicode="&#x1ef3;" horiz-adv-x="575" d="M462 577l-13 -15q-63 18 -112.5 42.5t-77.5 52t-28 54.5q0 32 29 44.5t66 12.5h17t17 -1l11 -8q14 -34 39 -85t52 -97zM227 510q59 0 89.5 -37t30.5 -123q0 -76 -16.5 -160t-46.5 -162q59 66 91 135.5t44.5 132.5t12.5 110q0 27 -3 48t-8 37q11 7 31.5 13t42.5 6 q51 0 79 -29t28 -88q0 -122 -90.5 -235t-258.5 -203q-30 -62 -68.5 -110.5t-82.5 -76.5t-93 -28q-50 0 -81 21t-31 55q0 20 10.5 33.5t26.5 20.5q14 -17 26 -27t29 -10q24 0 46 26t42 69.5t36 94.5q17 52 29 105.5t18.5 101.5t6.5 80q0 44 -11 69t-36 25q-15 0 -33 -13.5 t-33 -28.5l-12 11q18 33 46 64.5t64 52t75 20.5z" />
<glyph unicode="&#x1ef8;" horiz-adv-x="700" d="M398 833q-18 -10 -36.5 -25t-35.5 -29l-17 8q20 77 66 119.5t105 42.5q41 0 74.5 -12.5t65.5 -26.5t66 -18q18 11 36.5 26t35.5 28l17 -8q-20 -76 -66 -119t-105 -43q-40 0 -74 13t-66 27t-66 17zM424 55l57 -35l-4 -20h-309l-2 20l34 21q18 11 31 22.5t17 33.5l30 142 q7 33 6 79t-8 94t-18.5 89.5t-26 67t-30.5 25.5t-35.5 -17t-35.5 -34l-20 16q37 69 85.5 105t97.5 36q63 0 98 -45t50 -122.5t18 -175.5q49 97 97 174.5t91 123t78 45.5q27 0 44 -21t27 -53t14 -67l-22 -6q-11 17 -24.5 29t-30.5 12q-25 0 -57.5 -26.5t-67 -70.5t-66.5 -98 t-56 -111t-35 -108l-18 -83z" />
<glyph unicode="&#x1ef9;" horiz-adv-x="575" d="M258 629q-18 -12 -36.5 -28t-35.5 -30l-13 6q20 82 66.5 127.5t105.5 45.5q38 0 70 -13.5t62 -28.5t62 -19q18 12 36.5 28t35.5 30l13 -6q-20 -82 -66.5 -127.5t-105.5 -45.5q-38 0 -70 14t-62 29t-62 18zM227 510q59 0 89.5 -37t30.5 -123q0 -76 -16.5 -160t-46.5 -162 q59 66 91 135.5t44.5 132.5t12.5 110q0 27 -3 48t-8 37q11 7 31.5 13t42.5 6q51 0 79 -29t28 -88q0 -122 -90.5 -235t-258.5 -203q-30 -62 -68.5 -110.5t-82.5 -76.5t-93 -28q-50 0 -81 21t-31 55q0 20 10.5 33.5t26.5 20.5q14 -17 26 -27t29 -10q24 0 46 26t42 69.5 t36 94.5q17 52 29 105.5t18.5 101.5t6.5 80q0 44 -11 69t-36 25q-15 0 -33 -13.5t-33 -28.5l-12 11q18 33 46 64.5t64 52t75 20.5z" />
<glyph unicode="&#x2007;" />
<glyph unicode="&#x2013;" horiz-adv-x="584" d="M65 251l12 50h535l-11 -50h-536z" />
<glyph unicode="&#x2014;" horiz-adv-x="913" d="M66 251l10 50h864l-10 -50h-864z" />
<glyph unicode="&#x2018;" horiz-adv-x="312" d="M411 760l8 -11q-89 -82 -123 -170q24 -12 36 -33.5t12 -46.5q0 -30 -16.5 -56t-44 -42t-59.5 -16q-38 0 -64.5 25t-26.5 70q0 38 22.5 79t61.5 79.5t89 70.5t105 51z" />
<glyph unicode="&#x2019;" horiz-adv-x="311" d="M120 386l-8 11q89 82 123 170q-24 12 -36 33.5t-12 46.5q0 30 16.5 56t44 42t59.5 16q38 0 64.5 -25t26.5 -70q0 -38 -22.5 -79t-61.5 -79.5t-89 -70t-105 -51.5z" />
<glyph unicode="&#x201a;" horiz-adv-x="312" d="M0 -181l-8 11q89 82 123 170q-24 12 -36 33.5t-12 46.5q0 30 16.5 56t44 42t59.5 16q38 0 64.5 -25t26.5 -70q0 -38 -22.5 -79t-61.5 -79.5t-89 -70t-105 -51.5z" />
<glyph unicode="&#x201c;" horiz-adv-x="582" d="M411 760l8 -11q-89 -82 -123 -170q24 -12 36 -33.5t12 -46.5q0 -30 -16.5 -56t-44 -42t-59.5 -16q-38 0 -64.5 25t-26.5 70q0 38 22.5 79t61.5 79.5t89 70.5t105 51zM681 760l8 -11q-89 -82 -123 -170q24 -12 36 -33.5t12 -46.5q0 -30 -16.5 -56t-44 -42t-59.5 -16 q-38 0 -64.5 25t-26.5 70q0 38 22.5 79t61.5 79.5t89 70.5t105 51z" />
<glyph unicode="&#x201d;" horiz-adv-x="581" d="M390 385l-8 11q89 82 123 170q-24 12 -36 33.5t-12 46.5q0 30 16.5 56t44 42t59.5 16q38 0 64.5 -25t26.5 -70q0 -38 -22.5 -79t-61.5 -79.5t-89 -70t-105 -51.5zM120 385l-8 11q89 82 123 170q-24 12 -36 33.5t-12 46.5q0 30 16.5 56t44 42t59.5 16q38 0 64.5 -25 t26.5 -70q0 -38 -22.5 -79t-61.5 -79.5t-89 -70t-105 -51.5z" />
<glyph unicode="&#x201e;" horiz-adv-x="581" d="M274 -160l-8 11q89 82 123 170q-24 12 -36 33.5t-12 46.5q0 30 16.5 56t44 42t59.5 16q38 0 64.5 -25t26.5 -70q0 -38 -22.5 -79t-61.5 -79.5t-89 -70t-105 -51.5zM4 -160l-8 11q89 82 123 170q-24 12 -36 33.5t-12 46.5q0 30 16.5 56t44 42t59.5 16q38 0 64.5 -25 t26.5 -70q0 -38 -22.5 -79t-61.5 -79.5t-89 -70t-105 -51.5z" />
</font>
</defs>
</svg>
